  0
SECTION
  2
HEADER
  9
$ACADVER
  1
AC1015
  9
$ACADMAINTVER
 70
    20
  9
$DWGCODEPAGE
  3
ANSI_1252
  9
$INSBASE
 10
0.0
 20
0.0
 30
0.0
  9
$EXTMIN
 10
-11.05
 20
0.0
 30
0.0
  9
$EXTMAX
 10
0.0
 20
8.500000000000001
 30
0.0
  9
$LIMMIN
 10
0.0
 20
0.0
  9
$LIMMAX
 10
12.0
 20
9.0
  9
$ORTHOMODE
 70
     0
  9
$REGENMODE
 70
     1
  9
$FILLMODE
 70
     1
  9
$QTEXTMODE
 70
     0
  9
$MIRRTEXT
 70
     1
  9
$LTSCALE
 40
0.25
  9
$ATTMODE
 70
     1
  9
$TEXTSIZE
 40
0.1
  9
$TRACEWID
 40
0.05
  9
$TEXTSTYLE
  7
ROMANS
  9
$CLAYER
  8
3
  9
$CELTYPE
  6
BYLAYER
  9
$CECOLOR
 62
   256
  9
$CELTSCALE
 40
1.0
  9
$DISPSILH
 70
     0
  9
$DIMSCALE
 40
0.75
  9
$DIMASZ
 40
0.125
  9
$DIMEXO
 40
0.0625
  9
$DIMDLI
 40
0.38
  9
$DIMRND
 40
0.0
  9
$DIMDLE
 40
0.0
  9
$DIMEXE
 40
0.0625
  9
$DIMTP
 40
0.0
  9
$DIMTM
 40
0.0
  9
$DIMTXT
 40
0.125
  9
$DIMCEN
 40
-0.125
  9
$DIMTSZ
 40
0.0
  9
$DIMTOL
 70
     0
  9
$DIMLIM
 70
     0
  9
$DIMTIH
 70
     0
  9
$DIMTOH
 70
     0
  9
$DIMSE1
 70
     0
  9
$DIMSE2
 70
     0
  9
$DIMTAD
 70
     0
  9
$DIMZIN
 70
     4
  9
$DIMBLK
  1

  9
$DIMASO
 70
     1
  9
$DIMSHO
 70
     0
  9
$DIMPOST
  1

  9
$DIMAPOST
  1

  9
$DIMALT
 70
     0
  9
$DIMALTD
 70
     2
  9
$DIMALTF
 40
25.4
  9
$DIMLFAC
 40
1.0
  9
$DIMTOFL
 70
     0
  9
$DIMTVP
 40
0.0
  9
$DIMTIX
 70
     1
  9
$DIMSOXD
 70
     0
  9
$DIMSAH
 70
     0
  9
$DIMBLK1
  1

  9
$DIMBLK2
  1

  9
$DIMSTYLE
  2
STANDARD
  9
$DIMCLRD
 70
     0
  9
$DIMCLRE
 70
     0
  9
$DIMCLRT
 70
     0
  9
$DIMTFAC
 40
1.0
  9
$DIMGAP
 40
0.09
  9
$DIMJUST
 70
     0
  9
$DIMSD1
 70
     0
  9
$DIMSD2
 70
     0
  9
$DIMTOLJ
 70
     1
  9
$DIMTZIN
 70
     4
  9
$DIMALTZ
 70
     4
  9
$DIMALTTZ
 70
     4
  9
$DIMUPT
 70
     0
  9
$DIMDEC
 70
     3
  9
$DIMTDEC
 70
     3
  9
$DIMALTU
 70
     2
  9
$DIMALTTD
 70
     2
  9
$DIMTXSTY
  7
ROMANS
  9
$DIMAUNIT
 70
     0
  9
$DIMADEC
 70
     0
  9
$DIMALTRND
 40
0.0
  9
$DIMAZIN
 70
     0
  9
$DIMDSEP
 70
    46
  9
$DIMATFIT
 70
     3
  9
$DIMFRAC
 70
     0
  9
$DIMLDRBLK
  1

  9
$DIMLUNIT
 70
     5
  9
$DIMLWD
 70
    -2
  9
$DIMLWE
 70
    -2
  9
$DIMTMOVE
 70
     2
  9
$LUNITS
 70
     2
  9
$LUPREC
 70
     3
  9
$SKETCHINC
 40
0.1
  9
$FILLETRAD
 40
0.0
  9
$AUNITS
 70
     0
  9
$AUPREC
 70
     2
  9
$MENU
  1
ACAD
  9
$ELEVATION
 40
0.0
  9
$PELEVATION
 40
0.0
  9
$THICKNESS
 40
0.0
  9
$LIMCHECK
 70
     0
  9
$CHAMFERA
 40
0.0
  9
$CHAMFERB
 40
0.0
  9
$CHAMFERC
 40
0.0
  9
$CHAMFERD
 40
0.0
  9
$SKPOLY
 70
     0
  9
$TDCREATE
 40
2447600.637667361
  9
$TDUCREATE
 40
2447600.804334028
  9
$TDUPDATE
 40
2457155.465965370
  9
$TDUUPDATE
 40
2457155.632632037
  9
$TDINDWG
 40
1.1510726505
  9
$TDUSRTIMER
 40
1.1510726273
  9
$USRTIMER
 70
     1
  9
$ANGBASE
 50
0.0
  9
$ANGDIR
 70
     0
  9
$PDMODE
 70
     0
  9
$PDSIZE
 40
0.0
  9
$PLINEWID
 40
0.0
  9
$SPLFRAME
 70
     0
  9
$SPLINETYPE
 70
     6
  9
$SPLINESEGS
 70
     8
  9
$HANDSEED
  5
3D66
  9
$SURFTAB1
 70
     6
  9
$SURFTAB2
 70
     6
  9
$SURFTYPE
 70
     6
  9
$SURFU
 70
     6
  9
$SURFV
 70
     6
  9
$UCSBASE
  2

  9
$UCSNAME
  2

  9
$UCSORG
 10
0.0
 20
0.0
 30
0.0
  9
$UCSXDIR
 10
1.0
 20
0.0
 30
0.0
  9
$UCSYDIR
 10
0.0
 20
1.0
 30
0.0
  9
$UCSORTHOREF
  2

  9
$UCSORTHOVIEW
 70
     0
  9
$UCSORGTOP
 10
0.0
 20
0.0
 30
0.0
  9
$UCSORGBOTTOM
 10
0.0
 20
0.0
 30
0.0
  9
$UCSORGLEFT
 10
0.0
 20
0.0
 30
0.0
  9
$UCSORGRIGHT
 10
0.0
 20
0.0
 30
0.0
  9
$UCSORGFRONT
 10
0.0
 20
0.0
 30
0.0
  9
$UCSORGBACK
 10
0.0
 20
0.0
 30
0.0
  9
$PUCSBASE
  2

  9
$PUCSNAME
  2

  9
$PUCSORG
 10
0.0
 20
0.0
 30
0.0
  9
$PUCSXDIR
 10
1.0
 20
0.0
 30
0.0
  9
$PUCSYDIR
 10
0.0
 20
1.0
 30
0.0
  9
$PUCSORTHOREF
  2

  9
$PUCSORTHOVIEW
 70
     0
  9
$PUCSORGTOP
 10
0.0
 20
0.0
 30
0.0
  9
$PUCSORGBOTTOM
 10
0.0
 20
0.0
 30
0.0
  9
$PUCSORGLEFT
 10
0.0
 20
0.0
 30
0.0
  9
$PUCSORGRIGHT
 10
0.0
 20
0.0
 30
0.0
  9
$PUCSORGFRONT
 10
0.0
 20
0.0
 30
0.0
  9
$PUCSORGBACK
 10
0.0
 20
0.0
 30
0.0
  9
$USERI1
 70
     0
  9
$USERI2
 70
     0
  9
$USERI3
 70
     0
  9
$USERI4
 70
     0
  9
$USERI5
 70
     0
  9
$USERR1
 40
0.0
  9
$USERR2
 40
0.0
  9
$USERR3
 40
0.0
  9
$USERR4
 40
0.0
  9
$USERR5
 40
0.0
  9
$WORLDVIEW
 70
     1
  9
$SHADEDGE
 70
     3
  9
$SHADEDIF
 70
    70
  9
$TILEMODE
 70
     1
  9
$MAXACTVP
 70
    16
  9
$PINSBASE
 10
0.0
 20
0.0
 30
0.0
  9
$PLIMCHECK
 70
     0
  9
$PEXTMIN
 10
1.000000000000000E+20
 20
1.000000000000000E+20
 30
1.000000000000000E+20
  9
$PEXTMAX
 10
-1.000000000000000E+20
 20
-1.000000000000000E+20
 30
-1.000000000000000E+20
  9
$PLIMMIN
 10
0.0
 20
0.0
  9
$PLIMMAX
 10
12.0
 20
9.0
  9
$UNITMODE
 70
     0
  9
$VISRETAIN
 70
     0
  9
$PLINEGEN
 70
     0
  9
$PSLTSCALE
 70
     0
  9
$TREEDEPTH
 70
  3020
  9
$CMLSTYLE
  2
STANDARD
  9
$CMLJUST
 70
     0
  9
$CMLSCALE
 40
1.0
  9
$PROXYGRAPHICS
 70
     1
  9
$MEASUREMENT
 70
     0
  9
$CELWEIGHT
370
    -1
  9
$ENDCAPS
280
     0
  9
$JOINSTYLE
280
     0
  9
$LWDISPLAY
290
     0
  9
$INSUNITS
 70
     0
  9
$HYPERLINKBASE
  1

  9
$STYLESHEET
  1
1500BLACK.CTB
  9
$XEDIT
290
     1
  9
$CEPSNTYPE
380
     0
  9
$PSTYLEMODE
290
     1
  9
$FINGERPRINTGUID
  2
{B89F3AC8-AD59-4161-8A5E-2A3EC17760CA}
  9
$VERSIONGUID
  2
{49C77B7F-A3DD-438B-AC43-F69039E13CFC}
  9
$EXTNAMES
290
     1
  9
$PSVPSCALE
 40
0.0
  9
$OLESTARTUP
290
     0
  0
ENDSEC
  0
SECTION
  2
CLASSES
  0
CLASS
  1
DICTIONARYVAR
  2
AcDbDictionaryVar
  3
ObjectDBX Classes
 90
        0
280
     0
281
     0
  0
CLASS
  1
ACDBDICTIONARYWDFLT
  2
AcDbDictionaryWithDefault
  3
ObjectDBX Classes
 90
        0
280
     0
281
     0
  0
CLASS
  1
MATERIAL
  2
AcDbMaterial
  3
ObjectDBX Classes
 90
     1153
280
     0
281
     0
  0
CLASS
  1
VISUALSTYLE
  2
AcDbVisualStyle
  3
ObjectDBX Classes
 90
     4095
280
     0
281
     0
  0
CLASS
  1
TABLESTYLE
  2
AcDbTableStyle
  3
ObjectDBX Classes
 90
     4095
280
     0
281
     0
  0
CLASS
  1
SCALE
  2
AcDbScale
  3
ObjectDBX Classes
 90
     1153
280
     0
281
     0
  0
CLASS
  1
MLEADERSTYLE
  2
AcDbMLeaderStyle
  3
ACDB_MLEADERSTYLE_CLASS
 90
     4095
280
     0
281
     0
  0
CLASS
  1
ACDBSECTIONVIEWSTYLE
  2
AcDbSectionViewStyle
  3
ObjectDBX Classes
 90
     1025
280
     0
281
     0
  0
CLASS
  1
ACDBDETAILVIEWSTYLE
  2
AcDbDetailViewStyle
  3
ObjectDBX Classes
 90
     1025
280
     0
281
     0
  0
CLASS
  1
CELLSTYLEMAP
  2
AcDbCellStyleMap
  3
ObjectDBX Classes
 90
     1152
280
     0
281
     0
  0
CLASS
  1
ACDBPLACEHOLDER
  2
AcDbPlaceHolder
  3
ObjectDBX Classes
 90
        0
280
     0
281
     0
  0
CLASS
  1
LAYOUT
  2
AcDbLayout
  3
ObjectDBX Classes
 90
        0
280
     0
281
     0
  0
ENDSEC
  0
SECTION
  2
TABLES
  0
TABLE
  2
VPORT
  5
8
102
{ACAD_XDICTIONARY
360
3C69
102
}
330
0
100
AcDbSymbolTable
 70
     1
  0
VPORT
  5
3BCD
330
8
100
AcDbSymbolTableRecord
100
AcDbViewportTableRecord
  2
*Active
 70
     0
 10
0.0
 20
0.0
 11
1.0
 21
1.0
 12
-5.524380810292809
 22
4.56337085616281
 13
0.0
 23
0.0
 14
1.0
 24
1.0
 15
0.0
 25
0.0
 16
0.0
 26
0.0
 36
1.0
 17
0.0
 27
0.0
 37
0.0
 40
8.874501912208099
 41
2.080545229244113
 42
50.0
 43
0.0
 44
0.0
 50
0.0
 51
0.0
 71
     0
 72
   250
 73
     1
 74
     0
 75
     0
 76
     0
 77
     0
 78
     0
281
     0
 65
     1
110
0.0
120
0.0
130
0.0
111
1.0
121
0.0
131
0.0
112
0.0
122
1.0
132
0.0
 79
     0
146
0.0
1001
ACAD_NAV_VCDISPLAY
1070
     3
  0
ENDTAB
  0
TABLE
  2
LTYPE
  5
5
330
0
100
AcDbSymbolTable
 70
     3
  0
LTYPE
  5
11
330
5
100
AcDbSymbolTableRecord
100
AcDbLinetypeTableRecord
  2
BYBLOCK
 70
     0
  3

 72
    65
 73
     0
 40
0.0
  0
LTYPE
  5
12
330
5
100
AcDbSymbolTableRecord
100
AcDbLinetypeTableRecord
  2
BYLAYER
 70
     0
  3

 72
    65
 73
     0
 40
0.0
  0
LTYPE
  5
13
330
5
100
AcDbSymbolTableRecord
100
AcDbLinetypeTableRecord
  2
CONTINUOUS
 70
     0
  3
Solid line
 72
    65
 73
     0
 40
0.0
  0
LTYPE
  5
37
330
5
100
AcDbSymbolTableRecord
100
AcDbLinetypeTableRecord
  2
HIDDEN
 70
     0
  3

 72
    65
 73
     2
 40
0.25
 49
0.125
 74
     0
 49
-0.125
 74
     0
  0
LTYPE
  5
38
330
5
100
AcDbSymbolTableRecord
100
AcDbLinetypeTableRecord
  2
CENTER
 70
     0
  3

 72
    65
 73
     4
 40
1.125
 49
0.75
 74
     0
 49
-0.125
 74
     0
 49
0.125
 74
     0
 49
-0.125
 74
     0
  0
ENDTAB
  0
TABLE
  2
LAYER
  5
2
102
{ACAD_XDICTIONARY
360
3C57
102
}
330
0
100
AcDbSymbolTable
 70
     9
  0
LAYER
  5
E
102
{ACAD_XDICTIONARY
360
3C44
102
}
330
2
100
AcDbSymbolTableRecord
100
AcDbLayerTableRecord
  2
0
 70
     0
 62
     7
  6
CONTINUOUS
370
    -3
390
2C66
  0
LAYER
  5
3B
102
{ACAD_XDICTIONARY
360
3C46
102
}
330
2
100
AcDbSymbolTableRecord
100
AcDbLayerTableRecord
  2
2
 70
     0
 62
     2
  6
CONTINUOUS
370
    -3
390
2C66
  0
LAYER
  5
3C
102
{ACAD_XDICTIONARY
360
3C48
102
}
330
2
100
AcDbSymbolTableRecord
100
AcDbLayerTableRecord
  2
3
 70
     0
 62
     3
  6
CONTINUOUS
370
    -3
390
2C66
  0
LAYER
  5
3D
102
{ACAD_XDICTIONARY
360
3C4A
102
}
330
2
100
AcDbSymbolTableRecord
100
AcDbLayerTableRecord
  2
4
 70
     0
 62
     4
  6
CONTINUOUS
370
    -3
390
2C66
  0
LAYER
  5
3E
330
2
100
AcDbSymbolTableRecord
100
AcDbLayerTableRecord
  2
DEFPOINTS
 70
     0
 62
     7
  6
CONTINUOUS
290
     0
370
    -3
390
2C66
  0
LAYER
  5
2CA2
102
{ACAD_XDICTIONARY
360
3C4C
102
}
330
2
100
AcDbSymbolTableRecord
100
AcDbLayerTableRecord
  2
RING
 70
     0
 62
     6
  6
CONTINUOUS
370
    -3
390
2C66
  0
LAYER
  5
2CA3
102
{ACAD_XDICTIONARY
360
3C4E
102
}
330
2
100
AcDbSymbolTableRecord
100
AcDbLayerTableRecord
  2
POUCH
 70
     0
 62
     5
  6
CONTINUOUS
370
    -3
390
2C66
  0
LAYER
  5
2CA4
102
{ACAD_XDICTIONARY
360
3C50
102
}
330
2
100
AcDbSymbolTableRecord
100
AcDbLayerTableRecord
  2
WASHER
 70
     0
 62
     1
  6
CONTINUOUS
370
    -3
390
2C66
  0
LAYER
  5
2CA6
102
{ACAD_XDICTIONARY
360
3C52
102
}
330
2
100
AcDbSymbolTableRecord
100
AcDbLayerTableRecord
  2
VALVES
 70
     0
 62
     7
  6
CONTINUOUS
370
    -3
390
2C66
  0
ENDTAB
  0
TABLE
  2
STYLE
  5
3
330
0
100
AcDbSymbolTable
 70
     4
  0
STYLE
  5
F
330
3
100
AcDbSymbolTableRecord
100
AcDbTextStyleTableRecord
  2
STANDARD
 70
     0
 40
0.0
 41
1.0
 50
0.0
 71
     0
 42
0.2
  3
txt
  4

  0
STYLE
  5
32
330
3
100
AcDbSymbolTableRecord
100
AcDbTextStyleTableRecord
  2
SIMPLEX
 70
     0
 40
0.0
 41
1.0
 50
0.0
 71
     0
 42
0.078
  3
SIMPLEX
  4

  0
STYLE
  5
35
330
3
100
AcDbSymbolTableRecord
100
AcDbTextStyleTableRecord
  2
ROMANS
 70
     0
 40
0.0
 41
1.0
 50
0.0
 71
     0
 42
0.1
  3
romans
  4

  0
STYLE
  5
36
330
3
100
AcDbSymbolTableRecord
100
AcDbTextStyleTableRecord
  2
T
 70
     0
 40
0.0
 41
1.0
 50
0.0
 71
     0
 42
1.0
  3
ROMI____.PFB
  4

  0
ENDTAB
  0
TABLE
  2
VIEW
  5
6
330
0
100
AcDbSymbolTable
 70
     0
  0
ENDTAB
  0
TABLE
  2
UCS
  5
7
330
0
100
AcDbSymbolTable
 70
     0
  0
ENDTAB
  0
TABLE
  2
APPID
  5
9
330
0
100
AcDbSymbolTable
 70
     4
  0
APPID
  5
10
330
9
100
AcDbSymbolTableRecord
100
AcDbRegAppTableRecord
  2
ACAD
 70
     0
  0
APPID
  5
3C21
330
9
100
AcDbSymbolTableRecord
100
AcDbRegAppTableRecord
  2
ACAD_EXEMPT_FROM_CAD_STANDARDS
 70
     0
  0
APPID
  5
3C5D
330
9
100
AcDbSymbolTableRecord
100
AcDbRegAppTableRecord
  2
ACAD_NAV_VCDISPLAY
 70
     0
  0
APPID
  5
3CA1
330
9
100
AcDbSymbolTableRecord
100
AcDbRegAppTableRecord
  2
ACAD_MLEADERVER
 70
     0
  0
ENDTAB
  0
TABLE
  2
DIMSTYLE
  5
A
330
0
100
AcDbSymbolTable
 70
     1
100
AcDbDimStyleTable
 71
     1
340
1009
  0
DIMSTYLE
105
1009
102
{ACAD_REACTORS
330
3BB2
330
3C28
330
3C36
102
}
330
A
100
AcDbSymbolTableRecord
100
AcDbDimStyleTableRecord
  2
STANDARD
 70
     0
340
F
  0
ENDTAB
  0
TABLE
  2
BLOCK_RECORD
  5
1
330
0
100
AcDbSymbolTable
 70
     3
  0
BLOCK_RECORD
  5
17
330
1
100
AcDbSymbolTableRecord
100
AcDbBlockTableRecord
  2
*MODEL_SPACE
340
2C69
  0
BLOCK_RECORD
  5
14
330
1
100
AcDbSymbolTableRecord
100
AcDbBlockTableRecord
  2
*PAPER_SPACE
340
2C6A
  0
BLOCK_RECORD
  5
3BB3
330
1
100
AcDbSymbolTableRecord
100
AcDbBlockTableRecord
  2
*D0
340
0
  0
BLOCK_RECORD
  5
3C29
330
1
100
AcDbSymbolTableRecord
100
AcDbBlockTableRecord
  2
*D1
340
0
  0
BLOCK_RECORD
  5
3C37
330
1
100
AcDbSymbolTableRecord
100
AcDbBlockTableRecord
  2
*D2
340
0
  0
ENDTAB
  0
ENDSEC
  0
SECTION
  2
BLOCKS
  0
BLOCK
  5
42
330
17
100
AcDbEntity
  8
0
100
AcDbBlockBegin
  2
*MODEL_SPACE
 70
     0
 10
0.0
 20
0.0
 30
0.0
  3
*MODEL_SPACE
  1

  0
ENDBLK
  5
43
330
17
100
AcDbEntity
  8
0
100
AcDbBlockEnd
  0
BLOCK
  5
40
330
14
100
AcDbEntity
 67
     1
  8
0
100
AcDbBlockBegin
  2
*PAPER_SPACE
 70
     0
 10
0.0
 20
0.0
 30
0.0
  3
*PAPER_SPACE
  1

  0
ENDBLK
  5
41
330
14
100
AcDbEntity
 67
     1
  8
0
100
AcDbBlockEnd
  0
BLOCK
  5
3BBE
330
3BB3
100
AcDbEntity
  8
0
100
AcDbBlockBegin
  2
*D0
 70
     1
 10
0.0
 20
0.0
 30
0.0
  3
*D0
  1

  0
LINE
  5
3BC0
330
3BB3
100
AcDbEntity
  8
3
 62
     0
370
    -2
100
AcDbLine
 10
-6.223876669733042
 20
6.145553440776151
 30
0.0
 11
-6.223876669733042
 21
6.679776616941455
 31
0.0
  0
LINE
  5
3BC1
330
3BB3
100
AcDbEntity
  8
3
 62
     0
370
    -2
100
AcDbLine
 10
-4.723876669733042
 20
6.145553440776151
 30
0.0
 11
-4.723876669733042
 21
6.679776616941455
 31
0.0
  0
LINE
  5
3BC2
330
3BB3
100
AcDbEntity
  8
3
 62
     0
370
    -2
100
AcDbLine
 10
-6.130126669733042
 20
6.632901616941455
 30
0.0
 11
-5.603876669733042
 21
6.632901616941455
 31
0.0
  0
LINE
  5
3BC3
330
3BB3
100
AcDbEntity
  8
3
 62
     0
370
    -2
100
AcDbLine
 10
-4.817626669733042
 20
6.632901616941455
 30
0.0
 11
-5.343876669733043
 21
6.632901616941455
 31
0.0
  0
SOLID
  5
3BC4
330
3BB3
100
AcDbEntity
  8
3
 62
     0
100
AcDbTrace
 10
-6.130126669733042
 20
6.648526616941455
 30
0.0
 11
-6.130126669733042
 21
6.617276616941455
 31
0.0
 12
-6.223876669733042
 22
6.632901616941455
 32
0.0
 13
-6.223876669733042
 23
6.632901616941455
 33
0.0
  0
SOLID
  5
3BC5
330
3BB3
100
AcDbEntity
  8
3
 62
     0
100
AcDbTrace
 10
-4.817626669733042
 20
6.648526616941455
 30
0.0
 11
-4.817626669733042
 21
6.617276616941455
 31
0.0
 12
-4.723876669733042
 22
6.632901616941455
 32
0.0
 13
-4.723876669733042
 23
6.632901616941455
 33
0.0
  0
MTEXT
  5
3BC6
330
3BB3
100
AcDbEntity
  8
3
 62
     0
100
AcDbMText
 10
-5.473876669733042
 20
6.632901616941455
 30
0.0
 40
0.09375
 41
0.0
 71
     5
 72
     1
  1
\A1;1{\H1.000000x;\S1/2;}
  7
ROMANS
 73
     1
 44
1.0
1001
ACAD
1000
MTEXTBEGIN
1070
    73
1070
     1
1070
    44
1040
1.0
1070
    74
1070
     0
1000
MTEXTEND
  0
POINT
  5
3BC7
330
3BB3
100
AcDbEntity
  8
DEFPOINTS
 62
     0
100
AcDbPoint
 10
-6.223876669733042
 20
6.098678440776151
 30
0.0
  0
POINT
  5
3BC8
330
3BB3
100
AcDbEntity
  8
DEFPOINTS
 62
     0
100
AcDbPoint
 10
-4.723876669733042
 20
6.098678440776151
 30
0.0
  0
POINT
  5
3BC9
330
3BB3
100
AcDbEntity
  8
DEFPOINTS
 62
     0
100
AcDbPoint
 10
-4.723876669733042
 20
6.632901616941455
 30
0.0
  0
ENDBLK
  5
3BBF
330
3BB3
100
AcDbEntity
  8
0
100
AcDbBlockEnd
  0
BLOCK
  5
3C2A
330
3C29
100
AcDbEntity
  8
0
100
AcDbBlockBegin
  2
*D1
 70
     1
 10
0.0
 20
0.0
 30
0.0
  3
*D1
  1

  0
LINE
  5
3C2C
330
3C29
100
AcDbEntity
  8
3
 62
     0
370
    -2
100
AcDbLine
 10
-3.205568982812748
 20
3.920713029022126
 30
0.0
 11
-2.413986235077274
 21
3.920713029022126
 31
0.0
  0
LINE
  5
3C2D
330
3C29
100
AcDbEntity
  8
3
 62
     0
370
    -2
100
AcDbLine
 10
-3.143068982812748
 20
4.795213029022137
 30
0.0
 11
-2.413986235077274
 21
4.795213029022137
 31
0.0
  0
LINE
  5
3C2E
330
3C29
100
AcDbEntity
  8
3
 62
     0
370
    -2
100
AcDbLine
 10
-2.460861235077274
 20
4.014463029022127
 30
0.0
 11
-2.460861235077274
 21
4.259213029022133
 31
0.0
  0
LINE
  5
3C2F
330
3C29
100
AcDbEntity
  8
3
 62
     0
370
    -2
100
AcDbLine
 10
-2.460861235077274
 20
4.701463029022137
 30
0.0
 11
-2.460861235077274
 21
4.456713029022131
 31
0.0
  0
SOLID
  5
3C30
330
3C29
100
AcDbEntity
  8
3
 62
     0
100
AcDbTrace
 10
-2.476486235077274
 20
4.014463029022127
 30
0.0
 11
-2.445236235077274
 21
4.014463029022127
 31
0.0
 12
-2.460861235077274
 22
3.920713029022126
 32
0.0
 13
-2.460861235077274
 23
3.920713029022126
 33
0.0
  0
SOLID
  5
3C31
330
3C29
100
AcDbEntity
  8
3
 62
     0
100
AcDbTrace
 10
-2.476486235077274
 20
4.701463029022137
 30
0.0
 11
-2.445236235077274
 21
4.701463029022137
 31
0.0
 12
-2.460861235077274
 22
4.795213029022137
 32
0.0
 13
-2.460861235077274
 23
4.795213029022137
 33
0.0
  0
MTEXT
  5
3C32
330
3C29
100
AcDbEntity
  8
3
 62
     0
100
AcDbMText
 10
-2.460861235077274
 20
4.357963029022131
 30
0.0
 40
0.09375
 41
0.0
 71
     5
 72
     1
  1
\A1;{\H1.000000x;\S7/8;}
  7
ROMANS
 11
0.0000000000000001
 21
1.0
 31
0.0
 73
     1
 44
1.0
1001
ACAD
1000
MTEXTBEGIN
1070
    73
1070
     1
1070
    44
1040
1.0
1070
    74
1070
     0
1000
MTEXTEND
  0
POINT
  5
3C33
330
3C29
100
AcDbEntity
  8
DEFPOINTS
 62
     0
100
AcDbPoint
 10
-3.252443982812748
 20
3.920713029022126
 30
0.0
  0
POINT
  5
3C34
330
3C29
100
AcDbEntity
  8
DEFPOINTS
 62
     0
100
AcDbPoint
 10
-3.189943982812748
 20
4.795213029022137
 30
0.0
  0
POINT
  5
3C35
330
3C29
100
AcDbEntity
  8
DEFPOINTS
 62
     0
100
AcDbPoint
 10
-2.460861235077274
 20
4.795213029022137
 30
0.0
  0
ENDBLK
  5
3C2B
330
3C29
100
AcDbEntity
  8
0
100
AcDbBlockEnd
  0
BLOCK
  5
3C38
330
3C37
100
AcDbEntity
  8
0
100
AcDbBlockBegin
  2
*D2
 70
     1
 10
0.0
 20
0.0
 30
0.0
  3
*D2
  1

  0
LINE
  5
3C3A
330
3C37
100
AcDbEntity
  8
3
 62
     0
370
    -2
100
AcDbLine
 10
-3.189943982812748
 20
3.936338029022126
 30
0.0
 11
-3.189943982812748
 21
2.725908954145506
 31
0.0
  0
LINE
  5
3C3B
330
3C37
100
AcDbEntity
  8
3
 62
     0
370
    -2
100
AcDbLine
 10
-6.908943982812742
 20
4.467338029022124
 30
0.0
 11
-6.908943982812742
 21
2.725908954145506
 31
0.0
  0
LINE
  5
3C3C
330
3C37
100
AcDbEntity
  8
3
 62
     0
370
    -2
100
AcDbLine
 10
-3.283693982812748
 20
2.772783954145506
 30
0.0
 11
-4.910515411384174
 21
2.772783954145506
 31
0.0
  0
LINE
  5
3C3D
330
3C37
100
AcDbEntity
  8
3
 62
     0
370
    -2
100
AcDbLine
 10
-6.815193982812742
 20
2.772783954145506
 30
0.0
 11
-5.188372554241316
 21
2.772783954145506
 31
0.0
  0
SOLID
  5
3C3E
330
3C37
100
AcDbEntity
  8
3
 62
     0
100
AcDbTrace
 10
-3.283693982812748
 20
2.788408954145506
 30
0.0
 11
-3.283693982812748
 21
2.757158954145506
 31
0.0
 12
-3.189943982812748
 22
2.772783954145506
 32
0.0
 13
-3.189943982812748
 23
2.772783954145506
 33
0.0
  0
SOLID
  5
3C3F
330
3C37
100
AcDbEntity
  8
3
 62
     0
100
AcDbTrace
 10
-6.815193982812742
 20
2.788408954145506
 30
0.0
 11
-6.815193982812742
 21
2.757158954145506
 31
0.0
 12
-6.908943982812742
 22
2.772783954145506
 32
0.0
 13
-6.908943982812742
 23
2.772783954145506
 33
0.0
  0
MTEXT
  5
3C40
330
3C37
100
AcDbEntity
  8
3
 62
     0
100
AcDbMText
 10
-5.049443982812745
 20
2.772783954145506
 30
0.0
 40
0.09375
 41
0.0
 71
     5
 72
     1
  1
\A1;3{\H1.000000x;\S3/4;}
  7
ROMANS
 73
     1
 44
1.0
1001
ACAD
1000
MTEXTBEGIN
1070
    73
1070
     1
1070
    44
1040
1.0
1070
    74
1070
     0
1000
MTEXTEND
  0
POINT
  5
3C41
330
3C37
100
AcDbEntity
  8
DEFPOINTS
 62
     0
100
AcDbPoint
 10
-3.189943982812748
 20
3.983213029022126
 30
0.0
  0
POINT
  5
3C42
330
3C37
100
AcDbEntity
  8
DEFPOINTS
 62
     0
100
AcDbPoint
 10
-6.908943982812742
 20
4.514213029022124
 30
0.0
  0
POINT
  5
3C43
330
3C37
100
AcDbEntity
  8
DEFPOINTS
 62
     0
100
AcDbPoint
 10
-6.908943982812742
 20
2.772783954145506
 30
0.0
  0
ENDBLK
  5
3C39
330
3C37
100
AcDbEntity
  8
0
100
AcDbBlockEnd
  0
ENDSEC
  0
SECTION
  2
ENTITIES
  0
TEXT
  5
519
330
17
100
AcDbEntity
  8
3
100
AcDbText
 10
2.020802070764621
 20
4.639598618537974
 30
0.0
 40
0.09375
  1
 
  7
ROMANS
 72
     2
 11
2.114552070764621
 21
4.686473618537974
 31
0.0
100
AcDbText
 73
     2
  0
TEXT
  5
1012
330
17
100
AcDbEntity
  8
3
100
AcDbText
 10
3.557783161228106
 20
-2.299036506998517
 30
0.0
 40
0.05859375
  1
 
  7
SIMPLEX
 72
     1
 11
3.584289857656678
 21
-2.299036506998517
 31
0.0
100
AcDbText
  0
TEXT
  5
1013
330
17
100
AcDbEntity
  8
3
100
AcDbText
 10
3.557783161228106
 20
-2.174036506998517
 30
0.0
 40
0.05859375
  1
 
  7
SIMPLEX
 72
     1
 11
3.584289857656678
 21
-2.174036506998517
 31
0.0
100
AcDbText
  0
TEXT
  5
1018
330
17
100
AcDbEntity
  8
3
100
AcDbText
 10
17.93683479599455
 20
4.709971164088733
 30
0.0
 40
0.094
  1
 
  7
ROMANS
 72
     1
 11
17.98383479599455
 21
4.709971164088733
 31
0.0
100
AcDbText
  0
TEXT
  5
1019
330
17
100
AcDbEntity
  8
3
100
AcDbText
 10
16.76485869518097
 20
4.459971164088733
 30
0.0
 40
0.094
  1
 
  7
ROMANS
 72
     1
 11
16.81185869518097
 21
4.459971164088733
 31
0.0
100
AcDbText
  0
TEXT
  5
101A
330
17
100
AcDbEntity
  8
3
100
AcDbText
 10
17.93683479599455
 20
4.209971164088734
 30
0.0
 40
0.094
  1
 
  7
ROMANS
 72
     1
 11
17.98383479599455
 21
4.209971164088734
 31
0.0
100
AcDbText
  0
MTEXT
  5
101C
330
17
100
AcDbEntity
  8
3
100
AcDbMText
 10
6.122859594481388
 20
5.912561295266968
 30
0.0
 40
0.125
 41
0.25
 71
     1
 72
     5
  1

  7
ROMANS
 73
     1
 44
1.0
1001
ACAD
1000
MTEXTBEGIN
1070
    73
1070
     1
1070
    44
1040
1.0
1070
    74
1070
     0
1000
MTEXTEND
  0
TEXT
  5
10E3
330
17
100
AcDbEntity
  8
3
100
AcDbText
 10
21.71608275040205
 20
6.51592940697165
 30
0.0
 40
0.05859375
  1
 
  7
SIMPLEX
 72
     1
 11
21.74258944683062
 21
6.51592940697165
 31
0.0
100
AcDbText
  0
TEXT
  5
10E4
330
17
100
AcDbEntity
  8
3
100
AcDbText
 10
21.71608275040205
 20
6.64092940697165
 30
0.0
 40
0.05859375
  1
 
  7
SIMPLEX
 72
     1
 11
21.74258944683062
 21
6.64092940697165
 31
0.0
100
AcDbText
  0
TEXT
  5
10E9
330
17
100
AcDbEntity
  8
3
100
AcDbText
 10
36.0951343851685
 20
13.5249370780589
 30
0.0
 40
0.094
  1
 
  7
ROMANS
 72
     1
 11
36.1421343851685
 21
13.5249370780589
 31
0.0
100
AcDbText
  0
TEXT
  5
10EA
330
17
100
AcDbEntity
  8
3
100
AcDbText
 10
34.92315828435493
 20
13.2749370780589
 30
0.0
 40
0.094
  1
 
  7
ROMANS
 72
     1
 11
34.97015828435492
 21
13.2749370780589
 31
0.0
100
AcDbText
  0
TEXT
  5
10EB
330
17
100
AcDbEntity
  8
3
100
AcDbText
 10
36.0951343851685
 20
13.0249370780589
 30
0.0
 40
0.094
  1
 
  7
ROMANS
 72
     1
 11
36.1421343851685
 21
13.0249370780589
 31
0.0
100
AcDbText
  0
MTEXT
  5
10ED
330
17
100
AcDbEntity
  8
3
100
AcDbMText
 10
24.28115918365533
 20
14.72752720923714
 30
0.0
 40
0.125
 41
0.25
 71
     1
 72
     5
  1

  7
ROMANS
 73
     1
 44
1.0
1001
ACAD
1000
MTEXTBEGIN
1070
    73
1070
     1
1070
    44
1040
1.0
1070
    74
1070
     0
1000
MTEXTEND
  0
TEXT
  5
11F7
330
17
100
AcDbEntity
  8
3
100
AcDbText
 10
22.27358789541785
 20
4.23332551786675
 30
0.0
 40
0.05859375
  1
 
  7
SIMPLEX
 72
     1
 11
22.30009459184643
 21
4.23332551786675
 31
0.0
100
AcDbText
  0
TEXT
  5
11F8
330
17
100
AcDbEntity
  8
3
100
AcDbText
 10
22.27358789541785
 20
4.35832551786675
 30
0.0
 40
0.05859375
  1
 
  7
SIMPLEX
 72
     1
 11
22.30009459184643
 21
4.35832551786675
 31
0.0
100
AcDbText
  0
TEXT
  5
1398
330
17
100
AcDbEntity
  8
3
100
AcDbText
 10
36.6526395301843
 20
11.242333188954
 30
0.0
 40
0.094
  1
 
  7
ROMANS
 72
     1
 11
36.6996395301843
 21
11.242333188954
 31
0.0
100
AcDbText
  0
TEXT
  5
139C
330
17
100
AcDbEntity
  8
3
100
AcDbText
 10
35.48066342937072
 20
10.992333188954
 30
0.0
 40
0.094
  1
 
  7
ROMANS
 72
     1
 11
35.52766342937071
 21
10.992333188954
 31
0.0
100
AcDbText
  0
TEXT
  5
13A2
330
17
100
AcDbEntity
  8
3
100
AcDbText
 10
36.6526395301843
 20
10.742333188954
 30
0.0
 40
0.094
  1
 
  7
ROMANS
 72
     1
 11
36.6996395301843
 21
10.742333188954
 31
0.0
100
AcDbText
  0
MTEXT
  5
1427
330
17
100
AcDbEntity
  8
3
100
AcDbMText
 10
24.83866432867114
 20
12.44492332013223
 30
0.0
 40
0.125
 41
0.25
 71
     1
 72
     5
  1

  7
ROMANS
 73
     1
 44
1.0
1001
ACAD
1000
MTEXTBEGIN
1070
    73
1070
     1
1070
    44
1040
1.0
1070
    74
1070
     0
1000
MTEXTEND
  0
MTEXT
  5
2BC4
330
17
100
AcDbEntity
  8
3
100
AcDbMText
 10
6.565331104776172
 20
1.302952355104014
 30
0.0
 40
0.09375
 41
0.0
 71
     6
 72
     1
  1
\A1;
  7
ROMANS
 73
     1
 44
1.0
1001
ACAD
1000
MTEXTBEGIN
1070
    73
1070
     1
1070
    44
1040
1.0
1070
    74
1070
     0
1000
MTEXTEND
  0
LINE
  5
36D1
102
{ACAD_REACTORS
330
3BA6
102
}
330
17
100
AcDbEntity
  8
0
100
AcDbLine
 10
-4.251943982812747
 20
4.514213029022131
 30
0.0
 11
-4.251943982812747
 21
4.077213029022136
 31
0.0
  0
LINE
  5
36D2
102
{ACAD_REACTORS
330
3BA6
102
}
330
17
100
AcDbEntity
  8
0
100
AcDbLine
 10
-3.189943982812748
 20
4.795213029022137
 30
0.0
 11
-3.189943982812748
 21
3.983213029022126
 31
0.0
  0
LINE
  5
36D3
102
{ACAD_REACTORS
330
3BA6
102
}
330
17
100
AcDbEntity
  8
0
100
AcDbLine
 10
-3.313943982812745
 20
4.265213029022131
 30
0.0
 11
-3.909943982812747
 21
4.302284799357063
 31
0.0
  0
LINE
  5
36D4
102
{ACAD_REACTORS
330
3BA6
102
}
330
17
100
AcDbEntity
  8
0
100
AcDbLine
 10
-3.909943982812747
 20
4.31021302902214
 30
0.0
 11
-3.909943982812747
 21
4.077213029022129
 31
0.0
  0
LINE
  5
36D5
102
{ACAD_REACTORS
330
3BA6
102
}
330
17
100
AcDbEntity
  8
0
100
AcDbLine
 10
-3.344943982812748
 20
4.30421302902214
 30
0.0
 11
-3.313943982812745
 21
4.265213029022131
 31
0.0
  0
LINE
  5
36D7
330
17
100
AcDbEntity
  8
0
100
AcDbLine
 10
-4.624896795370046
 20
4.343618461569743
 30
0.0
 11
-4.624896795370046
 21
4.077213029022136
 31
0.0
  0
LINE
  5
36D8
102
{ACAD_REACTORS
330
3BA6
102
}
330
17
100
AcDbEntity
  8
0
100
AcDbLine
 10
-6.908943982812742
 20
4.514213029022124
 30
0.0
 11
-5.721443982812742
 21
3.983213029022134
 31
0.0
  0
LINE
  5
36D9
102
{ACAD_REACTORS
330
3BA6
102
}
330
17
100
AcDbEntity
  8
0
100
AcDbLine
 10
-5.721443982812742
 20
4.045213029022123
 30
0.0
 11
-6.752443982812747
 21
4.514213029022124
 31
0.0
  0
LINE
  5
36DB
102
{ACAD_REACTORS
330
3BA6
102
}
330
17
100
AcDbEntity
  8
0
100
AcDbLine
 10
-4.281517105857233
 20
4.499213029022131
 30
0.0
 11
-5.283443982812753
 21
4.045213029022123
 31
0.0
  0
LINE
  5
3757
102
{ACAD_REACTORS
330
3BA6
102
}
330
17
100
AcDbEntity
  8
0
100
AcDbLine
 10
-4.002443982812748
 20
3.983213029022134
 30
0.0
 11
-5.721443982812742
 21
3.983213029022134
 31
0.0
  0
LINE
  5
3758
102
{ACAD_REACTORS
330
3BA6
102
}
330
17
100
AcDbEntity
  8
0
100
AcDbLine
 10
-4.251943982812747
 20
4.077213029022136
 30
0.0
 11
-5.21282358619912
 21
4.077213029022136
 31
0.0
  0
LINE
  5
3759
102
{ACAD_REACTORS
330
3BA6
102
}
330
17
100
AcDbEntity
  8
0
100
AcDbLine
 10
-5.317286256460247
 20
4.067213029022131
 30
0.0
 11
-5.317286256460247
 21
4.045213029022123
 31
0.0
  0
LINE
  5
375A
102
{ACAD_REACTORS
330
3BA6
102
}
330
17
100
AcDbEntity
  8
0
100
AcDbLine
 10
-5.283443982812753
 20
4.045213029022123
 30
0.0
 11
-5.317286256460247
 21
4.045213029022123
 31
0.0
  0
LINE
  5
375B
330
17
100
AcDbEntity
  8
0
100
AcDbLine
 10
-5.478443982812748
 20
4.005213029022133
 30
0.0
 11
-5.52644398281275
 21
4.005213029022133
 31
0.0
  0
LINE
  5
375C
102
{ACAD_REACTORS
330
3BA6
102
}
330
17
100
AcDbEntity
  8
0
100
AcDbLine
 10
-5.478443982812748
 20
4.005213029022133
 30
0.0
 11
-5.478443982812748
 21
3.983213029022126
 31
0.0
  0
LINE
  5
375D
102
{ACAD_REACTORS
330
3BA6
102
}
330
17
100
AcDbEntity
  8
0
100
AcDbLine
 10
-5.52644398281275
 20
4.005213029022133
 30
0.0
 11
-5.52644398281275
 21
3.983213029022126
 31
0.0
  0
LINE
  5
375E
102
{ACAD_REACTORS
330
3BA6
102
}
330
17
100
AcDbEntity
  8
0
100
AcDbLine
 10
-5.406248080539072
 20
4.045213029022123
 30
0.0
 11
-5.438443982812755
 21
4.045213029022123
 31
0.0
  0
LINE
  5
375F
102
{ACAD_REACTORS
330
3BA6
102
}
330
17
100
AcDbEntity
  8
0
100
AcDbLine
 10
-5.406248080539072
 20
4.067213029022131
 30
0.0
 11
-5.406248080539072
 21
4.045213029022123
 31
0.0
  0
LINE
  5
3760
102
{ACAD_REACTORS
330
3BA6
102
}
330
17
100
AcDbEntity
  8
0
100
AcDbLine
 10
-5.56644398281274
 20
4.045213029022123
 30
0.0
 11
-5.52644398281275
 21
4.005213029022133
 31
0.0
  0
LINE
  5
3761
102
{ACAD_REACTORS
330
3BA6
102
}
330
17
100
AcDbEntity
  8
0
100
AcDbLine
 10
-5.438443982812755
 20
4.045213029022123
 30
0.0
 11
-5.478443982812748
 21
4.005213029022133
 31
0.0
  0
ARC
  5
3762
102
{ACAD_REACTORS
330
3BA6
102
}
330
17
100
AcDbEntity
  8
0
100
AcDbCircle
 10
-5.643120797125845
 20
4.067213029022131
 30
0.0
 40
0.0445
100
AcDbArc
 50
0.0
 51
179.9999999999976
  0
LINE
  5
3763
102
{ACAD_REACTORS
330
3BA6
102
}
330
17
100
AcDbEntity
  8
0
100
AcDbLine
 10
-5.687620797125845
 20
4.045213029022123
 30
0.0
 11
-5.721443982812742
 21
4.045213029022123
 31
0.0
  0
LINE
  5
3764
102
{ACAD_REACTORS
330
3BA6
102
}
330
17
100
AcDbEntity
  8
0
100
AcDbLine
 10
-5.687620797125845
 20
4.067213029022131
 30
0.0
 11
-5.687620797125845
 21
4.045213029022123
 31
0.0
  0
LINE
  5
3765
102
{ACAD_REACTORS
330
3BA6
102
}
330
17
100
AcDbEntity
  8
0
100
AcDbLine
 10
-5.598620797125844
 20
4.067213029022131
 30
0.0
 11
-5.598620797125844
 21
4.045213029022123
 31
0.0
  0
LINE
  5
3766
102
{ACAD_REACTORS
330
3BA6
102
}
330
17
100
AcDbEntity
  8
0
100
AcDbLine
 10
-5.56644398281274
 20
4.045213029022123
 30
0.0
 11
-5.598620797125844
 21
4.045213029022123
 31
0.0
  0
ARC
  5
3767
102
{ACAD_REACTORS
330
3BA6
102
}
330
17
100
AcDbEntity
  8
0
100
AcDbCircle
 10
-5.361767168499653
 20
4.068516280395446
 30
0.0
 40
0.0445
100
AcDbArc
 50
358.3217644568076
 51
181.6782355431945
  0
POINT
  5
3768
330
17
100
AcDbEntity
  8
DEFPOINTS
  6
ByBlock
 62
     0
100
AcDbPoint
 10
-4.865943995167667
 20
3.983213029022134
 30
0.0
  0
LINE
  5
377E
330
17
100
AcDbEntity
  8
0
100
AcDbLine
 10
-3.344943982812748
 20
4.265213029022136
 30
0.0
 11
-3.909943982812747
 21
4.265213029022136
 31
0.0
  0
LINE
  5
377F
102
{ACAD_REACTORS
330
3BA6
102
}
330
17
100
AcDbEntity
  8
0
100
AcDbLine
 10
-3.344943982812748
 20
4.077213029022129
 30
0.0
 11
-3.909943982812747
 21
4.077213029022129
 31
0.0
  0
LINE
  5
3780
102
{ACAD_REACTORS
330
3BA6
102
}
330
17
100
AcDbEntity
  8
0
100
AcDbLine
 10
-3.252443982812748
 20
3.920713029022126
 30
0.0
 11
-4.002443982812748
 21
3.920713029022134
 31
0.0
  0
LINE
  5
3783
102
{ACAD_REACTORS
330
3BA6
102
}
330
17
100
AcDbEntity
  8
0
100
AcDbLine
 10
-3.815443982812752
 20
4.077213029022136
 30
0.0
 11
-3.815443982812752
 21
3.920713029022134
 31
0.0
  0
LINE
  5
3784
102
{ACAD_REACTORS
330
3BA6
102
}
330
17
100
AcDbEntity
  8
0
100
AcDbLine
 10
-4.002443982812748
 20
3.983213029022134
 30
0.0
 11
-4.002443982812748
 21
3.920713029022134
 31
0.0
  0
LINE
  5
3789
102
{ACAD_REACTORS
330
3BA6
102
}
330
17
100
AcDbEntity
  8
0
100
AcDbLine
 10
-3.189943982812748
 20
3.983213029022126
 30
0.0
 11
-3.252443982812748
 21
3.983213029022126
 31
0.0
  0
LINE
  5
378A
102
{ACAD_REACTORS
330
3BA6
102
}
330
17
100
AcDbEntity
  8
0
100
AcDbLine
 10
-3.252443982812748
 20
3.983213029022126
 30
0.0
 11
-3.252443982812748
 21
3.920713029022126
 31
0.0
  0
POINT
  5
378B
330
17
100
AcDbEntity
  8
DEFPOINTS
  6
ByBlock
 62
     0
100
AcDbPoint
 10
-3.344943982812748
 20
4.265213029022136
 30
0.0
  0
LINE
  5
378C
102
{ACAD_REACTORS
330
3BA6
102
}
330
17
100
AcDbEntity
  8
0
100
AcDbLine
 10
-3.344943982812748
 20
4.265213029022136
 30
0.0
 11
-3.344943982812748
 21
4.077213029022129
 31
0.0
  0
LINE
  5
378D
102
{ACAD_REACTORS
330
3BA6
102
}
330
17
100
AcDbEntity
  8
0
100
AcDbLine
 10
-3.439443982812747
 20
4.077213029022129
 30
0.0
 11
-3.439443982812747
 21
3.920713029022134
 31
0.0
  0
LINE
  5
37D6
330
17
100
AcDbEntity
  8
WASHER
100
AcDbLine
 10
-4.722535326272888
 20
5.701316378772562
 30
0.0
 11
-6.222535326272888
 21
5.701316378772548
 31
0.0
  0
LINE
  5
37D7
330
17
100
AcDbEntity
  8
3
100
AcDbLine
 10
-4.722535326272903
 20
5.641316378772561
 30
0.0
 11
-6.222535326272888
 21
5.641316378772561
 31
0.0
  0
LINE
  5
37D8
330
17
100
AcDbEntity
  8
3
100
AcDbLine
 10
-4.722535326272888
 20
5.701316378772548
 30
0.0
 11
-6.222535326272888
 21
5.701316378772562
 31
0.0
  0
HATCH
  5
37D9
330
17
100
AcDbEntity
  8
3
100
AcDbHatch
 10
0.0
 20
0.0
 30
0.0
210
0.0
220
0.0
230
1.0
  2
ANSI31
 70
     0
 71
     0
 91
        2
 92
        7
 72
     0
 73
     1
 93
        4
 10
-6.032535326272888
 20
5.641316378772561
 10
-6.032535326272888
 20
5.701316378772562
 10
-6.222535326272886
 20
5.701316378772562
 10
-6.222535326272886
 20
5.641316378772553
 97
        0
 92
        7
 72
     0
 73
     1
 93
        4
 10
-4.912535326272898
 20
5.701316378772548
 10
-4.912535326272891
 20
5.641316378772553
 10
-4.722535326272898
 20
5.641316378772561
 10
-4.722535326272893
 20
5.701316378772548
 97
        0
 75
     0
 76
     1
 52
0.45
 41
0.25
 77
     0
 78
     1
 53
45.44999999999999
 43
-27.53022104558376
 44
1.430723930818305
 45
-0.0222699537164127
 46
0.0219228570553392
 79
     0
 47
0.0035197202565403
 98
        2
 10
-6.106735004195495
 20
5.666181273856683
 10
-4.793864385809026
 20
5.68026015102632
  0
LINE
  5
37DA
330
17
100
AcDbEntity
  8
VALVES
100
AcDbLine
 10
-4.723876669733042
 20
5.848678440776151
 30
0.0
 11
-6.223876669733042
 21
5.848678440776151
 31
0.0
  0
LINE
  5
37DB
330
17
100
AcDbEntity
  8
WASHER
100
AcDbLine
 10
-4.722535326272888
 20
5.805678440776151
 30
0.0
 11
-6.222535326272888
 21
5.805678440776151
 31
0.0
  0
LINE
  5
37DC
330
17
100
AcDbEntity
  8
VALVES
100
AcDbLine
 10
-4.723876669733042
 20
6.036178440776151
 30
0.0
 11
-6.223876669733042
 21
6.036178440776151
 31
0.0
  0
LINE
  5
37DD
330
17
100
AcDbEntity
  8
VALVES
100
AcDbLine
 10
-4.723876669733042
 20
6.098678440776151
 30
0.0
 11
-6.223876669733042
 21
6.098678440776151
 31
0.0
  0
HATCH
  5
37DE
330
17
100
AcDbEntity
  8
WASHER
100
AcDbHatch
 10
0.0
 20
0.0
 30
0.0
210
0.0
220
0.0
230
1.0
  2
ANSI31
 70
     0
 71
     0
 91
        2
 92
        7
 72
     0
 73
     1
 93
        4
 10
-6.222535326272892
 20
5.805678440776151
 10
-6.222535326272892
 20
5.701316378772548
 10
-5.588662229470362
 20
5.701316378772548
 10
-5.588662229470362
 20
5.805678440776151
 97
        0
 92
        7
 72
     0
 73
     1
 93
        4
 10
-5.356408423075431
 20
5.805678440776151
 10
-5.356408423075431
 20
5.701316378772556
 10
-4.722535326272893
 20
5.701316378772562
 10
-4.722535326272893
 20
5.805678440776151
 97
        0
 75
     0
 76
     1
 52
90.0
 41
1.0
 77
     0
 78
     1
 53
135.0
 43
-31.51861364567376
 44
-0.8706009305457483
 45
-0.0883883476483185
 46
-0.0883883476483184
 79
     0
 47
0.0035376352166359
 98
        2
 10
-5.740389265211392
 20
5.765139059062075
 10
-5.15280298128883
 20
5.754526149712507
  0
HATCH
  5
37DF
330
17
100
AcDbEntity
  8
RING
100
AcDbHatch
 10
0.0
 20
0.0
 30
0.0
210
0.0
220
0.0
230
1.0
  2
ANSI31
 70
     0
 71
     0
 91
        2
 92
        7
 72
     0
 73
     1
 93
        4
 10
-6.722535326272899
 20
5.848678440776151
 10
-6.848035326272888
 20
5.848678440776151
 10
-6.848035326272888
 20
5.817678440776152
 10
-6.722535326272899
 20
5.817678440776152
 97
        0
 92
        7
 72
     0
 73
     1
 93
        4
 10
-4.222535326272891
 20
5.848678440776151
 10
-4.222535326272891
 20
5.817678440776152
 10
-4.097035326272896
 20
5.817678440776152
 10
-4.097035326272896
 20
5.848678440776151
 97
        0
 75
     0
 76
     1
 52
0.45
 41
0.25
 77
     0
 78
     1
 53
45.44999999999999
 43
-31.51861364567376
 44
-0.8706009305457483
 45
-0.0222699537164127
 46
0.0219228570553392
 79
     0
 47
0.0035376352166359
 98
        2
 10
-6.781054093246556
 20
5.828816474668742
 10
-4.172312644994316
 20
5.835891747568457
  0
LINE
  5
37E0
330
17
100
AcDbEntity
  8
RING
100
AcDbLine
 10
-6.848035326272892
 20
5.848678440776151
 30
0.0
 11
-4.097035326272902
 21
5.848678440776151
 31
0.0
  0
LINE
  5
37E1
330
17
100
AcDbEntity
  8
RING
100
AcDbLine
 10
-6.848035326272892
 20
5.817678440776152
 30
0.0
 11
-4.097035326272902
 21
5.817678440776152
 31
0.0
  0
LINE
  5
37E2
330
17
100
AcDbEntity
  8
POUCH
100
AcDbLine
 10
-6.910035326272888
 20
5.817678440776152
 30
0.0
 11
-4.03503532627289
 21
5.817678440776152
 31
0.0
  0
LINE
  5
37E3
330
17
100
AcDbEntity
  8
POUCH
100
AcDbLine
 10
-6.910035326272888
 20
5.805678440776151
 30
0.0
 11
-4.03503532627289
 21
5.805678440776151
 31
0.0
  0
LINE
  5
37E4
102
{ACAD_REACTORS
330
3BA6
102
}
330
17
100
AcDbEntity
  8
0
100
AcDbLine
 10
-4.064943982812748
 20
4.514213029022118
 30
0.0
 11
-6.877443982812747
 21
4.514213029022148
 31
0.0
  0
LINE
  5
37E5
102
{ACAD_REACTORS
330
3BA6
102
}
330
17
100
AcDbEntity
  8
0
100
AcDbLine
 10
-4.064943982812748
 20
4.608213029022142
 30
0.0
 11
-6.908943982812742
 21
4.608213029022127
 31
0.0
  0
LINE
  5
37E6
102
{ACAD_REACTORS
330
3BA6
102
}
330
17
100
AcDbEntity
  8
0
100
AcDbLine
 10
-6.908943982812742
 20
4.608213029022127
 30
0.0
 11
-6.908943982812742
 21
4.514213029022124
 31
0.0
  0
LINE
  5
37E7
102
{ACAD_REACTORS
330
3BA6
102
}
330
17
100
AcDbEntity
  8
0
100
AcDbLine
 10
-6.877443982812747
 20
4.608213029022127
 30
0.0
 11
-6.877443982812747
 21
4.514213029022124
 31
0.0
  0
LINE
  5
37E8
330
17
100
AcDbEntity
  8
WASHER
100
AcDbLine
 10
-6.222535326272888
 20
5.805678440776151
 30
0.0
 11
-6.222535326272888
 21
5.701316378772548
 31
0.0
  0
LINE
  5
37E9
330
17
100
AcDbEntity
  8
3
100
AcDbLine
 10
-6.032535326272893
 20
5.641316378772561
 30
0.0
 11
-6.032535326272893
 21
5.701316378772562
 31
0.0
  0
LINE
  5
37EA
330
17
100
AcDbEntity
  8
3
100
AcDbLine
 10
-6.222535326272888
 20
5.641316378772561
 30
0.0
 11
-6.222535326272888
 21
5.701316378772562
 31
0.0
  0
LINE
  5
37EB
330
17
100
AcDbEntity
  8
RING
100
AcDbLine
 10
-6.722535326272888
 20
5.817678440776152
 30
0.0
 11
-6.722535326272888
 21
5.848678440776151
 31
0.0
  0
LINE
  5
37EC
330
17
100
AcDbEntity
  8
POUCH
100
AcDbLine
 10
-6.910035326272888
 20
5.817678440776152
 30
0.0
 11
-6.910035326272888
 21
5.805678440776151
 31
0.0
  0
LINE
  5
37ED
330
17
100
AcDbEntity
  8
RING
100
AcDbLine
 10
-6.848035326272892
 20
5.817678440776152
 30
0.0
 11
-6.848035326272892
 21
5.848678440776151
 31
0.0
  0
LINE
  5
37EE
330
17
100
AcDbEntity
  8
VALVES
100
AcDbLine
 10
-6.223876669733042
 20
6.098678440776151
 30
0.0
 11
-6.223876669733042
 21
5.848678440776151
 31
0.0
  0
LINE
  5
37EF
330
17
100
AcDbEntity
  8
0
100
AcDbLine
 10
-5.2594338357557
 20
4.81869488282046
 30
0.0
 11
-5.681047806339902
 21
4.768101206350356
 31
0.0
  0
LINE
  5
37F0
330
17
100
AcDbEntity
  8
0
100
AcDbLine
 10
-5.261340159285595
 20
4.834580912236249
 30
0.0
 11
-5.682954129869798
 21
4.783987235766151
 31
0.0
  0
ARC
  5
37F1
330
17
100
AcDbEntity
  8
0
100
AcDbCircle
 10
-5.260386997520638
 20
4.721637897528355
 30
0.0
 40
0.008
100
AcDbArc
 50
276.8427734126309
 51
96.84277341263081
  0
ARC
  5
37F2
330
17
100
AcDbEntity
  8
0
 62
     7
100
AcDbCircle
 10
-5.260443982812745
 20
4.396441059293305
 30
0.0
 40
0.008
100
AcDbArc
 50
263.5907960218581
 51
96.40920397814191
  0
ARC
  5
37F3
330
17
100
AcDbEntity
  8
0
100
AcDbCircle
 10
-5.260386997520638
 20
4.616637897528351
 30
0.0
 40
0.008
100
AcDbArc
 50
276.8427734126309
 51
96.84277341263081
  0
ARC
  5
37F4
330
17
100
AcDbEntity
  8
0
100
AcDbCircle
 10
-5.260386997520638
 20
4.511637897528363
 30
0.0
 40
0.008
100
AcDbArc
 50
276.8427734126309
 51
96.84277341263081
  0
ARC
  5
37F5
330
17
100
AcDbEntity
  8
0
100
AcDbCircle
 10
-5.682000968104842
 20
4.776044221058253
 30
0.0
 40
0.008
100
AcDbArc
 50
96.84277341263081
 51
276.8427734126309
  0
ARC
  5
37F6
330
17
100
AcDbEntity
  8
0
100
AcDbCircle
 10
-5.68194398281274
 20
4.396441059293305
 30
0.0
 40
0.008
100
AcDbArc
 50
83.59079602179129
 51
276.4092039782087
  0
ARC
  5
37F7
330
17
100
AcDbEntity
  8
0
100
AcDbCircle
 10
-5.682000968104842
 20
4.671044221058256
 30
0.0
 40
0.008
100
AcDbArc
 50
96.84277341263081
 51
276.8427734126309
  0
ARC
  5
37F8
330
17
100
AcDbEntity
  8
0
100
AcDbCircle
 10
-5.682000968104842
 20
4.566044221058251
 30
0.0
 40
0.008
100
AcDbArc
 50
96.84277341263081
 51
276.8427734126309
  0
ARC
  5
37F9
330
17
100
AcDbEntity
  8
0
100
AcDbCircle
 10
-5.682000968104842
 20
4.461044221058248
 30
0.0
 40
0.008
100
AcDbArc
 50
96.84277341263081
 51
276.8427734126309
  0
LINE
  5
37FA
330
17
100
AcDbEntity
  8
0
100
AcDbLine
 10
-5.683212811998544
 20
4.45313653907316
 30
0.0
 11
-5.365132443465199
 21
4.404391059293306
 31
0.0
  0
LINE
  5
37FB
330
17
100
AcDbEntity
  8
0
100
AcDbLine
 10
-5.62289446320176
 20
4.460079607526938
 30
0.0
 11
-5.259232138919058
 21
4.404348741278401
 31
0.0
  0
LINE
  5
37FC
330
17
100
AcDbEntity
  8
0
 62
     7
100
AcDbLine
 10
-5.261337011367714
 20
4.388491059293303
 30
0.0
 11
-5.681050954257768
 21
4.388491059293303
 31
0.0
  0
LINE
  5
37FD
330
17
100
AcDbEntity
  8
0
 62
     7
100
AcDbLine
 10
-5.261337011367714
 20
4.404391059293306
 30
0.0
 11
-5.681050954257768
 21
4.404391059293306
 31
0.0
  0
LINE
  5
37FE
330
17
100
AcDbEntity
  8
0
100
AcDbLine
 10
-5.2594338357557
 20
4.713694882820465
 30
0.0
 11
-5.681047806339902
 21
4.663101206350358
 31
0.0
  0
LINE
  5
37FF
330
17
100
AcDbEntity
  8
0
100
AcDbLine
 10
-5.261340159285595
 20
4.729580912236253
 30
0.0
 11
-5.682954129869798
 21
4.678987235766146
 31
0.0
  0
LINE
  5
3800
330
17
100
AcDbEntity
  8
0
100
AcDbLine
 10
-5.683024822489372
 20
4.768110008923495
 30
0.0
 11
-5.325129747633466
 21
4.721926161634502
 31
0.0
  0
LINE
  5
3801
330
17
100
AcDbEntity
  8
0
100
AcDbLine
 10
-5.617258217992016
 20
4.775755956952097
 30
0.0
 11
-5.259363143136127
 21
4.729572109663113
 31
0.0
  0
LINE
  5
3802
330
17
100
AcDbEntity
  8
0
100
AcDbLine
 10
-5.2594338357557
 20
4.608694882820461
 30
0.0
 11
-5.681047806339902
 21
4.558101206350361
 31
0.0
  0
LINE
  5
3803
330
17
100
AcDbEntity
  8
0
100
AcDbLine
 10
-5.261340159285595
 20
4.624580912236258
 30
0.0
 11
-5.682954129869798
 21
4.573987235766144
 31
0.0
  0
LINE
  5
3804
330
17
100
AcDbEntity
  8
0
100
AcDbLine
 10
-5.683024822489372
 20
4.663110008923498
 30
0.0
 11
-5.325129747633466
 21
4.616926161634506
 31
0.0
  0
LINE
  5
3805
330
17
100
AcDbEntity
  8
0
100
AcDbLine
 10
-5.617258217992016
 20
4.670755956952103
 30
0.0
 11
-5.259363143136127
 21
4.624572109663108
 31
0.0
  0
LINE
  5
3806
330
17
100
AcDbEntity
  8
0
100
AcDbLine
 10
-5.617258217992016
 20
4.565755956952106
 30
0.0
 11
-5.259363143136127
 21
4.519572109663112
 31
0.0
  0
LINE
  5
3807
330
17
100
AcDbEntity
  8
0
100
AcDbLine
 10
-5.683024822489372
 20
4.558110008923495
 30
0.0
 11
-5.325129747633466
 21
4.511926161634509
 31
0.0
  0
LINE
  5
3808
330
17
100
AcDbEntity
  8
0
100
AcDbLine
 10
-5.261340159285595
 20
4.519580912236254
 30
0.0
 11
-5.682954129869798
 21
4.468987235766153
 31
0.0
  0
LINE
  5
3809
330
17
100
AcDbEntity
  8
0
100
AcDbLine
 10
-5.2594338357557
 20
4.503694882820457
 30
0.0
 11
-5.681047806339902
 21
4.453101206350356
 31
0.0
  0
ARC
  5
380A
330
17
100
AcDbEntity
  8
0
100
AcDbCircle
 10
-5.260386997520638
 20
5.036637897528353
 30
0.0
 40
0.008
100
AcDbArc
 50
276.8427734126309
 51
96.84277341263081
  0
ARC
  5
380B
330
17
100
AcDbEntity
  8
0
100
AcDbCircle
 10
-5.260443982812745
 20
5.255591059293303
 30
0.0
 40
0.008
100
AcDbArc
 50
278.0400963275007
 51
99.06872154603988
  0
ARC
  5
380C
330
17
100
AcDbEntity
  8
0
100
AcDbCircle
 10
-5.260386997520638
 20
5.141637897528358
 30
0.0
 40
0.008
100
AcDbArc
 50
276.8427734126309
 51
96.84277341263081
  0
ARC
  5
380D
330
17
100
AcDbEntity
  8
0
100
AcDbCircle
 10
-5.682000968104842
 20
5.091044221058258
 30
0.0
 40
0.008
100
AcDbArc
 50
96.84277341263081
 51
276.8427734126309
  0
ARC
  5
380E
330
17
100
AcDbEntity
  8
0
100
AcDbCircle
 10
-5.682000968104842
 20
5.196044221058246
 30
0.0
 40
0.008
100
AcDbArc
 50
96.84277341263081
 51
262.6470163322206
  0
ARC
  5
380F
330
17
100
AcDbEntity
  8
0
100
AcDbCircle
 10
-5.681944139064269
 20
5.255541059293308
 30
0.0
 40
0.008
100
AcDbArc
 50
83.59079602179539
 51
276.4092039782021
  0
LINE
  5
3810
330
17
100
AcDbEntity
  8
0
 62
     7
100
AcDbLine
 10
-5.374276905530535
 20
5.2475910592933
 30
0.0
 11
-5.6810511105093
 21
5.2475910592933
 31
0.0
  0
LINE
  5
3811
330
17
100
AcDbEntity
  8
0
100
AcDbLine
 10
-5.2594338357557
 20
5.133694882820465
 30
0.0
 11
-5.681047806339902
 21
5.083101206350352
 31
0.0
  0
LINE
  5
3812
330
17
100
AcDbEntity
  8
0
100
AcDbLine
 10
-5.261340159285595
 20
5.149580912236248
 30
0.0
 11
-5.682954129869798
 21
5.098987235766148
 31
0.0
  0
LINE
  5
3813
330
17
100
AcDbEntity
  8
0
100
AcDbLine
 10
-5.683024822489372
 20
5.0831100089235
 30
0.0
 11
-5.325129747633466
 21
5.036926161634506
 31
0.0
  0
LINE
  5
3814
330
17
100
AcDbEntity
  8
0
100
AcDbLine
 10
-5.617258217992016
 20
5.090755956952103
 30
0.0
 11
-5.259363143136127
 21
5.044572109663111
 31
0.0
  0
LINE
  5
3815
330
17
100
AcDbEntity
  8
0
 62
     7
100
AcDbLine
 10
-5.261704934834043
 20
5.263491059293302
 30
0.0
 11
-5.6810511105093
 21
5.263491059293302
 31
0.0
  0
LINE
  5
3816
330
17
100
AcDbEntity
  8
0
100
AcDbLine
 10
-5.622267713925281
 20
5.196402397239861
 30
0.0
 11
-5.259363143136127
 21
5.149572109663115
 31
0.0
  0
LINE
  5
3817
330
17
100
AcDbEntity
  8
0
100
AcDbLine
 10
-5.683024822489372
 20
5.188110008923497
 30
0.0
 11
-5.325129747633466
 21
5.141926161634502
 31
0.0
  0
LINE
  5
3818
330
17
100
AcDbEntity
  8
0
100
AcDbLine
 10
-5.259325054258936
 20
5.247669695844282
 30
0.0
 11
-5.681952562810025
 21
5.187971641338233
 31
0.0
  0
LINE
  5
3819
330
17
100
AcDbEntity
  8
0
100
AcDbLine
 10
-5.261562911366551
 20
5.263512422742326
 30
0.0
 11
-5.683119896658651
 21
5.203965584507276
 31
0.0
  0
ARC
  5
381A
330
17
100
AcDbEntity
  8
0
100
AcDbCircle
 10
-5.260386997520638
 20
4.931637897528355
 30
0.0
 40
0.008
100
AcDbArc
 50
276.8427734126309
 51
96.84277341263081
  0
ARC
  5
381B
330
17
100
AcDbEntity
  8
0
100
AcDbCircle
 10
-5.260386997520638
 20
4.82663789752836
 30
0.0
 40
0.008
100
AcDbArc
 50
276.8427734126309
 51
96.84277341263081
  0
ARC
  5
381C
330
17
100
AcDbEntity
  8
0
100
AcDbCircle
 10
-5.682000968104842
 20
4.986044221058254
 30
0.0
 40
0.008
100
AcDbArc
 50
96.84277341263081
 51
276.8427734126309
  0
ARC
  5
381D
330
17
100
AcDbEntity
  8
0
100
AcDbCircle
 10
-5.682000968104842
 20
4.88104422105825
 30
0.0
 40
0.008
100
AcDbArc
 50
96.84277341263081
 51
276.8427734126309
  0
LINE
  5
381E
330
17
100
AcDbEntity
  8
0
100
AcDbLine
 10
-5.2594338357557
 20
4.923694882820457
 30
0.0
 11
-5.681047806339902
 21
4.873101206350358
 31
0.0
  0
LINE
  5
381F
330
17
100
AcDbEntity
  8
0
100
AcDbLine
 10
-5.261340159285595
 20
4.939580912236253
 30
0.0
 11
-5.682954129869798
 21
4.888987235766148
 31
0.0
  0
LINE
  5
3820
330
17
100
AcDbEntity
  8
0
100
AcDbLine
 10
-5.683024822489372
 20
4.978110008923497
 30
0.0
 11
-5.325129747633466
 21
4.931926161634509
 31
0.0
  0
LINE
  5
3821
330
17
100
AcDbEntity
  8
0
100
AcDbLine
 10
-5.617258217992016
 20
4.985755956952106
 30
0.0
 11
-5.259363143136127
 21
4.939572109663113
 31
0.0
  0
LINE
  5
3822
330
17
100
AcDbEntity
  8
0
100
AcDbLine
 10
-5.683024822489372
 20
4.873110008923492
 30
0.0
 11
-5.325129747633466
 21
4.826926161634506
 31
0.0
  0
LINE
  5
3823
330
17
100
AcDbEntity
  8
0
100
AcDbLine
 10
-5.617258217992016
 20
4.880755956952103
 30
0.0
 11
-5.259363143136127
 21
4.834572109663117
 31
0.0
  0
LINE
  5
3824
330
17
100
AcDbEntity
  8
0
100
AcDbLine
 10
-5.2594338357557
 20
5.028694882820463
 30
0.0
 11
-5.681047806339902
 21
4.978101206350356
 31
0.0
  0
LINE
  5
3825
330
17
100
AcDbEntity
  8
0
100
AcDbLine
 10
-5.261340159285595
 20
5.04458091223625
 30
0.0
 11
-5.682954129869798
 21
4.993987235766144
 31
0.0
  0
LINE
  5
3826
102
{ACAD_REACTORS
330
3BA6
102
}
330
17
100
AcDbEntity
  8
0
100
AcDbLine
 10
-3.236943982812745
 20
4.795213029022137
 30
0.0
 11
-3.236943982812745
 21
4.577213029022137
 31
0.0
  0
LINE
  5
3827
102
{ACAD_REACTORS
330
3BA6
102
}
330
17
100
AcDbEntity
  8
0
100
AcDbLine
 10
-4.017943982812751
 20
4.795213029022137
 30
0.0
 11
-4.017943982812751
 21
4.577213029022137
 31
0.0
  0
LINE
  5
3828
102
{ACAD_REACTORS
330
3BA6
102
}
330
17
100
AcDbEntity
  8
0
100
AcDbLine
 10
-4.064943982812748
 20
4.795213029022137
 30
0.0
 11
-4.064943982812748
 21
4.514213029022131
 31
0.0
  0
LINE
  5
3829
330
17
100
AcDbEntity
  8
0
100
AcDbLine
 10
-3.344943982812748
 20
4.382213029022134
 30
0.0
 11
-3.909943982812747
 21
4.421213029022129
 31
0.0
  0
LINE
  5
382A
330
17
100
AcDbEntity
  8
0
100
AcDbLine
 10
-3.344943982812748
 20
4.30421302902214
 30
0.0
 11
-3.909943982812747
 21
4.343213029022133
 31
0.0
  0
LINE
  5
382B
330
17
100
AcDbEntity
  8
0
100
AcDbLine
 10
-3.344943982812748
 20
4.46021302902213
 30
0.0
 11
-3.909943982812747
 21
4.499213029022131
 31
0.0
  0
LINE
  5
382C
330
17
100
AcDbEntity
  8
0
100
AcDbLine
 10
-3.344943982812748
 20
4.538213029022132
 30
0.0
 11
-3.909943982812747
 21
4.577213029022137
 31
0.0
  0
LINE
  5
382D
330
17
100
AcDbEntity
  8
0
100
AcDbLine
 10
-3.313943982812745
 20
4.343213029022133
 30
0.0
 11
-3.940943982812752
 21
4.382213029022134
 31
0.0
  0
LINE
  5
382E
102
{ACAD_REACTORS
330
3BA6
102
}
330
17
100
AcDbEntity
  8
2
  6
HIDDEN
100
AcDbLine
 10
-3.189943982812748
 20
4.670213029022137
 30
0.0
 11
-4.064943982812748
 21
4.670213029022137
 31
0.0
  0
LINE
  5
382F
102
{ACAD_REACTORS
330
3BA6
102
}
330
17
100
AcDbEntity
  8
0
100
AcDbLine
 10
-3.236943982812745
 20
4.577213029022137
 30
0.0
 11
-4.017943982812751
 21
4.577213029022137
 31
0.0
  0
LINE
  5
3830
330
17
100
AcDbEntity
  8
0
100
AcDbLine
 10
-3.313943982812745
 20
4.421213029022129
 30
0.0
 11
-3.940943982812752
 21
4.46021302902213
 31
0.0
  0
LINE
  5
3831
330
17
100
AcDbEntity
  8
0
100
AcDbLine
 10
-3.313943982812745
 20
4.499213029022131
 30
0.0
 11
-3.940943982812752
 21
4.538213029022132
 31
0.0
  0
LINE
  5
3832
102
{ACAD_REACTORS
330
3BA6
102
}
330
17
100
AcDbEntity
  8
0
100
AcDbLine
 10
-3.909943982812747
 20
4.421213029022129
 30
0.0
 11
-3.940943982812752
 21
4.382213029022134
 31
0.0
  0
LINE
  5
3833
102
{ACAD_REACTORS
330
3BA6
102
}
330
17
100
AcDbEntity
  8
0
100
AcDbLine
 10
-3.928169017974497
 20
4.320284758979942
 30
0.0
 11
-3.909943982812747
 21
4.31021302902214
 31
0.0
  0
LINE
  5
3834
102
{ACAD_REACTORS
330
3BA6
102
}
330
17
100
AcDbEntity
  8
0
100
AcDbLine
 10
-3.909943982812747
 20
4.343213029022133
 30
0.0
 11
-3.928169017974497
 21
4.320284758979942
 31
0.0
  0
LINE
  5
3835
102
{ACAD_REACTORS
330
3BA6
102
}
330
17
100
AcDbEntity
  8
0
100
AcDbLine
 10
-3.940943982812752
 20
4.382213029022134
 30
0.0
 11
-3.909943982812747
 21
4.343213029022133
 31
0.0
  0
LINE
  5
3836
102
{ACAD_REACTORS
330
3BA6
102
}
330
17
100
AcDbEntity
  8
0
100
AcDbLine
 10
-3.940943982812752
 20
4.46021302902213
 30
0.0
 11
-3.909943982812747
 21
4.421213029022129
 31
0.0
  0
LINE
  5
3837
102
{ACAD_REACTORS
330
3BA6
102
}
330
17
100
AcDbEntity
  8
0
100
AcDbLine
 10
-3.909943982812747
 20
4.499213029022131
 30
0.0
 11
-3.940943982812752
 21
4.46021302902213
 31
0.0
  0
LINE
  5
3838
102
{ACAD_REACTORS
330
3BA6
102
}
330
17
100
AcDbEntity
  8
0
100
AcDbLine
 10
-3.909943982812747
 20
4.577213029022137
 30
0.0
 11
-3.940943982812752
 21
4.538213029022132
 31
0.0
  0
LINE
  5
3839
102
{ACAD_REACTORS
330
3BA6
102
}
330
17
100
AcDbEntity
  8
0
100
AcDbLine
 10
-3.940943982812752
 20
4.538213029022132
 30
0.0
 11
-3.909943982812747
 21
4.499213029022131
 31
0.0
  0
POINT
  5
383A
330
17
100
AcDbEntity
  8
DEFPOINTS
  6
ByBlock
 62
     0
100
AcDbPoint
 10
-3.236943982812745
 20
4.577213029022137
 30
0.0
  0
POINT
  5
383B
330
17
100
AcDbEntity
  8
DEFPOINTS
  6
ByBlock
 62
     0
100
AcDbPoint
 10
-3.236943982812745
 20
4.577213029022137
 30
0.0
  0
LINE
  5
383C
102
{ACAD_REACTORS
330
3BA6
102
}
330
17
100
AcDbEntity
  8
0
100
AcDbLine
 10
-3.313943982812745
 20
4.421213029022129
 30
0.0
 11
-3.344943982812748
 21
4.382213029022134
 31
0.0
  0
LINE
  5
383D
102
{ACAD_REACTORS
330
3BA6
102
}
330
17
100
AcDbEntity
  8
0
100
AcDbLine
 10
-3.313943982812745
 20
4.343213029022133
 30
0.0
 11
-3.344943982812748
 21
4.30421302902214
 31
0.0
  0
LINE
  5
383E
102
{ACAD_REACTORS
330
3BA6
102
}
330
17
100
AcDbEntity
  8
0
100
AcDbLine
 10
-3.344943982812748
 20
4.382213029022134
 30
0.0
 11
-3.313943982812745
 21
4.343213029022133
 31
0.0
  0
LINE
  5
383F
102
{ACAD_REACTORS
330
3BA6
102
}
330
17
100
AcDbEntity
  8
0
100
AcDbLine
 10
-3.344943982812748
 20
4.46021302902213
 30
0.0
 11
-3.313943982812745
 21
4.421213029022129
 31
0.0
  0
LINE
  5
3840
102
{ACAD_REACTORS
330
3BA6
102
}
330
17
100
AcDbEntity
  8
0
100
AcDbLine
 10
-3.313943982812745
 20
4.499213029022131
 30
0.0
 11
-3.344943982812748
 21
4.46021302902213
 31
0.0
  0
LINE
  5
3841
102
{ACAD_REACTORS
330
3BA6
102
}
330
17
100
AcDbEntity
  8
0
100
AcDbLine
 10
-3.313943982812745
 20
4.577213029022137
 30
0.0
 11
-3.344943982812748
 21
4.538213029022132
 31
0.0
  0
LINE
  5
3842
102
{ACAD_REACTORS
330
3BA6
102
}
330
17
100
AcDbEntity
  8
0
100
AcDbLine
 10
-3.344943982812748
 20
4.538213029022132
 30
0.0
 11
-3.313943982812745
 21
4.499213029022131
 31
0.0
  0
LINE
  5
3845
330
17
100
AcDbEntity
  8
0
100
AcDbLine
 10
-3.189943982812748
 20
4.795213029022137
 30
0.0
 11
-4.064943982812748
 21
4.795213029022137
 31
0.0
  0
POINT
  5
3848
330
17
100
AcDbEntity
  8
DEFPOINTS
  6
ByBlock
 62
     0
100
AcDbPoint
 10
-3.189943982812748
 20
4.795213029022137
 30
0.0
  0
LINE
  5
384B
330
17
100
AcDbEntity
  8
WASHER
100
AcDbLine
 10
-4.722535326272888
 20
5.805678440776151
 30
0.0
 11
-4.722535326272888
 21
5.701316378772562
 31
0.0
  0
LINE
  5
384C
330
17
100
AcDbEntity
  8
WASHER
100
AcDbLine
 10
-5.356408423075436
 20
5.805678440776151
 30
0.0
 11
-5.356408423075436
 21
5.701316378772562
 31
0.0
  0
LINE
  5
384D
330
17
100
AcDbEntity
  8
WASHER
100
AcDbLine
 10
-5.588662229470356
 20
5.805678440776151
 30
0.0
 11
-5.588662229470356
 21
5.701316378772548
 31
0.0
  0
LINE
  5
384E
330
17
100
AcDbEntity
  8
3
  6
CENTER
100
AcDbLine
 10
-5.471193982812748
 20
6.282693158058901
 30
0.0
 11
-5.471193982812748
 21
5.470859459636589
 31
0.0
  0
LINE
  5
384F
330
17
100
AcDbEntity
  8
3
100
AcDbLine
 10
-4.722535326272903
 20
5.641316378772561
 30
0.0
 11
-4.722535326272888
 21
5.701316378772548
 31
0.0
  0
LINE
  5
3850
330
17
100
AcDbEntity
  8
3
100
AcDbLine
 10
-4.912535326272887
 20
5.641316378772561
 30
0.0
 11
-4.912535326272887
 21
5.701316378772548
 31
0.0
  0
LINE
  5
3851
330
17
100
AcDbEntity
  8
VALVES
100
AcDbLine
 10
-4.723876669733042
 20
6.098678440776151
 30
0.0
 11
-4.723876669733042
 21
5.848678440776151
 31
0.0
  0
LINE
  5
3866
330
17
100
AcDbEntity
  8
POUCH
100
AcDbLine
 10
-4.03503532627289
 20
5.817678440776152
 30
0.0
 11
-4.03503532627289
 21
5.805678440776151
 31
0.0
  0
LINE
  5
3867
330
17
100
AcDbEntity
  8
RING
100
AcDbLine
 10
-4.22253532627289
 20
5.817678440776152
 30
0.0
 11
-4.22253532627289
 21
5.848678440776151
 31
0.0
  0
LINE
  5
3868
330
17
100
AcDbEntity
  8
RING
100
AcDbLine
 10
-4.097035326272902
 20
5.817678440776152
 30
0.0
 11
-4.097035326272902
 21
5.848678440776151
 31
0.0
  0
LINE
  5
39D5
330
17
100
AcDbEntity
  8
3
  6
CENTER
100
AcDbLine
 10
-3.627443982812748
 20
5.354874090666275
 30
0.0
 11
-3.627443982812748
 21
2.966948357868345
 31
0.0
  0
LINE
  5
39D7
330
17
100
AcDbEntity
  8
0
100
AcDbLine
 10
-4.064943982812748
 20
5.070748209021718
 30
0.0
 11
-3.189943982812748
 21
5.070748209021718
 31
0.0
  0
LINE
  5
39D8
330
17
100
AcDbEntity
  8
0
100
AcDbLine
 10
-4.064943982812748
 20
5.090748209021715
 30
0.0
 11
-3.189943982812748
 21
5.090748209021715
 31
0.0
  0
LINE
  5
39D9
330
17
100
AcDbEntity
  8
0
100
AcDbLine
 10
-4.064943982812748
 20
5.070748209021718
 30
0.0
 11
-4.064943982812748
 21
5.090748209021715
 31
0.0
  0
LINE
  5
39DB
330
17
100
AcDbEntity
  8
0
100
AcDbLine
 10
-3.189943982812748
 20
5.070748209021718
 30
0.0
 11
-3.189943982812748
 21
5.090748209021715
 31
0.0
  0
LINE
  5
39F5
330
17
100
AcDbEntity
  8
4
100
AcDbLine
 10
-0.0000000000000036
 20
8.500000000000001
 30
0.0
 11
-11.05
 21
8.499999999999996
 31
0.0
  0
LINE
  5
39F6
330
17
100
AcDbEntity
  8
4
100
AcDbLine
 10
-0.8750000000000035
 20
7.699999999999997
 30
0.0
 11
-10.175
 21
7.699999999999997
 31
0.0
  0
LINE
  5
39F7
330
17
100
AcDbEntity
  8
4
100
AcDbLine
 10
-11.05
 20
0.0
 30
0.0
 11
-11.05
 21
8.499999999999996
 31
0.0
  0
LINE
  5
39F8
330
17
100
AcDbEntity
  8
4
100
AcDbLine
 10
-10.175
 20
0.8000000000000007
 30
0.0
 11
-10.175
 21
7.699999999999997
 31
0.0
  0
LINE
  5
39F9
330
17
100
AcDbEntity
  8
3
100
AcDbLine
 10
-10.0504917527379
 20
1.971875
 30
0.0
 11
-10.175
 21
1.971875
 31
0.0
  0
TEXT
  5
39FA
330
17
100
AcDbEntity
  8
2
100
AcDbText
 10
-10.14687463379534
 20
2.654509031615023
 30
0.0
 40
0.078
  1
4
  7
SIMPLEX
 72
     1
 11
-10.1190174909382
 21
2.654509031615023
 31
0.0
100
AcDbText
  0
LINE
  5
39FB
330
17
100
AcDbEntity
  8
3
100
AcDbLine
 10
-10.0504917527379
 20
3.403906249999998
 30
0.0
 11
-10.175
 21
3.403906249999998
 31
0.0
  0
TEXT
  5
39FC
330
17
100
AcDbEntity
  8
2
100
AcDbText
 10
-10.1450174909382
 20
4.030574231773566
 30
0.0
 40
0.078
  1
3
  7
SIMPLEX
 72
     1
 11
-10.1190174909382
 21
4.030574231773566
 31
0.0
100
AcDbText
  0
LINE
  5
39FD
330
17
100
AcDbEntity
  8
3
100
AcDbLine
 10
-10.0504917527379
 20
4.835937500000001
 30
0.0
 11
-10.175
 21
4.835937500000001
 31
0.0
  0
TEXT
  5
39FE
330
17
100
AcDbEntity
  8
2
100
AcDbText
 10
-10.13443039435624
 20
5.457521318574993
 30
0.0
 40
0.078
  1
2
  7
SIMPLEX
 72
     1
 11
-10.10843039435624
 21
5.457521318574993
 31
0.0
100
AcDbText
  0
LINE
  5
39FF
330
17
100
AcDbEntity
  8
3
100
AcDbLine
 10
-10.0504917527379
 20
6.267968749999997
 30
0.0
 11
-10.175
 21
6.267968749999997
 31
0.0
  0
TEXT
  5
3A00
330
17
100
AcDbEntity
  8
2
100
AcDbText
 10
-10.12830320522391
 20
6.896081873965396
 30
0.0
 40
0.078
  1
1
  7
SIMPLEX
 72
     1
 11
-10.1190174909382
 21
6.896081873965396
 31
0.0
100
AcDbText
  0
TEXT
  5
3A01
330
17
100
AcDbEntity
  8
2
100
AcDbText
 10
-9.203395880507287
 20
7.572559019520406
 30
0.0
 40
0.078
  1
A
  7
SIMPLEX
 72
     1
 11
-9.173681594793
 21
7.572559019520406
 31
0.0
100
AcDbText
  0
LINE
  5
3A02
330
17
100
AcDbEntity
  8
3
100
AcDbLine
 10
-8.417980242989115
 20
7.575126224606082
 30
0.0
 11
-8.417980242989115
 21
7.699999999999997
 31
0.0
  0
TEXT
  5
3A03
330
17
100
AcDbEntity
  8
2
100
AcDbText
 10
-7.68035973779822
 20
7.572559019520406
 30
0.0
 40
0.078
  1
B
  7
SIMPLEX
 72
     1
 11
-7.654359737798221
 21
7.572559019520406
 31
0.0
100
AcDbText
  0
LINE
  5
3A04
330
17
100
AcDbEntity
  8
3
100
AcDbLine
 10
-6.909384194391293
 20
7.575126224606082
 30
0.0
 11
-6.909384194391293
 21
7.699999999999997
 31
0.0
  0
TEXT
  5
3A05
330
17
100
AcDbEntity
  8
2
100
AcDbText
 10
-6.206616515948204
 20
7.572559019520406
 30
0.0
 40
0.078
  1
C
  7
SIMPLEX
 72
     1
 11
-6.178759373091061
 21
7.572559019520406
 31
0.0
100
AcDbText
  0
LINE
  5
3A06
330
17
100
AcDbEntity
  8
3
100
AcDbLine
 10
-5.40078814579347
 20
7.575126224606082
 30
0.0
 11
-5.40078814579347
 21
7.699999999999997
 31
0.0
  0
LINE
  5
3A07
330
17
100
AcDbEntity
  8
4
100
AcDbLine
 10
-0.0000000000000036
 20
8.500000000000001
 30
0.0
 11
0.0
 21
0.0
 31
0.0
  0
LINE
  5
3A08
330
17
100
AcDbEntity
  8
4
100
AcDbLine
 10
-0.8750000000000035
 20
7.699999999999997
 30
0.0
 11
-0.875
 21
0.8000000000000007
 31
0.0
  0
TEXT
  5
3A09
330
17
100
AcDbEntity
  8
2
100
AcDbText
 10
-4.718228635311996
 20
7.572559019520406
 30
0.0
 40
0.078
  1
D
  7
SIMPLEX
 72
     1
 11
-4.692228635311996
 21
7.572559019520406
 31
0.0
100
AcDbText
  0
LINE
  5
3A0A
330
17
100
AcDbEntity
  8
3
100
AcDbLine
 10
-3.892192097195648
 20
7.575126224606082
 30
0.0
 11
-3.892192097195648
 21
7.699999999999997
 31
0.0
  0
TEXT
  5
3A0B
330
17
100
AcDbEntity
  8
2
100
AcDbText
 10
-3.186119262388171
 20
7.572559019520406
 30
0.0
 40
0.078
  1
E
  7
SIMPLEX
 72
     1
 11
-3.161976405245314
 21
7.572559019520406
 31
0.0
100
AcDbText
  0
LINE
  5
3A0C
330
17
100
AcDbEntity
  8
3
100
AcDbLine
 10
-2.383596048597826
 20
7.575126224606082
 30
0.0
 11
-2.383596048597826
 21
7.699999999999997
 31
0.0
  0
TEXT
  5
3A0D
330
17
100
AcDbEntity
  8
2
100
AcDbText
 10
-1.677727778465293
 20
7.572559019520406
 30
0.0
 40
0.078
  1
F
  7
SIMPLEX
 72
     1
 11
-1.653584921322436
 21
7.572559019520406
 31
0.0
100
AcDbText
  0
LINE
  5
3A4E
330
17
100
AcDbEntity
  8
0
100
AcDbLine
 10
-4.002443982812748
 20
3.108455695245766
 30
0.0
 11
-3.252443982812748
 21
3.108455695245766
 31
0.0
  0
LINE
  5
3A4F
330
17
100
AcDbEntity
  8
0
100
AcDbLine
 10
-4.002443982812748
 20
3.085455695245765
 30
0.0
 11
-3.252443982812748
 21
3.085455695245765
 31
0.0
  0
LINE
  5
3A50
330
17
100
AcDbEntity
  8
0
100
AcDbLine
 10
-3.252443982812748
 20
3.108455695245766
 30
0.0
 11
-3.252443982812748
 21
3.085455695245765
 31
0.0
  0
LINE
  5
3ACD
330
17
100
AcDbEntity
  8
4
100
AcDbLine
 10
0.0
 20
0.0
 30
0.0
 11
-11.05
 21
0.0
 31
0.0
  0
TEXT
  5
3ACE
330
17
100
AcDbEntity
  8
3
100
AcDbText
 10
-4.146686422602845
 20
1.172721701144442
 30
0.0
 40
0.0581453098711065
  1
DWG/PART NO/558043
  7
SIMPLEX
 72
     1
 11
-3.635838343020981
 21
1.172721701144442
 31
0.0
100
AcDbText
  0
TEXT
  5
3ACF
330
17
100
AcDbEntity
  8
3
100
AcDbText
 10
-4.027326531870374
 20
1.311149142688047
 30
0.0
 40
0.0781522982138528
  1
DIRECT VALVE ACTION W/O MAGNET
  7
SIMPLEX
 72
     1
 11
-2.938776663891711
 21
1.311149142688047
 31
0.0
100
AcDbText
  0
LINE
  5
3AD0
330
17
100
AcDbEntity
  8
0
100
AcDbLine
 10
-5.003092582724518
 20
1.134922461148745
 30
0.0
 11
-2.276515304746098
 21
1.134922461148745
 31
0.0
  0
LWPOLYLINE
  5
3AD1
330
17
100
AcDbEntity
  8
4
  6
Continuous
100
AcDbPolyline
 90
       73
 70
     0
 43
0.0
 10
-3.328188277450943
 20
1.616995968660269
 10
-3.325729572464265
 20
1.615549671609295
 10
-3.323704756592849
 20
1.613669485443014
 10
-3.321969200131698
 20
1.611355410161418
 10
-3.320667532785812
 20
1.60875207546965
 10
-3.319944384260281
 20
1.60585948136766
 10
-3.319799754555193
 20
1.602966887265668
 10
-3.320233643670461
 20
1.60021892286881
 10
-3.321390681311256
 20
1.59747095847191
 10
-3.322692348657141
 20
1.595880031715847
 10
-3.323994016003073
 20
1.594433734664831
 10
-3.325584942759173
 20
1.593132067318946
 10
-3.327320499220325
 20
1.591975029678149
 10
-3.329200685386651
 20
1.591107251447573
 10
-3.331225501257981
 20
1.590384102922087
 10
-3.333394946834488
 20
1.58995021380678
 10
-3.335564392410987
 20
1.589805584101688
 10
-3.388354234772086
 20
1.589805584101688
 10
-3.359862182867621
 20
1.613958744853188
 10
-3.358126626406383
 20
1.615549671609295
 10
-3.356824959060495
 20
1.617140598365359
 10
-3.355667921419744
 20
1.618586895416374
 10
-3.354944772894256
 20
1.620033192467349
 10
-3.354366254073819
 20
1.621479489518321
 10
-3.354076994663638
 20
1.623070416274426
 10
-3.353787735253462
 20
1.624516713325401
 10
-3.353787735253462
 20
1.626107640081505
 10
-3.353787735253462
 20
1.721997134562109
 10
-3.354076994663638
 20
1.724021950433481
 10
-3.354655513484038
 20
1.726046766304893
 10
-3.355667921419744
 20
1.727637693060958
 10
-3.356969588765629
 20
1.729083990111973
 10
-3.358560515521733
 20
1.730241027752729
 10
-3.360296071982886
 20
1.731108805983344
 10
-3.362320887854302
 20
1.731687324803741
 10
-3.364345703725671
 20
1.73183195450883
 10
-3.395585720027038
 20
1.73183195450883
 10
-3.393416274450537
 20
1.72966250893237
 10
-3.391536088284297
 20
1.727637693060958
 10
-3.389945161528192
 20
1.725323617779366
 10
-3.388643494182263
 20
1.723009542497814
 10
-3.387486456541509
 20
1.720406207806004
 10
-3.386763308016021
 20
1.717658243409143
 10
-3.386329418900714
 20
1.714476389896975
 10
-3.38618478919558
 20
1.710860647269498
 10
-3.38618478919558
 20
1.61077689134102
 10
-3.411928876703231
 20
1.579536875039655
 10
-3.314593085171653
 20
1.579536875039655
 10
-3.31300215841555
 20
1.579681504744744
 10
-3.311266601954352
 20
1.579826134449833
 10
-3.309675675198292
 20
1.580115393860054
 10
-3.307940118737056
 20
1.58069391268045
 10
-3.306204562275905
 20
1.581272431500853
 10
-3.304613635519798
 20
1.581995580026337
 10
-3.303022708763691
 20
1.582718728551824
 10
-3.301431782007631
 20
1.583586506782399
 10
-3.299840855251566
 20
1.584598914718107
 10
-3.298394558200552
 20
1.585611322653813
 10
-3.296948261149537
 20
1.586768360294608
 10
-3.295501964098566
 20
1.587925397935364
 10
-3.294344926457767
 20
1.589082435576159
 10
-3.293043259111883
 20
1.590384102922087
 10
-3.292030851176173
 20
1.591685770267972
 10
-3.291018443240508
 20
1.592987437613856
 10
-3.288704367958921
 20
1.597615588176999
 10
-3.287258070907903
 20
1.602822257560581
 10
-3.286534922382453
 20
1.608607445764518
 10
-3.286679552087548
 20
1.614537263673589
 10
-3.287691960023251
 20
1.620177822172438
 10
-3.289427516484403
 20
1.625384491556019
 10
-3.291886221471083
 20
1.629723382708984
 10
-3.295212704688387
 20
1.63304986592624
 10
-3.328188277450943
 20
1.616995968660269
  0
LINE
  5
3AD2
330
17
100
AcDbEntity
  8
0
100
AcDbLine
 10
-5.003092582724561
 20
1.506851047390886
 30
0.0
 11
-0.875
 21
1.506851047390886
 31
0.0
  0
LINE
  5
3AD3
330
17
100
AcDbEntity
  8
0
100
AcDbLine
 10
-5.003092582724561
 20
1.268913789283079
 30
0.0
 11
-0.875
 21
1.268913789283079
 31
0.0
  0
LINE
  5
3AD4
330
17
100
AcDbEntity
  8
0
100
AcDbLine
 10
-6.019072459504661
 20
1.816000699999956
 30
0.0
 11
-0.8750000000000035
 21
1.816000699999956
 31
0.0
  0
LINE
  5
3AD6
330
17
100
AcDbEntity
  8
4
100
AcDbLine
 10
-0.8750000000000035
 20
0.7999999999999972
 30
0.0
 11
-10.175
 21
0.8000000000000007
 31
0.0
  0
LINE
  5
3AEB
330
17
100
AcDbEntity
  8
3
100
AcDbLine
 10
-10.0504917527379
 20
1.971875
 30
0.0
 11
-10.175
 21
1.971875
 31
0.0
  0
TEXT
  5
3AEE
330
17
100
AcDbEntity
  8
3
100
AcDbText
 10
-5.960461714091134
 20
1.179533833860109
 30
0.0
 40
0.0618196890168171
  1
FRACTIONS %%P 1/32
  7
SIMPLEX
 72
     1
 11
-5.507117327967808
 21
1.179533833860109
 31
0.0
100
AcDbText
  0
LINE
  5
3AEF
330
17
100
AcDbEntity
  8
0
100
AcDbLine
 10
-6.019072459504661
 20
1.581522982138519
 30
0.0
 11
-5.003092582724518
 21
1.581522982138519
 31
0.0
  0
LINE
  5
3AF0
330
17
100
AcDbEntity
  8
0
100
AcDbLine
 10
-6.019072459504661
 20
1.698751429459288
 30
0.0
 11
-5.003092582724518
 21
1.698751429459288
 31
0.0
  0
TEXT
  5
3AF1
330
17
100
AcDbEntity
  8
3
100
AcDbText
 10
-5.988501810407901
 20
1.617010761484773
 30
0.0
 40
0.0495371109926942
  1
DIMENSIONS ARE IN INCHES
 41
0.9163641132346425
  7
SIMPLEX
 72
     5
 11
-5.035227163880349
 21
1.617010761484773
 31
0.0
100
AcDbText
  0
TEXT
  5
3AF2
330
17
100
AcDbEntity
  8
3
100
AcDbText
 10
-5.988501810407901
 20
1.73724471124794
 30
0.0
 40
0.0495371109926942
  1
UNLESS OTHERWISE SPECIFIED
 41
0.8436671689696819
  7
SIMPLEX
 72
     5
 11
-5.035227163880349
 21
1.73724471124794
 31
0.0
100
AcDbText
  0
LINE
  5
3AF3
330
17
100
AcDbEntity
  8
0
100
AcDbLine
 10
-6.019072459504661
 20
0.940730428956474
 30
0.0
 11
-5.003092582724518
 21
0.940730428956474
 31
0.0
  0
LINE
  5
3AF5
330
17
100
AcDbEntity
  8
4
100
AcDbLine
 10
-6.019072459504661
 20
1.816000699999956
 30
0.0
 11
-6.019072459504661
 21
0.7999999999999547
 31
0.0
  0
TEXT
  5
3B00
330
17
100
AcDbEntity
  8
3
100
AcDbText
 10
-5.870675975280994
 20
1.073557224116977
 30
0.0
 40
0.0618196890168171
  1
ANGLES %%P 1/2%%D
  7
SIMPLEX
 72
     1
 11
-5.507117327967808
 21
1.073557224116977
 31
0.0
100
AcDbText
  0
TEXT
  5
3B01
330
17
100
AcDbEntity
  8
3
100
AcDbText
 10
-5.752049110551726
 20
0.8780150085737686
 30
0.0
 40
0.0420373885314357
  1
DO NOT SCALE
  7
SIMPLEX
 72
     1
 11
-5.515839022613183
 21
0.8780150085737686
 31
0.0
100
AcDbText
  0
TEXT
  5
3B02
330
17
100
AcDbEntity
  8
3
100
AcDbText
 10
-5.788081157864385
 20
0.8181221239476919
 30
0.0
 40
0.0420373885314357
  1
READ ALL NOTES
  7
SIMPLEX
 72
     1
 11
-5.515839022613183
 21
0.8181221239476919
 31
0.0
100
AcDbText
  0
TEXT
  5
3B03
330
17
100
AcDbEntity
  8
3
100
AcDbText
 10
-5.842709925487673
 20
0.9675806143738512
 30
0.0
 40
0.0618196890168171
  1
HOLES %%P .005
  7
SIMPLEX
 72
     1
 11
-5.507117327967808
 21
0.9675806143738512
 31
0.0
100
AcDbText
  0
TEXT
  5
3B04
330
17
100
AcDbEntity
  8
3
100
AcDbText
 10
-5.794137312688745
 20
1.487547199255824
 30
0.0
 40
0.0618196890168171
  1
TOLERANCES
  7
SIMPLEX
 72
     1
 11
-5.507117327967808
 21
1.487547199255824
 31
0.0
100
AcDbText
  0
TEXT
  5
3B05
330
17
100
AcDbEntity
  8
3
100
AcDbText
 10
-5.763227468180336
 20
1.391487053346327
 30
0.0
 40
0.0618196890168171
  1
.XX %%P .010
  7
SIMPLEX
 72
     1
 11
-5.507117327967808
 21
1.391487053346327
 31
0.0
100
AcDbText
  0
TEXT
  5
3B06
330
17
100
AcDbEntity
  8
3
100
AcDbText
 10
-5.835350438699956
 20
1.285510443603197
 30
0.0
 40
0.0618196890168171
  1
.XXX %%P .005 
  7
SIMPLEX
 72
     1
 11
-5.507117327967808
 21
1.285510443603197
 31
0.0
100
AcDbText
  0
LWPOLYLINE
  5
3B09
330
17
100
AcDbEntity
  8
4
  6
Continuous
100
AcDbPolyline
 90
       21
 70
     0
 43
0.0
 10
-4.90192607795916
 20
1.771701683024874
 10
-4.90192607795916
 20
1.601872722709718
 10
-4.895287022837361
 20
1.53601566699277
 10
-4.88740314488025
 20
1.601872722709718
 10
-4.88740314488025
 20
1.771405296635503
 10
-4.887580976713843
 20
1.7738356650283
 10
-4.888055194936848
 20
1.775969647031724
 10
-4.888766522271337
 20
1.777747965367929
 10
-4.889655681439419
 20
1.779229897314755
 10
-4.890781949719027
 20
1.78035616559436
 10
-4.89202677255437
 20
1.781186047484547
 10
-4.893330872667568
 20
1.781660265707555
 10
-4.894634972780758
 20
1.781838097541147
 10
-4.895998350171846
 20
1.781719542985405
 10
-4.897302450285046
 20
1.78124532476244
 10
-4.898547273120387
 20
1.780415442872209
 10
-4.899673541399952
 20
1.779348451870496
 10
-4.900562700568073
 20
1.77792579720156
 10
-4.901274027902518
 20
1.776147478865357
 10
-4.901748246125528
 20
1.774072774139784
 10
-4.90192607795916
 20
1.771701683024874
  0
LWPOLYLINE
  5
3B0A
330
17
100
AcDbEntity
  8
4
  6
Continuous
100
AcDbPolyline
 90
       21
 70
     0
 43
0.0
 10
-4.926587736449832
 20
1.74742597861269
 10
-4.926587736449832
 20
1.601931999987611
 10
-4.919296631271478
 20
1.53601566699277
 10
-4.911768416981592
 20
1.601635613598235
 10
-4.911768416981592
 20
1.747959474113546
 10
-4.911946248815226
 20
1.750330565228455
 10
-4.912420467038191
 20
1.752345992676139
 10
-4.913131794372683
 20
1.75406503373445
 10
-4.914080230818651
 20
1.75548768840343
 10
-4.91520649909826
 20
1.756495402127248
 10
-4.916451321933561
 20
1.757266006739586
 10
-4.917814699324646
 20
1.757680947684704
 10
-4.919178076715733
 20
1.757799502240445
 10
-4.920541454106821
 20
1.757562393128964
 10
-4.921904831497911
 20
1.757028897628105
 10
-4.923149654333212
 20
1.756199015737875
 10
-4.924275922612813
 20
1.755072747458314
 10
-4.925224359058744
 20
1.753590815511484
 10
-4.925935686393277
 20
1.75187177445313
 10
-4.926409904616238
 20
1.749797069727598
 10
-4.926587736449832
 20
1.74742597861269
  0
LINE
  5
3B0B
330
17
100
AcDbEntity
  8
0
100
AcDbLine
 10
-5.003092582724518
 20
0.7999999999999547
 30
0.0
 11
-5.003092582724518
 21
1.815979876780058
 31
0.0
  0
LWPOLYLINE
  5
3B0C
330
17
100
AcDbEntity
  8
4
  6
Continuous
100
AcDbPolyline
 90
       21
 70
     0
 43
0.0
 10
-4.877916469525041
 20
1.757605381194094
 10
-4.877916469525041
 20
1.601872722709718
 10
-4.871277414403284
 20
1.53601566699277
 10
-4.863393536446134
 20
1.601872722709718
 10
-4.863393536446134
 20
1.757308994804724
 10
-4.863571368279771
 20
1.759739363197519
 10
-4.864045586502776
 20
1.761873345200949
 10
-4.864756913837226
 20
1.763651663537149
 10
-4.865646073005346
 20
1.765133595483975
 10
-4.86677234128491
 20
1.766259863763581
 10
-4.868017164120252
 20
1.767089745653815
 10
-4.869321264233452
 20
1.767563963876778
 10
-4.870625364346643
 20
1.767741795710409
 10
-4.87198874173773
 20
1.767623241154668
 10
-4.873292841850927
 20
1.767149022931665
 10
-4.874537664686271
 20
1.766319141041432
 10
-4.875663932965833
 20
1.76525215003972
 10
-4.876553092133955
 20
1.763829495370782
 10
-4.877264419468446
 20
1.762051177034581
 10
-4.877738637691454
 20
1.759976472309048
 10
-4.877916469525041
 20
1.757605381194094
  0
LWPOLYLINE
  5
3B0D
330
17
100
AcDbEntity
  8
4
  6
Continuous
100
AcDbPolyline
 90
      114
 70
     0
 43
0.0
 10
-4.222922571313873
 20
1.578379837398859
 10
-4.224513498069933
 20
1.579681504744744
 10
-4.226104424826043
 20
1.581561690911024
 10
-4.227695351582145
 20
1.584165025602794
 10
-4.229286278338205
 20
1.587346879115008
 10
-4.230732575389183
 20
1.591107251447573
 10
-4.231889613029975
 20
1.595735402010715
 10
-4.232757391260593
 20
1.601086701099385
 10
-4.233335910080953
 20
1.607161148713547
 10
-4.233335910080953
 20
1.702906013489059
 10
-4.233480539786038
 20
1.705509348180829
 10
-4.234059058606482
 20
1.70825731257773
 10
-4.235071466542185
 20
1.711005276974589
 10
-4.236517763593163
 20
1.713608611666358
 10
-4.238397949759441
 20
1.716211946358169
 10
-4.240712025041037
 20
1.718815281049939
 10
-4.243315359732807
 20
1.72127398603662
 10
-4.246352583539883
 20
1.723732691023303
 10
-4.249679066757185
 20
1.725902136599763
 10
-4.253439439089753
 20
1.727926952471175
 10
-4.257633700537581
 20
1.72966250893237
 10
-4.261972591690593
 20
1.731253435688433
 10
-4.266890001663951
 20
1.732410473329229
 10
-4.271952041342403
 20
1.733422881264939
 10
-4.277447970136162
 20
1.734001400085334
 10
-4.283233158340101
 20
1.734290659495513
 10
-4.289452235659346
 20
1.734001400085334
 10
-4.295526683273505
 20
1.733133621854715
 10
-4.301456501182573
 20
1.731398065393523
 10
-4.307097059681463
 20
1.729228619817064
 10
-4.312448358770094
 20
1.726336025715073
 10
-4.317655028153634
 20
1.723009542497814
 10
-4.322427808421906
 20
1.719104540460119
 10
-4.326911329280004
 20
1.714765649307153
 10
-4.330960961022743
 20
1.709992869038879
 10
-4.334721333355311
 20
1.704930829360429
 10
-4.337903186867521
 20
1.699579530271758
 10
-4.340506521559291
 20
1.693938971772911
 10
-4.342675967135797
 20
1.68800915386384
 10
-4.344266893891859
 20
1.681934706249679
 10
-4.345279301827567
 20
1.675715628930436
 10
-4.345568561237742
 20
1.6693519219061
 10
-4.345568561237742
 20
1.598772625817793
 10
-4.345857820647962
 20
1.594289104959741
 10
-4.346870228583629
 20
1.590528732627175
 10
-4.348171895929512
 20
1.587346879115008
 10
-4.349907452390751
 20
1.584743544423196
 10
-4.351643008851901
 20
1.582718728551824
 10
-4.353378565313096
 20
1.580983172090629
 10
-4.355114121774292
 20
1.579681504744744
 10
-4.356415789120173
 20
1.57852446710395
 10
-4.325754291639205
 20
1.57852446710395
 10
-4.321704659896465
 20
1.579102985924347
 10
-4.318233546974073
 20
1.580549282975321
 10
-4.315196323166953
 20
1.582718728551824
 10
-4.312592988475183
 20
1.585611322653813
 10
-4.310423542898725
 20
1.588793176165981
 10
-4.308832616142616
 20
1.59226428908837
 10
-4.307820208206912
 20
1.595880031715847
 10
-4.307241689386557
 20
1.599495774343282
 10
-4.306952429976378
 20
1.604702443726864
 10
-4.307675578501822
 20
1.610053742815534
 10
-4.308687986437528
 20
1.615260412199074
 10
-4.309989653783413
 20
1.620322451877568
 10
-4.311725210244606
 20
1.627553937132478
 10
-4.313316137000715
 20
1.634785422387432
 10
-4.314762434051681
 20
1.642016907642389
 10
-4.316208731102658
 20
1.649248392897344
 10
-4.317510398448547
 20
1.656479878152295
 10
-4.318522806384251
 20
1.663855993112338
 10
-4.319390584614872
 20
1.671087478367294
 10
-4.319969103435226
 20
1.678463593327334
 10
-4.320113733140312
 20
1.684538040941493
 10
-4.319679844025048
 20
1.690757118260744
 10
-4.318667436089345
 20
1.6968315658749
 10
-4.317076509333278
 20
1.702761383783968
 10
-4.314762434051681
 20
1.70825731257773
 10
-4.311725210244606
 20
1.71331935225618
 10
-4.307964837912042
 20
1.717658243409143
 10
-4.303192057643768
 20
1.72127398603662
 10
-4.300444093246866
 20
1.722720283087596
 10
-4.297551499144917
 20
1.723732691023303
 10
-4.294514275337839
 20
1.724455839548788
 10
-4.291477051530761
 20
1.724889728664098
 10
-4.288295198018551
 20
1.724889728664098
 10
-4.285113344506424
 20
1.724455839548788
 10
-4.282076120699302
 20
1.723732691023303
 10
-4.279038896892267
 20
1.722720283087596
 10
-4.276290932495363
 20
1.72127398603662
 10
-4.273687597803558
 20
1.719538429575425
 10
-4.271228892816913
 20
1.717368983998921
 10
-4.269204076945539
 20
1.714910279012244
 10
-4.267468520484307
 20
1.712162314615381
 10
-4.266022223433334
 20
1.708980461103215
 10
-4.265009815497626
 20
1.705509348180829
 10
-4.264575926382359
 20
1.701748975848263
 10
-4.264575926382359
 20
1.599061885228014
 10
-4.264431296677267
 20
1.596603180241332
 10
-4.263997407561961
 20
1.594433734664831
 10
-4.263274259036474
 20
1.59226428908837
 10
-4.262406480805856
 20
1.590239473216955
 10
-4.261249443165057
 20
1.588503916755762
 10
-4.259947775819173
 20
1.586768360294608
 10
-4.2585014787682
 20
1.585177433538508
 10
-4.256765922307006
 20
1.583731136487531
 10
-4.254885736140726
 20
1.582574098846738
 10
-4.253005549974441
 20
1.581417061205939
 10
-4.25098073410307
 20
1.580549282975321
 10
-4.248811288526566
 20
1.579826134449833
 10
-4.246641842950062
 20
1.579102985924347
 10
-4.244327767668468
 20
1.578669096809039
 10
-4.242158322092008
 20
1.57852446710395
 10
-4.239844246810458
 20
1.578379837398859
 10
-4.222922571313873
 20
1.578379837398859
  0
TEXT
  5
3B0E
330
17
100
AcDbEntity
  8
3
100
AcDbText
 10
-4.96349398344075
 20
1.186077063341494
 30
0.0
 40
0.0390761491069264
  1
FILE PATH:
  7
SIMPLEX
100
AcDbText
  0
TEXT
  5
3B0F
330
17
100
AcDbEntity
  8
3
100
AcDbText
 10
-4.969725071804719
 20
1.048988710554688
 30
0.0
 40
0.0390761491069264
  1
MAT'L DESCRIPTION:
  7
SIMPLEX
100
AcDbText
  0
LWPOLYLINE
  5
3B10
330
17
100
AcDbEntity
  8
4
  6
Continuous
100
AcDbPolyline
 90
       18
 70
     0
 43
0.0
 10
-4.890426286051802
 20
1.601754168153975
 10
-4.890485563329651
 20
1.600805731708005
 10
-4.890604117885391
 20
1.599857295262036
 10
-4.890900504274766
 20
1.599027413371803
 10
-4.891256167942032
 20
1.598256808759465
 10
-4.891848940720738
 20
1.597545481425018
 10
-4.892560268055221
 20
1.597011985924118
 10
-4.893390149945458
 20
1.596656322256897
 10
-4.894457140947169
 20
1.59647849042326
 10
-4.895464854670994
 20
1.596537767701153
 10
-4.896413291116963
 20
1.596834154090529
 10
-4.897124618451448
 20
1.597367649591386
 10
-4.897717391230155
 20
1.598078976925874
 10
-4.898191609453164
 20
1.598908858816063
 10
-4.898547273120387
 20
1.599798017984183
 10
-4.898784382231871
 20
1.600746454430158
 10
-4.898843659509719
 20
1.601754168153975
 10
-4.890426286051802
 20
1.601754168153975
  0
LWPOLYLINE
  5
3B11
330
17
100
AcDbEntity
  8
4
  6
Continuous
100
AcDbPolyline
 90
       18
 70
     0
 43
0.0
 10
-4.898902936787608
 20
1.605251527548491
 10
-4.898962214065504
 20
1.60780045049703
 10
-4.898962214065504
 20
1.610586482557055
 10
-4.898962214065504
 20
1.613609623728603
 10
-4.898725104954021
 20
1.61686987401159
 10
-4.898310164008861
 20
1.620307956128254
 10
-4.897539559396527
 20
1.623983147356359
 10
-4.896354013839068
 20
1.627836170418138
 10
-4.894634972780758
 20
1.631867025313503
 10
-4.893212318111778
 20
1.628073279529619
 10
-4.892086049832219
 20
1.624338811023623
 10
-4.891256167942032
 20
1.62072289707337
 10
-4.890663395163278
 20
1.617225537678859
 10
-4.890307731496013
 20
1.613846732840082
 10
-4.890189176940275
 20
1.610764314390688
 10
-4.890189176940275
 20
1.607859727774926
 10
-4.890307731496013
 20
1.605251527548491
 10
-4.898902936787608
 20
1.605251527548491
  0
LWPOLYLINE
  5
3B12
330
17
100
AcDbEntity
  8
4
  6
Continuous
100
AcDbPolyline
 90
       18
 70
     0
 43
0.0
 10
-4.924098090779181
 20
1.605014418437006
 10
-4.924157368057031
 20
1.608452500553628
 10
-4.923920258945548
 20
1.612009137226035
 10
-4.923505318000478
 20
1.615565773898395
 10
-4.922912545221731
 20
1.619063133292906
 10
-4.922141940609389
 20
1.622382660853785
 10
-4.921252781441268
 20
1.625346524747445
 10
-4.920245067717445
 20
1.627954724973879
 10
-4.919118799437843
 20
1.629970152421559
 10
-4.918170362991912
 20
1.628014002251725
 10
-4.917221926545893
 20
1.625524356581077
 10
-4.916332767377816
 20
1.622501215409531
 10
-4.915562162765478
 20
1.619122410570799
 10
-4.914910112708881
 20
1.615565773898395
 10
-4.914435894485874
 20
1.611949859948141
 10
-4.914198785374392
 20
1.608393223275779
 10
-4.914198785374392
 20
1.605014418437006
 10
-4.924098090779181
 20
1.605014418437006
  0
LWPOLYLINE
  5
3B13
330
17
100
AcDbEntity
  8
4
  6
Continuous
100
AcDbPolyline
 90
       18
 70
     0
 43
0.0
 10
-4.91431733993013
 20
1.601754168153975
 10
-4.91431733993013
 20
1.600805731708005
 10
-4.914435894485874
 20
1.599857295262036
 10
-4.914732280875249
 20
1.598968136093954
 10
-4.91520649909826
 20
1.598078976925874
 10
-4.915799271876962
 20
1.597308372313493
 10
-4.916629153767193
 20
1.596715599534789
 10
-4.917577590213163
 20
1.59630065858967
 10
-4.918763135770618
 20
1.59618210403393
 10
-4.919948681328072
 20
1.59635993586752
 10
-4.920956395051893
 20
1.596715599534789
 10
-4.921845554220016
 20
1.597249095035645
 10
-4.922616158832353
 20
1.598019699647984
 10
-4.923149654333212
 20
1.598849581538213
 10
-4.923623872556174
 20
1.599738740706293
 10
-4.923860981667701
 20
1.600746454430158
 10
-4.923979536223441
 20
1.601754168153975
 10
-4.91431733993013
 20
1.601754168153975
  0
LWPOLYLINE
  5
3B14
330
17
100
AcDbEntity
  8
4
  6
Continuous
100
AcDbPolyline
 90
       18
 70
     0
 43
0.0
 10
-4.874893328353492
 20
1.605251527548491
 10
-4.874952605631388
 20
1.60780045049703
 10
-4.874952605631388
 20
1.610586482557055
 10
-4.874952605631388
 20
1.613609623728603
 10
-4.874715496519903
 20
1.61686987401159
 10
-4.874300555574786
 20
1.620307956128254
 10
-4.873529950962409
 20
1.623983147356359
 10
-4.872344405404994
 20
1.627836170418138
 10
-4.870625364346643
 20
1.631867025313503
 10
-4.869202709677709
 20
1.628073279529619
 10
-4.868076441398144
 20
1.624338811023623
 10
-4.867246559507917
 20
1.62072289707337
 10
-4.866653786729165
 20
1.617225537678859
 10
-4.866298123061902
 20
1.613846732840082
 10
-4.866179568506201
 20
1.610764314390688
 10
-4.866179568506201
 20
1.607859727774926
 10
-4.866298123061902
 20
1.605251527548491
 10
-4.874893328353492
 20
1.605251527548491
  0
LWPOLYLINE
  5
3B15
330
17
100
AcDbEntity
  8
4
  6
Continuous
100
AcDbPolyline
 90
       18
 70
     0
 43
0.0
 10
-4.866416677617682
 20
1.601754168153975
 10
-4.866475954895533
 20
1.600805731708005
 10
-4.866594509451275
 20
1.599857295262036
 10
-4.866890895840651
 20
1.599027413371803
 10
-4.867246559507917
 20
1.598256808759465
 10
-4.867839332286621
 20
1.597545481425018
 10
-4.868550659621106
 20
1.597011985924118
 10
-4.869380541511342
 20
1.596656322256897
 10
-4.870447532513052
 20
1.59647849042326
 10
-4.871455246236877
 20
1.596537767701153
 10
-4.872403682682846
 20
1.596834154090529
 10
-4.873115010017334
 20
1.597367649591386
 10
-4.873707782796085
 20
1.598078976925874
 10
-4.874182001019047
 20
1.598908858816063
 10
-4.874537664686271
 20
1.599798017984183
 10
-4.874774773797796
 20
1.600746454430158
 10
-4.874834051075643
 20
1.601754168153975
 10
-4.866416677617682
 20
1.601754168153975
  0
TEXT
  5
3B16
330
17
100
AcDbEntity
  8
3
100
AcDbText
 10
-4.961394331473321
 20
1.425218385710799
 30
0.0
 40
0.0390761491069264
  1
NAME:
  7
SIMPLEX
100
AcDbText
  0
LWPOLYLINE
  5
3B17
330
17
100
AcDbEntity
  8
4
  6
Continuous
100
AcDbPolyline
 90
       59
 70
     0
 43
0.0
 10
-4.773896730555389
 20
1.687719894453664
 10
-4.759144500635303
 20
1.69900101145136
 10
-4.756830425353708
 20
1.698856381746271
 10
-4.754660979777209
 20
1.698567122336091
 10
-4.752491534200743
 20
1.697988603515694
 10
-4.750466718329374
 20
1.697410084695297
 10
-4.74829727275287
 20
1.696542306464681
 10
-4.746272456881455
 20
1.695529898529017
 10
-4.744392270715214
 20
1.694372860888218
 10
-4.742512084548891
 20
1.693071193542333
 10
-4.740776528087738
 20
1.691769526196404
 10
-4.739040971626542
 20
1.690323229145434
 10
-4.737305415165346
 20
1.688876932094458
 10
-4.735714488409286
 20
1.687286005338354
 10
-4.734268191358271
 20
1.685695078582291
 10
-4.732821894307251
 20
1.684104151826186
 10
-4.731520226961372
 20
1.68265785477521
 10
-4.730363189320615
 20
1.681066928019109
 10
-4.726313557577832
 20
1.674703220994771
 10
-4.723131704065661
 20
1.668050254560215
 10
-4.720817628784068
 20
1.66096339901035
 10
-4.719226702027967
 20
1.653731913755397
 10
-4.718214294092296
 20
1.64635579879535
 10
-4.717780404976991
 20
1.638835054130221
 10
-4.717491145566813
 20
1.631314309465088
 10
-4.717635775271903
 20
1.623793564799913
 10
-4.717925034682078
 20
1.619888562762259
 10
-4.718648183207611
 20
1.616128190429694
 10
-4.719805220848407
 20
1.612512447802215
 10
-4.72125151789938
 20
1.60904133487983
 10
-4.722987074360574
 20
1.605714851662571
 10
-4.725156519937034
 20
1.60253299815036
 10
-4.727470595218626
 20
1.599640404048415
 10
-4.730073929910396
 20
1.59689243965151
 10
-4.732966524012386
 20
1.594433734664831
 10
-4.735859118114379
 20
1.592119659383239
 10
-4.739040971626542
 20
1.590094843511866
 10
-4.742222825138712
 20
1.588214657345583
 10
-4.745404678650922
 20
1.586623730589477
 10
-4.748731161868136
 20
1.58546669294868
 10
-4.752057645085436
 20
1.58445428501302
 10
-4.755239498597646
 20
1.583731136487531
 10
-4.757119684763887
 20
1.583875766192619
 10
-4.758999870930209
 20
1.584020395897709
 10
-4.76088005709645
 20
1.58445428501302
 10
-4.762615613557688
 20
1.585032803833416
 10
-4.764351170018841
 20
1.585755952358905
 10
-4.765942096774946
 20
1.586623730589477
 10
-4.76753302353105
 20
1.587780768230274
 10
-4.768834690876936
 20
1.58893780587107
 10
-4.770280987927911
 20
1.590384102922087
 10
-4.771293395863619
 20
1.591975029678149
 10
-4.772161174094193
 20
1.593710586139343
 10
-4.772884322619681
 20
1.595590772305626
 10
-4.773318211734991
 20
1.59747095847191
 10
-4.773607471145211
 20
1.599495774343282
 10
-4.773896730555389
 20
1.601520590214695
 10
-4.773896730555389
 20
1.603545406086069
 10
-4.773896730555389
 20
1.687719894453664
  0
LWPOLYLINE
  5
3B18
330
17
100
AcDbEntity
  8
4
  6
Continuous
100
AcDbPolyline
 90
       83
 70
     0
 43
0.0
 10
-4.715177070285221
 20
1.712596203730694
 10
-4.717491145566813
 20
1.714765649307153
 10
-4.719805220848407
 20
1.716935094883655
 10
-4.722119296129957
 20
1.718959910755028
 10
-4.724578001116636
 20
1.72084009692131
 10
-4.727181335808449
 20
1.722431023677418
 10
-4.730073929910396
 20
1.723877320728389
 10
-4.733255783422606
 20
1.725178988074274
 10
-4.736871526050084
 20
1.726046766304893
 10
-4.804268968626175
 20
1.68873230238937
 10
-4.804558228036351
 20
1.592553548498544
 10
-4.804413598331268
 20
1.590962621742487
 10
-4.804124338921091
 20
1.58922706528129
 10
-4.803545820100648
 20
1.587780768230274
 10
-4.802822671575203
 20
1.5863344711793
 10
-4.801954893344586
 20
1.585032803833416
 10
-4.800942485408876
 20
1.583731136487531
 10
-4.79978544776808
 20
1.582718728551824
 10
-4.798483780422198
 20
1.581706320616115
 10
-4.796314334845693
 20
1.580404653270232
 10
-4.794000259564146
 20
1.579247615629436
 10
-4.791686184282552
 20
1.578235207693771
 10
-4.789227479295874
 20
1.577367429463155
 10
-4.786768774309191
 20
1.576788910642754
 10
-4.784310069322511
 20
1.576210391822356
 10
-4.781706734630738
 20
1.575776502707089
 10
-4.779103399938923
 20
1.57534261359178
 10
-4.776500065247159
 20
1.57519798388669
 10
-4.773896730555389
 20
1.575053354181561
 10
-4.771293395863619
 20
1.575053354181561
 10
-4.768545431466757
 20
1.57519798388669
 10
-4.765942096774946
 20
1.57534261359178
 10
-4.763338762083131
 20
1.575631873001958
 10
-4.760735427391363
 20
1.57592113241218
 10
-4.758132092699597
 20
1.576355021527489
 10
-4.755094868892516
 20
1.576788910642754
 10
-4.752057645085436
 20
1.57751205916824
 10
-4.749165050983488
 20
1.578235207693771
 10
-4.746272456881455
 20
1.579102985924347
 10
-4.743379862779509
 20
1.580115393860054
 10
-4.740487268677559
 20
1.581272431500853
 10
-4.737739304280618
 20
1.582574098846738
 10
-4.734991339883753
 20
1.583875766192619
 10
-4.732388005191988
 20
1.585322063243592
 10
-4.729640040795128
 20
1.586912989999698
 10
-4.727181335808449
 20
1.588648546460895
 10
-4.724578001116636
 20
1.590384102922087
 10
-4.722119296129957
 20
1.59226428908837
 10
-4.719805220848407
 20
1.594144475254655
 10
-4.717491145566813
 20
1.596169291126025
 10
-4.715177070285221
 20
1.598194106997395
 10
-4.711561327657744
 20
1.601954479329965
 10
-4.708234844440447
 20
1.60585948136766
 10
-4.705052990928276
 20
1.609909113110403
 10
-4.702305026531373
 20
1.61424800426341
 10
-4.699701691839603
 20
1.618876154826551
 10
-4.697387616558012
 20
1.623504305389735
 10
-4.695507430391773
 20
1.628277085658009
 10
-4.693771873930533
 20
1.63319449563137
 10
-4.692470206584655
 20
1.638111905604734
 10
-4.691457798648985
 20
1.643318574988274
 10
-4.6907346501235
 20
1.648380614666724
 10
-4.690300761008188
 20
1.653587284050304
 10
-4.690156131303105
 20
1.658649323728754
 10
-4.690445390713321
 20
1.663855993112338
 10
-4.691023909533678
 20
1.669062662495876
 10
-4.691891687764297
 20
1.674124702174374
 10
-4.692614836289781
 20
1.676872666571229
 10
-4.693337984815271
 20
1.679620630968134
 10
-4.694205763045887
 20
1.682368595364989
 10
-4.695218170981551
 20
1.68497193005676
 10
-4.696375208622347
 20
1.687575264748573
 10
-4.697676875968233
 20
1.690178599440343
 10
-4.698978543314161
 20
1.692637304427026
 10
-4.700424840365136
 20
1.695096009413705
 10
-4.702015767121199
 20
1.697554714400386
 10
-4.703751323582391
 20
1.699868789681976
 10
-4.705486880043586
 20
1.702182864963571
 10
-4.707222436504777
 20
1.70435231054003
 10
-4.709102622671063
 20
1.706521756116536
 10
-4.711127438542436
 20
1.708546571987906
 10
-4.71315225441381
 20
1.710571387859278
 10
-4.715177070285221
 20
1.712596203730694
  0
LWPOLYLINE
  5
3B19
330
17
100
AcDbEntity
  8
4
  6
Continuous
100
AcDbPolyline
 90
        5
 70
     0
 43
0.0
 10
-4.268770187830192
 20
1.654455062280884
 10
-4.311146691424208
 20
1.681500817134416
 10
-4.311146691424208
 20
1.655033581101282
 10
-4.268625558125103
 20
1.632182087695664
 10
-4.268770187830192
 20
1.654455062280884
  0
LWPOLYLINE
  5
3B1A
330
17
100
AcDbEntity
  8
4
  6
Continuous
100
AcDbPolyline
 90
       21
 70
     0
 43
0.0
 10
-4.574616997860771
 20
1.696686936169809
 10
-4.575050886976042
 20
1.692203415311714
 10
-4.576352554321925
 20
1.68800915386384
 10
-4.578377370193338
 20
1.684393411236363
 10
-4.581125334590197
 20
1.681211557724195
 10
-4.584451817807494
 20
1.678608223032425
 10
-4.588212190140061
 20
1.676728036866141
 10
-4.592406451587893
 20
1.675570999225344
 10
-4.596745342740906
 20
1.675137110110039
 10
-4.625815913465809
 20
1.675137110110039
 10
-4.625815913465809
 20
1.712306944320474
 10
-4.628708507567752
 20
1.719393799870339
 10
-4.596166823920508
 20
1.719393799870339
 10
-4.591827932767539
 20
1.718959910755028
 10
-4.587633671319665
 20
1.717658243409143
 10
-4.58401792869219
 20
1.71563342753777
 10
-4.58083607518002
 20
1.71288546314087
 10
-4.578232740488251
 20
1.709414350218484
 10
-4.576352554321925
 20
1.705653977885918
 10
-4.575050886976042
 20
1.701315086732954
 10
-4.574616997860771
 20
1.696686936169809
  0
LWPOLYLINE
  5
3B1B
330
17
100
AcDbEntity
  8
4
  6
Continuous
100
AcDbPolyline
 90
       61
 70
     0
 43
0.0
 10
-4.574038479040331
 20
1.664000622817429
 10
-4.5698442175925
 20
1.664289882227649
 10
-4.565794585849712
 20
1.664868401048044
 10
-4.562178843222278
 20
1.66573617927862
 10
-4.55885236000498
 20
1.666893216919418
 10
-4.555959765902986
 20
1.66833951397039
 10
-4.553211801506087
 20
1.669930440726498
 10
-4.550753096519406
 20
1.671810626892781
 10
-4.548583650942941
 20
1.673980072469241
 10
-4.546703464776665
 20
1.676294147750834
 10
-4.545112538020603
 20
1.678752852737513
 10
-4.543810870674672
 20
1.681356187429283
 10
-4.542798462739005
 20
1.684248781531277
 10
-4.541930684508393
 20
1.687141375633263
 10
-4.541352165688034
 20
1.690178599440343
 10
-4.541062906277771
 20
1.693360452952511
 10
-4.540918276572681
 20
1.696686936169809
 10
-4.541062906277771
 20
1.699724159976891
 10
-4.541641425098212
 20
1.702761383783968
 10
-4.542364573623697
 20
1.705653977885918
 10
-4.543521611264495
 20
1.708546571987906
 10
-4.544823278610379
 20
1.711294536384764
 10
-4.546414205366487
 20
1.713897871076579
 10
-4.548294391532722
 20
1.716356576063256
 10
-4.550319207404138
 20
1.718670651344849
 10
-4.552633282685731
 20
1.720695467216224
 10
-4.555091987672412
 20
1.722575653382504
 10
-4.557550692659093
 20
1.724166580138609
 10
-4.560298657055954
 20
1.725612877189584
 10
-4.563191251157941
 20
1.726769914830381
 10
-4.566083845259931
 20
1.727493063355868
 10
-4.569121069066971
 20
1.728071582176266
 10
-4.572158292874092
 20
1.728216211881355
 10
-4.673399086443363
 20
1.728216211881355
 10
-4.671952789392353
 20
1.727059174240558
 10
-4.670651122046461
 20
1.725902136599763
 10
-4.669349454700537
 20
1.724600469253878
 10
-4.668192417059738
 20
1.72344343161308
 10
-4.667035379418987
 20
1.722286393972284
 10
-4.665878341778188
 20
1.72084009692131
 10
-4.664865933842527
 20
1.719393799870339
 10
-4.663853525906818
 20
1.717658243409143
 10
-4.662407228855842
 20
1.714476389896975
 10
-4.661250191215049
 20
1.71071601756441
 10
-4.660527042689516
 20
1.707100274936934
 10
-4.660237783279336
 20
1.704207680834944
 10
-4.660093153574255
 20
1.574185575950988
 10
-4.625237394645362
 20
1.604702443726864
 10
-4.625237394645362
 20
1.665013030753135
 10
-4.609906645904922
 20
1.665157660458223
 10
-4.557695322364184
 20
1.578669096809039
 10
-4.512715484078395
 20
1.578379837398859
 10
-4.515463448475297
 20
1.579970764154924
 10
-4.518211412872155
 20
1.581850950321249
 10
-4.520814747563972
 20
1.583731136487531
 10
-4.523418082255741
 20
1.585900582063992
 10
-4.525876787242416
 20
1.587925397935364
 10
-4.528190862524009
 20
1.590239473216955
 10
-4.530504937805607
 20
1.592553548498544
 10
-4.532819013087195
 20
1.595012253485229
 10
-4.574038479040331
 20
1.664000622817429
  0
LWPOLYLINE
  5
3B1C
330
17
100
AcDbEntity
  8
4
  6
Continuous
100
AcDbPolyline
 90
      271
 70
     0
 43
0.0
 10
-4.396120971461133
 20
1.670508959546894
 10
-4.398145787332505
 20
1.671665997187691
 10
-4.400170603203919
 20
1.672678405123356
 10
-4.402340048780381
 20
1.673546183353973
 10
-4.404364864651753
 20
1.674413961584551
 10
-4.406534310228256
 20
1.675281739815126
 10
-4.408703755804758
 20
1.675860258635526
 10
-4.410873201381221
 20
1.676583407161053
 10
-4.413042646957682
 20
1.677161925981453
 10
-4.415356722239268
 20
1.677595815096719
 10
-4.417526167815776
 20
1.677885074506939
 10
-4.419984872802454
 20
1.678174333917116
 10
-4.422298948084048
 20
1.678463593327334
 10
-4.424757653070724
 20
1.678608223032425
 10
-4.427216358057414
 20
1.678608223032425
 10
-4.429675063044093
 20
1.678608223032425
 10
-4.432278397735863
 20
1.678463593327334
 10
-4.466411008139217
 20
1.648091355256545
 10
-4.463807673447448
 20
1.648669874076944
 10
-4.461204338755678
 20
1.649248392897344
 10
-4.458601004063869
 20
1.649826911717742
 10
-4.455997669372051
 20
1.650260800833049
 10
-4.453394334680282
 20
1.650694689948315
 10
-4.450790999988512
 20
1.650983949358536
 10
-4.448187665296742
 20
1.651273208768715
 10
-4.445439700899886
 20
1.651417838473804
 10
-4.442836366208116
 20
1.651562468178934
 10
-4.440233031516301
 20
1.651562468178934
 10
-4.437629696824487
 20
1.651562468178934
 10
-4.435026362132718
 20
1.651417838473804
 10
-4.432423027440949
 20
1.651128579063625
 10
-4.429819692749179
 20
1.650694689948315
 10
-4.427216358057414
 20
1.650260800833049
 10
-4.424613023365643
 20
1.649682282012649
 10
-4.422877466904401
 20
1.649103763192254
 10
-4.420997280738163
 20
1.648669874076944
 10
-4.419261724276971
 20
1.647946725551457
 10
-4.417526167815776
 20
1.647368206731061
 10
-4.415790611354579
 20
1.646645058205573
 10
-4.414055054893387
 20
1.645921909680044
 10
-4.41246412813733
 20
1.645054131449465
 10
-4.410728571676086
 20
1.644186353218889
 10
-4.409137644920027
 20
1.643173945283183
 10
-4.407691347869048
 20
1.64216153734748
 10
-4.406245050818077
 20
1.641149129411811
 10
-4.404798753767063
 20
1.639992091771014
 10
-4.403497086421173
 20
1.638690424425129
 10
-4.402195419075294
 20
1.637388757079245
 10
-4.401038381434496
 20
1.635942460028228
 10
-4.3998813437937
 20
1.634496162977255
 10
-4.398145787332505
 20
1.631892828285444
 10
-4.396699490281532
 20
1.629000234183495
 10
-4.395687082345823
 20
1.626107640081505
 10
-4.394963933820339
 20
1.622925786569338
 10
-4.394530044705028
 20
1.619888562762259
 10
-4.394674674410115
 20
1.616706709250092
 10
-4.395397822935644
 20
1.613669485443014
 10
-4.39655486057644
 20
1.61077689134102
 10
-4.398290417037596
 20
1.60817355664925
 10
-4.400315232909006
 20
1.606004111072748
 10
-4.402629308190601
 20
1.604123924906465
 10
-4.405377272587459
 20
1.60253299815036
 10
-4.408269866689405
 20
1.601231330804475
 10
-4.411162460791436
 20
1.60021892286881
 10
-4.414344314303566
 20
1.599351144638194
 10
-4.417381538110683
 20
1.598772625817793
 10
-4.418827835161657
 20
1.598627996112706
 10
-4.420418761917721
 20
1.59833873670253
 10
-4.421865058968741
 20
1.598194106997395
 10
-4.423455985724846
 20
1.598194106997395
 10
-4.425046912480907
 20
1.598049477292309
 10
-4.426493209531878
 20
1.598049477292309
 10
-4.428084136288028
 20
1.598049477292309
 10
-4.429675063044093
 20
1.598049477292309
 10
-4.431121360095063
 20
1.598049477292309
 10
-4.432712286851128
 20
1.598194106997395
 10
-4.434303213607275
 20
1.598194106997395
 10
-4.435894140363338
 20
1.598483366407617
 10
-4.437340437414316
 20
1.598627996112706
 10
-4.438931364170417
 20
1.598917255522926
 10
-4.440377661221436
 20
1.599206514933102
 10
-4.441968587977497
 20
1.599495774343282
 10
-4.443704144438648
 20
1.59992966345859
 10
-4.445439700899886
 20
1.600363552573899
 10
-4.447030627655948
 20
1.6009420713943
 10
-4.448766184117143
 20
1.601520590214695
 10
-4.450357110873246
 20
1.602243738740185
 10
-4.451948037629311
 20
1.602966887265668
 10
-4.453538964385415
 20
1.60383466549629
 10
-4.455129891141518
 20
1.604702443726864
 10
-4.456576188192496
 20
1.605570221957438
 10
-4.458167114948558
 20
1.606582629893144
 10
-4.459613411999573
 20
1.607595037828853
 10
-4.461059709050591
 20
1.608607445764518
 10
-4.462506006101566
 20
1.609619853700225
 10
-4.463807673447448
 20
1.61077689134102
 10
-4.465253970498419
 20
1.611933928981819
 10
-4.466555637844308
 20
1.613090966622612
 10
-4.468725083420808
 20
1.615260412199074
 10
-4.470749899292183
 20
1.617574487480669
 10
-4.472774715163557
 20
1.619888562762259
 10
-4.474799531034967
 20
1.622202638043851
 10
-4.476679717201207
 20
1.624516713325401
 10
-4.478415273662445
 20
1.62697541831208
 10
-4.480295459828688
 20
1.629578753003894
 10
-4.481886386584831
 20
1.632037457990576
 10
-4.483477313340893
 20
1.634640792682345
 10
-4.484923610391874
 20
1.637388757079245
 10
-4.486225277737755
 20
1.639992091771014
 10
-4.487526945083638
 20
1.642740056167877
 10
-4.488683982724438
 20
1.645632650269865
 10
-4.48955176095505
 20
1.648380614666724
 10
-4.49041953918563
 20
1.651417838473804
 10
-4.491142687711112
 20
1.654310432575793
 10
-4.492155095646822
 20
1.66096339901035
 10
-4.492588984762091
 20
1.667905624855084
 10
-4.492155095646822
 20
1.67484785069986
 10
-4.490998058006026
 20
1.681500817134416
 10
-4.488973242134655
 20
1.687864524158751
 10
-4.485936018327578
 20
1.693649712362731
 10
-4.482031016289922
 20
1.698856381746271
 10
-4.477113606316558
 20
1.703050643194149
 10
-4.475378049855326
 20
1.704063051129853
 10
-4.473642493394171
 20
1.704930829360429
 10
-4.471762307227846
 20
1.705798607591004
 10
-4.470026750766693
 20
1.706521756116536
 10
-4.468146564600367
 20
1.707100274936934
 10
-4.466121748729044
 20
1.707678793757331
 10
-4.464241562562713
 20
1.708112682872599
 10
-4.462216746691342
 20
1.708401942282819
 10
-4.460336560525063
 20
1.708691201692995
 10
-4.458311744653643
 20
1.708835831398086
 10
-4.456286928782318
 20
1.708835831398086
 10
-4.454262112910902
 20
1.708835831398086
 10
-4.452237297039488
 20
1.708835831398086
 10
-4.450212481168158
 20
1.708691201692995
 10
-4.448332295001832
 20
1.708401942282819
 10
-4.446307479130458
 20
1.708112682872599
 10
-4.443704144438648
 20
1.707678793757331
 10
-4.441100809746878
 20
1.707100274936934
 10
-4.438497475055108
 20
1.706521756116536
 10
-4.436038770068426
 20
1.705653977885918
 10
-4.433580065081748
 20
1.704786199655339
 10
-4.431121360095063
 20
1.703773791719631
 10
-4.428662655108387
 20
1.702761383783968
 10
-4.426203950121704
 20
1.701604346143174
 10
-4.423889874840113
 20
1.700302678797245
 10
-4.421720429263608
 20
1.69900101145136
 10
-4.419406353982059
 20
1.697410084695297
 10
-4.417236908405596
 20
1.695963787644281
 10
-4.415067462829097
 20
1.694228231183132
 10
-4.413042646957682
 20
1.692637304427026
 10
-4.411017831086311
 20
1.690757118260744
 10
-4.409137644920027
 20
1.688876932094458
 10
-4.382381149476708
 20
1.703339902604326
 10
-4.384116705937948
 20
1.706521756116536
 10
-4.386141521809276
 20
1.709414350218484
 10
-4.388455597090871
 20
1.712162314615381
 10
-4.391058931782641
 20
1.714621019602065
 10
-4.39380689617954
 20
1.716935094883655
 10
-4.396844119986623
 20
1.718959910755028
 10
-4.3998813437937
 20
1.72084009692131
 10
-4.403063197305868
 20
1.722575653382504
 10
-4.405521902292546
 20
1.723732691023303
 10
-4.408125236984318
 20
1.724889728664098
 10
-4.410583941970999
 20
1.725902136599763
 10
-4.413187276662771
 20
1.726769914830381
 10
-4.415935241059711
 20
1.727637693060958
 10
-4.418538575751483
 20
1.728216211881355
 10
-4.421286540148344
 20
1.728794730701753
 10
-4.4240345045452
 20
1.729228619817064
 10
-4.426782468942103
 20
1.72951787922724
 10
-4.429530433339001
 20
1.72966250893237
 10
-4.432423027440949
 20
1.729807138637461
 10
-4.435170991837811
 20
1.729807138637461
 10
-4.437918956234753
 20
1.72966250893237
 10
-4.440666920631612
 20
1.729373249522149
 10
-4.443414885028472
 20
1.728939360406843
 10
-4.446162849425371
 20
1.728360841586443
 10
-4.448766184117143
 20
1.727782322766044
 10
-4.451224889103823
 20
1.72691454453547
 10
-4.453828223795632
 20
1.726046766304893
 10
-4.456286928782318
 20
1.725178988074274
 10
-4.458601004063869
 20
1.724021950433481
 10
-4.461059709050591
 20
1.722864912792683
 10
-4.463373784332142
 20
1.721563245446798
 10
-4.465687859613691
 20
1.720261578100913
 10
-4.468001934895283
 20
1.718815281049939
 10
-4.470171380471786
 20
1.717368983998921
 10
-4.472340826048283
 20
1.71577805724286
 10
-4.474510271624749
 20
1.714187130486754
 10
-4.476679717201207
 20
1.712451574025559
 10
-4.478704533072622
 20
1.71071601756441
 10
-4.480873978649126
 20
1.708980461103215
 10
-4.482898794520496
 20
1.707244904642021
 10
-4.485791388622486
 20
1.704641569950251
 10
-4.488539353019346
 20
1.702038235258438
 10
-4.491287317416205
 20
1.699290270861579
 10
-4.493890652108021
 20
1.69639767675959
 10
-4.496493986799791
 20
1.6935050826576
 10
-4.498952691786469
 20
1.690612488555653
 10
-4.501266767068063
 20
1.687575264748573
 10
-4.503580842349613
 20
1.684393411236363
 10
-4.505605658221028
 20
1.681211557724195
 10
-4.50763047409244
 20
1.677885074506939
 10
-4.509510660258678
 20
1.674558591289641
 10
-4.511101587014826
 20
1.671087478367294
 10
-4.512547884065806
 20
1.667616365444906
 10
-4.513849551411688
 20
1.664000622817429
 10
-4.515006589052481
 20
1.660384880189949
 10
-4.515874367283056
 20
1.656624507857387
 10
-4.516742145513633
 20
1.651562468178934
 10
-4.517176034628946
 20
1.64635579879535
 10
-4.517320664334075
 20
1.641293759116899
 10
-4.517176034628946
 20
1.636087089733319
 10
-4.516597515808545
 20
1.631025050054869
 10
-4.515585107872837
 20
1.62596301037642
 10
-4.514283440526952
 20
1.620900970697966
 10
-4.512547884065806
 20
1.616128190429694
 10
-4.511390846425004
 20
1.613524855737882
 10
-4.51008917907912
 20
1.61092152104611
 10
-4.508787511733237
 20
1.608462816059432
 10
-4.507196584977085
 20
1.606148740777834
 10
-4.505605658221028
 20
1.60383466549629
 10
-4.503870101759871
 20
1.601520590214695
 10
-4.501989915593551
 20
1.599351144638194
 10
-4.500109729427263
 20
1.597326328766822
 10
-4.498084913555891
 20
1.595301512895449
 10
-4.495915467979394
 20
1.593421326729167
 10
-4.493746022402888
 20
1.59154114056284
 10
-4.491576576826471
 20
1.589805584101688
 10
-4.489262501544876
 20
1.588214657345583
 10
-4.486803796558199
 20
1.586768360294608
 10
-4.484345091571513
 20
1.585322063243592
 10
-4.481886386584831
 20
1.584020395897709
 10
-4.476101198380852
 20
1.581561690911024
 10
-4.470171380471786
 20
1.579536875039655
 10
-4.464096932857624
 20
1.578090577988639
 10
-4.457877855538376
 20
1.576933540347886
 10
-4.45165877821913
 20
1.576355021527489
 10
-4.445439700899886
 20
1.57606576211727
 10
-4.439220623580636
 20
1.576355021527489
 10
-4.432856916556262
 20
1.577078170052974
 10
-4.426782468942103
 20
1.578235207693771
 10
-4.420852651033076
 20
1.579826134449833
 10
-4.414922833124006
 20
1.581995580026337
 10
-4.409282274625113
 20
1.58445428501302
 10
-4.403930975536487
 20
1.587491508820096
 10
-4.398868935858036
 20
1.590962621742487
 10
-4.394096155589762
 20
1.59486762378014
 10
-4.389612634731668
 20
1.599206514933102
 10
-4.386286151514363
 20
1.603111516970758
 10
-4.383248927707331
 20
1.607305778418633
 10
-4.380500963310472
 20
1.611500039866509
 10
-4.378186888028881
 20
1.616128190429694
 10
-4.376162072157466
 20
1.620756340992836
 10
-4.374571145401404
 20
1.625529121261109
 10
-4.373558737465693
 20
1.63044653123447
 10
-4.372835588940166
 20
1.63550857091292
 10
-4.372690959235078
 20
1.63955820265571
 10
-4.372980218645293
 20
1.643463204693365
 10
-4.373703367170787
 20
1.647368206731061
 10
-4.375005034516667
 20
1.651273208768715
 10
-4.376740590977862
 20
1.654455062280884
 10
-4.378765406849236
 20
1.657347656382871
 10
-4.381224111835916
 20
1.660095620779774
 10
-4.383827446527726
 20
1.662554325766453
 10
-4.386720040629722
 20
1.664723771342917
 10
-4.389757264436751
 20
1.666893216919418
 10
-4.392939117948966
 20
1.668773403085699
 10
-4.396120971461133
 20
1.670508959546894
  0
TEXT
  5
3B1D
330
17
100
AcDbEntity
  8
3
100
AcDbText
 10
-3.895490617093662
 20
0.8915767529290157
 30
0.0
 40
0.0581453098711065
  1
MATERIAL: 
  7
SIMPLEX
 72
     1
 11
-3.639374371232836
 21
0.8915767529290157
 31
0.0
100
AcDbText
  0
LWPOLYLINE
  5
3B1E
330
17
100
AcDbEntity
  8
4
  6
Continuous
100
AcDbPolyline
 90
      104
 70
     0
 43
0.0
 10
-3.741872422724384
 20
1.73183195450883
 10
-3.73782279098164
 20
1.727493063355868
 10
-3.736087234520446
 20
1.725034358369188
 10
-3.734640937469475
 20
1.722575653382504
 10
-3.733339270123546
 20
1.720261578100913
 10
-3.732326862187882
 20
1.718092132524454
 10
-3.731459083957306
 20
1.71577805724286
 10
-3.730880565136863
 20
1.713463981961268
 10
-3.730591305726686
 20
1.711149906679674
 10
-3.730446676021596
 20
1.708691201692995
 10
-3.730446676021596
 20
1.596313920831114
 10
-3.734062418649076
 20
1.596747809946425
 10
-3.737678161276551
 20
1.59747095847191
 10
-3.741149274198942
 20
1.59833873670253
 10
-3.744620387121283
 20
1.599495774343282
 10
-3.747946870338545
 20
1.6009420713943
 10
-3.751273353555841
 20
1.60238836844527
 10
-3.754599836773138
 20
1.604123924906465
 10
-3.757637060580178
 20
1.606004111072748
 10
-3.760674284387298
 20
1.60817355664925
 10
-3.763566878489248
 20
1.610343002225715
 10
-3.766314842886102
 20
1.612801707212394
 10
-3.768918177577918
 20
1.615405041904162
 10
-3.771521512269688
 20
1.618008376595977
 10
-3.773835587551278
 20
1.620900970697924
 10
-3.776005033127741
 20
1.623938194505004
 10
-3.778029848999153
 20
1.62697541831208
 10
-3.78121170251132
 20
1.632760606516061
 10
-3.783815037203093
 20
1.638835054130221
 10
-3.785839853074466
 20
1.645198761154554
 10
-3.787141520420348
 20
1.651707097884024
 10
-3.787720039240788
 20
1.65836006431858
 10
-3.787430779830568
 20
1.664868401048005
 10
-3.786129112484685
 20
1.671521367482561
 10
-3.783959666908223
 20
1.677885074506939
 10
-3.782802629267428
 20
1.680633038903799
 10
-3.781500961921544
 20
1.683236373595564
 10
-3.780054664870525
 20
1.68583970828738
 10
-3.778608367819511
 20
1.688298413274061
 10
-3.777017441063448
 20
1.690901747965831
 10
-3.775281884602254
 20
1.693360452952511
 10
-3.773546328141057
 20
1.695674528234103
 10
-3.771810771679907
 20
1.698133233220785
 10
-3.769930585513581
 20
1.700447308502378
 10
-3.768050399347345
 20
1.702616754078839
 10
-3.766025583475926
 20
1.704930829360429
 10
-3.764000767604556
 20
1.707100274936934
 10
-3.761975951733183
 20
1.709269720513391
 10
-3.759806506156681
 20
1.711294536384764
 10
-3.757781690285263
 20
1.71331935225618
 10
-3.755612244708806
 20
1.715344168127554
 10
-3.753876688247611
 20
1.717368983998921
 10
-3.752719650606812
 20
1.719683059280515
 10
-3.751996502081332
 20
1.721997134562109
 10
-3.751996502081332
 20
1.724455839548788
 10
-3.752285761491549
 20
1.726625285125249
 10
-3.753153539722126
 20
1.728794730701753
 10
-3.754165947657787
 20
1.730530287162943
 10
-3.755612244708806
 20
1.73183195450883
 10
-3.807389679134238
 20
1.73183195450883
 10
-3.804930974147556
 20
1.72951787922724
 10
-3.802183009750701
 20
1.726625285125249
 10
-3.799579675058886
 20
1.723154172202903
 10
-3.797410229482426
 20
1.719393799870339
 10
-3.795819302726321
 20
1.715199538422464
 10
-3.795096154200828
 20
1.710860647269498
 10
-3.795674673021187
 20
1.706521756116536
 10
-3.797699488892603
 20
1.70232749466866
 10
-3.813608756453485
 20
1.674558591289641
 10
-3.817513758491141
 20
1.666459327804108
 10
-3.819972463477821
 20
1.657926175203272
 10
-3.821129501118615
 20
1.649103763192254
 10
-3.820984871413531
 20
1.640136721476106
 10
-3.819538574362553
 20
1.631169679759955
 10
-3.816645980260567
 20
1.622636527159119
 10
-3.812596348517778
 20
1.614537263673589
 10
-3.807245049429147
 20
1.607305778418633
 10
-3.804641714737377
 20
1.604413184316686
 10
-3.801893750340473
 20
1.601665219919784
 10
-3.799001156238488
 20
1.598917255522884
 10
-3.795963932431408
 20
1.596313920831114
 10
-3.792926708624332
 20
1.593999845549522
 10
-3.789600225407031
 20
1.591685770267972
 10
-3.786273742189816
 20
1.589516324691467
 10
-3.782802629267428
 20
1.587636138525186
 10
-3.77933151634504
 20
1.585755952358905
 10
-3.775715773717563
 20
1.584165025602794
 10
-3.772100031090086
 20
1.582863358256909
 10
-3.768339658757517
 20
1.581706320616115
 10
-3.764579286424953
 20
1.58069391268045
 10
-3.760674284387298
 20
1.580115393860054
 10
-3.756913912054687
 20
1.579681504744744
 10
-3.75300891001699
 20
1.579536875039655
 10
-3.697615732964123
 20
1.579536875039655
 10
-3.697615732964123
 20
1.710137498744014
 10
-3.697471103259037
 20
1.713030092845956
 10
-3.697326473553953
 20
1.715922686947949
 10
-3.696892584438637
 20
1.718670651344806
 10
-3.696314065618238
 20
1.721563245446798
 10
-3.695446287387623
 20
1.724311209843699
 10
-3.694433879451959
 20
1.72691454453547
 10
-3.693276841811162
 20
1.729373249522149
 10
-3.691975174465276
 20
1.73183195450883
 10
-3.741872422724384
 20
1.73183195450883
  0
LWPOLYLINE
  5
3B1F
330
17
100
AcDbEntity
  8
4
  6
Continuous
100
AcDbPolyline
 90
      213
 70
     0
 43
0.0
 10
-3.854935642429227
 20
1.723009542497814
 10
-3.858262125646446
 20
1.724311209843699
 10
-3.861588608863742
 20
1.725468247484496
 10
-3.864915092081043
 20
1.726480655420159
 10
-3.868386205003388
 20
1.727348433650776
 10
-3.871857317925776
 20
1.727926952471175
 10
-3.875328430848119
 20
1.728505471291574
 10
-3.878799543770511
 20
1.728939360406843
 10
-3.882270656692897
 20
1.729228619817064
 10
-3.885886399320376
 20
1.729373249522149
 10
-3.889357512242762
 20
1.729373249522149
 10
-3.892973254870241
 20
1.729228619817064
 10
-3.896444367792586
 20
1.728939360406843
 10
-3.900060110420063
 20
1.728505471291574
 10
-3.903531223342451
 20
1.728071582176266
 10
-3.907002336264798
 20
1.727348433650776
 10
-3.910473449187185
 20
1.726625285125249
 10
-3.916547896801341
 20
1.724745098958964
 10
-3.92247771471041
 20
1.721997134562109
 10
-3.928118273209258
 20
1.718815281049939
 10
-3.93361420200302
 20
1.714910279012244
 10
-3.93867624168147
 20
1.710571387859278
 10
-3.943449021949746
 20
1.705653977885918
 10
-3.94764328339762
 20
1.700447308502378
 10
-3.951403655730189
 20
1.694951379708614
 10
-3.954440879537266
 20
1.689166191504636
 10
-3.956754954818856
 20
1.683091743890478
 10
-3.958490511280053
 20
1.677017296276321
 10
-3.959213659805536
 20
1.670798218957074
 10
-3.959069030100451
 20
1.664579141637825
 10
-3.958056622164741
 20
1.65836006431858
 10
-3.956031806293328
 20
1.652285616704421
 10
-3.952849952781205
 20
1.646500428500439
 10
-3.952126804255673
 20
1.645632650269865
 10
-3.951259026025096
 20
1.644909501744379
 10
-3.95039124779452
 20
1.64433098292398
 10
-3.949378839858816
 20
1.643752464103581
 10
-3.948366431923107
 20
1.643463204693365
 10
-3.947354023987401
 20
1.643318574988274
 10
-3.946196986346606
 20
1.643318574988274
 10
-3.945039948705808
 20
1.643607834398494
 10
-3.903965112457761
 20
1.651417838473804
 10
-3.901651037176169
 20
1.651851727589114
 10
-3.899336961894578
 20
1.652140986999334
 10
-3.896878256907896
 20
1.652574876114599
 10
-3.894564181626303
 20
1.652719505819731
 10
-3.892105476639623
 20
1.653008765229909
 10
-3.889791401358031
 20
1.653153394934999
 10
-3.887477326076437
 20
1.653153394934999
 10
-3.885018621089758
 20
1.653153394934999
 10
-3.882704545808167
 20
1.653008765229909
 10
-3.880390470526616
 20
1.652864135524819
 10
-3.878076395245022
 20
1.652574876114599
 10
-3.875762319963472
 20
1.652140986999334
 10
-3.873592874386971
 20
1.651562468178934
 10
-3.871278799105379
 20
1.650983949358536
 10
-3.869109353528873
 20
1.650116171127917
 10
-3.866939907952417
 20
1.649248392897344
 10
-3.862022497979051
 20
1.646211169090264
 10
-3.858406755351576
 20
1.641872277937298
 10
-3.855948050364893
 20
1.636810238258805
 10
-3.854501753313878
 20
1.631025050054869
 10
-3.854357123608788
 20
1.624950602440706
 10
-3.855369531544496
 20
1.618731525121464
 10
-3.857394347415867
 20
1.612946336917485
 10
-3.860431571222949
 20
1.607595037828853
 10
-3.862601016799448
 20
1.605136332842175
 10
-3.864770462375954
 20
1.602677627855495
 10
-3.867373797067724
 20
1.60065281198408
 10
-3.869977131759497
 20
1.598772625817793
 10
-3.87272509615635
 20
1.5970370693566
 10
-3.875762319963472
 20
1.595590772305626
 10
-3.878799543770511
 20
1.594578364369918
 10
-3.881981397282718
 20
1.593710586139343
 10
-3.885741769615286
 20
1.593276697024034
 10
-3.889502141947852
 20
1.593276697024034
 10
-3.893117884575328
 20
1.593565956434255
 10
-3.896878256907896
 20
1.594433734664831
 10
-3.900349369830283
 20
1.59544614260054
 10
-3.903965112457761
 20
1.59689243965151
 10
-3.907291595675017
 20
1.598627996112706
 10
-3.910618078892272
 20
1.60065281198408
 10
-3.913799932404486
 20
1.602966887265668
 10
-3.916837156211521
 20
1.60542559225235
 10
-3.919729750313556
 20
1.60817355664925
 10
-3.92247771471041
 20
1.6110661507512
 10
-3.924936419697096
 20
1.614103374558277
 10
-3.927395124683776
 20
1.617285228070487
 10
-3.929564570260278
 20
1.620611711287745
 10
-3.931444756426522
 20
1.623938194505004
 10
-3.964854218304386
 20
1.60875207546965
 10
-3.963118661843195
 20
1.604413184316686
 10
-3.960949216266732
 20
1.60021892286881
 10
-3.958056622164741
 20
1.596458550536199
 10
-3.954730138947446
 20
1.59284280790877
 10
-3.950969766614877
 20
1.589516324691467
 10
-3.946775505167046
 20
1.586479100884389
 10
-3.94229198430895
 20
1.583731136487531
 10
-3.937519204040674
 20
1.581272431500853
 10
-3.932457164362226
 20
1.579247615629436
 10
-3.927250494978686
 20
1.57751205916824
 10
-3.921754566184882
 20
1.57606576211727
 10
-3.916403267096253
 20
1.57519798388669
 10
-3.910907338302497
 20
1.574474835361204
 10
-3.905411409508736
 20
1.574330205656073
 10
-3.900060110420063
 20
1.574619465066295
 10
-3.894708811331393
 20
1.57519798388669
 10
-3.890659179588651
 20
1.57606576211727
 10
-3.886754177550992
 20
1.577222799758065
 10
-3.882849175513293
 20
1.57852446710395
 10
-3.879088803180689
 20
1.580115393860054
 10
-3.875473060553254
 20
1.581995580026337
 10
-3.871857317925776
 20
1.584165025602794
 10
-3.868530834708517
 20
1.5863344711793
 10
-3.865204351491221
 20
1.58893780587107
 10
-3.862167127684145
 20
1.59154114056284
 10
-3.859129903877061
 20
1.594433734664831
 10
-3.856381939480203
 20
1.59747095847191
 10
-3.853778604788433
 20
1.600797441689208
 10
-3.851464529506838
 20
1.604123924906465
 10
-3.849295083930337
 20
1.607595037828853
 10
-3.847414897764057
 20
1.611210780456331
 10
-3.845679341302861
 20
1.614971152788899
 10
-3.844088414546796
 20
1.619165414236769
 10
-3.842931376906001
 20
1.62335967568465
 10
-3.842063598675387
 20
1.627553937132478
 10
-3.841340450149896
 20
1.632037457990576
 10
-3.841051190739676
 20
1.636376349143542
 10
-3.841051190739676
 20
1.640715240296504
 10
-3.841340450149896
 20
1.645054131449465
 10
-3.842063598675387
 20
1.64939302260243
 10
-3.842931376906001
 20
1.653153394934999
 10
-3.844088414546796
 20
1.656769137562474
 10
-3.845534711597771
 20
1.660240250484864
 10
-3.847270268058924
 20
1.66371136340725
 10
-3.84943971363543
 20
1.666748587214331
 10
-3.851898418622107
 20
1.669641181316275
 10
-3.854791012724097
 20
1.672244516008088
 10
-3.85782823653118
 20
1.674413961584551
 10
-3.859129903877061
 20
1.675281739815126
 10
-3.860576200928035
 20
1.676149518045743
 10
-3.862022497979051
 20
1.676872666571229
 10
-3.863468795030068
 20
1.677595815096719
 10
-3.864915092081043
 20
1.678318963622249
 10
-3.866506018837106
 20
1.678897482442603
 10
-3.867952315888078
 20
1.679331371557914
 10
-3.869543242644183
 20
1.679765260673219
 10
-3.871134169400287
 20
1.680199149788531
 10
-3.87272509615635
 20
1.680633038903799
 10
-3.874316022912458
 20
1.680922298314019
 10
-3.875906949668564
 20
1.681211557724195
 10
-3.877497876424626
 20
1.681500817134416
 10
-3.879088803180689
 20
1.681645446839507
 10
-3.880824359641927
 20
1.681934706249679
 10
-3.882415286397988
 20
1.682079335954813
 10
-3.884006213154052
 20
1.682079335954813
 10
-3.885597139910198
 20
1.682079335954813
 10
-3.887188066666261
 20
1.682223965659904
 10
-3.888778993422326
 20
1.682223965659904
 10
-3.890369920178428
 20
1.682223965659904
 10
-3.891960846934533
 20
1.682368595364989
 10
-3.893696403395727
 20
1.682368595364989
 10
-3.895431959856921
 20
1.682368595364989
 10
-3.897167516318073
 20
1.682368595364989
 10
-3.898903072779268
 20
1.682223965659904
 10
-3.900927888650642
 20
1.682079335954813
 10
-3.902808074816966
 20
1.681934706249679
 10
-3.904832890688337
 20
1.681790076544593
 10
-3.907002336264798
 20
1.681500817134416
 10
-3.909171781841301
 20
1.681066928019109
 10
-3.911485857122893
 20
1.680633038903799
 10
-3.944606059590542
 20
1.674558591289641
 10
-3.945473837821158
 20
1.677595815096719
 10
-3.945907726936423
 20
1.680488409198709
 10
-3.945763097231341
 20
1.683525633005787
 10
-3.945329208116032
 20
1.686418227107778
 10
-3.944316800180366
 20
1.689310821209725
 10
-3.943159762539568
 20
1.692058785606629
 10
-3.941424206078373
 20
1.694806750003485
 10
-3.939544019912091
 20
1.697265454990166
 10
-3.937374574335589
 20
1.699579530271758
 10
-3.934915869348903
 20
1.70189360555335
 10
-3.932312534657135
 20
1.703773791719631
 10
-3.929419940555148
 20
1.705509348180829
 10
-3.926382716748068
 20
1.706955645231803
 10
-3.923345492940988
 20
1.70825731257773
 10
-3.920163639428821
 20
1.709125090808304
 10
-3.916837156211521
 20
1.709703609628704
 10
-3.913944562109573
 20
1.709848239333791
 10
-3.910907338302497
 20
1.709848239333791
 10
-3.908014744200506
 20
1.709558979923617
 10
-3.905122150098556
 20
1.709125090808304
 10
-3.902229555996521
 20
1.708546571987906
 10
-3.899336961894578
 20
1.707678793757331
 10
-3.896588997497719
 20
1.706666385821621
 10
-3.893841033100819
 20
1.705509348180829
 10
-3.891093068703916
 20
1.704207680834944
 10
-3.888345104307056
 20
1.702761383783926
 10
-3.885741769615286
 20
1.701315086732954
 10
-3.883138434923516
 20
1.699579530271758
 10
-3.880679729936836
 20
1.697843973810567
 10
-3.878221024950157
 20
1.696108417349412
 10
-3.875762319963472
 20
1.694228231183132
 10
-3.873448244681881
 20
1.692348045016803
 10
-3.835989151061227
 20
1.709992869038879
 10
-3.838013966932642
 20
1.712017684910295
 10
-3.840183412509102
 20
1.714042500781669
 10
-3.84235285808556
 20
1.715922686947949
 10
-3.844811563072243
 20
1.717513613704054
 10
-3.847270268058924
 20
1.719104540460119
 10
-3.849728973045607
 20
1.720550837511136
 10
-3.852332307737416
 20
1.721852504857021
 10
-3.854935642429227
 20
1.723009542497814
  0
LWPOLYLINE
  5
3B20
330
17
100
AcDbEntity
  8
4
  6
Continuous
 62
     4
100
AcDbPolyline
 90
       96
 70
     0
 43
0.0
 10
-4.066967818629127
 20
1.57852446710395
 10
-4.069281893910716
 20
1.579970764154924
 10
-4.071740598897398
 20
1.581706320616115
 10
-4.074343933589168
 20
1.583875766192619
 10
-4.076658008870758
 20
1.5863344711793
 10
-4.078827454447263
 20
1.589082435576159
 10
-4.080563010908416
 20
1.592408918793458
 10
-4.081720048549211
 20
1.596024661420935
 10
-4.082153937664561
 20
1.60021892286881
 10
-4.082153937664561
 20
1.696108417349412
 10
-4.082443197074738
 20
1.700158049092155
 10
-4.083021715895138
 20
1.703918421424724
 10
-4.084178753535891
 20
1.707534164052199
 10
-4.085625050586903
 20
1.710860647269498
 10
-4.087360607048101
 20
1.714187130486754
 10
-4.089530052624606
 20
1.717079724588745
 10
-4.091988757611286
 20
1.719827688985605
 10
-4.094736722008143
 20
1.722431023677418
 10
-4.097629316110088
 20
1.724745098958964
 10
-4.100811169622303
 20
1.726769914830381
 10
-4.104137652839602
 20
1.728505471291574
 10
-4.107464136056819
 20
1.730096398047638
 10
-4.111079878684291
 20
1.731253435688433
 10
-4.114695621311771
 20
1.732121213919054
 10
-4.118455993644339
 20
1.732844362444541
 10
-4.122216365976946
 20
1.733133621854715
 10
-4.124819700668759
 20
1.733133621854715
 10
-4.127423035360529
 20
1.733133621854715
 10
-4.129881740347206
 20
1.732844362444541
 10
-4.132485075038982
 20
1.732555103034318
 10
-4.134943780025658
 20
1.732121213919054
 10
-4.137547114717428
 20
1.731398065393523
 10
-4.140005819704106
 20
1.730674916868034
 10
-4.142464524690793
 20
1.729951768342548
 10
-4.144923229677471
 20
1.728939360406843
 10
-4.147237304959066
 20
1.727926952471175
 10
-4.149551380240653
 20
1.726769914830381
 10
-4.151865455522248
 20
1.725612877189584
 10
-4.154179530803842
 20
1.724166580138609
 10
-4.156348976380261
 20
1.722864912792683
 10
-4.158518421956758
 20
1.721418615741711
 10
-4.160543237828173
 20
1.719827688985605
 10
-4.161411016058751
 20
1.721852504857021
 10
-4.162568053699548
 20
1.724021950433481
 10
-4.164158980455654
 20
1.726046766304893
 10
-4.165894536916807
 20
1.727926952471175
 10
-4.16763009337804
 20
1.72951787922724
 10
-4.169365649839193
 20
1.730819546573125
 10
-4.170956576595255
 20
1.731687324803741
 10
-4.172113614236053
 20
1.731976584213919
 10
-4.20754789198529
 20
1.731976584213919
 10
-4.205378446408833
 20
1.729951768342548
 10
-4.202919741422153
 20
1.727637693060958
 10
-4.20017177702525
 20
1.724889728664098
 10
-4.19756844233348
 20
1.721707875151929
 10
-4.195109737346797
 20
1.718092132524454
 10
-4.193229551180518
 20
1.714331760191845
 10
-4.191783254129498
 20
1.710137498744014
 10
-4.191349365014231
 20
1.705798607591004
 10
-4.191349365014231
 20
1.578669096809039
 10
-4.158807681366937
 20
1.604991703137041
 10
-4.158807681366937
 20
1.696976195579988
 10
-4.15866305166185
 20
1.699290270861579
 10
-4.158229162546581
 20
1.70145971643804
 10
-4.157361384315963
 20
1.703484532309456
 10
-4.156348976380261
 20
1.705509348180829
 10
-4.155191938739505
 20
1.707534164052199
 10
-4.153745641688487
 20
1.709269720513391
 10
-4.152010085227336
 20
1.711005276974589
 10
-4.150274528766143
 20
1.712596203730694
 10
-4.148249712894774
 20
1.713897871076579
 10
-4.146224897023353
 20
1.715054908717371
 10
-4.144055451446853
 20
1.716211946358169
 10
-4.141886005870392
 20
1.716935094883655
 10
-4.139571930588843
 20
1.717658243409143
 10
-4.137257855307248
 20
1.717947502819323
 10
-4.135088409730747
 20
1.71823676222954
 10
-4.132774334449153
 20
1.718092132524454
 10
-4.129158591821678
 20
1.717513613704054
 10
-4.12568747889929
 20
1.716356576063256
 10
-4.122360995682033
 20
1.714765649307153
 10
-4.119468401580046
 20
1.712596203730694
 10
-4.117009696593362
 20
1.709992869038879
 10
-4.115129510427123
 20
1.706955645231803
 10
-4.113972472786326
 20
1.703339902604326
 10
-4.113538583670973
 20
1.699290270861579
 10
-4.113538583670973
 20
1.596603180241332
 10
-4.113104694555707
 20
1.59284280790877
 10
-4.111947656914908
 20
1.589371694986379
 10
-4.110212100453716
 20
1.5863344711793
 10
-4.107753395467081
 20
1.583731136487531
 10
-4.104860801365048
 20
1.581561690911024
 10
-4.101534318147788
 20
1.579826134449833
 10
-4.097918575520308
 20
1.578813726514169
 10
-4.094013573482659
 20
1.57852446710395
 10
-4.066967818629127
 20
1.57852446710395
  0
LWPOLYLINE
  5
3B21
330
17
100
AcDbEntity
  8
4
  6
Continuous
100
AcDbPolyline
 90
       21
 70
     0
 43
0.0
 10
-3.498273323768041
 20
1.723732691023303
 10
-3.462839046018798
 20
1.723732691023303
 10
-3.45821089545566
 20
1.723298801907994
 10
-3.454016634007781
 20
1.721997134562109
 10
-3.450111631970083
 20
1.719972318690735
 10
-3.446640519047701
 20
1.717224354293836
 10
-3.443892554650838
 20
1.713897871076579
 10
-3.441723109074334
 20
1.709992869038879
 10
-3.440421441728453
 20
1.705798607591004
 10
-3.439987552613189
 20
1.701170457027861
 10
-3.440276812023366
 20
1.697410084695297
 10
-3.441144590253983
 20
1.693649712362731
 10
-3.442590887304955
 20
1.690323229145434
 10
-3.444471073471238
 20
1.687141375633263
 10
-3.446929778457921
 20
1.684538040941493
 10
-3.449822372559911
 20
1.682513225070081
 10
-3.453148855777205
 20
1.681211557724195
 10
-3.457053857814861
 20
1.680777668608928
 10
-3.491620357333488
 20
1.680777668608928
 10
-3.491620357333488
 20
1.715922686947949
 10
-3.498273323768041
 20
1.723732691023303
  0
LWPOLYLINE
  5
3B22
330
17
100
AcDbEntity
  8
4
  6
Continuous
100
AcDbPolyline
 90
       21
 70
     0
 43
0.0
 10
-3.638290838732634
 20
1.724021950433481
 10
-3.602856560983396
 20
1.724021950433481
 10
-3.598373040125341
 20
1.723588061318213
 10
-3.594034148972379
 20
1.722286393972284
 10
-3.590273776639771
 20
1.720261578100913
 10
-3.586802663717428
 20
1.717513613704054
 10
-3.584054699320525
 20
1.714187130486754
 10
-3.581885253744061
 20
1.710426758154189
 10
-3.580583586398133
 20
1.706232496706314
 10
-3.58014969728287
 20
1.701604346143174
 10
-3.580438956693046
 20
1.697843973810567
 10
-3.581306734923663
 20
1.694083601477996
 10
-3.582608402269551
 20
1.690612488555653
 10
-3.584488588435831
 20
1.687575264748573
 10
-3.586947293422515
 20
1.68497193005676
 10
-3.589839887524504
 20
1.682947114185392
 10
-3.593166370741805
 20
1.681645446839507
 10
-3.597071372779458
 20
1.681211557724195
 10
-3.631637872298082
 20
1.681211557724195
 10
-3.631637872298082
 20
1.716356576063256
 10
-3.638290838732634
 20
1.724021950433481
  0
LWPOLYLINE
  5
3B23
330
17
100
AcDbEntity
  8
4
  6
Continuous
100
AcDbPolyline
 90
       46
 70
     0
 43
0.0
 10
-3.597360632189636
 20
1.731976584213919
 10
-3.675894562058341
 20
1.731976584213919
 10
-3.674159005597186
 20
1.72966250893237
 10
-3.672568078841123
 20
1.727059174240558
 10
-3.670977152084978
 20
1.724455839548788
 10
-3.669675484739091
 20
1.721707875151929
 10
-3.668663076803428
 20
1.718815281049939
 10
-3.66779529857285
 20
1.715922686947949
 10
-3.667216779752413
 20
1.71317472255109
 10
-3.667072150047321
 20
1.710282128449099
 10
-3.667072150047321
 20
1.576788910642754
 10
-3.631927131708259
 20
1.610487631930801
 10
-3.631927131708259
 20
1.670364329841761
 10
-3.584777847846055
 20
1.670364329841761
 10
-3.581595994333842
 20
1.670508959546894
 10
-3.578558770526806
 20
1.670653589251985
 10
-3.575521546719688
 20
1.671087478367294
 10
-3.572628952617741
 20
1.671665997187691
 10
-3.569736358515747
 20
1.672533775418268
 10
-3.566988394118848
 20
1.673690813059063
 10
-3.564385059427078
 20
1.674992480404949
 10
-3.562070984145484
 20
1.676583407161053
 10
-3.559756908863891
 20
1.678463593327334
 10
-3.557876722697653
 20
1.680777668608928
 10
-3.556141166236415
 20
1.683236373595564
 10
-3.554694869185438
 20
1.686128967697559
 10
-3.553682461249731
 20
1.689455450914859
 10
-3.552814683019156
 20
1.693071193542333
 10
-3.55238079390385
 20
1.697120825285079
 10
-3.55238079390385
 20
1.701604346143174
 10
-3.552814683019156
 20
1.706377126411403
 10
-3.553682461249731
 20
1.710571387859278
 10
-3.55512875830075
 20
1.714331760191845
 10
-3.556864314761943
 20
1.717658243409143
 10
-3.559178390043533
 20
1.720550837511136
 10
-3.561637095030216
 20
1.723009542497814
 10
-3.564529689132162
 20
1.725178988074274
 10
-3.567711542644373
 20
1.72691454453547
 10
-3.571038025861631
 20
1.728360841586443
 10
-3.574653768489108
 20
1.72951787922724
 10
-3.578269511116586
 20
1.730385657457856
 10
-3.582029883449151
 20
1.730964176278255
 10
-3.58593488548685
 20
1.731542695098656
 10
-3.589839887524504
 20
1.73183195450883
 10
-3.593600259857068
 20
1.731976584213919
 10
-3.597360632189636
 20
1.731976584213919
  0
LWPOLYLINE
  5
3B24
330
17
100
AcDbEntity
  8
4
  6
Continuous
100
AcDbPolyline
 90
       46
 70
     0
 43
0.0
 10
-3.457343117225043
 20
1.731542695098656
 10
-3.535877047093745
 20
1.731542695098656
 10
-3.534141490632591
 20
1.729228619817064
 10
-3.532405934171396
 20
1.726625285125249
 10
-3.530959637120381
 20
1.724021950433481
 10
-3.529657969774496
 20
1.72127398603662
 10
-3.528500932133701
 20
1.71838139193463
 10
-3.527633153903169
 20
1.715488797832639
 10
-3.527054635082726
 20
1.712740833435784
 10
-3.526910005377643
 20
1.709848239333791
 10
-3.526910005377643
 20
1.576355021527489
 10
-3.491909616743702
 20
1.610053742815534
 10
-3.491909616743702
 20
1.669930440726498
 10
-3.444760332881461
 20
1.669930440726498
 10
-3.441723109074334
 20
1.670075070431584
 10
-3.438541255562213
 20
1.670219700136676
 10
-3.43564866146018
 20
1.670653589251985
 10
-3.432611437653142
 20
1.671232108072383
 10
-3.429863473256283
 20
1.672099886302959
 10
-3.427115508859383
 20
1.673256923943756
 10
-3.424512174167571
 20
1.674558591289641
 10
-3.422053469180891
 20
1.676149518045743
 10
-3.419884023604428
 20
1.678029704212027
 10
-3.418003837438147
 20
1.68034377949362
 10
-3.416268280976952
 20
1.682802484480301
 10
-3.414821983925936
 20
1.685695078582291
 10
-3.413809575990271
 20
1.689021561799549
 10
-3.412941797759692
 20
1.692637304427026
 10
-3.412507908644386
 20
1.696686936169809
 10
-3.412507908644386
 20
1.701170457027861
 10
-3.412941797759692
 20
1.705943237296136
 10
-3.413809575990271
 20
1.710282128449099
 10
-3.415255873041285
 20
1.714042500781669
 10
-3.416991429502437
 20
1.717368983998921
 10
-3.419305504784031
 20
1.720261578100913
 10
-3.421764209770707
 20
1.722720283087596
 10
-3.4246568038727
 20
1.724745098958964
 10
-3.427694027679779
 20
1.726480655420159
 10
-3.431165140602167
 20
1.727926952471175
 10
-3.434636253524511
 20
1.729083990111973
 10
-3.438251996151993
 20
1.729951768342548
 10
-3.442012368484558
 20
1.730530287162943
 10
-3.445917370522256
 20
1.731108805983344
 10
-3.449822372559911
 20
1.731398065393523
 10
-3.453582744892475
 20
1.731542695098656
 10
-3.457343117225043
 20
1.731542695098656
  0
LINE
  5
3B28
330
17
100
AcDbEntity
  8
0
100
AcDbLine
 10
-4.894781982014571
 20
1.781825314129529
 30
0.0
 11
-4.894781982014571
 21
1.781825314129529
 31
0.0
  0
TEXT
  5
3B2B
330
17
100
AcDbEntity
  8
3
100
AcDbText
 10
-1.998040481503844
 20
0.8589523399345074
 30
0.0
 40
0.0875305739995151
  1
5580.43
  7
SIMPLEX
 72
     1
 11
-1.739616882076705
 21
0.8589523399345074
 31
0.0
100
AcDbText
  0
TEXT
  5
3B2C
330
17
100
AcDbEntity
  8
4
100
AcDbText
 10
-1.664213080861209
 20
1.577369927989765
 30
0.0
 40
0.094
  1
inc., erie, pa.
 41
0.75
  7
T
100
AcDbText
  0
LINE
  5
3B2D
330
17
100
AcDbEntity
  8
0
100
AcDbLine
 10
-2.276515304746098
 20
1.088837136489871
 30
0.0
 11
-0.875
 21
1.088837136489871
 31
0.0
  0
LWPOLYLINE
  5
3B2E
330
17
100
AcDbEntity
  8
4
  6
Continuous
100
AcDbPolyline
 90
      205
 70
     0
 43
0.0
 10
-2.398543658514562
 20
1.712451574025559
 10
-2.402448660552215
 20
1.716501205768349
 10
-2.406642922000095
 20
1.720261578100913
 10
-2.411415702268365
 20
1.72344343161308
 10
-2.416477741946815
 20
1.726191396009983
 10
-2.421829041035485
 20
1.728505471291574
 10
-2.427324969829246
 20
1.730385657457856
 10
-2.433254787738272
 20
1.73183195450883
 10
-2.439184605647339
 20
1.732844362444541
 10
-2.445114423556415
 20
1.733422881264939
 10
-2.451188871170568
 20
1.733567510970024
 10
-2.457407948489815
 20
1.733133621854715
 10
-2.463337766398884
 20
1.732410473329229
 10
-2.469267584307957
 20
1.731108805983344
 10
-2.475052772511894
 20
1.729373249522149
 10
-2.480548701305648
 20
1.727059174240558
 10
-2.485900000394281
 20
1.724455839548788
 10
-2.489949632137109
 20
1.721997134562109
 10
-2.493710004469674
 20
1.719393799870339
 10
-2.497325747097153
 20
1.716356576063256
 10
-2.500652230314411
 20
1.71317472255109
 10
-2.503834083826578
 20
1.709703609628704
 10
-2.50672667792852
 20
1.706087867001226
 10
-2.509330012620337
 20
1.702182864963571
 10
-2.511788717607021
 20
1.698133233220785
 10
-2.513813533478394
 20
1.694083601477996
 10
-2.515693719644715
 20
1.689744710325033
 10
-2.517140016695689
 20
1.68526118946698
 10
-2.518297054336489
 20
1.680777668608928
 10
-2.519164832567062
 20
1.676294147750834
 10
-2.51959872168237
 20
1.671665997187691
 10
-2.519887981092548
 20
1.666893216919418
 10
-2.51959872168237
 20
1.662265066356233
 10
-2.519454091977284
 20
1.659950991074639
 10
-2.519164832567062
 20
1.657492286087959
 10
-2.518875573156844
 20
1.655178210806415
 10
-2.518297054336489
 20
1.652864135524819
 10
-2.517573905810955
 20
1.650694689948315
 10
-2.516416868170161
 20
1.648669874076944
 10
-2.514970571119185
 20
1.647078947320839
 10
-2.513090384952903
 20
1.645921909680044
 10
-2.512222606722326
 20
1.645488020564774
 10
-2.511354828491711
 20
1.645198761154554
 10
-2.510342420556002
 20
1.645054131449465
 10
-2.50947464232547
 20
1.645054131449465
 10
-2.508462234389759
 20
1.645198761154554
 10
-2.507449826454056
 20
1.645198761154554
 10
-2.506437418518345
 20
1.645488020564774
 10
-2.505135751172463
 20
1.645632650269865
 10
-2.462180728758092
 20
1.653153394934999
 10
-2.460300542591763
 20
1.653442654345214
 10
-2.458275726720433
 20
1.653731913755397
 10
-2.456395540554106
 20
1.653876543460484
 10
-2.454370724682735
 20
1.654021173165616
 10
-2.452490538516457
 20
1.654021173165616
 10
-2.450465722645041
 20
1.654021173165616
 10
-2.448585536478798
 20
1.654021173165616
 10
-2.446560720607384
 20
1.653876543460484
 10
-2.444680534441141
 20
1.653731913755397
 10
-2.442655718569727
 20
1.653442654345214
 10
-2.440775532403449
 20
1.653153394934999
 10
-2.438895346237162
 20
1.652719505819731
 10
-2.436870530365748
 20
1.652285616704421
 10
-2.434990344199468
 20
1.651707097884024
 10
-2.433254787738272
 20
1.651128579063625
 10
-2.431374601572033
 20
1.650405430538139
 10
-2.427035710419024
 20
1.648091355256545
 10
-2.423564597496634
 20
1.644909501744379
 10
-2.42081663309978
 20
1.641149129411811
 10
-2.419081076638625
 20
1.636954867963939
 10
-2.418068668702916
 20
1.632326717400754
 10
-2.417779409292698
 20
1.627553937132478
 10
-2.418357928113095
 20
1.622781156864252
 10
-2.419804225164069
 20
1.618153006301066
 10
-2.421250522215044
 20
1.615115782493985
 10
-2.422841448971193
 20
1.612223188391995
 10
-2.424866264842524
 20
1.609619853700225
 10
-2.427035710419024
 20
1.607161148713547
 10
-2.429494415405706
 20
1.604847073431954
 10
-2.432097750097474
 20
1.602822257560581
 10
-2.434845714494378
 20
1.601086701099385
 10
-2.437738308596367
 20
1.599495774343282
 10
-2.440775532403449
 20
1.598194106997395
 10
-2.443957385915616
 20
1.597181699061732
 10
-2.447139239427784
 20
1.596458550536199
 10
-2.450321092939951
 20
1.596169291126025
 10
-2.45364757615725
 20
1.596024661420935
 10
-2.45697405937455
 20
1.596313920831114
 10
-2.460155912886674
 20
1.59689243965151
 10
-2.463337766398884
 20
1.59776021788213
 10
-2.465941101090653
 20
1.598772625817793
 10
-2.468399806077336
 20
1.59992966345859
 10
-2.470713881358927
 20
1.601086701099385
 10
-2.473027956640523
 20
1.60253299815036
 10
-2.475342031922069
 20
1.603979295201376
 10
-2.477511477498573
 20
1.605714851662571
 10
-2.479680923075031
 20
1.607305778418633
 10
-2.481705738946448
 20
1.609185964584916
 10
-2.483585925112732
 20
1.6110661507512
 10
-2.485610740984103
 20
1.613090966622612
 10
-2.487346297445298
 20
1.615115782493985
 10
-2.48908185390649
 20
1.617140598365359
 10
-2.49081741036764
 20
1.61931004394186
 10
-2.492408337123748
 20
1.621624119223453
 10
-2.493999263879851
 20
1.623793564799913
 10
-2.495445560930829
 20
1.626107640081505
 10
-2.529722801039275
 20
1.609185964584916
 10
-2.526974836642413
 20
1.604702443726864
 10
-2.523792983130203
 20
1.60065281198408
 10
-2.52032187020786
 20
1.596747809946425
 10
-2.516561497875294
 20
1.593132067318946
 10
-2.512511866132504
 20
1.58995021380678
 10
-2.50817297497954
 20
1.58705761970479
 10
-2.50368945412149
 20
1.58445428501302
 10
-2.498916673853214
 20
1.582284839436514
 10
-2.493999263879851
 20
1.580404653270232
 10
-2.48908185390649
 20
1.578813726514169
 10
-2.483875184522954
 20
1.57765668887337
 10
-2.478668515139371
 20
1.576788910642754
 10
-2.473461845755787
 20
1.576355021527489
 10
-2.468255176372249
 20
1.576355021527489
 10
-2.463048506988664
 20
1.576788910642754
 10
-2.457841837605124
 20
1.57751205916824
 10
-2.452635168221544
 20
1.578813726514169
 10
-2.447573128543094
 20
1.580404653270232
 10
-2.44280034827482
 20
1.582429469141646
 10
-2.438027568006544
 20
1.585032803833416
 10
-2.433544047148493
 20
1.587780768230274
 10
-2.429349785700615
 20
1.590962621742443
 10
-2.425300153957875
 20
1.594433734664831
 10
-2.421539781625263
 20
1.59833873670253
 10
-2.41821329840801
 20
1.60238836844527
 10
-2.415031444895798
 20
1.606582629893144
 10
-2.412283480498941
 20
1.611210780456331
 10
-2.409969405217349
 20
1.61598356072456
 10
-2.407944589345976
 20
1.620756340992836
 10
-2.406353662589872
 20
1.625818380671329
 10
-2.405196624949076
 20
1.631025050054869
 10
-2.40461810612872
 20
1.636376349143542
 10
-2.404473476423626
 20
1.640425980886284
 10
-2.40461810612872
 20
1.644475612629069
 10
-2.405051995243987
 20
1.648380614666724
 10
-2.405775143769516
 20
1.652430246409512
 10
-2.406932181410271
 20
1.656190618742074
 10
-2.408233848756196
 20
1.659950991074639
 10
-2.409969405217349
 20
1.663566733702118
 10
-2.412138850793846
 20
1.667037846624504
 10
-2.413874407255001
 20
1.6693519219061
 10
-2.415754593421329
 20
1.671376737777469
 10
-2.417779409292698
 20
1.673256923943756
 10
-2.42009348457429
 20
1.674992480404949
 10
-2.42240755985584
 20
1.676583407161053
 10
-2.424866264842524
 20
1.677885074506939
 10
-2.427469599534335
 20
1.679186741852824
 10
-2.430217563931234
 20
1.680199149788531
 10
-2.432965528328095
 20
1.681211557724195
 10
-2.435713492724953
 20
1.681934706249679
 10
-2.438606086826943
 20
1.68265785477521
 10
-2.441354051223845
 20
1.683236373595564
 10
-2.444246645325792
 20
1.683670262710879
 10
-2.447139239427784
 20
1.683959522121095
 10
-2.45003183352977
 20
1.684248781531277
 10
-2.452779797926634
 20
1.684393411236363
 10
-2.454515354387829
 20
1.684538040941493
 10
-2.456395540554106
 20
1.684538040941493
 10
-2.458131097015304
 20
1.684393411236363
 10
-2.459866653476495
 20
1.684393411236363
 10
-2.461602209937689
 20
1.684248781531277
 10
-2.463482396103977
 20
1.684104151826186
 10
-2.465217952565126
 20
1.683814892415965
 10
-2.466953509026359
 20
1.683670262710879
 10
-2.468689065487517
 20
1.683381003300699
 10
-2.470424621948751
 20
1.683091743890478
 10
-2.47230480811499
 20
1.682802484480301
 10
-2.474040364576186
 20
1.682513225070081
 10
-2.475775921037376
 20
1.682223965659904
 10
-2.477511477498573
 20
1.681934706249679
 10
-2.479391663664856
 20
1.681645446839507
 10
-2.481127220126047
 20
1.681356187429283
 10
-2.506871307633653
 20
1.675137110110039
 10
-2.507449826454056
 20
1.677595815096719
 10
-2.507160567043879
 20
1.681356187429283
 10
-2.506148159108169
 20
1.685984337992469
 10
-2.504557232352066
 20
1.69119100737605
 10
-2.502243157070516
 20
1.69639767675959
 10
-2.49935056296848
 20
1.701315086732954
 10
-2.496024079751224
 20
1.705364718475738
 10
-2.492119077713569
 20
1.708401942282819
 10
-2.488647964791184
 20
1.709992869038879
 10
-2.485032222163749
 20
1.711149906679674
 10
-2.481271849831141
 20
1.712017684910295
 10
-2.477366847793438
 20
1.712451574025559
 10
-2.473461845755787
 20
1.712596203730694
 10
-2.469412214013043
 20
1.712451574025559
 10
-2.465507211975388
 20
1.711873055205163
 10
-2.461602209937689
 20
1.711005276974589
 10
-2.457697207899993
 20
1.709848239333791
 10
-2.454081465272516
 20
1.708401942282819
 10
-2.450465722645041
 20
1.706811015526714
 10
-2.447139239427784
 20
1.704930829360429
 10
-2.444102015620701
 20
1.702761383783926
 10
-2.441354051223845
 20
1.700302678797245
 10
-2.438895346237162
 20
1.697699344105474
 10
-2.436725900660661
 20
1.694951379708614
 10
-2.398543658514562
 20
1.712451574025559
  0
LWPOLYLINE
  5
3B2F
330
17
100
AcDbEntity
  8
4
  6
Continuous
100
AcDbPolyline
 90
       96
 70
     0
 43
0.0
 10
-2.842818171484017
 20
1.579536875039655
 10
-2.845132246765611
 20
1.581127801795718
 10
-2.847446322047203
 20
1.582718728551824
 10
-2.849471137918575
 20
1.584598914718107
 10
-2.851206694379767
 20
1.586479100884389
 10
-2.852652991430741
 20
1.588648546460895
 10
-2.853810029071537
 20
1.591107251447573
 10
-2.854533177597026
 20
1.593710586139343
 10
-2.854822437007245
 20
1.596458550536199
 10
-2.854822437007245
 20
1.690323229145434
 10
-2.854822437007245
 20
1.694228231183132
 10
-2.855111696417466
 20
1.698133233220785
 10
-2.855690215237821
 20
1.70232749466866
 10
-2.856847252878618
 20
1.706377126411403
 10
-2.858582809339811
 20
1.710571387859278
 10
-2.861330773736714
 20
1.714476389896975
 10
-2.864946516364191
 20
1.71838139193463
 10
-2.869863926337551
 20
1.722141764267195
 10
-2.872901150144585
 20
1.724021950433481
 10
-2.876083003656798
 20
1.725612877189584
 10
-2.879264857168966
 20
1.72691454453547
 10
-2.88273597009131
 20
1.728071582176266
 10
-2.886207083013701
 20
1.728794730701753
 10
-2.889678195936091
 20
1.729228619817064
 10
-2.893149308858474
 20
1.72951787922724
 10
-2.896765051485953
 20
1.72951787922724
 10
-2.900236164408298
 20
1.729228619817064
 10
-2.903707277330688
 20
1.728794730701753
 10
-2.907033760547946
 20
1.728216211881355
 10
-2.910360243765243
 20
1.727348433650776
 10
-2.913397467572281
 20
1.726336025715073
 10
-2.916434691379404
 20
1.725034358369188
 10
-2.919327285481347
 20
1.723732691023303
 10
-2.921930620173116
 20
1.722141764267195
 10
-2.923376917224132
 20
1.721418615741711
 10
-2.924678584570024
 20
1.720695467216224
 10
-2.926124881621038
 20
1.719972318690735
 10
-2.927426548966924
 20
1.719104540460119
 10
-2.928728216312805
 20
1.718092132524454
 10
-2.930174513363778
 20
1.717079724588745
 10
-2.931476180709663
 20
1.71577805724286
 10
-2.93306710746577
 20
1.714476389896975
 10
-2.933790255991261
 20
1.717224354293836
 10
-2.934947293632056
 20
1.719683059280515
 10
-2.936248960977938
 20
1.721852504857021
 10
-2.937839887734
 20
1.723877320728389
 10
-2.939575444195238
 20
1.725612877189584
 10
-2.941455630361481
 20
1.727059174240558
 10
-2.943335816527806
 20
1.728360841586443
 10
-2.945360632399178
 20
1.729373249522149
 10
-2.978480834866825
 20
1.729373249522149
 10
-2.975443611059743
 20
1.727203803945648
 10
-2.972840276367973
 20
1.724745098958964
 10
-2.970670830791473
 20
1.722141764267195
 10
-2.968790644625233
 20
1.719104540460119
 10
-2.967344347574215
 20
1.715922686947949
 10
-2.966331939638548
 20
1.712306944320474
 10
-2.965608791113023
 20
1.708546571987906
 10
-2.965464161407936
 20
1.70435231054003
 10
-2.965464161407936
 20
1.57592113241218
 10
-2.931765440119843
 20
1.601954479329965
 10
-2.931765440119843
 20
1.690901747965831
 10
-2.93118692129949
 20
1.695674528234103
 10
-2.929740624248515
 20
1.699868789681976
 10
-2.927571178672008
 20
1.703484532309456
 10
-2.924678584570024
 20
1.706521756116536
 10
-2.921352101352766
 20
1.708980461103215
 10
-2.917736358725285
 20
1.71071601756441
 10
-2.913831356687634
 20
1.711873055205163
 10
-2.909926354649931
 20
1.712306944320474
 10
-2.907612279368343
 20
1.712306944320474
 10
-2.905298204086792
 20
1.712017684910295
 10
-2.903128758510288
 20
1.711583795794985
 10
-2.900959312933788
 20
1.711005276974589
 10
-2.898934497062416
 20
1.710282128449099
 10
-2.896909681191043
 20
1.709269720513391
 10
-2.895029495024718
 20
1.708257312577686
 10
-2.893293938563568
 20
1.706955645231803
 10
-2.89155838210237
 20
1.705653977885918
 10
-2.890112085051356
 20
1.704207680834944
 10
-2.888955047410556
 20
1.702472124373746
 10
-2.887798009769806
 20
1.700881197617643
 10
-2.886930231539226
 20
1.69900101145136
 10
-2.88635171271879
 20
1.697120825285079
 10
-2.885917823603524
 20
1.695096009413705
 10
-2.885773193898431
 20
1.692926563837203
 10
-2.885773193898431
 20
1.593710586139343
 10
-2.885628564193345
 20
1.591396510857751
 10
-2.885339304783126
 20
1.58893780587107
 10
-2.884616156257633
 20
1.586623730589477
 10
-2.883603748321931
 20
1.584309655307928
 10
-2.882012821565865
 20
1.582429469141646
 10
-2.879988005694452
 20
1.58083854238554
 10
-2.877240041297593
 20
1.579826134449833
 10
-2.873768928375206
 20
1.579536875039655
 10
-2.842818171484017
 20
1.579536875039655
  0
LWPOLYLINE
  5
3B30
330
17
100
AcDbEntity
  8
4
  6
Continuous
100
AcDbPolyline
 90
       21
 70
     0
 43
0.0
 10
-3.003031665946982
 20
1.729228619817064
 10
-3.041213908093128
 20
1.729228619817064
 10
-3.039333721926805
 20
1.727926952471175
 10
-3.037453535760561
 20
1.726191396009983
 10
-3.035573349594236
 20
1.724455839548788
 10
-3.033982422838171
 20
1.722431023677418
 10
-3.03253612578716
 20
1.720406207806004
 10
-3.031379088146404
 20
1.718092132524454
 10
-3.030655939620873
 20
1.71577805724286
 10
-3.030366680210693
 20
1.71331935225618
 10
-3.030366680210693
 20
1.580115393860054
 10
-2.994353883641013
 20
1.580115393860054
 10
-2.994353883641013
 20
1.720550837511136
 10
-2.994498513346142
 20
1.722575653382504
 10
-2.994932402461451
 20
1.724311209843699
 10
-2.995800180692032
 20
1.725757506894673
 10
-2.996812588627693
 20
1.727059174240558
 10
-2.998114255973622
 20
1.727926952471175
 10
-2.999560553024593
 20
1.728650100996663
 10
-3.001151479780701
 20
1.729083990111973
 10
-3.003031665946982
 20
1.729228619817064
  0
LWPOLYLINE
  5
3B31
330
17
100
AcDbEntity
  8
4
  6
Continuous
100
AcDbPolyline
 90
      133
 70
     0
 43
0.0
 10
-3.153901050535228
 20
1.731976584213919
 10
-3.184707177721286
 20
1.731976584213919
 10
-3.182537732144778
 20
1.72966250893237
 10
-3.180657545978543
 20
1.727348433650776
 10
-3.179211248927526
 20
1.725034358369188
 10
-3.177909581581643
 20
1.722864912792683
 10
-3.176897173645928
 20
1.720695467216224
 10
-3.176174025120448
 20
1.718526021639721
 10
-3.175595506300048
 20
1.716211946358169
 10
-3.175450876594958
 20
1.713897871076579
 10
-3.175450876594958
 20
1.634930052092524
 10
-3.178054211286727
 20
1.635219311502744
 10
-3.180802175683627
 20
1.635653200618054
 10
-3.183405510375397
 20
1.636087089733319
 10
-3.186153474772261
 20
1.636665608553714
 10
-3.188756809464026
 20
1.637388757079245
 10
-3.191504773860931
 20
1.638111905604734
 10
-3.194108108552743
 20
1.638979683835309
 10
-3.196711443244513
 20
1.639847462065881
 10
-3.199170148231193
 20
1.640859870001595
 10
-3.201773482922961
 20
1.642016907642389
 10
-3.204087558204553
 20
1.643173945283183
 10
-3.206546263191234
 20
1.644475612629069
 10
-3.208860338472828
 20
1.645921909680044
 10
-3.211174413754418
 20
1.647368206731061
 10
-3.213343859330878
 20
1.649103763192254
 10
-3.215368675202253
 20
1.650839319653403
 10
-3.219129047534821
 20
1.654599691986014
 10
-3.222455530752116
 20
1.658793953433889
 10
-3.225348124854065
 20
1.66327747429194
 10
-3.227951459545881
 20
1.668194884265303
 10
-3.229976275417248
 20
1.673112294238666
 10
-3.231711831878444
 20
1.678463593327334
 10
-3.23286886951924
 20
1.683814892415965
 10
-3.233592018044728
 20
1.689310821209725
 10
-3.234025907159995
 20
1.694806750003485
 10
-3.234025907159995
 20
1.700447308502378
 10
-3.233447388339636
 20
1.705943237296136
 10
-3.23257961010902
 20
1.711439166089899
 10
-3.231277942763133
 20
1.716935094883655
 10
-3.229397756596853
 20
1.722141764267195
 10
-3.22722831102039
 20
1.727203803945689
 10
-3.224624976328623
 20
1.731976584213919
 10
-3.264108885820608
 20
1.731976584213919
 10
-3.267001479922555
 20
1.722720283087596
 10
-3.26902629579397
 20
1.713753241371446
 10
-3.270038703729673
 20
1.704786199655339
 10
-3.270183333434765
 20
1.696253047054501
 10
-3.269604814614368
 20
1.687864524158751
 10
-3.268013887858259
 20
1.67990989037831
 10
-3.26569981257667
 20
1.672244516008088
 10
-3.262662588769631
 20
1.664868401048005
 10
-3.258757586731976
 20
1.658070804908359
 10
-3.254274065873886
 20
1.651562468178934
 10
-3.249067396490342
 20
1.645632650269865
 10
-3.243282208286358
 20
1.640136721476106
 10
-3.236773871556937
 20
1.635363941207829
 10
-3.229687016007073
 20
1.631025050054869
 10
-3.22216627134194
 20
1.62740930742739
 10
-3.21406700785637
 20
1.624372083620311
 10
-3.211752932574774
 20
1.623648935094825
 10
-3.209294227588094
 20
1.623070416274426
 10
-3.206835522601416
 20
1.622491897454028
 10
-3.204232187909646
 20
1.62191337863363
 10
-3.201773482922961
 20
1.621479489518321
 10
-3.199170148231193
 20
1.621190230108144
 10
-3.196711443244513
 20
1.620756340992836
 10
-3.194108108552743
 20
1.620611711287745
 10
-3.19164940356606
 20
1.620322451877568
 10
-3.18919069857938
 20
1.620177822172438
 10
-3.1867319935927
 20
1.620033192467349
 10
-3.184417918311103
 20
1.620033192467349
 10
-3.182103843029516
 20
1.620033192467349
 10
-3.179934397453008
 20
1.620033192467349
 10
-3.177764951876508
 20
1.620177822172438
 10
-3.175740136005178
 20
1.620322451877568
 10
-3.175740136005178
 20
1.604991703137041
 10
-3.191504773860931
 20
1.596169291126025
 10
-3.194686627373098
 20
1.59544614260054
 10
-3.19786848088531
 20
1.595012253485229
 10
-3.201050334397473
 20
1.595012253485229
 10
-3.203942928499463
 20
1.59544614260054
 10
-3.206980152306506
 20
1.596024661420935
 10
-3.209728116703401
 20
1.5970370693566
 10
-3.212331451395176
 20
1.59833873670253
 10
-3.214934786086983
 20
1.599785033753502
 10
-3.217393491073667
 20
1.601520590214695
 10
-3.219707566355261
 20
1.603400776380979
 10
-3.22187701193172
 20
1.605570221957438
 10
-3.223901827803093
 20
1.607739667533945
 10
-3.225782013969417
 20
1.610198372520624
 10
-3.227517570430566
 20
1.612657077507303
 10
-3.229108497186633
 20
1.615115782493985
 10
-3.230410164532512
 20
1.617719117185755
 10
-3.258179067911537
 20
1.604847073431954
 10
-3.256877400565651
 20
1.60238836844527
 10
-3.255286473809589
 20
1.59992966345859
 10
-3.253695547053488
 20
1.597326328766822
 10
-3.251959990592293
 20
1.59486762378014
 10
-3.249935174720921
 20
1.592408918793458
 10
-3.247910358849547
 20
1.58995021380678
 10
-3.245596283567953
 20
1.587780768230274
 10
-3.243282208286358
 20
1.58546669294868
 10
-3.240823503299683
 20
1.58344187707731
 10
-3.238075538902823
 20
1.581561690911024
 10
-3.23518294480079
 20
1.579970764154924
 10
-3.232290350698843
 20
1.578379837398859
 10
-3.229108497186633
 20
1.577222799758065
 10
-3.225926643674508
 20
1.576210391822356
 10
-3.222455530752116
 20
1.575487243296869
 10
-3.218839788124642
 20
1.57519798388669
 10
-3.217682750483845
 20
1.57519798388669
 10
-3.216525712843046
 20
1.57534261359178
 10
-3.215224045497166
 20
1.575487243296869
 10
-3.213922378151276
 20
1.575631873001958
 10
-3.212765340510482
 20
1.57592113241218
 10
-3.211463673164601
 20
1.576355021527489
 10
-3.210306635523803
 20
1.576788910642754
 10
-3.209149597883005
 20
1.577222799758065
 10
-3.146524935575186
 20
1.614103374558277
 10
-3.145078638524171
 20
1.615260412199074
 10
-3.144066230588501
 20
1.61685133895518
 10
-3.143632341473153
 20
1.618731525121464
 10
-3.143487711768062
 20
1.620756340992836
 10
-3.143487711768062
 20
1.717658243409143
 10
-3.143776971178283
 20
1.720984726626399
 10
-3.14435548999868
 20
1.724021950433481
 10
-3.145367897934391
 20
1.726480655420159
 10
-3.146669565280271
 20
1.728505471291574
 10
-3.148260492036334
 20
1.729951768342548
 10
-3.150140678202662
 20
1.731108805983344
 10
-3.1520208643689
 20
1.731687324803741
 10
-3.153901050535228
 20
1.731976584213919
  0
LWPOLYLINE
  5
3B32
330
17
100
AcDbEntity
  8
4
  6
Continuous
100
AcDbPolyline
 90
      138
 70
     0
 43
0.0
 10
-2.591202717681145
 20
1.72951787922724
 10
-2.588165493874068
 20
1.727348433650776
 10
-2.585706788887389
 20
1.724889728664098
 10
-2.583681973016016
 20
1.722141764267195
 10
-2.582235675965041
 20
1.719249170165207
 10
-2.581078638324243
 20
1.716211946358129
 10
-2.58035548979871
 20
1.713030092845956
 10
-2.579921600683448
 20
1.709558979923617
 10
-2.579776970978358
 20
1.705943237296136
 10
-2.579776970978358
 20
1.597326328766822
 10
-2.582380305670127
 20
1.597326328766822
 10
-2.584983640361901
 20
1.59747095847191
 10
-2.587586975053671
 20
1.59776021788213
 10
-2.590045680040351
 20
1.598194106997395
 10
-2.592649014732121
 20
1.598772625817793
 10
-2.595107719718798
 20
1.599495774343282
 10
-2.597566424705481
 20
1.600363552573899
 10
-2.599880499987076
 20
1.601231330804475
 10
-2.602339204973755
 20
1.60238836844527
 10
-2.604653280255345
 20
1.603545406086069
 10
-2.60682272583185
 20
1.604847073431954
 10
-2.608992171408313
 20
1.606293370482968
 10
-2.611161616984812
 20
1.607884297239029
 10
-2.613331062561279
 20
1.609475223995135
 10
-2.615355878432687
 20
1.611210780456331
 10
-2.61723606459893
 20
1.612946336917485
 10
-2.620562547816227
 20
1.61627282013478
 10
-2.623599771623306
 20
1.619888562762259
 10
-2.626347736020206
 20
1.623648935094825
 10
-2.62880644100689
 20
1.62769856683761
 10
-2.630975886583351
 20
1.631892828285444
 10
-2.632711443044549
 20
1.636087089733319
 10
-2.63415774009552
 20
1.640570610591414
 10
-2.635170148031226
 20
1.645054131449465
 10
-2.635748666851625
 20
1.649248392897344
 10
-2.636182555966931
 20
1.653442654345214
 10
-2.636182555966931
 20
1.657781545498179
 10
-2.635893296556753
 20
1.661975806946055
 10
-2.635314777736313
 20
1.666170068393934
 10
-2.63444699950574
 20
1.670364329841761
 10
-2.633145332159811
 20
1.674413961584551
 10
-2.63140977569866
 20
1.678318963622249
 10
-2.630108108352775
 20
1.680777668608928
 10
-2.62880644100689
 20
1.683236373595564
 10
-2.627504773661005
 20
1.68555044887716
 10
-2.62605847660999
 20
1.687864524158751
 10
-2.624756809264102
 20
1.690178599440343
 10
-2.623310512213085
 20
1.692348045016803
 10
-2.621719585457023
 20
1.694517490593309
 10
-2.620128658700961
 20
1.696542306464681
 10
-2.618537731944813
 20
1.698711752041184
 10
-2.616946805188753
 20
1.700736567912553
 10
-2.615211248727598
 20
1.702761383783926
 10
-2.61347569226636
 20
1.704786199655339
 10
-2.611595506100123
 20
1.706666385821621
 10
-2.609715319933798
 20
1.708691201692995
 10
-2.607835133767558
 20
1.710571387859278
 10
-2.605810317896143
 20
1.712596203730694
 10
-2.604074761434951
 20
1.714621019602065
 10
-2.602917723794194
 20
1.716790465178524
 10
-2.602194575268669
 20
1.718959910755028
 10
-2.602049945563578
 20
1.721129356331534
 10
-2.602194575268669
 20
1.723298801907994
 10
-2.602628464383933
 20
1.725468247484496
 10
-2.603351612909461
 20
1.727493063355868
 10
-2.604364020845169
 20
1.72951787922724
 10
-2.656286084975651
 20
1.72951787922724
 10
-2.655129047334852
 20
1.728505471291574
 10
-2.653972009694054
 20
1.727493063355868
 10
-2.6528149720533
 20
1.726480655420159
 10
-2.651657934412503
 20
1.725323617779366
 10
-2.650645526476843
 20
1.724166580138609
 10
-2.649633118541134
 20
1.722864912792683
 10
-2.648765340310518
 20
1.721563245446798
 10
-2.647897562079938
 20
1.720261578100913
 10
-2.646162005618748
 20
1.716356576063256
 10
-2.645294227388125
 20
1.712162314615381
 10
-2.645294227388125
 20
1.707823423462419
 10
-2.645872746208567
 20
1.703484532309456
 10
-2.64702978384936
 20
1.698856381746271
 10
-2.648909970015604
 20
1.694372860888218
 10
-2.651079415592105
 20
1.690178599440343
 10
-2.653538120578788
 20
1.686128967697559
 10
-2.656141455270556
 20
1.682079335954813
 10
-2.65888941966746
 20
1.678174333917116
 10
-2.661637384064363
 20
1.674124702174374
 10
-2.664096089051041
 20
1.670075070431584
 10
-2.666120904922371
 20
1.6660254386888
 10
-2.667856461383608
 20
1.661975806946055
 10
-2.669158128729494
 20
1.657636915793094
 10
-2.670170536665199
 20
1.653298024640085
 10
-2.670749055485558
 20
1.648959133487119
 10
-2.671038314895733
 20
1.644475612629069
 10
-2.671038314895733
 20
1.639992091771014
 10
-2.670604425780465
 20
1.63550857091292
 10
-2.67002590696007
 20
1.632615976810974
 10
-2.669447388139673
 20
1.629723382708984
 10
-2.66857960990905
 20
1.626830788606994
 10
-2.667567201973385
 20
1.624082824210134
 10
-2.66641016433259
 20
1.621334859813234
 10
-2.66510849698671
 20
1.618731525121464
 10
-2.663806829640821
 20
1.61598356072456
 10
-2.662215902884715
 20
1.613524855737882
 10
-2.660624976128654
 20
1.6110661507512
 10
-2.65888941966746
 20
1.608607445764518
 10
-2.657009233501177
 20
1.606293370482968
 10
-2.65498441762976
 20
1.603979295201376
 10
-2.652959601758392
 20
1.601809849624874
 10
-2.650934785887022
 20
1.599640404048415
 10
-2.648765340310518
 20
1.597615588176999
 10
-2.646451265028923
 20
1.595735402010715
 10
-2.643847930337158
 20
1.593710586139343
 10
-2.640955336235208
 20
1.591830399973061
 10
-2.638062742133171
 20
1.590094843511866
 10
-2.635025518326138
 20
1.588503916755762
 10
-2.631843664813928
 20
1.58705761970479
 10
-2.628661811301803
 20
1.585755952358905
 10
-2.625335328084497
 20
1.58445428501302
 10
-2.622008844867201
 20
1.58344187707731
 10
-2.618682361649948
 20
1.582574098846738
 10
-2.615355878432687
 20
1.581706320616115
 10
-2.611884765510303
 20
1.580983172090629
 10
-2.608413652587913
 20
1.580549282975321
 10
-2.605087169370658
 20
1.580115393860054
 10
-2.601616056448268
 20
1.579826134449833
 10
-2.598289573231009
 20
1.579536875039655
 10
-2.594963090013711
 20
1.579536875039655
 10
-2.546512138805578
 20
1.579536875039655
 10
-2.546512138805578
 20
1.711294536384764
 10
-2.546512138805578
 20
1.713608611666358
 10
-2.546512138805578
 20
1.715922686947949
 10
-2.546222879395358
 20
1.71838139193463
 10
-2.545788990280094
 20
1.72084009692131
 10
-2.544921212049473
 20
1.723154172202903
 10
-2.543764174408678
 20
1.725323617779366
 10
-2.542028617947529
 20
1.727493063355868
 10
-2.539714542665937
 20
1.72951787922724
 10
-2.591202717681145
 20
1.72951787922724
  0
LWPOLYLINE
  5
3B33
330
17
100
AcDbEntity
  8
4
  6
Continuous
100
AcDbPolyline
 90
       34
 70
     0
 43
0.0
 10
-2.77908899657946
 20
1.717947502819323
 10
-2.773448438080651
 20
1.717368983998921
 10
-2.76795250928685
 20
1.716211946358129
 10
-2.762745839903306
 20
1.714187130486754
 10
-2.757683800224858
 20
1.711439166089899
 10
-2.753055649661674
 20
1.708257312577686
 10
-2.748572128803579
 20
1.70435231054003
 10
-2.744522497060834
 20
1.700013419387069
 10
-2.74076212472827
 20
1.695240639118796
 10
-2.737291011805877
 20
1.689889340030122
 10
-2.734398417703931
 20
1.684393411236363
 10
-2.731795083012162
 20
1.678463593327334
 10
-2.72962563743566
 20
1.672389145713178
 10
-2.727890080974466
 20
1.6660254386888
 10
-2.726733043333668
 20
1.659517101959376
 10
-2.725865265103095
 20
1.653008765229909
 10
-2.725720635398003
 20
1.64635579879535
 10
-2.726154524513269
 20
1.640281351181194
 10
-2.727311562154067
 20
1.634496162977255
 10
-2.729047118615262
 20
1.628855604478363
 10
-2.731361193896812
 20
1.623648935094825
 10
-2.734253787998798
 20
1.618586895416374
 10
-2.737580271216059
 20
1.613958744853188
 10
-2.74134064354867
 20
1.609764483405315
 10
-2.745245645586365
 20
1.60585948136766
 10
-2.749439907034195
 20
1.602243738740185
 10
-2.753778798187163
 20
1.599061885228014
 10
-2.75826231904521
 20
1.596313920831114
 10
-2.762601210198219
 20
1.593999845549522
 10
-2.767084731056271
 20
1.59226428908837
 10
-2.771278992504149
 20
1.590817992037354
 10
-2.775328624246892
 20
1.58995021380678
 10
-2.77908899657946
 20
1.589516324691467
 10
-2.77908899657946
 20
1.717947502819323
  0
LWPOLYLINE
  5
3B34
330
17
100
AcDbEntity
  8
4
  6
Continuous
100
AcDbPolyline
 90
       44
 70
     0
 43
0.0
 10
-2.762745839903306
 20
1.729951768342548
 10
-2.826816799262147
 20
1.729951768342548
 10
-2.824791983390774
 20
1.728794730701753
 10
-2.822477908109185
 20
1.727203803945648
 10
-2.820308462532678
 20
1.724889728664098
 10
-2.818139016956173
 20
1.722286393972284
 10
-2.816258830789936
 20
1.719249170165207
 10
-2.81466790403383
 20
1.71577805724286
 10
-2.813800125803253
 20
1.712162314615381
 10
-2.813366236687901
 20
1.708257312577686
 10
-2.813366236687901
 20
1.579536875039655
 10
-2.76534917459508
 20
1.579536875039655
 10
-2.757249911109548
 20
1.579970764154924
 10
-2.749439907034195
 20
1.581127801795718
 10
-2.741919162369064
 20
1.583007987962
 10
-2.734832306819201
 20
1.585611322653813
 10
-2.728179340384687
 20
1.58893780587107
 10
-2.721815633360305
 20
1.592987437613856
 10
-2.716030445156372
 20
1.59747095847191
 10
-2.710679146067654
 20
1.602677627855495
 10
-2.705906365799424
 20
1.60831818635434
 10
-2.701567474646459
 20
1.614537263673589
 10
-2.697807102313895
 20
1.621190230108144
 10
-2.694769878506773
 20
1.628277085658009
 10
-2.69231117352009
 20
1.63579783032314
 10
-2.690430987353851
 20
1.643607834398494
 10
-2.689418579418144
 20
1.651851727589114
 10
-2.688984690302834
 20
1.660384880189949
 10
-2.689273949713056
 20
1.667616365444906
 10
-2.690430987353851
 20
1.674558591289641
 10
-2.69231117352009
 20
1.681211557724195
 10
-2.694914508211908
 20
1.687575264748573
 10
-2.698096361724076
 20
1.69379434206782
 10
-2.70185673405664
 20
1.699434900566668
 10
-2.706195625209648
 20
1.704786199655339
 10
-2.711113035183007
 20
1.709703609628704
 10
-2.716319704566549
 20
1.714187130486754
 10
-2.722104892770529
 20
1.71823676222954
 10
-2.728179340384687
 20
1.721707875151929
 10
-2.734687677114107
 20
1.724600469253878
 10
-2.74134064354867
 20
1.72691454453547
 10
-2.748282869393398
 20
1.728650100996663
 10
-2.755514354648357
 20
1.72966250893237
 10
-2.762745839903306
 20
1.729951768342548
  0
LINE
  5
3B35
330
17
100
AcDbEntity
  8
0
100
AcDbLine
 10
-1.549996345786881
 20
1.088837136489871
 30
0.0
 11
-1.549996345786881
 21
1.268913789283079
 31
0.0
  0
LINE
  5
3B36
330
17
100
AcDbEntity
  8
0
100
AcDbLine
 10
-2.276515304746098
 20
0.7999999999999547
 30
0.0
 11
-2.276515304746098
 21
1.268913789283079
 31
0.0
  0
TEXT
  5
3B37
330
17
100
AcDbEntity
  8
3
100
AcDbText
 10
-2.239410179947039
 20
1.015588455926574
 30
0.0
 40
0.0390761491069264
  1
PART/DWG. NO.
  7
SIMPLEX
100
AcDbText
  0
TEXT
  5
3B38
330
17
100
AcDbEntity
  8
3
100
AcDbText
 10
-2.219260010838745
 20
1.162083521424069
 30
0.0
 40
0.038763539914071
  1
SHEET
  7
SIMPLEX
100
AcDbText
  0
TEXT
  5
3B39
330
17
100
AcDbEntity
  8
3
100
AcDbText
 10
-1.649573913904774
 20
1.140699344601567
 30
0.0
 40
0.0781522982138528
  1
1
  7
SIMPLEX
100
AcDbText
  0
TEXT
  5
3B3A
330
17
100
AcDbEntity
  8
3
100
AcDbText
 10
-1.9540928137981
 20
1.140699344601567
 30
0.0
 40
0.0781522982138528
  1
1
  7
SIMPLEX
100
AcDbText
  0
TEXT
  5
3B3B
330
17
100
AcDbEntity
  8
3
100
AcDbText
 10
-1.817975828118971
 20
1.161751422157339
 30
0.0
 40
0.038763539914071
  1
OF
  7
SIMPLEX
100
AcDbText
  0
LWPOLYLINE
  5
3B3C
330
17
100
AcDbEntity
  8
4
  6
Continuous
100
AcDbPolyline
 90
       88
 70
     0
 43
0.0
 10
-1.9007224454675
 20
1.729373249522149
 10
-1.995454902307256
 20
1.729373249522149
 10
-1.992851567615488
 20
1.727348433650776
 10
-1.990248232923718
 20
1.725034358369188
 10
-1.987934157642128
 20
1.722431023677418
 10
-1.985764712065666
 20
1.719827688985605
 10
-1.98402915560447
 20
1.716790465178524
 10
-1.982727488258589
 20
1.713753241371446
 10
-1.98185971002797
 20
1.710282128449099
 10
-1.981425820912704
 20
1.706811015526714
 10
-1.981425820912704
 20
1.606293370482968
 10
-2.005868241074426
 20
1.579536875039655
 10
-1.918656528899751
 20
1.579536875039655
 10
-1.91692097243856
 20
1.579536875039655
 10
-1.915185415977404
 20
1.579826134449833
 10
-1.91344985951617
 20
1.579970764154924
 10
-1.911858932760106
 20
1.580404653270232
 10
-1.91012337629891
 20
1.58083854238554
 10
-1.908387819837718
 20
1.581417061205939
 10
-1.906796893081654
 20
1.581995580026337
 10
-1.90506133662046
 20
1.582863358256909
 10
-1.903470409864354
 20
1.583586506782399
 10
-1.901879483108293
 20
1.58445428501302
 10
-1.900433186057275
 20
1.58546669294868
 10
-1.898986889006259
 20
1.586479100884389
 10
-1.897540591955285
 20
1.587636138525186
 10
-1.89609429490431
 20
1.588793176165981
 10
-1.894937257263515
 20
1.58995021380678
 10
-1.893635589917634
 20
1.591251881152659
 10
-1.890164476995245
 20
1.595590772305626
 10
-1.887416512598383
 20
1.60065281198408
 10
-1.885391696726967
 20
1.606004111072748
 10
-1.884234659086174
 20
1.611500039866509
 10
-1.884090029381088
 20
1.617140598365359
 10
-1.884957807611705
 20
1.622347267748939
 10
-1.887127253188205
 20
1.627264677722305
 10
-1.89045373640542
 20
1.631603568875265
 10
-1.92198301211701
 20
1.618008376595977
 10
-1.920392085360943
 20
1.615694301314384
 10
-1.919090418015058
 20
1.613090966622612
 10
-1.918078010079353
 20
1.610487631930801
 10
-1.917354861553862
 20
1.607739667533945
 10
-1.91692097243856
 20
1.604991703137041
 10
-1.91692097243856
 20
1.602243738740185
 10
-1.917354861553862
 20
1.599495774343282
 10
-1.918222639784442
 20
1.59689243965151
 10
-1.919379677425235
 20
1.595012253485229
 10
-1.92068134477112
 20
1.593276697024034
 10
-1.922416901232313
 20
1.591685770267972
 10
-1.924152457693509
 20
1.590528732627175
 10
-1.926177273564924
 20
1.589516324691467
 10
-1.928202089436254
 20
1.588648546460895
 10
-1.93037153501276
 20
1.588214657345583
 10
-1.932540980589261
 20
1.588070027640494
 10
-1.98185971002797
 20
1.588070027640494
 10
-1.94917339667563
 20
1.62191337863363
 10
-1.94917339667563
 20
1.654888951396189
 10
-1.910701895119309
 20
1.654888951396189
 10
-1.910701895119309
 20
1.666459327804108
 10
-1.948594877855235
 20
1.666459327804108
 10
-1.948594877855235
 20
1.710426758154189
 10
-1.955392473994874
 20
1.720984726626399
 10
-1.93355338852497
 20
1.720984726626399
 10
-1.928635978551605
 20
1.720695467216224
 10
-1.92458634680878
 20
1.719538429575425
 10
-1.921404493296655
 20
1.717658243409143
 10
-1.919090418015058
 20
1.715054908717371
 10
-1.917788750669174
 20
1.712017684910295
 10
-1.917354861553862
 20
1.708546571987906
 10
-1.917933380374265
 20
1.704641569950251
 10
-1.91952430713033
 20
1.700736567912553
 10
-1.885680956137188
 20
1.690467858850519
 10
-1.8833668808556
 20
1.692926563837203
 10
-1.881631324394404
 20
1.695674528234103
 10
-1.88032965704852
 20
1.698711752041184
 10
-1.879606508523032
 20
1.701748975848263
 10
-1.879317249112814
 20
1.704930829360429
 10
-1.879606508523032
 20
1.708257312577686
 10
-1.880185027343429
 20
1.711439166089899
 10
-1.881197435279137
 20
1.714621019602065
 10
-1.882499102625024
 20
1.717513613704054
 10
-1.884234659086174
 20
1.720406207806004
 10
-1.886259474957584
 20
1.722864912792683
 10
-1.88871817994427
 20
1.725034358369188
 10
-1.89132151463604
 20
1.72691454453547
 10
-1.894214108738033
 20
1.728216211881355
 10
-1.897395962250196
 20
1.729083990111973
 10
-1.9007224454675
 20
1.729373249522149
  0
LWPOLYLINE
  5
3B3D
330
17
100
AcDbEntity
  8
4
  6
Continuous
100
AcDbPolyline
 90
       21
 70
     0
 43
0.0
 10
-2.136214566321132
 20
1.697843973810567
 10
-2.136648455436485
 20
1.693360452952511
 10
-2.13795012278237
 20
1.689166191504636
 10
-2.139974938653743
 20
1.68555044887716
 10
-2.142722903050644
 20
1.682368595364989
 10
-2.146049386267858
 20
1.679765260673219
 10
-2.149809758600464
 20
1.677885074506939
 10
-2.153859390343253
 20
1.676728036866141
 10
-2.158198281496176
 20
1.676294147750834
 10
-2.187268852221079
 20
1.676294147750834
 10
-2.187268852221079
 20
1.713463981961268
 10
-2.1903060760282
 20
1.720550837511136
 10
-2.157764392380908
 20
1.720550837511136
 10
-2.153280871522813
 20
1.720116948395824
 10
-2.149231239780068
 20
1.718815281049939
 10
-2.145615497152594
 20
1.716790465178524
 10
-2.142433643640378
 20
1.714042500781669
 10
-2.13983030894861
 20
1.710571387859278
 10
-2.13795012278237
 20
1.706811015526714
 10
-2.136648455436485
 20
1.702472124373746
 10
-2.136214566321132
 20
1.697843973810567
  0
LWPOLYLINE
  5
3B3E
330
17
100
AcDbEntity
  8
4
  6
Continuous
100
AcDbPolyline
 90
       61
 70
     0
 43
0.0
 10
-2.135491417795686
 20
1.665157660458223
 10
-2.131297156347772
 20
1.665446919868402
 10
-2.127247524605026
 20
1.6660254386888
 10
-2.123631781977548
 20
1.666893216919418
 10
-2.120305298760294
 20
1.668050254560215
 10
-2.117412704658303
 20
1.669496551611189
 10
-2.114664740261444
 20
1.671087478367294
 10
-2.112206035274764
 20
1.672967664533576
 10
-2.11003658969826
 20
1.675137110110039
 10
-2.108156403531936
 20
1.677451185391628
 10
-2.106565476775871
 20
1.67990989037831
 10
-2.105263809429985
 20
1.682513225070081
 10
-2.104251401494281
 20
1.685405819172069
 10
-2.103383623263705
 20
1.688298413274061
 10
-2.102805104443303
 20
1.691335637081141
 10
-2.102515845033129
 20
1.694517490593309
 10
-2.102371215328
 20
1.697843973810567
 10
-2.102515845033129
 20
1.700881197617643
 10
-2.103094363853482
 20
1.703918421424724
 10
-2.103817512379014
 20
1.706811015526714
 10
-2.104974550019806
 20
1.709703609628704
 10
-2.106276217365695
 20
1.712451574025559
 10
-2.108011773826849
 20
1.715054908717371
 10
-2.109747330288083
 20
1.717513613704054
 10
-2.111916775864544
 20
1.719827688985605
 10
-2.114086221441004
 20
1.721852504857021
 10
-2.116544926427688
 20
1.723732691023303
 10
-2.119148261119454
 20
1.725323617779366
 10
-2.121896225516358
 20
1.726769914830381
 10
-2.124644189913256
 20
1.727926952471175
 10
-2.127536784015205
 20
1.728650100996663
 10
-2.13057400782233
 20
1.729228619817064
 10
-2.13361123162936
 20
1.729373249522149
 10
-2.234996654903727
 20
1.729373249522149
 10
-2.233550357852752
 20
1.728216211881355
 10
-2.232248690506865
 20
1.727059174240558
 10
-2.230947023160982
 20
1.725757506894673
 10
-2.229789985520183
 20
1.724600469253878
 10
-2.228632947879384
 20
1.72344343161308
 10
-2.227475910238595
 20
1.721997134562109
 10
-2.226463502302888
 20
1.720550837511136
 10
-2.22545109436722
 20
1.718815281049939
 10
-2.224004797316208
 20
1.71563342753777
 10
-2.222847759675409
 20
1.711873055205163
 10
-2.222124611149963
 20
1.708257312577686
 10
-2.221835351739745
 20
1.705364718475738
 10
-2.221690722034615
 20
1.57534261359178
 10
-2.186834963105813
 20
1.60585948136766
 10
-2.186834963105813
 20
1.666170068393934
 10
-2.171504214365285
 20
1.666314698099021
 10
-2.119292890824588
 20
1.579826134449833
 10
-2.074313052538844
 20
1.579536875039655
 10
-2.077061016935699
 20
1.581127801795718
 10
-2.079808981332559
 20
1.583007987962
 10
-2.082412316024331
 20
1.584888174128325
 10
-2.084871021011009
 20
1.58705761970479
 10
-2.087329725997689
 20
1.589082435576159
 10
-2.089643801279283
 20
1.591396510857751
 10
-2.091957876560876
 20
1.593710586139343
 10
-2.094271951842467
 20
1.596169291126025
 10
-2.135491417795686
 20
1.665157660458223
  0
LWPOLYLINE
  5
3B3F
330
17
100
AcDbEntity
  8
4
  6
Continuous
100
AcDbPolyline
 90
      133
 70
     0
 43
0.0
 10
-2.365588619804884
 20
1.722575653382504
 10
-2.36804732479156
 20
1.719972318690735
 10
-2.370361400073155
 20
1.716935094883655
 10
-2.372386215944525
 20
1.713753241371446
 10
-2.374555661520989
 20
1.710426758154189
 10
-2.37672510709749
 20
1.707244904642021
 10
-2.379039182379083
 20
1.704063051129853
 10
-2.381353257660675
 20
1.701170457027861
 10
-2.384101222057537
 20
1.698711752041184
 10
-2.385113629993245
 20
1.697988603515694
 10
-2.386126037928949
 20
1.697265454990166
 10
-2.387138445864655
 20
1.696542306464681
 10
-2.388150853800321
 20
1.695819157939194
 10
-2.389163261735985
 20
1.695096009413705
 10
-2.390320299376782
 20
1.694372860888218
 10
-2.391477337017576
 20
1.693649712362731
 10
-2.392923634068594
 20
1.692926563837203
 10
-2.34042305111763
 20
1.692926563837203
 10
-2.342737126399224
 20
1.691046377670918
 10
-2.34490657197573
 20
1.689166191504636
 10
-2.346931387847142
 20
1.687286005338354
 10
-2.348956203718469
 20
1.68526118946698
 10
-2.350836389884795
 20
1.683091743890478
 10
-2.352716576051077
 20
1.680922298314019
 10
-2.354452132512275
 20
1.678752852737513
 10
-2.356043059268339
 20
1.676438777455924
 10
-2.357778615729575
 20
1.673980072469241
 10
-2.359224912780546
 20
1.671376737777469
 10
-2.360671209831519
 20
1.668628773380613
 10
-2.362117506882494
 20
1.665880808983709
 10
-2.363563803933464
 20
1.662843585176632
 10
-2.364865471279395
 20
1.659806361369554
 10
-2.36616713862528
 20
1.656479878152295
 10
-2.367324176266079
 20
1.653008765229909
 10
-2.369348992137449
 20
1.645343390859647
 10
-2.370506029778248
 20
1.637678016489424
 10
-2.37065065948333
 20
1.62986801241407
 10
-2.369927510957889
 20
1.62205800833872
 10
-2.368336584201738
 20
1.614537263673589
 10
-2.36573324950997
 20
1.607161148713547
 10
-2.362406766292671
 20
1.60021892286881
 10
-2.358067875139751
 20
1.59385521584443
 10
-2.355898429563247
 20
1.591251881152659
 10
-2.353439724576567
 20
1.588793176165981
 10
-2.350691760179707
 20
1.5863344711793
 10
-2.347654536372585
 20
1.584165025602794
 10
-2.344617312565553
 20
1.581995580026337
 10
-2.341290829348249
 20
1.579970764154924
 10
-2.33781971642586
 20
1.578235207693771
 10
-2.334203973798384
 20
1.576644280937665
 10
-2.33058823117091
 20
1.57519798388669
 10
-2.326827858838341
 20
1.573896316540805
 10
-2.323212116210866
 20
1.572883908605098
 10
-2.319451743878298
 20
1.572160760079615
 10
-2.315691371545732
 20
1.571582241259218
 10
-2.312075628918258
 20
1.571437611554085
 10
-2.308459886290779
 20
1.571437611554085
 10
-2.304988773368435
 20
1.571726870964304
 10
-2.300649882215469
 20
1.572450019489789
 10
-2.296310991062461
 20
1.57331779772041
 10
-2.292116729614633
 20
1.574474835361204
 10
-2.288067097871888
 20
1.57592113241218
 10
-2.284017466129056
 20
1.57751205916824
 10
-2.28025709379649
 20
1.579392245334524
 10
-2.276496721463928
 20
1.581561690911024
 10
-2.273170238246668
 20
1.584020395897709
 10
-2.269843755029413
 20
1.586768360294608
 10
-2.26695116092738
 20
1.58966095439656
 10
-2.26420319653052
 20
1.59284280790877
 10
-2.26174449154384
 20
1.596313920831114
 10
-2.259575045967336
 20
1.600074293163681
 10
-2.257839489506185
 20
1.603979295201376
 10
-2.256393192455211
 20
1.60831818635434
 10
-2.255236154814415
 20
1.612801707212394
 10
-2.25841800832654
 20
1.610053742815534
 10
-2.26174449154384
 20
1.607595037828853
 10
-2.265360234171318
 20
1.605280962547261
 10
-2.26897597679879
 20
1.603400776380979
 10
-2.272736349131359
 20
1.601665219919784
 10
-2.276641351169015
 20
1.60021892286881
 10
-2.280690982911798
 20
1.599061885228014
 10
-2.284740614654586
 20
1.598194106997395
 10
-2.288790246397333
 20
1.597615588176999
 10
-2.292984507845208
 20
1.59747095847191
 10
-2.29703413958799
 20
1.59747095847191
 10
-2.301083771330732
 20
1.597904847587217
 10
-2.30513340307352
 20
1.598627996112706
 10
-2.309038405111223
 20
1.599785033753502
 10
-2.312943407148873
 20
1.601231330804475
 10
-2.316703779481443
 20
1.602966887265668
 10
-2.320319522108917
 20
1.605280962547261
 10
-2.323646005326216
 20
1.607739667533945
 10
-2.326683229133251
 20
1.610632261635934
 10
-2.32957582323524
 20
1.613669485443014
 10
-2.332034528221925
 20
1.617140598365359
 10
-2.334348603503517
 20
1.620611711287745
 10
-2.336228789669799
 20
1.624372083620311
 10
-2.337964346130995
 20
1.628277085658009
 10
-2.339410643182008
 20
1.632326717400754
 10
-2.34042305111763
 20
1.636376349143542
 10
-2.341290829348249
 20
1.640570610591414
 10
-2.341869348168688
 20
1.644909501744379
 10
-2.342158607578868
 20
1.649103763192254
 10
-2.342158607578868
 20
1.653442654345214
 10
-2.341869348168688
 20
1.657781545498179
 10
-2.341290829348249
 20
1.661975806946055
 10
-2.339699902592185
 20
1.666893216919418
 10
-2.337964346130995
 20
1.671232108072383
 10
-2.336084159964711
 20
1.675281739815126
 10
-2.333914714388205
 20
1.679042112147735
 10
-2.331600639106614
 20
1.68265785477521
 10
-2.328852674709755
 20
1.685984337992469
 10
-2.325670821197542
 20
1.689455450914859
 10
-2.322055078570068
 20
1.692781934132113
 10
-2.294575434601311
 20
1.692781934132113
 10
-2.292984507845208
 20
1.692781934132113
 10
-2.291104321678921
 20
1.693071193542333
 10
-2.289079505807553
 20
1.693360452952511
 10
-2.28705468993618
 20
1.693938971772911
 10
-2.285029874064766
 20
1.694517490593309
 10
-2.283294317603612
 20
1.695385268823881
 10
-2.281703390847463
 20
1.696253047054501
 10
-2.280546353206712
 20
1.697410084695297
 10
-2.254223746878706
 20
1.72951787922724
 10
-2.349100833423602
 20
1.72951787922724
 10
-2.351848797820501
 20
1.729373249522149
 10
-2.354162873102095
 20
1.729228619817064
 10
-2.356332318678556
 20
1.728794730701753
 10
-2.358212504844837
 20
1.728071582176266
 10
-2.360092691011121
 20
1.727203803945648
 10
-2.361828247472316
 20
1.726046766304893
 10
-2.363708433638599
 20
1.724455839548788
 10
-2.365588619804884
 20
1.722575653382504
  0
LWPOLYLINE
  5
3B40
330
17
100
AcDbEntity
  8
4
  6
Continuous
100
AcDbPolyline
 90
       21
 70
     0
 43
0.0
 10
-2.06974647316011
 20
1.72951787922724
 10
-2.066998508763254
 20
1.728071582176266
 10
-2.06468443348166
 20
1.726336025715073
 10
-2.06265961761029
 20
1.724311209843699
 10
-2.061213320559274
 20
1.721997134562109
 10
-2.060056282918475
 20
1.719393799870339
 10
-2.059188504687901
 20
1.716645835473439
 10
-2.05875461557259
 20
1.713608611666358
 10
-2.058609985867504
 20
1.710426758154189
 10
-2.058609985867504
 20
1.579536875039655
 10
-2.023031078413171
 20
1.579536875039655
 10
-2.023031078413171
 20
1.710860647269498
 10
-2.022886448708089
 20
1.713897871076579
 10
-2.022163300182555
 20
1.716501205768349
 10
-2.02129552195198
 20
1.719104540460119
 10
-2.019849224901006
 20
1.721418615741711
 10
-2.018258298144899
 20
1.723588061318213
 10
-2.016233482273525
 20
1.725757506894673
 10
-2.014064036697071
 20
1.727637693060958
 10
-2.011460702005253
 20
1.72951787922724
 10
-2.06974647316011
 20
1.72951787922724
  0
LWPOLYLINE
  5
3B41
330
17
100
AcDbEntity
  8
4
  6
Continuous
 62
     4
100
AcDbPolyline
 90
      205
 70
     0
 43
0.0
 10
-1.73642022063035
 20
1.711439166089899
 10
-1.740325222668003
 20
1.715488797832639
 10
-1.744519484115921
 20
1.719104540460119
 10
-1.74929226438415
 20
1.722286393972284
 10
-1.754354304062648
 20
1.725178988074274
 10
-1.759705603151274
 20
1.727493063355868
 10
-1.765201531945075
 20
1.729373249522149
 10
-1.770986720149014
 20
1.730819546573125
 10
-1.77691653805804
 20
1.73183195450883
 10
-1.782990985672198
 20
1.732265843624142
 10
-1.78906543328636
 20
1.732410473329229
 10
-1.795139880900514
 20
1.732121213919054
 10
-1.801214328514674
 20
1.731253435688433
 10
-1.807144146423745
 20
1.729951768342548
 10
-1.812929334627725
 20
1.728216211881355
 10
-1.818425263421442
 20
1.726046766304893
 10
-1.823776562510152
 20
1.72344343161308
 10
-1.827826194252899
 20
1.720984726626399
 10
-1.83158656658546
 20
1.71823676222954
 10
-1.835202309212941
 20
1.715344168127554
 10
-1.838528792430238
 20
1.712162314615381
 10
-1.841710645942363
 20
1.708691201692995
 10
-1.844603240044399
 20
1.704930829360429
 10
-1.847351204441254
 20
1.701170457027861
 10
-1.849665279722849
 20
1.697120825285079
 10
-1.851834725299306
 20
1.692926563837203
 10
-1.853714911465593
 20
1.688587672684239
 10
-1.855161208516564
 20
1.684248781531277
 10
-1.856318246157363
 20
1.679765260673219
 10
-1.857186024387985
 20
1.675137110110039
 10
-1.85776454320838
 20
1.670508959546894
 10
-1.857909172913469
 20
1.665880808983709
 10
-1.857619913503245
 20
1.661252658420568
 10
-1.85747528379816
 20
1.658793953433889
 10
-1.857186024387985
 20
1.656479878152295
 10
-1.856896764977803
 20
1.654021173165616
 10
-1.856318246157363
 20
1.651707097884024
 10
-1.85545046792679
 20
1.649537652307522
 10
-1.854438059991121
 20
1.647512836436149
 10
-1.85284713323502
 20
1.645921909680044
 10
-1.850966947068734
 20
1.64476487203929
 10
-1.850099168838115
 20
1.64433098292398
 10
-1.849231390607542
 20
1.644041723513762
 10
-1.84821898267183
 20
1.644041723513762
 10
-1.847351204441254
 20
1.644041723513762
 10
-1.846338796505551
 20
1.644041723513762
 10
-1.845326388569844
 20
1.644186353218889
 10
-1.844169350929044
 20
1.644475612629069
 10
-1.842867683583165
 20
1.644620242334159
 10
-1.799912661168789
 20
1.652140986999334
 10
-1.798032475002504
 20
1.652430246409512
 10
-1.796007659131134
 20
1.652574876114599
 10
-1.79412747296481
 20
1.652864135524819
 10
-1.792102657093479
 20
1.652864135524819
 10
-1.790222470927155
 20
1.653008765229909
 10
-1.78819765505578
 20
1.653008765229909
 10
-1.786317468889495
 20
1.652864135524819
 10
-1.784292653018082
 20
1.652719505819731
 10
-1.782412466851845
 20
1.652574876114599
 10
-1.780387650980429
 20
1.652285616704421
 10
-1.778507464814147
 20
1.6519963572942
 10
-1.776627278647865
 20
1.651562468178934
 10
-1.774747092481579
 20
1.651128579063625
 10
-1.7728669063153
 20
1.650694689948315
 10
-1.770986720149014
 20
1.650116171127917
 10
-1.769251163687818
 20
1.64939302260243
 10
-1.764912272534813
 20
1.647078947320839
 10
-1.761296529907379
 20
1.64389709380867
 10
-1.758693195215565
 20
1.640136721476106
 10
-1.756813009049325
 20
1.63579783032314
 10
-1.755800601113616
 20
1.631314309465088
 10
-1.755655971408527
 20
1.626541529196817
 10
-1.756234490228886
 20
1.621768748928539
 10
-1.7576807872799
 20
1.616995968660269
 10
-1.759127084330919
 20
1.613958744853188
 10
-1.76071801108698
 20
1.6110661507512
 10
-1.762742826958394
 20
1.608462816059432
 10
-1.764912272534813
 20
1.606004111072748
 10
-1.767226347816404
 20
1.603690035791156
 10
-1.769829682508214
 20
1.601665219919784
 10
-1.772722276610205
 20
1.59992966345859
 10
-1.775614870712155
 20
1.59833873670253
 10
-1.778652094519235
 20
1.5970370693566
 10
-1.781689318326314
 20
1.596169291126025
 10
-1.785015801543613
 20
1.59544614260054
 10
-1.78819765505578
 20
1.595012253485229
 10
-1.791379508567948
 20
1.59486762378014
 10
-1.794705991785249
 20
1.595156883190315
 10
-1.797887845297417
 20
1.595735402010715
 10
-1.801069698809588
 20
1.596747809946425
 10
-1.803673033501356
 20
1.59776021788213
 10
-1.806131738488033
 20
1.598917255522884
 10
-1.808590443474716
 20
1.600074293163681
 10
-1.810904518756309
 20
1.601520590214695
 10
-1.8132185940379
 20
1.602966887265668
 10
-1.8153880396144
 20
1.604557814021775
 10
-1.817412855485734
 20
1.606293370482968
 10
-1.81958230106224
 20
1.60817355664925
 10
-1.821462487228565
 20
1.610053742815534
 10
-1.823342673394801
 20
1.611933928981819
 10
-1.825222859561129
 20
1.613958744853188
 10
-1.826958416022278
 20
1.616128190429694
 10
-1.828693972483515
 20
1.618297636006154
 10
-1.830284899239579
 20
1.620467081582654
 10
-1.831875825995638
 20
1.622636527159119
 10
-1.833322123046654
 20
1.624950602440706
 10
-1.867743992860189
 20
1.60817355664925
 10
-1.864996028463332
 20
1.603690035791156
 10
-1.861814174951163
 20
1.599495774343282
 10
-1.858343062028779
 20
1.595590772305626
 10
-1.85458268969621
 20
1.592119659383239
 10
-1.850533057953421
 20
1.588793176165981
 10
-1.846194166800458
 20
1.585900582063992
 10
-1.841566016237274
 20
1.583297247372222
 10
-1.836937865674135
 20
1.581127801795718
 10
-1.83202045570073
 20
1.579247615629436
 10
-1.826958416022278
 20
1.57765668887337
 10
-1.821751746638739
 20
1.576499651232577
 10
-1.816545077255199
 20
1.575776502707089
 10
-1.81133840787162
 20
1.57534261359178
 10
-1.806131738488033
 20
1.57534261359178
 10
-1.800925069104494
 20
1.575631873001958
 10
-1.795718399720955
 20
1.576499651232577
 10
-1.790511730337331
 20
1.57765668887337
 10
-1.785449690658879
 20
1.579392245334524
 10
-1.780676910390605
 20
1.581417061205939
 10
-1.775904130122377
 20
1.583875766192619
 10
-1.771420609264325
 20
1.586768360294608
 10
-1.767081718111315
 20
1.58995021380678
 10
-1.763176716073665
 20
1.593421326729123
 10
-1.759416343741095
 20
1.597181699061732
 10
-1.75594523081871
 20
1.601231330804475
 10
-1.752908007011629
 20
1.605570221957438
 10
-1.750160042614725
 20
1.610053742815534
 10
-1.74770133762809
 20
1.614826523083809
 10
-1.745821151461806
 20
1.61974393305717
 10
-1.7442302247057
 20
1.62480597273562
 10
-1.743073187064902
 20
1.630012642119161
 10
-1.742494668244505
 20
1.635219311502744
 10
-1.74220540883433
 20
1.639268943245529
 10
-1.74235003853942
 20
1.643318574988274
 10
-1.742783927654684
 20
1.647368206731061
 10
-1.743507076180215
 20
1.651273208768715
 10
-1.744664113821009
 20
1.655178210806415
 10
-1.746110410871984
 20
1.658938583138979
 10
-1.747845967333176
 20
1.662554325766453
 10
-1.750015412909639
 20
1.6660254386888
 10
-1.751750969370876
 20
1.668194884265303
 10
-1.753631155537116
 20
1.670364329841761
 10
-1.755655971408527
 20
1.672244516008088
 10
-1.757825416984988
 20
1.673835442764153
 10
-1.760284121971714
 20
1.675426369520257
 10
-1.762742826958394
 20
1.676872666571229
 10
-1.765346161650164
 20
1.678029704212027
 10
-1.767949496341936
 20
1.679186741852824
 10
-1.770697460738793
 20
1.680054520083398
 10
-1.773445425135695
 20
1.680922298314019
 10
-1.776338019237684
 20
1.681645446839507
 10
-1.779230613339635
 20
1.682223965659904
 10
-1.782123207441624
 20
1.68265785477521
 10
-1.785015801543613
 20
1.682947114185392
 10
-1.78790839564556
 20
1.683236373595564
 10
-1.790656360042459
 20
1.683381003300699
 10
-1.792391916503657
 20
1.683381003300699
 10
-1.794272102669939
 20
1.683381003300699
 10
-1.796007659131134
 20
1.683381003300699
 10
-1.797743215592284
 20
1.683236373595564
 10
-1.799478772053516
 20
1.683091743890478
 10
-1.801214328514674
 20
1.682947114185392
 10
-1.802949884975866
 20
1.682802484480301
 10
-1.804685441437061
 20
1.682513225070081
 10
-1.806565627603344
 20
1.682223965659904
 10
-1.808301184064539
 20
1.681934706249679
 10
-1.81003674052573
 20
1.681645446839507
 10
-1.811772296986925
 20
1.681500817134416
 10
-1.813507853448079
 20
1.681211557724195
 10
-1.815243409909274
 20
1.680922298314019
 10
-1.817123596075553
 20
1.680633038903799
 10
-1.818859152536749
 20
1.68034377949362
 10
-1.84474786974949
 20
1.673980072469241
 10
-1.845181758864754
 20
1.676438777455924
 10
-1.844892499454577
 20
1.680199149788531
 10
-1.844024721223956
 20
1.684827300351674
 10
-1.842289164762805
 20
1.690033969735255
 10
-1.840119719186303
 20
1.695240639118796
 10
-1.837227125084313
 20
1.700158049092155
 10
-1.833756012161965
 20
1.704207680834944
 10
-1.829851010124269
 20
1.707244904642021
 10
-1.826379897201924
 20
1.708835831398086
 10
-1.822764154574446
 20
1.710137498744014
 10
-1.81900378224188
 20
1.710860647269498
 10
-1.815098780204179
 20
1.711439166089899
 10
-1.811193778166483
 20
1.711583795794985
 10
-1.807144146423745
 20
1.711294536384764
 10
-1.803239144386084
 20
1.710860647269498
 10
-1.79933414234839
 20
1.709992869038879
 10
-1.795429140310734
 20
1.708835831398086
 10
-1.791813397683258
 20
1.707389534347111
 10
-1.78834228476091
 20
1.705653977885918
 10
-1.785015801543613
 20
1.703773791719631
 10
-1.781978577736538
 20
1.701604346143174
 10
-1.779085983634548
 20
1.699145641156493
 10
-1.776627278647865
 20
1.696542306464681
 10
-1.774602462776453
 20
1.69379434206782
 10
-1.73642022063035
 20
1.711439166089899
  0
TEXT
  5
3B43
330
17
100
AcDbEntity
  8
3
100
AcDbText
 10
-1.069228503088769
 20
0.8589523399345074
 30
0.0
 40
0.0875305739995151
  1
C
  7
SIMPLEX
 72
     1
 11
-1.037967583803228
 21
0.8589523399345074
 31
0.0
100
AcDbText
  0
TEXT
  5
3B44
330
17
100
AcDbEntity
  8
3
100
AcDbText
 10
-1.092062047994537
 20
1.015346836363329
 30
0.0
 40
0.0390761491069264
  1
REV.
  7
SIMPLEX
100
AcDbText
  0
TEXT
  5
3B45
330
17
100
AcDbEntity
  8
3
100
AcDbText
 10
-1.143090304992135
 20
1.148242052218146
 30
0.0
 40
0.0535812156554175
  1
1=1
  7
SIMPLEX
 72
     1
 11
-1.083130373187263
 21
1.148242052218146
 31
0.0
100
AcDbText
  0
LINE
  5
3B46
330
17
100
AcDbEntity
  8
0
100
AcDbLine
 10
-1.210245208591635
 20
0.7999999999999972
 30
0.0
 11
-1.210245208591635
 21
1.088837136489871
 31
0.0
  0
TEXT
  5
3B47
330
17
100
AcDbEntity
  8
3
100
AcDbText
 10
-1.445055903101719
 20
1.156139443902532
 30
0.0
 40
0.0390761491069264
  1
SCALE:
  7
SIMPLEX
100
AcDbText
  0
LINE
  5
3B60
330
17
100
AcDbEntity
  8
0
100
AcDbLine
 10
-4.002443982812748
 20
3.108455695245766
 30
0.0
 11
-4.002443982812748
 21
3.085455695245765
 31
0.0
  0
HATCH
  5
3BA6
330
17
100
AcDbEntity
  8
3
100
AcDbHatch
 10
0.0
 20
0.0
 30
0.0
210
0.0
220
0.0
230
1.0
  2
ANSI37
 70
     0
 71
     1
 91
        3
 92
        7
 72
     1
 73
     1
 93
       14
 10
-5.566443982812741
 20
4.045213029022123
 42
0.0
 10
-5.598620797125844
 20
4.045213029022126
 42
0.0
 10
-5.598620797125844
 20
4.067213029022129
 42
1.0
 10
-5.687620797125845
 20
4.067213029022131
 42
0.0
 10
-5.687620797125845
 20
4.045213029022122
 42
0.0
 10
-5.721443982812742
 20
4.045213029022122
 42
0.0
 10
-6.752443982812794
 20
4.514213029022146
 42
0.0
 10
-6.877443982812747
 20
4.514213029022148
 42
0.0
 10
-6.877443982812747
 20
4.608213029022127
 42
0.0
 10
-6.908943982812744
 20
4.608213029022127
 42
0.0
 10
-6.908943982812744
 20
4.514213029022124
 42
0.0
 10
-5.721443982812742
 20
3.983213029022134
 42
0.0
 10
-5.52644398281275
 20
3.983213029022134
 42
0.0
 10
-5.526443982812748
 20
4.005213029022133
 42
0.0
 97
       14
330
3766
330
3765
330
3762
330
3764
330
3763
330
36D9
330
37E4
330
37E7
330
37E5
330
37E6
330
36D8
330
3757
330
375D
330
3760
 92
        7
 72
     1
 73
     1
 93
       29
 10
-3.909943982812747
 20
4.310213029022138
 42
0.0
 10
-3.928169017974497
 20
4.320284758979942
 42
0.0
 10
-3.909943982812747
 20
4.343213029022133
 42
0.0
 10
-3.940943982812752
 20
4.382213029022134
 42
0.0
 10
-3.909943982812747
 20
4.421213029022129
 42
0.0
 10
-3.940943982812753
 20
4.46021302902213
 42
0.0
 10
-3.909943982812747
 20
4.499213029022134
 42
0.0
 10
-3.940943982812752
 20
4.538213029022132
 42
0.0
 10
-3.909943982812747
 20
4.577213029022137
 42
0.0
 10
-4.017943982812751
 20
4.577213029022137
 42
0.0
 10
-4.017943982812751
 20
4.670213029022138
 42
0.0
 10
-4.064943982812748
 20
4.670213029022138
 42
0.0
 10
-4.064943982812748
 20
4.514213029022118
 42
0.0
 10
-4.251943982812746
 20
4.51421302902212
 42
0.0
 10
-4.251943982812747
 20
4.077213029022136
 42
0.0
 10
-5.212823586199125
 20
4.077213029022136
 42
0.0
 10
-5.283443982812753
 20
4.045213029022123
 42
0.0
 10
-5.317286256460247
 20
4.045213029022123
 42
0.0
 10
-5.317286256460247
 20
4.069819531769061
 42
0.9711300116408088
 10
-5.406248080539072
 20
4.069819531768877
 42
0.0
 10
-5.406248080539072
 20
4.045213029022123
 42
0.0
 10
-5.438443982812755
 20
4.045213029022123
 42
0.0
 10
-5.478443982812748
 20
4.005213029022134
 42
0.0
 10
-5.478443982812748
 20
3.983213029022134
 42
0.0
 10
-4.002443982812748
 20
3.983213029022134
 42
0.0
 10
-4.002443982812748
 20
3.920713029022134
 42
0.0
 10
-3.815443982812752
 20
3.920713029022133
 42
0.0
 10
-3.815443982812752
 20
4.077213029022129
 42
0.0
 10
-3.909943982812747
 20
4.07721302902213
 42
0.0
 97
       29
330
3833
330
3834
330
3835
330
3832
330
3836
330
3837
330
3839
330
3838
330
382F
330
3827
330
382E
330
3828
330
37E4
330
36D1
330
3758
330
36DB
330
375A
330
3759
330
3767
330
375F
330
375E
330
3761
330
375C
330
3757
330
3784
330
3780
330
3783
330
377F
330
36D4
 92
        7
 72
     0
 73
     1
 93
       19
 10
-3.189943982812748
 20
4.670213029022138
 10
-3.236943982812745
 20
4.670213029022137
 10
-3.236943982812745
 20
4.577213029022137
 10
-3.313943982812745
 20
4.577213029022137
 10
-3.344943982812751
 20
4.538213029022132
 10
-3.313943982812745
 20
4.499213029022131
 10
-3.344943982812748
 20
4.46021302902213
 10
-3.313943982812743
 20
4.421213029022126
 10
-3.344943982812748
 20
4.382213029022134
 10
-3.313943982812745
 20
4.343213029022133
 10
-3.344943982812751
 20
4.30421302902214
 10
-3.313943982812743
 20
4.265213029022128
 10
-3.344943982812748
 20
4.267141258687201
 10
-3.344943982812748
 20
4.077213029022128
 10
-3.439443982812746
 20
4.077213029022128
 10
-3.439443982812746
 20
3.920713029022129
 10
-3.252443982812748
 20
3.920713029022126
 10
-3.252443982812748
 20
3.983213029022126
 10
-3.189943982812748
 20
3.983213029022126
 97
       19
330
382E
330
3826
330
382F
330
3841
330
3842
330
3840
330
383F
330
383C
330
383E
330
383D
330
36D5
330
36D3
330
378C
330
377F
330
378D
330
3780
330
378A
330
3789
330
36D2
 75
     0
 76
     1
 52
0.0
 41
1.0
 77
     0
 78
     2
 53
45.0
 43
0.0
 44
0.0
 45
-0.0883883476483184
 46
0.0883883476483185
 79
     0
 53
135.0
 43
0.0
 44
0.0
 45
-0.0883883476483185
 46
-0.0883883476483184
 79
     0
 47
0.0074700804808635
 98
        3
 10
-5.641013697217282
 20
4.033299312944945
 10
-4.101289295565313
 20
4.167760756729252
 10
-3.256683164805159
 20
4.234991498613783
  0
DIMENSION
  5
3BB2
330
17
100
AcDbEntity
  8
3
100
AcDbDimension
  2
*D0
 10
-4.723876669733042
 20
6.632901616941455
 30
0.0
 11
-5.473876669733042
 21
6.632901616941455
 31
0.0
 70
    32
 71
     5
 42
1.5
  3
STANDARD
100
AcDbAlignedDimension
 13
-6.223876669733042
 23
6.098678440776151
 33
0.0
 14
-4.723876669733042
 24
6.098678440776151
 34
0.0
100
AcDbRotatedDimension
1001
ACAD
1000
DSTYLE
1002
{
1070
    40
1040
0.75
1070
    41
1040
0.125
1070
    44
1040
0.0625
1070
    73
1070
     0
1070
    74
1070
     0
1070
    78
1070
     4
1070
   140
1040
0.125
1070
   141
1040
-0.125
1070
   174
1070
     1
1070
   271
1070
     3
1070
   272
1070
     3
1070
   277
1070
     5
1070
   279
1070
     2
1070
   284
1070
     4
1070
   285
1070
     4
1070
   286
1070
     4
1070
   340
1005
35
1002
}
  0
DIMENSION
  5
3C28
330
17
100
AcDbEntity
  8
3
100
AcDbDimension
  2
*D1
 10
-2.460861235077274
 20
4.795213029022137
 30
0.0
 11
-2.460861235077274
 21
4.357963029022131
 31
0.0
 70
    32
 71
     5
 42
0.8745000000000118
  3
STANDARD
100
AcDbAlignedDimension
 13
-3.252443982812748
 23
3.920713029022126
 33
0.0
 14
-3.189943982812748
 24
4.795213029022137
 34
0.0
 50
90.0
100
AcDbRotatedDimension
1001
ACAD
1000
DSTYLE
1002
{
1070
    40
1040
0.75
1070
    41
1040
0.125
1070
    44
1040
0.0625
1070
    73
1070
     0
1070
    74
1070
     0
1070
    78
1070
     4
1070
   140
1040
0.125
1070
   141
1040
-0.125
1070
   174
1070
     1
1070
   271
1070
     3
1070
   272
1070
     3
1070
   277
1070
     5
1070
   279
1070
     2
1070
   284
1070
     4
1070
   285
1070
     4
1070
   286
1070
     4
1070
   340
1005
35
1002
}
  0
DIMENSION
  5
3C36
330
17
100
AcDbEntity
  8
3
100
AcDbDimension
  2
*D2
 10
-6.908943982812742
 20
2.772783954145506
 30
0.0
 11
-5.049443982812745
 21
2.772783954145506
 31
0.0
 70
    32
 71
     5
 42
3.718999999999993
  3
STANDARD
100
AcDbAlignedDimension
 13
-3.189943982812748
 23
3.983213029022126
 33
0.0
 14
-6.908943982812742
 24
4.514213029022124
 34
0.0
100
AcDbRotatedDimension
1001
ACAD
1000
DSTYLE
1002
{
1070
    40
1040
0.75
1070
    41
1040
0.125
1070
    44
1040
0.0625
1070
    73
1070
     0
1070
    74
1070
     0
1070
    78
1070
     4
1070
   140
1040
0.125
1070
   141
1040
-0.125
1070
   174
1070
     1
1070
   271
1070
     3
1070
   272
1070
     3
1070
   277
1070
     5
1070
   279
1070
     2
1070
   284
1070
     4
1070
   285
1070
     4
1070
   286
1070
     4
1070
   340
1005
35
1002
}
  0
ENDSEC
  0
SECTION
  2
OBJECTS
  0
DICTIONARY
  5
C
330
0
100
AcDbDictionary
281
     1
  3
ACAD_CIP_PREVIOUS_PRODUCT_INFO
350
3C20
  3
ACAD_COLOR
350
3C01
  3
ACAD_DETAILVIEWSTYLE
350
3C1A
  3
ACAD_GROUP
350
D
  3
ACAD_LAYOUT
350
2C67
  3
ACAD_MATERIAL
350
3BCF
  3
ACAD_MLEADERSTYLE
350
3C16
  3
ACAD_MLINESTYLE
350
1A
  3
ACAD_PLOTSETTINGS
350
2C68
  3
ACAD_PLOTSTYLENAME
350
2C65
  3
ACAD_SCALELIST
350
3C04
  3
ACAD_SECTIONVIEWSTYLE
350
3C18
  3
ACAD_TABLESTYLE
350
3C02
  3
ACAD_VISUALSTYLE
350
3BE8
  3
ACDB_RECOMPOSE_DATA
350
3D21
  3
ACDBVARIABLEDICTIONARY
350
44
  3
AcDsDecomposeData
350
3D28
  3
DWGPROPS
350
3D22
  0
DICTIONARY
  5
3C69
330
8
100
AcDbDictionary
280
     1
281
     1
  0
DICTIONARY
  5
3C57
330
2
100
AcDbDictionary
280
     1
281
     1
  3
ACAD_LAYERSTATES
360
3C58
  0
DICTIONARY
  5
3C44
330
E
100
AcDbDictionary
280
     1
281
     1
  3
ADSK_XREC_LAYER_RECONCILED
360
3C45
  0
DICTIONARY
  5
3C46
330
3B
100
AcDbDictionary
280
     1
281
     1
  3
ADSK_XREC_LAYER_RECONCILED
360
3C47
  0
DICTIONARY
  5
3C48
330
3C
100
AcDbDictionary
280
     1
281
     1
  3
ADSK_XREC_LAYER_RECONCILED
360
3C49
  0
DICTIONARY
  5
3C4A
330
3D
100
AcDbDictionary
280
     1
281
     1
  3
ADSK_XREC_LAYER_RECONCILED
360
3C4B
  0
DICTIONARY
  5
3C4C
330
2CA2
100
AcDbDictionary
280
     1
281
     1
  3
ADSK_XREC_LAYER_RECONCILED
360
3C4D
  0
DICTIONARY
  5
3C4E
330
2CA3
100
AcDbDictionary
280
     1
281
     1
  3
ADSK_XREC_LAYER_RECONCILED
360
3C4F
  0
DICTIONARY
  5
3C50
330
2CA4
100
AcDbDictionary
280
     1
281
     1
  3
ADSK_XREC_LAYER_RECONCILED
360
3C51
  0
DICTIONARY
  5
3C52
330
2CA6
100
AcDbDictionary
280
     1
281
     1
  3
ADSK_XREC_LAYER_RECONCILED
360
3C53
  0
XRECORD
  5
3C20
102
{ACAD_REACTORS
330
C
102
}
330
C
100
AcDbXrecord
280
     1
300
AMECH_PP
300
2015
300
PDSU_F_S
  0
DICTIONARY
  5
3C01
102
{ACAD_REACTORS
330
C
102
}
330
C
100
AcDbDictionary
281
     1
  0
DICTIONARY
  5
3C1A
102
{ACAD_REACTORS
330
C
102
}
330
C
100
AcDbDictionary
281
     1
  3
Imperial24
350
3C1B
  0
DICTIONARY
  5
D
102
{ACAD_REACTORS
330
C
102
}
330
C
100
AcDbDictionary
281
     1
  0
DICTIONARY
  5
2C67
102
{ACAD_REACTORS
330
C
102
}
330
C
100
AcDbDictionary
281
     1
  3
Layout1
350
2C6A
  3
Model
350
2C69
  0
DICTIONARY
  5
3BCF
102
{ACAD_REACTORS
330
C
102
}
330
C
100
AcDbDictionary
281
     1
  3
ByBlock
350
3BD8
  3
ByLayer
350
3BD0
  3
Global
350
3BE0
  0
DICTIONARY
  5
3C16
102
{ACAD_REACTORS
330
C
102
}
330
C
100
AcDbDictionary
281
     1
  3
Standard
350
3C17
  0
DICTIONARY
  5
1A
102
{ACAD_REACTORS
330
C
102
}
330
C
100
AcDbDictionary
281
     1
  3
STANDARD
350
1B
  0
DICTIONARY
  5
2C68
102
{ACAD_REACTORS
330
C
102
}
330
C
100
AcDbDictionary
281
     1
  0
ACDBDICTIONARYWDFLT
  5
2C65
102
{ACAD_REACTORS
330
C
102
}
330
C
100
AcDbDictionary
281
     1
  3
Normal
350
2C66
100
AcDbDictionaryWithDefault
340
2C66
  0
DICTIONARY
  5
3C04
102
{ACAD_REACTORS
330
C
102
}
330
C
100
AcDbDictionary
281
     1
  3
A0
350
3C05
  3
A1
350
3C06
  3
A2
350
3C07
  3
A3
350
3C08
  3
A4
350
3C09
  3
A5
350
3C0A
  3
A6
350
3C0B
  3
A7
350
3C0C
  3
A8
350
3C0D
  3
A9
350
3C0E
  3
B0
350
3C0F
  3
B1
350
3C10
  3
B2
350
3C11
  3
B3
350
3C12
  3
B4
350
3C13
  3
B5
350
3C14
  3
B6
350
3C15
  0
DICTIONARY
  5
3C18
102
{ACAD_REACTORS
330
C
102
}
330
C
100
AcDbDictionary
281
     1
  3
Imperial24
350
3C19
  0
DICTIONARY
  5
3C02
102
{ACAD_REACTORS
330
C
102
}
330
C
100
AcDbDictionary
281
     1
  3
Standard
350
3C03
  0
DICTIONARY
  5
3BE8
102
{ACAD_REACTORS
330
C
102
}
330
C
100
AcDbDictionary
281
     1
  3
2dWireframe
350
3BEE
  3
Basic
350
3BED
  3
Brighten
350
3BF4
  3
ColorChange
350
3BF8
  3
Conceptual
350
3BF1
  3
Dim
350
3BF3
  3
EdgeColorOff
350
3C00
  3
Facepattern
350
3BF7
  3
Flat
350
3BE9
  3
FlatWithEdges
350
3BEA
  3
Gouraud
350
3BEB
  3
GouraudWithEdges
350
3BEC
  3
Hidden
350
3BF0
  3
JitterOff
350
3BFE
  3
Linepattern
350
3BF6
  3
OverhangOff
350
3BFF
  3
Realistic
350
3BF2
  3
Shaded
350
3BFD
  3
Shaded with edges
350
3BFC
  3
Shades of Gray
350
3BF9
  3
Sketchy
350
3BFA
  3
Thicken
350
3BF5
  3
Wireframe
350
3BEF
  3
X-Ray
350
3BFB
  0
XRECORD
  5
3D21
102
{ACAD_REACTORS
330
C
102
}
330
C
100
AcDbXrecord
280
     1
 90
        1
330
3C03
  0
DICTIONARY
  5
44
102
{ACAD_REACTORS
330
C
102
}
330
C
100
AcDbDictionary
281
     1
  3
CANNOSCALE
350
3CAC
  3
CMLEADERSTYLE
350
3CA9
  3
CTABLESTYLE
350
3CA8
  3
CVIEWDETAILSTYLE
350
3CAA
  3
CVIEWSECTIONSTYLE
350
3CAB
  3
DIMADEC
350
45
  3
DIMASSOC
350
2C7A
  3
INDEXCTL
350
3D1B
  3
LAYEREVAL
350
3D03
  3
LAYERNOTIFY
350
3D04
  3
LIGHTINGUNITS
350
3D02
  3
LOFTANG1
350
3D1C
  3
LOFTANG2
350
3D1D
  3
LONGITUDE
350
3D1E
  3
MSLTSCALE
350
3D01
  3
SORTENTS
350
2BE2
  3
XCLIPFRAME
350
3D1F
  0
DICTIONARY
  5
3D28
102
{ACAD_REACTORS
330
C
102
}
330
C
100
AcDbDictionary
281
     1
  3
AcDsRecords
350
3D2A
  3
AcDsSchemas
350
3D29
1001
ACAD
1070
     2
  0
XRECORD
  5
3D22
102
{ACAD_REACTORS
330
C
102
}
330
C
100
AcDbXrecord
280
     1
  1
DWGPROPS COOKIE
  2

  3

  4

  6

  7

  8
jmilewski
  9

300
=
301
=
302
=
303
=
304
=
305
=
306
=
307
=
308
=
309
=
 40
1.151071342592592
 41
2447600.637667361
 42
2457155.46596537
  1

 90
        0
  0
DICTIONARY
  5
3C58
102
{ACAD_REACTORS
330
3C57
102
}
330
3C57
100
AcDbDictionary
281
     1
  0
XRECORD
  5
3C45
102
{ACAD_REACTORS
330
3C44
102
}
330
3C44
100
AcDbXrecord
280
     1
290
     1
  0
XRECORD
  5
3C47
102
{ACAD_REACTORS
330
3C46
102
}
330
3C46
100
AcDbXrecord
280
     1
290
     1
  0
XRECORD
  5
3C49
102
{ACAD_REACTORS
330
3C48
102
}
330
3C48
100
AcDbXrecord
280
     1
290
     1
  0
XRECORD
  5
3C4B
102
{ACAD_REACTORS
330
3C4A
102
}
330
3C4A
100
AcDbXrecord
280
     1
290
     1
  0
XRECORD
  5
3C4D
102
{ACAD_REACTORS
330
3C4C
102
}
330
3C4C
100
AcDbXrecord
280
     1
290
     1
  0
XRECORD
  5
3C4F
102
{ACAD_REACTORS
330
3C4E
102
}
330
3C4E
100
AcDbXrecord
280
     1
290
     1
  0
XRECORD
  5
3C51
102
{ACAD_REACTORS
330
3C50
102
}
330
3C50
100
AcDbXrecord
280
     1
290
     1
  0
XRECORD
  5
3C53
102
{ACAD_REACTORS
330
3C52
102
}
330
3C52
100
AcDbXrecord
280
     1
290
     1
  0
ACDBDETAILVIEWSTYLE
  5
3C1B
102
{ACAD_XDICTIONARY
360
3D08
102
}
102
{ACAD_REACTORS
330
3C1A
102
}
330
3C1A
100
AcDbModelDocViewStyle
 70
     0
  3
Imperial24
290
     0
100
AcDbDetailViewStyle
 70
     0
 71
     0
 90
        3
 71
     1
340
F
 40
0.24
340
0
 40
0.24
300

 40
0.36
280
     3
 71
     2
340
13
 90
       25
 71
     3
340
F
 40
0.24
 90
        1
 40
0.75
 90
        1
300
%<\AcVar ViewType \f "%tc1">% %<\AcVar ViewDetailId>%\PSCALE %<\AcVar ViewScale \f "%sn">%
 71
     4
340
13
 90
       25
340
13
 90
       25
280
     0
  0
LAYOUT
  5
2C6A
102
{ACAD_XDICTIONARY
360
3D2C
102
}
102
{ACAD_REACTORS
330
2C67
102
}
330
2C67
100
AcDbPlotSettings
  1

  2
EPSON Stylus Photo 1200
  4

  6

 40
0.0
 41
0.0
 42
0.0
 43
0.0
 44
0.0
 45
0.0
 46
0.0
 47
0.0
 48
0.0
 49
0.0
140
0.0
141
0.0
142
1.0
143
1.0
 70
   688
 72
     0
 73
     0
 74
     5
  7
1500BLACK.ctb
 75
    16
147
1.0
148
0.0
149
0.0
100
AcDbLayout
  1
Layout1
 70
     0
 71
     1
 10
0.0
 20
0.0
 11
12.0
 21
9.0
 12
0.0
 22
0.0
 32
0.0
 14
1.000000000000000E+20
 24
1.000000000000000E+20
 34
1.000000000000000E+20
 15
-1.000000000000000E+20
 25
-1.000000000000000E+20
 35
-1.000000000000000E+20
146
0.0
 13
0.0
 23
0.0
 33
0.0
 16
1.0
 26
0.0
 36
0.0
 17
0.0
 27
1.0
 37
0.0
 76
     0
330
14
  0
LAYOUT
  5
2C69
102
{ACAD_XDICTIONARY
360
3C6B
102
}
102
{ACAD_REACTORS
330
2C67
102
}
330
2C67
100
AcDbPlotSettings
  1

  2
EPSON Stylus Photo 1200
  4
Letter
  6

 40
3.757083177566528
 41
3.757076978683471
 42
3.757080078125
 43
3.757080078125
 44
215.8999938964844
 45
279.3999938964844
 46
0.0
 47
0.0
 48
0.0
 49
0.0
140
0.0
141
0.0
142
1.0
143
1.0
 70
 11952
 72
     0
 73
     1
 74
     0
  7

 75
     0
147
1.0
148
-69.21354115064331
149
6.986459204190746
100
AcDbLayout
  1
Model
 70
     1
 71
     0
 10
0.0
 20
0.0
 11
12.0
 21
9.0
 12
0.0
 22
0.0
 32
0.0
 14
0.0
 24
0.0
 34
0.0
 15
0.0
 25
0.0
 35
0.0
146
0.0
 13
0.0
 23
0.0
 33
0.0
 16
1.0
 26
0.0
 36
0.0
 17
0.0
 27
1.0
 37
0.0
 76
     0
330
17
331
3BCD
  0
MATERIAL
  5
3BD8
102
{ACAD_XDICTIONARY
360
3BD9
102
}
102
{ACAD_REACTORS
330
3BCF
102
}
330
3BCF
100
AcDbMaterial
  1
ByBlock
 72
     0
 43
0.0208333333333333
 43
0.0
 43
0.0
 43
0.0
 43
0.0
 43
0.0208333333333333
 43
0.0
 43
0.0
 43
0.0
 43
0.0
 43
1.0
 43
0.0
 43
0.0
 43
0.0
 43
0.0
 43
1.0
 77
     0
 47
0.0208333333333333
 47
0.0
 47
0.0
 47
0.0
 47
0.0
 47
0.0208333333333333
 47
0.0
 47
0.0
 47
0.0
 47
0.0
 47
1.0
 47
0.0
 47
0.0
 47
0.0
 47
0.0
 47
1.0
171
     0
 49
0.0208333333333333
 49
0.0
 49
0.0
 49
0.0
 49
0.0
 49
0.0208333333333333
 49
0.0
 49
0.0
 49
0.0
 49
0.0
 49
1.0
 49
0.0
 49
0.0
 49
0.0
 49
0.0
 49
1.0
175
     0
142
0.0208333333333333
142
0.0
142
0.0
142
0.0
142
0.0
142
0.0208333333333333
142
0.0
142
0.0
142
0.0
142
0.0
142
1.0
142
0.0
142
0.0
142
0.0
142
0.0
142
1.0
179
     0
144
0.0208333333333333
144
0.0
144
0.0
144
0.0
144
0.0
144
0.0208333333333333
144
0.0
144
0.0
144
0.0
144
0.0
144
1.0
144
0.0
144
0.0
144
0.0
144
0.0
144
1.0
147
0.0208333333333333
147
0.0
147
0.0
147
0.0
147
0.0
147
0.0208333333333333
147
0.0
147
0.0
147
0.0
147
0.0
147
1.0
147
0.0
147
0.0
147
0.0
147
0.0
147
1.0
  0
MATERIAL
  5
3BD0
102
{ACAD_XDICTIONARY
360
3BD1
102
}
102
{ACAD_REACTORS
330
3BCF
102
}
330
3BCF
100
AcDbMaterial
  1
ByLayer
 72
     0
 43
0.0208333333333333
 43
0.0
 43
0.0
 43
0.0
 43
0.0
 43
0.0208333333333333
 43
0.0
 43
0.0
 43
0.0
 43
0.0
 43
1.0
 43
0.0
 43
0.0
 43
0.0
 43
0.0
 43
1.0
 77
     0
 47
0.0208333333333333
 47
0.0
 47
0.0
 47
0.0
 47
0.0
 47
0.0208333333333333
 47
0.0
 47
0.0
 47
0.0
 47
0.0
 47
1.0
 47
0.0
 47
0.0
 47
0.0
 47
0.0
 47
1.0
171
     0
 49
0.0208333333333333
 49
0.0
 49
0.0
 49
0.0
 49
0.0
 49
0.0208333333333333
 49
0.0
 49
0.0
 49
0.0
 49
0.0
 49
1.0
 49
0.0
 49
0.0
 49
0.0
 49
0.0
 49
1.0
175
     0
142
0.0208333333333333
142
0.0
142
0.0
142
0.0
142
0.0
142
0.0208333333333333
142
0.0
142
0.0
142
0.0
142
0.0
142
1.0
142
0.0
142
0.0
142
0.0
142
0.0
142
1.0
179
     0
144
0.0208333333333333
144
0.0
144
0.0
144
0.0
144
0.0
144
0.0208333333333333
144
0.0
144
0.0
144
0.0
144
0.0
144
1.0
144
0.0
144
0.0
144
0.0
144
0.0
144
1.0
147
0.0208333333333333
147
0.0
147
0.0
147
0.0
147
0.0
147
0.0208333333333333
147
0.0
147
0.0
147
0.0
147
0.0
147
1.0
147
0.0
147
0.0
147
0.0
147
0.0
147
1.0
  0
MATERIAL
  5
3BE0
102
{ACAD_XDICTIONARY
360
3BE1
102
}
102
{ACAD_REACTORS
330
3BCF
102
}
330
3BCF
100
AcDbMaterial
  1
Global
 72
     0
 43
0.0208333333333333
 43
0.0
 43
0.0
 43
0.0
 43
0.0
 43
0.0208333333333333
 43
0.0
 43
0.0
 43
0.0
 43
0.0
 43
1.0
 43
0.0
 43
0.0
 43
0.0
 43
0.0
 43
1.0
 77
     0
 47
0.0208333333333333
 47
0.0
 47
0.0
 47
0.0
 47
0.0
 47
0.0208333333333333
 47
0.0
 47
0.0
 47
0.0
 47
0.0
 47
1.0
 47
0.0
 47
0.0
 47
0.0
 47
0.0
 47
1.0
171
     0
 49
0.0208333333333333
 49
0.0
 49
0.0
 49
0.0
 49
0.0
 49
0.0208333333333333
 49
0.0
 49
0.0
 49
0.0
 49
0.0
 49
1.0
 49
0.0
 49
0.0
 49
0.0
 49
0.0
 49
1.0
175
     0
142
0.0208333333333333
142
0.0
142
0.0
142
0.0
142
0.0
142
0.0208333333333333
142
0.0
142
0.0
142
0.0
142
0.0
142
1.0
142
0.0
142
0.0
142
0.0
142
0.0
142
1.0
179
     0
144
0.0208333333333333
144
0.0
144
0.0
144
0.0
144
0.0
144
0.0208333333333333
144
0.0
144
0.0
144
0.0
144
0.0
144
1.0
144
0.0
144
0.0
144
0.0
144
0.0
144
1.0
147
0.0208333333333333
147
0.0
147
0.0
147
0.0
147
0.0
147
0.0208333333333333
147
0.0
147
0.0
147
0.0
147
0.0
147
1.0
147
0.0
147
0.0
147
0.0
147
0.0
147
1.0
  0
MLEADERSTYLE
  5
3C17
102
{ACAD_XDICTIONARY
360
3D62
102
}
102
{ACAD_REACTORS
330
3C16
102
}
330
3C16
100
AcDbMLeaderStyle
170
     2
171
     1
172
     0
 90
        2
 40
0.0
 41
0.0
173
     1
 91
-1056964608
340
11
 92
       -2
290
     1
 42
0.09
291
     1
 43
0.36
  3
Standard
 44
0.18
300

342
F
174
     1
178
     6
175
     1
176
     0
 93
-1056964608
 45
0.18
292
     0
297
     0
 46
0.18
 94
-1056964608
 47
1.0
 49
1.0
140
1.0
293
     1
141
0.0
294
     1
177
     0
142
1.0
295
     0
296
     0
143
0.125
1001
ACAD_MLEADERVER
1070
     2
  0
MLINESTYLE
  5
1B
102
{ACAD_REACTORS
330
1A
102
}
330
1A
100
AcDbMlineStyle
  2
STANDARD
 70
     0
  3

 62
   256
 51
90.0
 52
90.0
 71
     2
 49
0.5
 62
   256
  6
BYLAYER
 49
-0.5
 62
   256
  6
BYLAYER
  0
ACDBPLACEHOLDER
  5
2C66
102
{ACAD_REACTORS
330
2C65
102
}
330
2C65
  0
SCALE
  5
3C05
102
{ACAD_REACTORS
330
3C04
102
}
330
3C04
100
AcDbScale
 70
     0
300
1:1
140
1.0
141
1.0
290
     1
  0
SCALE
  5
3C06
102
{ACAD_REACTORS
330
3C04
102
}
330
3C04
100
AcDbScale
 70
     0
300
1/128" = 1'-0"
140
0.0078125
141
12.0
290
     0
  0
SCALE
  5
3C07
102
{ACAD_REACTORS
330
3C04
102
}
330
3C04
100
AcDbScale
 70
     0
300
1/64" = 1'-0"
140
0.015625
141
12.0
290
     0
  0
SCALE
  5
3C08
102
{ACAD_REACTORS
330
3C04
102
}
330
3C04
100
AcDbScale
 70
     0
300
1/32" = 1'-0"
140
0.03125
141
12.0
290
     0
  0
SCALE
  5
3C09
102
{ACAD_REACTORS
330
3C04
102
}
330
3C04
100
AcDbScale
 70
     0
300
1/16" = 1'-0"
140
0.0625
141
12.0
290
     0
  0
SCALE
  5
3C0A
102
{ACAD_REACTORS
330
3C04
102
}
330
3C04
100
AcDbScale
 70
     0
300
3/32" = 1'-0"
140
0.09375
141
12.0
290
     0
  0
SCALE
  5
3C0B
102
{ACAD_REACTORS
330
3C04
102
}
330
3C04
100
AcDbScale
 70
     0
300
1/8" = 1'-0"
140
0.125
141
12.0
290
     0
  0
SCALE
  5
3C0C
102
{ACAD_REACTORS
330
3C04
102
}
330
3C04
100
AcDbScale
 70
     0
300
3/16" = 1'-0"
140
0.1875
141
12.0
290
     0
  0
SCALE
  5
3C0D
102
{ACAD_REACTORS
330
3C04
102
}
330
3C04
100
AcDbScale
 70
     0
300
1/4" = 1'-0"
140
0.25
141
12.0
290
     0
  0
SCALE
  5
3C0E
102
{ACAD_REACTORS
330
3C04
102
}
330
3C04
100
AcDbScale
 70
     0
300
3/8" = 1'-0"
140
0.375
141
12.0
290
     0
  0
SCALE
  5
3C0F
102
{ACAD_REACTORS
330
3C04
102
}
330
3C04
100
AcDbScale
 70
     0
300
1/2" = 1'-0"
140
0.5
141
12.0
290
     0
  0
SCALE
  5
3C10
102
{ACAD_REACTORS
330
3C04
102
}
330
3C04
100
AcDbScale
 70
     0
300
3/4" = 1'-0"
140
0.75
141
12.0
290
     0
  0
SCALE
  5
3C11
102
{ACAD_REACTORS
330
3C04
102
}
330
3C04
100
AcDbScale
 70
     0
300
1" = 1'-0"
140
1.0
141
12.0
290
     0
  0
SCALE
  5
3C12
102
{ACAD_REACTORS
330
3C04
102
}
330
3C04
100
AcDbScale
 70
     0
300
1-1/2" = 1'-0"
140
1.5
141
12.0
290
     0
  0
SCALE
  5
3C13
102
{ACAD_REACTORS
330
3C04
102
}
330
3C04
100
AcDbScale
 70
     0
300
3" = 1'-0"
140
3.0
141
12.0
290
     0
  0
SCALE
  5
3C14
102
{ACAD_REACTORS
330
3C04
102
}
330
3C04
100
AcDbScale
 70
     0
300
6" = 1'-0"
140
6.0
141
12.0
290
     0
  0
SCALE
  5
3C15
102
{ACAD_REACTORS
330
3C04
102
}
330
3C04
100
AcDbScale
 70
     0
300
1'-0" = 1'-0"
140
12.0
141
12.0
290
     0
  0
ACDBSECTIONVIEWSTYLE
  5
3C19
102
{ACAD_XDICTIONARY
360
3D06
102
}
102
{ACAD_REACTORS
330
3C18
102
}
330
3C18
100
AcDbModelDocViewStyle
 70
     0
  3
Imperial24
290
     0
100
AcDbSectionViewStyle
 70
     0
 71
     0
 90
       78
 71
     1
340
F
 40
0.24
340
0
340
0
 40
0.24
300
I, O, Q, S, X, Z
 40
0.48
 90
        3
 40
0.18
 90
        1
 71
     2
340
13
 90
       25
340
13
 90
       50
 40
0.24
 40
0.0
 40
0.24
 71
     3
340
F
 40
0.24
 90
        1
 40
0.75
 90
        1
300
%<\AcVar ViewType \f "%tc1">% %<\AcVar ViewSectionStartId>%-%<\AcVar ViewSectionEndId>%\PSCALE %<\AcVar ViewScale \f "%sn">%
 71
     4
300
ANSI31
 40
1.0
 90
        0
290
     0
290
     0
 90
        6
 40
0.0
 40
1.570796326794896
 40
0.2617993877991494
 40
1.308996938995747
 40
-0.2617993877991494
 40
1.832595714594044
  0
TABLESTYLE
  5
3C03
102
{ACAD_XDICTIONARY
360
3C5E
102
}
102
{ACAD_REACTORS
330
3C02
102
}
330
3C02
100
AcDbTableStyle
  3
Standard
 70
     0
 71
     0
 40
0.06
 41
0.06
280
     0
281
     0
  7
STANDARD
140
0.18
170
     2
 62
     0
 63
     7
283
     0
274
    -2
284
     1
 64
     0
275
    -2
285
     1
 65
     0
276
    -2
286
     1
 66
     0
277
    -2
287
     1
 67
     0
278
    -2
288
     1
 68
     0
279
    -2
289
     1
 69
     0
  7
STANDARD
140
0.25
170
     5
 62
     0
 63
     7
283
     0
274
    -2
284
     1
 64
     0
275
    -2
285
     1
 65
     0
276
    -2
286
     1
 66
     0
277
    -2
287
     1
 67
     0
278
    -2
288
     1
 68
     0
279
    -2
289
     1
 69
     0
  7
STANDARD
140
0.18
170
     5
 62
     0
 63
     7
283
     0
274
    -2
284
     1
 64
     0
275
    -2
285
     1
 65
     0
276
    -2
286
     1
 66
     0
277
    -2
287
     1
 67
     0
278
    -2
288
     1
 68
     0
279
    -2
289
     1
 69
     0
  0
VISUALSTYLE
  5
3BEE
102
{ACAD_XDICTIONARY
360
3D3B
102
}
102
{ACAD_REACTORS
330
3BE8
102
}
330
3BE8
100
AcDbVisualStyle
  2
2dWireframe
 70
     4
 71
     0
 72
     2
 73
     0
 90
        0
 40
-0.6
 41
-30.0
 62
     5
 63
     7
 74
     1
 91
        4
 64
     7
 65
   257
 75
     1
175
     1
 42
1.0
 92
        0
 66
   257
 43
1.0
 76
     1
 77
     6
 78
     2
 67
     7
 79
     5
170
     0
171
     0
290
     0
174
     0
 93
        1
 44
0.0
173
     0
291
     0
 45
0.0
1001
ACAD
1000
AcDbSavedByObjectVersion
1070
     0
  0
VISUALSTYLE
  5
3BED
102
{ACAD_XDICTIONARY
360
3D39
102
}
102
{ACAD_REACTORS
330
3BE8
102
}
330
3BE8
100
AcDbVisualStyle
  2
Basic
 70
     7
 71
     1
 72
     0
 73
     1
 90
        0
 40
-0.6
 41
-30.0
 62
     5
 63
     7
 74
     0
 91
        4
 64
     7
 65
   257
 75
     1
175
     1
 42
1.0
 92
        8
 66
     7
 43
1.0
 76
     1
 77
     6
 78
     2
 67
     7
 79
     5
170
     0
171
     0
290
     0
174
     0
 93
        1
 44
0.0
173
     0
291
     1
 45
0.0
1001
ACAD
1000
AcDbSavedByObjectVersion
1070
     0
  0
VISUALSTYLE
  5
3BF4
102
{ACAD_XDICTIONARY
360
3D47
102
}
102
{ACAD_REACTORS
330
3BE8
102
}
330
3BE8
100
AcDbVisualStyle
  2
Brighten
 70
    12
 71
     2
 72
     2
 73
     0
 90
        0
 40
-0.6
 41
-30.0
 62
     5
 63
     7
 74
     1
 91
        4
 64
     7
 65
   257
 75
     1
175
     1
 42
1.0
 92
        8
 66
     7
 43
1.0
 76
     1
 77
     6
 78
     2
 67
     7
 79
     5
170
     0
171
     0
290
     0
174
     0
 93
        1
 44
50.0
173
     0
291
     1
 45
0.0
1001
ACAD
1000
AcDbSavedByObjectVersion
1070
     0
  0
VISUALSTYLE
  5
3BF8
102
{ACAD_XDICTIONARY
360
3D4F
102
}
102
{ACAD_REACTORS
330
3BE8
102
}
330
3BE8
100
AcDbVisualStyle
  2
ColorChange
 70
    16
 71
     2
 72
     2
 73
     3
 90
        0
 40
-0.6
 41
-30.0
 62
     5
 63
     8
 74
     1
 91
        4
 64
     7
 65
   257
 75
     1
175
     1
 42
1.0
 92
        8
 66
     8
 43
1.0
 76
     1
 77
     6
 78
     2
 67
     7
 79
     5
170
     0
171
     0
290
     0
174
     0
 93
        1
 44
0.0
173
     0
291
     1
 45
0.0
1001
ACAD
1000
AcDbSavedByObjectVersion
1070
     0
  0
VISUALSTYLE
  5
3BF1
102
{ACAD_XDICTIONARY
360
3D41
102
}
102
{ACAD_REACTORS
330
3BE8
102
}
330
3BE8
100
AcDbVisualStyle
  2
Conceptual
 70
     9
 71
     3
 72
     2
 73
     0
 90
        0
 40
-0.6
 41
-30.0
 62
     5
 63
     7
 74
     2
 91
        2
 64
     7
 65
   257
 75
     1
175
     1
 42
179.0
 92
        8
 66
     7
 43
1.0
 76
     1
 77
     6
 78
     2
 67
     7
 79
     3
170
     0
171
     0
290
     0
174
     0
 93
        1
 44
0.0
173
     0
291
     0
 45
0.0
1001
ACAD
1000
AcDbSavedByObjectVersion
1070
     0
  0
VISUALSTYLE
  5
3BF3
102
{ACAD_XDICTIONARY
360
3D45
102
}
102
{ACAD_REACTORS
330
3BE8
102
}
330
3BE8
100
AcDbVisualStyle
  2
Dim
 70
    11
 71
     2
 72
     2
 73
     0
 90
        0
 40
-0.6
 41
-30.0
 62
     5
 63
     7
 74
     1
 91
        4
 64
     7
 65
   257
 75
     1
175
     1
 42
1.0
 92
        8
 66
     7
 43
1.0
 76
     1
 77
     6
 78
     2
 67
     7
 79
     5
170
     0
171
     0
290
     0
174
     0
 93
        1
 44
-50.0
173
     0
291
     1
 45
0.0
1001
ACAD
1000
AcDbSavedByObjectVersion
1070
     0
  0
VISUALSTYLE
  5
3C00
102
{ACAD_XDICTIONARY
360
3D5F
102
}
102
{ACAD_REACTORS
330
3BE8
102
}
330
3BE8
100
AcDbVisualStyle
  2
EdgeColorOff
 70
    22
 71
     2
 72
     2
 73
     0
 90
        0
 40
-0.6
 41
-30.0
 62
     5
 63
     7
 74
     1
 91
        4
 64
     7
 65
   257
 75
     1
175
     1
 42
1.0
 92
        8
 66
     7
 43
1.0
 76
     1
 77
     6
 78
     2
 67
     7
 79
     5
170
     0
171
     0
290
     0
174
     0
 93
        1
 44
0.0
173
     0
291
     1
 45
0.0
1001
ACAD
1000
AcDbSavedByObjectVersion
1070
     0
  0
VISUALSTYLE
  5
3BF7
102
{ACAD_XDICTIONARY
360
3D4D
102
}
102
{ACAD_REACTORS
330
3BE8
102
}
330
3BE8
100
AcDbVisualStyle
  2
Facepattern
 70
    15
 71
     2
 72
     2
 73
     0
 90
        0
 40
-0.6
 41
-30.0
 62
     5
 63
     7
 74
     1
 91
        4
 64
     7
 65
   257
 75
     1
175
     1
 42
1.0
 92
        8
 66
     7
 43
1.0
 76
     1
 77
     6
 78
     2
 67
     7
 79
     5
170
     0
171
     0
290
     0
174
     0
 93
        1
 44
0.0
173
     0
291
     1
 45
0.0
1001
ACAD
1000
AcDbSavedByObjectVersion
1070
     0
  0
VISUALSTYLE
  5
3BE9
102
{ACAD_XDICTIONARY
360
3D31
102
}
102
{ACAD_REACTORS
330
3BE8
102
}
330
3BE8
100
AcDbVisualStyle
  2
Flat
 70
     0
 71
     2
 72
     1
 73
     1
 90
        2
 40
-0.6
 41
30.0
 62
     5
 63
     7
 74
     0
 91
        0
 64
     7
 65
   257
 75
     1
175
     1
 42
1.0
 92
        8
 66
     7
 43
1.0
 76
     1
 77
     6
 78
     2
 67
     7
 79
     5
170
     0
171
     0
290
     0
174
     0
 93
       13
 44
0.0
173
     0
291
     1
 45
0.0
1001
ACAD
1000
AcDbSavedByObjectVersion
1070
     0
  0
VISUALSTYLE
  5
3BEA
102
{ACAD_XDICTIONARY
360
3D33
102
}
102
{ACAD_REACTORS
330
3BE8
102
}
330
3BE8
100
AcDbVisualStyle
  2
FlatWithEdges
 70
     1
 71
     2
 72
     1
 73
     1
 90
        2
 40
-0.6
 41
30.0
 62
     5
 63
     7
 74
     1
 91
        0
 64
     7
 65
   257
 75
     1
175
     1
 42
1.0
 92
        0
 66
   257
 43
1.0
 76
     1
 77
     6
 78
     2
 67
     7
 79
     5
170
     0
171
     0
290
     0
174
     0
 93
       13
 44
0.0
173
     0
291
     1
 45
0.0
1001
ACAD
1000
AcDbSavedByObjectVersion
1070
     0
  0
VISUALSTYLE
  5
3BEB
102
{ACAD_XDICTIONARY
360
3D35
102
}
102
{ACAD_REACTORS
330
3BE8
102
}
330
3BE8
100
AcDbVisualStyle
  2
Gouraud
 70
     2
 71
     2
 72
     2
 73
     1
 90
        2
 40
-0.6
 41
30.0
 62
     5
 63
     7
 74
     0
 91
        0
 64
     7
 65
   257
 75
     1
175
     1
 42
1.0
 92
        0
 66
     7
 43
1.0
 76
     1
 77
     6
 78
     2
 67
     7
 79
     5
170
     0
171
     0
290
     0
174
     0
 93
       13
 44
0.0
173
     0
291
     1
 45
0.0
1001
ACAD
1000
AcDbSavedByObjectVersion
1070
     0
  0
VISUALSTYLE
  5
3BEC
102
{ACAD_XDICTIONARY
360
3D37
102
}
102
{ACAD_REACTORS
330
3BE8
102
}
330
3BE8
100
AcDbVisualStyle
  2
GouraudWithEdges
 70
     3
 71
     2
 72
     2
 73
     1
 90
        2
 40
-0.6
 41
30.0
 62
     5
 63
     7
 74
     1
 91
        0
 64
     7
 65
   257
 75
     1
175
     1
 42
1.0
 92
        0
 66
   257
 43
1.0
 76
     1
 77
     6
 78
     2
 67
     7
 79
     5
170
     0
171
     0
290
     0
174
     0
 93
       13
 44
0.0
173
     0
291
     1
 45
0.0
1001
ACAD
1000
AcDbSavedByObjectVersion
1070
     0
  0
VISUALSTYLE
  5
3BF0
102
{ACAD_XDICTIONARY
360
3D3F
102
}
102
{ACAD_REACTORS
330
3BE8
102
}
330
3BE8
100
AcDbVisualStyle
  2
Hidden
 70
     6
 71
     1
 72
     2
 73
     2
 90
        0
 40
-0.6
 41
-30.0
 62
     5
 63
     7
 74
     2
 91
        2
 64
     7
 65
   257
 75
     2
175
     1
 42
40.0
 92
        0
 66
   257
 43
1.0
 76
     1
 77
     6
 78
     2
 67
     7
 79
     3
170
     0
171
     0
290
     0
174
     0
 93
        1
 44
0.0
173
     0
291
     0
 45
0.0
1001
ACAD
1000
AcDbSavedByObjectVersion
1070
     0
  0
VISUALSTYLE
  5
3BFE
102
{ACAD_XDICTIONARY
360
3D5B
102
}
102
{ACAD_REACTORS
330
3BE8
102
}
330
3BE8
100
AcDbVisualStyle
  2
JitterOff
 70
    20
 71
     2
 72
     2
 73
     0
 90
        0
 40
-0.6
 41
-30.0
 62
     5
 63
     7
 74
     1
 91
        4
 64
     7
 65
   257
 75
     1
175
     1
 42
1.0
 92
       10
 66
     7
 43
1.0
 76
     1
 77
     6
 78
     2
 67
     7
 79
     5
170
     0
171
     0
290
     0
174
     0
 93
        1
 44
0.0
173
     0
291
     1
 45
0.0
1001
ACAD
1000
AcDbSavedByObjectVersion
1070
     0
  0
VISUALSTYLE
  5
3BF6
102
{ACAD_XDICTIONARY
360
3D4B
102
}
102
{ACAD_REACTORS
330
3BE8
102
}
330
3BE8
100
AcDbVisualStyle
  2
Linepattern
 70
    14
 71
     2
 72
     2
 73
     0
 90
        0
 40
-0.6
 41
-30.0
 62
     5
 63
     7
 74
     1
 91
        4
 64
     7
 65
   257
 75
     7
175
     7
 42
1.0
 92
        8
 66
     7
 43
1.0
 76
     1
 77
     6
 78
     2
 67
     7
 79
     5
170
     0
171
     0
290
     0
174
     0
 93
        1
 44
0.0
173
     0
291
     1
 45
0.0
1001
ACAD
1000
AcDbSavedByObjectVersion
1070
     0
  0
VISUALSTYLE
  5
3BFF
102
{ACAD_XDICTIONARY
360
3D5D
102
}
102
{ACAD_REACTORS
330
3BE8
102
}
330
3BE8
100
AcDbVisualStyle
  2
OverhangOff
 70
    21
 71
     2
 72
     2
 73
     0
 90
        0
 40
-0.6
 41
-30.0
 62
     5
 63
     7
 74
     1
 91
        4
 64
     7
 65
   257
 75
     1
175
     1
 42
1.0
 92
        9
 66
     7
 43
1.0
 76
     1
 77
     6
 78
     2
 67
     7
 79
     5
170
     0
171
     0
290
     0
174
     0
 93
        1
 44
0.0
173
     0
291
     1
 45
0.0
1001
ACAD
1000
AcDbSavedByObjectVersion
1070
     0
  0
VISUALSTYLE
  5
3BF2
102
{ACAD_XDICTIONARY
360
3D43
102
}
102
{ACAD_REACTORS
330
3BE8
102
}
330
3BE8
100
AcDbVisualStyle
  2
Realistic
 70
     8
 71
     2
 72
     2
 73
     0
 90
        2
 40
-0.6
 41
30.0
 62
     5
 63
     7
 74
     0
 91
        0
 64
     7
 65
   257
 75
     1
175
     1
 42
1.0
 92
        8
 66
   257
 43
1.0
 76
     1
 77
     6
 78
     2
 67
     7
 79
     3
170
     0
171
     0
290
     0
174
     0
 93
       13
 44
0.0
173
     0
291
     0
 45
0.0
1001
ACAD
1000
AcDbSavedByObjectVersion
1070
     0
  0
VISUALSTYLE
  5
3BFD
102
{ACAD_XDICTIONARY
360
3D59
102
}
102
{ACAD_REACTORS
330
3BE8
102
}
330
3BE8
100
AcDbVisualStyle
  2
Shaded
 70
    27
 71
     2
 72
     2
 73
     1
 90
        2
 40
-0.6
 41
30.0
 62
     5
 63
     7
 74
     0
 91
        4
 64
     7
 65
   257
 75
     1
175
     1
 42
1.0
 92
        8
 66
   257
 43
1.0
 76
     1
 77
     6
 78
     2
 67
     8
 79
     3
170
     0
171
     0
290
     0
174
     0
 93
        5
 44
0.0
173
     0
291
     0
 45
0.0
1001
ACAD
1000
AcDbSavedByObjectVersion
1070
     0
  0
VISUALSTYLE
  5
3BFC
102
{ACAD_XDICTIONARY
360
3D57
102
}
102
{ACAD_REACTORS
330
3BE8
102
}
330
3BE8
100
AcDbVisualStyle
  2
Shaded with edges
 70
    26
 71
     2
 72
     2
 73
     1
 90
        2
 40
-0.6
 41
30.0
 62
     5
 63
     7
 74
     1
 91
       10
 64
     7
 65
   257
 75
     2
175
     1
 42
1.0
 92
        8
 66
   257
 43
1.0
 76
     1
 77
     6
 78
     2
 67
     7
 79
     3
170
     0
171
     0
290
     0
174
     0
 93
        5
 44
0.0
173
     0
291
     0
 45
0.0
1001
ACAD
1000
AcDbSavedByObjectVersion
1070
     0
  0
VISUALSTYLE
  5
3BF9
102
{ACAD_XDICTIONARY
360
3D51
102
}
102
{ACAD_REACTORS
330
3BE8
102
}
330
3BE8
100
AcDbVisualStyle
  2
Shades of Gray
 70
    23
 71
     2
 72
     2
 73
     3
 90
        0
 40
-0.6
 41
-30.0
 62
     5
 63
     7
 74
     2
 91
        2
 64
     7
 65
     7
 75
     1
175
     1
 42
40.0
 92
        8
 66
     7
 43
1.0
 76
     1
 77
     6
 78
     2
 67
     7
 79
     3
170
     0
171
     0
290
     0
174
     0
 93
        1
 44
0.0
173
     0
291
     0
 45
0.0
1001
ACAD
1000
AcDbSavedByObjectVersion
1070
     0
  0
VISUALSTYLE
  5
3BFA
102
{ACAD_XDICTIONARY
360
3D53
102
}
102
{ACAD_REACTORS
330
3BE8
102
}
330
3BE8
100
AcDbVisualStyle
  2
Sketchy
 70
    24
 71
     1
 72
     2
 73
     2
 90
        0
 40
-0.6
 41
-30.0
 62
     5
 63
     7
 74
     2
 91
        2
 64
     7
 65
     7
 75
     1
175
     1
 42
40.0
 92
       11
 66
     7
 43
1.0
 76
     1
 77
     6
 78
     2
 67
     7
 79
     6
170
     0
171
     0
290
     0
174
     0
 93
        1
 44
0.0
173
     0
291
     0
 45
0.0
1001
ACAD
1000
AcDbSavedByObjectVersion
1070
     0
  0
VISUALSTYLE
  5
3BF5
102
{ACAD_XDICTIONARY
360
3D49
102
}
102
{ACAD_REACTORS
330
3BE8
102
}
330
3BE8
100
AcDbVisualStyle
  2
Thicken
 70
    13
 71
     2
 72
     2
 73
     0
 90
        0
 40
-0.6
 41
-30.0
 62
     5
 63
     7
 74
     1
 91
        4
 64
     7
 65
   257
 75
     1
175
     1
 42
1.0
 92
       12
 66
     7
 43
1.0
 76
     1
 77
     6
 78
     2
 67
     7
 79
     5
170
     0
171
     0
290
     0
174
     0
 93
        1
 44
0.0
173
     0
291
     1
 45
0.0
1001
ACAD
1000
AcDbSavedByObjectVersion
1070
     0
  0
VISUALSTYLE
  5
3BEF
102
{ACAD_XDICTIONARY
360
3D3D
102
}
102
{ACAD_REACTORS
330
3BE8
102
}
330
3BE8
100
AcDbVisualStyle
  2
Wireframe
 70
     5
 71
     0
 72
     2
 73
     0
 90
        0
 40
-0.6
 41
-30.0
 62
     5
 63
     7
 74
     1
 91
        4
 64
     7
 65
   257
 75
     1
175
     1
 42
1.0
 92
        0
 66
   257
 43
1.0
 76
     1
 77
     6
 78
     2
 67
     7
 79
     3
170
     0
171
     0
290
     0
174
     0
 93
        1
 44
0.0
173
     0
291
     0
 45
0.0
1001
ACAD
1000
AcDbSavedByObjectVersion
1070
     0
  0
VISUALSTYLE
  5
3BFB
102
{ACAD_XDICTIONARY
360
3D55
102
}
102
{ACAD_REACTORS
330
3BE8
102
}
330
3BE8
100
AcDbVisualStyle
  2
X-Ray
 70
    25
 71
     2
 72
     2
 73
     1
 90
        1
 40
0.5
 41
-30.0
 62
     5
 63
     7
 74
     1
 91
        0
 64
     7
 65
   257
 75
     1
175
     1
 42
1.0
 92
        8
 66
     7
 43
1.0
 76
     1
 77
     6
 78
     2
 67
     7
 79
     3
170
     0
171
     0
290
     0
174
     0
 93
       13
 44
0.0
173
     0
291
     0
 45
0.0
1001
ACAD
1000
AcDbSavedByObjectVersion
1070
     0
  0
DICTIONARYVAR
  5
3CAC
102
{ACAD_REACTORS
330
44
102
}
330
44
100
DictionaryVariables
280
     0
  1
1:1
  0
DICTIONARYVAR
  5
3CA9
102
{ACAD_REACTORS
330
44
102
}
330
44
100
DictionaryVariables
280
     0
  1
STANDARD
  0
DICTIONARYVAR
  5
3CA8
102
{ACAD_REACTORS
330
44
102
}
330
44
100
DictionaryVariables
280
     0
  1
STANDARD
  0
DICTIONARYVAR
  5
3CAA
102
{ACAD_REACTORS
330
44
102
}
330
44
100
DictionaryVariables
280
     0
  1
Imperial24
  0
DICTIONARYVAR
  5
3CAB
102
{ACAD_REACTORS
330
44
102
}
330
44
100
DictionaryVariables
280
     0
  1
Imperial24
  0
DICTIONARYVAR
  5
45
102
{ACAD_REACTORS
330
44
102
}
330
44
100
DictionaryVariables
280
     0
  1
2
  0
DICTIONARYVAR
  5
2C7A
102
{ACAD_REACTORS
330
44
102
}
330
44
100
DictionaryVariables
280
     0
  1
1
  0
DICTIONARYVAR
  5
3D1B
102
{ACAD_REACTORS
330
44
102
}
330
44
100
DictionaryVariables
280
     0
  1
0
  0
DICTIONARYVAR
  5
3D03
102
{ACAD_REACTORS
330
44
102
}
330
44
100
DictionaryVariables
280
     0
  1
1
  0
DICTIONARYVAR
  5
3D04
102
{ACAD_REACTORS
330
44
102
}
330
44
100
DictionaryVariables
280
     0
  1
15
  0
DICTIONARYVAR
  5
3D02
102
{ACAD_REACTORS
330
44
102
}
330
44
100
DictionaryVariables
280
     0
  1
0
  0
DICTIONARYVAR
  5
3D1C
102
{ACAD_REACTORS
330
44
102
}
330
44
100
DictionaryVariables
280
     0
  1
1.570796
  0
DICTIONARYVAR
  5
3D1D
102
{ACAD_REACTORS
330
44
102
}
330
44
100
DictionaryVariables
280
     0
  1
1.570796
  0
DICTIONARYVAR
  5
3D1E
102
{ACAD_REACTORS
330
44
102
}
330
44
100
DictionaryVariables
280
     0
  1
-122.394000
  0
DICTIONARYVAR
  5
3D01
102
{ACAD_REACTORS
330
44
102
}
330
44
100
DictionaryVariables
280
     0
  1
0
  0
DICTIONARYVAR
  5
2BE2
102
{ACAD_REACTORS
330
44
102
}
330
44
100
DictionaryVariables
280
     0
  1
96
  0
DICTIONARYVAR
  5
3D1F
102
{ACAD_REACTORS
330
44
102
}
330
44
100
DictionaryVariables
280
     0
  1
2
  0
DICTIONARY
  5
3D2A
102
{ACAD_REACTORS
330
3D28
102
}
330
3D28
100
AcDbDictionary
281
     1
  0
DICTIONARY
  5
3D29
102
{ACAD_REACTORS
330
3D28
102
}
330
3D28
100
AcDbDictionary
281
     1
  3
8796088032432
350
3D23
  3
8796088032448
350
3D24
  3
8796088032464
350
3D25
  3
8796088032480
350
3D26
  3
8796088032496
350
3D27
  0
DICTIONARY
  5
3D08
330
3C1B
100
AcDbDictionary
280
     1
281
     1
  3
ACAD_XREC_ROUNDTRIP
360
3D65
  0
DICTIONARY
  5
3D2C
330
2C6A
100
AcDbDictionary
280
     1
281
     1
  3
ACAD_XREC_ROUNDTRIP
360
3D2D
  0
DICTIONARY
  5
3C6B
330
2C69
100
AcDbDictionary
280
     1
281
     1
  3
ACAD_XREC_ROUNDTRIP
360
3D2B
  0
DICTIONARY
  5
3BD9
330
3BD8
100
AcDbDictionary
280
     1
281
     1
  3
ACAD_XREC_ROUNDTRIP
360
3D2F
  3
BUMPTILE
360
3BDB
  3
DIFFUSETILE
360
3BDA
  3
OPACITYTILE
360
3BDE
  3
REFLECTIONTILE
360
3BDD
  3
REFRACTIONTILE
360
3BDF
  3
SPECULARTILE
360
3BDC
  0
DICTIONARY
  5
3BD1
330
3BD0
100
AcDbDictionary
280
     1
281
     1
  3
ACAD_XREC_ROUNDTRIP
360
3D2E
  3
BUMPTILE
360
3BD3
  3
DIFFUSETILE
360
3BD2
  3
OPACITYTILE
360
3BD6
  3
REFLECTIONTILE
360
3BD5
  3
REFRACTIONTILE
360
3BD7
  3
SPECULARTILE
360
3BD4
  0
DICTIONARY
  5
3BE1
330
3BE0
100
AcDbDictionary
280
     1
281
     1
  3
ACAD_XREC_ROUNDTRIP
360
3D30
  3
BUMPTILE
360
3BE3
  3
DIFFUSETILE
360
3BE2
  3
OPACITYTILE
360
3BE6
  3
REFLECTIONTILE
360
3BE5
  3
REFRACTIONTILE
360
3BE7
  3
SPECULARTILE
360
3BE4
  0
DICTIONARY
  5
3D62
330
3C17
100
AcDbDictionary
280
     1
281
     1
  3
ACAD_XREC_ROUNDTRIP
360
3D63
  0
DICTIONARY
  5
3D06
330
3C19
100
AcDbDictionary
280
     1
281
     1
  3
ACAD_XREC_ROUNDTRIP
360
3D64
  0
DICTIONARY
  5
3C5E
330
3C03
100
AcDbDictionary
280
     1
281
     1
  3
ACAD_ROUNDTRIP_2008_TABLESTYLE_CELLSTYLEMAP
360
3D20
  3
ACAD_XREC_ROUNDTRIP
360
3D61
  0
DICTIONARY
  5
3D3B
330
3BEE
100
AcDbDictionary
280
     1
281
     1
  3
ACAD_XREC_ROUNDTRIP
360
3D3C
  0
DICTIONARY
  5
3D39
330
3BED
100
AcDbDictionary
280
     1
281
     1
  3
ACAD_XREC_ROUNDTRIP
360
3D3A
  0
DICTIONARY
  5
3D47
330
3BF4
100
AcDbDictionary
280
     1
281
     1
  3
ACAD_XREC_ROUNDTRIP
360
3D48
  0
DICTIONARY
  5
3D4F
330
3BF8
100
AcDbDictionary
280
     1
281
     1
  3
ACAD_XREC_ROUNDTRIP
360
3D50
  0
DICTIONARY
  5
3D41
330
3BF1
100
AcDbDictionary
280
     1
281
     1
  3
ACAD_XREC_ROUNDTRIP
360
3D42
  0
DICTIONARY
  5
3D45
330
3BF3
100
AcDbDictionary
280
     1
281
     1
  3
ACAD_XREC_ROUNDTRIP
360
3D46
  0
DICTIONARY
  5
3D5F
330
3C00
100
AcDbDictionary
280
     1
281
     1
  3
ACAD_XREC_ROUNDTRIP
360
3D60
  0
DICTIONARY
  5
3D4D
330
3BF7
100
AcDbDictionary
280
     1
281
     1
  3
ACAD_XREC_ROUNDTRIP
360
3D4E
  0
DICTIONARY
  5
3D31
330
3BE9
100
AcDbDictionary
280
     1
281
     1
  3
ACAD_XREC_ROUNDTRIP
360
3D32
  0
DICTIONARY
  5
3D33
330
3BEA
100
AcDbDictionary
280
     1
281
     1
  3
ACAD_XREC_ROUNDTRIP
360
3D34
  0
DICTIONARY
  5
3D35
330
3BEB
100
AcDbDictionary
280
     1
281
     1
  3
ACAD_XREC_ROUNDTRIP
360
3D36
  0
DICTIONARY
  5
3D37
330
3BEC
100
AcDbDictionary
280
     1
281
     1
  3
ACAD_XREC_ROUNDTRIP
360
3D38
  0
DICTIONARY
  5
3D3F
330
3BF0
100
AcDbDictionary
280
     1
281
     1
  3
ACAD_XREC_ROUNDTRIP
360
3D40
  0
DICTIONARY
  5
3D5B
330
3BFE
100
AcDbDictionary
280
     1
281
     1
  3
ACAD_XREC_ROUNDTRIP
360
3D5C
  0
DICTIONARY
  5
3D4B
330
3BF6
100
AcDbDictionary
280
     1
281
     1
  3
ACAD_XREC_ROUNDTRIP
360
3D4C
  0
DICTIONARY
  5
3D5D
330
3BFF
100
AcDbDictionary
280
     1
281
     1
  3
ACAD_XREC_ROUNDTRIP
360
3D5E
  0
DICTIONARY
  5
3D43
330
3BF2
100
AcDbDictionary
280
     1
281
     1
  3
ACAD_XREC_ROUNDTRIP
360
3D44
  0
DICTIONARY
  5
3D59
330
3BFD
100
AcDbDictionary
280
     1
281
     1
  3
ACAD_XREC_ROUNDTRIP
360
3D5A
  0
DICTIONARY
  5
3D57
330
3BFC
100
AcDbDictionary
280
     1
281
     1
  3
ACAD_XREC_ROUNDTRIP
360
3D58
  0
DICTIONARY
  5
3D51
330
3BF9
100
AcDbDictionary
280
     1
281
     1
  3
ACAD_XREC_ROUNDTRIP
360
3D52
  0
DICTIONARY
  5
3D53
330
3BFA
100
AcDbDictionary
280
     1
281
     1
  3
ACAD_XREC_ROUNDTRIP
360
3D54
  0
DICTIONARY
  5
3D49
330
3BF5
100
AcDbDictionary
280
     1
281
     1
  3
ACAD_XREC_ROUNDTRIP
360
3D4A
  0
DICTIONARY
  5
3D3D
330
3BEF
100
AcDbDictionary
280
     1
281
     1
  3
ACAD_XREC_ROUNDTRIP
360
3D3E
  0
DICTIONARY
  5
3D55
330
3BFB
100
AcDbDictionary
280
     1
281
     1
  3
ACAD_XREC_ROUNDTRIP
360
3D56
  0
XRECORD
  5
3D23
102
{ACAD_REACTORS
330
3D29
102
}
330
3D29
100
AcDbXrecord
280
     1
  1
AcDb_Thumbnail_Schema
102
{ATTRRECORD
341
3D24
  2
AcDbDs::TreatedAsObjectData
280
     1
291
     1
102
ATTRRECORD}
102
{ATTRRECORD
341
3D25
  2
AcDbDs::Legacy
280
     1
291
     1
102
ATTRRECORD}
  2
AcDbDs::ID
280
    10
 91
        8
102
{ATTRRECORD
341
3D26
  2
AcDs:Indexable
280
     1
291
     1
102
ATTRRECORD}
102
{ATTRRECORD
341
3D27
  2
AcDbDs::HandleAttribute
280
     7
282
     1
102
ATTRRECORD}
  2
Thumbnail_Data
280
    15
 91
        0
  0
XRECORD
  5
3D24
102
{ACAD_REACTORS
330
3D29
102
}
330
3D29
100
AcDbXrecord
280
     1
  1
AcDbDs::TreatedAsObjectDataSchema
  2
AcDbDs::TreatedAsObjectData
280
     1
 91
        0
  0
XRECORD
  5
3D25
102
{ACAD_REACTORS
330
3D29
102
}
330
3D29
100
AcDbXrecord
280
     1
  1
AcDbDs::LegacySchema
  2
AcDbDs::Legacy
280
     1
 91
        0
  0
XRECORD
  5
3D26
102
{ACAD_REACTORS
330
3D29
102
}
330
3D29
100
AcDbXrecord
280
     1
  1
AcDbDs::IndexedPropertySchema
  2
AcDs:Indexable
280
     1
 91
        0
  0
XRECORD
  5
3D27
102
{ACAD_REACTORS
330
3D29
102
}
330
3D29
100
AcDbXrecord
280
     1
  1
AcDbDs::HandleAttributeSchema
  2
AcDbDs::HandleAttribute
280
     7
 91
        1
284
     1
  0
XRECORD
  5
3D65
102
{ACAD_REACTORS
330
3D08
102
}
330
3D08
100
AcDbXrecord
280
     1
102
DISPLAYNAME
  1
Imperial24
102
FLAGS
 90
        0
  0
XRECORD
  5
3D2D
102
{ACAD_REACTORS
330
3D2C
102
}
330
3D2C
100
AcDbXrecord
280
     1
102
SHADEPLOT
 70
     0
102
SHADEPLOTRESLEVEL
 70
     2
102
SHADEPLOTCUSTOMDPI
 70
   300
  0
XRECORD
  5
3D2B
102
{ACAD_REACTORS
330
3C6B
102
}
330
3C6B
100
AcDbXrecord
280
     1
102
SHADEPLOT
 70
     0
102
SHADEPLOTRESLEVEL
 70
     2
102
SHADEPLOTCUSTOMDPI
 70
   300
  0
XRECORD
  5
3D2F
102
{ACAD_REACTORS
330
3BD9
102
}
330
3BD9
100
AcDbXrecord
280
     1
102
MATERIAL
148
0.0
149
0.0
149
0.0
 93
        0
 94
      127
282
     0
 72
     0
 77
     0
171
     0
175
     0
179
     0
273
     0
  0
XRECORD
  5
3BDB
102
{ACAD_REACTORS
330
3BD9
102
}
330
3BD9
100
AcDbXrecord
280
     1
270
     1
271
     1
  0
XRECORD
  5
3BDA
102
{ACAD_REACTORS
330
3BD9
102
}
330
3BD9
100
AcDbXrecord
280
     1
270
     1
271
     1
  0
XRECORD
  5
3BDE
102
{ACAD_REACTORS
330
3BD9
102
}
330
3BD9
100
AcDbXrecord
280
     1
270
     1
271
     1
  0
XRECORD
  5
3BDD
102
{ACAD_REACTORS
330
3BD9
102
}
330
3BD9
100
AcDbXrecord
280
     1
270
     1
271
     1
  0
XRECORD
  5
3BDF
102
{ACAD_REACTORS
330
3BD9
102
}
330
3BD9
100
AcDbXrecord
280
     1
270
     1
271
     1
  0
XRECORD
  5
3BDC
102
{ACAD_REACTORS
330
3BD9
102
}
330
3BD9
100
AcDbXrecord
280
     1
270
     1
271
     1
  0
XRECORD
  5
3D2E
102
{ACAD_REACTORS
330
3BD1
102
}
330
3BD1
100
AcDbXrecord
280
     1
102
MATERIAL
148
0.0
149
0.0
149
0.0
 93
        0
 94
      127
282
     0
 72
     0
 77
     0
171
     0
175
     0
179
     0
273
     0
  0
XRECORD
  5
3BD3
102
{ACAD_REACTORS
330
3BD1
102
}
330
3BD1
100
AcDbXrecord
280
     1
270
     1
271
     1
  0
XRECORD
  5
3BD2
102
{ACAD_REACTORS
330
3BD1
102
}
330
3BD1
100
AcDbXrecord
280
     1
270
     1
271
     1
  0
XRECORD
  5
3BD6
102
{ACAD_REACTORS
330
3BD1
102
}
330
3BD1
100
AcDbXrecord
280
     1
270
     1
271
     1
  0
XRECORD
  5
3BD5
102
{ACAD_REACTORS
330
3BD1
102
}
330
3BD1
100
AcDbXrecord
280
     1
270
     1
271
     1
  0
XRECORD
  5
3BD7
102
{ACAD_REACTORS
330
3BD1
102
}
330
3BD1
100
AcDbXrecord
280
     1
270
     1
271
     1
  0
XRECORD
  5
3BD4
102
{ACAD_REACTORS
330
3BD1
102
}
330
3BD1
100
AcDbXrecord
280
     1
270
     1
271
     1
  0
XRECORD
  5
3D30
102
{ACAD_REACTORS
330
3BE1
102
}
330
3BE1
100
AcDbXrecord
280
     1
102
MATERIAL
148
0.0
149
0.0
149
0.0
 93
        0
 94
      127
282
     0
 72
     0
 77
     0
171
     0
175
     0
179
     0
273
     0
  0
XRECORD
  5
3BE3
102
{ACAD_REACTORS
330
3BE1
102
}
330
3BE1
100
AcDbXrecord
280
     1
270
     1
271
     1
  0
XRECORD
  5
3BE2
102
{ACAD_REACTORS
330
3BE1
102
}
330
3BE1
100
AcDbXrecord
280
     1
270
     1
271
     1
  0
XRECORD
  5
3BE6
102
{ACAD_REACTORS
330
3BE1
102
}
330
3BE1
100
AcDbXrecord
280
     1
270
     1
271
     1
  0
XRECORD
  5
3BE5
102
{ACAD_REACTORS
330
3BE1
102
}
330
3BE1
100
AcDbXrecord
280
     1
270
     1
271
     1
  0
XRECORD
  5
3BE7
102
{ACAD_REACTORS
330
3BE1
102
}
330
3BE1
100
AcDbXrecord
280
     1
270
     1
271
     1
  0
XRECORD
  5
3BE4
102
{ACAD_REACTORS
330
3BE1
102
}
330
3BE1
100
AcDbXrecord
280
     1
270
     1
271
     1
  0
XRECORD
  5
3D63
102
{ACAD_REACTORS
330
3D62
102
}
330
3D62
100
AcDbXrecord
280
     1
102
ACAD_ROUNDTRIP_2012_MLEADER_STYLE
298
     1
  0
XRECORD
  5
3D64
102
{ACAD_REACTORS
330
3D06
102
}
330
3D06
100
AcDbXrecord
280
     1
102
DISPLAYNAME
  1
Imperial24
102
FLAGS
 90
        0
  0
CELLSTYLEMAP
  5
3D20
102
{ACAD_REACTORS
330
3C5E
102
}
330
3C5E
100
AcDbCellStyleMap
 90
        3
300
CELLSTYLE
  1
TABLEFORMAT_BEGIN
 90
        5
170
     1
 91
        0
 92
    32768
 62
   257
 93
        1
300
CONTENTFORMAT
  1
CONTENTFORMAT_BEGIN
 90
        0
 91
        0
 92
      512
 93
        0
300

 40
0.0
140
1.0
 94
        5
 62
     0
340
F
144
0.25
309
CONTENTFORMAT_END
171
     1
301
MARGIN
  1
CELLMARGIN_BEGIN
 40
0.06
 40
0.06
 40
0.06
 40
0.06
 40
0.18
 40
0.18
309
CELLMARGIN_END
 94
        6
 95
        1
302
GRIDFORMAT
  1
GRIDFORMAT_BEGIN
 90
        0
 91
        1
 62
     0
 92
       -2
340
0
 93
        0
 40
0.045
309
GRIDFORMAT_END
 95
        2
302
GRIDFORMAT
  1
GRIDFORMAT_BEGIN
 90
        0
 91
        1
 62
     0
 92
       -2
340
0
 93
        0
 40
0.045
309
GRIDFORMAT_END
 95
        4
302
GRIDFORMAT
  1
GRIDFORMAT_BEGIN
 90
        0
 91
        1
 62
     0
 92
       -2
340
0
 93
        0
 40
0.045
309
GRIDFORMAT_END
 95
        8
302
GRIDFORMAT
  1
GRIDFORMAT_BEGIN
 90
        0
 91
        1
 62
     0
 92
       -2
340
0
 93
        0
 40
0.045
309
GRIDFORMAT_END
 95
       16
302
GRIDFORMAT
  1
GRIDFORMAT_BEGIN
 90
        0
 91
        1
 62
     0
 92
       -2
340
0
 93
        0
 40
0.045
309
GRIDFORMAT_END
 95
       32
302
GRIDFORMAT
  1
GRIDFORMAT_BEGIN
 90
        0
 91
        1
 62
     0
 92
       -2
340
0
 93
        0
 40
0.045
309
GRIDFORMAT_END
309
TABLEFORMAT_END
  1
CELLSTYLE_BEGIN
 90
        1
 91
        1
300
_TITLE
309
CELLSTYLE_END
300
CELLSTYLE
  1
TABLEFORMAT_BEGIN
 90
        5
170
     1
 91
        0
 92
        0
 62
   257
 93
        1
300
CONTENTFORMAT
  1
CONTENTFORMAT_BEGIN
 90
        0
 91
        0
 92
      512
 93
        0
300

 40
0.0
140
1.0
 94
        5
 62
     0
340
F
144
0.18
309
CONTENTFORMAT_END
171
     1
301
MARGIN
  1
CELLMARGIN_BEGIN
 40
0.06
 40
0.06
 40
0.06
 40
0.06
 40
0.18
 40
0.18
309
CELLMARGIN_END
 94
        6
 95
        1
302
GRIDFORMAT
  1
GRIDFORMAT_BEGIN
 90
        0
 91
        1
 62
     0
 92
       -2
340
0
 93
        0
 40
0.045
309
GRIDFORMAT_END
 95
        2
302
GRIDFORMAT
  1
GRIDFORMAT_BEGIN
 90
        0
 91
        1
 62
     0
 92
       -2
340
0
 93
        0
 40
0.045
309
GRIDFORMAT_END
 95
        4
302
GRIDFORMAT
  1
GRIDFORMAT_BEGIN
 90
        0
 91
        1
 62
     0
 92
       -2
340
0
 93
        0
 40
0.045
309
GRIDFORMAT_END
 95
        8
302
GRIDFORMAT
  1
GRIDFORMAT_BEGIN
 90
        0
 91
        1
 62
     0
 92
       -2
340
0
 93
        0
 40
0.045
309
GRIDFORMAT_END
 95
       16
302
GRIDFORMAT
  1
GRIDFORMAT_BEGIN
 90
        0
 91
        1
 62
     0
 92
       -2
340
0
 93
        0
 40
0.045
309
GRIDFORMAT_END
 95
       32
302
GRIDFORMAT
  1
GRIDFORMAT_BEGIN
 90
        0
 91
        1
 62
     0
 92
       -2
340
0
 93
        0
 40
0.045
309
GRIDFORMAT_END
309
TABLEFORMAT_END
  1
CELLSTYLE_BEGIN
 90
        2
 91
        1
300
_HEADER
309
CELLSTYLE_END
300
CELLSTYLE
  1
TABLEFORMAT_BEGIN
 90
        5
170
     1
 91
        0
 92
        0
 62
   257
 93
        1
300
CONTENTFORMAT
  1
CONTENTFORMAT_BEGIN
 90
        0
 91
        0
 92
      512
 93
        0
300

 40
0.0
140
1.0
 94
        2
 62
     0
340
F
144
0.18
309
CONTENTFORMAT_END
171
     1
301
MARGIN
  1
CELLMARGIN_BEGIN
 40
0.06
 40
0.06
 40
0.06
 40
0.06
 40
0.18
 40
0.18
309
CELLMARGIN_END
 94
        6
 95
        1
302
GRIDFORMAT
  1
GRIDFORMAT_BEGIN
 90
        0
 91
        1
 62
     0
 92
       -2
340
0
 93
        0
 40
0.045
309
GRIDFORMAT_END
 95
        2
302
GRIDFORMAT
  1
GRIDFORMAT_BEGIN
 90
        0
 91
        1
 62
     0
 92
       -2
340
0
 93
        0
 40
0.045
309
GRIDFORMAT_END
 95
        4
302
GRIDFORMAT
  1
GRIDFORMAT_BEGIN
 90
        0
 91
        1
 62
     0
 92
       -2
340
0
 93
        0
 40
0.045
309
GRIDFORMAT_END
 95
        8
302
GRIDFORMAT
  1
GRIDFORMAT_BEGIN
 90
        0
 91
        1
 62
     0
 92
       -2
340
0
 93
        0
 40
0.045
309
GRIDFORMAT_END
 95
       16
302
GRIDFORMAT
  1
GRIDFORMAT_BEGIN
 90
        0
 91
        1
 62
     0
 92
       -2
340
0
 93
        0
 40
0.045
309
GRIDFORMAT_END
 95
       32
302
GRIDFORMAT
  1
GRIDFORMAT_BEGIN
 90
        0
 91
        1
 62
     0
 92
       -2
340
0
 93
        0
 40
0.045
309
GRIDFORMAT_END
309
TABLEFORMAT_END
  1
CELLSTYLE_BEGIN
 90
        3
 91
        2
300
_DATA
309
CELLSTYLE_END
  0
XRECORD
  5
3D61
102
{ACAD_REACTORS
330
3C5E
102
}
330
3C5E
100
AcDbXrecord
280
     1
102
ACAD_ROUNDTRIP_PRE2007_TABLESTYLE
 90
      512
 91
        0
  1

 92
      512
 93
        0
  2

 94
      512
 95
        0
  3

  0
XRECORD
  5
3D3C
102
{ACAD_REACTORS
330
3D3B
102
}
330
3D3B
100
AcDbXrecord
280
     1
102
RTVSPost2010Prop28
280
     1
102
RTVSPost2010PropOp28
 70
     1
102
RTVSPost2010Prop29
280
     1
102
RTVSPost2010PropOp29
 70
     1
102
RTVSPost2010Prop30
280
     0
102
RTVSPost2010PropOp30
 70
     1
102
RTVSPost2010Prop31
280
     0
102
RTVSPost2010PropOp31
 70
     1
102
RTVSPost2010Prop32
280
     0
102
RTVSPost2010PropOp32
 70
     1
102
RTVSPost2010Prop33
280
     0
102
RTVSPost2010PropOp33
 70
     1
102
RTVSPost2010Prop34
280
     0
102
RTVSPost2010PropOp34
 70
     1
102
RTVSPost2010Prop35
280
     0
102
RTVSPost2010PropOp35
 70
     1
102
RTVSPost2010Prop36
280
     0
102
RTVSPost2010PropOp36
 70
     1
102
RTVSPost2010Prop37
 90
       50
102
RTVSPost2010PropOp37
 70
     1
102
RTVSPost2010Prop38
140
0.0
102
RTVSPost2010PropOp38
 70
     1
102
RTVSPost2010Prop39
140
1.0
102
RTVSPost2010PropOp39
 70
     1
102
RTVSPost2010Prop40
 90
        0
102
RTVSPost2010PropOp40
 70
     1
102
RTVSPost2010Prop41ColorIndex
 90
       18
102
RTVSPost2010Prop41ColorRGB
 90
-16777216
102
RTVSPost2010PropOp41
 70
     1
102
RTVSPost2010Prop42
 90
       50
102
RTVSPost2010PropOp42
 70
     1
102
RTVSPost2010Prop43
 90
        3
102
RTVSPost2010PropOp43
 70
     1
102
RTVSPost2010Prop44ColorIndex
 90
        5
102
RTVSPost2010Prop44ColorRGB
 90
      255
102
RTVSPost2010PropOp44
 70
     1
102
RTVSPost2010Prop45
280
     0
102
RTVSPost2010PropOp45
 70
     1
102
RTVSPost2010Prop46
 90
       50
102
RTVSPost2010PropOp46
 70
     1
102
RTVSPost2010Prop47
 90
       50
102
RTVSPost2010PropOp47
 70
     1
102
RTVSPost2010Prop48
 90
       50
102
RTVSPost2010PropOp48
 70
     1
102
RTVSPost2010Prop49
280
     0
102
RTVSPost2010PropOp49
 70
     1
102
RTVSPost2010Prop50
 90
       50
102
RTVSPost2010PropOp50
 70
     1
102
RTVSPost2010Prop51ColorIndex
 90
      256
102
RTVSPost2010Prop51ColorRGB
 90
-16777216
102
RTVSPost2010PropOp51
 70
     0
102
RTVSPost2010Prop52
140
1.0
102
RTVSPost2010PropOp52
 70
     0
102
RTVSPost2010Prop53
 90
        2
102
RTVSPost2010PropOp53
 70
     1
102
RTVSPost2010Prop54
  1
strokes_ogs.tif
102
RTVSPost2010PropOp54
 70
     1
102
RTVSPost2010Prop55
280
     0
102
RTVSPost2010PropOp55
 70
     1
102
RTVSPost2010Prop56
140
1.0
102
RTVSPost2010PropOp56
 70
     1
102
RTVSPost2010Prop57
140
1.0
102
RTVSPost2010PropOp57
 70
     1
102
RTVSPropertyOp0
 70
     1
102
RTVSPropertyOp1
 70
     1
102
RTVSPropertyOp2
 70
     1
102
RTVSPropertyOp3
 70
     1
102
RTVSPropertyOp4
 70
     1
102
RTVSPropertyOp5
 70
     1
102
RTVSPropertyOp6
 70
     1
102
RTVSPropertyOp7
 70
     1
102
RTVSPropertyOp8
 70
     1
102
RTVSPropertyOp9
 70
     1
102
RTVSPropertyOp10
 70
     1
102
RTVSPropertyOp11
 70
     1
102
RTVSPropertyOp12
 70
     1
102
RTVSPropertyOp13
 70
     1
102
RTVSPropertyOp14
 70
     1
102
RTVSPropertyOp15
 70
     1
102
RTVSPropertyOp16
 70
     1
102
RTVSPropertyOp17
 70
     1
102
RTVSPropertyOp18
 70
     1
102
RTVSPropertyOp19
 70
     1
102
RTVSPropertyOp20
 70
     1
102
RTVSPropertyOp21
 70
     1
102
RTVSPropertyOp22
 70
     1
102
RTVSPropertyOp23
 70
     1
102
RTVSPropertyOp24
 70
     1
102
RTVSPropertyOp25
 70
     1
102
RTVSPropertyOp26
 70
     1
102
RTVSPropertyOp27
 70
     1
102
RTVSPropertyOp28
 70
     1
102
RTVSPropertyOp29
 70
     1
102
RTVSPropertyOp30
 70
     1
102
RTVSPropertyOp31
 70
     1
102
RTVSPropertyOp32
 70
     1
102
RTVSPropertyOp33
 70
     1
102
RTVSPropertyOp34
 70
     1
102
RTVSPropertyOp35
 70
     1
102
RTVSPropertyOp36
 70
     1
102
RTVSPropertyOp37
 70
     1
102
RTVSPropertyOp38
 70
     1
102
RTVSPropertyOp39
 70
     1
102
RTVSPropertyOp40
 70
     1
102
RTVSPropertyOp41
 70
     1
102
RTVSPropertyOp42
 70
     1
102
RTVSPropertyOp43
 70
     1
102
RTVSPropertyOp44
 70
     1
102
RTVSPropertyOp45
 70
     1
102
RTVSPropertyOp46
 70
     1
102
RTVSPropertyOp47
 70
     1
102
RTVSPropertyOp48
 70
     1
102
RTVSPropertyOp49
 70
     1
102
RTVSPropertyOp50
 70
     1
102
RTVSPropertyOp51
 70
     0
102
RTVSPropertyOp52
 70
     0
102
RTVSPropertyOp53
 70
     1
102
RTVSPropertyOp54
 70
     1
102
RTVSPropertyOp55
 70
     1
102
RTVSPropertyOp56
 70
     1
102
RTVSPropertyOp57
 70
     1
102
RTVSPropertyOp58
 70
     1
102
RTVSPropertyOp59
 70
     1
102
RTVSPropertyOp60
 70
     1
102
RTVSPropertyOp61
 70
     1
102
RTVSPropertyOp62
 70
     1
  0
XRECORD
  5
3D3A
102
{ACAD_REACTORS
330
3D39
102
}
330
3D39
100
AcDbXrecord
280
     1
102
RTVSPost2010Prop28
280
     0
102
RTVSPost2010PropOp28
 70
     1
102
RTVSPost2010Prop29
280
     1
102
RTVSPost2010PropOp29
 70
     1
102
RTVSPost2010Prop30
280
     1
102
RTVSPost2010PropOp30
 70
     1
102
RTVSPost2010Prop31
280
     0
102
RTVSPost2010PropOp31
 70
     1
102
RTVSPost2010Prop32
280
     0
102
RTVSPost2010PropOp32
 70
     1
102
RTVSPost2010Prop33
280
     0
102
RTVSPost2010PropOp33
 70
     1
102
RTVSPost2010Prop34
280
     0
102
RTVSPost2010PropOp34
 70
     1
102
RTVSPost2010Prop35
280
     0
102
RTVSPost2010PropOp35
 70
     1
102
RTVSPost2010Prop36
280
     0
102
RTVSPost2010PropOp36
 70
     1
102
RTVSPost2010Prop37
 90
       50
102
RTVSPost2010PropOp37
 70
     1
102
RTVSPost2010Prop38
140
0.0
102
RTVSPost2010PropOp38
 70
     1
102
RTVSPost2010Prop39
140
1.0
102
RTVSPost2010PropOp39
 70
     1
102
RTVSPost2010Prop40
 90
        0
102
RTVSPost2010PropOp40
 70
     1
102
RTVSPost2010Prop41ColorIndex
 90
       18
102
RTVSPost2010Prop41ColorRGB
 90
-16777216
102
RTVSPost2010PropOp41
 70
     1
102
RTVSPost2010Prop42
 90
       50
102
RTVSPost2010PropOp42
 70
     1
102
RTVSPost2010Prop43
 90
        3
102
RTVSPost2010PropOp43
 70
     1
102
RTVSPost2010Prop44ColorIndex
 90
        5
102
RTVSPost2010Prop44ColorRGB
 90
      255
102
RTVSPost2010PropOp44
 70
     1
102
RTVSPost2010Prop45
280
     0
102
RTVSPost2010PropOp45
 70
     1
102
RTVSPost2010Prop46
 90
       50
102
RTVSPost2010PropOp46
 70
     1
102
RTVSPost2010Prop47
 90
       50
102
RTVSPost2010PropOp47
 70
     1
102
RTVSPost2010Prop48
 90
       50
102
RTVSPost2010PropOp48
 70
     1
102
RTVSPost2010Prop49
280
     0
102
RTVSPost2010PropOp49
 70
     1
102
RTVSPost2010Prop50
 90
       50
102
RTVSPost2010PropOp50
 70
     1
102
RTVSPost2010Prop51ColorIndex
 90
      256
102
RTVSPost2010Prop51ColorRGB
 90
-16777216
102
RTVSPost2010PropOp51
 70
     0
102
RTVSPost2010Prop52
140
1.0
102
RTVSPost2010PropOp52
 70
     0
102
RTVSPost2010Prop53
 90
        2
102
RTVSPost2010PropOp53
 70
     1
102
RTVSPost2010Prop54
  1
strokes_ogs.tif
102
RTVSPost2010PropOp54
 70
     1
102
RTVSPost2010Prop55
280
     0
102
RTVSPost2010PropOp55
 70
     1
102
RTVSPost2010Prop56
140
1.0
102
RTVSPost2010PropOp56
 70
     1
102
RTVSPost2010Prop57
140
1.0
102
RTVSPost2010PropOp57
 70
     1
102
RTVSPropertyOp0
 70
     1
102
RTVSPropertyOp1
 70
     1
102
RTVSPropertyOp2
 70
     1
102
RTVSPropertyOp3
 70
     1
102
RTVSPropertyOp4
 70
     1
102
RTVSPropertyOp5
 70
     1
102
RTVSPropertyOp6
 70
     1
102
RTVSPropertyOp7
 70
     1
102
RTVSPropertyOp8
 70
     1
102
RTVSPropertyOp9
 70
     1
102
RTVSPropertyOp10
 70
     1
102
RTVSPropertyOp11
 70
     1
102
RTVSPropertyOp12
 70
     1
102
RTVSPropertyOp13
 70
     1
102
RTVSPropertyOp14
 70
     1
102
RTVSPropertyOp15
 70
     1
102
RTVSPropertyOp16
 70
     1
102
RTVSPropertyOp17
 70
     1
102
RTVSPropertyOp18
 70
     1
102
RTVSPropertyOp19
 70
     1
102
RTVSPropertyOp20
 70
     1
102
RTVSPropertyOp21
 70
     1
102
RTVSPropertyOp22
 70
     1
102
RTVSPropertyOp23
 70
     1
102
RTVSPropertyOp24
 70
     1
102
RTVSPropertyOp25
 70
     1
102
RTVSPropertyOp26
 70
     1
102
RTVSPropertyOp27
 70
     1
102
RTVSPropertyOp28
 70
     1
102
RTVSPropertyOp29
 70
     1
102
RTVSPropertyOp30
 70
     1
102
RTVSPropertyOp31
 70
     1
102
RTVSPropertyOp32
 70
     1
102
RTVSPropertyOp33
 70
     1
102
RTVSPropertyOp34
 70
     1
102
RTVSPropertyOp35
 70
     1
102
RTVSPropertyOp36
 70
     1
102
RTVSPropertyOp37
 70
     1
102
RTVSPropertyOp38
 70
     1
102
RTVSPropertyOp39
 70
     1
102
RTVSPropertyOp40
 70
     1
102
RTVSPropertyOp41
 70
     1
102
RTVSPropertyOp42
 70
     1
102
RTVSPropertyOp43
 70
     1
102
RTVSPropertyOp44
 70
     1
102
RTVSPropertyOp45
 70
     1
102
RTVSPropertyOp46
 70
     1
102
RTVSPropertyOp47
 70
     1
102
RTVSPropertyOp48
 70
     1
102
RTVSPropertyOp49
 70
     1
102
RTVSPropertyOp50
 70
     1
102
RTVSPropertyOp51
 70
     0
102
RTVSPropertyOp52
 70
     0
102
RTVSPropertyOp53
 70
     1
102
RTVSPropertyOp54
 70
     1
102
RTVSPropertyOp55
 70
     1
102
RTVSPropertyOp56
 70
     1
102
RTVSPropertyOp57
 70
     1
102
RTVSPropertyOp58
 70
     1
102
RTVSPropertyOp59
 70
     1
102
RTVSPropertyOp60
 70
     1
102
RTVSPropertyOp61
 70
     1
102
RTVSPropertyOp62
 70
     1
  0
XRECORD
  5
3D48
102
{ACAD_REACTORS
330
3D47
102
}
330
3D47
100
AcDbXrecord
280
     1
102
RTVSPost2010Prop28
280
     0
102
RTVSPost2010PropOp28
 70
     1
102
RTVSPost2010Prop29
280
     1
102
RTVSPost2010PropOp29
 70
     1
102
RTVSPost2010Prop30
280
     1
102
RTVSPost2010PropOp30
 70
     1
102
RTVSPost2010Prop31
280
     0
102
RTVSPost2010PropOp31
 70
     1
102
RTVSPost2010Prop32
280
     0
102
RTVSPost2010PropOp32
 70
     1
102
RTVSPost2010Prop33
280
     0
102
RTVSPost2010PropOp33
 70
     1
102
RTVSPost2010Prop34
280
     0
102
RTVSPost2010PropOp34
 70
     1
102
RTVSPost2010Prop35
280
     0
102
RTVSPost2010PropOp35
 70
     1
102
RTVSPost2010Prop36
280
     0
102
RTVSPost2010PropOp36
 70
     1
102
RTVSPost2010Prop37
 90
       50
102
RTVSPost2010PropOp37
 70
     1
102
RTVSPost2010Prop38
140
0.0
102
RTVSPost2010PropOp38
 70
     1
102
RTVSPost2010Prop39
140
1.0
102
RTVSPost2010PropOp39
 70
     1
102
RTVSPost2010Prop40
 90
        0
102
RTVSPost2010PropOp40
 70
     1
102
RTVSPost2010Prop41ColorIndex
 90
       18
102
RTVSPost2010Prop41ColorRGB
 90
-16777216
102
RTVSPost2010PropOp41
 70
     1
102
RTVSPost2010Prop42
 90
       50
102
RTVSPost2010PropOp42
 70
     1
102
RTVSPost2010Prop43
 90
        3
102
RTVSPost2010PropOp43
 70
     1
102
RTVSPost2010Prop44ColorIndex
 90
        5
102
RTVSPost2010Prop44ColorRGB
 90
      255
102
RTVSPost2010PropOp44
 70
     1
102
RTVSPost2010Prop45
280
     0
102
RTVSPost2010PropOp45
 70
     1
102
RTVSPost2010Prop46
 90
       50
102
RTVSPost2010PropOp46
 70
     1
102
RTVSPost2010Prop47
 90
       50
102
RTVSPost2010PropOp47
 70
     1
102
RTVSPost2010Prop48
 90
       50
102
RTVSPost2010PropOp48
 70
     1
102
RTVSPost2010Prop49
280
     0
102
RTVSPost2010PropOp49
 70
     1
102
RTVSPost2010Prop50
 90
       50
102
RTVSPost2010PropOp50
 70
     1
102
RTVSPost2010Prop51ColorIndex
 90
      256
102
RTVSPost2010Prop51ColorRGB
 90
-16777216
102
RTVSPost2010PropOp51
 70
     0
102
RTVSPost2010Prop52
140
1.0
102
RTVSPost2010PropOp52
 70
     0
102
RTVSPost2010Prop53
 90
        2
102
RTVSPost2010PropOp53
 70
     1
102
RTVSPost2010Prop54
  1
strokes_ogs.tif
102
RTVSPost2010PropOp54
 70
     1
102
RTVSPost2010Prop55
280
     0
102
RTVSPost2010PropOp55
 70
     1
102
RTVSPost2010Prop56
140
1.0
102
RTVSPost2010PropOp56
 70
     1
102
RTVSPost2010Prop57
140
1.0
102
RTVSPost2010PropOp57
 70
     1
102
RTVSPropertyOp0
 70
     1
102
RTVSPropertyOp1
 70
     1
102
RTVSPropertyOp2
 70
     1
102
RTVSPropertyOp3
 70
     1
102
RTVSPropertyOp4
 70
     1
102
RTVSPropertyOp5
 70
     1
102
RTVSPropertyOp6
 70
     1
102
RTVSPropertyOp7
 70
     1
102
RTVSPropertyOp8
 70
     1
102
RTVSPropertyOp9
 70
     1
102
RTVSPropertyOp10
 70
     1
102
RTVSPropertyOp11
 70
     1
102
RTVSPropertyOp12
 70
     1
102
RTVSPropertyOp13
 70
     1
102
RTVSPropertyOp14
 70
     1
102
RTVSPropertyOp15
 70
     1
102
RTVSPropertyOp16
 70
     1
102
RTVSPropertyOp17
 70
     1
102
RTVSPropertyOp18
 70
     1
102
RTVSPropertyOp19
 70
     1
102
RTVSPropertyOp20
 70
     1
102
RTVSPropertyOp21
 70
     1
102
RTVSPropertyOp22
 70
     1
102
RTVSPropertyOp23
 70
     1
102
RTVSPropertyOp24
 70
     1
102
RTVSPropertyOp25
 70
     1
102
RTVSPropertyOp26
 70
     1
102
RTVSPropertyOp27
 70
     1
102
RTVSPropertyOp28
 70
     1
102
RTVSPropertyOp29
 70
     1
102
RTVSPropertyOp30
 70
     1
102
RTVSPropertyOp31
 70
     1
102
RTVSPropertyOp32
 70
     1
102
RTVSPropertyOp33
 70
     1
102
RTVSPropertyOp34
 70
     1
102
RTVSPropertyOp35
 70
     1
102
RTVSPropertyOp36
 70
     1
102
RTVSPropertyOp37
 70
     1
102
RTVSPropertyOp38
 70
     1
102
RTVSPropertyOp39
 70
     1
102
RTVSPropertyOp40
 70
     1
102
RTVSPropertyOp41
 70
     1
102
RTVSPropertyOp42
 70
     1
102
RTVSPropertyOp43
 70
     1
102
RTVSPropertyOp44
 70
     1
102
RTVSPropertyOp45
 70
     1
102
RTVSPropertyOp46
 70
     1
102
RTVSPropertyOp47
 70
     1
102
RTVSPropertyOp48
 70
     1
102
RTVSPropertyOp49
 70
     1
102
RTVSPropertyOp50
 70
     1
102
RTVSPropertyOp51
 70
     0
102
RTVSPropertyOp52
 70
     0
102
RTVSPropertyOp53
 70
     1
102
RTVSPropertyOp54
 70
     1
102
RTVSPropertyOp55
 70
     1
102
RTVSPropertyOp56
 70
     1
102
RTVSPropertyOp57
 70
     1
102
RTVSPropertyOp58
 70
     1
102
RTVSPropertyOp59
 70
     1
102
RTVSPropertyOp60
 70
     1
102
RTVSPropertyOp61
 70
     1
102
RTVSPropertyOp62
 70
     1
  0
XRECORD
  5
3D50
102
{ACAD_REACTORS
330
3D4F
102
}
330
3D4F
100
AcDbXrecord
280
     1
102
RTVSPost2010Prop28
280
     0
102
RTVSPost2010PropOp28
 70
     1
102
RTVSPost2010Prop29
280
     1
102
RTVSPost2010PropOp29
 70
     1
102
RTVSPost2010Prop30
280
     1
102
RTVSPost2010PropOp30
 70
     1
102
RTVSPost2010Prop31
280
     0
102
RTVSPost2010PropOp31
 70
     1
102
RTVSPost2010Prop32
280
     0
102
RTVSPost2010PropOp32
 70
     1
102
RTVSPost2010Prop33
280
     0
102
RTVSPost2010PropOp33
 70
     1
102
RTVSPost2010Prop34
280
     0
102
RTVSPost2010PropOp34
 70
     1
102
RTVSPost2010Prop35
280
     0
102
RTVSPost2010PropOp35
 70
     1
102
RTVSPost2010Prop36
280
     0
102
RTVSPost2010PropOp36
 70
     1
102
RTVSPost2010Prop37
 90
       50
102
RTVSPost2010PropOp37
 70
     1
102
RTVSPost2010Prop38
140
0.0
102
RTVSPost2010PropOp38
 70
     1
102
RTVSPost2010Prop39
140
1.0
102
RTVSPost2010PropOp39
 70
     1
102
RTVSPost2010Prop40
 90
        0
102
RTVSPost2010PropOp40
 70
     1
102
RTVSPost2010Prop41ColorIndex
 90
       18
102
RTVSPost2010Prop41ColorRGB
 90
-16777216
102
RTVSPost2010PropOp41
 70
     1
102
RTVSPost2010Prop42
 90
       50
102
RTVSPost2010PropOp42
 70
     1
102
RTVSPost2010Prop43
 90
        3
102
RTVSPost2010PropOp43
 70
     1
102
RTVSPost2010Prop44ColorIndex
 90
        5
102
RTVSPost2010Prop44ColorRGB
 90
      255
102
RTVSPost2010PropOp44
 70
     1
102
RTVSPost2010Prop45
280
     0
102
RTVSPost2010PropOp45
 70
     1
102
RTVSPost2010Prop46
 90
       50
102
RTVSPost2010PropOp46
 70
     1
102
RTVSPost2010Prop47
 90
       50
102
RTVSPost2010PropOp47
 70
     1
102
RTVSPost2010Prop48
 90
       50
102
RTVSPost2010PropOp48
 70
     1
102
RTVSPost2010Prop49
280
     0
102
RTVSPost2010PropOp49
 70
     1
102
RTVSPost2010Prop50
 90
       50
102
RTVSPost2010PropOp50
 70
     1
102
RTVSPost2010Prop51ColorIndex
 90
      256
102
RTVSPost2010Prop51ColorRGB
 90
-16777216
102
RTVSPost2010PropOp51
 70
     0
102
RTVSPost2010Prop52
140
1.0
102
RTVSPost2010PropOp52
 70
     0
102
RTVSPost2010Prop53
 90
        2
102
RTVSPost2010PropOp53
 70
     1
102
RTVSPost2010Prop54
  1
strokes_ogs.tif
102
RTVSPost2010PropOp54
 70
     1
102
RTVSPost2010Prop55
280
     0
102
RTVSPost2010PropOp55
 70
     1
102
RTVSPost2010Prop56
140
1.0
102
RTVSPost2010PropOp56
 70
     1
102
RTVSPost2010Prop57
140
1.0
102
RTVSPost2010PropOp57
 70
     1
102
RTVSPropertyOp0
 70
     1
102
RTVSPropertyOp1
 70
     1
102
RTVSPropertyOp2
 70
     1
102
RTVSPropertyOp3
 70
     1
102
RTVSPropertyOp4
 70
     1
102
RTVSPropertyOp5
 70
     1
102
RTVSPropertyOp6
 70
     1
102
RTVSPropertyOp7
 70
     1
102
RTVSPropertyOp8
 70
     1
102
RTVSPropertyOp9
 70
     1
102
RTVSPropertyOp10
 70
     1
102
RTVSPropertyOp11
 70
     1
102
RTVSPropertyOp12
 70
     1
102
RTVSPropertyOp13
 70
     1
102
RTVSPropertyOp14
 70
     1
102
RTVSPropertyOp15
 70
     1
102
RTVSPropertyOp16
 70
     1
102
RTVSPropertyOp17
 70
     1
102
RTVSPropertyOp18
 70
     1
102
RTVSPropertyOp19
 70
     1
102
RTVSPropertyOp20
 70
     1
102
RTVSPropertyOp21
 70
     1
102
RTVSPropertyOp22
 70
     1
102
RTVSPropertyOp23
 70
     1
102
RTVSPropertyOp24
 70
     1
102
RTVSPropertyOp25
 70
     1
102
RTVSPropertyOp26
 70
     1
102
RTVSPropertyOp27
 70
     1
102
RTVSPropertyOp28
 70
     1
102
RTVSPropertyOp29
 70
     1
102
RTVSPropertyOp30
 70
     1
102
RTVSPropertyOp31
 70
     1
102
RTVSPropertyOp32
 70
     1
102
RTVSPropertyOp33
 70
     1
102
RTVSPropertyOp34
 70
     1
102
RTVSPropertyOp35
 70
     1
102
RTVSPropertyOp36
 70
     1
102
RTVSPropertyOp37
 70
     1
102
RTVSPropertyOp38
 70
     1
102
RTVSPropertyOp39
 70
     1
102
RTVSPropertyOp40
 70
     1
102
RTVSPropertyOp41
 70
     1
102
RTVSPropertyOp42
 70
     1
102
RTVSPropertyOp43
 70
     1
102
RTVSPropertyOp44
 70
     1
102
RTVSPropertyOp45
 70
     1
102
RTVSPropertyOp46
 70
     1
102
RTVSPropertyOp47
 70
     1
102
RTVSPropertyOp48
 70
     1
102
RTVSPropertyOp49
 70
     1
102
RTVSPropertyOp50
 70
     1
102
RTVSPropertyOp51
 70
     0
102
RTVSPropertyOp52
 70
     0
102
RTVSPropertyOp53
 70
     1
102
RTVSPropertyOp54
 70
     1
102
RTVSPropertyOp55
 70
     1
102
RTVSPropertyOp56
 70
     1
102
RTVSPropertyOp57
 70
     1
102
RTVSPropertyOp58
 70
     1
102
RTVSPropertyOp59
 70
     1
102
RTVSPropertyOp60
 70
     1
102
RTVSPropertyOp61
 70
     1
102
RTVSPropertyOp62
 70
     1
  0
XRECORD
  5
3D42
102
{ACAD_REACTORS
330
3D41
102
}
330
3D41
100
AcDbXrecord
280
     1
102
RTVSPost2010Prop28
280
     0
102
RTVSPost2010PropOp28
 70
     1
102
RTVSPost2010Prop29
280
     1
102
RTVSPost2010PropOp29
 70
     1
102
RTVSPost2010Prop30
280
     1
102
RTVSPost2010PropOp30
 70
     1
102
RTVSPost2010Prop31
280
     0
102
RTVSPost2010PropOp31
 70
     1
102
RTVSPost2010Prop32
280
     0
102
RTVSPost2010PropOp32
 70
     1
102
RTVSPost2010Prop33
280
     0
102
RTVSPost2010PropOp33
 70
     1
102
RTVSPost2010Prop34
280
     0
102
RTVSPost2010PropOp34
 70
     1
102
RTVSPost2010Prop35
280
     0
102
RTVSPost2010PropOp35
 70
     1
102
RTVSPost2010Prop36
280
     0
102
RTVSPost2010PropOp36
 70
     1
102
RTVSPost2010Prop37
 90
       50
102
RTVSPost2010PropOp37
 70
     1
102
RTVSPost2010Prop38
140
0.0
102
RTVSPost2010PropOp38
 70
     1
102
RTVSPost2010Prop39
140
1.0
102
RTVSPost2010PropOp39
 70
     1
102
RTVSPost2010Prop40
 90
        0
102
RTVSPost2010PropOp40
 70
     1
102
RTVSPost2010Prop41ColorIndex
 90
       18
102
RTVSPost2010Prop41ColorRGB
 90
-16777216
102
RTVSPost2010PropOp41
 70
     1
102
RTVSPost2010Prop42
 90
       50
102
RTVSPost2010PropOp42
 70
     1
102
RTVSPost2010Prop43
 90
        3
102
RTVSPost2010PropOp43
 70
     1
102
RTVSPost2010Prop44ColorIndex
 90
        5
102
RTVSPost2010Prop44ColorRGB
 90
      255
102
RTVSPost2010PropOp44
 70
     1
102
RTVSPost2010Prop45
280
     0
102
RTVSPost2010PropOp45
 70
     1
102
RTVSPost2010Prop46
 90
       50
102
RTVSPost2010PropOp46
 70
     1
102
RTVSPost2010Prop47
 90
       50
102
RTVSPost2010PropOp47
 70
     1
102
RTVSPost2010Prop48
 90
       50
102
RTVSPost2010PropOp48
 70
     1
102
RTVSPost2010Prop49
280
     0
102
RTVSPost2010PropOp49
 70
     1
102
RTVSPost2010Prop50
 90
       50
102
RTVSPost2010PropOp50
 70
     1
102
RTVSPost2010Prop51ColorIndex
 90
      256
102
RTVSPost2010Prop51ColorRGB
 90
-16777216
102
RTVSPost2010PropOp51
 70
     0
102
RTVSPost2010Prop52
140
1.0
102
RTVSPost2010PropOp52
 70
     0
102
RTVSPost2010Prop53
 90
        2
102
RTVSPost2010PropOp53
 70
     1
102
RTVSPost2010Prop54
  1
strokes_ogs.tif
102
RTVSPost2010PropOp54
 70
     1
102
RTVSPost2010Prop55
280
     0
102
RTVSPost2010PropOp55
 70
     1
102
RTVSPost2010Prop56
140
1.0
102
RTVSPost2010PropOp56
 70
     1
102
RTVSPost2010Prop57
140
1.0
102
RTVSPost2010PropOp57
 70
     1
102
RTVSPropertyOp0
 70
     1
102
RTVSPropertyOp1
 70
     1
102
RTVSPropertyOp2
 70
     1
102
RTVSPropertyOp3
 70
     1
102
RTVSPropertyOp4
 70
     1
102
RTVSPropertyOp5
 70
     1
102
RTVSPropertyOp6
 70
     1
102
RTVSPropertyOp7
 70
     1
102
RTVSPropertyOp8
 70
     1
102
RTVSPropertyOp9
 70
     1
102
RTVSPropertyOp10
 70
     1
102
RTVSPropertyOp11
 70
     1
102
RTVSPropertyOp12
 70
     1
102
RTVSPropertyOp13
 70
     1
102
RTVSPropertyOp14
 70
     1
102
RTVSPropertyOp15
 70
     1
102
RTVSPropertyOp16
 70
     1
102
RTVSPropertyOp17
 70
     1
102
RTVSPropertyOp18
 70
     1
102
RTVSPropertyOp19
 70
     1
102
RTVSPropertyOp20
 70
     1
102
RTVSPropertyOp21
 70
     1
102
RTVSPropertyOp22
 70
     1
102
RTVSPropertyOp23
 70
     1
102
RTVSPropertyOp24
 70
     1
102
RTVSPropertyOp25
 70
     1
102
RTVSPropertyOp26
 70
     1
102
RTVSPropertyOp27
 70
     1
102
RTVSPropertyOp28
 70
     1
102
RTVSPropertyOp29
 70
     1
102
RTVSPropertyOp30
 70
     1
102
RTVSPropertyOp31
 70
     1
102
RTVSPropertyOp32
 70
     1
102
RTVSPropertyOp33
 70
     1
102
RTVSPropertyOp34
 70
     1
102
RTVSPropertyOp35
 70
     1
102
RTVSPropertyOp36
 70
     1
102
RTVSPropertyOp37
 70
     1
102
RTVSPropertyOp38
 70
     1
102
RTVSPropertyOp39
 70
     1
102
RTVSPropertyOp40
 70
     1
102
RTVSPropertyOp41
 70
     1
102
RTVSPropertyOp42
 70
     1
102
RTVSPropertyOp43
 70
     1
102
RTVSPropertyOp44
 70
     1
102
RTVSPropertyOp45
 70
     1
102
RTVSPropertyOp46
 70
     1
102
RTVSPropertyOp47
 70
     1
102
RTVSPropertyOp48
 70
     1
102
RTVSPropertyOp49
 70
     1
102
RTVSPropertyOp50
 70
     1
102
RTVSPropertyOp51
 70
     0
102
RTVSPropertyOp52
 70
     0
102
RTVSPropertyOp53
 70
     1
102
RTVSPropertyOp54
 70
     1
102
RTVSPropertyOp55
 70
     1
102
RTVSPropertyOp56
 70
     1
102
RTVSPropertyOp57
 70
     1
102
RTVSPropertyOp58
 70
     1
102
RTVSPropertyOp59
 70
     1
102
RTVSPropertyOp60
 70
     1
102
RTVSPropertyOp61
 70
     1
102
RTVSPropertyOp62
 70
     1
  0
XRECORD
  5
3D46
102
{ACAD_REACTORS
330
3D45
102
}
330
3D45
100
AcDbXrecord
280
     1
102
RTVSPost2010Prop28
280
     0
102
RTVSPost2010PropOp28
 70
     1
102
RTVSPost2010Prop29
280
     1
102
RTVSPost2010PropOp29
 70
     1
102
RTVSPost2010Prop30
280
     1
102
RTVSPost2010PropOp30
 70
     1
102
RTVSPost2010Prop31
280
     0
102
RTVSPost2010PropOp31
 70
     1
102
RTVSPost2010Prop32
280
     0
102
RTVSPost2010PropOp32
 70
     1
102
RTVSPost2010Prop33
280
     0
102
RTVSPost2010PropOp33
 70
     1
102
RTVSPost2010Prop34
280
     0
102
RTVSPost2010PropOp34
 70
     1
102
RTVSPost2010Prop35
280
     0
102
RTVSPost2010PropOp35
 70
     1
102
RTVSPost2010Prop36
280
     0
102
RTVSPost2010PropOp36
 70
     1
102
RTVSPost2010Prop37
 90
       50
102
RTVSPost2010PropOp37
 70
     1
102
RTVSPost2010Prop38
140
0.0
102
RTVSPost2010PropOp38
 70
     1
102
RTVSPost2010Prop39
140
1.0
102
RTVSPost2010PropOp39
 70
     1
102
RTVSPost2010Prop40
 90
        0
102
RTVSPost2010PropOp40
 70
     1
102
RTVSPost2010Prop41ColorIndex
 90
       18
102
RTVSPost2010Prop41ColorRGB
 90
-16777216
102
RTVSPost2010PropOp41
 70
     1
102
RTVSPost2010Prop42
 90
       50
102
RTVSPost2010PropOp42
 70
     1
102
RTVSPost2010Prop43
 90
        3
102
RTVSPost2010PropOp43
 70
     1
102
RTVSPost2010Prop44ColorIndex
 90
        5
102
RTVSPost2010Prop44ColorRGB
 90
      255
102
RTVSPost2010PropOp44
 70
     1
102
RTVSPost2010Prop45
280
     0
102
RTVSPost2010PropOp45
 70
     1
102
RTVSPost2010Prop46
 90
       50
102
RTVSPost2010PropOp46
 70
     1
102
RTVSPost2010Prop47
 90
       50
102
RTVSPost2010PropOp47
 70
     1
102
RTVSPost2010Prop48
 90
       50
102
RTVSPost2010PropOp48
 70
     1
102
RTVSPost2010Prop49
280
     0
102
RTVSPost2010PropOp49
 70
     1
102
RTVSPost2010Prop50
 90
       50
102
RTVSPost2010PropOp50
 70
     1
102
RTVSPost2010Prop51ColorIndex
 90
      256
102
RTVSPost2010Prop51ColorRGB
 90
-16777216
102
RTVSPost2010PropOp51
 70
     0
102
RTVSPost2010Prop52
140
1.0
102
RTVSPost2010PropOp52
 70
     0
102
RTVSPost2010Prop53
 90
        2
102
RTVSPost2010PropOp53
 70
     1
102
RTVSPost2010Prop54
  1
strokes_ogs.tif
102
RTVSPost2010PropOp54
 70
     1
102
RTVSPost2010Prop55
280
     0
102
RTVSPost2010PropOp55
 70
     1
102
RTVSPost2010Prop56
140
1.0
102
RTVSPost2010PropOp56
 70
     1
102
RTVSPost2010Prop57
140
1.0
102
RTVSPost2010PropOp57
 70
     1
102
RTVSPropertyOp0
 70
     1
102
RTVSPropertyOp1
 70
     1
102
RTVSPropertyOp2
 70
     1
102
RTVSPropertyOp3
 70
     1
102
RTVSPropertyOp4
 70
     1
102
RTVSPropertyOp5
 70
     1
102
RTVSPropertyOp6
 70
     1
102
RTVSPropertyOp7
 70
     1
102
RTVSPropertyOp8
 70
     1
102
RTVSPropertyOp9
 70
     1
102
RTVSPropertyOp10
 70
     1
102
RTVSPropertyOp11
 70
     1
102
RTVSPropertyOp12
 70
     1
102
RTVSPropertyOp13
 70
     1
102
RTVSPropertyOp14
 70
     1
102
RTVSPropertyOp15
 70
     1
102
RTVSPropertyOp16
 70
     1
102
RTVSPropertyOp17
 70
     1
102
RTVSPropertyOp18
 70
     1
102
RTVSPropertyOp19
 70
     1
102
RTVSPropertyOp20
 70
     1
102
RTVSPropertyOp21
 70
     1
102
RTVSPropertyOp22
 70
     1
102
RTVSPropertyOp23
 70
     1
102
RTVSPropertyOp24
 70
     1
102
RTVSPropertyOp25
 70
     1
102
RTVSPropertyOp26
 70
     1
102
RTVSPropertyOp27
 70
     1
102
RTVSPropertyOp28
 70
     1
102
RTVSPropertyOp29
 70
     1
102
RTVSPropertyOp30
 70
     1
102
RTVSPropertyOp31
 70
     1
102
RTVSPropertyOp32
 70
     1
102
RTVSPropertyOp33
 70
     1
102
RTVSPropertyOp34
 70
     1
102
RTVSPropertyOp35
 70
     1
102
RTVSPropertyOp36
 70
     1
102
RTVSPropertyOp37
 70
     1
102
RTVSPropertyOp38
 70
     1
102
RTVSPropertyOp39
 70
     1
102
RTVSPropertyOp40
 70
     1
102
RTVSPropertyOp41
 70
     1
102
RTVSPropertyOp42
 70
     1
102
RTVSPropertyOp43
 70
     1
102
RTVSPropertyOp44
 70
     1
102
RTVSPropertyOp45
 70
     1
102
RTVSPropertyOp46
 70
     1
102
RTVSPropertyOp47
 70
     1
102
RTVSPropertyOp48
 70
     1
102
RTVSPropertyOp49
 70
     1
102
RTVSPropertyOp50
 70
     1
102
RTVSPropertyOp51
 70
     0
102
RTVSPropertyOp52
 70
     0
102
RTVSPropertyOp53
 70
     1
102
RTVSPropertyOp54
 70
     1
102
RTVSPropertyOp55
 70
     1
102
RTVSPropertyOp56
 70
     1
102
RTVSPropertyOp57
 70
     1
102
RTVSPropertyOp58
 70
     1
102
RTVSPropertyOp59
 70
     1
102
RTVSPropertyOp60
 70
     1
102
RTVSPropertyOp61
 70
     1
102
RTVSPropertyOp62
 70
     1
  0
XRECORD
  5
3D60
102
{ACAD_REACTORS
330
3D5F
102
}
330
3D5F
100
AcDbXrecord
280
     1
102
RTVSPost2010Prop28
280
     0
102
RTVSPost2010PropOp28
 70
     0
102
RTVSPost2010Prop29
280
     1
102
RTVSPost2010PropOp29
 70
     0
102
RTVSPost2010Prop30
280
     1
102
RTVSPost2010PropOp30
 70
     0
102
RTVSPost2010Prop31
280
     0
102
RTVSPost2010PropOp31
 70
     0
102
RTVSPost2010Prop32
280
     0
102
RTVSPost2010PropOp32
 70
     0
102
RTVSPost2010Prop33
280
     0
102
RTVSPost2010PropOp33
 70
     0
102
RTVSPost2010Prop34
280
     0
102
RTVSPost2010PropOp34
 70
     0
102
RTVSPost2010Prop35
280
     0
102
RTVSPost2010PropOp35
 70
     0
102
RTVSPost2010Prop36
280
     0
102
RTVSPost2010PropOp36
 70
     0
102
RTVSPost2010Prop37
 90
       50
102
RTVSPost2010PropOp37
 70
     0
102
RTVSPost2010Prop38
140
0.0
102
RTVSPost2010PropOp38
 70
     0
102
RTVSPost2010Prop39
140
1.0
102
RTVSPost2010PropOp39
 70
     0
102
RTVSPost2010Prop40
 90
        0
102
RTVSPost2010PropOp40
 70
     0
102
RTVSPost2010Prop41ColorIndex
 90
       18
102
RTVSPost2010Prop41ColorRGB
 90
-16777216
102
RTVSPost2010PropOp41
 70
     0
102
RTVSPost2010Prop42
 90
       50
102
RTVSPost2010PropOp42
 70
     0
102
RTVSPost2010Prop43
 90
        3
102
RTVSPost2010PropOp43
 70
     0
102
RTVSPost2010Prop44ColorIndex
 90
        5
102
RTVSPost2010Prop44ColorRGB
 90
      255
102
RTVSPost2010PropOp44
 70
     0
102
RTVSPost2010Prop45
280
     0
102
RTVSPost2010PropOp45
 70
     0
102
RTVSPost2010Prop46
 90
       50
102
RTVSPost2010PropOp46
 70
     0
102
RTVSPost2010Prop47
 90
       50
102
RTVSPost2010PropOp47
 70
     0
102
RTVSPost2010Prop48
 90
       50
102
RTVSPost2010PropOp48
 70
     0
102
RTVSPost2010Prop49
280
     0
102
RTVSPost2010PropOp49
 70
     0
102
RTVSPost2010Prop50
 90
       50
102
RTVSPost2010PropOp50
 70
     0
102
RTVSPost2010Prop51ColorIndex
 90
      256
102
RTVSPost2010Prop51ColorRGB
 90
-16777216
102
RTVSPost2010PropOp51
 70
     0
102
RTVSPost2010Prop52
140
1.0
102
RTVSPost2010PropOp52
 70
     0
102
RTVSPost2010Prop53
 90
        2
102
RTVSPost2010PropOp53
 70
     0
102
RTVSPost2010Prop54
  1
strokes_ogs.tif
102
RTVSPost2010PropOp54
 70
     0
102
RTVSPost2010Prop55
280
     0
102
RTVSPost2010PropOp55
 70
     0
102
RTVSPost2010Prop56
140
1.0
102
RTVSPost2010PropOp56
 70
     0
102
RTVSPost2010Prop57
140
1.0
102
RTVSPost2010PropOp57
 70
     0
102
RTVSPropertyOp0
 70
     0
102
RTVSPropertyOp1
 70
     0
102
RTVSPropertyOp2
 70
     0
102
RTVSPropertyOp3
 70
     0
102
RTVSPropertyOp4
 70
     0
102
RTVSPropertyOp5
 70
     0
102
RTVSPropertyOp6
 70
     0
102
RTVSPropertyOp7
 70
     0
102
RTVSPropertyOp8
 70
     0
102
RTVSPropertyOp9
 70
     0
102
RTVSPropertyOp10
 70
     0
102
RTVSPropertyOp11
 70
     0
102
RTVSPropertyOp12
 70
     0
102
RTVSPropertyOp13
 70
     0
102
RTVSPropertyOp14
 70
     2
102
RTVSPropertyOp15
 70
     0
102
RTVSPropertyOp16
 70
     0
102
RTVSPropertyOp17
 70
     0
102
RTVSPropertyOp18
 70
     0
102
RTVSPropertyOp19
 70
     0
102
RTVSPropertyOp20
 70
     0
102
RTVSPropertyOp21
 70
     0
102
RTVSPropertyOp22
 70
     0
102
RTVSPropertyOp23
 70
     0
102
RTVSPropertyOp24
 70
     0
102
RTVSPropertyOp25
 70
     0
102
RTVSPropertyOp26
 70
     0
102
RTVSPropertyOp27
 70
     0
102
RTVSPropertyOp28
 70
     0
102
RTVSPropertyOp29
 70
     0
102
RTVSPropertyOp30
 70
     0
102
RTVSPropertyOp31
 70
     0
102
RTVSPropertyOp32
 70
     0
102
RTVSPropertyOp33
 70
     0
102
RTVSPropertyOp34
 70
     0
102
RTVSPropertyOp35
 70
     0
102
RTVSPropertyOp36
 70
     0
102
RTVSPropertyOp37
 70
     0
102
RTVSPropertyOp38
 70
     0
102
RTVSPropertyOp39
 70
     0
102
RTVSPropertyOp40
 70
     0
102
RTVSPropertyOp41
 70
     0
102
RTVSPropertyOp42
 70
     0
102
RTVSPropertyOp43
 70
     0
102
RTVSPropertyOp44
 70
     0
102
RTVSPropertyOp45
 70
     0
102
RTVSPropertyOp46
 70
     0
102
RTVSPropertyOp47
 70
     0
102
RTVSPropertyOp48
 70
     0
102
RTVSPropertyOp49
 70
     0
102
RTVSPropertyOp50
 70
     0
102
RTVSPropertyOp51
 70
     0
102
RTVSPropertyOp52
 70
     0
102
RTVSPropertyOp53
 70
     0
102
RTVSPropertyOp54
 70
     0
102
RTVSPropertyOp55
 70
     0
102
RTVSPropertyOp56
 70
     0
102
RTVSPropertyOp57
 70
     0
102
RTVSPropertyOp58
 70
     1
102
RTVSPropertyOp59
 70
     1
102
RTVSPropertyOp60
 70
     1
102
RTVSPropertyOp61
 70
     1
102
RTVSPropertyOp62
 70
     1
  0
XRECORD
  5
3D4E
102
{ACAD_REACTORS
330
3D4D
102
}
330
3D4D
100
AcDbXrecord
280
     1
102
RTVSPost2010Prop28
280
     0
102
RTVSPost2010PropOp28
 70
     1
102
RTVSPost2010Prop29
280
     1
102
RTVSPost2010PropOp29
 70
     1
102
RTVSPost2010Prop30
280
     1
102
RTVSPost2010PropOp30
 70
     1
102
RTVSPost2010Prop31
280
     0
102
RTVSPost2010PropOp31
 70
     1
102
RTVSPost2010Prop32
280
     0
102
RTVSPost2010PropOp32
 70
     1
102
RTVSPost2010Prop33
280
     0
102
RTVSPost2010PropOp33
 70
     1
102
RTVSPost2010Prop34
280
     0
102
RTVSPost2010PropOp34
 70
     1
102
RTVSPost2010Prop35
280
     0
102
RTVSPost2010PropOp35
 70
     1
102
RTVSPost2010Prop36
280
     0
102
RTVSPost2010PropOp36
 70
     1
102
RTVSPost2010Prop37
 90
       50
102
RTVSPost2010PropOp37
 70
     1
102
RTVSPost2010Prop38
140
0.0
102
RTVSPost2010PropOp38
 70
     1
102
RTVSPost2010Prop39
140
1.0
102
RTVSPost2010PropOp39
 70
     1
102
RTVSPost2010Prop40
 90
        0
102
RTVSPost2010PropOp40
 70
     1
102
RTVSPost2010Prop41ColorIndex
 90
       18
102
RTVSPost2010Prop41ColorRGB
 90
-16777216
102
RTVSPost2010PropOp41
 70
     1
102
RTVSPost2010Prop42
 90
       50
102
RTVSPost2010PropOp42
 70
     1
102
RTVSPost2010Prop43
 90
        3
102
RTVSPost2010PropOp43
 70
     1
102
RTVSPost2010Prop44ColorIndex
 90
        5
102
RTVSPost2010Prop44ColorRGB
 90
      255
102
RTVSPost2010PropOp44
 70
     1
102
RTVSPost2010Prop45
280
     0
102
RTVSPost2010PropOp45
 70
     1
102
RTVSPost2010Prop46
 90
       50
102
RTVSPost2010PropOp46
 70
     1
102
RTVSPost2010Prop47
 90
       50
102
RTVSPost2010PropOp47
 70
     1
102
RTVSPost2010Prop48
 90
       50
102
RTVSPost2010PropOp48
 70
     1
102
RTVSPost2010Prop49
280
     0
102
RTVSPost2010PropOp49
 70
     1
102
RTVSPost2010Prop50
 90
       50
102
RTVSPost2010PropOp50
 70
     1
102
RTVSPost2010Prop51ColorIndex
 90
      256
102
RTVSPost2010Prop51ColorRGB
 90
-16777216
102
RTVSPost2010PropOp51
 70
     0
102
RTVSPost2010Prop52
140
1.0
102
RTVSPost2010PropOp52
 70
     0
102
RTVSPost2010Prop53
 90
        2
102
RTVSPost2010PropOp53
 70
     1
102
RTVSPost2010Prop54
  1
strokes_ogs.tif
102
RTVSPost2010PropOp54
 70
     1
102
RTVSPost2010Prop55
280
     0
102
RTVSPost2010PropOp55
 70
     1
102
RTVSPost2010Prop56
140
1.0
102
RTVSPost2010PropOp56
 70
     1
102
RTVSPost2010Prop57
140
1.0
102
RTVSPost2010PropOp57
 70
     1
102
RTVSPropertyOp0
 70
     1
102
RTVSPropertyOp1
 70
     1
102
RTVSPropertyOp2
 70
     1
102
RTVSPropertyOp3
 70
     1
102
RTVSPropertyOp4
 70
     1
102
RTVSPropertyOp5
 70
     1
102
RTVSPropertyOp6
 70
     1
102
RTVSPropertyOp7
 70
     1
102
RTVSPropertyOp8
 70
     1
102
RTVSPropertyOp9
 70
     1
102
RTVSPropertyOp10
 70
     1
102
RTVSPropertyOp11
 70
     1
102
RTVSPropertyOp12
 70
     1
102
RTVSPropertyOp13
 70
     1
102
RTVSPropertyOp14
 70
     1
102
RTVSPropertyOp15
 70
     1
102
RTVSPropertyOp16
 70
     1
102
RTVSPropertyOp17
 70
     1
102
RTVSPropertyOp18
 70
     1
102
RTVSPropertyOp19
 70
     1
102
RTVSPropertyOp20
 70
     1
102
RTVSPropertyOp21
 70
     1
102
RTVSPropertyOp22
 70
     1
102
RTVSPropertyOp23
 70
     1
102
RTVSPropertyOp24
 70
     1
102
RTVSPropertyOp25
 70
     1
102
RTVSPropertyOp26
 70
     1
102
RTVSPropertyOp27
 70
     1
102
RTVSPropertyOp28
 70
     1
102
RTVSPropertyOp29
 70
     1
102
RTVSPropertyOp30
 70
     1
102
RTVSPropertyOp31
 70
     1
102
RTVSPropertyOp32
 70
     1
102
RTVSPropertyOp33
 70
     1
102
RTVSPropertyOp34
 70
     1
102
RTVSPropertyOp35
 70
     1
102
RTVSPropertyOp36
 70
     1
102
RTVSPropertyOp37
 70
     1
102
RTVSPropertyOp38
 70
     1
102
RTVSPropertyOp39
 70
     1
102
RTVSPropertyOp40
 70
     1
102
RTVSPropertyOp41
 70
     1
102
RTVSPropertyOp42
 70
     1
102
RTVSPropertyOp43
 70
     1
102
RTVSPropertyOp44
 70
     1
102
RTVSPropertyOp45
 70
     1
102
RTVSPropertyOp46
 70
     1
102
RTVSPropertyOp47
 70
     1
102
RTVSPropertyOp48
 70
     1
102
RTVSPropertyOp49
 70
     1
102
RTVSPropertyOp50
 70
     1
102
RTVSPropertyOp51
 70
     0
102
RTVSPropertyOp52
 70
     0
102
RTVSPropertyOp53
 70
     1
102
RTVSPropertyOp54
 70
     1
102
RTVSPropertyOp55
 70
     1
102
RTVSPropertyOp56
 70
     1
102
RTVSPropertyOp57
 70
     1
102
RTVSPropertyOp58
 70
     1
102
RTVSPropertyOp59
 70
     1
102
RTVSPropertyOp60
 70
     1
102
RTVSPropertyOp61
 70
     1
102
RTVSPropertyOp62
 70
     1
  0
XRECORD
  5
3D32
102
{ACAD_REACTORS
330
3D31
102
}
330
3D31
100
AcDbXrecord
280
     1
102
RTVSPost2010Prop28
280
     0
102
RTVSPost2010PropOp28
 70
     1
102
RTVSPost2010Prop29
280
     1
102
RTVSPost2010PropOp29
 70
     1
102
RTVSPost2010Prop30
280
     1
102
RTVSPost2010PropOp30
 70
     1
102
RTVSPost2010Prop31
280
     0
102
RTVSPost2010PropOp31
 70
     1
102
RTVSPost2010Prop32
280
     0
102
RTVSPost2010PropOp32
 70
     1
102
RTVSPost2010Prop33
280
     0
102
RTVSPost2010PropOp33
 70
     1
102
RTVSPost2010Prop34
280
     0
102
RTVSPost2010PropOp34
 70
     1
102
RTVSPost2010Prop35
280
     0
102
RTVSPost2010PropOp35
 70
     1
102
RTVSPost2010Prop36
280
     0
102
RTVSPost2010PropOp36
 70
     1
102
RTVSPost2010Prop37
 90
       50
102
RTVSPost2010PropOp37
 70
     1
102
RTVSPost2010Prop38
140
0.0
102
RTVSPost2010PropOp38
 70
     1
102
RTVSPost2010Prop39
140
1.0
102
RTVSPost2010PropOp39
 70
     1
102
RTVSPost2010Prop40
 90
        0
102
RTVSPost2010PropOp40
 70
     1
102
RTVSPost2010Prop41ColorIndex
 90
       18
102
RTVSPost2010Prop41ColorRGB
 90
-16777216
102
RTVSPost2010PropOp41
 70
     1
102
RTVSPost2010Prop42
 90
       50
102
RTVSPost2010PropOp42
 70
     1
102
RTVSPost2010Prop43
 90
        3
102
RTVSPost2010PropOp43
 70
     1
102
RTVSPost2010Prop44ColorIndex
 90
        5
102
RTVSPost2010Prop44ColorRGB
 90
      255
102
RTVSPost2010PropOp44
 70
     1
102
RTVSPost2010Prop45
280
     0
102
RTVSPost2010PropOp45
 70
     1
102
RTVSPost2010Prop46
 90
       50
102
RTVSPost2010PropOp46
 70
     1
102
RTVSPost2010Prop47
 90
       50
102
RTVSPost2010PropOp47
 70
     1
102
RTVSPost2010Prop48
 90
       50
102
RTVSPost2010PropOp48
 70
     1
102
RTVSPost2010Prop49
280
     0
102
RTVSPost2010PropOp49
 70
     1
102
RTVSPost2010Prop50
 90
       50
102
RTVSPost2010PropOp50
 70
     1
102
RTVSPost2010Prop51ColorIndex
 90
      256
102
RTVSPost2010Prop51ColorRGB
 90
-16777216
102
RTVSPost2010PropOp51
 70
     0
102
RTVSPost2010Prop52
140
1.0
102
RTVSPost2010PropOp52
 70
     0
102
RTVSPost2010Prop53
 90
        2
102
RTVSPost2010PropOp53
 70
     1
102
RTVSPost2010Prop54
  1
strokes_ogs.tif
102
RTVSPost2010PropOp54
 70
     1
102
RTVSPost2010Prop55
280
     0
102
RTVSPost2010PropOp55
 70
     1
102
RTVSPost2010Prop56
140
1.0
102
RTVSPost2010PropOp56
 70
     1
102
RTVSPost2010Prop57
140
1.0
102
RTVSPost2010PropOp57
 70
     1
102
RTVSPropertyOp0
 70
     1
102
RTVSPropertyOp1
 70
     1
102
RTVSPropertyOp2
 70
     1
102
RTVSPropertyOp3
 70
     1
102
RTVSPropertyOp4
 70
     1
102
RTVSPropertyOp5
 70
     1
102
RTVSPropertyOp6
 70
     1
102
RTVSPropertyOp7
 70
     1
102
RTVSPropertyOp8
 70
     1
102
RTVSPropertyOp9
 70
     1
102
RTVSPropertyOp10
 70
     1
102
RTVSPropertyOp11
 70
     1
102
RTVSPropertyOp12
 70
     1
102
RTVSPropertyOp13
 70
     1
102
RTVSPropertyOp14
 70
     1
102
RTVSPropertyOp15
 70
     1
102
RTVSPropertyOp16
 70
     1
102
RTVSPropertyOp17
 70
     1
102
RTVSPropertyOp18
 70
     1
102
RTVSPropertyOp19
 70
     1
102
RTVSPropertyOp20
 70
     1
102
RTVSPropertyOp21
 70
     1
102
RTVSPropertyOp22
 70
     1
102
RTVSPropertyOp23
 70
     1
102
RTVSPropertyOp24
 70
     1
102
RTVSPropertyOp25
 70
     1
102
RTVSPropertyOp26
 70
     1
102
RTVSPropertyOp27
 70
     1
102
RTVSPropertyOp28
 70
     1
102
RTVSPropertyOp29
 70
     1
102
RTVSPropertyOp30
 70
     1
102
RTVSPropertyOp31
 70
     1
102
RTVSPropertyOp32
 70
     1
102
RTVSPropertyOp33
 70
     1
102
RTVSPropertyOp34
 70
     1
102
RTVSPropertyOp35
 70
     1
102
RTVSPropertyOp36
 70
     1
102
RTVSPropertyOp37
 70
     1
102
RTVSPropertyOp38
 70
     1
102
RTVSPropertyOp39
 70
     1
102
RTVSPropertyOp40
 70
     1
102
RTVSPropertyOp41
 70
     1
102
RTVSPropertyOp42
 70
     1
102
RTVSPropertyOp43
 70
     1
102
RTVSPropertyOp44
 70
     1
102
RTVSPropertyOp45
 70
     1
102
RTVSPropertyOp46
 70
     1
102
RTVSPropertyOp47
 70
     1
102
RTVSPropertyOp48
 70
     1
102
RTVSPropertyOp49
 70
     1
102
RTVSPropertyOp50
 70
     1
102
RTVSPropertyOp51
 70
     0
102
RTVSPropertyOp52
 70
     0
102
RTVSPropertyOp53
 70
     1
102
RTVSPropertyOp54
 70
     1
102
RTVSPropertyOp55
 70
     1
102
RTVSPropertyOp56
 70
     1
102
RTVSPropertyOp57
 70
     1
102
RTVSPropertyOp58
 70
     1
102
RTVSPropertyOp59
 70
     1
102
RTVSPropertyOp60
 70
     1
102
RTVSPropertyOp61
 70
     1
102
RTVSPropertyOp62
 70
     1
  0
XRECORD
  5
3D34
102
{ACAD_REACTORS
330
3D33
102
}
330
3D33
100
AcDbXrecord
280
     1
102
RTVSPost2010Prop28
280
     0
102
RTVSPost2010PropOp28
 70
     1
102
RTVSPost2010Prop29
280
     1
102
RTVSPost2010PropOp29
 70
     1
102
RTVSPost2010Prop30
280
     1
102
RTVSPost2010PropOp30
 70
     1
102
RTVSPost2010Prop31
280
     0
102
RTVSPost2010PropOp31
 70
     1
102
RTVSPost2010Prop32
280
     0
102
RTVSPost2010PropOp32
 70
     1
102
RTVSPost2010Prop33
280
     0
102
RTVSPost2010PropOp33
 70
     1
102
RTVSPost2010Prop34
280
     0
102
RTVSPost2010PropOp34
 70
     1
102
RTVSPost2010Prop35
280
     0
102
RTVSPost2010PropOp35
 70
     1
102
RTVSPost2010Prop36
280
     0
102
RTVSPost2010PropOp36
 70
     1
102
RTVSPost2010Prop37
 90
       50
102
RTVSPost2010PropOp37
 70
     1
102
RTVSPost2010Prop38
140
0.0
102
RTVSPost2010PropOp38
 70
     1
102
RTVSPost2010Prop39
140
1.0
102
RTVSPost2010PropOp39
 70
     1
102
RTVSPost2010Prop40
 90
        0
102
RTVSPost2010PropOp40
 70
     1
102
RTVSPost2010Prop41ColorIndex
 90
       18
102
RTVSPost2010Prop41ColorRGB
 90
-16777216
102
RTVSPost2010PropOp41
 70
     1
102
RTVSPost2010Prop42
 90
       50
102
RTVSPost2010PropOp42
 70
     1
102
RTVSPost2010Prop43
 90
        3
102
RTVSPost2010PropOp43
 70
     1
102
RTVSPost2010Prop44ColorIndex
 90
        5
102
RTVSPost2010Prop44ColorRGB
 90
      255
102
RTVSPost2010PropOp44
 70
     1
102
RTVSPost2010Prop45
280
     0
102
RTVSPost2010PropOp45
 70
     1
102
RTVSPost2010Prop46
 90
       50
102
RTVSPost2010PropOp46
 70
     1
102
RTVSPost2010Prop47
 90
       50
102
RTVSPost2010PropOp47
 70
     1
102
RTVSPost2010Prop48
 90
       50
102
RTVSPost2010PropOp48
 70
     1
102
RTVSPost2010Prop49
280
     0
102
RTVSPost2010PropOp49
 70
     1
102
RTVSPost2010Prop50
 90
       50
102
RTVSPost2010PropOp50
 70
     1
102
RTVSPost2010Prop51ColorIndex
 90
      256
102
RTVSPost2010Prop51ColorRGB
 90
-16777216
102
RTVSPost2010PropOp51
 70
     0
102
RTVSPost2010Prop52
140
1.0
102
RTVSPost2010PropOp52
 70
     0
102
RTVSPost2010Prop53
 90
        2
102
RTVSPost2010PropOp53
 70
     1
102
RTVSPost2010Prop54
  1
strokes_ogs.tif
102
RTVSPost2010PropOp54
 70
     1
102
RTVSPost2010Prop55
280
     0
102
RTVSPost2010PropOp55
 70
     1
102
RTVSPost2010Prop56
140
1.0
102
RTVSPost2010PropOp56
 70
     1
102
RTVSPost2010Prop57
140
1.0
102
RTVSPost2010PropOp57
 70
     1
102
RTVSPropertyOp0
 70
     1
102
RTVSPropertyOp1
 70
     1
102
RTVSPropertyOp2
 70
     1
102
RTVSPropertyOp3
 70
     1
102
RTVSPropertyOp4
 70
     1
102
RTVSPropertyOp5
 70
     1
102
RTVSPropertyOp6
 70
     1
102
RTVSPropertyOp7
 70
     1
102
RTVSPropertyOp8
 70
     1
102
RTVSPropertyOp9
 70
     1
102
RTVSPropertyOp10
 70
     1
102
RTVSPropertyOp11
 70
     1
102
RTVSPropertyOp12
 70
     1
102
RTVSPropertyOp13
 70
     1
102
RTVSPropertyOp14
 70
     1
102
RTVSPropertyOp15
 70
     1
102
RTVSPropertyOp16
 70
     1
102
RTVSPropertyOp17
 70
     1
102
RTVSPropertyOp18
 70
     1
102
RTVSPropertyOp19
 70
     1
102
RTVSPropertyOp20
 70
     1
102
RTVSPropertyOp21
 70
     1
102
RTVSPropertyOp22
 70
     1
102
RTVSPropertyOp23
 70
     1
102
RTVSPropertyOp24
 70
     1
102
RTVSPropertyOp25
 70
     1
102
RTVSPropertyOp26
 70
     1
102
RTVSPropertyOp27
 70
     1
102
RTVSPropertyOp28
 70
     1
102
RTVSPropertyOp29
 70
     1
102
RTVSPropertyOp30
 70
     1
102
RTVSPropertyOp31
 70
     1
102
RTVSPropertyOp32
 70
     1
102
RTVSPropertyOp33
 70
     1
102
RTVSPropertyOp34
 70
     1
102
RTVSPropertyOp35
 70
     1
102
RTVSPropertyOp36
 70
     1
102
RTVSPropertyOp37
 70
     1
102
RTVSPropertyOp38
 70
     1
102
RTVSPropertyOp39
 70
     1
102
RTVSPropertyOp40
 70
     1
102
RTVSPropertyOp41
 70
     1
102
RTVSPropertyOp42
 70
     1
102
RTVSPropertyOp43
 70
     1
102
RTVSPropertyOp44
 70
     1
102
RTVSPropertyOp45
 70
     1
102
RTVSPropertyOp46
 70
     1
102
RTVSPropertyOp47
 70
     1
102
RTVSPropertyOp48
 70
     1
102
RTVSPropertyOp49
 70
     1
102
RTVSPropertyOp50
 70
     1
102
RTVSPropertyOp51
 70
     0
102
RTVSPropertyOp52
 70
     0
102
RTVSPropertyOp53
 70
     1
102
RTVSPropertyOp54
 70
     1
102
RTVSPropertyOp55
 70
     1
102
RTVSPropertyOp56
 70
     1
102
RTVSPropertyOp57
 70
     1
102
RTVSPropertyOp58
 70
     1
102
RTVSPropertyOp59
 70
     1
102
RTVSPropertyOp60
 70
     1
102
RTVSPropertyOp61
 70
     1
102
RTVSPropertyOp62
 70
     1
  0
XRECORD
  5
3D36
102
{ACAD_REACTORS
330
3D35
102
}
330
3D35
100
AcDbXrecord
280
     1
102
RTVSPost2010Prop28
280
     0
102
RTVSPost2010PropOp28
 70
     1
102
RTVSPost2010Prop29
280
     1
102
RTVSPost2010PropOp29
 70
     1
102
RTVSPost2010Prop30
280
     1
102
RTVSPost2010PropOp30
 70
     1
102
RTVSPost2010Prop31
280
     0
102
RTVSPost2010PropOp31
 70
     1
102
RTVSPost2010Prop32
280
     0
102
RTVSPost2010PropOp32
 70
     1
102
RTVSPost2010Prop33
280
     0
102
RTVSPost2010PropOp33
 70
     1
102
RTVSPost2010Prop34
280
     0
102
RTVSPost2010PropOp34
 70
     1
102
RTVSPost2010Prop35
280
     0
102
RTVSPost2010PropOp35
 70
     1
102
RTVSPost2010Prop36
280
     0
102
RTVSPost2010PropOp36
 70
     1
102
RTVSPost2010Prop37
 90
       50
102
RTVSPost2010PropOp37
 70
     1
102
RTVSPost2010Prop38
140
0.0
102
RTVSPost2010PropOp38
 70
     1
102
RTVSPost2010Prop39
140
1.0
102
RTVSPost2010PropOp39
 70
     1
102
RTVSPost2010Prop40
 90
        0
102
RTVSPost2010PropOp40
 70
     1
102
RTVSPost2010Prop41ColorIndex
 90
       18
102
RTVSPost2010Prop41ColorRGB
 90
-16777216
102
RTVSPost2010PropOp41
 70
     1
102
RTVSPost2010Prop42
 90
       50
102
RTVSPost2010PropOp42
 70
     1
102
RTVSPost2010Prop43
 90
        3
102
RTVSPost2010PropOp43
 70
     1
102
RTVSPost2010Prop44ColorIndex
 90
        5
102
RTVSPost2010Prop44ColorRGB
 90
      255
102
RTVSPost2010PropOp44
 70
     1
102
RTVSPost2010Prop45
280
     0
102
RTVSPost2010PropOp45
 70
     1
102
RTVSPost2010Prop46
 90
       50
102
RTVSPost2010PropOp46
 70
     1
102
RTVSPost2010Prop47
 90
       50
102
RTVSPost2010PropOp47
 70
     1
102
RTVSPost2010Prop48
 90
       50
102
RTVSPost2010PropOp48
 70
     1
102
RTVSPost2010Prop49
280
     0
102
RTVSPost2010PropOp49
 70
     1
102
RTVSPost2010Prop50
 90
       50
102
RTVSPost2010PropOp50
 70
     1
102
RTVSPost2010Prop51ColorIndex
 90
      256
102
RTVSPost2010Prop51ColorRGB
 90
-16777216
102
RTVSPost2010PropOp51
 70
     0
102
RTVSPost2010Prop52
140
1.0
102
RTVSPost2010PropOp52
 70
     0
102
RTVSPost2010Prop53
 90
        2
102
RTVSPost2010PropOp53
 70
     1
102
RTVSPost2010Prop54
  1
strokes_ogs.tif
102
RTVSPost2010PropOp54
 70
     1
102
RTVSPost2010Prop55
280
     0
102
RTVSPost2010PropOp55
 70
     1
102
RTVSPost2010Prop56
140
1.0
102
RTVSPost2010PropOp56
 70
     1
102
RTVSPost2010Prop57
140
1.0
102
RTVSPost2010PropOp57
 70
     1
102
RTVSPropertyOp0
 70
     1
102
RTVSPropertyOp1
 70
     1
102
RTVSPropertyOp2
 70
     1
102
RTVSPropertyOp3
 70
     1
102
RTVSPropertyOp4
 70
     1
102
RTVSPropertyOp5
 70
     1
102
RTVSPropertyOp6
 70
     1
102
RTVSPropertyOp7
 70
     1
102
RTVSPropertyOp8
 70
     1
102
RTVSPropertyOp9
 70
     1
102
RTVSPropertyOp10
 70
     1
102
RTVSPropertyOp11
 70
     1
102
RTVSPropertyOp12
 70
     1
102
RTVSPropertyOp13
 70
     1
102
RTVSPropertyOp14
 70
     1
102
RTVSPropertyOp15
 70
     1
102
RTVSPropertyOp16
 70
     1
102
RTVSPropertyOp17
 70
     1
102
RTVSPropertyOp18
 70
     1
102
RTVSPropertyOp19
 70
     1
102
RTVSPropertyOp20
 70
     1
102
RTVSPropertyOp21
 70
     1
102
RTVSPropertyOp22
 70
     1
102
RTVSPropertyOp23
 70
     1
102
RTVSPropertyOp24
 70
     1
102
RTVSPropertyOp25
 70
     1
102
RTVSPropertyOp26
 70
     1
102
RTVSPropertyOp27
 70
     1
102
RTVSPropertyOp28
 70
     1
102
RTVSPropertyOp29
 70
     1
102
RTVSPropertyOp30
 70
     1
102
RTVSPropertyOp31
 70
     1
102
RTVSPropertyOp32
 70
     1
102
RTVSPropertyOp33
 70
     1
102
RTVSPropertyOp34
 70
     1
102
RTVSPropertyOp35
 70
     1
102
RTVSPropertyOp36
 70
     1
102
RTVSPropertyOp37
 70
     1
102
RTVSPropertyOp38
 70
     1
102
RTVSPropertyOp39
 70
     1
102
RTVSPropertyOp40
 70
     1
102
RTVSPropertyOp41
 70
     1
102
RTVSPropertyOp42
 70
     1
102
RTVSPropertyOp43
 70
     1
102
RTVSPropertyOp44
 70
     1
102
RTVSPropertyOp45
 70
     1
102
RTVSPropertyOp46
 70
     1
102
RTVSPropertyOp47
 70
     1
102
RTVSPropertyOp48
 70
     1
102
RTVSPropertyOp49
 70
     1
102
RTVSPropertyOp50
 70
     1
102
RTVSPropertyOp51
 70
     0
102
RTVSPropertyOp52
 70
     0
102
RTVSPropertyOp53
 70
     1
102
RTVSPropertyOp54
 70
     1
102
RTVSPropertyOp55
 70
     1
102
RTVSPropertyOp56
 70
     1
102
RTVSPropertyOp57
 70
     1
102
RTVSPropertyOp58
 70
     1
102
RTVSPropertyOp59
 70
     1
102
RTVSPropertyOp60
 70
     1
102
RTVSPropertyOp61
 70
     1
102
RTVSPropertyOp62
 70
     1
  0
XRECORD
  5
3D38
102
{ACAD_REACTORS
330
3D37
102
}
330
3D37
100
AcDbXrecord
280
     1
102
RTVSPost2010Prop28
280
     0
102
RTVSPost2010PropOp28
 70
     1
102
RTVSPost2010Prop29
280
     1
102
RTVSPost2010PropOp29
 70
     1
102
RTVSPost2010Prop30
280
     1
102
RTVSPost2010PropOp30
 70
     1
102
RTVSPost2010Prop31
280
     0
102
RTVSPost2010PropOp31
 70
     1
102
RTVSPost2010Prop32
280
     0
102
RTVSPost2010PropOp32
 70
     1
102
RTVSPost2010Prop33
280
     0
102
RTVSPost2010PropOp33
 70
     1
102
RTVSPost2010Prop34
280
     0
102
RTVSPost2010PropOp34
 70
     1
102
RTVSPost2010Prop35
280
     0
102
RTVSPost2010PropOp35
 70
     1
102
RTVSPost2010Prop36
280
     0
102
RTVSPost2010PropOp36
 70
     1
102
RTVSPost2010Prop37
 90
       50
102
RTVSPost2010PropOp37
 70
     1
102
RTVSPost2010Prop38
140
0.0
102
RTVSPost2010PropOp38
 70
     1
102
RTVSPost2010Prop39
140
1.0
102
RTVSPost2010PropOp39
 70
     1
102
RTVSPost2010Prop40
 90
        0
102
RTVSPost2010PropOp40
 70
     1
102
RTVSPost2010Prop41ColorIndex
 90
       18
102
RTVSPost2010Prop41ColorRGB
 90
-16777216
102
RTVSPost2010PropOp41
 70
     1
102
RTVSPost2010Prop42
 90
       50
102
RTVSPost2010PropOp42
 70
     1
102
RTVSPost2010Prop43
 90
        3
102
RTVSPost2010PropOp43
 70
     1
102
RTVSPost2010Prop44ColorIndex
 90
        5
102
RTVSPost2010Prop44ColorRGB
 90
      255
102
RTVSPost2010PropOp44
 70
     1
102
RTVSPost2010Prop45
280
     0
102
RTVSPost2010PropOp45
 70
     1
102
RTVSPost2010Prop46
 90
       50
102
RTVSPost2010PropOp46
 70
     1
102
RTVSPost2010Prop47
 90
       50
102
RTVSPost2010PropOp47
 70
     1
102
RTVSPost2010Prop48
 90
       50
102
RTVSPost2010PropOp48
 70
     1
102
RTVSPost2010Prop49
280
     0
102
RTVSPost2010PropOp49
 70
     1
102
RTVSPost2010Prop50
 90
       50
102
RTVSPost2010PropOp50
 70
     1
102
RTVSPost2010Prop51ColorIndex
 90
      256
102
RTVSPost2010Prop51ColorRGB
 90
-16777216
102
RTVSPost2010PropOp51
 70
     0
102
RTVSPost2010Prop52
140
1.0
102
RTVSPost2010PropOp52
 70
     0
102
RTVSPost2010Prop53
 90
        2
102
RTVSPost2010PropOp53
 70
     1
102
RTVSPost2010Prop54
  1
strokes_ogs.tif
102
RTVSPost2010PropOp54
 70
     1
102
RTVSPost2010Prop55
280
     0
102
RTVSPost2010PropOp55
 70
     1
102
RTVSPost2010Prop56
140
1.0
102
RTVSPost2010PropOp56
 70
     1
102
RTVSPost2010Prop57
140
1.0
102
RTVSPost2010PropOp57
 70
     1
102
RTVSPropertyOp0
 70
     1
102
RTVSPropertyOp1
 70
     1
102
RTVSPropertyOp2
 70
     1
102
RTVSPropertyOp3
 70
     1
102
RTVSPropertyOp4
 70
     1
102
RTVSPropertyOp5
 70
     1
102
RTVSPropertyOp6
 70
     1
102
RTVSPropertyOp7
 70
     1
102
RTVSPropertyOp8
 70
     1
102
RTVSPropertyOp9
 70
     1
102
RTVSPropertyOp10
 70
     1
102
RTVSPropertyOp11
 70
     1
102
RTVSPropertyOp12
 70
     1
102
RTVSPropertyOp13
 70
     1
102
RTVSPropertyOp14
 70
     1
102
RTVSPropertyOp15
 70
     1
102
RTVSPropertyOp16
 70
     1
102
RTVSPropertyOp17
 70
     1
102
RTVSPropertyOp18
 70
     1
102
RTVSPropertyOp19
 70
     1
102
RTVSPropertyOp20
 70
     1
102
RTVSPropertyOp21
 70
     1
102
RTVSPropertyOp22
 70
     1
102
RTVSPropertyOp23
 70
     1
102
RTVSPropertyOp24
 70
     1
102
RTVSPropertyOp25
 70
     1
102
RTVSPropertyOp26
 70
     1
102
RTVSPropertyOp27
 70
     1
102
RTVSPropertyOp28
 70
     1
102
RTVSPropertyOp29
 70
     1
102
RTVSPropertyOp30
 70
     1
102
RTVSPropertyOp31
 70
     1
102
RTVSPropertyOp32
 70
     1
102
RTVSPropertyOp33
 70
     1
102
RTVSPropertyOp34
 70
     1
102
RTVSPropertyOp35
 70
     1
102
RTVSPropertyOp36
 70
     1
102
RTVSPropertyOp37
 70
     1
102
RTVSPropertyOp38
 70
     1
102
RTVSPropertyOp39
 70
     1
102
RTVSPropertyOp40
 70
     1
102
RTVSPropertyOp41
 70
     1
102
RTVSPropertyOp42
 70
     1
102
RTVSPropertyOp43
 70
     1
102
RTVSPropertyOp44
 70
     1
102
RTVSPropertyOp45
 70
     1
102
RTVSPropertyOp46
 70
     1
102
RTVSPropertyOp47
 70
     1
102
RTVSPropertyOp48
 70
     1
102
RTVSPropertyOp49
 70
     1
102
RTVSPropertyOp50
 70
     1
102
RTVSPropertyOp51
 70
     0
102
RTVSPropertyOp52
 70
     0
102
RTVSPropertyOp53
 70
     1
102
RTVSPropertyOp54
 70
     1
102
RTVSPropertyOp55
 70
     1
102
RTVSPropertyOp56
 70
     1
102
RTVSPropertyOp57
 70
     1
102
RTVSPropertyOp58
 70
     1
102
RTVSPropertyOp59
 70
     1
102
RTVSPropertyOp60
 70
     1
102
RTVSPropertyOp61
 70
     1
102
RTVSPropertyOp62
 70
     1
  0
XRECORD
  5
3D40
102
{ACAD_REACTORS
330
3D3F
102
}
330
3D3F
100
AcDbXrecord
280
     1
102
RTVSPost2010Prop28
280
     0
102
RTVSPost2010PropOp28
 70
     1
102
RTVSPost2010Prop29
280
     1
102
RTVSPost2010PropOp29
 70
     1
102
RTVSPost2010Prop30
280
     1
102
RTVSPost2010PropOp30
 70
     1
102
RTVSPost2010Prop31
280
     0
102
RTVSPost2010PropOp31
 70
     1
102
RTVSPost2010Prop32
280
     0
102
RTVSPost2010PropOp32
 70
     1
102
RTVSPost2010Prop33
280
     0
102
RTVSPost2010PropOp33
 70
     1
102
RTVSPost2010Prop34
280
     0
102
RTVSPost2010PropOp34
 70
     1
102
RTVSPost2010Prop35
280
     0
102
RTVSPost2010PropOp35
 70
     1
102
RTVSPost2010Prop36
280
     0
102
RTVSPost2010PropOp36
 70
     1
102
RTVSPost2010Prop37
 90
       50
102
RTVSPost2010PropOp37
 70
     1
102
RTVSPost2010Prop38
140
0.0
102
RTVSPost2010PropOp38
 70
     1
102
RTVSPost2010Prop39
140
1.0
102
RTVSPost2010PropOp39
 70
     1
102
RTVSPost2010Prop40
 90
        0
102
RTVSPost2010PropOp40
 70
     1
102
RTVSPost2010Prop41ColorIndex
 90
       18
102
RTVSPost2010Prop41ColorRGB
 90
-16777216
102
RTVSPost2010PropOp41
 70
     1
102
RTVSPost2010Prop42
 90
       50
102
RTVSPost2010PropOp42
 70
     1
102
RTVSPost2010Prop43
 90
        3
102
RTVSPost2010PropOp43
 70
     1
102
RTVSPost2010Prop44ColorIndex
 90
        5
102
RTVSPost2010Prop44ColorRGB
 90
      255
102
RTVSPost2010PropOp44
 70
     1
102
RTVSPost2010Prop45
280
     0
102
RTVSPost2010PropOp45
 70
     1
102
RTVSPost2010Prop46
 90
       50
102
RTVSPost2010PropOp46
 70
     1
102
RTVSPost2010Prop47
 90
       50
102
RTVSPost2010PropOp47
 70
     1
102
RTVSPost2010Prop48
 90
       50
102
RTVSPost2010PropOp48
 70
     1
102
RTVSPost2010Prop49
280
     0
102
RTVSPost2010PropOp49
 70
     1
102
RTVSPost2010Prop50
 90
       50
102
RTVSPost2010PropOp50
 70
     1
102
RTVSPost2010Prop51ColorIndex
 90
      256
102
RTVSPost2010Prop51ColorRGB
 90
-16777216
102
RTVSPost2010PropOp51
 70
     0
102
RTVSPost2010Prop52
140
1.0
102
RTVSPost2010PropOp52
 70
     0
102
RTVSPost2010Prop53
 90
        2
102
RTVSPost2010PropOp53
 70
     1
102
RTVSPost2010Prop54
  1
strokes_ogs.tif
102
RTVSPost2010PropOp54
 70
     1
102
RTVSPost2010Prop55
280
     0
102
RTVSPost2010PropOp55
 70
     1
102
RTVSPost2010Prop56
140
1.0
102
RTVSPost2010PropOp56
 70
     1
102
RTVSPost2010Prop57
140
1.0
102
RTVSPost2010PropOp57
 70
     1
102
RTVSPropertyOp0
 70
     1
102
RTVSPropertyOp1
 70
     1
102
RTVSPropertyOp2
 70
     1
102
RTVSPropertyOp3
 70
     1
102
RTVSPropertyOp4
 70
     1
102
RTVSPropertyOp5
 70
     1
102
RTVSPropertyOp6
 70
     1
102
RTVSPropertyOp7
 70
     1
102
RTVSPropertyOp8
 70
     1
102
RTVSPropertyOp9
 70
     1
102
RTVSPropertyOp10
 70
     1
102
RTVSPropertyOp11
 70
     1
102
RTVSPropertyOp12
 70
     1
102
RTVSPropertyOp13
 70
     1
102
RTVSPropertyOp14
 70
     1
102
RTVSPropertyOp15
 70
     1
102
RTVSPropertyOp16
 70
     1
102
RTVSPropertyOp17
 70
     1
102
RTVSPropertyOp18
 70
     1
102
RTVSPropertyOp19
 70
     1
102
RTVSPropertyOp20
 70
     1
102
RTVSPropertyOp21
 70
     1
102
RTVSPropertyOp22
 70
     1
102
RTVSPropertyOp23
 70
     1
102
RTVSPropertyOp24
 70
     1
102
RTVSPropertyOp25
 70
     1
102
RTVSPropertyOp26
 70
     1
102
RTVSPropertyOp27
 70
     1
102
RTVSPropertyOp28
 70
     1
102
RTVSPropertyOp29
 70
     1
102
RTVSPropertyOp30
 70
     1
102
RTVSPropertyOp31
 70
     1
102
RTVSPropertyOp32
 70
     1
102
RTVSPropertyOp33
 70
     1
102
RTVSPropertyOp34
 70
     1
102
RTVSPropertyOp35
 70
     1
102
RTVSPropertyOp36
 70
     1
102
RTVSPropertyOp37
 70
     1
102
RTVSPropertyOp38
 70
     1
102
RTVSPropertyOp39
 70
     1
102
RTVSPropertyOp40
 70
     1
102
RTVSPropertyOp41
 70
     1
102
RTVSPropertyOp42
 70
     1
102
RTVSPropertyOp43
 70
     1
102
RTVSPropertyOp44
 70
     1
102
RTVSPropertyOp45
 70
     1
102
RTVSPropertyOp46
 70
     1
102
RTVSPropertyOp47
 70
     1
102
RTVSPropertyOp48
 70
     1
102
RTVSPropertyOp49
 70
     1
102
RTVSPropertyOp50
 70
     1
102
RTVSPropertyOp51
 70
     0
102
RTVSPropertyOp52
 70
     0
102
RTVSPropertyOp53
 70
     1
102
RTVSPropertyOp54
 70
     1
102
RTVSPropertyOp55
 70
     1
102
RTVSPropertyOp56
 70
     1
102
RTVSPropertyOp57
 70
     1
102
RTVSPropertyOp58
 70
     1
102
RTVSPropertyOp59
 70
     1
102
RTVSPropertyOp60
 70
     1
102
RTVSPropertyOp61
 70
     1
102
RTVSPropertyOp62
 70
     1
  0
XRECORD
  5
3D5C
102
{ACAD_REACTORS
330
3D5B
102
}
330
3D5B
100
AcDbXrecord
280
     1
102
RTVSPost2010Prop28
280
     0
102
RTVSPost2010PropOp28
 70
     0
102
RTVSPost2010Prop29
280
     1
102
RTVSPost2010PropOp29
 70
     0
102
RTVSPost2010Prop30
280
     1
102
RTVSPost2010PropOp30
 70
     0
102
RTVSPost2010Prop31
280
     0
102
RTVSPost2010PropOp31
 70
     0
102
RTVSPost2010Prop32
280
     0
102
RTVSPost2010PropOp32
 70
     0
102
RTVSPost2010Prop33
280
     0
102
RTVSPost2010PropOp33
 70
     0
102
RTVSPost2010Prop34
280
     0
102
RTVSPost2010PropOp34
 70
     0
102
RTVSPost2010Prop35
280
     0
102
RTVSPost2010PropOp35
 70
     0
102
RTVSPost2010Prop36
280
     0
102
RTVSPost2010PropOp36
 70
     0
102
RTVSPost2010Prop37
 90
       50
102
RTVSPost2010PropOp37
 70
     0
102
RTVSPost2010Prop38
140
0.0
102
RTVSPost2010PropOp38
 70
     0
102
RTVSPost2010Prop39
140
1.0
102
RTVSPost2010PropOp39
 70
     0
102
RTVSPost2010Prop40
 90
        0
102
RTVSPost2010PropOp40
 70
     0
102
RTVSPost2010Prop41ColorIndex
 90
       18
102
RTVSPost2010Prop41ColorRGB
 90
-16777216
102
RTVSPost2010PropOp41
 70
     0
102
RTVSPost2010Prop42
 90
       50
102
RTVSPost2010PropOp42
 70
     0
102
RTVSPost2010Prop43
 90
        3
102
RTVSPost2010PropOp43
 70
     0
102
RTVSPost2010Prop44ColorIndex
 90
        5
102
RTVSPost2010Prop44ColorRGB
 90
      255
102
RTVSPost2010PropOp44
 70
     0
102
RTVSPost2010Prop45
280
     0
102
RTVSPost2010PropOp45
 70
     0
102
RTVSPost2010Prop46
 90
       50
102
RTVSPost2010PropOp46
 70
     0
102
RTVSPost2010Prop47
 90
       50
102
RTVSPost2010PropOp47
 70
     0
102
RTVSPost2010Prop48
 90
       50
102
RTVSPost2010PropOp48
 70
     0
102
RTVSPost2010Prop49
280
     0
102
RTVSPost2010PropOp49
 70
     0
102
RTVSPost2010Prop50
 90
       50
102
RTVSPost2010PropOp50
 70
     0
102
RTVSPost2010Prop51ColorIndex
 90
      256
102
RTVSPost2010Prop51ColorRGB
 90
-16777216
102
RTVSPost2010PropOp51
 70
     0
102
RTVSPost2010Prop52
140
1.0
102
RTVSPost2010PropOp52
 70
     0
102
RTVSPost2010Prop53
 90
        2
102
RTVSPost2010PropOp53
 70
     0
102
RTVSPost2010Prop54
  1
strokes_ogs.tif
102
RTVSPost2010PropOp54
 70
     0
102
RTVSPost2010Prop55
280
     0
102
RTVSPost2010PropOp55
 70
     0
102
RTVSPost2010Prop56
140
1.0
102
RTVSPost2010PropOp56
 70
     0
102
RTVSPost2010Prop57
140
1.0
102
RTVSPost2010PropOp57
 70
     0
102
RTVSPropertyOp0
 70
     0
102
RTVSPropertyOp1
 70
     0
102
RTVSPropertyOp2
 70
     0
102
RTVSPropertyOp3
 70
     0
102
RTVSPropertyOp4
 70
     0
102
RTVSPropertyOp5
 70
     0
102
RTVSPropertyOp6
 70
     0
102
RTVSPropertyOp7
 70
     0
102
RTVSPropertyOp8
 70
     0
102
RTVSPropertyOp9
 70
     0
102
RTVSPropertyOp10
 70
     0
102
RTVSPropertyOp11
 70
     0
102
RTVSPropertyOp12
 70
     0
102
RTVSPropertyOp13
 70
     0
102
RTVSPropertyOp14
 70
     2
102
RTVSPropertyOp15
 70
     0
102
RTVSPropertyOp16
 70
     0
102
RTVSPropertyOp17
 70
     0
102
RTVSPropertyOp18
 70
     0
102
RTVSPropertyOp19
 70
     0
102
RTVSPropertyOp20
 70
     0
102
RTVSPropertyOp21
 70
     0
102
RTVSPropertyOp22
 70
     0
102
RTVSPropertyOp23
 70
     0
102
RTVSPropertyOp24
 70
     0
102
RTVSPropertyOp25
 70
     0
102
RTVSPropertyOp26
 70
     0
102
RTVSPropertyOp27
 70
     0
102
RTVSPropertyOp28
 70
     0
102
RTVSPropertyOp29
 70
     0
102
RTVSPropertyOp30
 70
     0
102
RTVSPropertyOp31
 70
     0
102
RTVSPropertyOp32
 70
     0
102
RTVSPropertyOp33
 70
     0
102
RTVSPropertyOp34
 70
     0
102
RTVSPropertyOp35
 70
     0
102
RTVSPropertyOp36
 70
     0
102
RTVSPropertyOp37
 70
     0
102
RTVSPropertyOp38
 70
     0
102
RTVSPropertyOp39
 70
     0
102
RTVSPropertyOp40
 70
     0
102
RTVSPropertyOp41
 70
     0
102
RTVSPropertyOp42
 70
     0
102
RTVSPropertyOp43
 70
     0
102
RTVSPropertyOp44
 70
     0
102
RTVSPropertyOp45
 70
     0
102
RTVSPropertyOp46
 70
     0
102
RTVSPropertyOp47
 70
     0
102
RTVSPropertyOp48
 70
     0
102
RTVSPropertyOp49
 70
     0
102
RTVSPropertyOp50
 70
     0
102
RTVSPropertyOp51
 70
     0
102
RTVSPropertyOp52
 70
     0
102
RTVSPropertyOp53
 70
     0
102
RTVSPropertyOp54
 70
     0
102
RTVSPropertyOp55
 70
     0
102
RTVSPropertyOp56
 70
     0
102
RTVSPropertyOp57
 70
     0
102
RTVSPropertyOp58
 70
     1
102
RTVSPropertyOp59
 70
     1
102
RTVSPropertyOp60
 70
     1
102
RTVSPropertyOp61
 70
     1
102
RTVSPropertyOp62
 70
     1
  0
XRECORD
  5
3D4C
102
{ACAD_REACTORS
330
3D4B
102
}
330
3D4B
100
AcDbXrecord
280
     1
102
RTVSPost2010Prop28
280
     0
102
RTVSPost2010PropOp28
 70
     1
102
RTVSPost2010Prop29
280
     1
102
RTVSPost2010PropOp29
 70
     1
102
RTVSPost2010Prop30
280
     1
102
RTVSPost2010PropOp30
 70
     1
102
RTVSPost2010Prop31
280
     0
102
RTVSPost2010PropOp31
 70
     1
102
RTVSPost2010Prop32
280
     0
102
RTVSPost2010PropOp32
 70
     1
102
RTVSPost2010Prop33
280
     0
102
RTVSPost2010PropOp33
 70
     1
102
RTVSPost2010Prop34
280
     0
102
RTVSPost2010PropOp34
 70
     1
102
RTVSPost2010Prop35
280
     0
102
RTVSPost2010PropOp35
 70
     1
102
RTVSPost2010Prop36
280
     0
102
RTVSPost2010PropOp36
 70
     1
102
RTVSPost2010Prop37
 90
       50
102
RTVSPost2010PropOp37
 70
     1
102
RTVSPost2010Prop38
140
0.0
102
RTVSPost2010PropOp38
 70
     1
102
RTVSPost2010Prop39
140
1.0
102
RTVSPost2010PropOp39
 70
     1
102
RTVSPost2010Prop40
 90
        0
102
RTVSPost2010PropOp40
 70
     1
102
RTVSPost2010Prop41ColorIndex
 90
       18
102
RTVSPost2010Prop41ColorRGB
 90
-16777216
102
RTVSPost2010PropOp41
 70
     1
102
RTVSPost2010Prop42
 90
       50
102
RTVSPost2010PropOp42
 70
     1
102
RTVSPost2010Prop43
 90
        3
102
RTVSPost2010PropOp43
 70
     1
102
RTVSPost2010Prop44ColorIndex
 90
        5
102
RTVSPost2010Prop44ColorRGB
 90
      255
102
RTVSPost2010PropOp44
 70
     1
102
RTVSPost2010Prop45
280
     0
102
RTVSPost2010PropOp45
 70
     1
102
RTVSPost2010Prop46
 90
       50
102
RTVSPost2010PropOp46
 70
     1
102
RTVSPost2010Prop47
 90
       50
102
RTVSPost2010PropOp47
 70
     1
102
RTVSPost2010Prop48
 90
       50
102
RTVSPost2010PropOp48
 70
     1
102
RTVSPost2010Prop49
280
     0
102
RTVSPost2010PropOp49
 70
     1
102
RTVSPost2010Prop50
 90
       50
102
RTVSPost2010PropOp50
 70
     1
102
RTVSPost2010Prop51ColorIndex
 90
      256
102
RTVSPost2010Prop51ColorRGB
 90
-16777216
102
RTVSPost2010PropOp51
 70
     0
102
RTVSPost2010Prop52
140
1.0
102
RTVSPost2010PropOp52
 70
     0
102
RTVSPost2010Prop53
 90
        2
102
RTVSPost2010PropOp53
 70
     1
102
RTVSPost2010Prop54
  1
strokes_ogs.tif
102
RTVSPost2010PropOp54
 70
     1
102
RTVSPost2010Prop55
280
     0
102
RTVSPost2010PropOp55
 70
     1
102
RTVSPost2010Prop56
140
1.0
102
RTVSPost2010PropOp56
 70
     1
102
RTVSPost2010Prop57
140
1.0
102
RTVSPost2010PropOp57
 70
     1
102
RTVSPropertyOp0
 70
     1
102
RTVSPropertyOp1
 70
     1
102
RTVSPropertyOp2
 70
     1
102
RTVSPropertyOp3
 70
     1
102
RTVSPropertyOp4
 70
     1
102
RTVSPropertyOp5
 70
     1
102
RTVSPropertyOp6
 70
     1
102
RTVSPropertyOp7
 70
     1
102
RTVSPropertyOp8
 70
     1
102
RTVSPropertyOp9
 70
     1
102
RTVSPropertyOp10
 70
     1
102
RTVSPropertyOp11
 70
     1
102
RTVSPropertyOp12
 70
     1
102
RTVSPropertyOp13
 70
     1
102
RTVSPropertyOp14
 70
     1
102
RTVSPropertyOp15
 70
     1
102
RTVSPropertyOp16
 70
     1
102
RTVSPropertyOp17
 70
     1
102
RTVSPropertyOp18
 70
     1
102
RTVSPropertyOp19
 70
     1
102
RTVSPropertyOp20
 70
     1
102
RTVSPropertyOp21
 70
     1
102
RTVSPropertyOp22
 70
     1
102
RTVSPropertyOp23
 70
     1
102
RTVSPropertyOp24
 70
     1
102
RTVSPropertyOp25
 70
     1
102
RTVSPropertyOp26
 70
     1
102
RTVSPropertyOp27
 70
     1
102
RTVSPropertyOp28
 70
     1
102
RTVSPropertyOp29
 70
     1
102
RTVSPropertyOp30
 70
     1
102
RTVSPropertyOp31
 70
     1
102
RTVSPropertyOp32
 70
     1
102
RTVSPropertyOp33
 70
     1
102
RTVSPropertyOp34
 70
     1
102
RTVSPropertyOp35
 70
     1
102
RTVSPropertyOp36
 70
     1
102
RTVSPropertyOp37
 70
     1
102
RTVSPropertyOp38
 70
     1
102
RTVSPropertyOp39
 70
     1
102
RTVSPropertyOp40
 70
     1
102
RTVSPropertyOp41
 70
     1
102
RTVSPropertyOp42
 70
     1
102
RTVSPropertyOp43
 70
     1
102
RTVSPropertyOp44
 70
     1
102
RTVSPropertyOp45
 70
     1
102
RTVSPropertyOp46
 70
     1
102
RTVSPropertyOp47
 70
     1
102
RTVSPropertyOp48
 70
     1
102
RTVSPropertyOp49
 70
     1
102
RTVSPropertyOp50
 70
     1
102
RTVSPropertyOp51
 70
     0
102
RTVSPropertyOp52
 70
     0
102
RTVSPropertyOp53
 70
     1
102
RTVSPropertyOp54
 70
     1
102
RTVSPropertyOp55
 70
     1
102
RTVSPropertyOp56
 70
     1
102
RTVSPropertyOp57
 70
     1
102
RTVSPropertyOp58
 70
     1
102
RTVSPropertyOp59
 70
     1
102
RTVSPropertyOp60
 70
     1
102
RTVSPropertyOp61
 70
     1
102
RTVSPropertyOp62
 70
     1
  0
XRECORD
  5
3D5E
102
{ACAD_REACTORS
330
3D5D
102
}
330
3D5D
100
AcDbXrecord
280
     1
102
RTVSPost2010Prop28
280
     0
102
RTVSPost2010PropOp28
 70
     0
102
RTVSPost2010Prop29
280
     1
102
RTVSPost2010PropOp29
 70
     0
102
RTVSPost2010Prop30
280
     1
102
RTVSPost2010PropOp30
 70
     0
102
RTVSPost2010Prop31
280
     0
102
RTVSPost2010PropOp31
 70
     0
102
RTVSPost2010Prop32
280
     0
102
RTVSPost2010PropOp32
 70
     0
102
RTVSPost2010Prop33
280
     0
102
RTVSPost2010PropOp33
 70
     0
102
RTVSPost2010Prop34
280
     0
102
RTVSPost2010PropOp34
 70
     0
102
RTVSPost2010Prop35
280
     0
102
RTVSPost2010PropOp35
 70
     0
102
RTVSPost2010Prop36
280
     0
102
RTVSPost2010PropOp36
 70
     0
102
RTVSPost2010Prop37
 90
       50
102
RTVSPost2010PropOp37
 70
     0
102
RTVSPost2010Prop38
140
0.0
102
RTVSPost2010PropOp38
 70
     0
102
RTVSPost2010Prop39
140
1.0
102
RTVSPost2010PropOp39
 70
     0
102
RTVSPost2010Prop40
 90
        0
102
RTVSPost2010PropOp40
 70
     0
102
RTVSPost2010Prop41ColorIndex
 90
       18
102
RTVSPost2010Prop41ColorRGB
 90
-16777216
102
RTVSPost2010PropOp41
 70
     0
102
RTVSPost2010Prop42
 90
       50
102
RTVSPost2010PropOp42
 70
     0
102
RTVSPost2010Prop43
 90
        3
102
RTVSPost2010PropOp43
 70
     0
102
RTVSPost2010Prop44ColorIndex
 90
        5
102
RTVSPost2010Prop44ColorRGB
 90
      255
102
RTVSPost2010PropOp44
 70
     0
102
RTVSPost2010Prop45
280
     0
102
RTVSPost2010PropOp45
 70
     0
102
RTVSPost2010Prop46
 90
       50
102
RTVSPost2010PropOp46
 70
     0
102
RTVSPost2010Prop47
 90
       50
102
RTVSPost2010PropOp47
 70
     0
102
RTVSPost2010Prop48
 90
       50
102
RTVSPost2010PropOp48
 70
     0
102
RTVSPost2010Prop49
280
     0
102
RTVSPost2010PropOp49
 70
     0
102
RTVSPost2010Prop50
 90
       50
102
RTVSPost2010PropOp50
 70
     0
102
RTVSPost2010Prop51ColorIndex
 90
      256
102
RTVSPost2010Prop51ColorRGB
 90
-16777216
102
RTVSPost2010PropOp51
 70
     0
102
RTVSPost2010Prop52
140
1.0
102
RTVSPost2010PropOp52
 70
     0
102
RTVSPost2010Prop53
 90
        2
102
RTVSPost2010PropOp53
 70
     0
102
RTVSPost2010Prop54
  1
strokes_ogs.tif
102
RTVSPost2010PropOp54
 70
     0
102
RTVSPost2010Prop55
280
     0
102
RTVSPost2010PropOp55
 70
     0
102
RTVSPost2010Prop56
140
1.0
102
RTVSPost2010PropOp56
 70
     0
102
RTVSPost2010Prop57
140
1.0
102
RTVSPost2010PropOp57
 70
     0
102
RTVSPropertyOp0
 70
     0
102
RTVSPropertyOp1
 70
     0
102
RTVSPropertyOp2
 70
     0
102
RTVSPropertyOp3
 70
     0
102
RTVSPropertyOp4
 70
     0
102
RTVSPropertyOp5
 70
     0
102
RTVSPropertyOp6
 70
     0
102
RTVSPropertyOp7
 70
     0
102
RTVSPropertyOp8
 70
     0
102
RTVSPropertyOp9
 70
     0
102
RTVSPropertyOp10
 70
     0
102
RTVSPropertyOp11
 70
     0
102
RTVSPropertyOp12
 70
     0
102
RTVSPropertyOp13
 70
     0
102
RTVSPropertyOp14
 70
     2
102
RTVSPropertyOp15
 70
     0
102
RTVSPropertyOp16
 70
     0
102
RTVSPropertyOp17
 70
     0
102
RTVSPropertyOp18
 70
     0
102
RTVSPropertyOp19
 70
     0
102
RTVSPropertyOp20
 70
     0
102
RTVSPropertyOp21
 70
     0
102
RTVSPropertyOp22
 70
     0
102
RTVSPropertyOp23
 70
     0
102
RTVSPropertyOp24
 70
     0
102
RTVSPropertyOp25
 70
     0
102
RTVSPropertyOp26
 70
     0
102
RTVSPropertyOp27
 70
     0
102
RTVSPropertyOp28
 70
     0
102
RTVSPropertyOp29
 70
     0
102
RTVSPropertyOp30
 70
     0
102
RTVSPropertyOp31
 70
     0
102
RTVSPropertyOp32
 70
     0
102
RTVSPropertyOp33
 70
     0
102
RTVSPropertyOp34
 70
     0
102
RTVSPropertyOp35
 70
     0
102
RTVSPropertyOp36
 70
     0
102
RTVSPropertyOp37
 70
     0
102
RTVSPropertyOp38
 70
     0
102
RTVSPropertyOp39
 70
     0
102
RTVSPropertyOp40
 70
     0
102
RTVSPropertyOp41
 70
     0
102
RTVSPropertyOp42
 70
     0
102
RTVSPropertyOp43
 70
     0
102
RTVSPropertyOp44
 70
     0
102
RTVSPropertyOp45
 70
     0
102
RTVSPropertyOp46
 70
     0
102
RTVSPropertyOp47
 70
     0
102
RTVSPropertyOp48
 70
     0
102
RTVSPropertyOp49
 70
     0
102
RTVSPropertyOp50
 70
     0
102
RTVSPropertyOp51
 70
     0
102
RTVSPropertyOp52
 70
     0
102
RTVSPropertyOp53
 70
     0
102
RTVSPropertyOp54
 70
     0
102
RTVSPropertyOp55
 70
     0
102
RTVSPropertyOp56
 70
     0
102
RTVSPropertyOp57
 70
     0
102
RTVSPropertyOp58
 70
     1
102
RTVSPropertyOp59
 70
     1
102
RTVSPropertyOp60
 70
     1
102
RTVSPropertyOp61
 70
     1
102
RTVSPropertyOp62
 70
     1
  0
XRECORD
  5
3D44
102
{ACAD_REACTORS
330
3D43
102
}
330
3D43
100
AcDbXrecord
280
     1
102
RTVSPost2010Prop28
280
     0
102
RTVSPost2010PropOp28
 70
     1
102
RTVSPost2010Prop29
280
     1
102
RTVSPost2010PropOp29
 70
     1
102
RTVSPost2010Prop30
280
     1
102
RTVSPost2010PropOp30
 70
     1
102
RTVSPost2010Prop31
280
     0
102
RTVSPost2010PropOp31
 70
     1
102
RTVSPost2010Prop32
280
     0
102
RTVSPost2010PropOp32
 70
     1
102
RTVSPost2010Prop33
280
     0
102
RTVSPost2010PropOp33
 70
     1
102
RTVSPost2010Prop34
280
     0
102
RTVSPost2010PropOp34
 70
     1
102
RTVSPost2010Prop35
280
     0
102
RTVSPost2010PropOp35
 70
     1
102
RTVSPost2010Prop36
280
     0
102
RTVSPost2010PropOp36
 70
     1
102
RTVSPost2010Prop37
 90
       50
102
RTVSPost2010PropOp37
 70
     1
102
RTVSPost2010Prop38
140
0.0
102
RTVSPost2010PropOp38
 70
     1
102
RTVSPost2010Prop39
140
1.0
102
RTVSPost2010PropOp39
 70
     1
102
RTVSPost2010Prop40
 90
        0
102
RTVSPost2010PropOp40
 70
     1
102
RTVSPost2010Prop41ColorIndex
 90
       18
102
RTVSPost2010Prop41ColorRGB
 90
-16777216
102
RTVSPost2010PropOp41
 70
     1
102
RTVSPost2010Prop42
 90
       50
102
RTVSPost2010PropOp42
 70
     1
102
RTVSPost2010Prop43
 90
        3
102
RTVSPost2010PropOp43
 70
     1
102
RTVSPost2010Prop44ColorIndex
 90
        5
102
RTVSPost2010Prop44ColorRGB
 90
      255
102
RTVSPost2010PropOp44
 70
     1
102
RTVSPost2010Prop45
280
     0
102
RTVSPost2010PropOp45
 70
     1
102
RTVSPost2010Prop46
 90
       50
102
RTVSPost2010PropOp46
 70
     1
102
RTVSPost2010Prop47
 90
       50
102
RTVSPost2010PropOp47
 70
     1
102
RTVSPost2010Prop48
 90
       50
102
RTVSPost2010PropOp48
 70
     1
102
RTVSPost2010Prop49
280
     0
102
RTVSPost2010PropOp49
 70
     1
102
RTVSPost2010Prop50
 90
       50
102
RTVSPost2010PropOp50
 70
     1
102
RTVSPost2010Prop51ColorIndex
 90
      256
102
RTVSPost2010Prop51ColorRGB
 90
-16777216
102
RTVSPost2010PropOp51
 70
     0
102
RTVSPost2010Prop52
140
1.0
102
RTVSPost2010PropOp52
 70
     0
102
RTVSPost2010Prop53
 90
        2
102
RTVSPost2010PropOp53
 70
     1
102
RTVSPost2010Prop54
  1
strokes_ogs.tif
102
RTVSPost2010PropOp54
 70
     1
102
RTVSPost2010Prop55
280
     0
102
RTVSPost2010PropOp55
 70
     1
102
RTVSPost2010Prop56
140
1.0
102
RTVSPost2010PropOp56
 70
     1
102
RTVSPost2010Prop57
140
1.0
102
RTVSPost2010PropOp57
 70
     1
102
RTVSPropertyOp0
 70
     1
102
RTVSPropertyOp1
 70
     1
102
RTVSPropertyOp2
 70
     1
102
RTVSPropertyOp3
 70
     1
102
RTVSPropertyOp4
 70
     1
102
RTVSPropertyOp5
 70
     1
102
RTVSPropertyOp6
 70
     1
102
RTVSPropertyOp7
 70
     1
102
RTVSPropertyOp8
 70
     1
102
RTVSPropertyOp9
 70
     1
102
RTVSPropertyOp10
 70
     1
102
RTVSPropertyOp11
 70
     1
102
RTVSPropertyOp12
 70
     1
102
RTVSPropertyOp13
 70
     1
102
RTVSPropertyOp14
 70
     1
102
RTVSPropertyOp15
 70
     1
102
RTVSPropertyOp16
 70
     1
102
RTVSPropertyOp17
 70
     1
102
RTVSPropertyOp18
 70
     1
102
RTVSPropertyOp19
 70
     1
102
RTVSPropertyOp20
 70
     1
102
RTVSPropertyOp21
 70
     1
102
RTVSPropertyOp22
 70
     1
102
RTVSPropertyOp23
 70
     1
102
RTVSPropertyOp24
 70
     1
102
RTVSPropertyOp25
 70
     1
102
RTVSPropertyOp26
 70
     1
102
RTVSPropertyOp27
 70
     1
102
RTVSPropertyOp28
 70
     1
102
RTVSPropertyOp29
 70
     1
102
RTVSPropertyOp30
 70
     1
102
RTVSPropertyOp31
 70
     1
102
RTVSPropertyOp32
 70
     1
102
RTVSPropertyOp33
 70
     1
102
RTVSPropertyOp34
 70
     1
102
RTVSPropertyOp35
 70
     1
102
RTVSPropertyOp36
 70
     1
102
RTVSPropertyOp37
 70
     1
102
RTVSPropertyOp38
 70
     1
102
RTVSPropertyOp39
 70
     1
102
RTVSPropertyOp40
 70
     1
102
RTVSPropertyOp41
 70
     1
102
RTVSPropertyOp42
 70
     1
102
RTVSPropertyOp43
 70
     1
102
RTVSPropertyOp44
 70
     1
102
RTVSPropertyOp45
 70
     1
102
RTVSPropertyOp46
 70
     1
102
RTVSPropertyOp47
 70
     1
102
RTVSPropertyOp48
 70
     1
102
RTVSPropertyOp49
 70
     1
102
RTVSPropertyOp50
 70
     1
102
RTVSPropertyOp51
 70
     0
102
RTVSPropertyOp52
 70
     0
102
RTVSPropertyOp53
 70
     1
102
RTVSPropertyOp54
 70
     1
102
RTVSPropertyOp55
 70
     1
102
RTVSPropertyOp56
 70
     1
102
RTVSPropertyOp57
 70
     1
102
RTVSPropertyOp58
 70
     1
102
RTVSPropertyOp59
 70
     1
102
RTVSPropertyOp60
 70
     1
102
RTVSPropertyOp61
 70
     1
102
RTVSPropertyOp62
 70
     1
  0
XRECORD
  5
3D5A
102
{ACAD_REACTORS
330
3D59
102
}
330
3D59
100
AcDbXrecord
280
     1
102
RTVSPost2010Prop28
280
     0
102
RTVSPost2010PropOp28
 70
     1
102
RTVSPost2010Prop29
280
     1
102
RTVSPost2010PropOp29
 70
     1
102
RTVSPost2010Prop30
280
     1
102
RTVSPost2010PropOp30
 70
     1
102
RTVSPost2010Prop31
280
     0
102
RTVSPost2010PropOp31
 70
     1
102
RTVSPost2010Prop32
280
     0
102
RTVSPost2010PropOp32
 70
     1
102
RTVSPost2010Prop33
280
     0
102
RTVSPost2010PropOp33
 70
     1
102
RTVSPost2010Prop34
280
     0
102
RTVSPost2010PropOp34
 70
     1
102
RTVSPost2010Prop35
280
     0
102
RTVSPost2010PropOp35
 70
     1
102
RTVSPost2010Prop36
280
     0
102
RTVSPost2010PropOp36
 70
     1
102
RTVSPost2010Prop37
 90
       50
102
RTVSPost2010PropOp37
 70
     1
102
RTVSPost2010Prop38
140
0.0
102
RTVSPost2010PropOp38
 70
     1
102
RTVSPost2010Prop39
140
1.0
102
RTVSPost2010PropOp39
 70
     1
102
RTVSPost2010Prop40
 90
        0
102
RTVSPost2010PropOp40
 70
     1
102
RTVSPost2010Prop41ColorIndex
 90
       18
102
RTVSPost2010Prop41ColorRGB
 90
-16777216
102
RTVSPost2010PropOp41
 70
     1
102
RTVSPost2010Prop42
 90
       50
102
RTVSPost2010PropOp42
 70
     1
102
RTVSPost2010Prop43
 90
        3
102
RTVSPost2010PropOp43
 70
     1
102
RTVSPost2010Prop44ColorIndex
 90
        5
102
RTVSPost2010Prop44ColorRGB
 90
      255
102
RTVSPost2010PropOp44
 70
     1
102
RTVSPost2010Prop45
280
     0
102
RTVSPost2010PropOp45
 70
     1
102
RTVSPost2010Prop46
 90
       50
102
RTVSPost2010PropOp46
 70
     1
102
RTVSPost2010Prop47
 90
       50
102
RTVSPost2010PropOp47
 70
     1
102
RTVSPost2010Prop48
 90
       50
102
RTVSPost2010PropOp48
 70
     1
102
RTVSPost2010Prop49
280
     0
102
RTVSPost2010PropOp49
 70
     1
102
RTVSPost2010Prop50
 90
       50
102
RTVSPost2010PropOp50
 70
     1
102
RTVSPost2010Prop51ColorIndex
 90
      256
102
RTVSPost2010Prop51ColorRGB
 90
-16777216
102
RTVSPost2010PropOp51
 70
     0
102
RTVSPost2010Prop52
140
1.0
102
RTVSPost2010PropOp52
 70
     0
102
RTVSPost2010Prop53
 90
        2
102
RTVSPost2010PropOp53
 70
     1
102
RTVSPost2010Prop54
  1
strokes_ogs.tif
102
RTVSPost2010PropOp54
 70
     1
102
RTVSPost2010Prop55
280
     0
102
RTVSPost2010PropOp55
 70
     1
102
RTVSPost2010Prop56
140
1.0
102
RTVSPost2010PropOp56
 70
     1
102
RTVSPost2010Prop57
140
1.0
102
RTVSPost2010PropOp57
 70
     1
102
RTVSPropertyOp0
 70
     1
102
RTVSPropertyOp1
 70
     1
102
RTVSPropertyOp2
 70
     1
102
RTVSPropertyOp3
 70
     1
102
RTVSPropertyOp4
 70
     1
102
RTVSPropertyOp5
 70
     1
102
RTVSPropertyOp6
 70
     1
102
RTVSPropertyOp7
 70
     1
102
RTVSPropertyOp8
 70
     1
102
RTVSPropertyOp9
 70
     1
102
RTVSPropertyOp10
 70
     1
102
RTVSPropertyOp11
 70
     1
102
RTVSPropertyOp12
 70
     1
102
RTVSPropertyOp13
 70
     1
102
RTVSPropertyOp14
 70
     1
102
RTVSPropertyOp15
 70
     1
102
RTVSPropertyOp16
 70
     1
102
RTVSPropertyOp17
 70
     1
102
RTVSPropertyOp18
 70
     1
102
RTVSPropertyOp19
 70
     1
102
RTVSPropertyOp20
 70
     1
102
RTVSPropertyOp21
 70
     1
102
RTVSPropertyOp22
 70
     1
102
RTVSPropertyOp23
 70
     1
102
RTVSPropertyOp24
 70
     1
102
RTVSPropertyOp25
 70
     1
102
RTVSPropertyOp26
 70
     1
102
RTVSPropertyOp27
 70
     1
102
RTVSPropertyOp28
 70
     1
102
RTVSPropertyOp29
 70
     1
102
RTVSPropertyOp30
 70
     1
102
RTVSPropertyOp31
 70
     1
102
RTVSPropertyOp32
 70
     1
102
RTVSPropertyOp33
 70
     1
102
RTVSPropertyOp34
 70
     1
102
RTVSPropertyOp35
 70
     1
102
RTVSPropertyOp36
 70
     1
102
RTVSPropertyOp37
 70
     1
102
RTVSPropertyOp38
 70
     1
102
RTVSPropertyOp39
 70
     1
102
RTVSPropertyOp40
 70
     1
102
RTVSPropertyOp41
 70
     1
102
RTVSPropertyOp42
 70
     1
102
RTVSPropertyOp43
 70
     1
102
RTVSPropertyOp44
 70
     1
102
RTVSPropertyOp45
 70
     1
102
RTVSPropertyOp46
 70
     1
102
RTVSPropertyOp47
 70
     1
102
RTVSPropertyOp48
 70
     1
102
RTVSPropertyOp49
 70
     1
102
RTVSPropertyOp50
 70
     1
102
RTVSPropertyOp51
 70
     0
102
RTVSPropertyOp52
 70
     0
102
RTVSPropertyOp53
 70
     1
102
RTVSPropertyOp54
 70
     1
102
RTVSPropertyOp55
 70
     1
102
RTVSPropertyOp56
 70
     1
102
RTVSPropertyOp57
 70
     1
102
RTVSPropertyOp58
 70
     1
102
RTVSPropertyOp59
 70
     1
102
RTVSPropertyOp60
 70
     1
102
RTVSPropertyOp61
 70
     1
102
RTVSPropertyOp62
 70
     1
  0
XRECORD
  5
3D58
102
{ACAD_REACTORS
330
3D57
102
}
330
3D57
100
AcDbXrecord
280
     1
102
RTVSPost2010Prop28
280
     0
102
RTVSPost2010PropOp28
 70
     1
102
RTVSPost2010Prop29
280
     1
102
RTVSPost2010PropOp29
 70
     1
102
RTVSPost2010Prop30
280
     1
102
RTVSPost2010PropOp30
 70
     1
102
RTVSPost2010Prop31
280
     0
102
RTVSPost2010PropOp31
 70
     1
102
RTVSPost2010Prop32
280
     0
102
RTVSPost2010PropOp32
 70
     1
102
RTVSPost2010Prop33
280
     0
102
RTVSPost2010PropOp33
 70
     1
102
RTVSPost2010Prop34
280
     0
102
RTVSPost2010PropOp34
 70
     1
102
RTVSPost2010Prop35
280
     0
102
RTVSPost2010PropOp35
 70
     1
102
RTVSPost2010Prop36
280
     0
102
RTVSPost2010PropOp36
 70
     1
102
RTVSPost2010Prop37
 90
       50
102
RTVSPost2010PropOp37
 70
     1
102
RTVSPost2010Prop38
140
0.0
102
RTVSPost2010PropOp38
 70
     1
102
RTVSPost2010Prop39
140
1.0
102
RTVSPost2010PropOp39
 70
     1
102
RTVSPost2010Prop40
 90
        0
102
RTVSPost2010PropOp40
 70
     1
102
RTVSPost2010Prop41ColorIndex
 90
       18
102
RTVSPost2010Prop41ColorRGB
 90
-16777216
102
RTVSPost2010PropOp41
 70
     1
102
RTVSPost2010Prop42
 90
       50
102
RTVSPost2010PropOp42
 70
     1
102
RTVSPost2010Prop43
 90
        3
102
RTVSPost2010PropOp43
 70
     1
102
RTVSPost2010Prop44ColorIndex
 90
        5
102
RTVSPost2010Prop44ColorRGB
 90
      255
102
RTVSPost2010PropOp44
 70
     1
102
RTVSPost2010Prop45
280
     0
102
RTVSPost2010PropOp45
 70
     1
102
RTVSPost2010Prop46
 90
       50
102
RTVSPost2010PropOp46
 70
     1
102
RTVSPost2010Prop47
 90
       50
102
RTVSPost2010PropOp47
 70
     1
102
RTVSPost2010Prop48
 90
       50
102
RTVSPost2010PropOp48
 70
     1
102
RTVSPost2010Prop49
280
     0
102
RTVSPost2010PropOp49
 70
     1
102
RTVSPost2010Prop50
 90
       50
102
RTVSPost2010PropOp50
 70
     1
102
RTVSPost2010Prop51ColorIndex
 90
      256
102
RTVSPost2010Prop51ColorRGB
 90
-16777216
102
RTVSPost2010PropOp51
 70
     0
102
RTVSPost2010Prop52
140
1.0
102
RTVSPost2010PropOp52
 70
     0
102
RTVSPost2010Prop53
 90
        2
102
RTVSPost2010PropOp53
 70
     1
102
RTVSPost2010Prop54
  1
strokes_ogs.tif
102
RTVSPost2010PropOp54
 70
     1
102
RTVSPost2010Prop55
280
     0
102
RTVSPost2010PropOp55
 70
     1
102
RTVSPost2010Prop56
140
1.0
102
RTVSPost2010PropOp56
 70
     1
102
RTVSPost2010Prop57
140
1.0
102
RTVSPost2010PropOp57
 70
     1
102
RTVSPropertyOp0
 70
     1
102
RTVSPropertyOp1
 70
     1
102
RTVSPropertyOp2
 70
     1
102
RTVSPropertyOp3
 70
     1
102
RTVSPropertyOp4
 70
     1
102
RTVSPropertyOp5
 70
     1
102
RTVSPropertyOp6
 70
     1
102
RTVSPropertyOp7
 70
     1
102
RTVSPropertyOp8
 70
     1
102
RTVSPropertyOp9
 70
     1
102
RTVSPropertyOp10
 70
     1
102
RTVSPropertyOp11
 70
     1
102
RTVSPropertyOp12
 70
     1
102
RTVSPropertyOp13
 70
     1
102
RTVSPropertyOp14
 70
     1
102
RTVSPropertyOp15
 70
     1
102
RTVSPropertyOp16
 70
     1
102
RTVSPropertyOp17
 70
     1
102
RTVSPropertyOp18
 70
     1
102
RTVSPropertyOp19
 70
     1
102
RTVSPropertyOp20
 70
     1
102
RTVSPropertyOp21
 70
     1
102
RTVSPropertyOp22
 70
     1
102
RTVSPropertyOp23
 70
     1
102
RTVSPropertyOp24
 70
     1
102
RTVSPropertyOp25
 70
     1
102
RTVSPropertyOp26
 70
     1
102
RTVSPropertyOp27
 70
     1
102
RTVSPropertyOp28
 70
     1
102
RTVSPropertyOp29
 70
     1
102
RTVSPropertyOp30
 70
     1
102
RTVSPropertyOp31
 70
     1
102
RTVSPropertyOp32
 70
     1
102
RTVSPropertyOp33
 70
     1
102
RTVSPropertyOp34
 70
     1
102
RTVSPropertyOp35
 70
     1
102
RTVSPropertyOp36
 70
     1
102
RTVSPropertyOp37
 70
     1
102
RTVSPropertyOp38
 70
     1
102
RTVSPropertyOp39
 70
     1
102
RTVSPropertyOp40
 70
     1
102
RTVSPropertyOp41
 70
     1
102
RTVSPropertyOp42
 70
     1
102
RTVSPropertyOp43
 70
     1
102
RTVSPropertyOp44
 70
     1
102
RTVSPropertyOp45
 70
     1
102
RTVSPropertyOp46
 70
     1
102
RTVSPropertyOp47
 70
     1
102
RTVSPropertyOp48
 70
     1
102
RTVSPropertyOp49
 70
     1
102
RTVSPropertyOp50
 70
     1
102
RTVSPropertyOp51
 70
     0
102
RTVSPropertyOp52
 70
     0
102
RTVSPropertyOp53
 70
     1
102
RTVSPropertyOp54
 70
     1
102
RTVSPropertyOp55
 70
     1
102
RTVSPropertyOp56
 70
     1
102
RTVSPropertyOp57
 70
     1
102
RTVSPropertyOp58
 70
     1
102
RTVSPropertyOp59
 70
     1
102
RTVSPropertyOp60
 70
     1
102
RTVSPropertyOp61
 70
     1
102
RTVSPropertyOp62
 70
     1
  0
XRECORD
  5
3D52
102
{ACAD_REACTORS
330
3D51
102
}
330
3D51
100
AcDbXrecord
280
     1
102
RTVSPost2010Prop28
280
     0
102
RTVSPost2010PropOp28
 70
     1
102
RTVSPost2010Prop29
280
     1
102
RTVSPost2010PropOp29
 70
     1
102
RTVSPost2010Prop30
280
     1
102
RTVSPost2010PropOp30
 70
     1
102
RTVSPost2010Prop31
280
     0
102
RTVSPost2010PropOp31
 70
     1
102
RTVSPost2010Prop32
280
     0
102
RTVSPost2010PropOp32
 70
     1
102
RTVSPost2010Prop33
280
     0
102
RTVSPost2010PropOp33
 70
     1
102
RTVSPost2010Prop34
280
     0
102
RTVSPost2010PropOp34
 70
     1
102
RTVSPost2010Prop35
280
     0
102
RTVSPost2010PropOp35
 70
     1
102
RTVSPost2010Prop36
280
     0
102
RTVSPost2010PropOp36
 70
     1
102
RTVSPost2010Prop37
 90
       50
102
RTVSPost2010PropOp37
 70
     1
102
RTVSPost2010Prop38
140
0.0
102
RTVSPost2010PropOp38
 70
     1
102
RTVSPost2010Prop39
140
1.0
102
RTVSPost2010PropOp39
 70
     1
102
RTVSPost2010Prop40
 90
        0
102
RTVSPost2010PropOp40
 70
     1
102
RTVSPost2010Prop41ColorIndex
 90
       18
102
RTVSPost2010Prop41ColorRGB
 90
-16777216
102
RTVSPost2010PropOp41
 70
     1
102
RTVSPost2010Prop42
 90
       50
102
RTVSPost2010PropOp42
 70
     1
102
RTVSPost2010Prop43
 90
        3
102
RTVSPost2010PropOp43
 70
     1
102
RTVSPost2010Prop44ColorIndex
 90
        5
102
RTVSPost2010Prop44ColorRGB
 90
      255
102
RTVSPost2010PropOp44
 70
     1
102
RTVSPost2010Prop45
280
     0
102
RTVSPost2010PropOp45
 70
     1
102
RTVSPost2010Prop46
 90
       50
102
RTVSPost2010PropOp46
 70
     1
102
RTVSPost2010Prop47
 90
       50
102
RTVSPost2010PropOp47
 70
     1
102
RTVSPost2010Prop48
 90
       50
102
RTVSPost2010PropOp48
 70
     1
102
RTVSPost2010Prop49
280
     0
102
RTVSPost2010PropOp49
 70
     1
102
RTVSPost2010Prop50
 90
       50
102
RTVSPost2010PropOp50
 70
     1
102
RTVSPost2010Prop51ColorIndex
 90
      256
102
RTVSPost2010Prop51ColorRGB
 90
-16777216
102
RTVSPost2010PropOp51
 70
     0
102
RTVSPost2010Prop52
140
1.0
102
RTVSPost2010PropOp52
 70
     0
102
RTVSPost2010Prop53
 90
        2
102
RTVSPost2010PropOp53
 70
     1
102
RTVSPost2010Prop54
  1
strokes_ogs.tif
102
RTVSPost2010PropOp54
 70
     1
102
RTVSPost2010Prop55
280
     0
102
RTVSPost2010PropOp55
 70
     1
102
RTVSPost2010Prop56
140
1.0
102
RTVSPost2010PropOp56
 70
     1
102
RTVSPost2010Prop57
140
1.0
102
RTVSPost2010PropOp57
 70
     1
102
RTVSPropertyOp0
 70
     1
102
RTVSPropertyOp1
 70
     1
102
RTVSPropertyOp2
 70
     1
102
RTVSPropertyOp3
 70
     1
102
RTVSPropertyOp4
 70
     1
102
RTVSPropertyOp5
 70
     1
102
RTVSPropertyOp6
 70
     1
102
RTVSPropertyOp7
 70
     1
102
RTVSPropertyOp8
 70
     1
102
RTVSPropertyOp9
 70
     1
102
RTVSPropertyOp10
 70
     1
102
RTVSPropertyOp11
 70
     1
102
RTVSPropertyOp12
 70
     1
102
RTVSPropertyOp13
 70
     1
102
RTVSPropertyOp14
 70
     1
102
RTVSPropertyOp15
 70
     1
102
RTVSPropertyOp16
 70
     1
102
RTVSPropertyOp17
 70
     1
102
RTVSPropertyOp18
 70
     1
102
RTVSPropertyOp19
 70
     1
102
RTVSPropertyOp20
 70
     1
102
RTVSPropertyOp21
 70
     1
102
RTVSPropertyOp22
 70
     1
102
RTVSPropertyOp23
 70
     1
102
RTVSPropertyOp24
 70
     1
102
RTVSPropertyOp25
 70
     1
102
RTVSPropertyOp26
 70
     1
102
RTVSPropertyOp27
 70
     1
102
RTVSPropertyOp28
 70
     1
102
RTVSPropertyOp29
 70
     1
102
RTVSPropertyOp30
 70
     1
102
RTVSPropertyOp31
 70
     1
102
RTVSPropertyOp32
 70
     1
102
RTVSPropertyOp33
 70
     1
102
RTVSPropertyOp34
 70
     1
102
RTVSPropertyOp35
 70
     1
102
RTVSPropertyOp36
 70
     1
102
RTVSPropertyOp37
 70
     1
102
RTVSPropertyOp38
 70
     1
102
RTVSPropertyOp39
 70
     1
102
RTVSPropertyOp40
 70
     1
102
RTVSPropertyOp41
 70
     1
102
RTVSPropertyOp42
 70
     1
102
RTVSPropertyOp43
 70
     1
102
RTVSPropertyOp44
 70
     1
102
RTVSPropertyOp45
 70
     1
102
RTVSPropertyOp46
 70
     1
102
RTVSPropertyOp47
 70
     1
102
RTVSPropertyOp48
 70
     1
102
RTVSPropertyOp49
 70
     1
102
RTVSPropertyOp50
 70
     1
102
RTVSPropertyOp51
 70
     0
102
RTVSPropertyOp52
 70
     0
102
RTVSPropertyOp53
 70
     1
102
RTVSPropertyOp54
 70
     1
102
RTVSPropertyOp55
 70
     1
102
RTVSPropertyOp56
 70
     1
102
RTVSPropertyOp57
 70
     1
102
RTVSPropertyOp58
 70
     1
102
RTVSPropertyOp59
 70
     1
102
RTVSPropertyOp60
 70
     1
102
RTVSPropertyOp61
 70
     1
102
RTVSPropertyOp62
 70
     1
  0
XRECORD
  5
3D54
102
{ACAD_REACTORS
330
3D53
102
}
330
3D53
100
AcDbXrecord
280
     1
102
RTVSPost2010Prop28
280
     0
102
RTVSPost2010PropOp28
 70
     1
102
RTVSPost2010Prop29
280
     1
102
RTVSPost2010PropOp29
 70
     1
102
RTVSPost2010Prop30
280
     1
102
RTVSPost2010PropOp30
 70
     1
102
RTVSPost2010Prop31
280
     0
102
RTVSPost2010PropOp31
 70
     1
102
RTVSPost2010Prop32
280
     0
102
RTVSPost2010PropOp32
 70
     1
102
RTVSPost2010Prop33
280
     0
102
RTVSPost2010PropOp33
 70
     1
102
RTVSPost2010Prop34
280
     0
102
RTVSPost2010PropOp34
 70
     1
102
RTVSPost2010Prop35
280
     0
102
RTVSPost2010PropOp35
 70
     1
102
RTVSPost2010Prop36
280
     0
102
RTVSPost2010PropOp36
 70
     1
102
RTVSPost2010Prop37
 90
       50
102
RTVSPost2010PropOp37
 70
     1
102
RTVSPost2010Prop38
140
0.0
102
RTVSPost2010PropOp38
 70
     1
102
RTVSPost2010Prop39
140
1.0
102
RTVSPost2010PropOp39
 70
     1
102
RTVSPost2010Prop40
 90
        0
102
RTVSPost2010PropOp40
 70
     1
102
RTVSPost2010Prop41ColorIndex
 90
       18
102
RTVSPost2010Prop41ColorRGB
 90
-16777216
102
RTVSPost2010PropOp41
 70
     1
102
RTVSPost2010Prop42
 90
       50
102
RTVSPost2010PropOp42
 70
     1
102
RTVSPost2010Prop43
 90
        3
102
RTVSPost2010PropOp43
 70
     1
102
RTVSPost2010Prop44ColorIndex
 90
        5
102
RTVSPost2010Prop44ColorRGB
 90
      255
102
RTVSPost2010PropOp44
 70
     1
102
RTVSPost2010Prop45
280
     0
102
RTVSPost2010PropOp45
 70
     1
102
RTVSPost2010Prop46
 90
       50
102
RTVSPost2010PropOp46
 70
     1
102
RTVSPost2010Prop47
 90
       50
102
RTVSPost2010PropOp47
 70
     1
102
RTVSPost2010Prop48
 90
       50
102
RTVSPost2010PropOp48
 70
     1
102
RTVSPost2010Prop49
280
     0
102
RTVSPost2010PropOp49
 70
     1
102
RTVSPost2010Prop50
 90
       50
102
RTVSPost2010PropOp50
 70
     1
102
RTVSPost2010Prop51ColorIndex
 90
      256
102
RTVSPost2010Prop51ColorRGB
 90
-16777216
102
RTVSPost2010PropOp51
 70
     0
102
RTVSPost2010Prop52
140
1.0
102
RTVSPost2010PropOp52
 70
     0
102
RTVSPost2010Prop53
 90
        2
102
RTVSPost2010PropOp53
 70
     1
102
RTVSPost2010Prop54
  1
strokes_ogs.tif
102
RTVSPost2010PropOp54
 70
     1
102
RTVSPost2010Prop55
280
     0
102
RTVSPost2010PropOp55
 70
     1
102
RTVSPost2010Prop56
140
1.0
102
RTVSPost2010PropOp56
 70
     1
102
RTVSPost2010Prop57
140
1.0
102
RTVSPost2010PropOp57
 70
     1
102
RTVSPropertyOp0
 70
     1
102
RTVSPropertyOp1
 70
     1
102
RTVSPropertyOp2
 70
     1
102
RTVSPropertyOp3
 70
     1
102
RTVSPropertyOp4
 70
     1
102
RTVSPropertyOp5
 70
     1
102
RTVSPropertyOp6
 70
     1
102
RTVSPropertyOp7
 70
     1
102
RTVSPropertyOp8
 70
     1
102
RTVSPropertyOp9
 70
     1
102
RTVSPropertyOp10
 70
     1
102
RTVSPropertyOp11
 70
     1
102
RTVSPropertyOp12
 70
     1
102
RTVSPropertyOp13
 70
     1
102
RTVSPropertyOp14
 70
     1
102
RTVSPropertyOp15
 70
     1
102
RTVSPropertyOp16
 70
     1
102
RTVSPropertyOp17
 70
     1
102
RTVSPropertyOp18
 70
     1
102
RTVSPropertyOp19
 70
     1
102
RTVSPropertyOp20
 70
     1
102
RTVSPropertyOp21
 70
     1
102
RTVSPropertyOp22
 70
     1
102
RTVSPropertyOp23
 70
     1
102
RTVSPropertyOp24
 70
     1
102
RTVSPropertyOp25
 70
     1
102
RTVSPropertyOp26
 70
     1
102
RTVSPropertyOp27
 70
     1
102
RTVSPropertyOp28
 70
     1
102
RTVSPropertyOp29
 70
     1
102
RTVSPropertyOp30
 70
     1
102
RTVSPropertyOp31
 70
     1
102
RTVSPropertyOp32
 70
     1
102
RTVSPropertyOp33
 70
     1
102
RTVSPropertyOp34
 70
     1
102
RTVSPropertyOp35
 70
     1
102
RTVSPropertyOp36
 70
     1
102
RTVSPropertyOp37
 70
     1
102
RTVSPropertyOp38
 70
     1
102
RTVSPropertyOp39
 70
     1
102
RTVSPropertyOp40
 70
     1
102
RTVSPropertyOp41
 70
     1
102
RTVSPropertyOp42
 70
     1
102
RTVSPropertyOp43
 70
     1
102
RTVSPropertyOp44
 70
     1
102
RTVSPropertyOp45
 70
     1
102
RTVSPropertyOp46
 70
     1
102
RTVSPropertyOp47
 70
     1
102
RTVSPropertyOp48
 70
     1
102
RTVSPropertyOp49
 70
     1
102
RTVSPropertyOp50
 70
     1
102
RTVSPropertyOp51
 70
     0
102
RTVSPropertyOp52
 70
     0
102
RTVSPropertyOp53
 70
     1
102
RTVSPropertyOp54
 70
     1
102
RTVSPropertyOp55
 70
     1
102
RTVSPropertyOp56
 70
     1
102
RTVSPropertyOp57
 70
     1
102
RTVSPropertyOp58
 70
     1
102
RTVSPropertyOp59
 70
     1
102
RTVSPropertyOp60
 70
     1
102
RTVSPropertyOp61
 70
     1
102
RTVSPropertyOp62
 70
     1
  0
XRECORD
  5
3D4A
102
{ACAD_REACTORS
330
3D49
102
}
330
3D49
100
AcDbXrecord
280
     1
102
RTVSPost2010Prop28
280
     0
102
RTVSPost2010PropOp28
 70
     1
102
RTVSPost2010Prop29
280
     1
102
RTVSPost2010PropOp29
 70
     1
102
RTVSPost2010Prop30
280
     1
102
RTVSPost2010PropOp30
 70
     1
102
RTVSPost2010Prop31
280
     0
102
RTVSPost2010PropOp31
 70
     1
102
RTVSPost2010Prop32
280
     0
102
RTVSPost2010PropOp32
 70
     1
102
RTVSPost2010Prop33
280
     0
102
RTVSPost2010PropOp33
 70
     1
102
RTVSPost2010Prop34
280
     0
102
RTVSPost2010PropOp34
 70
     1
102
RTVSPost2010Prop35
280
     0
102
RTVSPost2010PropOp35
 70
     1
102
RTVSPost2010Prop36
280
     0
102
RTVSPost2010PropOp36
 70
     1
102
RTVSPost2010Prop37
 90
       50
102
RTVSPost2010PropOp37
 70
     1
102
RTVSPost2010Prop38
140
0.0
102
RTVSPost2010PropOp38
 70
     1
102
RTVSPost2010Prop39
140
1.0
102
RTVSPost2010PropOp39
 70
     1
102
RTVSPost2010Prop40
 90
        0
102
RTVSPost2010PropOp40
 70
     1
102
RTVSPost2010Prop41ColorIndex
 90
       18
102
RTVSPost2010Prop41ColorRGB
 90
-16777216
102
RTVSPost2010PropOp41
 70
     1
102
RTVSPost2010Prop42
 90
       50
102
RTVSPost2010PropOp42
 70
     1
102
RTVSPost2010Prop43
 90
        3
102
RTVSPost2010PropOp43
 70
     1
102
RTVSPost2010Prop44ColorIndex
 90
        5
102
RTVSPost2010Prop44ColorRGB
 90
      255
102
RTVSPost2010PropOp44
 70
     1
102
RTVSPost2010Prop45
280
     0
102
RTVSPost2010PropOp45
 70
     1
102
RTVSPost2010Prop46
 90
       50
102
RTVSPost2010PropOp46
 70
     1
102
RTVSPost2010Prop47
 90
       50
102
RTVSPost2010PropOp47
 70
     1
102
RTVSPost2010Prop48
 90
       50
102
RTVSPost2010PropOp48
 70
     1
102
RTVSPost2010Prop49
280
     0
102
RTVSPost2010PropOp49
 70
     1
102
RTVSPost2010Prop50
 90
       50
102
RTVSPost2010PropOp50
 70
     1
102
RTVSPost2010Prop51ColorIndex
 90
      256
102
RTVSPost2010Prop51ColorRGB
 90
-16777216
102
RTVSPost2010PropOp51
 70
     0
102
RTVSPost2010Prop52
140
1.0
102
RTVSPost2010PropOp52
 70
     0
102
RTVSPost2010Prop53
 90
        2
102
RTVSPost2010PropOp53
 70
     1
102
RTVSPost2010Prop54
  1
strokes_ogs.tif
102
RTVSPost2010PropOp54
 70
     1
102
RTVSPost2010Prop55
280
     0
102
RTVSPost2010PropOp55
 70
     1
102
RTVSPost2010Prop56
140
1.0
102
RTVSPost2010PropOp56
 70
     1
102
RTVSPost2010Prop57
140
1.0
102
RTVSPost2010PropOp57
 70
     1
102
RTVSPropertyOp0
 70
     1
102
RTVSPropertyOp1
 70
     1
102
RTVSPropertyOp2
 70
     1
102
RTVSPropertyOp3
 70
     1
102
RTVSPropertyOp4
 70
     1
102
RTVSPropertyOp5
 70
     1
102
RTVSPropertyOp6
 70
     1
102
RTVSPropertyOp7
 70
     1
102
RTVSPropertyOp8
 70
     1
102
RTVSPropertyOp9
 70
     1
102
RTVSPropertyOp10
 70
     1
102
RTVSPropertyOp11
 70
     1
102
RTVSPropertyOp12
 70
     1
102
RTVSPropertyOp13
 70
     1
102
RTVSPropertyOp14
 70
     1
102
RTVSPropertyOp15
 70
     1
102
RTVSPropertyOp16
 70
     1
102
RTVSPropertyOp17
 70
     1
102
RTVSPropertyOp18
 70
     1
102
RTVSPropertyOp19
 70
     1
102
RTVSPropertyOp20
 70
     1
102
RTVSPropertyOp21
 70
     1
102
RTVSPropertyOp22
 70
     1
102
RTVSPropertyOp23
 70
     1
102
RTVSPropertyOp24
 70
     1
102
RTVSPropertyOp25
 70
     1
102
RTVSPropertyOp26
 70
     1
102
RTVSPropertyOp27
 70
     1
102
RTVSPropertyOp28
 70
     1
102
RTVSPropertyOp29
 70
     1
102
RTVSPropertyOp30
 70
     1
102
RTVSPropertyOp31
 70
     1
102
RTVSPropertyOp32
 70
     1
102
RTVSPropertyOp33
 70
     1
102
RTVSPropertyOp34
 70
     1
102
RTVSPropertyOp35
 70
     1
102
RTVSPropertyOp36
 70
     1
102
RTVSPropertyOp37
 70
     1
102
RTVSPropertyOp38
 70
     1
102
RTVSPropertyOp39
 70
     1
102
RTVSPropertyOp40
 70
     1
102
RTVSPropertyOp41
 70
     1
102
RTVSPropertyOp42
 70
     1
102
RTVSPropertyOp43
 70
     1
102
RTVSPropertyOp44
 70
     1
102
RTVSPropertyOp45
 70
     1
102
RTVSPropertyOp46
 70
     1
102
RTVSPropertyOp47
 70
     1
102
RTVSPropertyOp48
 70
     1
102
RTVSPropertyOp49
 70
     1
102
RTVSPropertyOp50
 70
     1
102
RTVSPropertyOp51
 70
     0
102
RTVSPropertyOp52
 70
     0
102
RTVSPropertyOp53
 70
     1
102
RTVSPropertyOp54
 70
     1
102
RTVSPropertyOp55
 70
     1
102
RTVSPropertyOp56
 70
     1
102
RTVSPropertyOp57
 70
     1
102
RTVSPropertyOp58
 70
     1
102
RTVSPropertyOp59
 70
     1
102
RTVSPropertyOp60
 70
     1
102
RTVSPropertyOp61
 70
     1
102
RTVSPropertyOp62
 70
     1
  0
XRECORD
  5
3D3E
102
{ACAD_REACTORS
330
3D3D
102
}
330
3D3D
100
AcDbXrecord
280
     1
102
RTVSPost2010Prop28
280
     0
102
RTVSPost2010PropOp28
 70
     1
102
RTVSPost2010Prop29
280
     1
102
RTVSPost2010PropOp29
 70
     1
102
RTVSPost2010Prop30
280
     1
102
RTVSPost2010PropOp30
 70
     1
102
RTVSPost2010Prop31
280
     0
102
RTVSPost2010PropOp31
 70
     1
102
RTVSPost2010Prop32
280
     0
102
RTVSPost2010PropOp32
 70
     1
102
RTVSPost2010Prop33
280
     0
102
RTVSPost2010PropOp33
 70
     1
102
RTVSPost2010Prop34
280
     0
102
RTVSPost2010PropOp34
 70
     1
102
RTVSPost2010Prop35
280
     0
102
RTVSPost2010PropOp35
 70
     1
102
RTVSPost2010Prop36
280
     0
102
RTVSPost2010PropOp36
 70
     1
102
RTVSPost2010Prop37
 90
       50
102
RTVSPost2010PropOp37
 70
     1
102
RTVSPost2010Prop38
140
0.0
102
RTVSPost2010PropOp38
 70
     1
102
RTVSPost2010Prop39
140
1.0
102
RTVSPost2010PropOp39
 70
     1
102
RTVSPost2010Prop40
 90
        0
102
RTVSPost2010PropOp40
 70
     1
102
RTVSPost2010Prop41ColorIndex
 90
       18
102
RTVSPost2010Prop41ColorRGB
 90
-16777216
102
RTVSPost2010PropOp41
 70
     1
102
RTVSPost2010Prop42
 90
       50
102
RTVSPost2010PropOp42
 70
     1
102
RTVSPost2010Prop43
 90
        3
102
RTVSPost2010PropOp43
 70
     1
102
RTVSPost2010Prop44ColorIndex
 90
        5
102
RTVSPost2010Prop44ColorRGB
 90
      255
102
RTVSPost2010PropOp44
 70
     1
102
RTVSPost2010Prop45
280
     0
102
RTVSPost2010PropOp45
 70
     1
102
RTVSPost2010Prop46
 90
       50
102
RTVSPost2010PropOp46
 70
     1
102
RTVSPost2010Prop47
 90
       50
102
RTVSPost2010PropOp47
 70
     1
102
RTVSPost2010Prop48
 90
       50
102
RTVSPost2010PropOp48
 70
     1
102
RTVSPost2010Prop49
280
     0
102
RTVSPost2010PropOp49
 70
     1
102
RTVSPost2010Prop50
 90
       50
102
RTVSPost2010PropOp50
 70
     1
102
RTVSPost2010Prop51ColorIndex
 90
      256
102
RTVSPost2010Prop51ColorRGB
 90
-16777216
102
RTVSPost2010PropOp51
 70
     0
102
RTVSPost2010Prop52
140
1.0
102
RTVSPost2010PropOp52
 70
     0
102
RTVSPost2010Prop53
 90
        2
102
RTVSPost2010PropOp53
 70
     1
102
RTVSPost2010Prop54
  1
strokes_ogs.tif
102
RTVSPost2010PropOp54
 70
     1
102
RTVSPost2010Prop55
280
     0
102
RTVSPost2010PropOp55
 70
     1
102
RTVSPost2010Prop56
140
1.0
102
RTVSPost2010PropOp56
 70
     1
102
RTVSPost2010Prop57
140
1.0
102
RTVSPost2010PropOp57
 70
     1
102
RTVSPropertyOp0
 70
     1
102
RTVSPropertyOp1
 70
     1
102
RTVSPropertyOp2
 70
     1
102
RTVSPropertyOp3
 70
     1
102
RTVSPropertyOp4
 70
     1
102
RTVSPropertyOp5
 70
     1
102
RTVSPropertyOp6
 70
     1
102
RTVSPropertyOp7
 70
     1
102
RTVSPropertyOp8
 70
     1
102
RTVSPropertyOp9
 70
     1
102
RTVSPropertyOp10
 70
     1
102
RTVSPropertyOp11
 70
     1
102
RTVSPropertyOp12
 70
     1
102
RTVSPropertyOp13
 70
     1
102
RTVSPropertyOp14
 70
     1
102
RTVSPropertyOp15
 70
     1
102
RTVSPropertyOp16
 70
     1
102
RTVSPropertyOp17
 70
     1
102
RTVSPropertyOp18
 70
     1
102
RTVSPropertyOp19
 70
     1
102
RTVSPropertyOp20
 70
     1
102
RTVSPropertyOp21
 70
     1
102
RTVSPropertyOp22
 70
     1
102
RTVSPropertyOp23
 70
     1
102
RTVSPropertyOp24
 70
     1
102
RTVSPropertyOp25
 70
     1
102
RTVSPropertyOp26
 70
     1
102
RTVSPropertyOp27
 70
     1
102
RTVSPropertyOp28
 70
     1
102
RTVSPropertyOp29
 70
     1
102
RTVSPropertyOp30
 70
     1
102
RTVSPropertyOp31
 70
     1
102
RTVSPropertyOp32
 70
     1
102
RTVSPropertyOp33
 70
     1
102
RTVSPropertyOp34
 70
     1
102
RTVSPropertyOp35
 70
     1
102
RTVSPropertyOp36
 70
     1
102
RTVSPropertyOp37
 70
     1
102
RTVSPropertyOp38
 70
     1
102
RTVSPropertyOp39
 70
     1
102
RTVSPropertyOp40
 70
     1
102
RTVSPropertyOp41
 70
     1
102
RTVSPropertyOp42
 70
     1
102
RTVSPropertyOp43
 70
     1
102
RTVSPropertyOp44
 70
     1
102
RTVSPropertyOp45
 70
     1
102
RTVSPropertyOp46
 70
     1
102
RTVSPropertyOp47
 70
     1
102
RTVSPropertyOp48
 70
     1
102
RTVSPropertyOp49
 70
     1
102
RTVSPropertyOp50
 70
     1
102
RTVSPropertyOp51
 70
     0
102
RTVSPropertyOp52
 70
     0
102
RTVSPropertyOp53
 70
     1
102
RTVSPropertyOp54
 70
     1
102
RTVSPropertyOp55
 70
     1
102
RTVSPropertyOp56
 70
     1
102
RTVSPropertyOp57
 70
     1
102
RTVSPropertyOp58
 70
     1
102
RTVSPropertyOp59
 70
     1
102
RTVSPropertyOp60
 70
     1
102
RTVSPropertyOp61
 70
     1
102
RTVSPropertyOp62
 70
     1
  0
XRECORD
  5
3D56
102
{ACAD_REACTORS
330
3D55
102
}
330
3D55
100
AcDbXrecord
280
     1
102
RTVSPost2010Prop28
280
     0
102
RTVSPost2010PropOp28
 70
     1
102
RTVSPost2010Prop29
280
     1
102
RTVSPost2010PropOp29
 70
     1
102
RTVSPost2010Prop30
280
     1
102
RTVSPost2010PropOp30
 70
     1
102
RTVSPost2010Prop31
280
     0
102
RTVSPost2010PropOp31
 70
     1
102
RTVSPost2010Prop32
280
     0
102
RTVSPost2010PropOp32
 70
     1
102
RTVSPost2010Prop33
280
     0
102
RTVSPost2010PropOp33
 70
     1
102
RTVSPost2010Prop34
280
     0
102
RTVSPost2010PropOp34
 70
     1
102
RTVSPost2010Prop35
280
     0
102
RTVSPost2010PropOp35
 70
     1
102
RTVSPost2010Prop36
280
     0
102
RTVSPost2010PropOp36
 70
     1
102
RTVSPost2010Prop37
 90
       50
102
RTVSPost2010PropOp37
 70
     1
102
RTVSPost2010Prop38
140
0.0
102
RTVSPost2010PropOp38
 70
     1
102
RTVSPost2010Prop39
140
1.0
102
RTVSPost2010PropOp39
 70
     1
102
RTVSPost2010Prop40
 90
        0
102
RTVSPost2010PropOp40
 70
     1
102
RTVSPost2010Prop41ColorIndex
 90
       18
102
RTVSPost2010Prop41ColorRGB
 90
-16777216
102
RTVSPost2010PropOp41
 70
     1
102
RTVSPost2010Prop42
 90
       50
102
RTVSPost2010PropOp42
 70
     1
102
RTVSPost2010Prop43
 90
        3
102
RTVSPost2010PropOp43
 70
     1
102
RTVSPost2010Prop44ColorIndex
 90
        5
102
RTVSPost2010Prop44ColorRGB
 90
      255
102
RTVSPost2010PropOp44
 70
     1
102
RTVSPost2010Prop45
280
     0
102
RTVSPost2010PropOp45
 70
     1
102
RTVSPost2010Prop46
 90
       50
102
RTVSPost2010PropOp46
 70
     1
102
RTVSPost2010Prop47
 90
       50
102
RTVSPost2010PropOp47
 70
     1
102
RTVSPost2010Prop48
 90
       50
102
RTVSPost2010PropOp48
 70
     1
102
RTVSPost2010Prop49
280
     0
102
RTVSPost2010PropOp49
 70
     1
102
RTVSPost2010Prop50
 90
       50
102
RTVSPost2010PropOp50
 70
     1
102
RTVSPost2010Prop51ColorIndex
 90
      256
102
RTVSPost2010Prop51ColorRGB
 90
-16777216
102
RTVSPost2010PropOp51
 70
     0
102
RTVSPost2010Prop52
140
1.0
102
RTVSPost2010PropOp52
 70
     0
102
RTVSPost2010Prop53
 90
        2
102
RTVSPost2010PropOp53
 70
     1
102
RTVSPost2010Prop54
  1
strokes_ogs.tif
102
RTVSPost2010PropOp54
 70
     1
102
RTVSPost2010Prop55
280
     0
102
RTVSPost2010PropOp55
 70
     1
102
RTVSPost2010Prop56
140
1.0
102
RTVSPost2010PropOp56
 70
     1
102
RTVSPost2010Prop57
140
1.0
102
RTVSPost2010PropOp57
 70
     1
102
RTVSPropertyOp0
 70
     1
102
RTVSPropertyOp1
 70
     1
102
RTVSPropertyOp2
 70
     1
102
RTVSPropertyOp3
 70
     1
102
RTVSPropertyOp4
 70
     1
102
RTVSPropertyOp5
 70
     1
102
RTVSPropertyOp6
 70
     1
102
RTVSPropertyOp7
 70
     1
102
RTVSPropertyOp8
 70
     1
102
RTVSPropertyOp9
 70
     1
102
RTVSPropertyOp10
 70
     1
102
RTVSPropertyOp11
 70
     1
102
RTVSPropertyOp12
 70
     1
102
RTVSPropertyOp13
 70
     1
102
RTVSPropertyOp14
 70
     1
102
RTVSPropertyOp15
 70
     1
102
RTVSPropertyOp16
 70
     1
102
RTVSPropertyOp17
 70
     1
102
RTVSPropertyOp18
 70
     1
102
RTVSPropertyOp19
 70
     1
102
RTVSPropertyOp20
 70
     1
102
RTVSPropertyOp21
 70
     1
102
RTVSPropertyOp22
 70
     1
102
RTVSPropertyOp23
 70
     1
102
RTVSPropertyOp24
 70
     1
102
RTVSPropertyOp25
 70
     1
102
RTVSPropertyOp26
 70
     1
102
RTVSPropertyOp27
 70
     1
102
RTVSPropertyOp28
 70
     1
102
RTVSPropertyOp29
 70
     1
102
RTVSPropertyOp30
 70
     1
102
RTVSPropertyOp31
 70
     1
102
RTVSPropertyOp32
 70
     1
102
RTVSPropertyOp33
 70
     1
102
RTVSPropertyOp34
 70
     1
102
RTVSPropertyOp35
 70
     1
102
RTVSPropertyOp36
 70
     1
102
RTVSPropertyOp37
 70
     1
102
RTVSPropertyOp38
 70
     1
102
RTVSPropertyOp39
 70
     1
102
RTVSPropertyOp40
 70
     1
102
RTVSPropertyOp41
 70
     1
102
RTVSPropertyOp42
 70
     1
102
RTVSPropertyOp43
 70
     1
102
RTVSPropertyOp44
 70
     1
102
RTVSPropertyOp45
 70
     1
102
RTVSPropertyOp46
 70
     1
102
RTVSPropertyOp47
 70
     1
102
RTVSPropertyOp48
 70
     1
102
RTVSPropertyOp49
 70
     1
102
RTVSPropertyOp50
 70
     1
102
RTVSPropertyOp51
 70
     0
102
RTVSPropertyOp52
 70
     0
102
RTVSPropertyOp53
 70
     1
102
RTVSPropertyOp54
 70
     1
102
RTVSPropertyOp55
 70
     1
102
RTVSPropertyOp56
 70
     1
102
RTVSPropertyOp57
 70
     1
102
RTVSPropertyOp58
 70
     1
102
RTVSPropertyOp59
 70
     1
102
RTVSPropertyOp60
 70
     1
102
RTVSPropertyOp61
 70
     1
102
RTVSPropertyOp62
 70
     1
  0
ENDSEC
  0
EOF
