  0
SECTION
  2
HEADER
  9
$ACADVER
  1
AC1015
  9
$ACADMAINTVER
 70
    20
  9
$DWGCODEPAGE
  3
ANSI_1252
  9
$INSBASE
 10
0.0
 20
0.0
 30
0.0
  9
$EXTMIN
 10
-2.316477807416051
 20
-2.16092991512124
 30
0.0
  9
$EXTMAX
 10
0.4460221925839482
 20
-0.0359299151212413
 30
0.0
  9
$LIMMIN
 10
0.0
 20
0.0
  9
$LIMMAX
 10
12.0
 20
9.0
  9
$ORTHOMODE
 70
     0
  9
$REGENMODE
 70
     1
  9
$FILLMODE
 70
     1
  9
$QTEXTMODE
 70
     0
  9
$MIRRTEXT
 70
     1
  9
$LTSCALE
 40
0.125
  9
$ATTMODE
 70
     1
  9
$TEXTSIZE
 40
0.02
  9
$TRACEWID
 40
0.05
  9
$TEXTSTYLE
  7
ROMANS
  9
$CLAYER
  8
3
  9
$CELTYPE
  6
BYLAYER
  9
$CECOLOR
 62
   256
  9
$CELTSCALE
 40
1.0
  9
$DISPSILH
 70
     0
  9
$DIMSCALE
 40
1.0
  9
$DIMASZ
 40
0.031
  9
$DIMEXO
 40
0.015
  9
$DIMDLI
 40
0.1875
  9
$DIMRND
 40
0.0
  9
$DIMDLE
 40
0.0
  9
$DIMEXE
 40
0.015
  9
$DIMTP
 40
0.0
  9
$DIMTM
 40
0.0
  9
$DIMTXT
 40
0.031
  9
$DIMCEN
 40
0.063
  9
$DIMTSZ
 40
0.0
  9
$DIMTOL
 70
     0
  9
$DIMLIM
 70
     0
  9
$DIMTIH
 70
     1
  9
$DIMTOH
 70
     1
  9
$DIMSE1
 70
     0
  9
$DIMSE2
 70
     0
  9
$DIMTAD
 70
     0
  9
$DIMZIN
 70
     4
  9
$DIMBLK
  1

  9
$DIMASO
 70
     1
  9
$DIMSHO
 70
     0
  9
$DIMPOST
  1

  9
$DIMAPOST
  1

  9
$DIMALT
 70
     0
  9
$DIMALTD
 70
     2
  9
$DIMALTF
 40
25.4
  9
$DIMLFAC
 40
1.0
  9
$DIMTOFL
 70
     0
  9
$DIMTVP
 40
0.0
  9
$DIMTIX
 70
     0
  9
$DIMSOXD
 70
     0
  9
$DIMSAH
 70
     0
  9
$DIMBLK1
  1

  9
$DIMBLK2
  1

  9
$DIMSTYLE
  2
STANDARD
  9
$DIMCLRD
 70
     0
  9
$DIMCLRE
 70
     0
  9
$DIMCLRT
 70
     0
  9
$DIMTFAC
 40
1.0
  9
$DIMGAP
 40
0.02
  9
$DIMJUST
 70
     0
  9
$DIMSD1
 70
     0
  9
$DIMSD2
 70
     0
  9
$DIMTOLJ
 70
     1
  9
$DIMTZIN
 70
     4
  9
$DIMALTZ
 70
     4
  9
$DIMALTTZ
 70
     4
  9
$DIMUPT
 70
     0
  9
$DIMDEC
 70
     3
  9
$DIMTDEC
 70
     3
  9
$DIMALTU
 70
     2
  9
$DIMALTTD
 70
     2
  9
$DIMTXSTY
  7
ROMANS
  9
$DIMAUNIT
 70
     0
  9
$DIMADEC
 70
     0
  9
$DIMALTRND
 40
0.0
  9
$DIMAZIN
 70
     0
  9
$DIMDSEP
 70
    46
  9
$DIMATFIT
 70
     3
  9
$DIMFRAC
 70
     0
  9
$DIMLDRBLK
  1

  9
$DIMLUNIT
 70
     2
  9
$DIMLWD
 70
    -2
  9
$DIMLWE
 70
    -2
  9
$DIMTMOVE
 70
     2
  9
$LUNITS
 70
     2
  9
$LUPREC
 70
     3
  9
$SKETCHINC
 40
0.1
  9
$FILLETRAD
 40
0.0
  9
$AUNITS
 70
     0
  9
$AUPREC
 70
     2
  9
$MENU
  1
ACAD
  9
$ELEVATION
 40
0.0
  9
$PELEVATION
 40
0.0
  9
$THICKNESS
 40
0.0
  9
$LIMCHECK
 70
     0
  9
$CHAMFERA
 40
0.0
  9
$CHAMFERB
 40
0.0
  9
$CHAMFERC
 40
0.0
  9
$CHAMFERD
 40
0.0
  9
$SKPOLY
 70
     0
  9
$TDCREATE
 40
2449302.614371412
  9
$TDUCREATE
 40
2449302.781038078
  9
$TDUPDATE
 40
2457155.470383785
  9
$TDUUPDATE
 40
2457155.637050451
  9
$TDINDWG
 40
0.1595196065
  9
$TDUSRTIMER
 40
0.1595195949
  9
$USRTIMER
 70
     1
  9
$ANGBASE
 50
0.0
  9
$ANGDIR
 70
     0
  9
$PDMODE
 70
     0
  9
$PDSIZE
 40
0.0
  9
$PLINEWID
 40
0.0
  9
$SPLFRAME
 70
     0
  9
$SPLINETYPE
 70
     6
  9
$SPLINESEGS
 70
     8
  9
$HANDSEED
  5
D6D
  9
$SURFTAB1
 70
     6
  9
$SURFTAB2
 70
     6
  9
$SURFTYPE
 70
     6
  9
$SURFU
 70
     6
  9
$SURFV
 70
     6
  9
$UCSBASE
  2

  9
$UCSNAME
  2

  9
$UCSORG
 10
0.0
 20
0.0
 30
0.0
  9
$UCSXDIR
 10
1.0
 20
0.0
 30
0.0
  9
$UCSYDIR
 10
0.0
 20
1.0
 30
0.0
  9
$UCSORTHOREF
  2

  9
$UCSORTHOVIEW
 70
     0
  9
$UCSORGTOP
 10
0.0
 20
0.0
 30
0.0
  9
$UCSORGBOTTOM
 10
0.0
 20
0.0
 30
0.0
  9
$UCSORGLEFT
 10
0.0
 20
0.0
 30
0.0
  9
$UCSORGRIGHT
 10
0.0
 20
0.0
 30
0.0
  9
$UCSORGFRONT
 10
0.0
 20
0.0
 30
0.0
  9
$UCSORGBACK
 10
0.0
 20
0.0
 30
0.0
  9
$PUCSBASE
  2

  9
$PUCSNAME
  2

  9
$PUCSORG
 10
0.0
 20
0.0
 30
0.0
  9
$PUCSXDIR
 10
1.0
 20
0.0
 30
0.0
  9
$PUCSYDIR
 10
0.0
 20
1.0
 30
0.0
  9
$PUCSORTHOREF
  2

  9
$PUCSORTHOVIEW
 70
     0
  9
$PUCSORGTOP
 10
0.0
 20
0.0
 30
0.0
  9
$PUCSORGBOTTOM
 10
0.0
 20
0.0
 30
0.0
  9
$PUCSORGLEFT
 10
0.0
 20
0.0
 30
0.0
  9
$PUCSORGRIGHT
 10
0.0
 20
0.0
 30
0.0
  9
$PUCSORGFRONT
 10
0.0
 20
0.0
 30
0.0
  9
$PUCSORGBACK
 10
0.0
 20
0.0
 30
0.0
  9
$USERI1
 70
     0
  9
$USERI2
 70
     0
  9
$USERI3
 70
     0
  9
$USERI4
 70
     0
  9
$USERI5
 70
     0
  9
$USERR1
 40
0.0
  9
$USERR2
 40
0.0
  9
$USERR3
 40
0.0
  9
$USERR4
 40
0.0
  9
$USERR5
 40
0.0
  9
$WORLDVIEW
 70
     1
  9
$SHADEDGE
 70
     3
  9
$SHADEDIF
 70
    70
  9
$TILEMODE
 70
     1
  9
$MAXACTVP
 70
    16
  9
$PINSBASE
 10
0.0
 20
0.0
 30
0.0
  9
$PLIMCHECK
 70
     0
  9
$PEXTMIN
 10
1.000000000000000E+20
 20
1.000000000000000E+20
 30
1.000000000000000E+20
  9
$PEXTMAX
 10
-1.000000000000000E+20
 20
-1.000000000000000E+20
 30
-1.000000000000000E+20
  9
$PLIMMIN
 10
0.0
 20
0.0
  9
$PLIMMAX
 10
12.0
 20
9.0
  9
$UNITMODE
 70
     0
  9
$VISRETAIN
 70
     0
  9
$PLINEGEN
 70
     0
  9
$PSLTSCALE
 70
     0
  9
$TREEDEPTH
 70
  3020
  9
$CMLSTYLE
  2
STANDARD
  9
$CMLJUST
 70
     0
  9
$CMLSCALE
 40
1.0
  9
$PROXYGRAPHICS
 70
     1
  9
$MEASUREMENT
 70
     0
  9
$CELWEIGHT
370
    -1
  9
$ENDCAPS
280
     0
  9
$JOINSTYLE
280
     0
  9
$LWDISPLAY
290
     0
  9
$INSUNITS
 70
     0
  9
$HYPERLINKBASE
  1

  9
$STYLESHEET
  1

  9
$XEDIT
290
     1
  9
$CEPSNTYPE
380
     0
  9
$PSTYLEMODE
290
     1
  9
$FINGERPRINTGUID
  2
{7217AF05-B4A3-44D3-96C2-A1F7B908B2E6}
  9
$VERSIONGUID
  2
{D4600371-AACC-4B04-8813-6F86284B1F15}
  9
$EXTNAMES
290
     1
  9
$PSVPSCALE
 40
0.0
  9
$OLESTARTUP
290
     0
  0
ENDSEC
  0
SECTION
  2
CLASSES
  0
CLASS
  1
DICTIONARYVAR
  2
AcDbDictionaryVar
  3
ObjectDBX Classes
 90
        0
280
     0
281
     0
  0
CLASS
  1
ACDBDICTIONARYWDFLT
  2
AcDbDictionaryWithDefault
  3
ObjectDBX Classes
 90
        0
280
     0
281
     0
  0
CLASS
  1
MATERIAL
  2
AcDbMaterial
  3
ObjectDBX Classes
 90
     1153
280
     0
281
     0
  0
CLASS
  1
VISUALSTYLE
  2
AcDbVisualStyle
  3
ObjectDBX Classes
 90
     4095
280
     0
281
     0
  0
CLASS
  1
TABLESTYLE
  2
AcDbTableStyle
  3
ObjectDBX Classes
 90
     4095
280
     0
281
     0
  0
CLASS
  1
SCALE
  2
AcDbScale
  3
ObjectDBX Classes
 90
     1153
280
     0
281
     0
  0
CLASS
  1
MLEADERSTYLE
  2
AcDbMLeaderStyle
  3
ACDB_MLEADERSTYLE_CLASS
 90
     4095
280
     0
281
     0
  0
CLASS
  1
ACDBSECTIONVIEWSTYLE
  2
AcDbSectionViewStyle
  3
ObjectDBX Classes
 90
     1025
280
     0
281
     0
  0
CLASS
  1
ACDBDETAILVIEWSTYLE
  2
AcDbDetailViewStyle
  3
ObjectDBX Classes
 90
     1025
280
     0
281
     0
  0
CLASS
  1
CELLSTYLEMAP
  2
AcDbCellStyleMap
  3
ObjectDBX Classes
 90
     1152
280
     0
281
     0
  0
CLASS
  1
ACDBPLACEHOLDER
  2
AcDbPlaceHolder
  3
ObjectDBX Classes
 90
        0
280
     0
281
     0
  0
CLASS
  1
LAYOUT
  2
AcDbLayout
  3
ObjectDBX Classes
 90
        0
280
     0
281
     0
  0
ENDSEC
  0
SECTION
  2
TABLES
  0
TABLE
  2
VPORT
  5
8
330
0
100
AcDbSymbolTable
 70
     1
  0
VPORT
  5
C37
330
8
100
AcDbSymbolTableRecord
100
AcDbViewportTableRecord
  2
*ACTIVE
 70
     0
 10
0.0
 20
0.0
 11
1.0
 21
1.0
 12
-0.9349021846163783
 22
-1.019988625404035
 13
0.0
 23
0.0
 14
1.0
 24
1.0
 15
0.0
 25
0.0
 16
0.0
 26
0.0
 36
1.0
 17
0.0
 27
0.0
 37
0.0
 40
2.218933077819498
 41
2.080545229244113
 42
50.0
 43
0.0
 44
0.0
 50
0.0
 51
0.0
 71
     0
 72
   250
 73
     1
 74
     0
 75
     0
 76
     0
 77
     0
 78
     0
281
     0
 65
     1
110
0.0
120
0.0
130
0.0
111
1.0
121
0.0
131
0.0
112
0.0
122
1.0
132
0.0
 79
     0
146
0.0
1001
ACAD_NAV_VCDISPLAY
1070
     3
  0
ENDTAB
  0
TABLE
  2
LTYPE
  5
5
330
0
100
AcDbSymbolTable
 70
     3
  0
LTYPE
  5
11
330
5
100
AcDbSymbolTableRecord
100
AcDbLinetypeTableRecord
  2
BYBLOCK
 70
     0
  3

 72
    65
 73
     0
 40
0.0
  0
LTYPE
  5
12
330
5
100
AcDbSymbolTableRecord
100
AcDbLinetypeTableRecord
  2
BYLAYER
 70
     0
  3

 72
    65
 73
     0
 40
0.0
  0
LTYPE
  5
13
330
5
100
AcDbSymbolTableRecord
100
AcDbLinetypeTableRecord
  2
CONTINUOUS
 70
     0
  3
Solid line
 72
    65
 73
     0
 40
0.0
  0
LTYPE
  5
23
330
5
100
AcDbSymbolTableRecord
100
AcDbLinetypeTableRecord
  2
CENTER
 70
     0
  3
____ _ ____ _ ____ _ ____ _ ____ _ ____ _ ____ 
 72
    65
 73
     4
 40
2.0
 49
1.25
 74
     0
 49
-0.25
 74
     0
 49
0.25
 74
     0
 49
-0.25
 74
     0
  0
LTYPE
  5
24
330
5
100
AcDbSymbolTableRecord
100
AcDbLinetypeTableRecord
  2
HIDDEN
 70
     0
  3
__ __ __ __ __ __ __ __ __ __ __ __ __ __ __ __
 72
    65
 73
     2
 40
0.375
 49
0.25
 74
     0
 49
-0.125
 74
     0
  0
ENDTAB
  0
TABLE
  2
LAYER
  5
2
102
{ACAD_XDICTIONARY
360
CAD
102
}
330
0
100
AcDbSymbolTable
 70
     5
  0
LAYER
  5
E
102
{ACAD_XDICTIONARY
360
CA2
102
}
330
2
100
AcDbSymbolTableRecord
100
AcDbLayerTableRecord
  2
0
 70
     0
 62
     7
  6
CONTINUOUS
370
    -3
390
C3A
  0
LAYER
  5
27
102
{ACAD_XDICTIONARY
360
CA4
102
}
330
2
100
AcDbSymbolTableRecord
100
AcDbLayerTableRecord
  2
2
 70
     0
 62
     2
  6
CONTINUOUS
370
    -3
390
C3A
  0
LAYER
  5
28
102
{ACAD_XDICTIONARY
360
CA6
102
}
330
2
100
AcDbSymbolTableRecord
100
AcDbLayerTableRecord
  2
3
 70
     0
 62
     3
  6
CONTINUOUS
370
    -3
390
C3A
  0
LAYER
  5
29
102
{ACAD_XDICTIONARY
360
CA8
102
}
330
2
100
AcDbSymbolTableRecord
100
AcDbLayerTableRecord
  2
4
 70
     0
 62
     4
  6
CONTINUOUS
370
    -3
390
C3A
  0
LAYER
  5
2A
330
2
100
AcDbSymbolTableRecord
100
AcDbLayerTableRecord
  2
DEFPOINTS
 70
     0
 62
     7
  6
CONTINUOUS
290
     0
370
    -3
390
C3A
  0
ENDTAB
  0
TABLE
  2
STYLE
  5
3
330
0
100
AcDbSymbolTable
 70
     4
  0
STYLE
  5
F
330
3
100
AcDbSymbolTableRecord
100
AcDbTextStyleTableRecord
  2
STANDARD
 70
     0
 40
0.0
 41
1.0
 50
0.0
 71
     0
 42
0.06
  3
txt
  4

  0
STYLE
  5
20
330
3
100
AcDbSymbolTableRecord
100
AcDbTextStyleTableRecord
  2
SIMPLEX
 70
     0
 40
0.0
 41
1.0
 50
0.0
 71
     0
 42
0.078
  3
SIMPLEX
  4

  0
STYLE
  5
21
330
3
100
AcDbSymbolTableRecord
100
AcDbTextStyleTableRecord
  2
ROMANS
 70
     0
 40
0.0
 41
1.0
 50
0.0
 71
     0
 42
0.02
  3
romans
  4

  0
STYLE
  5
22
330
3
100
AcDbSymbolTableRecord
100
AcDbTextStyleTableRecord
  2
T
 70
     0
 40
0.0
 41
1.0
 50
0.0
 71
     0
 42
1.0
  3
ROMI____.PFB
  4

  0
ENDTAB
  0
TABLE
  2
VIEW
  5
6
330
0
100
AcDbSymbolTable
 70
     0
  0
ENDTAB
  0
TABLE
  2
UCS
  5
7
330
0
100
AcDbSymbolTable
 70
     0
  0
ENDTAB
  0
TABLE
  2
APPID
  5
9
330
0
100
AcDbSymbolTable
 70
     4
  0
APPID
  5
10
330
9
100
AcDbSymbolTableRecord
100
AcDbRegAppTableRecord
  2
ACAD
 70
     0
  0
APPID
  5
C97
330
9
100
AcDbSymbolTableRecord
100
AcDbRegAppTableRecord
  2
ACAD_DSTYLE_DIMRADIAL_EXTENSION
 70
     0
  0
APPID
  5
CB3
330
9
100
AcDbSymbolTableRecord
100
AcDbRegAppTableRecord
  2
ACAD_NAV_VCDISPLAY
 70
     0
  0
APPID
  5
D62
330
9
100
AcDbSymbolTableRecord
100
AcDbRegAppTableRecord
  2
ACAD_MLEADERVER
 70
     0
  0
ENDTAB
  0
TABLE
  2
DIMSTYLE
  5
A
330
0
100
AcDbSymbolTable
 70
     1
100
AcDbDimStyleTable
 71
     1
340
BD9
  0
DIMSTYLE
105
BD9
102
{ACAD_REACTORS
330
C98
102
}
330
A
100
AcDbSymbolTableRecord
100
AcDbDimStyleTableRecord
  2
STANDARD
 70
     0
340
F
  0
ENDTAB
  0
TABLE
  2
BLOCK_RECORD
  5
1
330
0
100
AcDbSymbolTable
 70
     5
  0
BLOCK_RECORD
  5
17
330
1
100
AcDbSymbolTableRecord
100
AcDbBlockTableRecord
  2
*MODEL_SPACE
340
C8A
  0
BLOCK_RECORD
  5
14
330
1
100
AcDbSymbolTableRecord
100
AcDbBlockTableRecord
  2
*PAPER_SPACE
340
C8B
  0
BLOCK_RECORD
  5
1C
330
1
100
AcDbSymbolTableRecord
100
AcDbBlockTableRecord
  2
*X0
340
0
102
{BLKREFS
331
11F
102
}
  0
BLOCK_RECORD
  5
1D
330
1
100
AcDbSymbolTableRecord
100
AcDbBlockTableRecord
  2
*D1
340
0
  0
BLOCK_RECORD
  5
1F
330
1
100
AcDbSymbolTableRecord
100
AcDbBlockTableRecord
  2
*X2
340
0
102
{BLKREFS
331
139
102
}
  0
BLOCK_RECORD
  5
BF2
330
1
100
AcDbSymbolTableRecord
100
AcDbBlockTableRecord
  2
*D3
340
0
  0
BLOCK_RECORD
  5
C99
330
1
100
AcDbSymbolTableRecord
100
AcDbBlockTableRecord
  2
*D4
340
0
  0
ENDTAB
  0
ENDSEC
  0
SECTION
  2
BLOCKS
  0
BLOCK
  5
2D
330
17
100
AcDbEntity
  8
0
100
AcDbBlockBegin
  2
*MODEL_SPACE
 70
     0
 10
0.0
 20
0.0
 30
0.0
  3
*MODEL_SPACE
  1

  0
ENDBLK
  5
2E
330
17
100
AcDbEntity
  8
0
100
AcDbBlockEnd
  0
BLOCK
  5
2B
330
14
100
AcDbEntity
 67
     1
  8
0
100
AcDbBlockBegin
  2
*PAPER_SPACE
 70
     0
 10
0.0
 20
0.0
 30
0.0
  3
*PAPER_SPACE
  1

  0
ENDBLK
  5
2C
330
14
100
AcDbEntity
 67
     1
  8
0
100
AcDbBlockEnd
  0
BLOCK
  5
31
330
1C
100
AcDbEntity
  8
0
100
AcDbBlockBegin
  2
*X0
 70
     1
 10
0.0
 20
0.0
 30
0.0
  3
*X0
  1

  0
LINE
  5
32
330
1C
100
AcDbEntity
  8
0
 62
     0
100
AcDbLine
 10
-0.9198770729913579
 20
-0.6768091169584825
 30
0.0
 11
-0.9077720205592124
 21
-0.6647040645263369
 31
0.0
  0
LINE
  5
33
330
1C
100
AcDbEntity
  8
0
 62
     0
100
AcDbLine
 10
-0.9077720205592124
 20
-0.6647040645263369
 30
0.0
 11
-0.9037954010220559
 21
-0.6607274449891805
 31
0.0
  0
LINE
  5
34
330
1C
100
AcDbEntity
  8
0
 62
     0
100
AcDbLine
 10
-0.9198562550804988
 20
-0.6546912121355435
 30
0.0
 11
-0.9040131063118304
 21
-0.6388480633668751
 31
0.0
  0
LINE
  5
35
330
1C
100
AcDbEntity
  8
0
 62
     0
100
AcDbLine
 10
-0.9200739603702727
 20
-0.6328118305132381
 30
0.0
 11
-0.9042308116016043
 21
-0.6169686817445697
 31
0.0
  0
LINE
  5
36
330
1C
100
AcDbEntity
  8
0
 62
     0
100
AcDbLine
 10
-0.9202916656600471
 20
-0.6109324488909327
 30
0.0
 11
-0.9044485168913787
 21
-0.5950893001222644
 31
0.0
  0
LINE
  5
37
330
1C
100
AcDbEntity
  8
0
 62
     0
100
AcDbLine
 10
-0.9205093709498214
 20
-0.5890530672686273
 30
0.0
 11
-0.904666222181153
 21
-0.573209918499959
 31
0.0
  0
LINE
  5
38
330
1C
100
AcDbEntity
  8
0
 62
     0
100
AcDbLine
 10
-0.9207270762395955
 20
-0.5671736856463219
 30
0.0
 11
-0.9048839274709271
 21
-0.5513305368776536
 31
0.0
  0
LINE
  5
39
330
1C
100
AcDbEntity
  8
0
 62
     0
100
AcDbLine
 10
-0.9209447815293698
 20
-0.5452943040240165
 30
0.0
 11
-0.9051016327607014
 21
-0.5294511552553482
 31
0.0
  0
LINE
  5
3A
330
1C
100
AcDbEntity
  8
0
 62
     0
100
AcDbLine
 10
-0.921162486819144
 20
-0.5234149224017111
 30
0.0
 11
-0.9053193380504755
 21
-0.5075717736330426
 31
0.0
  0
LINE
  5
3B
330
1C
100
AcDbEntity
  8
0
 62
     0
100
AcDbLine
 10
-0.921380192108918
 20
-0.5015355407794057
 30
0.0
 11
-0.9055370433402496
 21
-0.4856923920107372
 31
0.0
  0
LINE
  5
3C
330
1C
100
AcDbEntity
  8
0
 62
     0
100
AcDbLine
 10
-0.9215978973986922
 20
-0.4796561591571004
 30
0.0
 11
-0.9061861250338015
 21
-0.4642443867922094
 31
0.0
  0
LINE
  5
3D
330
1C
100
AcDbEntity
  8
0
 62
     0
100
AcDbLine
 10
-0.958235593935543
 20
-0.4941967687818714
 30
0.0
 11
-0.9469079561733837
 21
-0.4828691310197117
 31
0.0
  0
LINE
  5
3E
330
1C
100
AcDbEntity
  8
0
 62
     0
100
AcDbLine
 10
-0.9277428896800083
 20
-0.4637040645263368
 30
0.0
 11
-0.9151856664838732
 21
-0.4511468413302018
 31
0.0
  0
LINE
  5
3F
330
1C
100
AcDbEntity
  8
0
 62
     0
100
AcDbLine
 10
-0.9654176752884231
 20
-0.479281763222672
 30
0.0
 11
-0.9338399765920879
 21
-0.4477040645263369
 31
0.0
  0
LINE
  5
40
330
1C
100
AcDbEntity
  8
0
 62
     0
100
AcDbLine
 10
-0.920099154266856
 20
-0.6991282851460602
 30
0.0
 11
-0.9039375502465562
 21
-0.6829666811257601
 31
0.0
  0
LINE
  5
41
330
1C
100
AcDbEntity
  8
0
 62
     0
100
AcDbLine
 10
-0.9203212355423545
 20
-0.7214474533336382
 30
0.0
 11
-0.9041596315220543
 21
-0.7052858493133379
 31
0.0
  0
LINE
  5
42
330
1C
100
AcDbEntity
  8
0
 62
     0
100
AcDbLine
 10
-0.9205433168178526
 20
-0.7437666215212159
 30
0.0
 11
-0.9043817127975527
 21
-0.7276050175009159
 31
0.0
  0
LINE
  5
43
330
1C
100
AcDbEntity
  8
0
 62
     0
100
AcDbLine
 10
-0.920765398093351
 20
-0.7660857897087939
 30
0.0
 11
-0.9046037940730508
 21
-0.7499241856884939
 31
0.0
  0
LINE
  5
44
330
1C
100
AcDbEntity
  8
0
 62
     0
100
AcDbLine
 10
-0.9209874793688491
 20
-0.7884049578963717
 30
0.0
 11
-0.9048258753485491
 21
-0.7722433538760716
 31
0.0
  0
LINE
  5
45
330
1C
100
AcDbEntity
  8
0
 62
     0
100
AcDbLine
 10
-0.9656825527600084
 20
-0.8551971181996103
 30
0.0
 11
-0.9486104775302287
 21
-0.8381250429698308
 31
0.0
  0
LINE
  5
46
330
1C
100
AcDbEntity
  8
0
 62
     0
100
AcDbLine
 10
-0.9212095606443476
 20
-0.8107241260839494
 30
0.0
 11
-0.9050479566240476
 21
-0.7945625220636497
 31
0.0
  0
LINE
  5
47
330
1C
100
AcDbEntity
  8
0
 62
     0
100
AcDbLine
 10
-0.9596885314429572
 20
-0.8713001837946388
 30
0.0
 11
-0.9481998597070083
 21
-0.8598115120586895
 31
0.0
  0
LINE
  5
48
330
1C
100
AcDbEntity
  8
0
 62
     0
100
AcDbLine
 10
-0.9214316419198455
 20
-0.8330432942715273
 30
0.0
 11
-0.9052700378995458
 21
-0.8168816902512274
 31
0.0
  0
LINE
  5
49
330
1C
100
AcDbEntity
  8
0
 62
     0
100
AcDbLine
 10
-0.9466400633423667
 20
-0.8803488026061279
 30
0.0
 11
-0.9319953252625758
 21
-0.865704064526337
 31
0.0
  0
LINE
  5
4A
330
1C
100
AcDbEntity
  8
0
 62
     0
100
AcDbLine
 10
-0.921653723195344
 20
-0.8553624624591053
 30
0.0
 11
-0.9054921191750439
 21
-0.8392008584388053
 31
0.0
  0
LINE
  5
4B
330
1C
100
AcDbEntity
  8
0
 62
     0
100
AcDbLine
 10
-0.9258820228787472
 20
-0.881687849054588
 30
0.0
 11
-0.9057233364489182
 21
-0.8615291626247588
 31
0.0
  0
ENDBLK
  5
4C
330
1C
100
AcDbEntity
  8
0
100
AcDbBlockEnd
  0
BLOCK
  5
4D
330
1D
100
AcDbEntity
  8
0
100
AcDbBlockBegin
  2
*D1
 70
     1
 10
0.0
 20
0.0
 30
0.0
  3
*D1
  1

  0
LINE
  5
4E
330
1D
100
AcDbEntity
  8
0
  6
ByBlock
 62
     0
100
AcDbLine
 10
-0.9417008983405384
 20
-0.4544040645263369
 30
0.0
 11
-0.9417008983405384
 21
-0.3441444960473184
 31
0.0
  0
LINE
  5
4F
330
1D
100
AcDbEntity
  8
0
  6
ByBlock
 62
     0
100
AcDbLine
 10
-0.9057081604782098
 20
-0.4534951196457503
 30
0.0
 11
-0.9057081604782098
 21
-0.3441444960473184
 31
0.0
  0
LINE
  5
50
330
1D
100
AcDbEntity
  8
0
  6
ByBlock
 62
     0
100
AcDbLine
 10
-0.9727008983405383
 20
-0.3591444960473185
 30
0.0
 11
-1.003700898340537
 21
-0.3591444960473185
 31
0.0
  0
LINE
  5
51
330
1D
100
AcDbEntity
  8
0
  6
ByBlock
 62
     0
100
AcDbLine
 10
-0.8747081604782096
 20
-0.3591444960473185
 30
0.0
 11
-0.8437081604782097
 21
-0.3591444960473185
 31
0.0
  0
SOLID
  5
52
330
1D
100
AcDbEntity
  8
0
  6
ByBlock
 62
     0
100
AcDbTrace
 10
-0.9727008983405383
 20
-0.3539778293806518
 30
0.0
 11
-0.9727008983405383
 21
-0.3643111627139851
 31
0.0
 12
-0.9417008983405384
 22
-0.3591444960473185
 32
0.0
 13
-0.9417008983405384
 23
-0.3591444960473185
 33
0.0
  0
SOLID
  5
53
330
1D
100
AcDbEntity
  8
0
  6
ByBlock
 62
     0
100
AcDbTrace
 10
-0.8747081604782096
 20
-0.3539778293806518
 30
0.0
 11
-0.8747081604782096
 21
-0.3643111627139851
 31
0.0
 12
-0.9057081604782098
 22
-0.3591444960473185
 32
0.0
 13
-0.9057081604782098
 23
-0.3591444960473185
 33
0.0
  0
TEXT
  5
54
330
1D
100
AcDbEntity
  8
0
  6
ByBlock
 62
     0
100
AcDbText
 10
-0.8296129223829717
 20
-0.3746444960473185
 30
0.0
 40
0.031
  1
.033
  7
ROMANS
 72
     1
 11
-0.7772081604782099
 21
-0.3591444960473185
 31
0.0
100
AcDbText
 73
     2
  0
POINT
  5
56
330
1D
100
AcDbEntity
  8
DEFPOINTS
  6
ByBlock
 62
     0
100
AcDbPoint
 10
-0.9417008983405384
 20
-0.469404064526337
 30
0.0
  0
POINT
  5
57
330
1D
100
AcDbEntity
  8
DEFPOINTS
  6
ByBlock
 62
     0
100
AcDbPoint
 10
-0.9057081604782098
 20
-0.4684951196457503
 30
0.0
  0
POINT
  5
58
330
1D
100
AcDbEntity
  8
DEFPOINTS
  6
ByBlock
 62
     0
100
AcDbPoint
 10
-0.9057081604782098
 20
-0.3591444960473185
 30
0.0
  0
ENDBLK
  5
59
330
1D
100
AcDbEntity
  8
0
100
AcDbBlockEnd
  0
BLOCK
  5
66
330
1F
100
AcDbEntity
  8
0
100
AcDbBlockBegin
  2
*X2
 70
     1
 10
0.0
 20
0.0
 30
0.0
  3
*X2
  1

  0
LINE
  5
67
330
1F
100
AcDbEntity
  8
0
 62
     0
100
AcDbLine
 10
-0.4165479282886542
 20
-0.8584896665302462
 30
0.0
 11
-0.3848616307513171
 21
-0.8268033689929092
 31
0.0
  0
LINE
  5
68
330
1F
100
AcDbEntity
  8
0
 62
     0
100
AcDbLine
 10
-0.4167656335784283
 20
-0.8366102849079407
 30
0.0
 11
-0.3850793360410913
 21
-0.8049239873706039
 31
0.0
  0
LINE
  5
69
330
1F
100
AcDbEntity
  8
0
 62
     0
100
AcDbLine
 10
-0.4169833388682024
 20
-0.8147309032856353
 30
0.0
 11
-0.3852970413308655
 21
-0.7830446057482985
 31
0.0
  0
LINE
  5
6A
330
1F
100
AcDbEntity
  8
0
 62
     0
100
AcDbLine
 10
-0.4172010441579766
 20
-0.79285152166333
 30
0.0
 11
-0.3855147466206397
 21
-0.7611652241259931
 31
0.0
  0
LINE
  5
6B
330
1F
100
AcDbEntity
  8
0
 62
     0
100
AcDbLine
 10
-0.4174187494477508
 20
-0.7709721400410246
 30
0.0
 11
-0.3857324519104139
 21
-0.7392858425036878
 31
0.0
  0
LINE
  5
6C
330
1F
100
AcDbEntity
  8
0
 62
     0
100
AcDbLine
 10
-0.4176364547375251
 20
-0.7490927584187192
 30
0.0
 11
-0.3859501572001881
 21
-0.7174064608813823
 31
0.0
  0
LINE
  5
6D
330
1F
100
AcDbEntity
  8
0
 62
     0
100
AcDbLine
 10
-0.4178541600272994
 20
-0.7272133767964137
 30
0.0
 11
-0.3867997087665108
 21
-0.6961589255356255
 31
0.0
  0
LINE
  5
6E
330
1F
100
AcDbEntity
  8
0
 62
     0
100
AcDbLine
 10
-0.4180718653170734
 20
-0.7053339951741085
 30
0.0
 11
-0.3932062248939489
 21
-0.6804683547509838
 31
0.0
  0
LINE
  5
6F
330
1F
100
AcDbEntity
  8
0
 62
     0
100
AcDbLine
 10
-0.4904305365895992
 20
-0.7555955795345545
 30
0.0
 11
-0.4677982564328464
 21
-0.7329632993778015
 31
0.0
  0
LINE
  5
70
330
1F
100
AcDbEntity
  8
0
 62
     0
100
AcDbLine
 10
-0.4286984409032227
 20
-0.693863483848178
 30
0.0
 11
-0.4041720169224223
 21
-0.6693370598673776
 31
0.0
  0
LINE
  5
71
330
1F
100
AcDbEntity
  8
0
 62
     0
100
AcDbLine
 10
-0.4997279042288929
 20
-0.7427958602617686
 30
0.0
 11
-0.4740816990303152
 21
-0.717149655063191
 31
0.0
  0
LINE
  5
72
330
1F
100
AcDbEntity
  8
0
 62
     0
100
AcDbLine
 10
-0.4507955278153024
 20
-0.693863483848178
 30
0.0
 11
-0.4196513845809882
 21
-0.662719340613864
 31
0.0
  0
LINE
  5
73
330
1F
100
AcDbEntity
  8
0
 62
     0
100
AcDbLine
 10
-0.5053098432799607
 20
-0.7262807124007567
 30
0.0
 11
-0.440892614727382
 21
-0.6618634838481781
 31
0.0
  0
LINE
  5
74
330
1F
100
AcDbEntity
  8
0
 62
     0
100
AcDbLine
 10
-0.5043026984974404
 20
-0.7031764807061568
 30
0.0
 11
-0.4647688067981101
 21
-0.6636425890068267
 31
0.0
  0
LINE
  5
75
330
1F
100
AcDbEntity
  8
0
 62
     0
100
AcDbLine
 10
-0.4163302229988798
 20
-0.8803690481525514
 30
0.0
 11
-0.3846439254615428
 21
-0.8486827506152147
 31
0.0
  0
LINE
  5
76
330
1F
100
AcDbEntity
  8
0
 62
     0
100
AcDbLine
 10
-0.4161125177091057
 20
-0.9022484297748567
 30
0.0
 11
-0.3844262201717686
 21
-0.8705621322375201
 31
0.0
  0
LINE
  5
77
330
1F
100
AcDbEntity
  8
0
 62
     0
100
AcDbLine
 10
-0.4158948124193314
 20
-0.9241278113971624
 30
0.0
 11
-0.3842085148819945
 21
-0.8924415138598254
 31
0.0
  0
LINE
  5
78
330
1F
100
AcDbEntity
  8
0
 62
     0
100
AcDbLine
 10
-0.4156771071295572
 20
-0.9460071930194676
 30
0.0
 11
-0.3839908095922202
 21
-0.9143208954821307
 31
0.0
  0
LINE
  5
79
330
1F
100
AcDbEntity
  8
0
 62
     0
100
AcDbLine
 10
-0.415459401839783
 20
-0.9678865746417731
 30
0.0
 11
-0.383773104302446
 21
-0.9362002771044362
 31
0.0
  0
LINE
  5
7A
330
1F
100
AcDbEntity
  8
0
 62
     0
100
AcDbLine
 10
-0.4152416965500089
 20
-0.9897659562640786
 30
0.0
 11
-0.3835553990126718
 21
-0.9580796587267418
 31
0.0
  0
LINE
  5
7B
330
1F
100
AcDbEntity
  8
0
 62
     0
100
AcDbLine
 10
-0.4150239912602346
 20
-1.011645337886383
 30
0.0
 11
-0.3833376937228976
 21
-0.9799590403490473
 31
0.0
  0
LINE
  5
7C
330
1F
100
AcDbEntity
  8
0
 62
     0
100
AcDbLine
 10
-0.4148062859704604
 20
-1.033524719508688
 30
0.0
 11
-0.3831199884331234
 21
-1.001838421971352
 31
0.0
  0
LINE
  5
7D
330
1F
100
AcDbEntity
  8
0
 62
     0
100
AcDbLine
 10
-0.4145885806806862
 20
-1.055404101130994
 30
0.0
 11
-0.3829022831433492
 21
-1.023717803593656
 31
0.0
  0
LINE
  5
7E
330
1F
100
AcDbEntity
  8
0
 62
     0
100
AcDbLine
 10
-0.4143708753909121
 20
-1.077283482753299
 30
0.0
 11
-0.382684577853575
 21
-1.045597185215962
 31
0.0
  0
LINE
  5
7F
330
1F
100
AcDbEntity
  8
0
 62
     0
100
AcDbLine
 10
-0.4141531701011378
 20
-1.099162864375605
 30
0.0
 11
-0.412459197123744
 21
-1.09746889139821
 31
0.0
  0
LINE
  5
80
330
1F
100
AcDbEntity
  8
0
 62
     0
100
AcDbLine
 10
-0.4108537895737103
 20
-1.095863483848177
 30
0.0
 11
-0.3824668725638008
 21
-1.067476566838267
 31
0.0
  0
LINE
  5
81
330
1F
100
AcDbEntity
  8
0
 62
     0
100
AcDbLine
 10
-0.3887567026616305
 20
-1.095863483848177
 30
0.0
 11
-0.3822491672740266
 21
-1.089355948460573
 31
0.0
  0
ENDBLK
  5
82
330
1F
100
AcDbEntity
  8
0
100
AcDbBlockEnd
  0
BLOCK
  5
C2A
330
BF2
100
AcDbEntity
  8
0
100
AcDbBlockBegin
  2
*D3
 70
     1
 10
0.0
 20
0.0
 30
0.0
  3
*D3
  1

  0
LINE
  5
C2B
330
BF2
100
AcDbEntity
  8
0
  6
ByBlock
 62
     0
100
AcDbLine
 10
-0.3109018533107222
 20
-0.7020799551951451
 30
0.0
 11
-0.3109018533107222
 21
-0.4456422748108456
 31
0.0
  0
LINE
  5
C2C
330
BF2
100
AcDbEntity
  8
0
  6
ByBlock
 62
     0
100
AcDbLine
 10
-0.1909091209522776
 20
-0.6884455940870044
 30
0.0
 11
-0.1909091209522775
 21
-0.4456422748108456
 31
0.0
  0
LINE
  5
C2D
330
BF2
100
AcDbEntity
  8
0
  6
ByBlock
 62
     0
100
AcDbLine
 10
-0.2799018533107222
 20
-0.4606422748108458
 30
0.0
 11
-0.2219091209522776
 21
-0.4606422748108458
 31
0.0
  0
MTEXT
  5
C2E
330
BF2
100
AcDbEntity
  8
0
  6
ByBlock
 62
     0
100
AcDbMText
 10
-0.0283418435714591
 20
-0.4609875838300132
 30
0.0
 40
0.031
 41
0.0
 71
     5
 72
     1
  1
\A1;.056 ±.002
  7
ROMANS
 73
     1
 44
1.0
1001
ACAD
1000
MTEXTBEGIN
1070
    73
1070
     1
1070
    44
1040
1.0
1070
    74
1070
     0
1000
MTEXTEND
  0
SOLID
  5
C2F
330
BF2
100
AcDbEntity
  8
0
  6
ByBlock
 62
     0
100
AcDbTrace
 10
-0.2799018533107222
 20
-0.455475608144179
 30
0.0
 11
-0.2799018533107222
 21
-0.4658089414775123
 31
0.0
 12
-0.3109018533107222
 22
-0.4606422748108458
 32
0.0
 13
-0.3109018533107222
 23
-0.4606422748108458
 33
0.0
  0
SOLID
  5
C30
330
BF2
100
AcDbEntity
  8
0
  6
ByBlock
 62
     0
100
AcDbTrace
 10
-0.2219091209522776
 20
-0.455475608144179
 30
0.0
 11
-0.2219091209522776
 21
-0.4658089414775123
 31
0.0
 12
-0.1909091209522775
 22
-0.4606422748108458
 32
0.0
 13
-0.1909091209522775
 23
-0.4606422748108458
 33
0.0
  0
POINT
  5
C31
330
BF2
100
AcDbEntity
  8
DEFPOINTS
  6
ByBlock
 62
     0
100
AcDbPoint
 10
-0.3109018533107222
 20
-0.7170799551951453
 30
0.0
  0
POINT
  5
C32
330
BF2
100
AcDbEntity
  8
DEFPOINTS
  6
ByBlock
 62
     0
100
AcDbPoint
 10
-0.1909091209522776
 20
-0.7034455940870045
 30
0.0
  0
POINT
  5
C33
330
BF2
100
AcDbEntity
  8
DEFPOINTS
  6
ByBlock
 62
     0
100
AcDbPoint
 10
-0.1909091209522775
 20
-0.4606422748108458
 30
0.0
  0
ENDBLK
  5
C34
330
BF2
100
AcDbEntity
  8
0
100
AcDbBlockEnd
  0
BLOCK
  5
C9A
330
C99
100
AcDbEntity
  8
0
100
AcDbBlockBegin
  2
*D4
 70
     1
 10
0.0
 20
0.0
 30
0.0
  3
*D4
  1

  0
LINE
  5
C9C
330
C99
100
AcDbEntity
  8
3
 62
     0
370
    -2
100
AcDbLine
 10
-1.767110849150886
 20
-0.5802268407161179
 30
0.0
 11
-1.565569760193908
 21
-0.8929010952719336
 31
0.0
  0
MTEXT
  5
C9D
102
{ACAD_XDICTIONARY
360
D6B
102
}
330
C99
100
AcDbEntity
  8
3
 62
     0
100
AcDbMText
 10
-1.4930312115557
 20
-0.986230815400942
 30
0.0
 40
0.031
 41
0.0
 71
     5
 72
     1
  1
\A1;\U+2205.434
  7
ROMANS
 73
     1
 44
1.0
1001
ACAD
1000
MTEXTBEGIN
1070
    73
1070
     1
1070
    44
1040
1.0
1070
    74
1070
     0
1000
MTEXTEND
  0
SOLID
  5
C9E
330
C99
100
AcDbEntity
  8
3
 62
     0
100
AcDbTrace
 10
-1.762768151170945
 20
-0.5774276589250486
 30
0.0
 11
-1.771453547130828
 21
-0.583026022507187
 31
0.0
 12
-1.783905939897301
 22
-0.5541706528364664
 32
0.0
 13
-1.783905939897301
 23
-0.5541706528364664
 33
0.0
  0
SOLID
  5
C9F
330
C99
100
AcDbEntity
  8
3
 62
     0
100
AcDbTrace
 10
-1.561227062213966
 20
-0.8901019134808645
 30
0.0
 11
-1.56991245817385
 21
-0.895700277063003
 31
0.0
 12
-1.548774669447494
 22
-0.918957283151585
 32
0.0
 13
-1.548774669447494
 23
-0.918957283151585
 33
0.0
  0
POINT
  5
CA0
330
C99
100
AcDbEntity
  8
DEFPOINTS
 62
     0
100
AcDbPoint
 10
-1.548774669447494
 20
-0.918957283151585
 30
0.0
  0
POINT
  5
CA1
330
C99
100
AcDbEntity
  8
DEFPOINTS
 62
     0
100
AcDbPoint
 10
-1.783905939897301
 20
-0.5541706528364664
 30
0.0
  0
ENDBLK
  5
C9B
330
C99
100
AcDbEntity
  8
0
100
AcDbBlockEnd
  0
ENDSEC
  0
SECTION
  2
ENTITIES
  0
LINE
  5
83
330
17
100
AcDbEntity
  8
0
100
AcDbLine
 10
-1.058745922292217
 20
-1.76554916958661
 30
0.0
 11
-0.8047509530971819
 21
-1.76554916958661
 31
0.0
  0
LINE
  5
84
330
17
100
AcDbEntity
  8
0
100
AcDbLine
 10
-1.058745922292217
 20
-1.736242057756418
 30
0.0
 11
-0.8047509530971819
 21
-1.736242057756418
 31
0.0
  0
TEXT
  5
85
330
17
100
AcDbEntity
  8
3
100
AcDbText
 10
-1.051103260018028
 20
-1.756677224750046
 30
0.0
 40
0.0123842777481736
  1
DIMENSIONS ARE IN INCHES
 41
0.9163641132346416
  7
SIMPLEX
 72
     5
 11
-0.8127845983861393
 21
-1.756677224750046
 31
0.0
100
AcDbText
  0
TEXT
  5
87
330
17
100
AcDbEntity
  8
3
100
AcDbText
 10
-1.051103260018028
 20
-1.726618737309254
 30
0.0
 40
0.0123842777481736
  1
UNLESS OTHERWISE SPECIFIED
 41
0.8436671689696803
  7
SIMPLEX
 72
     5
 11
-0.8127845983861393
 21
-1.726618737309254
 31
0.0
100
AcDbText
  0
LINE
  5
88
330
17
100
AcDbEntity
  8
0
100
AcDbLine
 10
-1.058745922292217
 20
-1.925747307882121
 30
0.0
 11
-0.8047509530971819
 21
-1.925747307882121
 31
0.0
  0
LINE
  5
89
330
17
100
AcDbEntity
  8
0
100
AcDbLine
 10
-1.058745922292217
 20
-1.706929740121251
 30
0.0
 11
0.2272721925839471
 21
-1.706929740121251
 31
0.0
  0
LINE
  5
8B
330
17
100
AcDbEntity
  8
4
100
AcDbLine
 10
0.4460221925839482
 20
-2.16092991512124
 30
0.0
 11
-2.316477807416051
 21
-2.16092991512124
 31
0.0
  0
LINE
  5
8C
330
17
100
AcDbEntity
  8
4
100
AcDbLine
 10
0.2272721925839471
 20
-1.96092991512124
 30
0.0
 11
-2.097727807416051
 21
-1.96092991512124
 31
0.0
  0
LINE
  5
8D
330
17
100
AcDbEntity
  8
4
100
AcDbLine
 10
0.2272721925839471
 20
-0.2359299151212415
 30
0.0
 11
-2.097727807416051
 21
-0.2359299151212415
 31
0.0
  0
LINE
  5
8E
330
17
100
AcDbEntity
  8
4
100
AcDbLine
 10
-2.316477807416051
 20
-2.16092991512124
 30
0.0
 11
-2.316477807416051
 21
-0.0359299151212418
 31
0.0
  0
LINE
  5
8F
330
17
100
AcDbEntity
  8
4
100
AcDbLine
 10
-2.097727807416051
 20
-1.96092991512124
 30
0.0
 11
-2.097727807416051
 21
-0.2359299151212415
 31
0.0
  0
TEXT
  5
94
330
17
100
AcDbEntity
  8
2
100
AcDbText
 10
-2.090696465864886
 20
-1.497302657217485
 30
0.0
 40
0.0195
  1
4
  7
SIMPLEX
 72
     1
 11
-2.083732180150601
 21
-1.497302657217485
 31
0.0
100
AcDbText
  0
LINE
  5
95
330
17
100
AcDbEntity
  8
3
100
AcDbLine
 10
-2.066600745600525
 20
-1.309953352621241
 30
0.0
 11
-2.097727807416051
 21
-1.309953352621241
 31
0.0
  0
TEXT
  5
96
330
17
100
AcDbEntity
  8
2
100
AcDbText
 10
-2.0902321801506
 20
-1.153286357177849
 30
0.0
 40
0.0195
  1
3
  7
SIMPLEX
 72
     1
 11
-2.083732180150601
 21
-1.153286357177849
 31
0.0
100
AcDbText
  0
LINE
  5
97
330
17
100
AcDbEntity
  8
4
100
AcDbLine
 10
-1.058745922292217
 20
-1.706929740121251
 30
0.0
 11
-1.058745922292217
 21
-1.960929915121251
 31
0.0
  0
TEXT
  5
A2
330
17
100
AcDbEntity
  8
3
100
AcDbText
 10
-1.01465528878797
 20
-1.919034761527778
 30
0.0
 40
0.0154549222542043
  1
HOLES %%P .005
  7
SIMPLEX
 72
     1
 11
-0.9307571394080039
 21
-1.919034761527778
 31
0.0
100
AcDbText
  0
TEXT
  5
A3
330
17
100
AcDbEntity
  8
3
100
AcDbText
 10
-0.9919900850539844
 20
-1.941426162977799
 30
0.0
 40
0.0105093471328589
  1
DO NOT SCALE
  7
SIMPLEX
 72
     1
 11
-0.9329375630693487
 21
-1.941426162977799
 31
0.0
100
AcDbText
  0
TEXT
  5
A4
330
17
100
AcDbEntity
  8
3
100
AcDbText
 10
-1.000998096882149
 20
-1.956399384134318
 30
0.0
 40
0.0105093471328589
  1
READ ALL NOTES
  7
SIMPLEX
 72
     1
 11
-0.9329375630693487
 21
-1.956399384134318
 31
0.0
100
AcDbText
  0
TEXT
  5
A5
330
17
100
AcDbEntity
  8
3
100
AcDbText
 10
-1.002512135588238
 20
-1.789043115307284
 30
0.0
 40
0.0154549222542043
  1
TOLERANCES
  7
SIMPLEX
 72
     1
 11
-0.9307571394080039
 21
-1.789043115307284
 31
0.0
100
AcDbText
  0
TEXT
  5
A6
330
17
100
AcDbEntity
  8
3
100
AcDbText
 10
-0.9947846744611361
 20
-1.813058151784658
 30
0.0
 40
0.0154549222542043
  1
.XX %%P .010
  7
SIMPLEX
 72
     1
 11
-0.9307571394080039
 21
-1.813058151784658
 31
0.0
100
AcDbText
  0
TEXT
  5
A7
330
17
100
AcDbEntity
  8
3
100
AcDbText
 10
-1.012815417091041
 20
-1.83955230422044
 30
0.0
 40
0.0154549222542043
  1
.XXX %%P .005 
  7
SIMPLEX
 72
     1
 11
-0.9307571394080039
 21
-1.83955230422044
 31
0.0
100
AcDbText
  0
TEXT
  5
A8
330
17
100
AcDbEntity
  8
3
100
AcDbText
 10
-1.0216468012363
 20
-1.892540609091996
 30
0.0
 40
0.0154549222542043
  1
ANGLES %%P 1/2%%D
  7
SIMPLEX
 72
     1
 11
-0.9307571394080039
 21
-1.892540609091996
 31
0.0
100
AcDbText
  0
TEXT
  5
A9
330
17
100
AcDbEntity
  8
3
100
AcDbText
 10
-1.044093235938835
 20
-1.866046456656213
 30
0.0
 40
0.0154549222542043
  1
FRACTIONS %%P 1/32
  7
SIMPLEX
 72
     1
 11
-0.9307571394080039
 21
-1.866046456656213
 31
0.0
100
AcDbText
  0
LINE
  5
AC
330
17
100
AcDbEntity
  8
3
100
AcDbLine
 10
-2.066600745600525
 20
-0.9519455401212411
 30
0.0
 11
-2.097727807416051
 21
-0.9519455401212411
 31
0.0
  0
TEXT
  5
AD
330
17
100
AcDbEntity
  8
2
100
AcDbText
 10
-2.087585406005113
 20
-0.7965495854774935
 30
0.0
 40
0.0195
  1
2
  7
SIMPLEX
 72
     1
 11
-2.081085406005113
 21
-0.7965495854774935
 31
0.0
100
AcDbText
  0
LINE
  5
AE
330
17
100
AcDbEntity
  8
3
100
AcDbLine
 10
-2.066600745600525
 20
-0.5939377276212415
 30
0.0
 11
-2.097727807416051
 21
-0.5939377276212415
 31
0.0
  0
TEXT
  5
AF
330
17
100
AcDbEntity
  8
2
100
AcDbText
 10
-2.086053608722029
 20
-0.4369094466298919
 30
0.0
 40
0.0195
  1
1
  7
SIMPLEX
 72
     1
 11
-2.083732180150601
 21
-0.4369094466298919
 31
0.0
100
AcDbText
  0
TEXT
  5
B0
330
17
100
AcDbEntity
  8
2
100
AcDbText
 10
-1.854826777542873
 20
-0.2677901602411388
 30
0.0
 40
0.0195
  1
A
  7
SIMPLEX
 72
     1
 11
-1.847398206114301
 21
-0.2677901602411388
 31
0.0
100
AcDbText
  0
LINE
  5
B1
330
17
100
AcDbEntity
  8
3
100
AcDbLine
 10
-1.658472868163331
 20
-0.2671483589697208
 30
0.0
 11
-1.658472868163331
 21
-0.2359299151212411
 31
0.0
  0
TEXT
  5
B2
330
17
100
AcDbEntity
  8
2
100
AcDbText
 10
-1.474067741865606
 20
-0.2677901602411388
 30
0.0
 40
0.0195
  1
B
  7
SIMPLEX
 72
     1
 11
-1.467567741865607
 21
-0.2677901602411388
 31
0.0
100
AcDbText
  0
LINE
  5
B3
330
17
100
AcDbEntity
  8
3
100
AcDbLine
 10
-1.281323856013875
 20
-0.2671483589697208
 30
0.0
 11
-1.281323856013875
 21
-0.2359299151212411
 31
0.0
  0
TEXT
  5
B4
330
17
100
AcDbEntity
  8
2
100
AcDbText
 10
-1.105631936403102
 20
-0.2677901602411388
 30
0.0
 40
0.0195
  1
C
  7
SIMPLEX
 72
     1
 11
-1.098667650688817
 21
-0.2677901602411388
 31
0.0
100
AcDbText
  0
LINE
  5
B5
330
17
100
AcDbEntity
  8
3
100
AcDbLine
 10
-0.9041748438644203
 20
-0.2671483589697208
 30
0.0
 11
-0.9041748438644203
 21
-0.2359299151212411
 31
0.0
  0
LINE
  5
B6
330
17
100
AcDbEntity
  8
4
100
AcDbLine
 10
0.4460221925839473
 20
-0.0359299151212413
 30
0.0
 11
0.4460221925839482
 21
-2.16092991512124
 31
0.0
  0
LINE
  5
B7
330
17
100
AcDbEntity
  8
4
100
AcDbLine
 10
0.2272721925839471
 20
-0.2359299151212415
 30
0.0
 11
0.227272192583948
 21
-1.96092991512124
 31
0.0
  0
TEXT
  5
B8
330
17
100
AcDbEntity
  8
3
100
AcDbText
 10
0.0847582168085177
 20
-1.871895054145608
 30
0.0
 40
0.0097690372767316
  1
SCALE:
  7
SIMPLEX
100
AcDbText
  0
TEXT
  5
B9
330
17
100
AcDbEntity
  8
3
100
AcDbText
 10
-0.0445963136495143
 20
-1.946191830137614
 30
0.0
 40
0.0195
  1
5501.08
  7
SIMPLEX
 72
     1
 11
0.0111179720647714
 21
-1.946191830137614
 31
0.0
100
AcDbText
  0
LINE
  5
BA
330
17
100
AcDbEntity
  8
0
100
AcDbLine
 10
-0.1231066336025766
 20
-1.888720630998773
 30
0.0
 11
0.227272192583948
 21
-1.888720630998773
 31
0.0
  0
LINE
  5
BB
330
17
100
AcDbEntity
  8
0
100
AcDbLine
 10
-0.8047509530971924
 20
-1.784217153273518
 30
0.0
 11
0.227272192583948
 21
-1.784217153273518
 31
0.0
  0
LINE
  5
BC
330
17
100
AcDbEntity
  8
0
100
AcDbLine
 10
-0.8047509530971924
 20
-1.84370146780047
 30
0.0
 11
0.227272192583948
 21
-1.84370146780047
 31
0.0
  0
LINE
  5
BD
330
17
100
AcDbEntity
  8
0
100
AcDbLine
 10
-0.8047509530971819
 20
-1.960929915121251
 30
0.0
 11
-0.8047509530971819
 21
-1.706934945926225
 31
0.0
  0
LINE
  5
BE
330
17
100
AcDbEntity
  8
0
100
AcDbLine
 10
-0.8047509530971819
 20
-1.877199299834053
 30
0.0
 11
-0.1231066336025766
 21
-1.877199299834053
 31
0.0
  0
TEXT
  5
BF
330
17
100
AcDbEntity
  8
3
100
AcDbText
 10
-0.7948513032762401
 20
-1.864410649285867
 30
0.0
 40
0.0097690372767316
  1
FILE PATH
  7
SIMPLEX
100
AcDbText
  0
TEXT
  5
C0
330
17
100
AcDbEntity
  8
3
100
AcDbText
 10
-0.7964090753672322
 20
-1.898682737482569
 30
0.0
 40
0.0097690372767316
  1
MAT'L DESCRIPTION:
  7
SIMPLEX
100
AcDbText
  0
TEXT
  5
C1
330
17
100
AcDbEntity
  8
3
100
AcDbText
 10
-0.7943263902843825
 20
-1.80462531869354
 30
0.0
 40
0.0097690372767316
  1
NAME:
  7
SIMPLEX
100
AcDbText
  0
TEXT
  5
C2
330
17
100
AcDbEntity
  8
3
100
AcDbText
 10
-0.5316071145099755
 20
-1.938035726888986
 30
0.0
 40
0.0195
  1
MATERIAL
  7
SIMPLEX
 72
     1
 11
-0.4638214002242611
 21
-1.938035726888986
 31
0.0
100
AcDbText
  0
TEXT
  5
C3
330
17
100
AcDbEntity
  8
3
100
AcDbText
 10
-0.5927260312764457
 20
-1.867749489835129
 30
0.0
 40
0.0145363274677766
  1
DWG/PART NO./550108
  7
SIMPLEX
 72
     1
 11
-0.4629373931712976
 21
-1.867749489835129
 31
0.0
100
AcDbText
  0
TEXT
  5
C4
330
17
100
AcDbEntity
  8
3
100
AcDbText
 10
-0.1138303524028119
 20
-1.907032801139596
 30
0.0
 40
0.01
  1
PART/DWG. NO.
  7
SIMPLEX
100
AcDbText
  0
LINE
  5
C5
330
17
100
AcDbEntity
  8
0
100
AcDbLine
 10
-0.1231066336025766
 20
-1.960929915121251
 30
0.0
 11
-0.1231066336025766
 21
-1.84370146780047
 31
0.0
  0
TEXT
  5
C6
330
17
100
AcDbEntity
  8
3
100
AcDbText
 10
-0.4500936845806879
 20
-1.833142629449229
 30
0.0
 40
0.0195380745534632
  1
ARMATURE ASSEMBLY
  7
SIMPLEX
 72
     1
 11
-0.28867197338898
 21
-1.833142629449229
 31
0.0
100
AcDbText
  0
TEXT
  5
C7
330
17
100
AcDbEntity
  8
3
100
AcDbText
 10
-0.0084717644457948
 20
-1.870492059581905
 30
0.0
 40
0.0096908849785177
  1
OF
  7
SIMPLEX
100
AcDbText
  0
TEXT
  5
C8
330
17
100
AcDbEntity
  8
3
100
AcDbText
 10
-0.1087928101257383
 20
-1.870409034765224
 30
0.0
 40
0.01
  1
SHEET
  7
SIMPLEX
100
AcDbText
  0
TEXT
  5
C9
330
17
100
AcDbEntity
  8
3
100
AcDbText
 10
-0.0425010108655775
 20
-1.875755078970847
 30
0.0
 40
0.0195380745534632
  1
1
  7
SIMPLEX
100
AcDbText
  0
TEXT
  5
CA
330
17
100
AcDbEntity
  8
3
100
AcDbText
 10
0.0336287141077545
 20
-1.875755078970847
 30
0.0
 40
0.0195380745534632
  1
1
  7
SIMPLEX
100
AcDbText
  0
LINE
  5
CB
330
17
100
AcDbEntity
  8
0
100
AcDbLine
 10
0.0585231061372271
 20
-1.888720630998773
 30
0.0
 11
0.0585231061372271
 21
-1.84370146780047
 31
0.0
  0
LINE
  5
D1
330
17
100
AcDbEntity
  8
0
100
AcDbLine
 10
0.1434608904360388
 20
-1.96092991512124
 30
0.0
 11
0.1434608904360388
 21
-1.888720630998773
 31
0.0
  0
TEXT
  5
D2
330
17
100
AcDbEntity
  8
3
100
AcDbText
 10
0.1800302966331406
 20
-1.946191830137614
 30
0.0
 40
0.0195
  1
H
  7
SIMPLEX
 72
     1
 11
0.1865302966331406
 21
-1.946191830137614
 31
0.0
100
AcDbText
  0
TEXT
  5
D3
330
17
100
AcDbEntity
  8
3
100
AcDbText
 10
0.1730066805853134
 20
-1.907093206030408
 30
0.0
 40
0.0097690372767316
  1
REV.
  7
SIMPLEX
100
AcDbText
  0
TEXT
  5
D4
330
17
100
AcDbEntity
  8
3
100
AcDbText
 10
0.1515610278585609
 20
-1.873869402066704
 30
0.0
 40
0.0195
  1
4=1
  7
SIMPLEX
 72
     1
 11
0.1752395992871323
 21
-1.873869402066704
 31
0.0
100
AcDbText
  0
TEXT
  5
D5
330
17
100
AcDbEntity
  8
2
100
AcDbText
 10
-0.3505076230130952
 20
-0.2677901602411388
 30
0.0
 40
0.0195
  1
E
  7
SIMPLEX
 72
     1
 11
-0.3444719087273809
 21
-0.2677901602411388
 31
0.0
100
AcDbText
  0
TEXT
  5
D6
330
17
100
AcDbEntity
  8
2
100
AcDbText
 10
-0.7335349662440512
 20
-0.2677901602411388
 30
0.0
 40
0.0195
  1
D
  7
SIMPLEX
 72
     1
 11
-0.7270349662440512
 21
-0.2677901602411388
 31
0.0
100
AcDbText
  0
LINE
  5
D7
330
17
100
AcDbEntity
  8
3
100
AcDbLine
 10
-0.5270258317149647
 20
-0.2671483589697208
 30
0.0
 11
-0.5270258317149647
 21
-0.2359299151212411
 31
0.0
  0
LINE
  5
D8
330
17
100
AcDbEntity
  8
3
100
AcDbLine
 10
-0.1498768195655087
 20
-0.2671483589697208
 30
0.0
 11
-0.1498768195655087
 21
-0.2359299151212411
 31
0.0
  0
TEXT
  5
D9
330
17
100
AcDbEntity
  8
2
100
AcDbText
 10
0.0265902479676244
 20
-0.2677901602411388
 30
0.0
 40
0.0195
  1
F
  7
SIMPLEX
 72
     1
 11
0.0326259622533387
 21
-0.2677901602411388
 31
0.0
100
AcDbText
  0
LINE
  5
DA
330
17
100
AcDbEntity
  8
4
100
AcDbLine
 10
0.4460221925839473
 20
-0.0359299151212413
 30
0.0
 11
-2.316477807416051
 21
-0.0359299151212418
 31
0.0
  0
LINE
  5
E1
330
17
100
AcDbEntity
  8
4
100
AcDbLine
 10
-2.24632744815067
 20
-2.16092991512124
 30
0.0
 11
-2.316477807416051
 21
-2.16092991512124
 31
0.0
  0
LINE
  5
E2
330
17
100
AcDbEntity
  8
4
100
AcDbLine
 10
-2.316477807416051
 20
-2.16092991512124
 30
0.0
 11
-2.316477807416051
 21
-2.125878394446897
 31
0.0
  0
CIRCLE
  5
FC
330
17
100
AcDbEntity
  8
2
  6
HIDDEN
100
AcDbCircle
 10
-1.666340304672398
 20
-0.7365639679940258
 30
0.0
 40
0.201
  0
LINE
  5
FD
330
17
100
AcDbEntity
  8
0
100
AcDbLine
 10
-0.9483689181430683
 20
-0.9375639679940256
 30
0.0
 11
-0.9369797481362896
 21
-0.9375639679940256
 31
0.0
  0
LINE
  5
FE
330
17
100
AcDbEntity
  8
0
100
AcDbLine
 10
-0.9483689181430683
 20
-0.5355639679940257
 30
0.0
 11
-0.9369797481362896
 21
-0.5355639679940257
 31
0.0
  0
LINE
  5
FF
330
17
100
AcDbEntity
  8
0
100
AcDbLine
 10
-0.9319799956365368
 20
-0.9326137167751179
 30
0.0
 11
-0.9300292518675712
 21
-0.7365639679940258
 31
0.0
  0
LINE
  5
100
330
17
100
AcDbEntity
  8
0
100
AcDbLine
 10
-0.9300292518675712
 20
-0.7365639679940258
 30
0.0
 11
-0.9319799956365375
 21
-0.5405142192129336
 31
0.0
  0
ARC
  5
101
330
17
100
AcDbEntity
  8
0
100
AcDbCircle
 10
-0.9369797481362896
 20
-0.5405639679940256
 30
0.0
 40
0.005
100
AcDbArc
 50
0.5700884449989019
 51
90.00000000000019
  0
ARC
  5
102
330
17
100
AcDbEntity
  8
0
100
AcDbCircle
 10
-0.9369797481362896
 20
-0.9325639679940259
 30
0.0
 40
0.005
100
AcDbArc
 50
270.0
 51
359.4299115550011
  0
LINE
  5
103
330
17
100
AcDbEntity
  8
0
100
AcDbLine
 10
-0.9483689181430683
 20
-0.9535639679940256
 30
0.0
 11
-0.9369797481362896
 21
-0.9535639679940256
 31
0.0
  0
ARC
  5
104
330
17
100
AcDbEntity
  8
0
100
AcDbCircle
 10
-0.9369797481362896
 20
-0.9325639679940259
 30
0.0
 40
0.021
100
AcDbArc
 50
270.0
 51
359.4299115550011
  0
LINE
  5
105
330
17
100
AcDbEntity
  8
0
100
AcDbLine
 10
-0.9159807876373296
 20
-0.9327729128746124
 30
0.0
 11
-0.9140300438683636
 21
-0.7367231640935202
 31
0.0
  0
LINE
  5
106
330
17
100
AcDbEntity
  8
0
100
AcDbLine
 10
-0.9140300438683636
 20
-0.7364047718945309
 30
0.0
 11
-0.9159807876373299
 21
-0.5403550231134392
 31
0.0
  0
ARC
  5
107
330
17
100
AcDbEntity
  8
0
100
AcDbCircle
 10
-0.9369797481362896
 20
-0.5405639679940256
 30
0.0
 40
0.021
100
AcDbArc
 50
0.5700884449989019
 51
90.00000000000019
  0
LINE
  5
108
330
17
100
AcDbEntity
  8
0
100
AcDbLine
 10
-0.948368918143069
 20
-0.519563967994026
 30
0.0
 11
-0.9369797481362896
 21
-0.5195639679940257
 31
0.0
  0
CIRCLE
  5
109
330
17
100
AcDbEntity
  8
0
100
AcDbCircle
 10
-1.666340304672398
 20
-0.7365639679940258
 30
0.0
 40
0.217
  0
POINT
  5
10A
330
17
100
AcDbEntity
  8
DEFPOINTS
  6
ByBlock
 62
     0
100
AcDbPoint
 10
-0.9140300438683636
 20
-0.7364047718945309
 30
0.0
  0
POINT
  5
10B
330
17
100
AcDbEntity
  8
DEFPOINTS
  6
ByBlock
 62
     0
100
AcDbPoint
 10
-0.9159807876373299
 20
-0.5403550231134392
 30
0.0
  0
LINE
  5
10C
330
17
100
AcDbEntity
  8
0
  6
CENTER
 62
     1
100
AcDbLine
 10
-1.666340304672398
 20
-1.02127655885911
 30
0.0
 11
-1.666340304672398
 21
-0.4518513771289399
 31
0.0
  0
LINE
  5
10D
330
17
100
AcDbEntity
  8
3
  6
CENTER
100
AcDbLine
 10
-1.381627713807311
 20
-0.7365639679940258
 30
0.0
 11
-1.951052895537483
 21
-0.7365639679940258
 31
0.0
  0
SOLID
  5
10E
330
17
100
AcDbEntity
  8
0
 62
     1
100
AcDbTrace
 10
-1.707200201708143
 20
-1.026443225525778
 30
0.0
 11
-1.707200201708143
 21
-1.016109892192444
 31
0.0
 12
-1.738200201708143
 22
-1.02127655885911
 32
0.0
 13
-1.738200201708143
 23
-1.02127655885911
 33
0.0
  0
LINE
  5
10F
330
17
100
AcDbEntity
  8
0
 62
     1
100
AcDbLine
 10
-1.707200201708143
 20
-1.02127655885911
 30
0.0
 11
-1.666340304672398
 21
-1.02127655885911
 31
0.0
  0
SOLID
  5
110
330
17
100
AcDbEntity
  8
0
 62
     1
100
AcDbTrace
 10
-1.707200201708143
 20
-0.4570180437956065
 30
0.0
 11
-1.707200201708143
 21
-0.446684710462273
 31
0.0
 12
-1.738200201708143
 22
-0.4518513771289399
 32
0.0
 13
-1.738200201708143
 23
-0.4518513771289399
 33
0.0
  0
LINE
  5
111
330
17
100
AcDbEntity
  8
0
 62
     1
100
AcDbLine
 10
-1.707200201708143
 20
-0.4518513771289399
 30
0.0
 11
-1.666340304672398
 21
-0.4518513771289399
 31
0.0
  0
TEXT
  5
112
330
17
100
AcDbEntity
  8
0
 62
     1
100
AcDbText
 10
-1.773061483545814
 20
-0.4246751266354132
 30
0.0
 40
0.031
  1
A
  7
ROMANS
100
AcDbText
  0
TEXT
  5
113
330
17
100
AcDbEntity
  8
0
 62
     1
100
AcDbText
 10
-1.769587656200196
 20
-1.081903129921452
 30
0.0
 40
0.031
  1
A
  7
ROMANS
100
AcDbText
  0
LINE
  5
114
330
17
100
AcDbEntity
  8
3
  6
CENTER
100
AcDbLine
 10
-1.018007564869821
 20
-0.7365639679940258
 30
0.0
 11
-0.8819870329525794
 21
-0.7365639679940258
 31
0.0
  0
CIRCLE
  5
115
330
17
100
AcDbEntity
  8
0
100
AcDbCircle
 10
-1.666340304672398
 20
-0.7365639679940258
 30
0.0
 40
0.1953
  0
LINE
  5
116
330
17
100
AcDbEntity
  8
0
100
AcDbLine
 10
-0.9519735254996586
 20
-0.9318639679940256
 30
0.0
 11
-0.9319725354496606
 21
-0.9318639679940256
 31
0.0
  0
LINE
  5
117
330
17
100
AcDbEntity
  8
0
100
AcDbLine
 10
-0.9519735254996586
 20
-0.5412639679940258
 30
0.0
 11
-0.9319725354496608
 21
-0.5412639679940258
 31
0.0
  0
LINE
  5
118
330
17
100
AcDbEntity
  8
0
100
AcDbLine
 10
-0.9519735254996586
 20
-0.9318639679940256
 30
0.0
 11
-0.9519735254996586
 21
-0.5412639679940258
 31
0.0
  0
ARC
  5
119
330
17
100
AcDbEntity
  8
0
100
AcDbCircle
 10
-0.9483689181430683
 20
-0.5471722036675093
 30
0.0
 40
0.0116082356734835
100
AcDbArc
 50
90.0
 51
236.6415427622737
  0
ARC
  5
11A
330
17
100
AcDbEntity
  8
0
100
AcDbCircle
 10
-0.9483689181430683
 20
-0.5471722036675093
 30
0.0
 40
0.0276082356734835
100
AcDbArc
 50
90.00000000000046
 51
236.6415427622738
  0
LINE
  5
11B
330
17
100
AcDbEntity
  8
0
100
AcDbLine
 10
-0.9547520000114307
 20
-0.5568679450683957
 30
0.0
 11
-0.963550004528786
 21
-0.5702318934562289
 31
0.0
  0
ARC
  5
11C
330
17
100
AcDbEntity
  8
0
100
AcDbCircle
 10
-0.9483689181430683
 20
-0.9259557323205424
 30
0.0
 40
0.0116082356734835
100
AcDbArc
 50
123.3584572377262
 51
270.0
  0
ARC
  5
11D
330
17
100
AcDbEntity
  8
0
100
AcDbCircle
 10
-0.9483689181430683
 20
-0.9259557323205424
 30
0.0
 40
0.0276082356734835
100
AcDbArc
 50
123.3584572377262
 51
270.0
  0
LINE
  5
11E
330
17
100
AcDbEntity
  8
0
100
AcDbLine
 10
-0.9547520000114307
 20
-0.9162599909196559
 30
0.0
 11
-0.963550004528786
 21
-0.9028960425318228
 31
0.0
  0
INSERT
  5
11F
330
17
100
AcDbEntity
  8
3
100
AcDbBlockReference
  2
*X0
 10
-0.0102726271591203
 20
-0.0718599034676889
 30
0.0
1001
ACAD
1000
HATCH
1002
{
1070
    16
1000
ANSI31
1040
0.125
1040
0.0
1002
}
  0
TEXT
  5
122
330
17
100
AcDbEntity
  8
3
100
AcDbText
 10
-1.115733924532117
 20
-1.07019923840553
 30
0.0
 40
0.031
  1
%%USECTION A-A
  7
ROMANS
 72
     1
 11
-0.9630589245321175
 21
-1.07019923840553
 31
0.0
100
AcDbText
  0
LINE
  5
123
330
17
100
AcDbEntity
  8
0
100
AcDbLine
 10
-0.1870076334143456
 20
-1.095545091649188
 30
0.0
 11
-0.1909091209522782
 21
-0.7034455940870049
 31
0.0
  0
LINE
  5
124
330
17
100
AcDbEntity
  8
0
100
AcDbLine
 10
-0.2189567198623044
 20
-1.100821103669024
 30
0.0
 11
-0.2229075369506932
 21
-0.7037639862859938
 31
0.0
  0
POINT
  5
125
330
17
100
AcDbEntity
  8
DEFPOINTS
  6
ByBlock
 62
     0
100
AcDbPoint
 10
-0.1870076334143456
 20
-1.095545091649188
 30
0.0
  0
POINT
  5
126
330
17
100
AcDbEntity
  8
DEFPOINTS
  6
ByBlock
 62
     0
100
AcDbPoint
 10
-0.1909091209522782
 20
-0.7034455940870049
 30
0.0
  0
LINE
  5
127
330
17
100
AcDbEntity
  8
0
100
AcDbLine
 10
-0.2628945966769354
 20
-0.7052634838481781
 30
0.0
 11
-0.2228926165769398
 21
-0.7052634838481781
 31
0.0
  0
ARC
  5
128
330
17
100
AcDbEntity
  8
0
100
AcDbCircle
 10
-0.2329070419501973
 20
-0.7038634838481778
 30
0.0
 40
0.01
100
AcDbArc
 50
0.5700884449989019
 51
90.00000000000019
  0
LINE
  5
129
330
17
100
AcDbEntity
  8
0
100
AcDbLine
 10
-0.2556853819637552
 20
-0.693863483848178
 30
0.0
 11
-0.2329070419501973
 21
-0.693863483848178
 31
0.0
  0
ARC
  5
12A
330
17
100
AcDbEntity
  8
0
100
AcDbCircle
 10
-0.2556853819637552
 20
-0.7170799551951453
 30
0.0
 40
0.0232164713469669
100
AcDbArc
 50
90.0
 51
236.6415427622737
  0
LINE
  5
12B
330
17
100
AcDbEntity
  8
0
100
AcDbLine
 10
-0.2684515457004795
 20
-0.7364714379969178
 30
0.0
 11
-0.2860475547351899
 21
-0.7631993347725845
 31
0.0
  0
ARC
  5
12C
330
17
100
AcDbEntity
  8
0
100
AcDbCircle
 10
-0.2556853819637552
 20
-0.7170799551951453
 30
0.0
 40
0.0552164713469669
100
AcDbArc
 50
90.00000000000046
 51
236.6415427622738
  0
LINE
  5
12D
330
17
100
AcDbEntity
  8
0
100
AcDbLine
 10
-0.2556853819637561
 20
-0.6618634838481782
 30
0.0
 11
-0.2329070419501973
 21
-0.6618634838481781
 31
0.0
  0
ARC
  5
12E
330
17
100
AcDbEntity
  8
0
100
AcDbCircle
 10
-0.2329070419501973
 20
-0.7038634838481778
 30
0.0
 40
0.042
100
AcDbArc
 50
0.5700884449989019
 51
90.00000000000019
  0
LINE
  5
12F
330
17
100
AcDbEntity
  8
0
100
AcDbLine
 10
-0.2628945966769354
 20
-1.095863483848177
 30
0.0
 11
-0.2628945966769354
 21
-0.7052634838481781
 31
0.0
  0
LINE
  5
130
330
17
100
AcDbEntity
  8
3
  6
CENTER
100
AcDbLine
 10
-0.3301615102269728
 20
-1.095863483848177
 30
0.0
 11
-0.2511887428790815
 21
-1.095863483848177
 31
0.0
  0
LINE
  5
131
330
17
100
AcDbEntity
  8
3
  6
CENTER
100
AcDbLine
 10
-0.2164758883582197
 20
-1.095863483848177
 30
0.0
 11
-0.1229216115827769
 21
-1.095863483848177
 31
0.0
  0
LINE
  5
132
330
17
100
AcDbEntity
  8
3
100
AcDbLine
 10
-0.2511887428790815
 20
-1.095863483848177
 30
0.0
 11
-0.2345656858812663
 21
-1.073385466395087
 31
0.0
  0
LINE
  5
133
330
17
100
AcDbEntity
  8
3
100
AcDbLine
 10
-0.2345656858812663
 20
-1.073385466395087
 30
0.0
 11
-0.2277208944753815
 21
-1.118335169297272
 31
0.0
  0
LINE
  5
134
330
17
100
AcDbEntity
  8
3
100
AcDbLine
 10
-0.2277208944753815
 20
-1.118335169297272
 30
0.0
 11
-0.2164758883582197
 21
-1.095863483848177
 31
0.0
  0
TEXT
  5
138
330
17
100
AcDbEntity
  8
3
100
AcDbText
 10
-0.3533754379772964
 20
-1.172856241945757
 30
0.0
 40
0.031
  1
%%uCRIMP DETAIL
  7
ROMANS
 72
     1
 11
-0.1977480570249154
 21
-1.172856241945757
 31
0.0
100
AcDbText
  0
INSERT
  5
139
330
17
100
AcDbEntity
  8
3
100
AcDbBlockReference
  2
*X2
 10
0.1951799503453664
 20
0.0
 30
0.0
1001
ACAD
1000
HATCH
1002
{
1070
    16
1000
ANSI31
1040
0.125
1040
0.0
1002
}
  0
TEXT
  5
156
330
17
100
AcDbEntity
  8
4
100
AcDbText
 10
0.0299689223686457
 20
-1.766587433123798
 30
0.0
 40
0.02
  1
inc., erie, pa.
  7
T
100
AcDbText
  0
LWPOLYLINE
  5
158
330
17
100
AcDbEntity
  8
4
  6
Continuous
 62
     4
100
AcDbPolyline
 90
      205
 70
     0
 43
0.0
 10
0.0119171374263605
 20
-1.733070123598765
 10
0.0109408869169467
 20
-1.73205771566308
 10
0.0098923215549673
 20
-1.731153780006212
 10
0.0086991264879099
 20
-1.730358316628168
 10
0.007433616568286
 20
-1.72963516810267
 10
0.0060957917961293
 20
-1.729056649282274
 10
0.0047218095976787
 20
-1.728586602740703
 10
0.0032755125466943
 20
-1.728225028477959
 10
0.0017930580694374
 20
-1.727971926494033
 10
0.0002744461658981
 20
-1.727863454215204
 10
-0.0012441657376421
 20
-1.727827296788931
 10
-0.0027627776411805
 20
-1.727899611641477
 10
-0.0042813895447207
 20
-1.728116556199131
 10
-0.0057638440219883
 20
-1.728441973035603
 10
-0.0072101410729832
 20
-1.728875862150901
 10
-0.0085841232714126
 20
-1.729418223545016
 10
-0.0099219480435906
 20
-1.73006905721797
 10
-0.010934355979277
 20
-1.73068373346464
 10
-0.0118744490624172
 20
-1.731370724563855
 10
-0.0127783847192875
 20
-1.732093873089353
 10
-0.0136100055236117
 20
-1.732889336467393
 10
-0.0144054689016429
 20
-1.733757114697992
 10
-0.0151286174271519
 20
-1.734697207781133
 10
-0.0158156085263661
 20
-1.735637300864274
 10
-0.0163941273467643
 20
-1.736649708799971
 10
-0.0169364887408792
 20
-1.73769827416194
 10
-0.0174065352824506
 20
-1.738782996950182
 10
-0.0177681095451936
 20
-1.739867719738421
 10
-0.0180573689553931
 20
-1.740988599952935
 10
-0.0182743135130483
 20
-1.74214563759373
 10
-0.0184189432181476
 20
-1.743302675234516
 10
-0.0184551006444194
 20
-1.744459712875311
 10
-0.0183827857918635
 20
-1.745616750516098
 10
-0.0183466283655927
 20
-1.746231426762768
 10
-0.0182743135130483
 20
-1.746809945583165
 10
-0.0182019986605031
 20
-1.747424621829837
 10
-0.0180573689553931
 20
-1.748003140650235
 10
-0.0178404243977495
 20
-1.74854550204436
 10
-0.0175873224138323
 20
-1.749051706012203
 10
-0.017189590724807
 20
-1.74944943770123
 10
-0.0167195441832355
 20
-1.749738697111418
 10
-0.0165025996255812
 20
-1.749847169390245
 10
-0.0162856550679376
 20
-1.7499194842428
 10
-0.0160325530840098
 20
-1.7499194842428
 10
-0.0158156085263661
 20
-1.7499194842428
 10
-0.0155625065424401
 20
-1.7499194842428
 10
-0.0153094045585132
 20
-1.749883326816516
 10
-0.0150201451483136
 20
-1.749811011963973
 10
-0.0146947283118433
 20
-1.7497748545377
 10
-0.0039559727082494
 20
-1.747894668371408
 10
-0.003485926166678
 20
-1.747822353518863
 10
-0.0029797221988357
 20
-1.74778619609259
 10
-0.0025096756572545
 20
-1.747713881240035
 10
-0.0020034716894219
 20
-1.747713881240035
 10
-0.0015334251478407
 20
-1.747677723813764
 10
-0.0010272211799975
 20
-1.747677723813764
 10
-0.0005571746384261
 20
-1.747713881240035
 10
-0.0000509706705731
 20
-1.747750038666308
 10
0.0004190758709868
 20
-1.74778619609259
 10
0.0009252798388406
 20
-1.747858510945135
 10
0.0013953263804112
 20
-1.747930825797689
 10
0.0018653729219817
 20
-1.748039298076506
 10
0.0023354194635532
 20
-1.748147770355334
 10
0.0028054660051229
 20
-1.74825624263416
 10
0.0032755125466943
 20
-1.74840087233926
 10
0.0037094016619932
 20
-1.748581659470631
 10
0.0047941244502443
 20
-1.749160178291031
 10
0.0056980601071031
 20
-1.749955641669073
 10
0.0063488937800562
 20
-1.750895734752214
 10
0.0068189403216161
 20
-1.751980457540455
 10
0.0070720423055439
 20
-1.753101337754968
 10
0.0071081997318156
 20
-1.754294532822036
 10
0.0069635700267261
 20
-1.755487727889105
 10
0.0066019957639725
 20
-1.756680922956173
 10
0.006240421501218
 20
-1.757440228907943
 10
0.0058426898122024
 20
-1.758163377433441
 10
0.0053364858443494
 20
-1.758814211106383
 10
0.0047941244502443
 20
-1.759428887353053
 10
0.004215605629847
 20
-1.760007406173451
 10
0.0035647719568939
 20
-1.760513610141293
 10
0.0028416234313964
 20
-1.760947499256593
 10
0.0021184749059087
 20
-1.761345230945609
 10
0.0013591689541386
 20
-1.76167064778209
 10
0.0005998630023694
 20
-1.761887592339734
 10
-0.0002317578019557
 20
-1.762068379471105
 10
-0.0010272211799975
 20
-1.762176851749932
 10
-0.0018226845580394
 20
-1.762213009176206
 10
-0.0026543053623644
 20
-1.762140694323661
 10
-0.0034497687404063
 20
-1.761996064618561
 10
-0.004245232118449
 20
-1.761742962634635
 10
-0.0048960657913915
 20
-1.761489860650708
 10
-0.0055107420380605
 20
-1.761200601240519
 10
-0.0061254182847312
 20
-1.760911341830321
 10
-0.0067039371051294
 20
-1.760549767567566
 10
-0.0072824559255276
 20
-1.760188193304823
 10
-0.0078248173196522
 20
-1.759790461615796
 10
-0.0083310212874856
 20
-1.759356572500498
 10
-0.0088733826816121
 20
-1.758886525958926
 10
-0.0093434292231933
 20
-1.758416479417356
 10
-0.0098134757647523
 20
-1.757946432875785
 10
-0.0102835223063345
 20
-1.757440228907943
 10
-0.0107174114216218
 20
-1.756897867513818
 10
-0.0111513005369313
 20
-1.756355506119701
 10
-0.0115490322259468
 20
-1.755813144725576
 10
-0.0119467639149615
 20
-1.75527078333146
 10
-0.0123083381777161
 20
-1.754692264511063
 10
-0.0209138056310998
 20
-1.758886525958926
 10
-0.0202268145318856
 20
-1.760007406173451
 10
-0.0194313511538429
 20
-1.761055971535419
 10
-0.018563572923247
 20
-1.762032222044833
 10
-0.0176234798401049
 20
-1.76290000027543
 10
-0.0166110719044079
 20
-1.763731621079744
 10
-0.0155263491161666
 20
-1.764454769605241
 10
-0.0143693114753711
 20
-1.765105603278185
 10
-0.0132122738345864
 20
-1.76564796467231
 10
-0.011982921341235
 20
-1.766118011213881
 10
-0.0107174114216218
 20
-1.766515742902897
 10
-0.0094157440757368
 20
-1.766805002313095
 10
-0.0081140767298518
 20
-1.766985789444468
 10
-0.006812409383957
 20
-1.767094261723296
 10
-0.0055107420380605
 20
-1.767094261723296
 10
-0.0042090746921755
 20
-1.767021946870751
 10
-0.0029074073462914
 20
-1.766805002313095
 10
-0.001605740000385
 20
-1.766515742902897
 10
-0.0003402300807718
 20
-1.766081853787609
 10
0.0008529649862963
 20
-1.765575649819755
 10
0.0020461600533537
 20
-1.764960973573086
 10
0.0031670402678667
 20
-1.764237825047588
 10
0.0042517630561187
 20
-1.763442361669545
 10
0.0052280135655316
 20
-1.76257458343896
 10
0.0061681066486736
 20
-1.761634490355806
 10
0.0070358848792704
 20
-1.760622082420121
 10
0.0077951908310405
 20
-1.75953735963188
 10
0.0084821819302663
 20
-1.758416479417356
 10
0.0090968581769255
 20
-1.757223284350289
 10
0.0095669047184961
 20
-1.755993931856948
 10
0.0099646364075223
 20
-1.754728421937334
 10
0.0102538958177219
 20
-1.75342675459145
 10
0.0103985255228212
 20
-1.752125087245554
 10
0.0104708403753655
 20
-1.751112679309858
 10
0.0104346829490929
 20
-1.750100271374173
 10
0.0103262106702769
 20
-1.749087863438475
 10
0.0101454235388943
 20
-1.748111612929061
 10
0.0098561641286956
 20
-1.747135362419636
 10
0.0094945898659518
 20
-1.746195269336495
 10
0.0090607007506538
 20
-1.745291333679626
 10
0.008518339356538
 20
-1.74442355544904
 10
0.0080844502412285
 20
-1.743881194054914
 10
0.0076144036996686
 20
-1.743338832660799
 10
0.0071081997318156
 20
-1.742868786119217
 10
0.0065658383377007
 20
-1.742471054430203
 10
0.0059511620910193
 20
-1.742073322741175
 10
0.0053364858443494
 20
-1.741711748478433
 10
0.0046856521714069
 20
-1.741422489068234
 10
0.0040348184984635
 20
-1.741133229658034
 10
0.0033478273992493
 20
-1.74091628510039
 10
0.0026608363000236
 20
-1.740699340542735
 10
0.001937687774527
 20
-1.740518553411363
 10
0.0012145392490392
 20
-1.740373923706264
 10
0.0004913907235418
 20
-1.740265451427438
 10
-0.0002317578019557
 20
-1.740193136574893
 10
-0.0009549063274426
 20
-1.740120821722349
 10
-0.0016418974266674
 20
-1.740084664296065
 10
-0.0020757865419663
 20
-1.740084664296065
 10
-0.0025458330835368
 20
-1.740084664296065
 10
-0.0029797221988357
 20
-1.740084664296065
 10
-0.003413611314123
 20
-1.740120821722349
 10
-0.0038475004294316
 20
-1.74015697914862
 10
-0.0042813895447207
 20
-1.740193136574893
 10
-0.0047152786600186
 20
-1.740229294001165
 10
-0.0051491677753175
 20
-1.740301608853721
 10
-0.0056192143168881
 20
-1.740373923706264
 10
-0.0060531034321869
 20
-1.74044623855882
 10
-0.0064869925474849
 20
-1.740518553411363
 10
-0.0069208816627837
 20
-1.740554710837636
 10
-0.0073547707780719
 20
-1.740627025690191
 10
-0.0077886598933707
 20
-1.740699340542735
 10
-0.0082587064349404
 20
-1.740771655395291
 10
-0.0086925955502393
 20
-1.740843970247835
 10
-0.0151647748534245
 20
-1.742434897003929
 10
-0.0152732471322406
 20
-1.741820220757259
 10
-0.0152009322796962
 20
-1.740880127674108
 10
-0.014983987722041
 20
-1.739723090033323
 10
-0.0145500986067537
 20
-1.738421422687426
 10
-0.0140077372126282
 20
-1.737119755341542
 10
-0.0132845886871307
 20
-1.7358904028482
 10
-0.0124168104565437
 20
-1.734877994912504
 10
-0.0114405599471192
 20
-1.734118688960735
 10
-0.0105727817165331
 20
-1.733720957271719
 10
-0.0096688460596637
 20
-1.733395540435238
 10
-0.0087287529765225
 20
-1.733214753303865
 10
-0.0077525024670972
 20
-1.733070123598765
 10
-0.0067762519576728
 20
-1.733033966172494
 10
-0.0057638440219883
 20
-1.733106281025049
 10
-0.0047875935125736
 20
-1.733214753303865
 10
-0.0038113430031501
 20
-1.73343169786152
 10
-0.0028350924937355
 20
-1.733720957271719
 10
-0.001931156836867
 20
-1.734082531534463
 10
-0.0010633786062799
 20
-1.73451642064976
 10
-0.0002317578019557
 20
-1.734986467191331
 10
0.0005275481498135
 20
-1.735528828585448
 10
0.001250696675311
 20
-1.736143504832118
 10
0.0018653729219817
 20
-1.73679433850507
 10
0.0023715768898347
 20
-1.737481329604284
 10
0.0119171374263605
 20
-1.733070123598765
  0
LWPOLYLINE
  5
227
330
17
100
AcDbEntity
  8
4
  6
Continuous
100
AcDbPolyline
 90
       21
 70
     0
 43
0.0
 10
-0.0880314489963352
 20
-1.7364689216686
 10
-0.0881399212751735
 20
-1.737589801883113
 10
-0.0884653381116447
 20
-1.738638367245081
 10
-0.0889715420794879
 20
-1.73954230290195
 10
-0.0896585331787137
 20
-1.740337766279993
 10
-0.0904901539830165
 20
-1.740988599952935
 10
-0.0914302470661683
 20
-1.741458646494506
 10
-0.0924426550018653
 20
-1.741747905904705
 10
-0.093527377790096
 20
-1.741856378183533
 10
-0.1007950204713222
 20
-1.741856378183533
 10
-0.1007950204713222
 20
-1.732563919630923
 10
-0.101554326423102
 20
-1.730792205743456
 10
-0.0934189055112791
 20
-1.730792205743456
 10
-0.0922980252967554
 20
-1.730900678022284
 10
-0.091285617361069
 20
-1.731226094858755
 10
-0.0903816817042005
 20
-1.731732298826609
 10
-0.0895862183261471
 20
-1.732419289925824
 10
-0.0889353846532046
 20
-1.73328706815642
 10
-0.0884653381116447
 20
-1.734227161239563
 10
-0.0881399212751735
 20
-1.735311884027803
 10
-0.0880314489963352
 20
-1.7364689216686
  0
LWPOLYLINE
  5
23E
330
17
100
AcDbEntity
  8
4
  6
Continuous
100
AcDbPolyline
 90
       61
 70
     0
 43
0.0
 10
-0.0878506618649739
 20
-1.744640500006684
 10
-0.0868020965029954
 20
-1.744568185154139
 10
-0.0857896885673091
 20
-1.74442355544904
 10
-0.0848857529104397
 20
-1.744206610891386
 10
-0.0840541321061261
 20
-1.743917351481186
 10
-0.0833309835806278
 20
-1.743555777218443
 10
-0.0826439924814135
 20
-1.743158045529417
 10
-0.0820293162347437
 20
-1.742687998987846
 10
-0.0814869548406172
 20
-1.74214563759373
 10
-0.081016908299036
 20
-1.741567118773333
 10
-0.0806191766100204
 20
-1.740952442526661
 10
-0.0802937597735483
 20
-1.740301608853721
 10
-0.0800406577896222
 20
-1.739578460328223
 10
-0.0798237132319786
 20
-1.738855311802725
 10
-0.0796790835268784
 20
-1.738096005850956
 10
-0.0796067686743349
 20
-1.737300542472914
 10
-0.0795706112480525
 20
-1.7364689216686
 10
-0.0796067686743349
 20
-1.73570961571683
 10
-0.0797513983794227
 20
-1.73495030976506
 10
-0.0799321855108062
 20
-1.734227161239563
 10
-0.0802214449210039
 20
-1.733504012714063
 10
-0.0805468617574761
 20
-1.73281702161485
 10
-0.0809807508727643
 20
-1.732166187941896
 10
-0.0814146399880729
 20
-1.731551511695226
 10
-0.0819570013821887
 20
-1.73097299287484
 10
-0.0824993627763036
 20
-1.730466788906985
 10
-0.0831140390229743
 20
-1.729996742365415
 10
-0.0837648726959159
 20
-1.729599010676399
 10
-0.0844518637951417
 20
-1.729237436413645
 10
-0.0851388548943666
 20
-1.728948177003445
 10
-0.0858620034198534
 20
-1.728767389872075
 10
-0.0866213093716351
 20
-1.728622760166975
 10
-0.0873806153233927
 20
-1.728586602740703
 10
-0.112726971141984
 20
-1.728586602740703
 10
-0.1123653968792402
 20
-1.728875862150901
 10
-0.1120399800427689
 20
-1.7291651215611
 10
-0.1117145632062977
 20
-1.729490538397571
 10
-0.1114253037960982
 20
-1.72977979780777
 10
-0.1111360443858986
 20
-1.73006905721797
 10
-0.1108467849757009
 20
-1.730430631480713
 10
-0.110593682991774
 20
-1.730792205743456
 10
-0.1103405810078577
 20
-1.731226094858755
 10
-0.1099790067451041
 20
-1.732021558236798
 10
-0.1096897473349045
 20
-1.732961651319949
 10
-0.1095089602035433
 20
-1.733865586976819
 10
-0.1094366453509883
 20
-1.734588735502305
 10
-0.1094004879247059
 20
-1.767094261723296
 10
-0.1006865481925052
 20
-1.759465044779326
 10
-0.1006865481925052
 20
-1.744387398022756
 10
-0.0968538610073733
 20
-1.744351240596485
 10
-0.0838010301221992
 20
-1.765973381508783
 10
-0.0725560705507631
 20
-1.766045696361326
 10
-0.0732430616499773
 20
-1.76564796467231
 10
-0.0739300527491924
 20
-1.765177918130739
 10
-0.0745808864221349
 20
-1.764707871589159
 10
-0.0751955626688048
 20
-1.764165510195043
 10
-0.0758102389154747
 20
-1.763659306227201
 10
-0.0763887577358728
 20
-1.763080787406801
 10
-0.076967276556271
 20
-1.762502268586404
 10
-0.0775457953766692
 20
-1.761887592339734
 10
-0.0878506618649739
 20
-1.744640500006684
  0
LWPOLYLINE
  5
27D
330
17
100
AcDbEntity
  8
4
  6
Continuous
100
AcDbPolyline
 90
      205
 70
     0
 43
0.0
 10
-0.1536137220446925
 20
-1.73281702161485
 10
-0.1545899725541062
 20
-1.731804613679153
 10
-0.1556385379160758
 20
-1.730864520596011
 10
-0.1568317329831439
 20
-1.73006905721797
 10
-0.1580972429027563
 20
-1.729382066118745
 10
-0.1594350676749237
 20
-1.728803547298345
 10
-0.1608090498733636
 20
-1.728333500756775
 10
-0.1622915043506206
 20
-1.727971926494033
 10
-0.1637739588278873
 20
-1.727718824510105
 10
-0.1652564133051557
 20
-1.727574194805005
 10
-0.1667750252086941
 20
-1.727538037378734
 10
-0.168329794538506
 20
-1.727646509657561
 10
-0.1698122490157736
 20
-1.727827296788931
 10
-0.1712947034930412
 20
-1.728152713625405
 10
-0.1727410005440255
 20
-1.728586602740703
 10
-0.1741149827424646
 20
-1.7291651215611
 10
-0.1754528075146222
 20
-1.729815955234043
 10
-0.1764652154503299
 20
-1.730430631480713
 10
-0.177405308533471
 20
-1.731081465153655
 10
-0.1783092441903404
 20
-1.731840771105425
 10
-0.1791408649946549
 20
-1.732636234483468
 10
-0.1799363283726967
 20
-1.733504012714063
 10
-0.1806594768981826
 20
-1.734407948370934
 10
-0.1813103105711367
 20
-1.735384198880348
 10
-0.1819249868178074
 20
-1.736396606816045
 10
-0.1824311907856506
 20
-1.73740901475174
 10
-0.1829012373272309
 20
-1.738493737539981
 10
-0.1832628115899748
 20
-1.739614617754495
 10
-0.1835520710001743
 20
-1.740735497969008
 10
-0.183769015557818
 20
-1.741856378183533
 10
-0.1838774878366447
 20
-1.743013415824318
 10
-0.183949802689189
 20
-1.744206610891386
 10
-0.1838774878366447
 20
-1.745363648532181
 10
-0.183841330410373
 20
-1.74594216735258
 10
-0.183769015557818
 20
-1.74655684359925
 10
-0.183696700705263
 20
-1.747135362419636
 10
-0.1835520710001743
 20
-1.747713881240035
 10
-0.1833712838687909
 20
-1.74825624263416
 10
-0.1830820244585922
 20
-1.748762446602004
 10
-0.1827204501958484
 20
-1.749160178291031
 10
-0.1822504036542778
 20
-1.74944943770123
 10
-0.1820334590966341
 20
-1.749557909980045
 10
-0.1818165145389798
 20
-1.749630224832601
 10
-0.1815634125550529
 20
-1.749666382258873
 10
-0.1813464679974199
 20
-1.749666382258873
 10
-0.1810933660134921
 20
-1.749630224832601
 10
-0.1808402640295661
 20
-1.749630224832601
 10
-0.1805871620456383
 20
-1.749557909980045
 10
-0.1802617452091679
 20
-1.749521752553774
 10
-0.169522989605575
 20
-1.74764156638749
 10
-0.1690529430639929
 20
-1.747569251534936
 10
-0.1685467390961604
 20
-1.747496936682391
 10
-0.1680766925545791
 20
-1.747460779256119
 10
-0.1675704885867359
 20
-1.747424621829837
 10
-0.1671004420451663
 20
-1.747424621829837
 10
-0.1665942380773124
 20
-1.747424621829837
 10
-0.1661241915357516
 20
-1.747424621829837
 10
-0.1656179875678987
 20
-1.747460779256119
 10
-0.1651479410263379
 20
-1.747496936682391
 10
-0.1646417370584841
 20
-1.747569251534936
 10
-0.1641716905169144
 20
-1.74764156638749
 10
-0.1637016439753429
 20
-1.747750038666308
 10
-0.1631954400074891
 20
-1.747858510945135
 10
-0.1627253934659194
 20
-1.748003140650235
 10
-0.1622915043506206
 20
-1.748147770355334
 10
-0.1618214578090606
 20
-1.748328557486706
 10
-0.1607367350208086
 20
-1.748907076307103
 10
-0.159868956790211
 20
-1.749702539685145
 10
-0.1591819656909976
 20
-1.750642632768288
 10
-0.1587480765757085
 20
-1.751691198130255
 10
-0.1584949745917816
 20
-1.752848235771053
 10
-0.1584226597392266
 20
-1.75404143083812
 10
-0.158567289444326
 20
-1.755234625905178
 10
-0.1589288637070698
 20
-1.756391663545974
 10
-0.1592904379698137
 20
-1.757150969497744
 10
-0.1596881696588506
 20
-1.757874118023242
 10
-0.1601943736266831
 20
-1.758524951696184
 10
-0.1607367350208086
 20
-1.759139627942853
 10
-0.1613514112674785
 20
-1.759718146763252
 10
-0.162002244940421
 20
-1.760224350731095
 10
-0.1626892360396468
 20
-1.760658239846394
 10
-0.1634123845651443
 20
-1.761055971535419
 10
-0.1641716905169144
 20
-1.76138138837189
 10
-0.1649671538949562
 20
-1.761634490355806
 10
-0.165762617272998
 20
-1.76181527748719
 10
-0.1665580806510398
 20
-1.761887592339734
 10
-0.1673897014553649
 20
-1.761923749766006
 10
-0.16822132225969
 20
-1.761851434913461
 10
-0.1690167856377212
 20
-1.761706805208361
 10
-0.1698122490157736
 20
-1.761489860650708
 10
-0.1704630826887152
 20
-1.761236758666791
 10
-0.171077758935386
 20
-1.760947499256593
 10
-0.1716562777557842
 20
-1.760658239846394
 10
-0.1722347965761832
 20
-1.76029666558365
 10
-0.1728133153965698
 20
-1.759935091320895
 10
-0.1733556767906954
 20
-1.759501202205598
 10
-0.1738980381848103
 20
-1.759103470516581
 10
-0.1744042421526641
 20
-1.758633423975011
 10
-0.1748742886942356
 20
-1.758163377433441
 10
-0.1753804926620779
 20
-1.757657173465586
 10
-0.1758143817773767
 20
-1.757150969497744
 10
-0.1762482708926747
 20
-1.7566447655299
 10
-0.176682160007962
 20
-1.756102404135775
 10
-0.1770798916969891
 20
-1.755523885315378
 10
-0.1774776233860154
 20
-1.754981523921262
 10
-0.1778391976487592
 20
-1.754403005100863
 10
-0.1864085076758712
 20
-1.758633423975011
 10
-0.1857215165766552
 20
-1.759754304189524
 10
-0.1849260531986028
 20
-1.76076671212522
 10
-0.1840582749680175
 20
-1.761742962634635
 10
-0.1831181818848755
 20
-1.762646898291504
 10
-0.1821057739491785
 20
-1.763442361669545
 10
-0.1810210511609371
 20
-1.764165510195043
 10
-0.179900170946425
 20
-1.764816343867985
 10
-0.178706975879356
 20
-1.765358705262111
 10
-0.1774776233860154
 20
-1.765828751803683
 10
-0.1762482708926747
 20
-1.766226483492698
 10
-0.1749466035467906
 20
-1.766515742902897
 10
-0.1736449362008949
 20
-1.766732687460551
 10
-0.1723432688549993
 20
-1.766841159739369
 10
-0.1710416015091143
 20
-1.766841159739369
 10
-0.1697399341632186
 20
-1.766732687460551
 10
-0.1684382668173336
 20
-1.76655190032918
 10
-0.167136599471438
 20
-1.766226483492698
 10
-0.1658710895518256
 20
-1.765828751803683
 10
-0.1646778944847576
 20
-1.765322547835828
 10
-0.1634846994176886
 20
-1.764671714162886
 10
-0.1623638192031755
 20
-1.763984723063671
 10
-0.1613152538412059
 20
-1.76318925968563
 10
-0.1603028459055213
 20
-1.762321481455033
 10
-0.1593627528223678
 20
-1.761345230945609
 10
-0.1585311320180551
 20
-1.760332823009921
 10
-0.1577356686400018
 20
-1.759284257647954
 10
-0.1570486775407875
 20
-1.758127220007156
 10
-0.1564701587203894
 20
-1.756934024940099
 10
-0.1559639547525462
 20
-1.755740829873031
 10
-0.15556622306352
 20
-1.754475319953409
 10
-0.1552769636533213
 20
-1.753173652607524
 10
-0.1551323339482327
 20
-1.751835827835356
 10
-0.1550961765219592
 20
-1.750823419899669
 10
-0.1551323339482327
 20
-1.749811011963973
 10
-0.1552408062270487
 20
-1.748834761454558
 10
-0.1554215933584313
 20
-1.747822353518863
 10
-0.1557108527686202
 20
-1.746882260435721
 10
-0.1560362696051012
 20
-1.74594216735258
 10
-0.1564701587203894
 20
-1.74503823169571
 10
-0.157012520114514
 20
-1.744170453465113
 10
-0.1574464092298022
 20
-1.743591934644715
 10
-0.1579164557713844
 20
-1.743085730676873
 10
-0.1584226597392266
 20
-1.742615684135301
 10
-0.1590011785596248
 20
-1.742181795020003
 10
-0.1595796973800123
 20
-1.741784063330976
 10
-0.1601943736266831
 20
-1.741458646494506
 10
-0.1608452072996362
 20
-1.741133229658034
 10
-0.1615321983988611
 20
-1.740880127674108
 10
-0.1622191894980762
 20
-1.740627025690191
 10
-0.1629061805972904
 20
-1.74044623855882
 10
-0.1636293291227879
 20
-1.740265451427438
 10
-0.1643163202220137
 20
-1.740120821722349
 10
-0.1650394687475005
 20
-1.74001234944352
 10
-0.165762617272998
 20
-1.739940034590965
 10
-0.1664857657984946
 20
-1.739867719738421
 10
-0.1671727568977106
 20
-1.739831562312149
 10
-0.1676066460130094
 20
-1.739795404885867
 10
-0.1680766925545791
 20
-1.739795404885867
 10
-0.168510581669878
 20
-1.739831562312149
 10
-0.1689444707851759
 20
-1.739831562312149
 10
-0.1693783599004748
 20
-1.739867719738421
 10
-0.1698484064420462
 20
-1.739903877164694
 10
-0.1702822955573335
 20
-1.73997619201725
 10
-0.1707161846726422
 20
-1.74001234944352
 10
-0.1711500737879312
 20
-1.740084664296065
 10
-0.1715839629032398
 20
-1.74015697914862
 10
-0.1720540094447998
 20
-1.740229294001165
 10
-0.1724878985600986
 20
-1.740301608853721
 10
-0.1729217876753966
 20
-1.740373923706264
 10
-0.1733556767906954
 20
-1.74044623855882
 10
-0.173825723332266
 20
-1.740518553411363
 10
-0.1742596124475639
 20
-1.740590868263919
 10
-0.1806956343244659
 20
-1.74214563759373
 10
-0.1808402640295661
 20
-1.741530961347061
 10
-0.1807679491770218
 20
-1.740590868263919
 10
-0.1805148471930948
 20
-1.739433830623123
 10
-0.1801171155040686
 20
-1.738132163277227
 10
-0.1795385966836811
 20
-1.736830495931343
 10
-0.1788154481581721
 20
-1.735601143438002
 10
-0.1779838273538585
 20
-1.734588735502305
 10
-0.1770075768444448
 20
-1.733829429550535
 10
-0.176139798613848
 20
-1.73343169786152
 10
-0.1752358629569892
 20
-1.733142438451321
 10
-0.1742957698738374
 20
-1.732925493893666
 10
-0.1733195193644121
 20
-1.73281702161485
 10
-0.1723432688549993
 20
-1.732780864188567
 10
-0.1713308609193129
 20
-1.73281702161485
 10
-0.1703546104098992
 20
-1.732961651319949
 10
-0.1693783599004748
 20
-1.733178595877593
 10
-0.1684021093910504
 20
-1.733467855287793
 10
-0.167498173734181
 20
-1.733829429550535
 10
-0.1665942380773124
 20
-1.734227161239563
 10
-0.165762617272998
 20
-1.734697207781133
 10
-0.1650033113212279
 20
-1.735239569175259
 10
-0.1643163202220137
 20
-1.735854245421929
 10
-0.1637016439753429
 20
-1.736505079094871
 10
-0.1631592825812174
 20
-1.737192070194085
 10
-0.1536137220446925
 20
-1.73281702161485
  0
LWPOLYLINE
  5
34C
330
17
100
AcDbEntity
  8
4
  6
Continuous
100
AcDbPolyline
 90
      133
 70
     0
 43
0.0
 10
-0.1453749623672733
 20
-1.730286001775614
 10
-0.1459896386139423
 20
-1.730936835448555
 10
-0.1465681574343414
 20
-1.731696141400325
 10
-0.1470743614021837
 20
-1.732491604778379
 10
-0.1476167227962994
 20
-1.733323225582693
 10
-0.148159084190425
 20
-1.734118688960735
 10
-0.1487376030108232
 20
-1.734914152338776
 10
-0.1493161218312213
 20
-1.735637300864274
 10
-0.1500031129304364
 20
-1.736251977110945
 10
-0.1502562149143634
 20
-1.736432764242315
 10
-0.1505093168982894
 20
-1.736613551373699
 10
-0.1507624188822163
 20
-1.73679433850507
 10
-0.1510155208661326
 20
-1.736975125636443
 10
-0.1512686228500488
 20
-1.737155912767814
 10
-0.1515578822602475
 20
-1.737336699899185
 10
-0.1518471416704461
 20
-1.737517487030558
 10
-0.1522087159332006
 20
-1.73769827416194
 10
-0.13908357019546
 20
-1.73769827416194
 10
-0.1396620890158582
 20
-1.73816832070351
 10
-0.1402044504099846
 20
-1.738638367245081
 10
-0.1407106543778376
 20
-1.739108413786652
 10
-0.1412168583456692
 20
-1.739614617754495
 10
-0.1416869048872513
 20
-1.74015697914862
 10
-0.1421569514288219
 20
-1.740699340542735
 10
-0.1425908405441207
 20
-1.741241701936861
 10
-0.1429885722331372
 20
-1.741820220757259
 10
-0.1434224613484458
 20
-1.742434897003929
 10
-0.1437840356111888
 20
-1.743085730676873
 10
-0.1441456098739318
 20
-1.743772721776088
 10
-0.1445071841366756
 20
-1.744459712875311
 10
-0.1448687583994186
 20
-1.745219018827083
 10
-0.1451941752359014
 20
-1.745978324778851
 10
-0.1455195920723726
 20
-1.746809945583165
 10
-0.1458088514825722
 20
-1.747677723813764
 10
-0.1463150554504144
 20
-1.749594067406329
 10
-0.146604314860614
 20
-1.751510410998884
 10
-0.1466404722868848
 20
-1.753462912017721
 10
-0.1464596851555244
 20
-1.755415413036561
 10
-0.1460619534664866
 20
-1.757295599202843
 10
-0.145411119793545
 20
-1.759139627942853
 10
-0.14457949898922
 20
-1.760875184404036
 10
-0.1434947762009902
 20
-1.762466111160131
 10
-0.1429524148068637
 20
-1.763116944833074
 10
-0.1423377385601938
 20
-1.763731621079744
 10
-0.1416507474609787
 20
-1.764346297326416
 10
-0.1408914415091989
 20
-1.764888658720541
 10
-0.1401321355574403
 20
-1.765431020114656
 10
-0.1393005147531143
 20
-1.765937224082509
 10
-0.1384327365225175
 20
-1.766371113197798
 10
-0.1375288008656481
 20
-1.766768844886823
 10
-0.1366248652087796
 20
-1.767130419149568
 10
-0.1356847721256376
 20
-1.767455835986039
 10
-0.134780836468769
 20
-1.767708937969965
 10
-0.133840743385627
 20
-1.767889725101336
 10
-0.132900650302485
 20
-1.768034354806436
 10
-0.1319967146456165
 20
-1.76807051223272
 10
-0.131092778988747
 20
-1.76807051223272
 10
-0.1302250007581609
 20
-1.767998197380163
 10
-0.1291402779699196
 20
-1.767817410248793
 10
-0.1280555551816676
 20
-1.767600465691139
 10
-0.1270069898197104
 20
-1.767311206280939
 10
-0.125994581884024
 20
-1.766949632018195
 10
-0.1249821739483163
 20
-1.76655190032918
 10
-0.1240420808651752
 20
-1.766081853787609
 10
-0.1231019877820341
 20
-1.765539492393484
 10
-0.1222703669777196
 20
-1.764924816146813
 10
-0.1214387461734052
 20
-1.764237825047588
 10
-0.1207155976478971
 20
-1.7635146765221
 10
-0.120028606548682
 20
-1.762719213144048
 10
-0.1194139303020121
 20
-1.761851434913461
 10
-0.1188715689078865
 20
-1.760911341830321
 10
-0.1184376797925983
 20
-1.759935091320895
 10
-0.1180761055298554
 20
-1.758850368532656
 10
-0.1177868461196558
 20
-1.757729488318141
 10
-0.118582309497687
 20
-1.758416479417356
 10
-0.1194139303020121
 20
-1.759031155664026
 10
-0.1203178659588815
 20
-1.759609674484425
 10
-0.12122180161575
 20
-1.760079721025995
 10
-0.122161894698892
 20
-1.760513610141293
 10
-0.1231381452083058
 20
-1.760875184404036
 10
-0.1241505531440019
 20
-1.761164443814236
 10
-0.1251629610796989
 20
-1.76138138837189
 10
-0.1261753690153853
 20
-1.76152601807699
 10
-0.127223934377354
 20
-1.761562175503263
 10
-0.1282363423130501
 20
-1.761562175503263
 10
-0.1292487502487356
 20
-1.761453703224435
 10
-0.1302611581844326
 20
-1.761272916093064
 10
-0.1312374086938579
 20
-1.760983656682864
 10
-0.1322136592032708
 20
-1.760622082420121
 10
-0.1331537522864128
 20
-1.760188193304823
 10
-0.1340576879432813
 20
-1.759609674484425
 10
-0.1348893087476064
 20
-1.758994998237755
 10
-0.1356486146993649
 20
-1.758271849712258
 10
-0.1363717632248624
 20
-1.757512543760486
 10
-0.1369864394715332
 20
-1.7566447655299
 10
-0.1375649582919314
 20
-1.755776987299304
 10
-0.1380350048335019
 20
-1.754836894216162
 10
-0.1384688939488008
 20
-1.753860643706738
 10
-0.1388304682115544
 20
-1.752848235771053
 10
-0.13908357019546
 20
-1.751835827835356
 10
-0.1393005147531143
 20
-1.750787262473386
 10
-0.1394451444582243
 20
-1.749702539685145
 10
-0.1395174593107695
 20
-1.748653974323178
 10
-0.1395174593107695
 20
-1.747569251534936
 10
-0.1394451444582243
 20
-1.746484528746695
 10
-0.1393005147531143
 20
-1.745435963384725
 10
-0.1389027830640988
 20
-1.744206610891386
 10
-0.1384688939488008
 20
-1.743121888103145
 10
-0.1379988474072302
 20
-1.742109480167458
 10
-0.1374564860131038
 20
-1.741169387084306
 10
-0.1368779671927056
 20
-1.740265451427438
 10
-0.1361909760934914
 20
-1.739433830623123
 10
-0.135395512715438
 20
-1.738566052392525
 10
-0.1344915770585695
 20
-1.737734431588211
 10
-0.1276216660663803
 20
-1.737734431588211
 10
-0.127223934377354
 20
-1.737734431588211
 10
-0.1267538878357826
 20
-1.737662116735656
 10
-0.1262476838679403
 20
-1.737589801883113
 10
-0.1257414799000971
 20
-1.737445172178013
 10
-0.1252352759322441
 20
-1.737300542472914
 10
-0.1248013868169551
 20
-1.737083597915269
 10
-0.1244036551279182
 20
-1.736866653357614
 10
-0.1241143957177302
 20
-1.736577393947415
 10
-0.1175337441357289
 20
-1.72855044531443
 10
-0.1412530157719525
 20
-1.72855044531443
 10
-0.1419400068711774
 20
-1.728586602740703
 10
-0.1425185256915764
 20
-1.728622760166975
 10
-0.1430608870856913
 20
-1.728731232445803
 10
-0.1435309336272619
 20
-1.728912019577174
 10
-0.1440009801688324
 20
-1.729128964134829
 10
-0.1444348692841313
 20
-1.729418223545016
 10
-0.1449049158257019
 20
-1.729815955234043
 10
-0.1453749623672733
 20
-1.730286001775614
  0
LWPOLYLINE
  5
3D3
330
17
100
AcDbEntity
  8
4
  6
Continuous
100
AcDbPolyline
 90
      138
 70
     0
 43
0.0
 10
-0.2017784868363384
 20
-1.72855044531443
 10
-0.2010191808845692
 20
-1.729092806708545
 10
-0.2004045046378993
 20
-1.729707482955216
 10
-0.1998983006700561
 20
-1.73039447405444
 10
-0.1995367264073122
 20
-1.731117622579939
 10
-0.1992474669971127
 20
-1.731876928531709
 10
-0.1990666798657301
 20
-1.732672391909751
 10
-0.1989582075869141
 20
-1.733540170140337
 10
-0.1989220501606414
 20
-1.734444105797206
 10
-0.1989220501606414
 20
-1.761598332929535
 10
-0.1995728838335839
 20
-1.761598332929535
 10
-0.2002237175065273
 20
-1.761562175503263
 10
-0.2008745511794698
 20
-1.761489860650708
 10
-0.2014892274261397
 20
-1.76138138837189
 10
-0.2021400610990822
 20
-1.761236758666791
 10
-0.2027547373457521
 20
-1.761055971535419
 10
-0.2033694135924229
 20
-1.760839026977765
 10
-0.203947932412821
 20
-1.760622082420121
 10
-0.2045626086594909
 20
-1.760332823009921
 10
-0.2051411274798882
 20
-1.760043563599724
 10
-0.2056834888740147
 20
-1.759718146763252
 10
-0.2062258502681304
 20
-1.759356572500498
 10
-0.2067682116622551
 20
-1.758958840811482
 10
-0.2073105730563718
 20
-1.758561109122456
 10
-0.2078167770242238
 20
-1.758127220007156
 10
-0.2082868235657846
 20
-1.75769333089187
 10
-0.2091184443701088
 20
-1.756861710087544
 10
-0.2098777503218789
 20
-1.755957774430676
 10
-0.2105647414211038
 20
-1.755017681347533
 10
-0.2111794176677746
 20
-1.754005273411838
 10
-0.2117217790618904
 20
-1.752956708049879
 10
-0.2121556681771892
 20
-1.75190814268791
 10
-0.2125172424399322
 20
-1.750787262473386
 10
-0.2127703444238591
 20
-1.749666382258873
 10
-0.2129149741289584
 20
-1.748617816896905
 10
-0.2130234464077851
 20
-1.747569251534936
 10
-0.2130234464077851
 20
-1.746484528746695
 10
-0.2129511315552408
 20
-1.745435963384725
 10
-0.2128065018501308
 20
-1.744387398022756
 10
-0.2125895572924872
 20
-1.743338832660799
 10
-0.2122641404560053
 20
-1.742326424725103
 10
-0.2118302513407171
 20
-1.741350174215678
 10
-0.2115048345042458
 20
-1.740735497969008
 10
-0.2111794176677746
 20
-1.740120821722349
 10
-0.2108540008313033
 20
-1.73954230290195
 10
-0.2104924265685497
 20
-1.738963784081553
 10
-0.2101670097320776
 20
-1.738385265261154
 10
-0.2098054354693239
 20
-1.737842903867039
 10
-0.2094077037803084
 20
-1.737300542472914
 10
-0.2090099720912928
 20
-1.73679433850507
 10
-0.2086122404022559
 20
-1.736251977110945
 10
-0.2082145087132403
 20
-1.735745773143101
 10
-0.2077806195979521
 20
-1.735239569175259
 10
-0.2073467304826426
 20
-1.734733365207405
 10
-0.2068766839410827
 20
-1.734263318665834
 10
-0.2064066373995015
 20
-1.733757114697992
 10
-0.2059365908579416
 20
-1.73328706815642
 10
-0.2054303868900877
 20
-1.732780864188567
 10
-0.2049964977747898
 20
-1.732274660220725
 10
-0.2047072383646009
 20
-1.731732298826609
 10
-0.2045264512332192
 20
-1.731189937432483
 10
-0.2044902938069466
 20
-1.730647576038358
 10
-0.2045264512332192
 20
-1.730105214644241
 10
-0.2046349235120353
 20
-1.729562853250116
 10
-0.2048157106434179
 20
-1.729056649282274
 10
-0.2050688126273448
 20
-1.72855044531443
 10
-0.2180493286599647
 20
-1.72855044531443
 10
-0.2177600692497652
 20
-1.728803547298345
 10
-0.2174708098395657
 20
-1.729056649282274
 10
-0.2171815504293777
 20
-1.729309751266199
 10
-0.2168922910191782
 20
-1.729599010676399
 10
-0.2166391890352628
 20
-1.729888270086588
 10
-0.2163860870513359
 20
-1.730213686923069
 10
-0.2161691424936816
 20
-1.73053910375954
 10
-0.215952197936037
 20
-1.730864520596011
 10
-0.2155183088207391
 20
-1.731840771105425
 10
-0.2153013642630839
 20
-1.732889336467393
 10
-0.2153013642630839
 20
-1.733974059255636
 10
-0.2154459939681939
 20
-1.735058782043877
 10
-0.2157352533783925
 20
-1.736215819684672
 10
-0.2162052999199533
 20
-1.737336699899185
 10
-0.2167476613140788
 20
-1.738385265261154
 10
-0.2173623375607496
 20
-1.73939767319685
 10
-0.2180131712336912
 20
-1.740410081132536
 10
-0.218700162332917
 20
-1.741386331641961
 10
-0.2193871534321428
 20
-1.742398739577648
 10
-0.2200018296788126
 20
-1.743411147513343
 10
-0.2205080336466452
 20
-1.74442355544904
 10
-0.2209419227619547
 20
-1.745435963384725
 10
-0.2212673395984259
 20
-1.746520686172968
 10
-0.221520441582352
 20
-1.747605408961218
 10
-0.2216650712874415
 20
-1.74869013174946
 10
-0.2217373861399858
 20
-1.749811011963973
 10
-0.2217373861399858
 20
-1.750931892178485
 10
-0.2216289138611689
 20
-1.75205277239301
 10
-0.2214842841560696
 20
-1.752775920918498
 10
-0.2213396544509703
 20
-1.753499069443995
 10
-0.2211227098933151
 20
-1.754222217969493
 10
-0.2208696079093988
 20
-1.754909209068706
 10
-0.2205803484992002
 20
-1.755596200167933
 10
-0.2202549316627298
 20
-1.756247033840875
 10
-0.2199295148262577
 20
-1.756934024940099
 10
-0.2195317831372314
 20
-1.757548701186771
 10
-0.2191340514482158
 20
-1.758163377433441
 10
-0.218700162332917
 20
-1.75877805368011
 10
-0.2182301157913464
 20
-1.759356572500498
 10
-0.2177239118234926
 20
-1.759935091320895
 10
-0.2172177078556503
 20
-1.760477452715023
 10
-0.216711503887808
 20
-1.761019814109137
 10
-0.2161691424936816
 20
-1.76152601807699
 10
-0.2155906236732834
 20
-1.761996064618561
 10
-0.2149397900003418
 20
-1.762502268586404
 10
-0.2142166414748541
 20
-1.762972315127975
 10
-0.213493492949345
 20
-1.763406204243274
 10
-0.2127341869975865
 20
-1.7638039359323
 10
-0.211938723619534
 20
-1.764165510195043
 10
-0.2111432602415029
 20
-1.764490927031514
 10
-0.2103116394371769
 20
-1.764816343867985
 10
-0.2094800186328527
 20
-1.765069445851913
 10
-0.2086483978285392
 20
-1.765286390409556
 10
-0.2078167770242238
 20
-1.765503334967211
 10
-0.2069489987936279
 20
-1.765684122098583
 10
-0.2060812205630302
 20
-1.765792594377411
 10
-0.2052495997587167
 20
-1.765901066656226
 10
-0.204381821528119
 20
-1.765973381508783
 10
-0.2035502007238046
 20
-1.766045696361326
 10
-0.2027185799194804
 20
-1.766045696361326
 10
-0.1906058421174466
 20
-1.766045696361326
 10
-0.1906058421174466
 20
-1.733106281025049
 10
-0.1906058421174466
 20
-1.73252776220465
 10
-0.1906058421174466
 20
-1.731949243384253
 10
-0.1905335272648916
 20
-1.731334567137582
 10
-0.1904250549860755
 20
-1.730719890890912
 10
-0.1902081104284203
 20
-1.730141372070514
 10
-0.1899188510182217
 20
-1.729599010676399
 10
-0.1894849619029344
 20
-1.729056649282274
 10
-0.1889064430825362
 20
-1.72855044531443
 10
-0.2017784868363384
 20
-1.72855044531443
  0
LWPOLYLINE
  5
45F
330
17
100
AcDbEntity
  8
4
  6
Continuous
100
AcDbPolyline
 90
       21
 70
     0
 43
0.0
 10
-0.07141442570608
 20
-1.72855044531443
 10
-0.0707274346068658
 20
-1.728912019577174
 10
-0.0701489157864677
 20
-1.729345908692473
 10
-0.0696427118186245
 20
-1.729852112660315
 10
-0.0692811375558709
 20
-1.730430631480713
 10
-0.0689918781456713
 20
-1.731081465153655
 10
-0.0687749335880277
 20
-1.731768456252881
 10
-0.0686664613092001
 20
-1.73252776220465
 10
-0.0686303038829284
 20
-1.733323225582693
 10
-0.0686303038829284
 20
-1.766045696361326
 10
-0.0597355770193451
 20
-1.766045696361326
 10
-0.0597355770193451
 20
-1.733214753303865
 10
-0.0596994195930742
 20
-1.732455447352095
 10
-0.0595186324616908
 20
-1.731804613679153
 10
-0.0593016879040471
 20
-1.731153780006212
 10
-0.0589401136413041
 20
-1.730575261185813
 10
-0.058542381952277
 20
-1.730032899791688
 10
-0.0580361779844338
 20
-1.729490538397571
 10
-0.0574938165903198
 20
-1.729020491856001
 10
-0.0568429829173658
 20
-1.72855044531443
 10
-0.07141442570608
 20
-1.72855044531443
  0
LWPOLYLINE
  5
476
330
17
100
AcDbEntity
  8
4
  6
Continuous
100
AcDbPolyline
 90
       73
 70
     0
 43
0.0
 10
-0.3860248767787881
 20
-1.756680922956173
 10
-0.3854102005321183
 20
-1.757042497218916
 10
-0.3849039965642644
 20
-1.757512543760486
 10
-0.3844701074489771
 20
-1.758091062580885
 10
-0.384144690612505
 20
-1.758741896253828
 10
-0.3839639034811224
 20
-1.759465044779326
 10
-0.3839277460548507
 20
-1.760188193304823
 10
-0.3840362183336676
 20
-1.760875184404036
 10
-0.3843254777438663
 20
-1.761562175503263
 10
-0.3846508945803375
 20
-1.761959907192279
 10
-0.3849763114168203
 20
-1.762321481455033
 10
-0.3853740431058457
 20
-1.762646898291504
 10
-0.3858079322211338
 20
-1.762936157701703
 10
-0.3862779787627151
 20
-1.763153102259346
 10
-0.3867841827305476
 20
-1.763333889390718
 10
-0.387326544124674
 20
-1.763442361669545
 10
-0.3878689055187987
 20
-1.763478519095818
 10
-0.401066366109074
 20
-1.763478519095818
 10
-0.3939433531329577
 20
-1.757440228907943
 10
-0.3935094640176482
 20
-1.757042497218916
 10
-0.393184047181176
 20
-1.7566447655299
 10
-0.3928947877709881
 20
-1.756283191267147
 10
-0.3927140006396161
 20
-1.755921617004404
 10
-0.392569370934507
 20
-1.755560042741659
 10
-0.3924970560819618
 20
-1.755162311052634
 10
-0.3924247412294175
 20
-1.75480073678989
 10
-0.3924247412294175
 20
-1.754403005100863
 10
-0.3924247412294175
 20
-1.730430631480713
 10
-0.3924970560819618
 20
-1.72992442751287
 10
-0.392641685787062
 20
-1.729418223545016
 10
-0.3928947877709881
 20
-1.729020491856001
 10
-0.3932202046074593
 20
-1.728658917593246
 10
-0.3936179362964855
 20
-1.728369658183058
 10
-0.3940518254117737
 20
-1.728152713625405
 10
-0.3945580293796276
 20
-1.728008083920303
 10
-0.3950642333474699
 20
-1.727971926494033
 10
-0.4028742374228118
 20
-1.727971926494033
 10
-0.4023318760286864
 20
-1.728514287888148
 10
-0.4018618294871265
 20
-1.729020491856001
 10
-0.4014640977981001
 20
-1.729599010676399
 10
-0.4011386809616182
 20
-1.730177529496786
 10
-0.4008494215514295
 20
-1.730828363169739
 10
-0.4006686344200574
 20
-1.731515354268954
 10
-0.4005601621412307
 20
-1.732310817646995
 10
-0.4005240047149476
 20
-1.733214753303865
 10
-0.4005240047149476
 20
-1.758235692285984
 10
-0.4069600265918602
 20
-1.766045696361326
 10
-0.3826260787089657
 20
-1.766045696361326
 10
-0.3822283470199394
 20
-1.766009538935053
 10
-0.3817944579046406
 20
-1.765973381508783
 10
-0.381396726215625
 20
-1.765901066656226
 10
-0.3809628371003164
 20
-1.765756436951127
 10
-0.3805289479850282
 20
-1.765611807246028
 10
-0.380131216296002
 20
-1.765431020114656
 10
-0.3797334846069749
 20
-1.765250232983284
 10
-0.3793357529179602
 20
-1.76503328842564
 10
-0.3789380212289437
 20
-1.764780186441714
 10
-0.3785764469661901
 20
-1.764527084457788
 10
-0.3782148727034364
 20
-1.764237825047588
 10
-0.3778532984406935
 20
-1.763948565637399
 10
-0.377564039030494
 20
-1.763659306227201
 10
-0.3772386221940227
 20
-1.763333889390718
 10
-0.3769855202100958
 20
-1.763008472554246
 10
-0.3767324182261795
 20
-1.762683055717775
 10
-0.3761538994057822
 20
-1.76152601807699
 10
-0.3757923251430277
 20
-1.760224350731095
 10
-0.3756115380116656
 20
-1.75877805368011
 10
-0.3756476954379391
 20
-1.757295599202843
 10
-0.3759007974218651
 20
-1.75588545957813
 10
-0.3763346865371533
 20
-1.754583792232236
 10
-0.3769493627838232
 20
-1.753499069443995
 10
-0.3777809835881491
 20
-1.75266744863968
 10
-0.3860248767787881
 20
-1.756680922956173
  0
LWPOLYLINE
  5
4C1
330
17
100
AcDbEntity
  8
4
  6
Continuous
100
AcDbPolyline
 90
       21
 70
     0
 43
0.0
 10
-0.3047357239027981
 20
-1.728622760166975
 10
-0.3142812844393346
 20
-1.728622760166975
 10
-0.3138112378977533
 20
-1.728948177003445
 10
-0.3133411913561925
 20
-1.729382066118745
 10
-0.3128711448146113
 20
-1.729815955234043
 10
-0.3124734131255948
 20
-1.730322159201886
 10
-0.3121118388628421
 20
-1.730828363169739
 10
-0.3118225794526532
 20
-1.731406881990126
 10
-0.3116417923212706
 20
-1.731985400810524
 10
-0.3115694774687254
 20
-1.732600077057195
 10
-0.3115694774687254
 20
-1.765901066656226
 10
-0.3025662783263057
 20
-1.765901066656226
 10
-0.3025662783263057
 20
-1.730792205743456
 10
-0.302602435752588
 20
-1.730286001775614
 10
-0.3027109080314148
 20
-1.729852112660315
 10
-0.3029278525890602
 20
-1.729490538397571
 10
-0.3031809545729756
 20
-1.7291651215611
 10
-0.3035063714094575
 20
-1.728948177003445
 10
-0.3038679456722004
 20
-1.728767389872075
 10
-0.3042656773612276
 20
-1.728658917593246
 10
-0.3047357239027981
 20
-1.728622760166975
  0
LWPOLYLINE
  5
4D8
330
17
100
AcDbEntity
  8
4
  6
Continuous
100
AcDbPolyline
 90
      133
 70
     0
 43
0.0
 10
-0.3424530700498591
 20
-1.72793576906776
 10
-0.3501546018463735
 20
-1.72793576906776
 10
-0.349612240452247
 20
-1.728514287888148
 10
-0.349142193910688
 20
-1.729092806708545
 10
-0.3487806196479335
 20
-1.729671325528944
 10
-0.3484552028114631
 20
-1.730213686923069
 10
-0.3482021008275344
 20
-1.730756048317184
 10
-0.3480213136961643
 20
-1.731298409711311
 10
-0.3478766839910641
 20
-1.731876928531698
 10
-0.3478405265647915
 20
-1.732455447352095
 10
-0.3478405265647915
 20
-1.752197402098109
 10
-0.348491360237734
 20
-1.752125087245554
 10
-0.3491783513369588
 20
-1.752016614966728
 10
-0.3498291850099013
 20
-1.75190814268791
 10
-0.3505161761091173
 20
-1.751763512982811
 10
-0.3511670097820589
 20
-1.75158272585143
 10
-0.3518540008812847
 20
-1.751401938720058
 10
-0.3525048345542379
 20
-1.751184994162413
 10
-0.3531556682271804
 20
-1.750968049604769
 10
-0.3537703444738502
 20
-1.750714947620843
 10
-0.3544211781467927
 20
-1.750425688210644
 10
-0.3549996969671909
 20
-1.750136428800443
 10
-0.3556143732138608
 20
-1.749811011963973
 10
-0.356192892034259
 20
-1.74944943770123
 10
-0.3567714108546571
 20
-1.749087863438475
 10
-0.357313772248772
 20
-1.748653974323178
 10
-0.3578199762166152
 20
-1.748220085207889
 10
-0.3587600692997572
 20
-1.747279992124736
 10
-0.3595916901040814
 20
-1.746231426762768
 10
-0.3603148386295683
 20
-1.745110546548254
 10
-0.3609656723025223
 20
-1.743881194054914
 10
-0.3614718762703646
 20
-1.742651841561575
 10
-0.3619057653856634
 20
-1.741314016789405
 10
-0.3621950247958621
 20
-1.73997619201725
 10
-0.362375811927234
 20
-1.738602209818809
 10
-0.3624842842060509
 20
-1.737228227620369
 10
-0.3624842842060509
 20
-1.735818087995645
 10
-0.3623396545009614
 20
-1.734444105797206
 10
-0.3621227099433071
 20
-1.733070123598765
 10
-0.3617972931068358
 20
-1.731696141400325
 10
-0.3613272465652653
 20
-1.73039447405444
 10
-0.3607848851711495
 20
-1.729128964134816
 10
-0.3601340514982079
 20
-1.72793576906776
 10
-0.370005028871204
 20
-1.72793576906776
 10
-0.3707281773966908
 20
-1.730249844349341
 10
-0.3712343813645447
 20
-1.732491604778379
 10
-0.3714874833484707
 20
-1.734733365207405
 10
-0.3715236407747433
 20
-1.736866653357614
 10
-0.371379011069644
 20
-1.738963784081553
 10
-0.3709812793806169
 20
-1.740952442526661
 10
-0.3704027605602196
 20
-1.742868786119217
 10
-0.3696434546084601
 20
-1.744712814859239
 10
-0.3686672040990464
 20
-1.74641221389415
 10
-0.3675463238845236
 20
-1.748039298076506
 10
-0.3662446565386377
 20
-1.749521752553774
 10
-0.3647983594876418
 20
-1.750895734752214
 10
-0.3631712753052865
 20
-1.752088929819282
 10
-0.3613995614178203
 20
-1.753173652607524
 10
-0.3595193752515371
 20
-1.754077588264391
 10
-0.3574945593801448
 20
-1.754836894216162
 10
-0.3569160405597458
 20
-1.755017681347533
 10
-0.3563013643130759
 20
-1.755162311052634
 10
-0.355686688066406
 20
-1.755306940757733
 10
-0.3550358543934635
 20
-1.755451570462833
 10
-0.3544211781467927
 20
-1.755560042741659
 10
-0.3537703444738502
 20
-1.755632357594204
 10
-0.3531556682271804
 20
-1.755740829873031
 10
-0.3525048345542379
 20
-1.755776987299304
 10
-0.3518901583075671
 20
-1.755849302151849
 10
-0.3512754820608972
 20
-1.75588545957813
 10
-0.3506608058142273
 20
-1.755921617004404
 10
-0.3500822869938283
 20
-1.755921617004404
 10
-0.349503768173431
 20
-1.755921617004404
 10
-0.3489614067793045
 20
-1.755921617004404
 10
-0.3484190453851789
 20
-1.75588545957813
 10
-0.3479128414173465
 20
-1.755849302151849
 10
-0.3479128414173465
 20
-1.759681989336979
 10
-0.3518540008812847
 20
-1.761887592339734
 10
-0.3526494642593265
 20
-1.762068379471105
 10
-0.3534449276373799
 20
-1.762176851749932
 10
-0.3542403910154208
 20
-1.762176851749932
 10
-0.3549635395409183
 20
-1.762068379471105
 10
-0.3557228454926786
 20
-1.761923749766006
 10
-0.3564098365919026
 20
-1.76167064778209
 10
-0.357060670264846
 20
-1.761345230945609
 10
-0.3577115039377983
 20
-1.760983656682864
 10
-0.358326180184469
 20
-1.760549767567566
 10
-0.3589046990048672
 20
-1.760079721025995
 10
-0.3594470603989821
 20
-1.75953735963188
 10
-0.3599532643668253
 20
-1.758994998237755
 10
-0.3604233109084065
 20
-1.758380321991084
 10
-0.3608572000236938
 20
-1.757765645744413
 10
-0.3612549317127103
 20
-1.757150969497744
 10
-0.3615803485491806
 20
-1.756500135824801
 10
-0.3685225743939364
 20
-1.759718146763252
 10
-0.3681971575574652
 20
-1.760332823009921
 10
-0.3677994258684496
 20
-1.760947499256593
 10
-0.3674016941794242
 20
-1.761598332929535
 10
-0.3669678050641254
 20
-1.762213009176206
 10
-0.3664616010962822
 20
-1.762827685422875
 10
-0.365955397128439
 20
-1.763442361669545
 10
-0.3653768783080409
 20
-1.763984723063671
 10
-0.3647983594876418
 20
-1.764563241884069
 10
-0.3641836832409728
 20
-1.765069445851913
 10
-0.3634966921417577
 20
-1.765539492393484
 10
-0.3627735436162496
 20
-1.765937224082509
 10
-0.3620503950907627
 20
-1.766334955771524
 10
-0.3612549317127103
 20
-1.766624215181725
 10
-0.3604594683346791
 20
-1.766877317165651
 10
-0.3595916901040814
 20
-1.767058104297023
 10
-0.3586877544472129
 20
-1.767130419149568
 10
-0.3583984950370134
 20
-1.767130419149568
 10
-0.3581092356268138
 20
-1.767094261723296
 10
-0.3577838187903435
 20
-1.767058104297023
 10
-0.3574584019538713
 20
-1.767021946870751
 10
-0.3571691425436727
 20
-1.766949632018195
 10
-0.3568437257072023
 20
-1.766841159739369
 10
-0.3565544662970028
 20
-1.766732687460551
 10
-0.3562652068868033
 20
-1.766624215181725
 10
-0.3406090413098486
 20
-1.75740407148167
 10
-0.340247467047095
 20
-1.757114812071471
 10
-0.3399943650631778
 20
-1.756717080382446
 10
-0.3398858927843404
 20
-1.756247033840875
 10
-0.3398497353580678
 20
-1.755740829873031
 10
-0.3398497353580678
 20
-1.731515354268954
 10
-0.3399220502106228
 20
-1.73068373346464
 10
-0.3400666799157221
 20
-1.72992442751287
 10
-0.3403197818996499
 20
-1.729309751266199
 10
-0.3406451987361203
 20
-1.728803547298345
 10
-0.3410429304251359
 20
-1.728441973035603
 10
-0.341512976966718
 20
-1.728152713625405
 10
-0.341983023508277
 20
-1.728008083920303
 10
-0.3424530700498591
 20
-1.72793576906776
  0
LWPOLYLINE
  5
55F
330
17
100
AcDbEntity
  8
4
  6
Continuous
100
AcDbPolyline
 90
       96
 70
     0
 43
0.0
 10
-0.2646823502870568
 20
-1.766045696361326
 10
-0.2652608691074549
 20
-1.76564796467231
 10
-0.2658393879278531
 20
-1.765250232983284
 10
-0.2663455918956963
 20
-1.764780186441714
 10
-0.2667794810109942
 20
-1.764310139900143
 10
-0.2671410552737372
 20
-1.763767778506016
 10
-0.2674303146839367
 20
-1.763153102259346
 10
-0.2676111018153087
 20
-1.762502268586404
 10
-0.2676834166678637
 20
-1.76181527748719
 10
-0.2676834166678637
 20
-1.738349107834882
 10
-0.2676834166678637
 20
-1.737372857325457
 10
-0.2677557315204186
 20
-1.736396606816045
 10
-0.2679003612255073
 20
-1.735348041454075
 10
-0.2681896206357068
 20
-1.734335633518389
 10
-0.2686235097510048
 20
-1.73328706815642
 10
-0.2693105008502306
 20
-1.732310817646995
 10
-0.2702144365071
 20
-1.731334567137582
 10
-0.2714437890004397
 20
-1.73039447405444
 10
-0.2722030949521983
 20
-1.72992442751287
 10
-0.2729985583302517
 20
-1.729526695823844
 10
-0.2737940217082935
 20
-1.729201278987373
 10
-0.2746617999388796
 20
-1.728912019577174
 10
-0.2755295781694773
 20
-1.728731232445803
 10
-0.276397356400075
 20
-1.728622760166975
 10
-0.2772651346306709
 20
-1.72855044531443
 10
-0.2781690702875403
 20
-1.72855044531443
 10
-0.2790368485181265
 20
-1.728622760166975
 10
-0.2799046267487242
 20
-1.728731232445803
 10
-0.2807362475530386
 20
-1.728875862150901
 10
-0.2815678683573628
 20
-1.729092806708545
 10
-0.2823271743091222
 20
-1.729345908692473
 10
-0.283086480260903
 20
-1.729671325528944
 10
-0.2838096287863889
 20
-1.729996742365415
 10
-0.2844604624593314
 20
-1.73039447405444
 10
-0.284822036722085
 20
-1.730575261185813
 10
-0.2851474535585581
 20
-1.730756048317184
 10
-0.2855090278213117
 20
-1.730936835448555
 10
-0.2858344446577829
 20
-1.731153780006212
 10
-0.2861598614942533
 20
-1.731406881990126
 10
-0.2865214357569972
 20
-1.731659983974053
 10
-0.2868468525934684
 20
-1.731985400810524
 10
-0.2872445842824946
 20
-1.732310817646995
 10
-0.2874253714138675
 20
-1.731623826547782
 10
-0.2877146308240661
 20
-1.731009150301112
 10
-0.2880400476605365
 20
-1.730466788906985
 10
-0.288437779349552
 20
-1.729960584939143
 10
-0.2888716684648615
 20
-1.729526695823844
 10
-0.2893417150064223
 20
-1.7291651215611
 10
-0.2898117615480036
 20
-1.728839704724629
 10
-0.2903179655158468
 20
-1.728586602740703
 10
-0.2985980161327584
 20
-1.728586602740703
 10
-0.2978387101809883
 20
-1.729128964134829
 10
-0.2971878765080458
 20
-1.729743640381498
 10
-0.2966455151139202
 20
-1.73039447405444
 10
-0.2961754685723603
 20
-1.731153780006212
 10
-0.2958138943096058
 20
-1.731949243384253
 10
-0.2955607923256895
 20
-1.732853179041122
 10
-0.2953800051943078
 20
-1.733793272124264
 10
-0.2953438477680361
 20
-1.734841837486233
 10
-0.2953438477680361
 20
-1.766949632018195
 10
-0.2869191674460127
 20
-1.76044129528875
 10
-0.2869191674460127
 20
-1.738204478129782
 10
-0.286774537740925
 20
-1.737011283062715
 10
-0.2864129634781811
 20
-1.735962717700745
 10
-0.2858706020840547
 20
-1.735058782043877
 10
-0.2851474535585581
 20
-1.734299476092107
 10
-0.2843158327542436
 20
-1.733684799845435
 10
-0.2834118970973733
 20
-1.733250910730138
 10
-0.2824356465879605
 20
-1.732961651319949
 10
-0.2814593960785352
 20
-1.732853179041122
 10
-0.2808808772581379
 20
-1.732853179041122
 10
-0.2803023584377504
 20
-1.732925493893666
 10
-0.279759997043624
 20
-1.733033966172494
 10
-0.2792176356494993
 20
-1.733178595877593
 10
-0.2787114316816561
 20
-1.733359383008964
 10
-0.2782052277138129
 20
-1.733612484992891
 10
-0.2777351811722317
 20
-1.733865586976819
 10
-0.2773012920569444
 20
-1.734191003813289
 10
-0.2768674029416447
 20
-1.73451642064976
 10
-0.2765058286788911
 20
-1.734877994912504
 10
-0.2762165692686915
 20
-1.735311884027803
 10
-0.2759273098585035
 20
-1.73570961571683
 10
-0.275710365300859
 20
-1.7361796622584
 10
-0.2755657355957499
 20
-1.736649708799971
 10
-0.275457263316933
 20
-1.737155912767814
 10
-0.2754211058906604
 20
-1.73769827416194
 10
-0.2754211058906604
 20
-1.762502268586404
 10
-0.2753849484643887
 20
-1.763080787406801
 10
-0.2753126336118337
 20
-1.763695463653473
 10
-0.2751318464804608
 20
-1.76427398247387
 10
-0.2748787444965348
 20
-1.764852501294257
 10
-0.2744810128075183
 20
-1.765322547835828
 10
-0.2739748088396654
 20
-1.765720279524855
 10
-0.2732878177404503
 20
-1.765973381508783
 10
-0.2724200395098535
 20
-1.766045696361326
 10
-0.2646823502870568
 20
-1.766045696361326
  0
LWPOLYLINE
  5
5C1
330
17
100
AcDbEntity
  8
4
  6
Continuous
100
AcDbPolyline
 90
       34
 70
     0
 43
0.0
 10
-0.2487500565609171
 20
-1.73144303941641
 10
-0.2473399169362151
 20
-1.731587669121508
 10
-0.2459659347377645
 20
-1.731876928531709
 10
-0.2446642673918786
 20
-1.73238313249955
 10
-0.2433987574722671
 20
-1.733070123598765
 10
-0.2422417198314708
 20
-1.733865586976819
 10
-0.2411208396169471
 20
-1.734841837486233
 10
-0.2401084316812607
 20
-1.735926560274473
 10
-0.2391683385981196
 20
-1.737119755341542
 10
-0.2383005603675219
 20
-1.738457580113709
 10
-0.2375774118420351
 20
-1.739831562312149
 10
-0.2369265781690926
 20
-1.741314016789405
 10
-0.236384216774967
 20
-1.742832628692946
 10
-0.2359503276596691
 20
-1.74442355544904
 10
-0.2356610682494695
 20
-1.746050639631396
 10
-0.2354441236918259
 20
-1.747677723813764
 10
-0.2354079662655533
 20
-1.749340965422403
 10
-0.2355164385443693
 20
-1.750859577325941
 10
-0.2358056979545688
 20
-1.752305874376926
 10
-0.2362395870698677
 20
-1.753716014001649
 10
-0.2368181058902552
 20
-1.755017681347533
 10
-0.2375412544157518
 20
-1.756283191267147
 10
-0.2383728752200671
 20
-1.757440228907943
 10
-0.2393129683032198
 20
-1.758488794269911
 10
-0.2402892188126433
 20
-1.759465044779326
 10
-0.2413377841746014
 20
-1.760368980436195
 10
-0.2424225069628427
 20
-1.761164443814236
 10
-0.2435433871773549
 20
-1.761851434913461
 10
-0.2446281099656069
 20
-1.76242995373386
 10
-0.24574899018012
 20
-1.762863842849148
 10
-0.2467975555420896
 20
-1.763225417111903
 10
-0.2478099634777751
 20
-1.763442361669545
 10
-0.2487500565609171
 20
-1.763550833948374
 10
-0.2487500565609171
 20
-1.73144303941641
  0
LWPOLYLINE
  5
5E5
330
17
100
AcDbEntity
  8
4
  6
Continuous
100
AcDbPolyline
 90
       44
 70
     0
 43
0.0
 10
-0.2446642673918786
 20
-1.728441973035603
 10
-0.2606820072315887
 20
-1.728441973035603
 10
-0.2601758032637456
 20
-1.728731232445803
 10
-0.2595972844433483
 20
-1.729128964134829
 10
-0.2590549230492218
 20
-1.729707482955216
 10
-0.2585125616550954
 20
-1.730358316628168
 10
-0.2580425151135364
 20
-1.731117622579939
 10
-0.2576447834245101
 20
-1.731985400810524
 10
-0.2574278388668656
 20
-1.732889336467393
 10
-0.2573193665880273
 20
-1.733865586976819
 10
-0.2573193665880273
 20
-1.766045696361326
 10
-0.245315101064822
 20
-1.766045696361326
 10
-0.2432902851934395
 20
-1.765937224082509
 10
-0.2413377841746014
 20
-1.76564796467231
 10
-0.2394575980083182
 20
-1.765177918130739
 10
-0.2376858841208529
 20
-1.764527084457788
 10
-0.236022642512224
 20
-1.763695463653473
 10
-0.2344317157561289
 20
-1.762683055717775
 10
-0.2329854187051454
 20
-1.761562175503263
 10
-0.2316475939329656
 20
-1.760260508157366
 10
-0.2304543988659082
 20
-1.758850368532656
 10
-0.2293696760776669
 20
-1.757295599202843
 10
-0.2284295829945258
 20
-1.755632357594204
 10
-0.2276702770427459
 20
-1.753860643706738
 10
-0.2270556007960751
 20
-1.751980457540455
 10
-0.2265855542545152
 20
-1.750027956521616
 10
-0.2263324522705883
 20
-1.747966983223963
 10
-0.2262239799917607
 20
-1.745833695073751
 10
-0.2262962948443166
 20
-1.744025823760014
 10
-0.2265855542545152
 20
-1.74229026729883
 10
-0.2270556007960751
 20
-1.740627025690191
 10
-0.2277064344690292
 20
-1.739036098934096
 10
-0.228501897847071
 20
-1.737481329604284
 10
-0.2294419909302121
 20
-1.736071189979573
 10
-0.2305267137184641
 20
-1.734733365207405
 10
-0.2317560662118039
 20
-1.733504012714063
 10
-0.2330577335576898
 20
-1.73238313249955
 10
-0.2345040306086847
 20
-1.731370724563855
 10
-0.236022642512224
 20
-1.730502946333258
 10
-0.2376497266945794
 20
-1.72977979780777
 10
-0.2393129683032198
 20
-1.729201278987373
 10
-0.2410485247644019
 20
-1.728767389872075
 10
-0.2428563960781416
 20
-1.728514287888148
 10
-0.2446642673918786
 20
-1.728441973035603
  0
LWPOLYLINE
  5
613
330
17
100
AcDbEntity
  8
4
  6
Continuous
100
AcDbPolyline
 90
       21
 70
     0
 43
0.0
 10
-0.4285461383580628
 20
-1.729996742365415
 10
-0.4196875689207521
 20
-1.729996742365415
 10
-0.4185305312799672
 20
-1.730105214644241
 10
-0.4174819659179976
 20
-1.730430631480713
 10
-0.4165057154085732
 20
-1.730936835448555
 10
-0.4156379371779774
 20
-1.731623826547782
 10
-0.4149509460787623
 20
-1.732455447352095
 10
-0.4144085846846357
 20
-1.73343169786152
 10
-0.4140831678481655
 20
-1.734480263223488
 10
-0.4139746955693493
 20
-1.735637300864274
 10
-0.4140470104218938
 20
-1.736577393947415
 10
-0.4142639549795481
 20
-1.737517487030558
 10
-0.4146255292422909
 20
-1.738349107834882
 10
-0.4150955757838616
 20
-1.739144571212924
 10
-0.4157102520305324
 20
-1.739795404885867
 10
-0.4164334005560299
 20
-1.740301608853721
 10
-0.4172650213603541
 20
-1.740627025690191
 10
-0.4182412718697677
 20
-1.740735497969008
 10
-0.4268828967494242
 20
-1.740735497969008
 10
-0.4268828967494242
 20
-1.731949243384253
 10
-0.4285461383580628
 20
-1.729996742365415
  0
LWPOLYLINE
  5
62A
330
17
100
AcDbEntity
  8
4
  6
Continuous
100
AcDbPolyline
 90
       21
 70
     0
 43
0.0
 10
-0.4635505170992113
 20
-1.72992442751287
 10
-0.4546919476619015
 20
-1.72992442751287
 10
-0.4535710674473874
 20
-1.730032899791688
 10
-0.4524863446591471
 20
-1.730358316628168
 10
-0.4515462515759953
 20
-1.730864520596011
 10
-0.450678473345409
 20
-1.731551511695226
 10
-0.4499914822461834
 20
-1.73238313249955
 10
-0.4494491208520676
 20
-1.733323225582693
 10
-0.4491237040155857
 20
-1.734371790944661
 10
-0.4490152317367695
 20
-1.735528828585448
 10
-0.449087546589314
 20
-1.7364689216686
 10
-0.4493044911469683
 20
-1.73740901475174
 10
-0.4496299079834404
 20
-1.738276792982328
 10
-0.4500999545250101
 20
-1.739036098934096
 10
-0.4507146307716809
 20
-1.739686932607049
 10
-0.4514377792971782
 20
-1.740193136574893
 10
-0.4522694001015033
 20
-1.740518553411363
 10
-0.4532456506109172
 20
-1.740627025690191
 10
-0.4618872754905726
 20
-1.740627025690191
 10
-0.4618872754905726
 20
-1.731840771105425
 10
-0.4635505170992113
 20
-1.72992442751287
  0
LWPOLYLINE
  5
641
330
17
100
AcDbEntity
  8
4
  6
Continuous
100
AcDbPolyline
 90
       46
 70
     0
 43
0.0
 10
-0.4533179654634615
 20
-1.72793576906776
 10
-0.4729514479306376
 20
-1.72793576906776
 10
-0.4725175588153486
 20
-1.728514287888148
 10
-0.4721198271263331
 20
-1.7291651215611
 10
-0.4717220954372971
 20
-1.729815955234043
 10
-0.4713966786008248
 20
-1.730502946333258
 10
-0.4711435766169095
 20
-1.731226094858755
 10
-0.4709266320592649
 20
-1.731949243384253
 10
-0.4707820023541558
 20
-1.732636234483468
 10
-0.4707458449278823
 20
-1.733359383008964
 10
-0.4707458449278823
 20
-1.766732687460551
 10
-0.461959590343117
 20
-1.75830800713854
 10
-0.461959590343117
 20
-1.743338832660799
 10
-0.450172269377566
 20
-1.743338832660799
 10
-0.4493768059995126
 20
-1.743302675234516
 10
-0.448617500047754
 20
-1.743266517808244
 10
-0.4478581940959742
 20
-1.743158045529417
 10
-0.4471350455704873
 20
-1.743013415824318
 10
-0.446411897044989
 20
-1.742796471266674
 10
-0.445724905945764
 20
-1.742507211856475
 10
-0.4450740722728215
 20
-1.742181795020003
 10
-0.4444955534524233
 20
-1.741784063330976
 10
-0.4439170346320253
 20
-1.741314016789405
 10
-0.4434469880904654
 20
-1.740735497969008
 10
-0.4430130989751559
 20
-1.740120821722349
 10
-0.442651524712412
 20
-1.73939767319685
 10
-0.4423984227284851
 20
-1.738566052392525
 10
-0.4421814781708413
 20
-1.737662116735656
 10
-0.4420730058920146
 20
-1.736649708799971
 10
-0.4420730058920146
 20
-1.735528828585448
 10
-0.4421814781708413
 20
-1.734335633518389
 10
-0.4423984227284851
 20
-1.73328706815642
 10
-0.4427599969912396
 20
-1.73234697507328
 10
-0.4431938861065384
 20
-1.731515354268954
 10
-0.4437724049269356
 20
-1.730792205743456
 10
-0.4443870811736065
 20
-1.730177529496786
 10
-0.4451102296990932
 20
-1.72963516810267
 10
-0.4459056930771458
 20
-1.729201278987373
 10
-0.4467373138814601
 20
-1.728839704724629
 10
-0.4476412495383295
 20
-1.72855044531443
 10
-0.448545185195199
 20
-1.728333500756775
 10
-0.4494852782783402
 20
-1.728188871051675
 10
-0.4504615287877646
 20
-1.728044241346576
 10
-0.4514377792971782
 20
-1.727971926494033
 10
-0.4523778723803195
 20
-1.72793576906776
 10
-0.4533179654634615
 20
-1.72793576906776
  0
LWPOLYLINE
  5
671
330
17
100
AcDbEntity
  8
4
  6
Continuous
100
AcDbPolyline
 90
      104
 70
     0
 43
0.0
 10
-0.4894459130971481
 20
-1.727971926494033
 10
-0.4884335051614627
 20
-1.729056649282274
 10
-0.4879996160461637
 20
-1.729671325528944
 10
-0.4876380417834209
 20
-1.730286001775614
 10
-0.487312624946939
 20
-1.730864520596011
 10
-0.4870595229630226
 20
-1.731406881990126
 10
-0.4868425784053791
 20
-1.731985400810524
 10
-0.4866979487002682
 20
-1.732563919630923
 10
-0.4866256338477239
 20
-1.733142438451321
 10
-0.4865894764214512
 20
-1.733757114697992
 10
-0.4865894764214512
 20
-1.761851434913461
 10
-0.4874934120783215
 20
-1.761742962634635
 10
-0.4883973477351901
 20
-1.761562175503263
 10
-0.4892651259657878
 20
-1.761345230945609
 10
-0.4901329041963729
 20
-1.761055971535419
 10
-0.4909645250006883
 20
-1.760694397272666
 10
-0.4917961458050124
 20
-1.760332823009921
 10
-0.4926277666093366
 20
-1.759898933894624
 10
-0.4933870725610971
 20
-1.759428887353053
 10
-0.4941463785128768
 20
-1.758886525958926
 10
-0.4948695270383645
 20
-1.758344164564813
 10
-0.495556518137578
 20
-1.757729488318141
 10
-0.4962073518105319
 20
-1.7570786546452
 10
-0.4968581854834744
 20
-1.756427820972246
 10
-0.4974367043038718
 20
-1.755704672446759
 10
-0.4979790656979876
 20
-1.754945366494989
 10
-0.4984852696658404
 20
-1.75418606054322
 10
-0.4992807330438822
 20
-1.752739763492225
 10
-0.4999315667168256
 20
-1.751221151588686
 10
-0.5004377706846688
 20
-1.749630224832601
 10
-0.5007631875211393
 20
-1.748003140650235
 10
-0.5009078172262491
 20
-1.746339899041596
 10
-0.5008355023736942
 20
-1.744712814859239
 10
-0.5005100855372238
 20
-1.7430495732506
 10
-0.499967724143108
 20
-1.741458646494506
 10
-0.4996784647329095
 20
-1.740771655395291
 10
-0.4993530478964381
 20
-1.740120821722349
 10
-0.4989914736336837
 20
-1.739469988049395
 10
-0.4986298993709301
 20
-1.738855311802725
 10
-0.4982321676819145
 20
-1.738204478129782
 10
-0.4977982785666156
 20
-1.737589801883113
 10
-0.4973643894513168
 20
-1.737011283062715
 10
-0.4969305003360295
 20
-1.736396606816045
 10
-0.4964604537944474
 20
-1.735818087995645
 10
-0.4959904072528884
 20
-1.73527572660153
 10
-0.4954842032850335
 20
-1.734697207781133
 10
-0.4949779993171913
 20
-1.734154846387006
 10
-0.4944717953493482
 20
-1.733612484992891
 10
-0.4939294339552225
 20
-1.733106281025049
 10
-0.4934232299873679
 20
-1.732600077057195
 10
-0.4928808685932539
 20
-1.732093873089353
 10
-0.4924469794779549
 20
-1.731587669121508
 10
-0.4921577200677554
 20
-1.731009150301112
 10
-0.4919769329363854
 20
-1.730430631480713
 10
-0.4919769329363854
 20
-1.729815955234043
 10
-0.4920492477889395
 20
-1.729273593839928
 10
-0.492266192346584
 20
-1.728731232445803
 10
-0.4925192943304994
 20
-1.728297343330504
 10
-0.4928808685932539
 20
-1.727971926494033
 10
-0.5058252271996118
 20
-1.727971926494033
 10
-0.505210550952941
 20
-1.72855044531443
 10
-0.5045235598537277
 20
-1.729273593839928
 10
-0.5038727261807737
 20
-1.730141372070514
 10
-0.5033303647866588
 20
-1.731081465153655
 10
-0.5029326330976325
 20
-1.732130030515624
 10
-0.5027518459662597
 20
-1.733214753303865
 10
-0.5028964756713492
 20
-1.734299476092107
 10
-0.5034026796392032
 20
-1.735348041454075
 10
-0.5073799965294237
 20
-1.74229026729883
 10
-0.5083562470388375
 20
-1.744315083170213
 10
-0.5089709232855073
 20
-1.746448371320423
 10
-0.509260182695706
 20
-1.748653974323178
 10
-0.5092240252694351
 20
-1.750895734752214
 10
-0.5088624510066904
 20
-1.75313749518125
 10
-0.5081393024811938
 20
-1.75527078333146
 10
-0.5071268945454968
 20
-1.757295599202843
 10
-0.5057890697733392
 20
-1.759103470516581
 10
-0.5051382361003967
 20
-1.759826619042069
 10
-0.5044512450011709
 20
-1.760513610141293
 10
-0.5037280964756743
 20
-1.761200601240519
 10
-0.5029687905239042
 20
-1.761851434913461
 10
-0.502209484572135
 20
-1.76242995373386
 10
-0.5013778637678099
 20
-1.763008472554246
 10
-0.5005462429635063
 20
-1.763550833948374
 10
-0.4996784647329095
 20
-1.764020880489944
 10
-0.4988106865023127
 20
-1.764490927031514
 10
-0.4979067508454432
 20
-1.764888658720541
 10
-0.4970028151885737
 20
-1.765214075557012
 10
-0.4960627221054317
 20
-1.765503334967211
 10
-0.4951226290222907
 20
-1.765756436951127
 10
-0.4941463785128768
 20
-1.765901066656226
 10
-0.4932062854297242
 20
-1.766009538935053
 10
-0.4922300349202997
 20
-1.766045696361326
 10
-0.478381740657083
 20
-1.766045696361326
 10
-0.478381740657083
 20
-1.733395540435238
 10
-0.4783455832308113
 20
-1.732672391909751
 10
-0.4783094258045404
 20
-1.731949243384253
 10
-0.4782009535257119
 20
-1.731262252285038
 10
-0.4780563238206117
 20
-1.73053910375954
 10
-0.4778393792629583
 20
-1.729852112660315
 10
-0.4775862772790421
 20
-1.729201278987373
 10
-0.4772970178688425
 20
-1.728586602740703
 10
-0.4769716010323714
 20
-1.727971926494033
 10
-0.4894459130971481
 20
-1.727971926494033
  0
LWPOLYLINE
  5
6DB
330
17
100
AcDbEntity
  8
4
  6
Continuous
100
AcDbPolyline
 90
      213
 70
     0
 43
0.0
 10
-0.5177117180233593
 20
-1.730177529496786
 10
-0.5185433388276639
 20
-1.729852112660315
 10
-0.5193749596319881
 20
-1.729562853250116
 10
-0.5202065804363132
 20
-1.729309751266199
 10
-0.5210743586668995
 20
-1.729092806708545
 10
-0.5219421368974963
 20
-1.728948177003445
 10
-0.5228099151280823
 20
-1.728803547298345
 10
-0.52367769335868
 20
-1.72869507501953
 10
-0.5245454715892768
 20
-1.728622760166975
 10
-0.5254494072461462
 20
-1.728586602740703
 10
-0.526317185476743
 20
-1.728586602740703
 10
-0.5272211211336125
 20
-1.728622760166975
 10
-0.5280888993641986
 20
-1.72869507501953
 10
-0.528992835021068
 20
-1.728803547298345
 10
-0.5298606132516648
 20
-1.728912019577174
 10
-0.5307283914822519
 20
-1.729092806708545
 10
-0.5315961697128487
 20
-1.729273593839928
 10
-0.533114781616388
 20
-1.729743640381498
 10
-0.5345972360936547
 20
-1.730430631480713
 10
-0.5360073757183672
 20
-1.731226094858755
 10
-0.5373813579168072
 20
-1.73220234536818
 10
-0.5386468678364196
 20
-1.73328706815642
 10
-0.5398400629034886
 20
-1.73451642064976
 10
-0.5408886282654573
 20
-1.735818087995645
 10
-0.5418287213485993
 20
-1.737192070194085
 10
-0.5425880273003685
 20
-1.738638367245081
 10
-0.5431665461207667
 20
-1.74015697914862
 10
-0.5436004352360655
 20
-1.74167559105216
 10
-0.5437812223674367
 20
-1.743230360381971
 10
-0.5437450649411649
 20
-1.744785129711784
 10
-0.5434919629572379
 20
-1.746339899041596
 10
-0.5429857589893841
 20
-1.747858510945135
 10
-0.5421902956113538
 20
-1.74930480799613
 10
-0.5420095084799704
 20
-1.749521752553774
 10
-0.5417925639223267
 20
-1.749702539685145
 10
-0.5415756193646823
 20
-1.749847169390245
 10
-0.5413225173807561
 20
-1.749991799095344
 10
-0.5410694153968292
 20
-1.750064113947899
 10
-0.5408163134129023
 20
-1.750100271374173
 10
-0.5405270540027037
 20
-1.750100271374173
 10
-0.5402377945925041
 20
-1.750027956521616
 10
-0.5299690855304924
 20
-1.748075455502789
 10
-0.5293905667100943
 20
-1.747966983223963
 10
-0.5288120478896971
 20
-1.747894668371408
 10
-0.5281973716430262
 20
-1.74778619609259
 10
-0.527618852822628
 20
-1.747750038666308
 10
-0.5270041765759581
 20
-1.747677723813764
 10
-0.52642565775556
 20
-1.74764156638749
 10
-0.5258471389351618
 20
-1.74764156638749
 10
-0.5252324626884919
 20
-1.74764156638749
 10
-0.5246539438680938
 20
-1.747677723813764
 10
-0.5240754250477063
 20
-1.747713881240035
 10
-0.5234969062273081
 20
-1.74778619609259
 10
-0.5229183874069207
 20
-1.747894668371408
 10
-0.522376026012795
 20
-1.748039298076506
 10
-0.5217975071923969
 20
-1.748183927781606
 10
-0.5212551457982704
 20
-1.74840087233926
 10
-0.5207127844041564
 20
-1.748617816896905
 10
-0.5194834319108148
 20
-1.749377122848674
 10
-0.5185794962539463
 20
-1.750461845636916
 10
-0.5179648200072755
 20
-1.751727355556539
 10
-0.5176032457445219
 20
-1.753173652607524
 10
-0.5175670883182493
 20
-1.754692264511063
 10
-0.5178201903021762
 20
-1.756247033840875
 10
-0.5183263942700194
 20
-1.75769333089187
 10
-0.5190857002217895
 20
-1.759031155664026
 10
-0.5196280616159143
 20
-1.759645831910698
 10
-0.5201704230100406
 20
-1.760260508157366
 10
-0.5208212566829831
 20
-1.76076671212522
 10
-0.5214720903559265
 20
-1.761236758666791
 10
-0.5221590814551398
 20
-1.76167064778209
 10
-0.5229183874069207
 20
-1.762032222044833
 10
-0.52367769335868
 20
-1.762285324028761
 10
-0.5244731567367316
 20
-1.762502268586404
 10
-0.5254132498198736
 20
-1.762610740865232
 10
-0.5263533429030156
 20
-1.762610740865232
 10
-0.5272572785598843
 20
-1.762538426012676
 10
-0.5281973716430262
 20
-1.762321481455033
 10
-0.529065149873623
 20
-1.762068379471105
 10
-0.5299690855304924
 20
-1.761706805208361
 10
-0.5308007063348068
 20
-1.761272916093064
 10
-0.5316323271391205
 20
-1.76076671212522
 10
-0.5324277905171737
 20
-1.760188193304823
 10
-0.5331870964689323
 20
-1.759573517058153
 10
-0.5339102449944413
 20
-1.758886525958926
 10
-0.5345972360936547
 20
-1.758163377433441
 10
-0.5352119123403263
 20
-1.75740407148167
 10
-0.5358265885869962
 20
-1.756608608103618
 10
-0.5363689499811219
 20
-1.755776987299304
 10
-0.5368389965226826
 20
-1.754945366494989
 10
-0.5451913619921493
 20
-1.758741896253828
 10
-0.5447574728768512
 20
-1.759826619042069
 10
-0.5442151114827354
 20
-1.760875184404036
 10
-0.5434919629572379
 20
-1.76181527748719
 10
-0.5426603421529137
 20
-1.762719213144048
 10
-0.5417202490697717
 20
-1.763550833948374
 10
-0.5406716837078136
 20
-1.764310139900143
 10
-0.5395508034932899
 20
-1.764997130999358
 10
-0.5383576084262211
 20
-1.765611807246028
 10
-0.5370920985066086
 20
-1.766118011213881
 10
-0.5357904311607236
 20
-1.76655190032918
 10
-0.534416448962273
 20
-1.766913474591923
 10
-0.5330786241901154
 20
-1.767130419149568
 10
-0.5317046419916763
 20
-1.767311206280939
 10
-0.5303306597932364
 20
-1.767347363707222
 10
-0.528992835021068
 20
-1.767275048854668
 10
-0.5276550102489006
 20
-1.767130419149568
 10
-0.5266426023132153
 20
-1.766913474591923
 10
-0.5256663518038005
 20
-1.766624215181725
 10
-0.5246901012943752
 20
-1.766298798345254
 10
-0.5237500082112243
 20
-1.765901066656226
 10
-0.5228460725543656
 20
-1.765431020114656
 10
-0.5219421368974963
 20
-1.764888658720541
 10
-0.5211105160931817
 20
-1.764346297326416
 10
-0.5202788952888576
 20
-1.763695463653473
 10
-0.5195195893370883
 20
-1.763044629980531
 10
-0.5187602833853174
 20
-1.762321481455033
 10
-0.5180732922861031
 20
-1.761562175503263
 10
-0.5174224586131606
 20
-1.760730554698938
 10
-0.5168439397927616
 20
-1.759898933894624
 10
-0.5163015783986369
 20
-1.759031155664026
 10
-0.5158315318570664
 20
-1.758127220007156
 10
-0.5153976427417675
 20
-1.757187126924015
 10
-0.514999911052751
 20
-1.756138561562047
 10
-0.5147106516425524
 20
-1.755089996200078
 10
-0.5144937070848991
 20
-1.75404143083812
 10
-0.5143129199535263
 20
-1.752920550623596
 10
-0.5142406051009713
 20
-1.751835827835356
 10
-0.5142406051009713
 20
-1.750751105047115
 10
-0.5143129199535263
 20
-1.749666382258873
 10
-0.5144937070848991
 20
-1.748581659470631
 10
-0.5147106516425524
 20
-1.74764156638749
 10
-0.514999911052751
 20
-1.746737630730621
 10
-0.5153614853154949
 20
-1.745869852500025
 10
-0.5157953744307831
 20
-1.745002074269426
 10
-0.5163377358249095
 20
-1.744242768317658
 10
-0.5169524120715794
 20
-1.74351961979217
 10
-0.5176755605970769
 20
-1.742868786119217
 10
-0.5184348665488471
 20
-1.742326424725103
 10
-0.5187602833853174
 20
-1.742109480167458
 10
-0.5191218576480612
 20
-1.741892535609804
 10
-0.5194834319108148
 20
-1.741711748478433
 10
-0.5198450061735695
 20
-1.741530961347061
 10
-0.5202065804363132
 20
-1.741350174215678
 10
-0.5206043121253288
 20
-1.74120554451059
 10
-0.5209658863880719
 20
-1.741097072231763
 10
-0.521363618077098
 20
-1.740988599952935
 10
-0.5217613497661242
 20
-1.740880127674108
 10
-0.5221590814551398
 20
-1.740771655395291
 10
-0.5225568131441669
 20
-1.740699340542735
 10
-0.5229545448331932
 20
-1.740627025690191
 10
-0.5233522765222089
 20
-1.740554710837636
 10
-0.5237500082112243
 20
-1.740518553411363
 10
-0.5241838973265338
 20
-1.74044623855882
 10
-0.5245816290155494
 20
-1.740410081132536
 10
-0.524979360704565
 20
-1.740410081132536
 10
-0.5253770923936019
 20
-1.740410081132536
 10
-0.5257748240826176
 20
-1.740373923706264
 10
-0.5261725557716339
 20
-1.740373923706264
 10
-0.5265702874606593
 20
-1.740373923706264
 10
-0.5269680191496855
 20
-1.740337766279993
 10
-0.5274019082649845
 20
-1.740337766279993
 10
-0.5278357973802823
 20
-1.740337766279993
 10
-0.5282696864955705
 20
-1.740337766279993
 10
-0.5287035756108695
 20
-1.740373923706264
 10
-0.5292097795787126
 20
-1.740410081132536
 10
-0.5296798261202939
 20
-1.74044623855882
 10
-0.530186030088137
 20
-1.740482395985091
 10
-0.5307283914822519
 20
-1.740554710837636
 10
-0.5312707528763774
 20
-1.740663183116464
 10
-0.5318492716967757
 20
-1.740771655395291
 10
-0.5401293223136882
 20
-1.74229026729883
 10
-0.5403462668713415
 20
-1.741530961347061
 10
-0.5404547391501584
 20
-1.740807812821563
 10
-0.5404185817238876
 20
-1.740048506869793
 10
-0.54031010944506
 20
-1.739325358344296
 10
-0.5400570074611438
 20
-1.738602209818809
 10
-0.5397677480509442
 20
-1.737915218719584
 10
-0.5393338589356455
 20
-1.737228227620369
 10
-0.5388638123940748
 20
-1.736613551373699
 10
-0.5383214509999493
 20
-1.736035032553301
 10
-0.5377067747532786
 20
-1.735456513732901
 10
-0.537055941080336
 20
-1.734986467191331
 10
-0.5363327925548395
 20
-1.734552578076034
 10
-0.5355734866030693
 20
-1.734191003813289
 10
-0.5348141806512992
 20
-1.733865586976808
 10
-0.5340187172732575
 20
-1.733648642419165
 10
-0.5331870964689323
 20
-1.733504012714063
 10
-0.5324639479434456
 20
-1.733467855287793
 10
-0.5317046419916763
 20
-1.733467855287793
 10
-0.5309814934661789
 20
-1.733540170140337
 10
-0.5302583449406911
 20
-1.733648642419165
 10
-0.5295351964151829
 20
-1.733793272124264
 10
-0.5288120478896971
 20
-1.734010216681908
 10
-0.528125056790482
 20
-1.734263318665834
 10
-0.5274380656912571
 20
-1.734552578076034
 10
-0.5267510745920312
 20
-1.734877994912504
 10
-0.5260640834928161
 20
-1.735239569175259
 10
-0.5254132498198736
 20
-1.735601143438002
 10
-0.5247624161469311
 20
-1.736035032553301
 10
-0.5241477399002612
 20
-1.7364689216686
 10
-0.5235330636535914
 20
-1.736902810783886
 10
-0.5229183874069207
 20
-1.737372857325457
 10
-0.5223398685865224
 20
-1.737842903867039
 10
-0.5129750951813588
 20
-1.73343169786152
 10
-0.5134812991492126
 20
-1.732925493893666
 10
-0.5140236605433275
 20
-1.732419289925824
 10
-0.5145660219374424
 20
-1.731949243384253
 10
-0.5151806981841132
 20
-1.731551511695226
 10
-0.5157953744307831
 20
-1.731153780006212
 10
-0.516410050677454
 20
-1.730792205743456
 10
-0.5170608843504061
 20
-1.730466788906985
 10
-0.5177117180233593
 20
-1.730177529496786
  0
LWPOLYLINE
  5
7B2
330
17
100
AcDbEntity
  8
4
  6
Continuous
100
AcDbPolyline
 90
       21
 70
     0
 43
0.0
 10
-0.6976320568812451
 20
-1.736758181078786
 10
-0.6977405291600629
 20
-1.737879061293311
 10
-0.6980659459965333
 20
-1.73892762665528
 10
-0.6985721499643871
 20
-1.739831562312149
 10
-0.6992591410636014
 20
-1.740627025690191
 10
-0.7000907618679256
 20
-1.741277859363133
 10
-0.7010308549510677
 20
-1.741747905904705
 10
-0.7020794203130257
 20
-1.742037165314904
 10
-0.7031641431012785
 20
-1.74214563759373
 10
-0.7104317857825047
 20
-1.74214563759373
 10
-0.7104317857825047
 20
-1.732853179041122
 10
-0.7111549343079906
 20
-1.731081465153655
 10
-0.7030195133961792
 20
-1.731081465153655
 10
-0.701934790607937
 20
-1.731189937432483
 10
-0.7008862252459683
 20
-1.731515354268954
 10
-0.6999822895890997
 20
-1.732021558236798
 10
-0.699186826211057
 20
-1.732708549336023
 10
-0.6985359925381154
 20
-1.73357632756662
 10
-0.6980659459965333
 20
-1.73451642064976
 10
-0.6977405291600629
 20
-1.735601143438002
 10
-0.6976320568812451
 20
-1.736758181078786
  0
LWPOLYLINE
  5
7C9
330
17
100
AcDbEntity
  8
4
  6
Continuous
100
AcDbPolyline
 90
      114
 70
     0
 43
0.0
 10
-0.6097084502445203
 20
-1.766334955771524
 10
-0.610106181933536
 20
-1.766009538935053
 10
-0.610503913622563
 20
-1.765539492393484
 10
-0.6109016453115883
 20
-1.764888658720541
 10
-0.6112993770006039
 20
-1.764093195342488
 10
-0.6116609512633479
 20
-1.763153102259346
 10
-0.6119502106735464
 20
-1.761996064618561
 10
-0.6121671552312007
 20
-1.760658239846394
 10
-0.6123117849362904
 20
-1.759139627942853
 10
-0.6123117849362904
 20
-1.735203411748975
 10
-0.6123479423625621
 20
-1.734552578076034
 10
-0.612492572067673
 20
-1.733865586976808
 10
-0.6127456740515989
 20
-1.733178595877593
 10
-0.6131072483143428
 20
-1.73252776220465
 10
-0.6135772948559124
 20
-1.731876928531698
 10
-0.6141558136763115
 20
-1.731226094858755
 10
-0.6148066473492541
 20
-1.730611418612084
 10
-0.6155659533010232
 20
-1.729996742365415
 10
-0.6163975741053484
 20
-1.729454380971299
 10
-0.6173376671884903
 20
-1.728948177003445
 10
-0.6183862325504475
 20
-1.728514287888148
 10
-0.6194709553387005
 20
-1.728116556199131
 10
-0.6207003078320401
 20
-1.727827296788931
 10
-0.6219658177516534
 20
-1.727574194805005
 10
-0.6233397999500925
 20
-1.727429565099907
 10
-0.6247860970010777
 20
-1.727357250247361
 10
-0.6263408663308887
 20
-1.727429565099907
 10
-0.6278594782344289
 20
-1.727646509657561
 10
-0.6293419327116956
 20
-1.72808039877286
 10
-0.630752072336418
 20
-1.728622760166975
 10
-0.6320898971085756
 20
-1.729345908692473
 10
-0.6333915644544607
 20
-1.730177529496786
 10
-0.6345847595215286
 20
-1.731153780006212
 10
-0.6357056397360532
 20
-1.732238502794452
 10
-0.6367180476717378
 20
-1.73343169786152
 10
-0.6376581407548798
 20
-1.734697207781133
 10
-0.6384536041329323
 20
-1.736035032553301
 10
-0.6391044378058748
 20
-1.737445172178013
 10
-0.6396467992000014
 20
-1.73892762665528
 10
-0.6400445308890168
 20
-1.74044623855882
 10
-0.6402976328729439
 20
-1.742001007888631
 10
-0.6403699477254881
 20
-1.743591934644715
 10
-0.6403699477254881
 20
-1.761236758666791
 10
-0.6404422625780432
 20
-1.762357638881304
 10
-0.6406953645619593
 20
-1.763297731964446
 10
-0.6410207813984306
 20
-1.764093195342488
 10
-0.6414546705137401
 20
-1.764744029015441
 10
-0.6418885596290274
 20
-1.765250232983284
 10
-0.6423224487443262
 20
-1.765684122098583
 10
-0.6427563378596251
 20
-1.766009538935053
 10
-0.6430817546960954
 20
-1.766298798345254
 10
-0.6354163803258537
 20
-1.766298798345254
 10
-0.6344039723901683
 20
-1.766154168640154
 10
-0.6335361941595706
 20
-1.765792594377411
 10
-0.6327768882077907
 20
-1.765250232983284
 10
-0.6321260545348482
 20
-1.764527084457788
 10
-0.6315836931407333
 20
-1.763731621079744
 10
-0.6311859614517063
 20
-1.762863842849148
 10
-0.6309328594677801
 20
-1.761959907192279
 10
-0.6307882297626916
 20
-1.761055971535419
 10
-0.6307159149101472
 20
-1.759754304189524
 10
-0.6308967020415075
 20
-1.758416479417356
 10
-0.6311498040254345
 20
-1.757114812071471
 10
-0.6314752208619057
 20
-1.755849302151849
 10
-0.6319091099772037
 20
-1.75404143083812
 10
-0.6323068416662308
 20
-1.752233559524381
 10
-0.632668415928973
 20
-1.750425688210644
 10
-0.6330299901917167
 20
-1.748617816896905
 10
-0.6333554070281889
 20
-1.746809945583165
 10
-0.6336085090121149
 20
-1.744965916843155
 10
-0.6338254535697701
 20
-1.743158045529417
 10
-0.6339700832748587
 20
-1.741314016789405
 10
-0.6340062407011306
 20
-1.739795404885867
 10
-0.6338977684223144
 20
-1.738240635556054
 10
-0.6336446664383884
 20
-1.736722023652516
 10
-0.6332469347493719
 20
-1.735239569175248
 10
-0.632668415928973
 20
-1.733865586976808
 10
-0.6319091099772037
 20
-1.732600077057195
 10
-0.6309690168940625
 20
-1.731515354268954
 10
-0.6297758218269946
 20
-1.730611418612084
 10
-0.6290888307277687
 20
-1.730249844349341
 10
-0.628365682202282
 20
-1.729996742365415
 10
-0.6276063762505119
 20
-1.729815955234043
 10
-0.6268470702987427
 20
-1.729707482955216
 10
-0.6260516069206901
 20
-1.729707482955216
 10
-0.6252561435426581
 20
-1.729815955234043
 10
-0.6244968375908782
 20
-1.729996742365415
 10
-0.6237375316391188
 20
-1.730249844349341
 10
-0.623050540539893
 20
-1.730611418612084
 10
-0.6223997068669416
 20
-1.731045307727383
 10
-0.6217850306202806
 20
-1.731587669121508
 10
-0.6212788266524374
 20
-1.73220234536818
 10
-0.6208449375371288
 20
-1.732889336467393
 10
-0.6204833632743858
 20
-1.733684799845435
 10
-0.6202302612904589
 20
-1.734552578076034
 10
-0.6201217890116422
 20
-1.735492671159174
 10
-0.6201217890116422
 20
-1.761164443814236
 10
-0.6200856315853695
 20
-1.761779120060908
 10
-0.6199771593065428
 20
-1.762321481455033
 10
-0.6197963721751707
 20
-1.762863842849148
 10
-0.6195794276175164
 20
-1.763370046817001
 10
-0.6192901682073169
 20
-1.7638039359323
 10
-0.6189647513708457
 20
-1.764237825047588
 10
-0.6186031771081028
 20
-1.764635556736614
 10
-0.6181692879928038
 20
-1.764997130999358
 10
-0.6176992414512342
 20
-1.765286390409556
 10
-0.6172291949096627
 20
-1.765575649819755
 10
-0.6167229909418195
 20
-1.765792594377411
 10
-0.616180629547694
 20
-1.765973381508783
 10
-0.6156382681535675
 20
-1.766154168640154
 10
-0.6150597493331694
 20
-1.76626264091898
 10
-0.6145173879390545
 20
-1.766298798345254
 10
-0.6139388691186669
 20
-1.766334955771524
 10
-0.6097084502445203
 20
-1.766334955771524
  0
LWPOLYLINE
  5
83D
330
17
100
AcDbEntity
  8
4
  6
Continuous
100
AcDbPolyline
 90
       59
 70
     0
 43
0.0
 10
-0.7474519900548993
 20
-1.738999941507825
 10
-0.7437639325748782
 20
-1.7361796622584
 10
-0.7431854137544791
 20
-1.736215819684672
 10
-0.7426430523603546
 20
-1.736288134537216
 10
-0.7421006909662378
 20
-1.736432764242315
 10
-0.7415944869983955
 20
-1.736577393947415
 10
-0.74105212560427
 20
-1.73679433850507
 10
-0.7405459216364161
 20
-1.737047440488986
 10
-0.7400758750948562
 20
-1.737336699899185
 10
-0.7396058285532751
 20
-1.737662116735656
 10
-0.7391719394379868
 20
-1.737987533572139
 10
-0.738738050322688
 20
-1.738349107834882
 10
-0.7383041612073891
 20
-1.738710682097626
 10
-0.7379064295183735
 20
-1.739108413786652
 10
-0.7375448552556199
 20
-1.739506145475667
 10
-0.7371832809928655
 20
-1.739903877164694
 10
-0.7368578641563951
 20
-1.740265451427438
 10
-0.7365686047462062
 20
-1.740663183116464
 10
-0.73555619681051
 20
-1.742254109872546
 10
-0.7347607334324673
 20
-1.743917351481186
 10
-0.7341822146120692
 20
-1.745689065368653
 10
-0.7337844829230438
 20
-1.747496936682391
 10
-0.7335313809391267
 20
-1.749340965422403
 10
-0.7334229086602999
 20
-1.751221151588686
 10
-0.7333505938077556
 20
-1.753101337754968
 10
-0.7333867512340282
 20
-1.754981523921262
 10
-0.7334590660865718
 20
-1.755957774430676
 10
-0.7336398532179551
 20
-1.756897867513818
 10
-0.7339291126281538
 20
-1.757801803170686
 10
-0.7342906868908976
 20
-1.758669581401283
 10
-0.7347245760061956
 20
-1.759501202205598
 10
-0.7352669374003105
 20
-1.76029666558365
 10
-0.7358454562207088
 20
-1.761019814109137
 10
-0.7364962898936513
 20
-1.761706805208361
 10
-0.7372194384191486
 20
-1.762321481455033
 10
-0.737942586944647
 20
-1.76290000027543
 10
-0.738738050322688
 20
-1.763406204243274
 10
-0.7395335137007307
 20
-1.763876250784845
 10
-0.7403289770787831
 20
-1.76427398247387
 10
-0.7411605978830859
 20
-1.764563241884069
 10
-0.7419922186874111
 20
-1.764816343867985
 10
-0.7427876820654637
 20
-1.764997130999358
 10
-0.7432577286070245
 20
-1.764960973573086
 10
-0.7437277751486047
 20
-1.764924816146813
 10
-0.7441978216901646
 20
-1.764816343867985
 10
-0.7446317108054741
 20
-1.764671714162886
 10
-0.7450655999207623
 20
-1.764490927031514
 10
-0.7454633316097885
 20
-1.76427398247387
 10
-0.7458610632988149
 20
-1.763984723063671
 10
-0.7461864801352859
 20
-1.763695463653473
 10
-0.7465480543980299
 20
-1.763333889390718
 10
-0.7468011563819568
 20
-1.762936157701703
 10
-0.7470181009396005
 20
-1.762502268586404
 10
-0.7471988880709724
 20
-1.762032222044833
 10
-0.7473073603498
 20
-1.761562175503263
 10
-0.747379675202355
 20
-1.761055971535419
 10
-0.7474519900548993
 20
-1.760549767567566
 10
-0.7474519900548993
 20
-1.760043563599724
 10
-0.7474519900548993
 20
-1.738999941507825
  0
LWPOLYLINE
  5
87A
330
17
100
AcDbEntity
  8
4
  6
Continuous
100
AcDbPolyline
 90
       61
 70
     0
 43
0.0
 10
-0.6974874271761351
 20
-1.744929759416883
 10
-0.6964388618141772
 20
-1.744857444564328
 10
-0.69542645387848
 20
-1.744712814859228
 10
-0.6945225182216223
 20
-1.744495870301584
 10
-0.6936908974172971
 20
-1.744206610891386
 10
-0.6929677488917987
 20
-1.743845036628642
 10
-0.6922807577925738
 20
-1.743447304939615
 10
-0.691666081545904
 20
-1.742977258398045
 10
-0.6911237201517883
 20
-1.742434897003929
 10
-0.6906536736102185
 20
-1.741856378183533
 10
-0.6902559419212029
 20
-1.741241701936861
 10
-0.6899305250847201
 20
-1.740590868263919
 10
-0.6896774231008039
 20
-1.739867719738421
 10
-0.6894604785431504
 20
-1.739144571212924
 10
-0.6893158488380609
 20
-1.738385265261154
 10
-0.6892435339854952
 20
-1.737589801883113
 10
-0.6892073765592226
 20
-1.736758181078786
 10
-0.6892435339854952
 20
-1.735998875127018
 10
-0.6893881636906052
 20
-1.735239569175248
 10
-0.6895689508219764
 20
-1.73451642064976
 10
-0.6898582102321758
 20
-1.733793272124264
 10
-0.690183627068647
 20
-1.733106281025049
 10
-0.6905813587576743
 20
-1.732455447352095
 10
-0.6910514052992332
 20
-1.731840771105425
 10
-0.691557609267087
 20
-1.731262252285028
 10
-0.6921361280874852
 20
-1.730756048317184
 10
-0.6927508043341552
 20
-1.730286001775614
 10
-0.6933654805808258
 20
-1.729888270086588
 10
-0.694052471680041
 20
-1.729526695823844
 10
-0.6947756202055376
 20
-1.729237436413645
 10
-0.695498768731035
 20
-1.729056649282274
 10
-0.6962580746827955
 20
-1.728912019577174
 10
-0.6970173806345752
 20
-1.728875862150901
 10
-0.7223275790268932
 20
-1.728875862150901
 10
-0.7219660047641403
 20
-1.7291651215611
 10
-0.7216405879276673
 20
-1.729454380971299
 10
-0.7213151710911863
 20
-1.72977979780777
 10
-0.7210259116809869
 20
-1.73006905721797
 10
-0.7207366522707988
 20
-1.730358316628168
 10
-0.7204473928605994
 20
-1.730719890890912
 10
-0.7201942908766839
 20
-1.731081465153655
 10
-0.7199411888927572
 20
-1.731515354268954
 10
-0.7195796146300131
 20
-1.732310817646995
 10
-0.7192903552198146
 20
-1.733250910730138
 10
-0.719109568088431
 20
-1.734154846387006
 10
-0.7190372532358868
 20
-1.734877994912504
 10
-0.7190010958096158
 20
-1.767383521133494
 10
-0.7102871560773929
 20
-1.759754304189524
 10
-0.7102871560773929
 20
-1.744676657432956
 10
-0.7064544688922833
 20
-1.744640500006684
 10
-0.6934016380070985
 20
-1.76626264091898
 10
-0.6821566784356508
 20
-1.766334955771524
 10
-0.6828436695348766
 20
-1.765937224082509
 10
-0.6835306606340909
 20
-1.765467177540928
 10
-0.6841814943070448
 20
-1.764997130999358
 10
-0.6848323279799873
 20
-1.764454769605241
 10
-0.6854470042266563
 20
-1.763948565637399
 10
-0.6860255230470546
 20
-1.763370046817001
 10
-0.6866040418674535
 20
-1.762791527996604
 10
-0.6871825606878508
 20
-1.762176851749932
 10
-0.6974874271761351
 20
-1.744929759416883
  0
LWPOLYLINE
  5
8B9
330
17
100
AcDbEntity
  8
4
  6
Continuous
100
AcDbPolyline
 90
       83
 70
     0
 43
0.0
 10
-0.7327720749873575
 20
-1.732780864188567
 10
-0.7333505938077556
 20
-1.732238502794452
 10
-0.7339291126281538
 20
-1.731696141400325
 10
-0.7345076314485413
 20
-1.731189937432483
 10
-0.7351223076952113
 20
-1.730719890890912
 10
-0.7357731413681643
 20
-1.730322159201886
 10
-0.7364962898936513
 20
-1.729960584939143
 10
-0.7372917532717036
 20
-1.72963516810267
 10
-0.7381956889285731
 20
-1.729418223545016
 10
-0.7550450495725958
 20
-1.738746839523898
 10
-0.7551173644251401
 20
-1.762791527996604
 10
-0.7550812069988693
 20
-1.763189259685619
 10
-0.755008892146325
 20
-1.763623148800918
 10
-0.7548642624412141
 20
-1.763984723063671
 10
-0.7546834753098528
 20
-1.764346297326416
 10
-0.7544665307521985
 20
-1.764671714162886
 10
-0.7542134287682716
 20
-1.764997130999358
 10
-0.7539241693580721
 20
-1.765250232983284
 10
-0.7535987525216017
 20
-1.765503334967211
 10
-0.7530563911274754
 20
-1.765828751803683
 10
-0.7524778723070888
 20
-1.766118011213881
 10
-0.7518993534866905
 20
-1.766371113197798
 10
-0.7512846772400206
 20
-1.766588057755451
 10
-0.7506700009933498
 20
-1.766732687460551
 10
-0.7500553247466799
 20
-1.766877317165651
 10
-0.7494044910737367
 20
-1.766985789444468
 10
-0.7487536574007834
 20
-1.767094261723296
 10
-0.7481028237278418
 20
-1.767130419149568
 10
-0.7474519900548993
 20
-1.76716657657585
 10
-0.7468011563819568
 20
-1.76716657657585
 10
-0.7461141652827417
 20
-1.767130419149568
 10
-0.7454633316097885
 20
-1.767094261723296
 10
-0.7448124979368354
 20
-1.767021946870751
 10
-0.7441616642638929
 20
-1.766949632018195
 10
-0.7435108305909514
 20
-1.766841159739369
 10
-0.7427515246391812
 20
-1.766732687460551
 10
-0.7419922186874111
 20
-1.76655190032918
 10
-0.7412690701619244
 20
-1.766371113197798
 10
-0.7405459216364161
 20
-1.766154168640154
 10
-0.7398227731109293
 20
-1.765901066656226
 10
-0.7390996245854426
 20
-1.765611807246028
 10
-0.7384126334862069
 20
-1.765286390409556
 10
-0.7377256423869909
 20
-1.764960973573086
 10
-0.7370748087140493
 20
-1.764599399310341
 10
-0.7363878176148342
 20
-1.764201667621315
 10
-0.7357731413681643
 20
-1.763767778506016
 10
-0.7351223076952113
 20
-1.763333889390718
 10
-0.7345076314485413
 20
-1.762863842849148
 10
-0.7339291126281538
 20
-1.762393796307576
 10
-0.7333505938077556
 20
-1.761887592339734
 10
-0.7327720749873575
 20
-1.76138138837189
 10
-0.7318681393304879
 20
-1.76044129528875
 10
-0.7310365185261638
 20
-1.759465044779326
 10
-0.7302410551481211
 20
-1.758452636843639
 10
-0.7295540640488955
 20
-1.757367914055388
 10
-0.728903230375953
 20
-1.756210876414601
 10
-0.7283247115555556
 20
-1.755053838773805
 10
-0.7278546650139957
 20
-1.753860643706738
 10
-0.7274207758986853
 20
-1.752631291213397
 10
-0.7270953590622158
 20
-1.751401938720058
 10
-0.7268422570782988
 20
-1.750100271374173
 10
-0.7266614699469276
 20
-1.748834761454558
 10
-0.7265529976680991
 20
-1.747533094108664
 10
-0.7265168402418283
 20
-1.746267584189051
 10
-0.7265891550943824
 20
-1.744965916843155
 10
-0.7267337847994721
 20
-1.74366424949727
 10
-0.7269507293571264
 20
-1.742398739577648
 10
-0.7271315164884973
 20
-1.741711748478433
 10
-0.7273123036198701
 20
-1.741024757379207
 10
-0.7275292481775236
 20
-1.740337766279993
 10
-0.7277823501614398
 20
-1.739686932607049
 10
-0.7280716095716393
 20
-1.739036098934096
 10
-0.7283970264081106
 20
-1.738385265261154
 10
-0.7287224432445925
 20
-1.737770589014485
 10
-0.7290840175073364
 20
-1.737155912767814
 10
-0.7294817491963519
 20
-1.736541236521143
 10
-0.7299156383116499
 20
-1.735962717700745
 10
-0.7303495274269487
 20
-1.735384198880348
 10
-0.7307834165422467
 20
-1.734841837486233
 10
-0.7312534630838182
 20
-1.734299476092107
 10
-0.7317596670516613
 20
-1.733793272124264
 10
-0.7322658710195045
 20
-1.73328706815642
 10
-0.7327720749873575
 20
-1.732780864188567
  0
LWPOLYLINE
  5
90E
330
17
100
AcDbEntity
  8
4
  6
Continuous
100
AcDbPolyline
 90
      271
 70
     0
 43
0.0
 10
-0.6530080502813354
 20
-1.743302675234516
 10
-0.6535142542491787
 20
-1.743013415824318
 10
-0.6540204582170324
 20
-1.7427603138404
 10
-0.6545628196111473
 20
-1.742543369282747
 10
-0.6550690235789906
 20
-1.742326424725103
 10
-0.655611384973116
 20
-1.742109480167458
 10
-0.6561537463672416
 20
-1.741964850462359
 10
-0.6566961077613575
 20
-1.741784063330976
 10
-0.6572384691554724
 20
-1.741639433625878
 10
-0.6578169879758696
 20
-1.741530961347061
 10
-0.658359349369996
 20
-1.741458646494506
 10
-0.6589740256166659
 20
-1.741386331641961
 10
-0.6595525444370641
 20
-1.741314016789405
 10
-0.6601672206837339
 20
-1.741277859363133
 10
-0.6607818969304056
 20
-1.741277859363133
 10
-0.6613965731770755
 20
-1.741277859363133
 10
-0.662047406850018
 20
-1.741314016789405
 10
-0.6705805594508565
 20
-1.748907076307103
 10
-0.6699297257779139
 20
-1.748762446602004
 10
-0.6692788921049715
 20
-1.748617816896905
 10
-0.6686280584320194
 20
-1.748473187191805
 10
-0.6679772247590652
 20
-1.748364714912978
 10
-0.6673263910861227
 20
-1.74825624263416
 10
-0.6666755574131802
 20
-1.748183927781606
 10
-0.6660247237402377
 20
-1.748111612929061
 10
-0.6653377326410235
 20
-1.748075455502789
 10
-0.664686898968081
 20
-1.748039298076506
 10
-0.6640360652951279
 20
-1.748039298076506
 10
-0.6633852316221738
 20
-1.748039298076506
 10
-0.6627343979492322
 20
-1.748075455502789
 10
-0.6620835642762897
 20
-1.748147770355334
 10
-0.6614327306033472
 20
-1.74825624263416
 10
-0.6607818969304056
 20
-1.748364714912978
 10
-0.6601310632574631
 20
-1.748509344618077
 10
-0.6596971741421527
 20
-1.748653974323178
 10
-0.6592271276005928
 20
-1.748762446602004
 10
-0.6587932384852948
 20
-1.748943233733375
 10
-0.658359349369996
 20
-1.749087863438475
 10
-0.6579254602546972
 20
-1.749268650569848
 10
-0.6574915711393992
 20
-1.74944943770123
 10
-0.6570938394503845
 20
-1.749666382258873
 10
-0.6566599503350741
 20
-1.749883326816516
 10
-0.6562622186460585
 20
-1.750136428800443
 10
-0.6559006443833148
 20
-1.75038953078437
 10
-0.6555390701205717
 20
-1.750642632768288
 10
-0.6551774958578182
 20
-1.750931892178485
 10
-0.6548520790213459
 20
-1.751257309014956
 10
-0.6545266621848757
 20
-1.75158272585143
 10
-0.6542374027746761
 20
-1.751944300114183
 10
-0.6539481433644774
 20
-1.752305874376926
 10
-0.6535142542491787
 20
-1.752956708049879
 10
-0.6531526799864356
 20
-1.753679856575366
 10
-0.6528995780025078
 20
-1.754403005100863
 10
-0.6527187908711368
 20
-1.755198468478905
 10
-0.6526103185923092
 20
-1.755957774430676
 10
-0.652646476018581
 20
-1.756753237808718
 10
-0.6528272631499635
 20
-1.757512543760486
 10
-0.6531165225601621
 20
-1.758235692285984
 10
-0.6535504116754513
 20
-1.758886525958926
 10
-0.6540566156433041
 20
-1.759428887353053
 10
-0.6546351344637023
 20
-1.759898933894624
 10
-0.6553221255629174
 20
-1.76029666558365
 10
-0.6560452740884033
 20
-1.760622082420121
 10
-0.6567684226139116
 20
-1.760875184404036
 10
-0.6575638859919435
 20
-1.761092128961691
 10
-0.6583231919437234
 20
-1.761236758666791
 10
-0.6586847662064664
 20
-1.761272916093064
 10
-0.6590824978954828
 20
-1.761345230945609
 10
-0.6594440721582373
 20
-1.76138138837189
 10
-0.6598418038472637
 20
-1.76138138837189
 10
-0.6602395355362792
 20
-1.761417545798163
 10
-0.6606011097990221
 20
-1.761417545798163
 10
-0.660998841488059
 20
-1.761417545798163
 10
-0.6613965731770755
 20
-1.761417545798163
 10
-0.6617581474398186
 20
-1.761417545798163
 10
-0.662155879128834
 20
-1.76138138837189
 10
-0.6625536108178709
 20
-1.76138138837189
 10
-0.6629513425068865
 20
-1.761309073519336
 10
-0.6633129167696313
 20
-1.761272916093064
 10
-0.6637106484586566
 20
-1.761200601240509
 10
-0.6640722227214111
 20
-1.761128286387965
 10
-0.6644699544104267
 20
-1.761055971535419
 10
-0.664903843525714
 20
-1.760947499256593
 10
-0.6653377326410235
 20
-1.760839026977765
 10
-0.6657354643300391
 20
-1.760694397272666
 10
-0.6661693534453379
 20
-1.760549767567566
 10
-0.6665670851343643
 20
-1.760368980436195
 10
-0.6669648168233798
 20
-1.760188193304823
 10
-0.667362548512406
 20
-1.759971248747168
 10
-0.6677602802014322
 20
-1.759754304189524
 10
-0.6681218544641761
 20
-1.75953735963188
 10
-0.6685195861531918
 20
-1.759284257647954
 10
-0.6688811604159453
 20
-1.759031155664026
 10
-0.6692427346786998
 20
-1.75877805368011
 10
-0.6696043089414438
 20
-1.758524951696184
 10
-0.6699297257779139
 20
-1.758235692285984
 10
-0.670291300040657
 20
-1.757946432875785
 10
-0.6706167168771291
 20
-1.757657173465586
 10
-0.6711590782712547
 20
-1.757114812071471
 10
-0.671665282239098
 20
-1.756536293251073
 10
-0.672171486206941
 20
-1.755957774430676
 10
-0.672677690174794
 20
-1.755379255610276
 10
-0.6731477367163539
 20
-1.75480073678989
 10
-0.6735816258316634
 20
-1.75418606054322
 10
-0.6740516723732242
 20
-1.753535226870266
 10
-0.6744494040622602
 20
-1.752920550623596
 10
-0.6748471357512758
 20
-1.752269716950654
 10
-0.6752087100140205
 20
-1.75158272585143
 10
-0.6755341268504909
 20
-1.750931892178485
 10
-0.6758595436869621
 20
-1.750244901079271
 10
-0.6761488030971618
 20
-1.749521752553774
 10
-0.6763657476548151
 20
-1.748834761454558
 10
-0.6765826922124596
 20
-1.748075455502789
 10
-0.6767634793438308
 20
-1.747352306977293
 10
-0.6770165813277576
 20
-1.745689065368653
 10
-0.6771250536065754
 20
-1.74395350890747
 10
-0.6770165813277576
 20
-1.742217952446275
 10
-0.6767273219175589
 20
-1.740554710837636
 10
-0.6762211179497159
 20
-1.738963784081553
 10
-0.6754618119979467
 20
-1.737517487030558
 10
-0.6744855614885328
 20
-1.736215819684672
 10
-0.6732562089951922
 20
-1.735167254322704
 10
-0.6728223198798835
 20
-1.734914152338776
 10
-0.6723884307645954
 20
-1.734697207781133
 10
-0.6719183842230141
 20
-1.734480263223488
 10
-0.6714844951077259
 20
-1.734299476092107
 10
-0.6710144485661438
 20
-1.734154846387006
 10
-0.6705082445983132
 20
-1.734010216681908
 10
-0.670038198056731
 20
-1.73390174440309
 10
-0.6695319940888878
 20
-1.733829429550535
 10
-0.6690619475473181
 20
-1.733757114697992
 10
-0.6685557435794634
 20
-1.733720957271719
 10
-0.6680495396116318
 20
-1.733720957271719
 10
-0.6675433356437779
 20
-1.733720957271719
 10
-0.6670371316759242
 20
-1.733720957271719
 10
-0.6665309277080917
 20
-1.733757114697992
 10
-0.6660608811665103
 20
-1.733829429550535
 10
-0.6655546771986672
 20
-1.73390174440309
 10
-0.664903843525714
 20
-1.734010216681908
 10
-0.6642530098527715
 20
-1.734154846387006
 10
-0.663602176179829
 20
-1.734299476092107
 10
-0.6629874999331591
 20
-1.73451642064976
 10
-0.6623728236864892
 20
-1.734733365207405
 10
-0.6617581474398186
 20
-1.734986467191331
 10
-0.6611434711931487
 20
-1.735239569175248
 10
-0.6605287949464787
 20
-1.735528828585448
 10
-0.6599502761260805
 20
-1.735854245421929
 10
-0.6594079147319542
 20
-1.7361796622584
 10
-0.6588293959115667
 20
-1.736577393947415
 10
-0.6582870345174518
 20
-1.736938968210169
 10
-0.6577446731233261
 20
-1.737372857325457
 10
-0.6572384691554724
 20
-1.737770589014485
 10
-0.65673226518763
 20
-1.738240635556054
 10
-0.6562622186460585
 20
-1.738710682097626
 10
-0.6495730947852297
 20
-1.73509493947016
 10
-0.6500069839005393
 20
-1.734299476092107
 10
-0.6505131878683717
 20
-1.73357632756662
 10
-0.6510917066887699
 20
-1.732889336467393
 10
-0.6517425403617123
 20
-1.732274660220725
 10
-0.6524295314609372
 20
-1.731696141400325
 10
-0.6531888374127082
 20
-1.731189937432483
 10
-0.6539481433644774
 20
-1.730719890890912
 10
-0.6547436067425192
 20
-1.730286001775614
 10
-0.6553582829891891
 20
-1.729996742365415
 10
-0.6560091166621316
 20
-1.729707482955216
 10
-0.6566237929088024
 20
-1.729454380971299
 10
-0.6572746265817449
 20
-1.729237436413645
 10
-0.6579616176809804
 20
-1.729020491856001
 10
-0.6586124513539229
 20
-1.728875862150901
 10
-0.659299442453138
 20
-1.728731232445803
 10
-0.6599864335523522
 20
-1.728622760166975
 10
-0.660673424651578
 20
-1.72855044531443
 10
-0.661360415750803
 20
-1.728514287888148
 10
-0.6620835642762897
 20
-1.728478130461876
 10
-0.6627705553755048
 20
-1.728478130461876
 10
-0.6634575464747404
 20
-1.728514287888148
 10
-0.6641445375739555
 20
-1.728586602740703
 10
-0.6648315286731707
 20
-1.72869507501953
 10
-0.6655185197723954
 20
-1.728839704724629
 10
-0.6661693534453379
 20
-1.728984334429728
 10
-0.6667840296920078
 20
-1.729201278987373
 10
-0.6674348633649601
 20
-1.729418223545016
 10
-0.6680495396116318
 20
-1.72963516810267
 10
-0.6686280584320194
 20
-1.72992442751287
 10
-0.6692427346786998
 20
-1.730213686923069
 10
-0.6698212534990873
 20
-1.73053910375954
 10
-0.6703997723194748
 20
-1.730864520596011
 10
-0.6709782911398729
 20
-1.731226094858755
 10
-0.6715206525339985
 20
-1.731587669121508
 10
-0.6720630139281232
 20
-1.731985400810524
 10
-0.6726053753222399
 20
-1.73238313249955
 10
-0.6731477367163539
 20
-1.73281702161485
 10
-0.6736539406842077
 20
-1.733250910730138
 10
-0.6741963020783343
 20
-1.733684799845435
 10
-0.6747025060461766
 20
-1.734118688960735
 10
-0.675425654571674
 20
-1.734769522633678
 10
-0.6761126456708892
 20
-1.735420356306631
 10
-0.6767996367701034
 20
-1.736107347405844
 10
-0.6774504704430573
 20
-1.736830495931343
 10
-0.6781013041159998
 20
-1.73755364445684
 10
-0.6787159803626697
 20
-1.738276792982328
 10
-0.679294499183068
 20
-1.739036098934096
 10
-0.6798730180034555
 20
-1.739831562312149
 10
-0.6803792219713092
 20
-1.740627025690191
 10
-0.6808854259391623
 20
-1.741458646494506
 10
-0.6813554724807222
 20
-1.74229026729883
 10
-0.6817532041697591
 20
-1.743158045529417
 10
-0.6821147784325037
 20
-1.744025823760014
 10
-0.6824401952689742
 20
-1.744929759416883
 10
-0.6827294546791727
 20
-1.745833695073751
 10
-0.6829463992368165
 20
-1.746773788156894
 10
-0.6831633437944609
 20
-1.748039298076506
 10
-0.6832718160732885
 20
-1.749340965422403
 10
-0.683307973499571
 20
-1.750606475342015
 10
-0.6832718160732885
 20
-1.75190814268791
 10
-0.6831271863681883
 20
-1.753173652607524
 10
-0.6828740843842615
 20
-1.754439162527135
 10
-0.6825486675477901
 20
-1.755704672446748
 10
-0.6821147784325037
 20
-1.756897867513818
 10
-0.6818255190223033
 20
-1.757548701186771
 10
-0.6815001021858321
 20
-1.758199534859713
 10
-0.6811746853493617
 20
-1.758814211106383
 10
-0.6807769536603239
 20
-1.759392729926781
 10
-0.6803792219713092
 20
-1.759971248747168
 10
-0.6799453328560201
 20
-1.760549767567566
 10
-0.6794752863144398
 20
-1.761092128961691
 10
-0.6790052397728683
 20
-1.761598332929535
 10
-0.6784990358050253
 20
-1.762104536897378
 10
-0.6779566744109005
 20
-1.762574583438949
 10
-0.6774143130167741
 20
-1.763044629980531
 10
-0.6768719516226698
 20
-1.763478519095818
 10
-0.6762934328022716
 20
-1.763876250784845
 10
-0.6756787565556019
 20
-1.764237825047588
 10
-0.6750640803089311
 20
-1.764599399310341
 10
-0.6744494040622602
 20
-1.764924816146813
 10
-0.6730031070112652
 20
-1.765539492393484
 10
-0.6715206525339985
 20
-1.766045696361326
 10
-0.6700020406304584
 20
-1.76640727062408
 10
-0.6684472713006464
 20
-1.766696530034269
 10
-0.6668925019708345
 20
-1.766841159739369
 10
-0.6653377326410235
 20
-1.766913474591923
 10
-0.6637829633112116
 20
-1.766841159739369
 10
-0.6621920365551173
 20
-1.766660372607996
 10
-0.660673424651578
 20
-1.766371113197798
 10
-0.6591909701743211
 20
-1.765973381508783
 10
-0.6577085156970535
 20
-1.765431020114656
 10
-0.6562983760723303
 20
-1.764816343867985
 10
-0.6549605513001744
 20
-1.764057037916215
 10
-0.6536950413805612
 20
-1.763189259685619
 10
-0.6525018463134931
 20
-1.762213009176206
 10
-0.6513809660989695
 20
-1.761128286387965
 10
-0.6505493452946434
 20
-1.76015203587855
 10
-0.6497900393428849
 20
-1.759103470516581
 10
-0.6491030482436706
 20
-1.758054905154614
 10
-0.6485245294232726
 20
-1.756897867513818
 10
-0.6480183254554186
 20
-1.755740829873031
 10
-0.6476205937664031
 20
-1.754547634805964
 10
-0.6473674917824753
 20
-1.753318282312623
 10
-0.6471867046510936
 20
-1.75205277239301
 10
-0.6471505472248218
 20
-1.751040364457313
 10
-0.6472228620773759
 20
-1.750064113947899
 10
-0.6474036492087487
 20
-1.749087863438475
 10
-0.6477290660452191
 20
-1.748111612929061
 10
-0.648162955160518
 20
-1.747316149551019
 10
-0.6486691591283611
 20
-1.746593001025523
 10
-0.649283835375031
 20
-1.745906009926297
 10
-0.6499346690479843
 20
-1.745291333679626
 10
-0.6506578175734825
 20
-1.744748972285512
 10
-0.6514171235252402
 20
-1.744206610891386
 10
-0.6522125869032937
 20
-1.743736564349815
 10
-0.6530080502813354
 20
-1.743302675234516
  0
LWPOLYLINE
  5
A1F
330
17
100
AcDbEntity
  8
4
  6
Continuous
 62
     4
100
AcDbPolyline
 90
       96
 70
     0
 43
0.0
 10
-0.5707197620733338
 20
-1.766298798345254
 10
-0.5712982808937312
 20
-1.765937224082509
 10
-0.5719129571404018
 20
-1.765503334967211
 10
-0.5725637908133443
 20
-1.764960973573086
 10
-0.5731423096337416
 20
-1.764346297326416
 10
-0.5736846710278681
 20
-1.763659306227201
 10
-0.5741185601431562
 20
-1.762827685422875
 10
-0.5744078195533549
 20
-1.761923749766006
 10
-0.5745162918321923
 20
-1.760875184404036
 10
-0.5745162918321923
 20
-1.736902810783886
 10
-0.5745886066847366
 20
-1.7358904028482
 10
-0.5747332363898368
 20
-1.73495030976506
 10
-0.5750224958000249
 20
-1.73404637410819
 10
-0.5753840700627784
 20
-1.733214753303865
 10
-0.5758179591780772
 20
-1.73238313249955
 10
-0.5763603205722037
 20
-1.731659983974053
 10
-0.5769749968188737
 20
-1.73097299287484
 10
-0.5776619879180878
 20
-1.730322159201886
 10
-0.5783851364435746
 20
-1.729743640381498
 10
-0.579180599821628
 20
-1.729237436413645
 10
-0.5800122206259532
 20
-1.728803547298345
 10
-0.5808438414302568
 20
-1.728405815609331
 10
-0.5817477770871255
 20
-1.728116556199131
 10
-0.5826517127439949
 20
-1.727899611641477
 10
-0.5835918058271368
 20
-1.727718824510105
 10
-0.5845318989102886
 20
-1.727646509657561
 10
-0.5851827325832418
 20
-1.727646509657561
 10
-0.5858335662561843
 20
-1.727646509657561
 10
-0.5864482425028541
 20
-1.727718824510105
 10
-0.5870990761757975
 20
-1.72779113936266
 10
-0.5877137524224665
 20
-1.727899611641477
 10
-0.588364586095409
 20
-1.72808039877286
 10
-0.5889792623420789
 20
-1.728261185904231
 10
-0.5895939385887507
 20
-1.728441973035603
 10
-0.5902086148354205
 20
-1.72869507501953
 10
-0.5907871336558186
 20
-1.728948177003445
 10
-0.5913656524762159
 20
-1.729237436413645
 10
-0.5919441712966142
 20
-1.729526695823844
 10
-0.5925226901170131
 20
-1.729888270086588
 10
-0.5930650515111175
 20
-1.730213686923069
 10
-0.5936074129052421
 20
-1.730575261185813
 10
-0.594113616873096
 20
-1.73097299287484
 10
-0.5943305614307404
 20
-1.730466788906985
 10
-0.594619820840939
 20
-1.72992442751287
 10
-0.5950175525299663
 20
-1.729418223545016
 10
-0.5954514416452544
 20
-1.728948177003445
 10
-0.5958853307605621
 20
-1.72855044531443
 10
-0.5963192198758504
 20
-1.728225028477959
 10
-0.5967169515648659
 20
-1.728008083920303
 10
-0.5970062109750655
 20
-1.72793576906776
 10
-0.6058647804123753
 20
-1.72793576906776
 10
-0.6053224190182604
 20
-1.728441973035603
 10
-0.6047077427715905
 20
-1.729020491856001
 10
-0.6040207516723646
 20
-1.729707482955216
 10
-0.6033699179994221
 20
-1.730502946333258
 10
-0.6027552417527513
 20
-1.731406881990126
 10
-0.6022851952111818
 20
-1.73234697507328
 10
-0.6019236209484271
 20
-1.733395540435238
 10
-0.6018151486696102
 20
-1.734480263223488
 10
-0.6018151486696102
 20
-1.76626264091898
 10
-0.5936797277577865
 20
-1.759681989336979
 10
-0.5936797277577865
 20
-1.736685866226243
 10
-0.5936435703315146
 20
-1.736107347405844
 10
-0.5935350980526977
 20
-1.735564986011729
 10
-0.5933181534950434
 20
-1.735058782043877
 10
-0.5930650515111175
 20
-1.734552578076034
 10
-0.5927757921009285
 20
-1.73404637410819
 10
-0.592414217838174
 20
-1.733612484992891
 10
-0.5919803287228868
 20
-1.733178595877593
 10
-0.5915464396075878
 20
-1.732780864188567
 10
-0.5910402356397455
 20
-1.732455447352095
 10
-0.5905340316718908
 20
-1.732166187941896
 10
-0.5899916702777654
 20
-1.731876928531698
 10
-0.5894493088836505
 20
-1.731696141400325
 10
-0.5888707900632629
 20
-1.731515354268954
 10
-0.5882922712428647
 20
-1.73144303941641
 10
-0.5877499098487391
 20
-1.731370724563855
 10
-0.5871713910283411
 20
-1.731406881990126
 10
-0.5862674553714716
 20
-1.731551511695226
 10
-0.5853996771408747
 20
-1.731840771105425
 10
-0.5845680563365603
 20
-1.732238502794452
 10
-0.5838449078110637
 20
-1.732780864188567
 10
-0.5832302315643929
 20
-1.73343169786152
 10
-0.582760185022833
 20
-1.734191003813289
 10
-0.5824709256126335
 20
-1.73509493947016
 10
-0.5823624533337953
 20
-1.736107347405844
 10
-0.5823624533337953
 20
-1.761779120060908
 10
-0.5822539810549792
 20
-1.762719213144048
 10
-0.5819647216447798
 20
-1.763586991374646
 10
-0.5815308325294817
 20
-1.764346297326416
 10
-0.5809161562828225
 20
-1.764997130999358
 10
-0.5801930077573143
 20
-1.765539492393484
 10
-0.579361386952999
 20
-1.765973381508783
 10
-0.5784574512961296
 20
-1.766226483492698
 10
-0.5774812007867168
 20
-1.766298798345254
 10
-0.5707197620733338
 20
-1.766298798345254
  0
LWPOLYLINE
  5
A81
330
17
100
AcDbEntity
  8
4
  6
Continuous
100
AcDbPolyline
 90
       46
 70
     0
 43
0.0
 10
-0.4183135867223129
 20
-1.728044241346576
 10
-0.4379470691894884
 20
-1.728044241346576
 10
-0.4375131800742002
 20
-1.728622760166975
 10
-0.4370792909589012
 20
-1.729273593839928
 10
-0.4367177166961477
 20
-1.72992442751287
 10
-0.4363922998596764
 20
-1.730611418612084
 10
-0.4361030404494777
 20
-1.731334567137582
 10
-0.4358860958918447
 20
-1.73205771566308
 10
-0.4357414661867339
 20
-1.732744706762295
 10
-0.4357053087604629
 20
-1.733467855287793
 10
-0.4357053087604629
 20
-1.766841159739369
 10
-0.4269552116019783
 20
-1.758416479417356
 10
-0.4269552116019783
 20
-1.743447304939615
 10
-0.4151678906364175
 20
-1.743447304939615
 10
-0.4144085846846357
 20
-1.743411147513343
 10
-0.4136131213066056
 20
-1.743374990087071
 10
-0.4128899727810973
 20
-1.743266517808244
 10
-0.412130666829338
 20
-1.743121888103145
 10
-0.4114436757301229
 20
-1.7429049435455
 10
-0.4107566846308979
 20
-1.742615684135301
 10
-0.4101058509579448
 20
-1.74229026729883
 10
-0.409491174711275
 20
-1.741892535609804
 10
-0.4089488133171592
 20
-1.741422489068234
 10
-0.4084787667755895
 20
-1.740843970247835
 10
-0.4080448776602906
 20
-1.740229294001165
 10
-0.407683303397536
 20
-1.739506145475667
 10
-0.4074302014136199
 20
-1.738674524671353
 10
-0.4072132568559752
 20
-1.737770589014485
 10
-0.4071047845771485
 20
-1.736758181078786
 10
-0.4071047845771485
 20
-1.735637300864274
 10
-0.4072132568559752
 20
-1.734444105797206
 10
-0.4074302014136199
 20
-1.733359383008964
 10
-0.4077917756763735
 20
-1.732419289925824
 10
-0.4082256647916617
 20
-1.731587669121508
 10
-0.4088041836120599
 20
-1.730864520596011
 10
-0.4094188598587289
 20
-1.730249844349341
 10
-0.4101420083842271
 20
-1.729743640381498
 10
-0.4109013143359972
 20
-1.729309751266199
 10
-0.4117690925665939
 20
-1.728948177003445
 10
-0.4126368707971803
 20
-1.728658917593246
 10
-0.4135408064540506
 20
-1.728441973035603
 10
-0.4144808995371916
 20
-1.728297343330504
 10
-0.4154571500466161
 20
-1.728152713625405
 10
-0.4164334005560299
 20
-1.72808039877286
 10
-0.417373493639171
 20
-1.728044241346576
 10
-0.4183135867223129
 20
-1.728044241346576
  0
LWPOLYLINE
  5
AB1
330
17
100
AcDbEntity
  8
4
  6
Continuous
100
AcDbPolyline
 90
       88
 70
     0
 43
0.0
 10
-0.0291584187829273
 20
-1.728586602740703
 10
-0.0528415329928667
 20
-1.728586602740703
 10
-0.0521906993199242
 20
-1.729092806708545
 10
-0.0515398656469817
 20
-1.729671325528944
 10
-0.0509613468265844
 20
-1.730322159201886
 10
-0.0504189854324686
 20
-1.73097299287484
 10
-0.0499850963171698
 20
-1.731732298826609
 10
-0.0496596794806994
 20
-1.732491604778379
 10
-0.0494427349230451
 20
-1.733359383008964
 10
-0.0493342626442281
 20
-1.734227161239563
 10
-0.0493342626442281
 20
-1.759356572500498
 10
-0.0554448676846589
 20
-1.766045696361326
 10
-0.0336419396409902
 20
-1.766045696361326
 10
-0.0332080505256922
 20
-1.766045696361326
 10
-0.0327741614104031
 20
-1.765973381508783
 10
-0.0323402722950945
 20
-1.765937224082509
 10
-0.0319425406060789
 20
-1.765828751803683
 10
-0.0315086514907801
 20
-1.765720279524855
 10
-0.0310747623754821
 20
-1.765575649819755
 10
-0.0306770306864657
 20
-1.765431020114656
 10
-0.0302431415711677
 20
-1.765214075557012
 10
-0.0298454098821406
 20
-1.76503328842564
 10
-0.0294476781931259
 20
-1.764816343867985
 10
-0.0290861039303714
 20
-1.764563241884069
 10
-0.0287245296676169
 20
-1.764310139900143
 10
-0.0283629554048739
 20
-1.764020880489944
 10
-0.02800138114213
 20
-1.763731621079744
 10
-0.0277121217319314
 20
-1.763442361669545
 10
-0.027386704895461
 20
-1.763116944833074
 10
-0.0265189266648633
 20
-1.762032222044833
 10
-0.0258319355656482
 20
-1.76076671212522
 10
-0.0253257315977944
 20
-1.759428887353053
 10
-0.0250364721875958
 20
-1.758054905154614
 10
-0.025000314761324
 20
-1.7566447655299
 10
-0.0252172593189783
 20
-1.755343098184005
 10
-0.0257596207131039
 20
-1.754113745690665
 10
-0.0265912415174077
 20
-1.753029022902424
 10
-0.0344735604453046
 20
-1.756427820972246
 10
-0.0340758287562881
 20
-1.757006339792644
 10
-0.0337504119198169
 20
-1.757657173465586
 10
-0.0334973099358909
 20
-1.75830800713854
 10
-0.033316522804518
 20
-1.758994998237755
 10
-0.0332080505256922
 20
-1.759681989336979
 10
-0.0332080505256922
 20
-1.760368980436195
 10
-0.033316522804518
 20
-1.761055971535419
 10
-0.0335334673621626
 20
-1.761706805208361
 10
-0.0338227267723612
 20
-1.762176851749932
 10
-0.0341481436088325
 20
-1.762610740865232
 10
-0.0345820327241304
 20
-1.763008472554246
 10
-0.0350159218394293
 20
-1.763297731964446
 10
-0.0355221258072831
 20
-1.763550833948374
 10
-0.0360283297751156
 20
-1.763767778506016
 10
-0.0365706911692421
 20
-1.763876250784845
 10
-0.0371130525633676
 20
-1.763912408211117
 10
-0.0494427349230451
 20
-1.763912408211117
 10
-0.0412711565849602
 20
-1.755451570462833
 10
-0.0412711565849602
 20
-1.747207677272193
 10
-0.0316532811958794
 20
-1.747207677272193
 10
-0.0316532811958794
 20
-1.744315083170213
 10
-0.0411265268798609
 20
-1.744315083170213
 10
-0.0411265268798609
 20
-1.733323225582693
 10
-0.0428259259147712
 20
-1.73068373346464
 10
-0.0373661545472945
 20
-1.73068373346464
 10
-0.0361368020539539
 20
-1.730756048317184
 10
-0.0351243941182471
 20
-1.731045307727383
 10
-0.0343289307402159
 20
-1.731515354268954
 10
-0.0337504119198169
 20
-1.732166187941896
 10
-0.0334249950833456
 20
-1.732925493893666
 10
-0.033316522804518
 20
-1.733793272124264
 10
-0.0334611525096182
 20
-1.734769522633678
 10
-0.0338588841986347
 20
-1.735745773143101
 10
-0.0253980464503494
 20
-1.73831295040861
 10
-0.0248195276299521
 20
-1.73769827416194
 10
-0.0243856385146533
 20
-1.737011283062715
 10
-0.024060221678182
 20
-1.736251977110945
 10
-0.0238794345468101
 20
-1.735492671159174
 10
-0.023807119694256
 20
-1.734697207781133
 10
-0.0238794345468101
 20
-1.733865586976819
 10
-0.0240240642519094
 20
-1.733070123598765
 10
-0.0242771662358363
 20
-1.732274660220725
 10
-0.0246025830723085
 20
-1.731551511695226
 10
-0.0250364721875958
 20
-1.730828363169739
 10
-0.0255426761554487
 20
-1.730213686923069
 10
-0.0261573524021195
 20
-1.729671325528944
 10
-0.026808186075062
 20
-1.729201278987373
 10
-0.0275313346005604
 20
-1.728875862150901
 10
-0.0283267979786013
 20
-1.728658917593246
 10
-0.0291584187829273
 20
-1.728586602740703
  0
LWPOLYLINE
  5
B0B
330
17
100
AcDbEntity
  8
4
  6
Continuous
100
AcDbPolyline
 90
       21
 70
     0
 43
0.0
 10
-0.7794593269058421
 20
-1.718004494365021
 10
-0.7794593269058421
 20
-1.760461734443811
 10
-0.7777995631253925
 20
-1.776925998373048
 10
-0.7758285936361152
 20
-1.760461734443811
 10
-0.7758285936361152
 20
-1.718078590962365
 10
-0.7758730515945134
 20
-1.717470998864165
 10
-0.7759916061502647
 20
-1.716937503363309
 10
-0.776169437983887
 20
-1.716492923779258
 10
-0.7763917277759074
 20
-1.716122440792551
 10
-0.776673294845809
 20
-1.71584087372265
 10
-0.7769845005546446
 20
-1.715633403250103
 10
-0.7773105255829444
 20
-1.715514848694351
 10
-0.7776365506112422
 20
-1.715470390735954
 10
-0.7779773949590139
 20
-1.71550002937489
 10
-0.7783034199873136
 20
-1.715618583930631
 10
-0.7786146256961493
 20
-1.715826054403188
 10
-0.7788961927660401
 20
-1.716092802153615
 10
-0.7791184825580704
 20
-1.71644846582085
 10
-0.779296314391682
 20
-1.7168930454049
 10
-0.7794148689474341
 20
-1.717411721586294
 10
-0.7794593269058421
 20
-1.718004494365021
  0
LWPOLYLINE
  5
B22
330
17
100
AcDbEntity
  8
4
  6
Continuous
100
AcDbPolyline
 90
       21
 70
     0
 43
0.0
 10
-0.7856247415285102
 20
-1.724073420468068
 10
-0.7856247415285102
 20
-1.760446915124338
 10
-0.7838019652339217
 20
-1.776925998373048
 10
-0.7819199116614506
 20
-1.76052101172168
 10
-0.7819199116614506
 20
-1.723940046592854
 10
-0.7819643696198586
 20
-1.723347273814126
 10
-0.7820829241756
 20
-1.722843416952205
 10
-0.7822607560092232
 20
-1.722413656687628
 10
-0.782497865120715
 20
-1.722057993020384
 10
-0.7827794321906172
 20
-1.721806064589428
 10
-0.7830906378994423
 20
-1.721613413436342
 10
-0.7834314822472141
 20
-1.721509678200064
 10
-0.7837723265949858
 20
-1.721480039561129
 10
-0.7841131709427575
 20
-1.721539316838999
 10
-0.7844540152905301
 20
-1.721672690714214
 10
-0.784765220999355
 20
-1.721880161186772
 10
-0.7850467880692557
 20
-1.722161728256661
 10
-0.7852838971807384
 20
-1.72253221124337
 10
-0.7854617290143713
 20
-1.722961971507956
 10
-0.7855802835701118
 20
-1.72348064768934
 10
-0.7856247415285102
 20
-1.724073420468068
  0
LWPOLYLINE
  5
B39
330
17
100
AcDbEntity
  8
4
  6
Continuous
100
AcDbPolyline
 90
       21
 70
     0
 43
0.0
 10
-0.7734569247973129
 20
-1.721528569822715
 10
-0.7734569247973129
 20
-1.760461734443811
 10
-0.7717971610168731
 20
-1.776925998373048
 10
-0.769826191527586
 20
-1.760461734443811
 10
-0.769826191527586
 20
-1.72160266642006
 10
-0.7698706494859949
 20
-1.72099507432186
 10
-0.769989204041746
 20
-1.720461578821003
 10
-0.7701670358753585
 20
-1.720016999236953
 10
-0.770389325667389
 20
-1.719646516250245
 10
-0.7706708927372798
 20
-1.719364949180344
 10
-0.7709820984461154
 20
-1.719157478707786
 10
-0.7713081234744151
 20
-1.719038924152046
 10
-0.771634148502713
 20
-1.718994466193638
 10
-0.7719749928504847
 20
-1.719024104832573
 10
-0.7723010178787844
 20
-1.719142659388325
 10
-0.7726122235876201
 20
-1.719350129860881
 10
-0.7728937906575109
 20
-1.71961687761131
 10
-0.7731160804495412
 20
-1.719972541278544
 10
-0.7732939122831635
 20
-1.720417120862595
 10
-0.7734124668389156
 20
-1.720935797043978
 10
-0.7734569247973129
 20
-1.721528569822715
  0
LWPOLYLINE
  5
B50
330
17
100
AcDbEntity
  8
4
  6
Continuous
100
AcDbPolyline
 90
       18
 70
     0
 43
0.0
 10
-0.7765843789290026
 20
-1.760491373082746
 10
-0.7765991982484648
 20
-1.760728482194238
 10
-0.7766288368874
 20
-1.760965591305731
 10
-0.776702933484744
 20
-1.761173061778289
 10
-0.7767918494015601
 20
-1.761365712931374
 10
-0.7769400425962365
 20
-1.761543544764985
 10
-0.777117874429858
 20
-1.761676918640211
 10
-0.7773253449024172
 20
-1.761765834557016
 10
-0.7775920926528448
 20
-1.761810292515425
 10
-0.7778440210838005
 20
-1.761795473195951
 10
-0.7780811301952931
 20
-1.761721376598608
 10
-0.7782589620289146
 20
-1.761588002723394
 10
-0.7784071552235909
 20
-1.761410170889771
 10
-0.778525709779343
 20
-1.761202700417225
 10
-0.7786146256961493
 20
-1.760980410625194
 10
-0.7786739029740204
 20
-1.7607433015137
 10
-0.7786887222934819
 20
-1.760491373082746
 10
-0.7765843789290026
 20
-1.760491373082746
  0
LWPOLYLINE
  5
B64
330
17
100
AcDbEntity
  8
4
  6
Continuous
100
AcDbPolyline
 90
       18
 70
     0
 43
0.0
 10
-0.7787035416129548
 20
-1.759617033234118
 10
-0.7787183609324284
 20
-1.758979802496983
 10
-0.7787183609324284
 20
-1.758283294481976
 10
-0.7787183609324284
 20
-1.75752750918909
 10
-0.7786590836545573
 20
-1.756712446618343
 10
-0.7785553484182675
 20
-1.755852926089178
 10
-0.7783626972651839
 20
-1.754934128282151
 10
-0.7780663108758194
 20
-1.753970872516706
 10
-0.7776365506112422
 20
-1.752963158792864
 10
-0.7772808869439967
 20
-1.753911595238835
 10
-0.7769993198741068
 20
-1.754845212365334
 10
-0.7767918494015601
 20
-1.755749190852899
 10
-0.7766436562068721
 20
-1.756623530701525
 10
-0.7765547402900559
 20
-1.757468231911219
 10
-0.7765251016511208
 20
-1.758238836523569
 10
-0.7765251016511208
 20
-1.758964983177509
 10
-0.7765547402900559
 20
-1.759617033234118
 10
-0.7787035416129548
 20
-1.759617033234118
  0
LWPOLYLINE
  5
B78
330
17
100
AcDbEntity
  8
4
  6
Continuous
100
AcDbPolyline
 90
       18
 70
     0
 43
0.0
 10
-0.7850023301108477
 20
-1.759676310511988
 10
-0.7850171494303098
 20
-1.758816789982832
 10
-0.7849578721524395
 20
-1.757927630814732
 10
-0.7848541369161719
 20
-1.75703847164664
 10
-0.7847059437214848
 20
-1.756164131798013
 10
-0.7845132925683993
 20
-1.755334249907793
 10
-0.784291002776369
 20
-1.754593283934379
 10
-0.7840390743454134
 20
-1.753941233877772
 10
-0.7837575072755129
 20
-1.75343737701585
 10
-0.78352039816403
 20
-1.753926414558309
 10
-0.7832832890525259
 20
-1.754548825975971
 10
-0.7830609992605062
 20
-1.755304611268857
 10
-0.7828683481074217
 20
-1.756149312478541
 10
-0.7827053355932723
 20
-1.75703847164664
 10
-0.7825867810375211
 20
-1.757942450134205
 10
-0.78252750375965
 20
-1.758831609302294
 10
-0.78252750375965
 20
-1.759676310511988
 10
-0.7850023301108477
 20
-1.759676310511988
  0
LWPOLYLINE
  5
B8C
330
17
100
AcDbEntity
  8
4
  6
Continuous
100
AcDbPolyline
 90
       18
 70
     0
 43
0.0
 10
-0.7825571423985851
 20
-1.760491373082746
 10
-0.7825571423985851
 20
-1.760728482194238
 10
-0.7825867810375211
 20
-1.760965591305731
 10
-0.7826608776348643
 20
-1.761187881097753
 10
-0.7827794321906172
 20
-1.761410170889771
 10
-0.7829276253852929
 20
-1.761602822042867
 10
-0.7831350958578504
 20
-1.761751015237543
 10
-0.7833722049693428
 20
-1.761854750473823
 10
-0.7836685913587065
 20
-1.761884389112758
 10
-0.7839649777480702
 20
-1.76183993115436
 10
-0.784216906179026
 20
-1.761751015237543
 10
-0.7844391959710562
 20
-1.76161764136233
 10
-0.7846318471241407
 20
-1.761424990209245
 10
-0.784765220999355
 20
-1.761217519736688
 10
-0.7848837755550955
 20
-1.760995229944666
 10
-0.7849430528329773
 20
-1.7607433015137
 10
-0.7849726914719124
 20
-1.760491373082746
 10
-0.7825571423985851
 20
-1.760491373082746
  0
LWPOLYLINE
  5
BA0
330
17
100
AcDbEntity
  8
4
  6
Continuous
100
AcDbPolyline
 90
       18
 70
     0
 43
0.0
 10
-0.7727011395044256
 20
-1.759617033234118
 10
-0.7727159588238992
 20
-1.758979802496983
 10
-0.7727159588238992
 20
-1.758283294481976
 10
-0.7727159588238992
 20
-1.75752750918909
 10
-0.7726566815460281
 20
-1.756712446618343
 10
-0.772552946309749
 20
-1.755852926089178
 10
-0.7723602951566546
 20
-1.754934128282151
 10
-0.7720639087673007
 20
-1.753970872516706
 10
-0.771634148502713
 20
-1.752963158792864
 10
-0.7712784848354799
 20
-1.753911595238835
 10
-0.7709969177655882
 20
-1.754845212365334
 10
-0.7707894472930317
 20
-1.755749190852899
 10
-0.7706412540983436
 20
-1.756623530701525
 10
-0.7705523381815276
 20
-1.757468231911219
 10
-0.7705226995426023
 20
-1.758238836523569
 10
-0.7705226995426023
 20
-1.758964983177509
 10
-0.7705523381815276
 20
-1.759617033234118
 10
-0.7727011395044256
 20
-1.759617033234118
  0
LWPOLYLINE
  5
BB4
330
17
100
AcDbEntity
  8
4
  6
Continuous
100
AcDbPolyline
 90
       18
 70
     0
 43
0.0
 10
-0.7705819768204725
 20
-1.760491373082746
 10
-0.7705967961399356
 20
-1.760728482194238
 10
-0.7706264347788708
 20
-1.760965591305731
 10
-0.7707005313762148
 20
-1.761173061778289
 10
-0.7707894472930317
 20
-1.761365712931374
 10
-0.7709376404877073
 20
-1.761543544764985
 10
-0.7711154723213287
 20
-1.761676918640211
 10
-0.771322942793888
 20
-1.761765834557016
 10
-0.7715896905443156
 20
-1.761810292515425
 10
-0.7718416189752713
 20
-1.761795473195951
 10
-0.7720787280867638
 20
-1.761721376598608
 10
-0.7722565599203861
 20
-1.761588002723394
 10
-0.7724047531150733
 20
-1.761410170889771
 10
-0.7725233076708138
 20
-1.761202700417225
 10
-0.7726122235876201
 20
-1.760980410625194
 10
-0.7726715008655011
 20
-1.7607433015137
 10
-0.7726863201849632
 20
-1.760491373082746
 10
-0.7705819768204725
 20
-1.760491373082746
  0
LWPOLYLINE
  5
BC8
330
17
100
AcDbEntity
  8
4
  6
Continuous
100
AcDbPolyline
 90
        5
 70
     0
 43
0.0
 10
-0.6211703543736001
 20
-1.747316149551019
 10
-0.6317644802721043
 20
-1.740554710837636
 10
-0.6317644802721043
 20
-1.74717151984592
 10
-0.6211341969473283
 20
-1.752884393197323
 10
-0.6211703543736001
 20
-1.747316149551019
  0
LINE
  5
BCF
330
17
100
AcDbEntity
  8
0
100
AcDbLine
 10
-0.7776733029196948
 20
-1.715473586588857
 30
0.0
 11
-0.7776733029196948
 21
-1.715473586588857
 31
0.0
  0
DIMENSION
  5
C98
330
17
100
AcDbEntity
  8
3
100
AcDbDimension
  2
*D4
 10
-1.783905939897301
 20
-0.5541706528364664
 30
0.0
 11
-1.4930312115557
 21
-0.986230815400942
 31
0.0
 70
   163
 71
     5
 42
0.4340000000000003
  3
STANDARD
100
AcDbDiametricDimension
 15
-1.548774669447494
 25
-0.918957283151585
 35
0.0
 40
0.0
1001
ACAD
1000
DSTYLE
1002
{
1070
    41
1040
0.031
1070
    42
1040
0.015
1070
    43
1040
0.1875
1070
    44
1040
0.015
1070
    78
1070
     4
1070
   140
1040
0.031
1070
   141
1040
0.063
1070
   147
1040
0.02
1070
   271
1070
     3
1070
   272
1070
     3
1070
   279
1070
     2
1070
   284
1070
     4
1070
   285
1070
     4
1070
   286
1070
     4
1070
   288
1070
     1
1070
   340
1005
21
1002
}
1001
ACAD_DSTYLE_DIMRADIAL_EXTENSION
1070
   387
1070
     1
1070
   388
1040
0.0
1070
   390
1040
0.0
  0
ENDSEC
  0
SECTION
  2
OBJECTS
  0
DICTIONARY
  5
C
330
0
100
AcDbDictionary
281
     1
  3
ACAD_CIP_PREVIOUS_PRODUCT_INFO
350
C90
  3
ACAD_COLOR
350
C6D
  3
ACAD_DETAILVIEWSTYLE
350
C86
  3
ACAD_GROUP
350
D
  3
ACAD_LAYOUT
350
C88
  3
ACAD_MATERIAL
350
C3B
  3
ACAD_MLEADERSTYLE
350
C82
  3
ACAD_MLINESTYLE
350
1A
  3
ACAD_PLOTSETTINGS
350
C89
  3
ACAD_PLOTSTYLENAME
350
C39
  3
ACAD_SCALELIST
350
C70
  3
ACAD_SECTIONVIEWSTYLE
350
C84
  3
ACAD_TABLESTYLE
350
C6E
  3
ACAD_VISUALSTYLE
350
C54
  3
ACDB_RECOMPOSE_DATA
350
D24
  3
ACDBVARIABLEDICTIONARY
350
2F
  3
AcDsDecomposeData
350
D2B
  3
DWGPROPS
350
D25
  0
DICTIONARY
  5
CAD
330
2
100
AcDbDictionary
280
     1
281
     1
  3
ACAD_LAYERSTATES
360
CAE
  0
DICTIONARY
  5
CA2
330
E
100
AcDbDictionary
280
     1
281
     1
  3
ADSK_XREC_LAYER_RECONCILED
360
CA3
  0
DICTIONARY
  5
CA4
330
27
100
AcDbDictionary
280
     1
281
     1
  3
ADSK_XREC_LAYER_RECONCILED
360
CA5
  0
DICTIONARY
  5
CA6
330
28
100
AcDbDictionary
280
     1
281
     1
  3
ADSK_XREC_LAYER_RECONCILED
360
CA7
  0
DICTIONARY
  5
CA8
330
29
100
AcDbDictionary
280
     1
281
     1
  3
ADSK_XREC_LAYER_RECONCILED
360
CA9
  0
DICTIONARY
  5
D6B
330
C9D
100
AcDbDictionary
280
     1
281
     1
  3
ACAD_MTEXT_RT
360
D6C
  0
XRECORD
  5
C90
102
{ACAD_REACTORS
330
C
102
}
330
C
100
AcDbXrecord
280
     1
300
AMECH_PP
300
2015
300
PDSU_F_S
  0
DICTIONARY
  5
C6D
102
{ACAD_REACTORS
330
C
102
}
330
C
100
AcDbDictionary
281
     1
  0
DICTIONARY
  5
C86
102
{ACAD_REACTORS
330
C
102
}
330
C
100
AcDbDictionary
281
     1
  3
Imperial24
350
C87
  0
DICTIONARY
  5
D
102
{ACAD_REACTORS
330
C
102
}
330
C
100
AcDbDictionary
281
     1
  0
DICTIONARY
  5
C88
102
{ACAD_REACTORS
330
C
102
}
330
C
100
AcDbDictionary
281
     1
  3
Layout1
350
C8B
  3
Model
350
C8A
  0
DICTIONARY
  5
C3B
102
{ACAD_REACTORS
330
C
102
}
330
C
100
AcDbDictionary
281
     1
  3
ByBlock
350
C44
  3
ByLayer
350
C3C
  3
Global
350
C4C
  0
DICTIONARY
  5
C82
102
{ACAD_REACTORS
330
C
102
}
330
C
100
AcDbDictionary
281
     1
  3
Standard
350
C83
  0
DICTIONARY
  5
1A
102
{ACAD_REACTORS
330
C
102
}
330
C
100
AcDbDictionary
281
     1
  3
STANDARD
350
1B
  0
DICTIONARY
  5
C89
102
{ACAD_REACTORS
330
C
102
}
330
C
100
AcDbDictionary
281
     1
  0
ACDBDICTIONARYWDFLT
  5
C39
102
{ACAD_REACTORS
330
C
102
}
330
C
100
AcDbDictionary
281
     1
  3
Normal
350
C3A
100
AcDbDictionaryWithDefault
340
C3A
  0
DICTIONARY
  5
C70
102
{ACAD_REACTORS
330
C
102
}
330
C
100
AcDbDictionary
281
     1
  3
A0
350
C71
  3
A1
350
C72
  3
A2
350
C73
  3
A3
350
C74
  3
A4
350
C75
  3
A5
350
C76
  3
A6
350
C77
  3
A7
350
C78
  3
A8
350
C79
  3
A9
350
C7A
  3
B0
350
C7B
  3
B1
350
C7C
  3
B2
350
C7D
  3
B3
350
C7E
  3
B4
350
C7F
  3
B5
350
C80
  3
B6
350
C81
  0
DICTIONARY
  5
C84
102
{ACAD_REACTORS
330
C
102
}
330
C
100
AcDbDictionary
281
     1
  3
Imperial24
350
C85
  0
DICTIONARY
  5
C6E
102
{ACAD_REACTORS
330
C
102
}
330
C
100
AcDbDictionary
281
     1
  3
Standard
350
C6F
  0
DICTIONARY
  5
C54
102
{ACAD_REACTORS
330
C
102
}
330
C
100
AcDbDictionary
281
     1
  3
2dWireframe
350
C5A
  3
Basic
350
C59
  3
Brighten
350
C60
  3
ColorChange
350
C64
  3
Conceptual
350
C5D
  3
Dim
350
C5F
  3
EdgeColorOff
350
C6C
  3
Facepattern
350
C63
  3
Flat
350
C55
  3
FlatWithEdges
350
C56
  3
Gouraud
350
C57
  3
GouraudWithEdges
350
C58
  3
Hidden
350
C5C
  3
JitterOff
350
C6A
  3
Linepattern
350
C62
  3
OverhangOff
350
C6B
  3
Realistic
350
C5E
  3
Shaded
350
C69
  3
Shaded with edges
350
C68
  3
Shades of Gray
350
C65
  3
Sketchy
350
C66
  3
Thicken
350
C61
  3
Wireframe
350
C5B
  3
X-Ray
350
C67
  0
XRECORD
  5
D24
102
{ACAD_REACTORS
330
C
102
}
330
C
100
AcDbXrecord
280
     1
 90
        1
330
C6F
  0
DICTIONARY
  5
2F
102
{ACAD_REACTORS
330
C
102
}
330
C
100
AcDbDictionary
281
     1
  3
CANNOSCALE
350
D0B
  3
CMLEADERSTYLE
350
D07
  3
CTABLESTYLE
350
D06
  3
CVIEWDETAILSTYLE
350
D08
  3
CVIEWSECTIONSTYLE
350
D09
  3
DIMADEC
350
30
  3
DIMASSOC
350
D1E
  3
INDEXCTL
350
D1D
  3
LAYEREVAL
350
D0D
  3
LAYERNOTIFY
350
D0E
  3
LIGHTINGUNITS
350
D0C
  3
LOFTANG1
350
D1F
  3
LOFTANG2
350
D20
  3
LONGITUDE
350
D21
  3
MSLTSCALE
350
D0A
  3
SORTENTS
350
D1C
  3
XCLIPFRAME
350
D22
  0
DICTIONARY
  5
D2B
102
{ACAD_REACTORS
330
C
102
}
330
C
100
AcDbDictionary
281
     1
  3
AcDsRecords
350
D2D
  3
AcDsSchemas
350
D2C
1001
ACAD
1070
     2
  0
XRECORD
  5
D25
102
{ACAD_REACTORS
330
C
102
}
330
C
100
AcDbXrecord
280
     1
  1
DWGPROPS COOKIE
  2

  3

  4

  6

  7

  8
jmilewski
  9

300
=
301
=
302
=
303
=
304
=
305
=
306
=
307
=
308
=
309
=
 40
0.159518287037037
 41
2449302.614371412
 42
2457155.470383785
  1

 90
        0
  0
DICTIONARY
  5
CAE
102
{ACAD_REACTORS
330
CAD
102
}
330
CAD
100
AcDbDictionary
281
     1
  0
XRECORD
  5
CA3
102
{ACAD_REACTORS
330
CA2
102
}
330
CA2
100
AcDbXrecord
280
     1
290
     1
  0
XRECORD
  5
CA5
102
{ACAD_REACTORS
330
CA4
102
}
330
CA4
100
AcDbXrecord
280
     1
290
     1
  0
XRECORD
  5
CA7
102
{ACAD_REACTORS
330
CA6
102
}
330
CA6
100
AcDbXrecord
280
     1
290
     1
  0
XRECORD
  5
CA9
102
{ACAD_REACTORS
330
CA8
102
}
330
CA8
100
AcDbXrecord
280
     1
290
     1
  0
XRECORD
  5
D6C
102
{ACAD_REACTORS
330
D6B
102
}
330
D6B
100
AcDbXrecord
280
     1
 40
6511.0
  1
\A1;\U+2205.434
  0
ACDBDETAILVIEWSTYLE
  5
C87
102
{ACAD_XDICTIONARY
360
D13
102
}
102
{ACAD_REACTORS
330
C86
102
}
330
C86
100
AcDbModelDocViewStyle
 70
     0
  3
Imperial24
290
     0
100
AcDbDetailViewStyle
 70
     0
 71
     0
 90
        3
 71
     1
340
F
 40
0.24
340
0
 40
0.24
300

 40
0.36
280
     3
 71
     2
340
13
 90
       25
 71
     3
340
F
 40
0.24
 90
        1
 40
0.75
 90
        1
300
%<\AcVar ViewType \f "%tc1">% %<\AcVar ViewDetailId>%\PSCALE %<\AcVar ViewScale \f "%sn">%
 71
     4
340
13
 90
       25
340
13
 90
       25
280
     0
  0
LAYOUT
  5
C8B
102
{ACAD_XDICTIONARY
360
D69
102
}
102
{ACAD_REACTORS
330
C88
102
}
330
C88
100
AcDbPlotSettings
  1

  2
TOSHIBA e-STUDIO351c PS3
  4

  6

 40
0.0
 41
0.0
 42
0.0
 43
0.0
 44
0.0
 45
0.0
 46
0.0
 47
0.0
 48
0.0
 49
0.0
140
0.0
141
0.0
142
1.0
143
1.0
 70
   688
 72
     0
 73
     0
 74
     5
  7
monochrome.ctb
 75
    16
147
1.0
148
0.0
149
0.0
100
AcDbLayout
  1
Layout1
 70
     0
 71
     1
 10
0.0
 20
0.0
 11
12.0
 21
9.0
 12
0.0
 22
0.0
 32
0.0
 14
1.000000000000000E+20
 24
1.000000000000000E+20
 34
1.000000000000000E+20
 15
-1.000000000000000E+20
 25
-1.000000000000000E+20
 35
-1.000000000000000E+20
146
0.0
 13
0.0
 23
0.0
 33
0.0
 16
1.0
 26
0.0
 36
0.0
 17
0.0
 27
1.0
 37
0.0
 76
     0
330
14
  0
LAYOUT
  5
C8A
102
{ACAD_XDICTIONARY
360
D67
102
}
102
{ACAD_REACTORS
330
C88
102
}
330
C88
100
AcDbPlotSettings
  1

  2
TOSHIBA e-STUDIO351c PS3
  4

  6

 40
0.0
 41
0.0
 42
0.0
 43
0.0
 44
0.0
 45
0.0
 46
0.0
 47
0.0
 48
0.0
 49
0.0
140
0.0
141
0.0
142
1.0
143
1.0
 70
  1712
 72
     0
 73
     0
 74
     0
  7
monochrome.ctb
 75
     0
147
1.0
148
0.0
149
0.0
100
AcDbLayout
  1
Model
 70
     1
 71
     0
 10
0.0
 20
0.0
 11
12.0
 21
9.0
 12
0.0
 22
0.0
 32
0.0
 14
0.0
 24
0.0
 34
0.0
 15
0.0
 25
0.0
 35
0.0
146
0.0
 13
0.0
 23
0.0
 33
0.0
 16
1.0
 26
0.0
 36
0.0
 17
0.0
 27
1.0
 37
0.0
 76
     0
330
17
331
C37
  0
MATERIAL
  5
C44
102
{ACAD_XDICTIONARY
360
C45
102
}
102
{ACAD_REACTORS
330
C3B
102
}
330
C3B
100
AcDbMaterial
  1
ByBlock
 72
     0
 43
0.0208333333333333
 43
0.0
 43
0.0
 43
0.0
 43
0.0
 43
0.0208333333333333
 43
0.0
 43
0.0
 43
0.0
 43
0.0
 43
1.0
 43
0.0
 43
0.0
 43
0.0
 43
0.0
 43
1.0
 77
     0
 47
0.0208333333333333
 47
0.0
 47
0.0
 47
0.0
 47
0.0
 47
0.0208333333333333
 47
0.0
 47
0.0
 47
0.0
 47
0.0
 47
1.0
 47
0.0
 47
0.0
 47
0.0
 47
0.0
 47
1.0
171
     0
 49
0.0208333333333333
 49
0.0
 49
0.0
 49
0.0
 49
0.0
 49
0.0208333333333333
 49
0.0
 49
0.0
 49
0.0
 49
0.0
 49
1.0
 49
0.0
 49
0.0
 49
0.0
 49
0.0
 49
1.0
175
     0
142
0.0208333333333333
142
0.0
142
0.0
142
0.0
142
0.0
142
0.0208333333333333
142
0.0
142
0.0
142
0.0
142
0.0
142
1.0
142
0.0
142
0.0
142
0.0
142
0.0
142
1.0
179
     0
144
0.0208333333333333
144
0.0
144
0.0
144
0.0
144
0.0
144
0.0208333333333333
144
0.0
144
0.0
144
0.0
144
0.0
144
1.0
144
0.0
144
0.0
144
0.0
144
0.0
144
1.0
147
0.0208333333333333
147
0.0
147
0.0
147
0.0
147
0.0
147
0.0208333333333333
147
0.0
147
0.0
147
0.0
147
0.0
147
1.0
147
0.0
147
0.0
147
0.0
147
0.0
147
1.0
  0
MATERIAL
  5
C3C
102
{ACAD_XDICTIONARY
360
C3D
102
}
102
{ACAD_REACTORS
330
C3B
102
}
330
C3B
100
AcDbMaterial
  1
ByLayer
 72
     0
 43
0.0208333333333333
 43
0.0
 43
0.0
 43
0.0
 43
0.0
 43
0.0208333333333333
 43
0.0
 43
0.0
 43
0.0
 43
0.0
 43
1.0
 43
0.0
 43
0.0
 43
0.0
 43
0.0
 43
1.0
 77
     0
 47
0.0208333333333333
 47
0.0
 47
0.0
 47
0.0
 47
0.0
 47
0.0208333333333333
 47
0.0
 47
0.0
 47
0.0
 47
0.0
 47
1.0
 47
0.0
 47
0.0
 47
0.0
 47
0.0
 47
1.0
171
     0
 49
0.0208333333333333
 49
0.0
 49
0.0
 49
0.0
 49
0.0
 49
0.0208333333333333
 49
0.0
 49
0.0
 49
0.0
 49
0.0
 49
1.0
 49
0.0
 49
0.0
 49
0.0
 49
0.0
 49
1.0
175
     0
142
0.0208333333333333
142
0.0
142
0.0
142
0.0
142
0.0
142
0.0208333333333333
142
0.0
142
0.0
142
0.0
142
0.0
142
1.0
142
0.0
142
0.0
142
0.0
142
0.0
142
1.0
179
     0
144
0.0208333333333333
144
0.0
144
0.0
144
0.0
144
0.0
144
0.0208333333333333
144
0.0
144
0.0
144
0.0
144
0.0
144
1.0
144
0.0
144
0.0
144
0.0
144
0.0
144
1.0
147
0.0208333333333333
147
0.0
147
0.0
147
0.0
147
0.0
147
0.0208333333333333
147
0.0
147
0.0
147
0.0
147
0.0
147
1.0
147
0.0
147
0.0
147
0.0
147
0.0
147
1.0
  0
MATERIAL
  5
C4C
102
{ACAD_XDICTIONARY
360
C4D
102
}
102
{ACAD_REACTORS
330
C3B
102
}
330
C3B
100
AcDbMaterial
  1
Global
 72
     0
 43
0.0208333333333333
 43
0.0
 43
0.0
 43
0.0
 43
0.0
 43
0.0208333333333333
 43
0.0
 43
0.0
 43
0.0
 43
0.0
 43
1.0
 43
0.0
 43
0.0
 43
0.0
 43
0.0
 43
1.0
 77
     0
 47
0.0208333333333333
 47
0.0
 47
0.0
 47
0.0
 47
0.0
 47
0.0208333333333333
 47
0.0
 47
0.0
 47
0.0
 47
0.0
 47
1.0
 47
0.0
 47
0.0
 47
0.0
 47
0.0
 47
1.0
171
     0
 49
0.0208333333333333
 49
0.0
 49
0.0
 49
0.0
 49
0.0
 49
0.0208333333333333
 49
0.0
 49
0.0
 49
0.0
 49
0.0
 49
1.0
 49
0.0
 49
0.0
 49
0.0
 49
0.0
 49
1.0
175
     0
142
0.0208333333333333
142
0.0
142
0.0
142
0.0
142
0.0
142
0.0208333333333333
142
0.0
142
0.0
142
0.0
142
0.0
142
1.0
142
0.0
142
0.0
142
0.0
142
0.0
142
1.0
179
     0
144
0.0208333333333333
144
0.0
144
0.0
144
0.0
144
0.0
144
0.0208333333333333
144
0.0
144
0.0
144
0.0
144
0.0
144
1.0
144
0.0
144
0.0
144
0.0
144
0.0
144
1.0
147
0.0208333333333333
147
0.0
147
0.0
147
0.0
147
0.0
147
0.0208333333333333
147
0.0
147
0.0
147
0.0
147
0.0
147
1.0
147
0.0
147
0.0
147
0.0
147
0.0
147
1.0
  0
MLEADERSTYLE
  5
C83
102
{ACAD_XDICTIONARY
360
D63
102
}
102
{ACAD_REACTORS
330
C82
102
}
330
C82
100
AcDbMLeaderStyle
170
     2
171
     1
172
     0
 90
        2
 40
0.0
 41
0.0
173
     1
 91
-1056964608
340
11
 92
       -2
290
     1
 42
0.09
291
     1
 43
0.36
  3
Standard
 44
0.18
300

342
F
174
     1
178
     6
175
     1
176
     0
 93
-1056964608
 45
0.18
292
     0
297
     0
 46
0.18
 94
-1056964608
 47
1.0
 49
1.0
140
1.0
293
     1
141
0.0
294
     1
177
     0
142
1.0
295
     0
296
     0
143
0.125
1001
ACAD_MLEADERVER
1070
     2
  0
MLINESTYLE
  5
1B
102
{ACAD_REACTORS
330
1A
102
}
330
1A
100
AcDbMlineStyle
  2
STANDARD
 70
     0
  3

 62
   256
 51
90.0
 52
90.0
 71
     2
 49
0.5
 62
   256
  6
BYLAYER
 49
-0.5
 62
   256
  6
BYLAYER
  0
ACDBPLACEHOLDER
  5
C3A
102
{ACAD_REACTORS
330
C39
102
}
330
C39
  0
SCALE
  5
C71
102
{ACAD_REACTORS
330
C70
102
}
330
C70
100
AcDbScale
 70
     0
300
1:1
140
1.0
141
1.0
290
     1
  0
SCALE
  5
C72
102
{ACAD_REACTORS
330
C70
102
}
330
C70
100
AcDbScale
 70
     0
300
1/128" = 1'-0"
140
0.0078125
141
12.0
290
     0
  0
SCALE
  5
C73
102
{ACAD_REACTORS
330
C70
102
}
330
C70
100
AcDbScale
 70
     0
300
1/64" = 1'-0"
140
0.015625
141
12.0
290
     0
  0
SCALE
  5
C74
102
{ACAD_REACTORS
330
C70
102
}
330
C70
100
AcDbScale
 70
     0
300
1/32" = 1'-0"
140
0.03125
141
12.0
290
     0
  0
SCALE
  5
C75
102
{ACAD_REACTORS
330
C70
102
}
330
C70
100
AcDbScale
 70
     0
300
1/16" = 1'-0"
140
0.0625
141
12.0
290
     0
  0
SCALE
  5
C76
102
{ACAD_REACTORS
330
C70
102
}
330
C70
100
AcDbScale
 70
     0
300
3/32" = 1'-0"
140
0.09375
141
12.0
290
     0
  0
SCALE
  5
C77
102
{ACAD_REACTORS
330
C70
102
}
330
C70
100
AcDbScale
 70
     0
300
1/8" = 1'-0"
140
0.125
141
12.0
290
     0
  0
SCALE
  5
C78
102
{ACAD_REACTORS
330
C70
102
}
330
C70
100
AcDbScale
 70
     0
300
3/16" = 1'-0"
140
0.1875
141
12.0
290
     0
  0
SCALE
  5
C79
102
{ACAD_REACTORS
330
C70
102
}
330
C70
100
AcDbScale
 70
     0
300
1/4" = 1'-0"
140
0.25
141
12.0
290
     0
  0
SCALE
  5
C7A
102
{ACAD_REACTORS
330
C70
102
}
330
C70
100
AcDbScale
 70
     0
300
3/8" = 1'-0"
140
0.375
141
12.0
290
     0
  0
SCALE
  5
C7B
102
{ACAD_REACTORS
330
C70
102
}
330
C70
100
AcDbScale
 70
     0
300
1/2" = 1'-0"
140
0.5
141
12.0
290
     0
  0
SCALE
  5
C7C
102
{ACAD_REACTORS
330
C70
102
}
330
C70
100
AcDbScale
 70
     0
300
3/4" = 1'-0"
140
0.75
141
12.0
290
     0
  0
SCALE
  5
C7D
102
{ACAD_REACTORS
330
C70
102
}
330
C70
100
AcDbScale
 70
     0
300
1" = 1'-0"
140
1.0
141
12.0
290
     0
  0
SCALE
  5
C7E
102
{ACAD_REACTORS
330
C70
102
}
330
C70
100
AcDbScale
 70
     0
300
1-1/2" = 1'-0"
140
1.5
141
12.0
290
     0
  0
SCALE
  5
C7F
102
{ACAD_REACTORS
330
C70
102
}
330
C70
100
AcDbScale
 70
     0
300
3" = 1'-0"
140
3.0
141
12.0
290
     0
  0
SCALE
  5
C80
102
{ACAD_REACTORS
330
C70
102
}
330
C70
100
AcDbScale
 70
     0
300
6" = 1'-0"
140
6.0
141
12.0
290
     0
  0
SCALE
  5
C81
102
{ACAD_REACTORS
330
C70
102
}
330
C70
100
AcDbScale
 70
     0
300
1'-0" = 1'-0"
140
12.0
141
12.0
290
     0
  0
ACDBSECTIONVIEWSTYLE
  5
C85
102
{ACAD_XDICTIONARY
360
D11
102
}
102
{ACAD_REACTORS
330
C84
102
}
330
C84
100
AcDbModelDocViewStyle
 70
     0
  3
Imperial24
290
     0
100
AcDbSectionViewStyle
 70
     0
 71
     0
 90
       78
 71
     1
340
F
 40
0.24
340
0
340
0
 40
0.24
300
I, O, Q, S, X, Z
 40
0.48
 90
        3
 40
0.18
 90
        1
 71
     2
340
13
 90
       25
340
13
 90
       50
 40
0.24
 40
0.0
 40
0.24
 71
     3
340
F
 40
0.24
 90
        1
 40
0.75
 90
        1
300
%<\AcVar ViewType \f "%tc1">% %<\AcVar ViewSectionStartId>%-%<\AcVar ViewSectionEndId>%\PSCALE %<\AcVar ViewScale \f "%sn">%
 71
     4
300
ANSI31
 40
1.0
 90
        0
290
     0
290
     0
 90
        6
 40
0.0
 40
1.570796326794896
 40
0.2617993877991494
 40
1.308996938995747
 40
-0.2617993877991494
 40
1.832595714594045
  0
TABLESTYLE
  5
C6F
102
{ACAD_XDICTIONARY
360
D0F
102
}
102
{ACAD_REACTORS
330
C6E
102
}
330
C6E
100
AcDbTableStyle
  3
Standard
 70
     0
 71
     0
 40
0.06
 41
0.06
280
     0
281
     0
  7
STANDARD
140
0.18
170
     2
 62
     0
 63
     7
283
     0
274
    -2
284
     1
 64
     0
275
    -2
285
     1
 65
     0
276
    -2
286
     1
 66
     0
277
    -2
287
     1
 67
     0
278
    -2
288
     1
 68
     0
279
    -2
289
     1
 69
     0
  7
STANDARD
140
0.25
170
     5
 62
     0
 63
     7
283
     0
274
    -2
284
     1
 64
     0
275
    -2
285
     1
 65
     0
276
    -2
286
     1
 66
     0
277
    -2
287
     1
 67
     0
278
    -2
288
     1
 68
     0
279
    -2
289
     1
 69
     0
  7
STANDARD
140
0.18
170
     5
 62
     0
 63
     7
283
     0
274
    -2
284
     1
 64
     0
275
    -2
285
     1
 65
     0
276
    -2
286
     1
 66
     0
277
    -2
287
     1
 67
     0
278
    -2
288
     1
 68
     0
279
    -2
289
     1
 69
     0
  0
VISUALSTYLE
  5
C5A
102
{ACAD_XDICTIONARY
360
D3B
102
}
102
{ACAD_REACTORS
330
C54
102
}
330
C54
100
AcDbVisualStyle
  2
2dWireframe
 70
     4
 71
     0
 72
     2
 73
     0
 90
        0
 40
-0.6
 41
-30.0
 62
     5
 63
     7
 74
     1
 91
        4
 64
     7
 65
   257
 75
     1
175
     1
 42
1.0
 92
        0
 66
   257
 43
1.0
 76
     1
 77
     6
 78
     2
 67
     7
 79
     5
170
     0
171
     0
290
     0
174
     0
 93
        1
 44
0.0
173
     0
291
     0
 45
0.0
1001
ACAD
1000
AcDbSavedByObjectVersion
1070
     0
  0
VISUALSTYLE
  5
C59
102
{ACAD_XDICTIONARY
360
D39
102
}
102
{ACAD_REACTORS
330
C54
102
}
330
C54
100
AcDbVisualStyle
  2
Basic
 70
     7
 71
     1
 72
     0
 73
     1
 90
        0
 40
-0.6
 41
-30.0
 62
     5
 63
     7
 74
     0
 91
        4
 64
     7
 65
   257
 75
     1
175
     1
 42
1.0
 92
        8
 66
     7
 43
1.0
 76
     1
 77
     6
 78
     2
 67
     7
 79
     5
170
     0
171
     0
290
     0
174
     0
 93
        1
 44
0.0
173
     0
291
     1
 45
0.0
1001
ACAD
1000
AcDbSavedByObjectVersion
1070
     0
  0
VISUALSTYLE
  5
C60
102
{ACAD_XDICTIONARY
360
D47
102
}
102
{ACAD_REACTORS
330
C54
102
}
330
C54
100
AcDbVisualStyle
  2
Brighten
 70
    12
 71
     2
 72
     2
 73
     0
 90
        0
 40
-0.6
 41
-30.0
 62
     5
 63
     7
 74
     1
 91
        4
 64
     7
 65
   257
 75
     1
175
     1
 42
1.0
 92
        8
 66
     7
 43
1.0
 76
     1
 77
     6
 78
     2
 67
     7
 79
     5
170
     0
171
     0
290
     0
174
     0
 93
        1
 44
50.0
173
     0
291
     1
 45
0.0
1001
ACAD
1000
AcDbSavedByObjectVersion
1070
     0
  0
VISUALSTYLE
  5
C64
102
{ACAD_XDICTIONARY
360
D4F
102
}
102
{ACAD_REACTORS
330
C54
102
}
330
C54
100
AcDbVisualStyle
  2
ColorChange
 70
    16
 71
     2
 72
     2
 73
     3
 90
        0
 40
-0.6
 41
-30.0
 62
     5
 63
     8
 74
     1
 91
        4
 64
     7
 65
   257
 75
     1
175
     1
 42
1.0
 92
        8
 66
     8
 43
1.0
 76
     1
 77
     6
 78
     2
 67
     7
 79
     5
170
     0
171
     0
290
     0
174
     0
 93
        1
 44
0.0
173
     0
291
     1
 45
0.0
1001
ACAD
1000
AcDbSavedByObjectVersion
1070
     0
  0
VISUALSTYLE
  5
C5D
102
{ACAD_XDICTIONARY
360
D41
102
}
102
{ACAD_REACTORS
330
C54
102
}
330
C54
100
AcDbVisualStyle
  2
Conceptual
 70
     9
 71
     3
 72
     2
 73
     0
 90
        0
 40
-0.6
 41
-30.0
 62
     5
 63
     7
 74
     2
 91
        2
 64
     7
 65
   257
 75
     1
175
     1
 42
179.0
 92
        8
 66
     7
 43
1.0
 76
     1
 77
     6
 78
     2
 67
     7
 79
     3
170
     0
171
     0
290
     0
174
     0
 93
        1
 44
0.0
173
     0
291
     0
 45
0.0
1001
ACAD
1000
AcDbSavedByObjectVersion
1070
     0
  0
VISUALSTYLE
  5
C5F
102
{ACAD_XDICTIONARY
360
D45
102
}
102
{ACAD_REACTORS
330
C54
102
}
330
C54
100
AcDbVisualStyle
  2
Dim
 70
    11
 71
     2
 72
     2
 73
     0
 90
        0
 40
-0.6
 41
-30.0
 62
     5
 63
     7
 74
     1
 91
        4
 64
     7
 65
   257
 75
     1
175
     1
 42
1.0
 92
        8
 66
     7
 43
1.0
 76
     1
 77
     6
 78
     2
 67
     7
 79
     5
170
     0
171
     0
290
     0
174
     0
 93
        1
 44
-50.0
173
     0
291
     1
 45
0.0
1001
ACAD
1000
AcDbSavedByObjectVersion
1070
     0
  0
VISUALSTYLE
  5
C6C
102
{ACAD_XDICTIONARY
360
D5F
102
}
102
{ACAD_REACTORS
330
C54
102
}
330
C54
100
AcDbVisualStyle
  2
EdgeColorOff
 70
    22
 71
     2
 72
     2
 73
     0
 90
        0
 40
-0.6
 41
-30.0
 62
     5
 63
     7
 74
     1
 91
        4
 64
     7
 65
   257
 75
     1
175
     1
 42
1.0
 92
        8
 66
     7
 43
1.0
 76
     1
 77
     6
 78
     2
 67
     7
 79
     5
170
     0
171
     0
290
     0
174
     0
 93
        1
 44
0.0
173
     0
291
     1
 45
0.0
1001
ACAD
1000
AcDbSavedByObjectVersion
1070
     0
  0
VISUALSTYLE
  5
C63
102
{ACAD_XDICTIONARY
360
D4D
102
}
102
{ACAD_REACTORS
330
C54
102
}
330
C54
100
AcDbVisualStyle
  2
Facepattern
 70
    15
 71
     2
 72
     2
 73
     0
 90
        0
 40
-0.6
 41
-30.0
 62
     5
 63
     7
 74
     1
 91
        4
 64
     7
 65
   257
 75
     1
175
     1
 42
1.0
 92
        8
 66
     7
 43
1.0
 76
     1
 77
     6
 78
     2
 67
     7
 79
     5
170
     0
171
     0
290
     0
174
     0
 93
        1
 44
0.0
173
     0
291
     1
 45
0.0
1001
ACAD
1000
AcDbSavedByObjectVersion
1070
     0
  0
VISUALSTYLE
  5
C55
102
{ACAD_XDICTIONARY
360
D31
102
}
102
{ACAD_REACTORS
330
C54
102
}
330
C54
100
AcDbVisualStyle
  2
Flat
 70
     0
 71
     2
 72
     1
 73
     1
 90
        2
 40
-0.6
 41
30.0
 62
     5
 63
     7
 74
     0
 91
        0
 64
     7
 65
   257
 75
     1
175
     1
 42
1.0
 92
        8
 66
     7
 43
1.0
 76
     1
 77
     6
 78
     2
 67
     7
 79
     5
170
     0
171
     0
290
     0
174
     0
 93
       13
 44
0.0
173
     0
291
     1
 45
0.0
1001
ACAD
1000
AcDbSavedByObjectVersion
1070
     0
  0
VISUALSTYLE
  5
C56
102
{ACAD_XDICTIONARY
360
D33
102
}
102
{ACAD_REACTORS
330
C54
102
}
330
C54
100
AcDbVisualStyle
  2
FlatWithEdges
 70
     1
 71
     2
 72
     1
 73
     1
 90
        2
 40
-0.6
 41
30.0
 62
     5
 63
     7
 74
     1
 91
        0
 64
     7
 65
   257
 75
     1
175
     1
 42
1.0
 92
        0
 66
   257
 43
1.0
 76
     1
 77
     6
 78
     2
 67
     7
 79
     5
170
     0
171
     0
290
     0
174
     0
 93
       13
 44
0.0
173
     0
291
     1
 45
0.0
1001
ACAD
1000
AcDbSavedByObjectVersion
1070
     0
  0
VISUALSTYLE
  5
C57
102
{ACAD_XDICTIONARY
360
D35
102
}
102
{ACAD_REACTORS
330
C54
102
}
330
C54
100
AcDbVisualStyle
  2
Gouraud
 70
     2
 71
     2
 72
     2
 73
     1
 90
        2
 40
-0.6
 41
30.0
 62
     5
 63
     7
 74
     0
 91
        0
 64
     7
 65
   257
 75
     1
175
     1
 42
1.0
 92
        0
 66
     7
 43
1.0
 76
     1
 77
     6
 78
     2
 67
     7
 79
     5
170
     0
171
     0
290
     0
174
     0
 93
       13
 44
0.0
173
     0
291
     1
 45
0.0
1001
ACAD
1000
AcDbSavedByObjectVersion
1070
     0
  0
VISUALSTYLE
  5
C58
102
{ACAD_XDICTIONARY
360
D37
102
}
102
{ACAD_REACTORS
330
C54
102
}
330
C54
100
AcDbVisualStyle
  2
GouraudWithEdges
 70
     3
 71
     2
 72
     2
 73
     1
 90
        2
 40
-0.6
 41
30.0
 62
     5
 63
     7
 74
     1
 91
        0
 64
     7
 65
   257
 75
     1
175
     1
 42
1.0
 92
        0
 66
   257
 43
1.0
 76
     1
 77
     6
 78
     2
 67
     7
 79
     5
170
     0
171
     0
290
     0
174
     0
 93
       13
 44
0.0
173
     0
291
     1
 45
0.0
1001
ACAD
1000
AcDbSavedByObjectVersion
1070
     0
  0
VISUALSTYLE
  5
C5C
102
{ACAD_XDICTIONARY
360
D3F
102
}
102
{ACAD_REACTORS
330
C54
102
}
330
C54
100
AcDbVisualStyle
  2
Hidden
 70
     6
 71
     1
 72
     2
 73
     2
 90
        0
 40
-0.6
 41
-30.0
 62
     5
 63
     7
 74
     2
 91
        2
 64
     7
 65
   257
 75
     2
175
     1
 42
40.0
 92
        0
 66
   257
 43
1.0
 76
     1
 77
     6
 78
     2
 67
     7
 79
     3
170
     0
171
     0
290
     0
174
     0
 93
        1
 44
0.0
173
     0
291
     0
 45
0.0
1001
ACAD
1000
AcDbSavedByObjectVersion
1070
     0
  0
VISUALSTYLE
  5
C6A
102
{ACAD_XDICTIONARY
360
D5B
102
}
102
{ACAD_REACTORS
330
C54
102
}
330
C54
100
AcDbVisualStyle
  2
JitterOff
 70
    20
 71
     2
 72
     2
 73
     0
 90
        0
 40
-0.6
 41
-30.0
 62
     5
 63
     7
 74
     1
 91
        4
 64
     7
 65
   257
 75
     1
175
     1
 42
1.0
 92
       10
 66
     7
 43
1.0
 76
     1
 77
     6
 78
     2
 67
     7
 79
     5
170
     0
171
     0
290
     0
174
     0
 93
        1
 44
0.0
173
     0
291
     1
 45
0.0
1001
ACAD
1000
AcDbSavedByObjectVersion
1070
     0
  0
VISUALSTYLE
  5
C62
102
{ACAD_XDICTIONARY
360
D4B
102
}
102
{ACAD_REACTORS
330
C54
102
}
330
C54
100
AcDbVisualStyle
  2
Linepattern
 70
    14
 71
     2
 72
     2
 73
     0
 90
        0
 40
-0.6
 41
-30.0
 62
     5
 63
     7
 74
     1
 91
        4
 64
     7
 65
   257
 75
     7
175
     7
 42
1.0
 92
        8
 66
     7
 43
1.0
 76
     1
 77
     6
 78
     2
 67
     7
 79
     5
170
     0
171
     0
290
     0
174
     0
 93
        1
 44
0.0
173
     0
291
     1
 45
0.0
1001
ACAD
1000
AcDbSavedByObjectVersion
1070
     0
  0
VISUALSTYLE
  5
C6B
102
{ACAD_XDICTIONARY
360
D5D
102
}
102
{ACAD_REACTORS
330
C54
102
}
330
C54
100
AcDbVisualStyle
  2
OverhangOff
 70
    21
 71
     2
 72
     2
 73
     0
 90
        0
 40
-0.6
 41
-30.0
 62
     5
 63
     7
 74
     1
 91
        4
 64
     7
 65
   257
 75
     1
175
     1
 42
1.0
 92
        9
 66
     7
 43
1.0
 76
     1
 77
     6
 78
     2
 67
     7
 79
     5
170
     0
171
     0
290
     0
174
     0
 93
        1
 44
0.0
173
     0
291
     1
 45
0.0
1001
ACAD
1000
AcDbSavedByObjectVersion
1070
     0
  0
VISUALSTYLE
  5
C5E
102
{ACAD_XDICTIONARY
360
D43
102
}
102
{ACAD_REACTORS
330
C54
102
}
330
C54
100
AcDbVisualStyle
  2
Realistic
 70
     8
 71
     2
 72
     3
 73
     0
 90
        2
 40
-0.6
 41
30.0
 62
     5
 63
     7
 74
     0
 91
        0
 64
     7
 65
   257
 75
     1
175
     1
 42
1.0
 92
        8
 66
   257
 43
1.0
 76
     1
 77
     6
 78
     2
 67
     7
 79
     3
170
     0
171
     0
290
     0
174
     0
 93
       13
 44
0.0
173
     0
291
     0
 45
0.0
1001
ACAD
1000
AcDbSavedByObjectVersion
1070
     0
  0
VISUALSTYLE
  5
C69
102
{ACAD_XDICTIONARY
360
D59
102
}
102
{ACAD_REACTORS
330
C54
102
}
330
C54
100
AcDbVisualStyle
  2
Shaded
 70
    27
 71
     2
 72
     2
 73
     1
 90
        2
 40
-0.6
 41
30.0
 62
     5
 63
     7
 74
     0
 91
        4
 64
     7
 65
   257
 75
     1
175
     1
 42
1.0
 92
        8
 66
   257
 43
1.0
 76
     1
 77
     6
 78
     2
 67
     8
 79
     3
170
     0
171
     0
290
     0
174
     0
 93
        5
 44
0.0
173
     0
291
     0
 45
0.0
1001
ACAD
1000
AcDbSavedByObjectVersion
1070
     0
  0
VISUALSTYLE
  5
C68
102
{ACAD_XDICTIONARY
360
D57
102
}
102
{ACAD_REACTORS
330
C54
102
}
330
C54
100
AcDbVisualStyle
  2
Shaded with edges
 70
    26
 71
     2
 72
     2
 73
     1
 90
        2
 40
-0.6
 41
30.0
 62
     5
 63
     7
 74
     1
 91
       10
 64
     7
 65
   257
 75
     2
175
     1
 42
1.0
 92
        8
 66
   257
 43
1.0
 76
     1
 77
     6
 78
     2
 67
     7
 79
     3
170
     0
171
     0
290
     0
174
     0
 93
        5
 44
0.0
173
     0
291
     0
 45
0.0
1001
ACAD
1000
AcDbSavedByObjectVersion
1070
     0
  0
VISUALSTYLE
  5
C65
102
{ACAD_XDICTIONARY
360
D51
102
}
102
{ACAD_REACTORS
330
C54
102
}
330
C54
100
AcDbVisualStyle
  2
Shades of Gray
 70
    23
 71
     2
 72
     2
 73
     3
 90
        0
 40
-0.6
 41
-30.0
 62
     5
 63
     7
 74
     2
 91
        2
 64
     7
 65
     7
 75
     1
175
     1
 42
40.0
 92
        8
 66
     7
 43
1.0
 76
     1
 77
     6
 78
     2
 67
     7
 79
     3
170
     0
171
     0
290
     0
174
     0
 93
        1
 44
0.0
173
     0
291
     0
 45
0.0
1001
ACAD
1000
AcDbSavedByObjectVersion
1070
     0
  0
VISUALSTYLE
  5
C66
102
{ACAD_XDICTIONARY
360
D53
102
}
102
{ACAD_REACTORS
330
C54
102
}
330
C54
100
AcDbVisualStyle
  2
Sketchy
 70
    24
 71
     1
 72
     2
 73
     2
 90
        0
 40
-0.6
 41
-30.0
 62
     5
 63
     7
 74
     2
 91
        2
 64
     7
 65
     7
 75
     1
175
     1
 42
40.0
 92
       11
 66
     7
 43
1.0
 76
     1
 77
     6
 78
     2
 67
     7
 79
     6
170
     0
171
     0
290
     0
174
     0
 93
        1
 44
0.0
173
     0
291
     0
 45
0.0
1001
ACAD
1000
AcDbSavedByObjectVersion
1070
     0
  0
VISUALSTYLE
  5
C61
102
{ACAD_XDICTIONARY
360
D49
102
}
102
{ACAD_REACTORS
330
C54
102
}
330
C54
100
AcDbVisualStyle
  2
Thicken
 70
    13
 71
     2
 72
     2
 73
     0
 90
        0
 40
-0.6
 41
-30.0
 62
     5
 63
     7
 74
     1
 91
        4
 64
     7
 65
   257
 75
     1
175
     1
 42
1.0
 92
       12
 66
     7
 43
1.0
 76
     1
 77
     6
 78
     2
 67
     7
 79
     5
170
     0
171
     0
290
     0
174
     0
 93
        1
 44
0.0
173
     0
291
     1
 45
0.0
1001
ACAD
1000
AcDbSavedByObjectVersion
1070
     0
  0
VISUALSTYLE
  5
C5B
102
{ACAD_XDICTIONARY
360
D3D
102
}
102
{ACAD_REACTORS
330
C54
102
}
330
C54
100
AcDbVisualStyle
  2
Wireframe
 70
     5
 71
     0
 72
     2
 73
     0
 90
        0
 40
-0.6
 41
-30.0
 62
     5
 63
     7
 74
     1
 91
        4
 64
     7
 65
   257
 75
     1
175
     1
 42
1.0
 92
        0
 66
   257
 43
1.0
 76
     1
 77
     6
 78
     2
 67
     7
 79
     3
170
     0
171
     0
290
     0
174
     0
 93
        1
 44
0.0
173
     0
291
     0
 45
0.0
1001
ACAD
1000
AcDbSavedByObjectVersion
1070
     0
  0
VISUALSTYLE
  5
C67
102
{ACAD_XDICTIONARY
360
D55
102
}
102
{ACAD_REACTORS
330
C54
102
}
330
C54
100
AcDbVisualStyle
  2
X-Ray
 70
    25
 71
     2
 72
     2
 73
     1
 90
        1
 40
0.5
 41
-30.0
 62
     5
 63
     7
 74
     1
 91
        0
 64
     7
 65
   257
 75
     1
175
     1
 42
1.0
 92
        8
 66
     7
 43
1.0
 76
     1
 77
     6
 78
     2
 67
     7
 79
     3
170
     0
171
     0
290
     0
174
     0
 93
       13
 44
0.0
173
     0
291
     0
 45
0.0
1001
ACAD
1000
AcDbSavedByObjectVersion
1070
     0
  0
DICTIONARYVAR
  5
D0B
102
{ACAD_REACTORS
330
2F
102
}
330
2F
100
DictionaryVariables
280
     0
  1
1:1
  0
DICTIONARYVAR
  5
D07
102
{ACAD_REACTORS
330
2F
102
}
330
2F
100
DictionaryVariables
280
     0
  1
STANDARD
  0
DICTIONARYVAR
  5
D06
102
{ACAD_REACTORS
330
2F
102
}
330
2F
100
DictionaryVariables
280
     0
  1
STANDARD
  0
DICTIONARYVAR
  5
D08
102
{ACAD_REACTORS
330
2F
102
}
330
2F
100
DictionaryVariables
280
     0
  1
Imperial24
  0
DICTIONARYVAR
  5
D09
102
{ACAD_REACTORS
330
2F
102
}
330
2F
100
DictionaryVariables
280
     0
  1
Imperial24
  0
DICTIONARYVAR
  5
30
102
{ACAD_REACTORS
330
2F
102
}
330
2F
100
DictionaryVariables
280
     0
  1
2
  0
DICTIONARYVAR
  5
D1E
102
{ACAD_REACTORS
330
2F
102
}
330
2F
100
DictionaryVariables
280
     0
  1
1
  0
DICTIONARYVAR
  5
D1D
102
{ACAD_REACTORS
330
2F
102
}
330
2F
100
DictionaryVariables
280
     0
  1
0
  0
DICTIONARYVAR
  5
D0D
102
{ACAD_REACTORS
330
2F
102
}
330
2F
100
DictionaryVariables
280
     0
  1
1
  0
DICTIONARYVAR
  5
D0E
102
{ACAD_REACTORS
330
2F
102
}
330
2F
100
DictionaryVariables
280
     0
  1
15
  0
DICTIONARYVAR
  5
D0C
102
{ACAD_REACTORS
330
2F
102
}
330
2F
100
DictionaryVariables
280
     0
  1
0
  0
DICTIONARYVAR
  5
D1F
102
{ACAD_REACTORS
330
2F
102
}
330
2F
100
DictionaryVariables
280
     0
  1
1.570796
  0
DICTIONARYVAR
  5
D20
102
{ACAD_REACTORS
330
2F
102
}
330
2F
100
DictionaryVariables
280
     0
  1
1.570796
  0
DICTIONARYVAR
  5
D21
102
{ACAD_REACTORS
330
2F
102
}
330
2F
100
DictionaryVariables
280
     0
  1
-122.394000
  0
DICTIONARYVAR
  5
D0A
102
{ACAD_REACTORS
330
2F
102
}
330
2F
100
DictionaryVariables
280
     0
  1
0
  0
DICTIONARYVAR
  5
D1C
102
{ACAD_REACTORS
330
2F
102
}
330
2F
100
DictionaryVariables
280
     0
  1
127
  0
DICTIONARYVAR
  5
D22
102
{ACAD_REACTORS
330
2F
102
}
330
2F
100
DictionaryVariables
280
     0
  1
2
  0
DICTIONARY
  5
D2D
102
{ACAD_REACTORS
330
D2B
102
}
330
D2B
100
AcDbDictionary
281
     1
  0
DICTIONARY
  5
D2C
102
{ACAD_REACTORS
330
D2B
102
}
330
D2B
100
AcDbDictionary
281
     1
  3
8796087831392
350
D26
  3
8796087831408
350
D27
  3
8796087831424
350
D28
  3
8796087831440
350
D29
  3
8796087831456
350
D2A
  0
DICTIONARY
  5
D13
330
C87
100
AcDbDictionary
280
     1
281
     1
  3
ACAD_XREC_ROUNDTRIP
360
D66
  0
DICTIONARY
  5
D69
330
C8B
100
AcDbDictionary
280
     1
281
     1
  3
ACAD_XREC_ROUNDTRIP
360
D6A
  0
DICTIONARY
  5
D67
330
C8A
100
AcDbDictionary
280
     1
281
     1
  3
ACAD_XREC_ROUNDTRIP
360
D68
  0
DICTIONARY
  5
C45
330
C44
100
AcDbDictionary
280
     1
281
     1
  3
ACAD_XREC_ROUNDTRIP
360
D2F
  3
BUMPTILE
360
C47
  3
DIFFUSETILE
360
C46
  3
OPACITYTILE
360
C4A
  3
REFLECTIONTILE
360
C49
  3
REFRACTIONTILE
360
C4B
  3
SPECULARTILE
360
C48
  0
DICTIONARY
  5
C3D
330
C3C
100
AcDbDictionary
280
     1
281
     1
  3
ACAD_XREC_ROUNDTRIP
360
D2E
  3
BUMPTILE
360
C3F
  3
DIFFUSETILE
360
C3E
  3
OPACITYTILE
360
C42
  3
REFLECTIONTILE
360
C41
  3
REFRACTIONTILE
360
C43
  3
SPECULARTILE
360
C40
  0
DICTIONARY
  5
C4D
330
C4C
100
AcDbDictionary
280
     1
281
     1
  3
ACAD_XREC_ROUNDTRIP
360
D30
  3
BUMPTILE
360
C4F
  3
DIFFUSETILE
360
C4E
  3
OPACITYTILE
360
C52
  3
REFLECTIONTILE
360
C51
  3
REFRACTIONTILE
360
C53
  3
SPECULARTILE
360
C50
  0
DICTIONARY
  5
D63
330
C83
100
AcDbDictionary
280
     1
281
     1
  3
ACAD_XREC_ROUNDTRIP
360
D64
  0
DICTIONARY
  5
D11
330
C85
100
AcDbDictionary
280
     1
281
     1
  3
ACAD_XREC_ROUNDTRIP
360
D65
  0
DICTIONARY
  5
D0F
330
C6F
100
AcDbDictionary
280
     1
281
     1
  3
ACAD_ROUNDTRIP_2008_TABLESTYLE_CELLSTYLEMAP
360
D23
  3
ACAD_XREC_ROUNDTRIP
360
D61
  0
DICTIONARY
  5
D3B
330
C5A
100
AcDbDictionary
280
     1
281
     1
  3
ACAD_XREC_ROUNDTRIP
360
D3C
  0
DICTIONARY
  5
D39
330
C59
100
AcDbDictionary
280
     1
281
     1
  3
ACAD_XREC_ROUNDTRIP
360
D3A
  0
DICTIONARY
  5
D47
330
C60
100
AcDbDictionary
280
     1
281
     1
  3
ACAD_XREC_ROUNDTRIP
360
D48
  0
DICTIONARY
  5
D4F
330
C64
100
AcDbDictionary
280
     1
281
     1
  3
ACAD_XREC_ROUNDTRIP
360
D50
  0
DICTIONARY
  5
D41
330
C5D
100
AcDbDictionary
280
     1
281
     1
  3
ACAD_XREC_ROUNDTRIP
360
D42
  0
DICTIONARY
  5
D45
330
C5F
100
AcDbDictionary
280
     1
281
     1
  3
ACAD_XREC_ROUNDTRIP
360
D46
  0
DICTIONARY
  5
D5F
330
C6C
100
AcDbDictionary
280
     1
281
     1
  3
ACAD_XREC_ROUNDTRIP
360
D60
  0
DICTIONARY
  5
D4D
330
C63
100
AcDbDictionary
280
     1
281
     1
  3
ACAD_XREC_ROUNDTRIP
360
D4E
  0
DICTIONARY
  5
D31
330
C55
100
AcDbDictionary
280
     1
281
     1
  3
ACAD_XREC_ROUNDTRIP
360
D32
  0
DICTIONARY
  5
D33
330
C56
100
AcDbDictionary
280
     1
281
     1
  3
ACAD_XREC_ROUNDTRIP
360
D34
  0
DICTIONARY
  5
D35
330
C57
100
AcDbDictionary
280
     1
281
     1
  3
ACAD_XREC_ROUNDTRIP
360
D36
  0
DICTIONARY
  5
D37
330
C58
100
AcDbDictionary
280
     1
281
     1
  3
ACAD_XREC_ROUNDTRIP
360
D38
  0
DICTIONARY
  5
D3F
330
C5C
100
AcDbDictionary
280
     1
281
     1
  3
ACAD_XREC_ROUNDTRIP
360
D40
  0
DICTIONARY
  5
D5B
330
C6A
100
AcDbDictionary
280
     1
281
     1
  3
ACAD_XREC_ROUNDTRIP
360
D5C
  0
DICTIONARY
  5
D4B
330
C62
100
AcDbDictionary
280
     1
281
     1
  3
ACAD_XREC_ROUNDTRIP
360
D4C
  0
DICTIONARY
  5
D5D
330
C6B
100
AcDbDictionary
280
     1
281
     1
  3
ACAD_XREC_ROUNDTRIP
360
D5E
  0
DICTIONARY
  5
D43
330
C5E
100
AcDbDictionary
280
     1
281
     1
  3
ACAD_XREC_ROUNDTRIP
360
D44
  0
DICTIONARY
  5
D59
330
C69
100
AcDbDictionary
280
     1
281
     1
  3
ACAD_XREC_ROUNDTRIP
360
D5A
  0
DICTIONARY
  5
D57
330
C68
100
AcDbDictionary
280
     1
281
     1
  3
ACAD_XREC_ROUNDTRIP
360
D58
  0
DICTIONARY
  5
D51
330
C65
100
AcDbDictionary
280
     1
281
     1
  3
ACAD_XREC_ROUNDTRIP
360
D52
  0
DICTIONARY
  5
D53
330
C66
100
AcDbDictionary
280
     1
281
     1
  3
ACAD_XREC_ROUNDTRIP
360
D54
  0
DICTIONARY
  5
D49
330
C61
100
AcDbDictionary
280
     1
281
     1
  3
ACAD_XREC_ROUNDTRIP
360
D4A
  0
DICTIONARY
  5
D3D
330
C5B
100
AcDbDictionary
280
     1
281
     1
  3
ACAD_XREC_ROUNDTRIP
360
D3E
  0
DICTIONARY
  5
D55
330
C67
100
AcDbDictionary
280
     1
281
     1
  3
ACAD_XREC_ROUNDTRIP
360
D56
  0
XRECORD
  5
D26
102
{ACAD_REACTORS
330
D2C
102
}
330
D2C
100
AcDbXrecord
280
     1
  1
AcDb_Thumbnail_Schema
102
{ATTRRECORD
341
D27
  2
AcDbDs::TreatedAsObjectData
280
     1
291
     1
102
ATTRRECORD}
102
{ATTRRECORD
341
D28
  2
AcDbDs::Legacy
280
     1
291
     1
102
ATTRRECORD}
  2
AcDbDs::ID
280
    10
 91
        8
102
{ATTRRECORD
341
D29
  2
AcDs:Indexable
280
     1
291
     1
102
ATTRRECORD}
102
{ATTRRECORD
341
D2A
  2
AcDbDs::HandleAttribute
280
     7
282
     1
102
ATTRRECORD}
  2
Thumbnail_Data
280
    15
 91
        0
  0
XRECORD
  5
D27
102
{ACAD_REACTORS
330
D2C
102
}
330
D2C
100
AcDbXrecord
280
     1
  1
AcDbDs::TreatedAsObjectDataSchema
  2
AcDbDs::TreatedAsObjectData
280
     1
 91
        0
  0
XRECORD
  5
D28
102
{ACAD_REACTORS
330
D2C
102
}
330
D2C
100
AcDbXrecord
280
     1
  1
AcDbDs::LegacySchema
  2
AcDbDs::Legacy
280
     1
 91
        0
  0
XRECORD
  5
D29
102
{ACAD_REACTORS
330
D2C
102
}
330
D2C
100
AcDbXrecord
280
     1
  1
AcDbDs::IndexedPropertySchema
  2
AcDs:Indexable
280
     1
 91
        0
  0
XRECORD
  5
D2A
102
{ACAD_REACTORS
330
D2C
102
}
330
D2C
100
AcDbXrecord
280
     1
  1
AcDbDs::HandleAttributeSchema
  2
AcDbDs::HandleAttribute
280
     7
 91
        1
284
     1
  0
XRECORD
  5
D66
102
{ACAD_REACTORS
330
D13
102
}
330
D13
100
AcDbXrecord
280
     1
102
DISPLAYNAME
  1
Imperial24
102
FLAGS
 90
        0
  0
XRECORD
  5
D6A
102
{ACAD_REACTORS
330
D69
102
}
330
D69
100
AcDbXrecord
280
     1
102
SHADEPLOT
 70
     0
102
SHADEPLOTRESLEVEL
 70
     2
102
SHADEPLOTCUSTOMDPI
 70
   300
  0
XRECORD
  5
D68
102
{ACAD_REACTORS
330
D67
102
}
330
D67
100
AcDbXrecord
280
     1
102
SHADEPLOT
 70
     0
102
SHADEPLOTRESLEVEL
 70
     2
102
SHADEPLOTCUSTOMDPI
 70
   300
  0
XRECORD
  5
D2F
102
{ACAD_REACTORS
330
C45
102
}
330
C45
100
AcDbXrecord
280
     1
102
MATERIAL
148
0.0
149
0.0
149
0.0
 93
        0
 94
      127
282
     0
 72
     0
 77
     0
171
     0
175
     0
179
     0
273
     0
  0
XRECORD
  5
C47
102
{ACAD_REACTORS
330
C45
102
}
330
C45
100
AcDbXrecord
280
     1
270
     1
271
     1
  0
XRECORD
  5
C46
102
{ACAD_REACTORS
330
C45
102
}
330
C45
100
AcDbXrecord
280
     1
270
     1
271
     1
  0
XRECORD
  5
C4A
102
{ACAD_REACTORS
330
C45
102
}
330
C45
100
AcDbXrecord
280
     1
270
     1
271
     1
  0
XRECORD
  5
C49
102
{ACAD_REACTORS
330
C45
102
}
330
C45
100
AcDbXrecord
280
     1
270
     1
271
     1
  0
XRECORD
  5
C4B
102
{ACAD_REACTORS
330
C45
102
}
330
C45
100
AcDbXrecord
280
     1
270
     1
271
     1
  0
XRECORD
  5
C48
102
{ACAD_REACTORS
330
C45
102
}
330
C45
100
AcDbXrecord
280
     1
270
     1
271
     1
  0
XRECORD
  5
D2E
102
{ACAD_REACTORS
330
C3D
102
}
330
C3D
100
AcDbXrecord
280
     1
102
MATERIAL
148
0.0
149
0.0
149
0.0
 93
        0
 94
      127
282
     0
 72
     0
 77
     0
171
     0
175
     0
179
     0
273
     0
  0
XRECORD
  5
C3F
102
{ACAD_REACTORS
330
C3D
102
}
330
C3D
100
AcDbXrecord
280
     1
270
     1
271
     1
  0
XRECORD
  5
C3E
102
{ACAD_REACTORS
330
C3D
102
}
330
C3D
100
AcDbXrecord
280
     1
270
     1
271
     1
  0
XRECORD
  5
C42
102
{ACAD_REACTORS
330
C3D
102
}
330
C3D
100
AcDbXrecord
280
     1
270
     1
271
     1
  0
XRECORD
  5
C41
102
{ACAD_REACTORS
330
C3D
102
}
330
C3D
100
AcDbXrecord
280
     1
270
     1
271
     1
  0
XRECORD
  5
C43
102
{ACAD_REACTORS
330
C3D
102
}
330
C3D
100
AcDbXrecord
280
     1
270
     1
271
     1
  0
XRECORD
  5
C40
102
{ACAD_REACTORS
330
C3D
102
}
330
C3D
100
AcDbXrecord
280
     1
270
     1
271
     1
  0
XRECORD
  5
D30
102
{ACAD_REACTORS
330
C4D
102
}
330
C4D
100
AcDbXrecord
280
     1
102
MATERIAL
148
0.0
149
0.0
149
0.0
 93
        0
 94
      127
282
     0
 72
     0
 77
     0
171
     0
175
     0
179
     0
273
     0
  0
XRECORD
  5
C4F
102
{ACAD_REACTORS
330
C4D
102
}
330
C4D
100
AcDbXrecord
280
     1
270
     1
271
     1
  0
XRECORD
  5
C4E
102
{ACAD_REACTORS
330
C4D
102
}
330
C4D
100
AcDbXrecord
280
     1
270
     1
271
     1
  0
XRECORD
  5
C52
102
{ACAD_REACTORS
330
C4D
102
}
330
C4D
100
AcDbXrecord
280
     1
270
     1
271
     1
  0
XRECORD
  5
C51
102
{ACAD_REACTORS
330
C4D
102
}
330
C4D
100
AcDbXrecord
280
     1
270
     1
271
     1
  0
XRECORD
  5
C53
102
{ACAD_REACTORS
330
C4D
102
}
330
C4D
100
AcDbXrecord
280
     1
270
     1
271
     1
  0
XRECORD
  5
C50
102
{ACAD_REACTORS
330
C4D
102
}
330
C4D
100
AcDbXrecord
280
     1
270
     1
271
     1
  0
XRECORD
  5
D64
102
{ACAD_REACTORS
330
D63
102
}
330
D63
100
AcDbXrecord
280
     1
102
ACAD_ROUNDTRIP_2012_MLEADER_STYLE
298
     1
  0
XRECORD
  5
D65
102
{ACAD_REACTORS
330
D11
102
}
330
D11
100
AcDbXrecord
280
     1
102
DISPLAYNAME
  1
Imperial24
102
FLAGS
 90
        0
  0
CELLSTYLEMAP
  5
D23
102
{ACAD_REACTORS
330
D0F
102
}
330
D0F
100
AcDbCellStyleMap
 90
        3
300
CELLSTYLE
  1
TABLEFORMAT_BEGIN
 90
        5
170
     1
 91
        0
 92
    32768
 62
   257
 93
        1
300
CONTENTFORMAT
  1
CONTENTFORMAT_BEGIN
 90
        0
 91
        0
 92
      512
 93
        0
300

 40
0.0
140
1.0
 94
        5
 62
     0
340
F
144
0.25
309
CONTENTFORMAT_END
171
     1
301
MARGIN
  1
CELLMARGIN_BEGIN
 40
0.06
 40
0.06
 40
0.06
 40
0.06
 40
0.18
 40
0.18
309
CELLMARGIN_END
 94
        6
 95
        1
302
GRIDFORMAT
  1
GRIDFORMAT_BEGIN
 90
        0
 91
        1
 62
     0
 92
       -2
340
0
 93
        0
 40
0.045
309
GRIDFORMAT_END
 95
        2
302
GRIDFORMAT
  1
GRIDFORMAT_BEGIN
 90
        0
 91
        1
 62
     0
 92
       -2
340
0
 93
        0
 40
0.045
309
GRIDFORMAT_END
 95
        4
302
GRIDFORMAT
  1
GRIDFORMAT_BEGIN
 90
        0
 91
        1
 62
     0
 92
       -2
340
0
 93
        0
 40
0.045
309
GRIDFORMAT_END
 95
        8
302
GRIDFORMAT
  1
GRIDFORMAT_BEGIN
 90
        0
 91
        1
 62
     0
 92
       -2
340
0
 93
        0
 40
0.045
309
GRIDFORMAT_END
 95
       16
302
GRIDFORMAT
  1
GRIDFORMAT_BEGIN
 90
        0
 91
        1
 62
     0
 92
       -2
340
0
 93
        0
 40
0.045
309
GRIDFORMAT_END
 95
       32
302
GRIDFORMAT
  1
GRIDFORMAT_BEGIN
 90
        0
 91
        1
 62
     0
 92
       -2
340
0
 93
        0
 40
0.045
309
GRIDFORMAT_END
309
TABLEFORMAT_END
  1
CELLSTYLE_BEGIN
 90
        1
 91
        1
300
_TITLE
309
CELLSTYLE_END
300
CELLSTYLE
  1
TABLEFORMAT_BEGIN
 90
        5
170
     1
 91
        0
 92
        0
 62
   257
 93
        1
300
CONTENTFORMAT
  1
CONTENTFORMAT_BEGIN
 90
        0
 91
        0
 92
      512
 93
        0
300

 40
0.0
140
1.0
 94
        5
 62
     0
340
F
144
0.18
309
CONTENTFORMAT_END
171
     1
301
MARGIN
  1
CELLMARGIN_BEGIN
 40
0.06
 40
0.06
 40
0.06
 40
0.06
 40
0.18
 40
0.18
309
CELLMARGIN_END
 94
        6
 95
        1
302
GRIDFORMAT
  1
GRIDFORMAT_BEGIN
 90
        0
 91
        1
 62
     0
 92
       -2
340
0
 93
        0
 40
0.045
309
GRIDFORMAT_END
 95
        2
302
GRIDFORMAT
  1
GRIDFORMAT_BEGIN
 90
        0
 91
        1
 62
     0
 92
       -2
340
0
 93
        0
 40
0.045
309
GRIDFORMAT_END
 95
        4
302
GRIDFORMAT
  1
GRIDFORMAT_BEGIN
 90
        0
 91
        1
 62
     0
 92
       -2
340
0
 93
        0
 40
0.045
309
GRIDFORMAT_END
 95
        8
302
GRIDFORMAT
  1
GRIDFORMAT_BEGIN
 90
        0
 91
        1
 62
     0
 92
       -2
340
0
 93
        0
 40
0.045
309
GRIDFORMAT_END
 95
       16
302
GRIDFORMAT
  1
GRIDFORMAT_BEGIN
 90
        0
 91
        1
 62
     0
 92
       -2
340
0
 93
        0
 40
0.045
309
GRIDFORMAT_END
 95
       32
302
GRIDFORMAT
  1
GRIDFORMAT_BEGIN
 90
        0
 91
        1
 62
     0
 92
       -2
340
0
 93
        0
 40
0.045
309
GRIDFORMAT_END
309
TABLEFORMAT_END
  1
CELLSTYLE_BEGIN
 90
        2
 91
        1
300
_HEADER
309
CELLSTYLE_END
300
CELLSTYLE
  1
TABLEFORMAT_BEGIN
 90
        5
170
     1
 91
        0
 92
        0
 62
   257
 93
        1
300
CONTENTFORMAT
  1
CONTENTFORMAT_BEGIN
 90
        0
 91
        0
 92
      512
 93
        0
300

 40
0.0
140
1.0
 94
        2
 62
     0
340
F
144
0.18
309
CONTENTFORMAT_END
171
     1
301
MARGIN
  1
CELLMARGIN_BEGIN
 40
0.06
 40
0.06
 40
0.06
 40
0.06
 40
0.18
 40
0.18
309
CELLMARGIN_END
 94
        6
 95
        1
302
GRIDFORMAT
  1
GRIDFORMAT_BEGIN
 90
        0
 91
        1
 62
     0
 92
       -2
340
0
 93
        0
 40
0.045
309
GRIDFORMAT_END
 95
        2
302
GRIDFORMAT
  1
GRIDFORMAT_BEGIN
 90
        0
 91
        1
 62
     0
 92
       -2
340
0
 93
        0
 40
0.045
309
GRIDFORMAT_END
 95
        4
302
GRIDFORMAT
  1
GRIDFORMAT_BEGIN
 90
        0
 91
        1
 62
     0
 92
       -2
340
0
 93
        0
 40
0.045
309
GRIDFORMAT_END
 95
        8
302
GRIDFORMAT
  1
GRIDFORMAT_BEGIN
 90
        0
 91
        1
 62
     0
 92
       -2
340
0
 93
        0
 40
0.045
309
GRIDFORMAT_END
 95
       16
302
GRIDFORMAT
  1
GRIDFORMAT_BEGIN
 90
        0
 91
        1
 62
     0
 92
       -2
340
0
 93
        0
 40
0.045
309
GRIDFORMAT_END
 95
       32
302
GRIDFORMAT
  1
GRIDFORMAT_BEGIN
 90
        0
 91
        1
 62
     0
 92
       -2
340
0
 93
        0
 40
0.045
309
GRIDFORMAT_END
309
TABLEFORMAT_END
  1
CELLSTYLE_BEGIN
 90
        3
 91
        2
300
_DATA
309
CELLSTYLE_END
  0
XRECORD
  5
D61
102
{ACAD_REACTORS
330
D0F
102
}
330
D0F
100
AcDbXrecord
280
     1
102
ACAD_ROUNDTRIP_PRE2007_TABLESTYLE
 90
      512
 91
        0
  1

 92
      512
 93
        0
  2

 94
      512
 95
        0
  3

  0
XRECORD
  5
D3C
102
{ACAD_REACTORS
330
D3B
102
}
330
D3B
100
AcDbXrecord
280
     1
102
RTVSPost2010Prop28
280
     1
102
RTVSPost2010PropOp28
 70
     1
102
RTVSPost2010Prop29
280
     1
102
RTVSPost2010PropOp29
 70
     1
102
RTVSPost2010Prop30
280
     0
102
RTVSPost2010PropOp30
 70
     1
102
RTVSPost2010Prop31
280
     0
102
RTVSPost2010PropOp31
 70
     1
102
RTVSPost2010Prop32
280
     0
102
RTVSPost2010PropOp32
 70
     1
102
RTVSPost2010Prop33
280
     0
102
RTVSPost2010PropOp33
 70
     1
102
RTVSPost2010Prop34
280
     0
102
RTVSPost2010PropOp34
 70
     1
102
RTVSPost2010Prop35
280
     0
102
RTVSPost2010PropOp35
 70
     1
102
RTVSPost2010Prop36
280
     0
102
RTVSPost2010PropOp36
 70
     1
102
RTVSPost2010Prop37
 90
       50
102
RTVSPost2010PropOp37
 70
     1
102
RTVSPost2010Prop38
140
0.0
102
RTVSPost2010PropOp38
 70
     1
102
RTVSPost2010Prop39
140
1.0
102
RTVSPost2010PropOp39
 70
     1
102
RTVSPost2010Prop40
 90
        0
102
RTVSPost2010PropOp40
 70
     1
102
RTVSPost2010Prop41ColorIndex
 90
       18
102
RTVSPost2010Prop41ColorRGB
 90
-16777216
102
RTVSPost2010PropOp41
 70
     1
102
RTVSPost2010Prop42
 90
       50
102
RTVSPost2010PropOp42
 70
     1
102
RTVSPost2010Prop43
 90
        3
102
RTVSPost2010PropOp43
 70
     1
102
RTVSPost2010Prop44ColorIndex
 90
        5
102
RTVSPost2010Prop44ColorRGB
 90
      255
102
RTVSPost2010PropOp44
 70
     1
102
RTVSPost2010Prop45
280
     0
102
RTVSPost2010PropOp45
 70
     1
102
RTVSPost2010Prop46
 90
       50
102
RTVSPost2010PropOp46
 70
     1
102
RTVSPost2010Prop47
 90
       50
102
RTVSPost2010PropOp47
 70
     1
102
RTVSPost2010Prop48
 90
       50
102
RTVSPost2010PropOp48
 70
     1
102
RTVSPost2010Prop49
280
     0
102
RTVSPost2010PropOp49
 70
     1
102
RTVSPost2010Prop50
 90
       50
102
RTVSPost2010PropOp50
 70
     1
102
RTVSPost2010Prop51ColorIndex
 90
      256
102
RTVSPost2010Prop51ColorRGB
 90
-16777216
102
RTVSPost2010PropOp51
 70
     0
102
RTVSPost2010Prop52
140
1.0
102
RTVSPost2010PropOp52
 70
     0
102
RTVSPost2010Prop53
 90
        2
102
RTVSPost2010PropOp53
 70
     1
102
RTVSPost2010Prop54
  1
strokes_ogs.tif
102
RTVSPost2010PropOp54
 70
     1
102
RTVSPost2010Prop55
280
     0
102
RTVSPost2010PropOp55
 70
     1
102
RTVSPost2010Prop56
140
1.0
102
RTVSPost2010PropOp56
 70
     1
102
RTVSPost2010Prop57
140
1.0
102
RTVSPost2010PropOp57
 70
     1
102
RTVSPropertyOp0
 70
     1
102
RTVSPropertyOp1
 70
     1
102
RTVSPropertyOp2
 70
     1
102
RTVSPropertyOp3
 70
     1
102
RTVSPropertyOp4
 70
     1
102
RTVSPropertyOp5
 70
     1
102
RTVSPropertyOp6
 70
     1
102
RTVSPropertyOp7
 70
     1
102
RTVSPropertyOp8
 70
     1
102
RTVSPropertyOp9
 70
     1
102
RTVSPropertyOp10
 70
     1
102
RTVSPropertyOp11
 70
     1
102
RTVSPropertyOp12
 70
     1
102
RTVSPropertyOp13
 70
     1
102
RTVSPropertyOp14
 70
     1
102
RTVSPropertyOp15
 70
     1
102
RTVSPropertyOp16
 70
     1
102
RTVSPropertyOp17
 70
     1
102
RTVSPropertyOp18
 70
     1
102
RTVSPropertyOp19
 70
     1
102
RTVSPropertyOp20
 70
     1
102
RTVSPropertyOp21
 70
     1
102
RTVSPropertyOp22
 70
     1
102
RTVSPropertyOp23
 70
     1
102
RTVSPropertyOp24
 70
     1
102
RTVSPropertyOp25
 70
     1
102
RTVSPropertyOp26
 70
     1
102
RTVSPropertyOp27
 70
     1
102
RTVSPropertyOp28
 70
     1
102
RTVSPropertyOp29
 70
     1
102
RTVSPropertyOp30
 70
     1
102
RTVSPropertyOp31
 70
     1
102
RTVSPropertyOp32
 70
     1
102
RTVSPropertyOp33
 70
     1
102
RTVSPropertyOp34
 70
     1
102
RTVSPropertyOp35
 70
     1
102
RTVSPropertyOp36
 70
     1
102
RTVSPropertyOp37
 70
     1
102
RTVSPropertyOp38
 70
     1
102
RTVSPropertyOp39
 70
     1
102
RTVSPropertyOp40
 70
     1
102
RTVSPropertyOp41
 70
     1
102
RTVSPropertyOp42
 70
     1
102
RTVSPropertyOp43
 70
     1
102
RTVSPropertyOp44
 70
     1
102
RTVSPropertyOp45
 70
     1
102
RTVSPropertyOp46
 70
     1
102
RTVSPropertyOp47
 70
     1
102
RTVSPropertyOp48
 70
     1
102
RTVSPropertyOp49
 70
     1
102
RTVSPropertyOp50
 70
     1
102
RTVSPropertyOp51
 70
     0
102
RTVSPropertyOp52
 70
     0
102
RTVSPropertyOp53
 70
     1
102
RTVSPropertyOp54
 70
     1
102
RTVSPropertyOp55
 70
     1
102
RTVSPropertyOp56
 70
     1
102
RTVSPropertyOp57
 70
     1
102
RTVSPropertyOp58
 70
     1
102
RTVSPropertyOp59
 70
     1
102
RTVSPropertyOp60
 70
     1
102
RTVSPropertyOp61
 70
     1
102
RTVSPropertyOp62
 70
     1
  0
XRECORD
  5
D3A
102
{ACAD_REACTORS
330
D39
102
}
330
D39
100
AcDbXrecord
280
     1
102
RTVSPost2010Prop28
280
     0
102
RTVSPost2010PropOp28
 70
     1
102
RTVSPost2010Prop29
280
     1
102
RTVSPost2010PropOp29
 70
     1
102
RTVSPost2010Prop30
280
     1
102
RTVSPost2010PropOp30
 70
     1
102
RTVSPost2010Prop31
280
     0
102
RTVSPost2010PropOp31
 70
     1
102
RTVSPost2010Prop32
280
     0
102
RTVSPost2010PropOp32
 70
     1
102
RTVSPost2010Prop33
280
     0
102
RTVSPost2010PropOp33
 70
     1
102
RTVSPost2010Prop34
280
     0
102
RTVSPost2010PropOp34
 70
     1
102
RTVSPost2010Prop35
280
     0
102
RTVSPost2010PropOp35
 70
     1
102
RTVSPost2010Prop36
280
     0
102
RTVSPost2010PropOp36
 70
     1
102
RTVSPost2010Prop37
 90
       50
102
RTVSPost2010PropOp37
 70
     1
102
RTVSPost2010Prop38
140
0.0
102
RTVSPost2010PropOp38
 70
     1
102
RTVSPost2010Prop39
140
1.0
102
RTVSPost2010PropOp39
 70
     1
102
RTVSPost2010Prop40
 90
        0
102
RTVSPost2010PropOp40
 70
     1
102
RTVSPost2010Prop41ColorIndex
 90
       18
102
RTVSPost2010Prop41ColorRGB
 90
-16777216
102
RTVSPost2010PropOp41
 70
     1
102
RTVSPost2010Prop42
 90
       50
102
RTVSPost2010PropOp42
 70
     1
102
RTVSPost2010Prop43
 90
        3
102
RTVSPost2010PropOp43
 70
     1
102
RTVSPost2010Prop44ColorIndex
 90
        5
102
RTVSPost2010Prop44ColorRGB
 90
      255
102
RTVSPost2010PropOp44
 70
     1
102
RTVSPost2010Prop45
280
     0
102
RTVSPost2010PropOp45
 70
     1
102
RTVSPost2010Prop46
 90
       50
102
RTVSPost2010PropOp46
 70
     1
102
RTVSPost2010Prop47
 90
       50
102
RTVSPost2010PropOp47
 70
     1
102
RTVSPost2010Prop48
 90
       50
102
RTVSPost2010PropOp48
 70
     1
102
RTVSPost2010Prop49
280
     0
102
RTVSPost2010PropOp49
 70
     1
102
RTVSPost2010Prop50
 90
       50
102
RTVSPost2010PropOp50
 70
     1
102
RTVSPost2010Prop51ColorIndex
 90
      256
102
RTVSPost2010Prop51ColorRGB
 90
-16777216
102
RTVSPost2010PropOp51
 70
     0
102
RTVSPost2010Prop52
140
1.0
102
RTVSPost2010PropOp52
 70
     0
102
RTVSPost2010Prop53
 90
        2
102
RTVSPost2010PropOp53
 70
     1
102
RTVSPost2010Prop54
  1
strokes_ogs.tif
102
RTVSPost2010PropOp54
 70
     1
102
RTVSPost2010Prop55
280
     0
102
RTVSPost2010PropOp55
 70
     1
102
RTVSPost2010Prop56
140
1.0
102
RTVSPost2010PropOp56
 70
     1
102
RTVSPost2010Prop57
140
1.0
102
RTVSPost2010PropOp57
 70
     1
102
RTVSPropertyOp0
 70
     1
102
RTVSPropertyOp1
 70
     1
102
RTVSPropertyOp2
 70
     1
102
RTVSPropertyOp3
 70
     1
102
RTVSPropertyOp4
 70
     1
102
RTVSPropertyOp5
 70
     1
102
RTVSPropertyOp6
 70
     1
102
RTVSPropertyOp7
 70
     1
102
RTVSPropertyOp8
 70
     1
102
RTVSPropertyOp9
 70
     1
102
RTVSPropertyOp10
 70
     1
102
RTVSPropertyOp11
 70
     1
102
RTVSPropertyOp12
 70
     1
102
RTVSPropertyOp13
 70
     1
102
RTVSPropertyOp14
 70
     1
102
RTVSPropertyOp15
 70
     1
102
RTVSPropertyOp16
 70
     1
102
RTVSPropertyOp17
 70
     1
102
RTVSPropertyOp18
 70
     1
102
RTVSPropertyOp19
 70
     1
102
RTVSPropertyOp20
 70
     1
102
RTVSPropertyOp21
 70
     1
102
RTVSPropertyOp22
 70
     1
102
RTVSPropertyOp23
 70
     1
102
RTVSPropertyOp24
 70
     1
102
RTVSPropertyOp25
 70
     1
102
RTVSPropertyOp26
 70
     1
102
RTVSPropertyOp27
 70
     1
102
RTVSPropertyOp28
 70
     1
102
RTVSPropertyOp29
 70
     1
102
RTVSPropertyOp30
 70
     1
102
RTVSPropertyOp31
 70
     1
102
RTVSPropertyOp32
 70
     1
102
RTVSPropertyOp33
 70
     1
102
RTVSPropertyOp34
 70
     1
102
RTVSPropertyOp35
 70
     1
102
RTVSPropertyOp36
 70
     1
102
RTVSPropertyOp37
 70
     1
102
RTVSPropertyOp38
 70
     1
102
RTVSPropertyOp39
 70
     1
102
RTVSPropertyOp40
 70
     1
102
RTVSPropertyOp41
 70
     1
102
RTVSPropertyOp42
 70
     1
102
RTVSPropertyOp43
 70
     1
102
RTVSPropertyOp44
 70
     1
102
RTVSPropertyOp45
 70
     1
102
RTVSPropertyOp46
 70
     1
102
RTVSPropertyOp47
 70
     1
102
RTVSPropertyOp48
 70
     1
102
RTVSPropertyOp49
 70
     1
102
RTVSPropertyOp50
 70
     1
102
RTVSPropertyOp51
 70
     0
102
RTVSPropertyOp52
 70
     0
102
RTVSPropertyOp53
 70
     1
102
RTVSPropertyOp54
 70
     1
102
RTVSPropertyOp55
 70
     1
102
RTVSPropertyOp56
 70
     1
102
RTVSPropertyOp57
 70
     1
102
RTVSPropertyOp58
 70
     1
102
RTVSPropertyOp59
 70
     1
102
RTVSPropertyOp60
 70
     1
102
RTVSPropertyOp61
 70
     1
102
RTVSPropertyOp62
 70
     1
  0
XRECORD
  5
D48
102
{ACAD_REACTORS
330
D47
102
}
330
D47
100
AcDbXrecord
280
     1
102
RTVSPost2010Prop28
280
     0
102
RTVSPost2010PropOp28
 70
     1
102
RTVSPost2010Prop29
280
     1
102
RTVSPost2010PropOp29
 70
     1
102
RTVSPost2010Prop30
280
     1
102
RTVSPost2010PropOp30
 70
     1
102
RTVSPost2010Prop31
280
     0
102
RTVSPost2010PropOp31
 70
     1
102
RTVSPost2010Prop32
280
     0
102
RTVSPost2010PropOp32
 70
     1
102
RTVSPost2010Prop33
280
     0
102
RTVSPost2010PropOp33
 70
     1
102
RTVSPost2010Prop34
280
     0
102
RTVSPost2010PropOp34
 70
     1
102
RTVSPost2010Prop35
280
     0
102
RTVSPost2010PropOp35
 70
     1
102
RTVSPost2010Prop36
280
     0
102
RTVSPost2010PropOp36
 70
     1
102
RTVSPost2010Prop37
 90
       50
102
RTVSPost2010PropOp37
 70
     1
102
RTVSPost2010Prop38
140
0.0
102
RTVSPost2010PropOp38
 70
     1
102
RTVSPost2010Prop39
140
1.0
102
RTVSPost2010PropOp39
 70
     1
102
RTVSPost2010Prop40
 90
        0
102
RTVSPost2010PropOp40
 70
     1
102
RTVSPost2010Prop41ColorIndex
 90
       18
102
RTVSPost2010Prop41ColorRGB
 90
-16777216
102
RTVSPost2010PropOp41
 70
     1
102
RTVSPost2010Prop42
 90
       50
102
RTVSPost2010PropOp42
 70
     1
102
RTVSPost2010Prop43
 90
        3
102
RTVSPost2010PropOp43
 70
     1
102
RTVSPost2010Prop44ColorIndex
 90
        5
102
RTVSPost2010Prop44ColorRGB
 90
      255
102
RTVSPost2010PropOp44
 70
     1
102
RTVSPost2010Prop45
280
     0
102
RTVSPost2010PropOp45
 70
     1
102
RTVSPost2010Prop46
 90
       50
102
RTVSPost2010PropOp46
 70
     1
102
RTVSPost2010Prop47
 90
       50
102
RTVSPost2010PropOp47
 70
     1
102
RTVSPost2010Prop48
 90
       50
102
RTVSPost2010PropOp48
 70
     1
102
RTVSPost2010Prop49
280
     0
102
RTVSPost2010PropOp49
 70
     1
102
RTVSPost2010Prop50
 90
       50
102
RTVSPost2010PropOp50
 70
     1
102
RTVSPost2010Prop51ColorIndex
 90
      256
102
RTVSPost2010Prop51ColorRGB
 90
-16777216
102
RTVSPost2010PropOp51
 70
     0
102
RTVSPost2010Prop52
140
1.0
102
RTVSPost2010PropOp52
 70
     0
102
RTVSPost2010Prop53
 90
        2
102
RTVSPost2010PropOp53
 70
     1
102
RTVSPost2010Prop54
  1
strokes_ogs.tif
102
RTVSPost2010PropOp54
 70
     1
102
RTVSPost2010Prop55
280
     0
102
RTVSPost2010PropOp55
 70
     1
102
RTVSPost2010Prop56
140
1.0
102
RTVSPost2010PropOp56
 70
     1
102
RTVSPost2010Prop57
140
1.0
102
RTVSPost2010PropOp57
 70
     1
102
RTVSPropertyOp0
 70
     1
102
RTVSPropertyOp1
 70
     1
102
RTVSPropertyOp2
 70
     1
102
RTVSPropertyOp3
 70
     1
102
RTVSPropertyOp4
 70
     1
102
RTVSPropertyOp5
 70
     1
102
RTVSPropertyOp6
 70
     1
102
RTVSPropertyOp7
 70
     1
102
RTVSPropertyOp8
 70
     1
102
RTVSPropertyOp9
 70
     1
102
RTVSPropertyOp10
 70
     1
102
RTVSPropertyOp11
 70
     1
102
RTVSPropertyOp12
 70
     1
102
RTVSPropertyOp13
 70
     1
102
RTVSPropertyOp14
 70
     1
102
RTVSPropertyOp15
 70
     1
102
RTVSPropertyOp16
 70
     1
102
RTVSPropertyOp17
 70
     1
102
RTVSPropertyOp18
 70
     1
102
RTVSPropertyOp19
 70
     1
102
RTVSPropertyOp20
 70
     1
102
RTVSPropertyOp21
 70
     1
102
RTVSPropertyOp22
 70
     1
102
RTVSPropertyOp23
 70
     1
102
RTVSPropertyOp24
 70
     1
102
RTVSPropertyOp25
 70
     1
102
RTVSPropertyOp26
 70
     1
102
RTVSPropertyOp27
 70
     1
102
RTVSPropertyOp28
 70
     1
102
RTVSPropertyOp29
 70
     1
102
RTVSPropertyOp30
 70
     1
102
RTVSPropertyOp31
 70
     1
102
RTVSPropertyOp32
 70
     1
102
RTVSPropertyOp33
 70
     1
102
RTVSPropertyOp34
 70
     1
102
RTVSPropertyOp35
 70
     1
102
RTVSPropertyOp36
 70
     1
102
RTVSPropertyOp37
 70
     1
102
RTVSPropertyOp38
 70
     1
102
RTVSPropertyOp39
 70
     1
102
RTVSPropertyOp40
 70
     1
102
RTVSPropertyOp41
 70
     1
102
RTVSPropertyOp42
 70
     1
102
RTVSPropertyOp43
 70
     1
102
RTVSPropertyOp44
 70
     1
102
RTVSPropertyOp45
 70
     1
102
RTVSPropertyOp46
 70
     1
102
RTVSPropertyOp47
 70
     1
102
RTVSPropertyOp48
 70
     1
102
RTVSPropertyOp49
 70
     1
102
RTVSPropertyOp50
 70
     1
102
RTVSPropertyOp51
 70
     0
102
RTVSPropertyOp52
 70
     0
102
RTVSPropertyOp53
 70
     1
102
RTVSPropertyOp54
 70
     1
102
RTVSPropertyOp55
 70
     1
102
RTVSPropertyOp56
 70
     1
102
RTVSPropertyOp57
 70
     1
102
RTVSPropertyOp58
 70
     1
102
RTVSPropertyOp59
 70
     1
102
RTVSPropertyOp60
 70
     1
102
RTVSPropertyOp61
 70
     1
102
RTVSPropertyOp62
 70
     1
  0
XRECORD
  5
D50
102
{ACAD_REACTORS
330
D4F
102
}
330
D4F
100
AcDbXrecord
280
     1
102
RTVSPost2010Prop28
280
     0
102
RTVSPost2010PropOp28
 70
     1
102
RTVSPost2010Prop29
280
     1
102
RTVSPost2010PropOp29
 70
     1
102
RTVSPost2010Prop30
280
     1
102
RTVSPost2010PropOp30
 70
     1
102
RTVSPost2010Prop31
280
     0
102
RTVSPost2010PropOp31
 70
     1
102
RTVSPost2010Prop32
280
     0
102
RTVSPost2010PropOp32
 70
     1
102
RTVSPost2010Prop33
280
     0
102
RTVSPost2010PropOp33
 70
     1
102
RTVSPost2010Prop34
280
     0
102
RTVSPost2010PropOp34
 70
     1
102
RTVSPost2010Prop35
280
     0
102
RTVSPost2010PropOp35
 70
     1
102
RTVSPost2010Prop36
280
     0
102
RTVSPost2010PropOp36
 70
     1
102
RTVSPost2010Prop37
 90
       50
102
RTVSPost2010PropOp37
 70
     1
102
RTVSPost2010Prop38
140
0.0
102
RTVSPost2010PropOp38
 70
     1
102
RTVSPost2010Prop39
140
1.0
102
RTVSPost2010PropOp39
 70
     1
102
RTVSPost2010Prop40
 90
        0
102
RTVSPost2010PropOp40
 70
     1
102
RTVSPost2010Prop41ColorIndex
 90
       18
102
RTVSPost2010Prop41ColorRGB
 90
-16777216
102
RTVSPost2010PropOp41
 70
     1
102
RTVSPost2010Prop42
 90
       50
102
RTVSPost2010PropOp42
 70
     1
102
RTVSPost2010Prop43
 90
        3
102
RTVSPost2010PropOp43
 70
     1
102
RTVSPost2010Prop44ColorIndex
 90
        5
102
RTVSPost2010Prop44ColorRGB
 90
      255
102
RTVSPost2010PropOp44
 70
     1
102
RTVSPost2010Prop45
280
     0
102
RTVSPost2010PropOp45
 70
     1
102
RTVSPost2010Prop46
 90
       50
102
RTVSPost2010PropOp46
 70
     1
102
RTVSPost2010Prop47
 90
       50
102
RTVSPost2010PropOp47
 70
     1
102
RTVSPost2010Prop48
 90
       50
102
RTVSPost2010PropOp48
 70
     1
102
RTVSPost2010Prop49
280
     0
102
RTVSPost2010PropOp49
 70
     1
102
RTVSPost2010Prop50
 90
       50
102
RTVSPost2010PropOp50
 70
     1
102
RTVSPost2010Prop51ColorIndex
 90
      256
102
RTVSPost2010Prop51ColorRGB
 90
-16777216
102
RTVSPost2010PropOp51
 70
     0
102
RTVSPost2010Prop52
140
1.0
102
RTVSPost2010PropOp52
 70
     0
102
RTVSPost2010Prop53
 90
        2
102
RTVSPost2010PropOp53
 70
     1
102
RTVSPost2010Prop54
  1
strokes_ogs.tif
102
RTVSPost2010PropOp54
 70
     1
102
RTVSPost2010Prop55
280
     0
102
RTVSPost2010PropOp55
 70
     1
102
RTVSPost2010Prop56
140
1.0
102
RTVSPost2010PropOp56
 70
     1
102
RTVSPost2010Prop57
140
1.0
102
RTVSPost2010PropOp57
 70
     1
102
RTVSPropertyOp0
 70
     1
102
RTVSPropertyOp1
 70
     1
102
RTVSPropertyOp2
 70
     1
102
RTVSPropertyOp3
 70
     1
102
RTVSPropertyOp4
 70
     1
102
RTVSPropertyOp5
 70
     1
102
RTVSPropertyOp6
 70
     1
102
RTVSPropertyOp7
 70
     1
102
RTVSPropertyOp8
 70
     1
102
RTVSPropertyOp9
 70
     1
102
RTVSPropertyOp10
 70
     1
102
RTVSPropertyOp11
 70
     1
102
RTVSPropertyOp12
 70
     1
102
RTVSPropertyOp13
 70
     1
102
RTVSPropertyOp14
 70
     1
102
RTVSPropertyOp15
 70
     1
102
RTVSPropertyOp16
 70
     1
102
RTVSPropertyOp17
 70
     1
102
RTVSPropertyOp18
 70
     1
102
RTVSPropertyOp19
 70
     1
102
RTVSPropertyOp20
 70
     1
102
RTVSPropertyOp21
 70
     1
102
RTVSPropertyOp22
 70
     1
102
RTVSPropertyOp23
 70
     1
102
RTVSPropertyOp24
 70
     1
102
RTVSPropertyOp25
 70
     1
102
RTVSPropertyOp26
 70
     1
102
RTVSPropertyOp27
 70
     1
102
RTVSPropertyOp28
 70
     1
102
RTVSPropertyOp29
 70
     1
102
RTVSPropertyOp30
 70
     1
102
RTVSPropertyOp31
 70
     1
102
RTVSPropertyOp32
 70
     1
102
RTVSPropertyOp33
 70
     1
102
RTVSPropertyOp34
 70
     1
102
RTVSPropertyOp35
 70
     1
102
RTVSPropertyOp36
 70
     1
102
RTVSPropertyOp37
 70
     1
102
RTVSPropertyOp38
 70
     1
102
RTVSPropertyOp39
 70
     1
102
RTVSPropertyOp40
 70
     1
102
RTVSPropertyOp41
 70
     1
102
RTVSPropertyOp42
 70
     1
102
RTVSPropertyOp43
 70
     1
102
RTVSPropertyOp44
 70
     1
102
RTVSPropertyOp45
 70
     1
102
RTVSPropertyOp46
 70
     1
102
RTVSPropertyOp47
 70
     1
102
RTVSPropertyOp48
 70
     1
102
RTVSPropertyOp49
 70
     1
102
RTVSPropertyOp50
 70
     1
102
RTVSPropertyOp51
 70
     0
102
RTVSPropertyOp52
 70
     0
102
RTVSPropertyOp53
 70
     1
102
RTVSPropertyOp54
 70
     1
102
RTVSPropertyOp55
 70
     1
102
RTVSPropertyOp56
 70
     1
102
RTVSPropertyOp57
 70
     1
102
RTVSPropertyOp58
 70
     1
102
RTVSPropertyOp59
 70
     1
102
RTVSPropertyOp60
 70
     1
102
RTVSPropertyOp61
 70
     1
102
RTVSPropertyOp62
 70
     1
  0
XRECORD
  5
D42
102
{ACAD_REACTORS
330
D41
102
}
330
D41
100
AcDbXrecord
280
     1
102
RTVSPost2010Prop28
280
     0
102
RTVSPost2010PropOp28
 70
     1
102
RTVSPost2010Prop29
280
     1
102
RTVSPost2010PropOp29
 70
     1
102
RTVSPost2010Prop30
280
     1
102
RTVSPost2010PropOp30
 70
     1
102
RTVSPost2010Prop31
280
     0
102
RTVSPost2010PropOp31
 70
     1
102
RTVSPost2010Prop32
280
     0
102
RTVSPost2010PropOp32
 70
     1
102
RTVSPost2010Prop33
280
     0
102
RTVSPost2010PropOp33
 70
     1
102
RTVSPost2010Prop34
280
     0
102
RTVSPost2010PropOp34
 70
     1
102
RTVSPost2010Prop35
280
     0
102
RTVSPost2010PropOp35
 70
     1
102
RTVSPost2010Prop36
280
     0
102
RTVSPost2010PropOp36
 70
     1
102
RTVSPost2010Prop37
 90
       50
102
RTVSPost2010PropOp37
 70
     1
102
RTVSPost2010Prop38
140
0.0
102
RTVSPost2010PropOp38
 70
     1
102
RTVSPost2010Prop39
140
1.0
102
RTVSPost2010PropOp39
 70
     1
102
RTVSPost2010Prop40
 90
        0
102
RTVSPost2010PropOp40
 70
     1
102
RTVSPost2010Prop41ColorIndex
 90
       18
102
RTVSPost2010Prop41ColorRGB
 90
-16777216
102
RTVSPost2010PropOp41
 70
     1
102
RTVSPost2010Prop42
 90
       50
102
RTVSPost2010PropOp42
 70
     1
102
RTVSPost2010Prop43
 90
        3
102
RTVSPost2010PropOp43
 70
     1
102
RTVSPost2010Prop44ColorIndex
 90
        5
102
RTVSPost2010Prop44ColorRGB
 90
      255
102
RTVSPost2010PropOp44
 70
     1
102
RTVSPost2010Prop45
280
     0
102
RTVSPost2010PropOp45
 70
     1
102
RTVSPost2010Prop46
 90
       50
102
RTVSPost2010PropOp46
 70
     1
102
RTVSPost2010Prop47
 90
       50
102
RTVSPost2010PropOp47
 70
     1
102
RTVSPost2010Prop48
 90
       50
102
RTVSPost2010PropOp48
 70
     1
102
RTVSPost2010Prop49
280
     0
102
RTVSPost2010PropOp49
 70
     1
102
RTVSPost2010Prop50
 90
       50
102
RTVSPost2010PropOp50
 70
     1
102
RTVSPost2010Prop51ColorIndex
 90
      256
102
RTVSPost2010Prop51ColorRGB
 90
-16777216
102
RTVSPost2010PropOp51
 70
     0
102
RTVSPost2010Prop52
140
1.0
102
RTVSPost2010PropOp52
 70
     0
102
RTVSPost2010Prop53
 90
        2
102
RTVSPost2010PropOp53
 70
     1
102
RTVSPost2010Prop54
  1
strokes_ogs.tif
102
RTVSPost2010PropOp54
 70
     1
102
RTVSPost2010Prop55
280
     0
102
RTVSPost2010PropOp55
 70
     1
102
RTVSPost2010Prop56
140
1.0
102
RTVSPost2010PropOp56
 70
     1
102
RTVSPost2010Prop57
140
1.0
102
RTVSPost2010PropOp57
 70
     1
102
RTVSPropertyOp0
 70
     1
102
RTVSPropertyOp1
 70
     1
102
RTVSPropertyOp2
 70
     1
102
RTVSPropertyOp3
 70
     1
102
RTVSPropertyOp4
 70
     1
102
RTVSPropertyOp5
 70
     1
102
RTVSPropertyOp6
 70
     1
102
RTVSPropertyOp7
 70
     1
102
RTVSPropertyOp8
 70
     1
102
RTVSPropertyOp9
 70
     1
102
RTVSPropertyOp10
 70
     1
102
RTVSPropertyOp11
 70
     1
102
RTVSPropertyOp12
 70
     1
102
RTVSPropertyOp13
 70
     1
102
RTVSPropertyOp14
 70
     1
102
RTVSPropertyOp15
 70
     1
102
RTVSPropertyOp16
 70
     1
102
RTVSPropertyOp17
 70
     1
102
RTVSPropertyOp18
 70
     1
102
RTVSPropertyOp19
 70
     1
102
RTVSPropertyOp20
 70
     1
102
RTVSPropertyOp21
 70
     1
102
RTVSPropertyOp22
 70
     1
102
RTVSPropertyOp23
 70
     1
102
RTVSPropertyOp24
 70
     1
102
RTVSPropertyOp25
 70
     1
102
RTVSPropertyOp26
 70
     1
102
RTVSPropertyOp27
 70
     1
102
RTVSPropertyOp28
 70
     1
102
RTVSPropertyOp29
 70
     1
102
RTVSPropertyOp30
 70
     1
102
RTVSPropertyOp31
 70
     1
102
RTVSPropertyOp32
 70
     1
102
RTVSPropertyOp33
 70
     1
102
RTVSPropertyOp34
 70
     1
102
RTVSPropertyOp35
 70
     1
102
RTVSPropertyOp36
 70
     1
102
RTVSPropertyOp37
 70
     1
102
RTVSPropertyOp38
 70
     1
102
RTVSPropertyOp39
 70
     1
102
RTVSPropertyOp40
 70
     1
102
RTVSPropertyOp41
 70
     1
102
RTVSPropertyOp42
 70
     1
102
RTVSPropertyOp43
 70
     1
102
RTVSPropertyOp44
 70
     1
102
RTVSPropertyOp45
 70
     1
102
RTVSPropertyOp46
 70
     1
102
RTVSPropertyOp47
 70
     1
102
RTVSPropertyOp48
 70
     1
102
RTVSPropertyOp49
 70
     1
102
RTVSPropertyOp50
 70
     1
102
RTVSPropertyOp51
 70
     0
102
RTVSPropertyOp52
 70
     0
102
RTVSPropertyOp53
 70
     1
102
RTVSPropertyOp54
 70
     1
102
RTVSPropertyOp55
 70
     1
102
RTVSPropertyOp56
 70
     1
102
RTVSPropertyOp57
 70
     1
102
RTVSPropertyOp58
 70
     1
102
RTVSPropertyOp59
 70
     1
102
RTVSPropertyOp60
 70
     1
102
RTVSPropertyOp61
 70
     1
102
RTVSPropertyOp62
 70
     1
  0
XRECORD
  5
D46
102
{ACAD_REACTORS
330
D45
102
}
330
D45
100
AcDbXrecord
280
     1
102
RTVSPost2010Prop28
280
     0
102
RTVSPost2010PropOp28
 70
     1
102
RTVSPost2010Prop29
280
     1
102
RTVSPost2010PropOp29
 70
     1
102
RTVSPost2010Prop30
280
     1
102
RTVSPost2010PropOp30
 70
     1
102
RTVSPost2010Prop31
280
     0
102
RTVSPost2010PropOp31
 70
     1
102
RTVSPost2010Prop32
280
     0
102
RTVSPost2010PropOp32
 70
     1
102
RTVSPost2010Prop33
280
     0
102
RTVSPost2010PropOp33
 70
     1
102
RTVSPost2010Prop34
280
     0
102
RTVSPost2010PropOp34
 70
     1
102
RTVSPost2010Prop35
280
     0
102
RTVSPost2010PropOp35
 70
     1
102
RTVSPost2010Prop36
280
     0
102
RTVSPost2010PropOp36
 70
     1
102
RTVSPost2010Prop37
 90
       50
102
RTVSPost2010PropOp37
 70
     1
102
RTVSPost2010Prop38
140
0.0
102
RTVSPost2010PropOp38
 70
     1
102
RTVSPost2010Prop39
140
1.0
102
RTVSPost2010PropOp39
 70
     1
102
RTVSPost2010Prop40
 90
        0
102
RTVSPost2010PropOp40
 70
     1
102
RTVSPost2010Prop41ColorIndex
 90
       18
102
RTVSPost2010Prop41ColorRGB
 90
-16777216
102
RTVSPost2010PropOp41
 70
     1
102
RTVSPost2010Prop42
 90
       50
102
RTVSPost2010PropOp42
 70
     1
102
RTVSPost2010Prop43
 90
        3
102
RTVSPost2010PropOp43
 70
     1
102
RTVSPost2010Prop44ColorIndex
 90
        5
102
RTVSPost2010Prop44ColorRGB
 90
      255
102
RTVSPost2010PropOp44
 70
     1
102
RTVSPost2010Prop45
280
     0
102
RTVSPost2010PropOp45
 70
     1
102
RTVSPost2010Prop46
 90
       50
102
RTVSPost2010PropOp46
 70
     1
102
RTVSPost2010Prop47
 90
       50
102
RTVSPost2010PropOp47
 70
     1
102
RTVSPost2010Prop48
 90
       50
102
RTVSPost2010PropOp48
 70
     1
102
RTVSPost2010Prop49
280
     0
102
RTVSPost2010PropOp49
 70
     1
102
RTVSPost2010Prop50
 90
       50
102
RTVSPost2010PropOp50
 70
     1
102
RTVSPost2010Prop51ColorIndex
 90
      256
102
RTVSPost2010Prop51ColorRGB
 90
-16777216
102
RTVSPost2010PropOp51
 70
     0
102
RTVSPost2010Prop52
140
1.0
102
RTVSPost2010PropOp52
 70
     0
102
RTVSPost2010Prop53
 90
        2
102
RTVSPost2010PropOp53
 70
     1
102
RTVSPost2010Prop54
  1
strokes_ogs.tif
102
RTVSPost2010PropOp54
 70
     1
102
RTVSPost2010Prop55
280
     0
102
RTVSPost2010PropOp55
 70
     1
102
RTVSPost2010Prop56
140
1.0
102
RTVSPost2010PropOp56
 70
     1
102
RTVSPost2010Prop57
140
1.0
102
RTVSPost2010PropOp57
 70
     1
102
RTVSPropertyOp0
 70
     1
102
RTVSPropertyOp1
 70
     1
102
RTVSPropertyOp2
 70
     1
102
RTVSPropertyOp3
 70
     1
102
RTVSPropertyOp4
 70
     1
102
RTVSPropertyOp5
 70
     1
102
RTVSPropertyOp6
 70
     1
102
RTVSPropertyOp7
 70
     1
102
RTVSPropertyOp8
 70
     1
102
RTVSPropertyOp9
 70
     1
102
RTVSPropertyOp10
 70
     1
102
RTVSPropertyOp11
 70
     1
102
RTVSPropertyOp12
 70
     1
102
RTVSPropertyOp13
 70
     1
102
RTVSPropertyOp14
 70
     1
102
RTVSPropertyOp15
 70
     1
102
RTVSPropertyOp16
 70
     1
102
RTVSPropertyOp17
 70
     1
102
RTVSPropertyOp18
 70
     1
102
RTVSPropertyOp19
 70
     1
102
RTVSPropertyOp20
 70
     1
102
RTVSPropertyOp21
 70
     1
102
RTVSPropertyOp22
 70
     1
102
RTVSPropertyOp23
 70
     1
102
RTVSPropertyOp24
 70
     1
102
RTVSPropertyOp25
 70
     1
102
RTVSPropertyOp26
 70
     1
102
RTVSPropertyOp27
 70
     1
102
RTVSPropertyOp28
 70
     1
102
RTVSPropertyOp29
 70
     1
102
RTVSPropertyOp30
 70
     1
102
RTVSPropertyOp31
 70
     1
102
RTVSPropertyOp32
 70
     1
102
RTVSPropertyOp33
 70
     1
102
RTVSPropertyOp34
 70
     1
102
RTVSPropertyOp35
 70
     1
102
RTVSPropertyOp36
 70
     1
102
RTVSPropertyOp37
 70
     1
102
RTVSPropertyOp38
 70
     1
102
RTVSPropertyOp39
 70
     1
102
RTVSPropertyOp40
 70
     1
102
RTVSPropertyOp41
 70
     1
102
RTVSPropertyOp42
 70
     1
102
RTVSPropertyOp43
 70
     1
102
RTVSPropertyOp44
 70
     1
102
RTVSPropertyOp45
 70
     1
102
RTVSPropertyOp46
 70
     1
102
RTVSPropertyOp47
 70
     1
102
RTVSPropertyOp48
 70
     1
102
RTVSPropertyOp49
 70
     1
102
RTVSPropertyOp50
 70
     1
102
RTVSPropertyOp51
 70
     0
102
RTVSPropertyOp52
 70
     0
102
RTVSPropertyOp53
 70
     1
102
RTVSPropertyOp54
 70
     1
102
RTVSPropertyOp55
 70
     1
102
RTVSPropertyOp56
 70
     1
102
RTVSPropertyOp57
 70
     1
102
RTVSPropertyOp58
 70
     1
102
RTVSPropertyOp59
 70
     1
102
RTVSPropertyOp60
 70
     1
102
RTVSPropertyOp61
 70
     1
102
RTVSPropertyOp62
 70
     1
  0
XRECORD
  5
D60
102
{ACAD_REACTORS
330
D5F
102
}
330
D5F
100
AcDbXrecord
280
     1
102
RTVSPost2010Prop28
280
     0
102
RTVSPost2010PropOp28
 70
     0
102
RTVSPost2010Prop29
280
     1
102
RTVSPost2010PropOp29
 70
     0
102
RTVSPost2010Prop30
280
     1
102
RTVSPost2010PropOp30
 70
     0
102
RTVSPost2010Prop31
280
     0
102
RTVSPost2010PropOp31
 70
     0
102
RTVSPost2010Prop32
280
     0
102
RTVSPost2010PropOp32
 70
     0
102
RTVSPost2010Prop33
280
     0
102
RTVSPost2010PropOp33
 70
     0
102
RTVSPost2010Prop34
280
     0
102
RTVSPost2010PropOp34
 70
     0
102
RTVSPost2010Prop35
280
     0
102
RTVSPost2010PropOp35
 70
     0
102
RTVSPost2010Prop36
280
     0
102
RTVSPost2010PropOp36
 70
     0
102
RTVSPost2010Prop37
 90
       50
102
RTVSPost2010PropOp37
 70
     0
102
RTVSPost2010Prop38
140
0.0
102
RTVSPost2010PropOp38
 70
     0
102
RTVSPost2010Prop39
140
1.0
102
RTVSPost2010PropOp39
 70
     0
102
RTVSPost2010Prop40
 90
        0
102
RTVSPost2010PropOp40
 70
     0
102
RTVSPost2010Prop41ColorIndex
 90
       18
102
RTVSPost2010Prop41ColorRGB
 90
-16777216
102
RTVSPost2010PropOp41
 70
     0
102
RTVSPost2010Prop42
 90
       50
102
RTVSPost2010PropOp42
 70
     0
102
RTVSPost2010Prop43
 90
        3
102
RTVSPost2010PropOp43
 70
     0
102
RTVSPost2010Prop44ColorIndex
 90
        5
102
RTVSPost2010Prop44ColorRGB
 90
      255
102
RTVSPost2010PropOp44
 70
     0
102
RTVSPost2010Prop45
280
     0
102
RTVSPost2010PropOp45
 70
     0
102
RTVSPost2010Prop46
 90
       50
102
RTVSPost2010PropOp46
 70
     0
102
RTVSPost2010Prop47
 90
       50
102
RTVSPost2010PropOp47
 70
     0
102
RTVSPost2010Prop48
 90
       50
102
RTVSPost2010PropOp48
 70
     0
102
RTVSPost2010Prop49
280
     0
102
RTVSPost2010PropOp49
 70
     0
102
RTVSPost2010Prop50
 90
       50
102
RTVSPost2010PropOp50
 70
     0
102
RTVSPost2010Prop51ColorIndex
 90
      256
102
RTVSPost2010Prop51ColorRGB
 90
-16777216
102
RTVSPost2010PropOp51
 70
     0
102
RTVSPost2010Prop52
140
1.0
102
RTVSPost2010PropOp52
 70
     0
102
RTVSPost2010Prop53
 90
        2
102
RTVSPost2010PropOp53
 70
     0
102
RTVSPost2010Prop54
  1
strokes_ogs.tif
102
RTVSPost2010PropOp54
 70
     0
102
RTVSPost2010Prop55
280
     0
102
RTVSPost2010PropOp55
 70
     0
102
RTVSPost2010Prop56
140
1.0
102
RTVSPost2010PropOp56
 70
     0
102
RTVSPost2010Prop57
140
1.0
102
RTVSPost2010PropOp57
 70
     0
102
RTVSPropertyOp0
 70
     0
102
RTVSPropertyOp1
 70
     0
102
RTVSPropertyOp2
 70
     0
102
RTVSPropertyOp3
 70
     0
102
RTVSPropertyOp4
 70
     0
102
RTVSPropertyOp5
 70
     0
102
RTVSPropertyOp6
 70
     0
102
RTVSPropertyOp7
 70
     0
102
RTVSPropertyOp8
 70
     0
102
RTVSPropertyOp9
 70
     0
102
RTVSPropertyOp10
 70
     0
102
RTVSPropertyOp11
 70
     0
102
RTVSPropertyOp12
 70
     0
102
RTVSPropertyOp13
 70
     0
102
RTVSPropertyOp14
 70
     2
102
RTVSPropertyOp15
 70
     0
102
RTVSPropertyOp16
 70
     0
102
RTVSPropertyOp17
 70
     0
102
RTVSPropertyOp18
 70
     0
102
RTVSPropertyOp19
 70
     0
102
RTVSPropertyOp20
 70
     0
102
RTVSPropertyOp21
 70
     0
102
RTVSPropertyOp22
 70
     0
102
RTVSPropertyOp23
 70
     0
102
RTVSPropertyOp24
 70
     0
102
RTVSPropertyOp25
 70
     0
102
RTVSPropertyOp26
 70
     0
102
RTVSPropertyOp27
 70
     0
102
RTVSPropertyOp28
 70
     0
102
RTVSPropertyOp29
 70
     0
102
RTVSPropertyOp30
 70
     0
102
RTVSPropertyOp31
 70
     0
102
RTVSPropertyOp32
 70
     0
102
RTVSPropertyOp33
 70
     0
102
RTVSPropertyOp34
 70
     0
102
RTVSPropertyOp35
 70
     0
102
RTVSPropertyOp36
 70
     0
102
RTVSPropertyOp37
 70
     0
102
RTVSPropertyOp38
 70
     0
102
RTVSPropertyOp39
 70
     0
102
RTVSPropertyOp40
 70
     0
102
RTVSPropertyOp41
 70
     0
102
RTVSPropertyOp42
 70
     0
102
RTVSPropertyOp43
 70
     0
102
RTVSPropertyOp44
 70
     0
102
RTVSPropertyOp45
 70
     0
102
RTVSPropertyOp46
 70
     0
102
RTVSPropertyOp47
 70
     0
102
RTVSPropertyOp48
 70
     0
102
RTVSPropertyOp49
 70
     0
102
RTVSPropertyOp50
 70
     0
102
RTVSPropertyOp51
 70
     0
102
RTVSPropertyOp52
 70
     0
102
RTVSPropertyOp53
 70
     0
102
RTVSPropertyOp54
 70
     0
102
RTVSPropertyOp55
 70
     0
102
RTVSPropertyOp56
 70
     0
102
RTVSPropertyOp57
 70
     0
102
RTVSPropertyOp58
 70
     1
102
RTVSPropertyOp59
 70
     1
102
RTVSPropertyOp60
 70
     1
102
RTVSPropertyOp61
 70
     1
102
RTVSPropertyOp62
 70
     1
  0
XRECORD
  5
D4E
102
{ACAD_REACTORS
330
D4D
102
}
330
D4D
100
AcDbXrecord
280
     1
102
RTVSPost2010Prop28
280
     0
102
RTVSPost2010PropOp28
 70
     1
102
RTVSPost2010Prop29
280
     1
102
RTVSPost2010PropOp29
 70
     1
102
RTVSPost2010Prop30
280
     1
102
RTVSPost2010PropOp30
 70
     1
102
RTVSPost2010Prop31
280
     0
102
RTVSPost2010PropOp31
 70
     1
102
RTVSPost2010Prop32
280
     0
102
RTVSPost2010PropOp32
 70
     1
102
RTVSPost2010Prop33
280
     0
102
RTVSPost2010PropOp33
 70
     1
102
RTVSPost2010Prop34
280
     0
102
RTVSPost2010PropOp34
 70
     1
102
RTVSPost2010Prop35
280
     0
102
RTVSPost2010PropOp35
 70
     1
102
RTVSPost2010Prop36
280
     0
102
RTVSPost2010PropOp36
 70
     1
102
RTVSPost2010Prop37
 90
       50
102
RTVSPost2010PropOp37
 70
     1
102
RTVSPost2010Prop38
140
0.0
102
RTVSPost2010PropOp38
 70
     1
102
RTVSPost2010Prop39
140
1.0
102
RTVSPost2010PropOp39
 70
     1
102
RTVSPost2010Prop40
 90
        0
102
RTVSPost2010PropOp40
 70
     1
102
RTVSPost2010Prop41ColorIndex
 90
       18
102
RTVSPost2010Prop41ColorRGB
 90
-16777216
102
RTVSPost2010PropOp41
 70
     1
102
RTVSPost2010Prop42
 90
       50
102
RTVSPost2010PropOp42
 70
     1
102
RTVSPost2010Prop43
 90
        3
102
RTVSPost2010PropOp43
 70
     1
102
RTVSPost2010Prop44ColorIndex
 90
        5
102
RTVSPost2010Prop44ColorRGB
 90
      255
102
RTVSPost2010PropOp44
 70
     1
102
RTVSPost2010Prop45
280
     0
102
RTVSPost2010PropOp45
 70
     1
102
RTVSPost2010Prop46
 90
       50
102
RTVSPost2010PropOp46
 70
     1
102
RTVSPost2010Prop47
 90
       50
102
RTVSPost2010PropOp47
 70
     1
102
RTVSPost2010Prop48
 90
       50
102
RTVSPost2010PropOp48
 70
     1
102
RTVSPost2010Prop49
280
     0
102
RTVSPost2010PropOp49
 70
     1
102
RTVSPost2010Prop50
 90
       50
102
RTVSPost2010PropOp50
 70
     1
102
RTVSPost2010Prop51ColorIndex
 90
      256
102
RTVSPost2010Prop51ColorRGB
 90
-16777216
102
RTVSPost2010PropOp51
 70
     0
102
RTVSPost2010Prop52
140
1.0
102
RTVSPost2010PropOp52
 70
     0
102
RTVSPost2010Prop53
 90
        2
102
RTVSPost2010PropOp53
 70
     1
102
RTVSPost2010Prop54
  1
strokes_ogs.tif
102
RTVSPost2010PropOp54
 70
     1
102
RTVSPost2010Prop55
280
     0
102
RTVSPost2010PropOp55
 70
     1
102
RTVSPost2010Prop56
140
1.0
102
RTVSPost2010PropOp56
 70
     1
102
RTVSPost2010Prop57
140
1.0
102
RTVSPost2010PropOp57
 70
     1
102
RTVSPropertyOp0
 70
     1
102
RTVSPropertyOp1
 70
     1
102
RTVSPropertyOp2
 70
     1
102
RTVSPropertyOp3
 70
     1
102
RTVSPropertyOp4
 70
     1
102
RTVSPropertyOp5
 70
     1
102
RTVSPropertyOp6
 70
     1
102
RTVSPropertyOp7
 70
     1
102
RTVSPropertyOp8
 70
     1
102
RTVSPropertyOp9
 70
     1
102
RTVSPropertyOp10
 70
     1
102
RTVSPropertyOp11
 70
     1
102
RTVSPropertyOp12
 70
     1
102
RTVSPropertyOp13
 70
     1
102
RTVSPropertyOp14
 70
     1
102
RTVSPropertyOp15
 70
     1
102
RTVSPropertyOp16
 70
     1
102
RTVSPropertyOp17
 70
     1
102
RTVSPropertyOp18
 70
     1
102
RTVSPropertyOp19
 70
     1
102
RTVSPropertyOp20
 70
     1
102
RTVSPropertyOp21
 70
     1
102
RTVSPropertyOp22
 70
     1
102
RTVSPropertyOp23
 70
     1
102
RTVSPropertyOp24
 70
     1
102
RTVSPropertyOp25
 70
     1
102
RTVSPropertyOp26
 70
     1
102
RTVSPropertyOp27
 70
     1
102
RTVSPropertyOp28
 70
     1
102
RTVSPropertyOp29
 70
     1
102
RTVSPropertyOp30
 70
     1
102
RTVSPropertyOp31
 70
     1
102
RTVSPropertyOp32
 70
     1
102
RTVSPropertyOp33
 70
     1
102
RTVSPropertyOp34
 70
     1
102
RTVSPropertyOp35
 70
     1
102
RTVSPropertyOp36
 70
     1
102
RTVSPropertyOp37
 70
     1
102
RTVSPropertyOp38
 70
     1
102
RTVSPropertyOp39
 70
     1
102
RTVSPropertyOp40
 70
     1
102
RTVSPropertyOp41
 70
     1
102
RTVSPropertyOp42
 70
     1
102
RTVSPropertyOp43
 70
     1
102
RTVSPropertyOp44
 70
     1
102
RTVSPropertyOp45
 70
     1
102
RTVSPropertyOp46
 70
     1
102
RTVSPropertyOp47
 70
     1
102
RTVSPropertyOp48
 70
     1
102
RTVSPropertyOp49
 70
     1
102
RTVSPropertyOp50
 70
     1
102
RTVSPropertyOp51
 70
     0
102
RTVSPropertyOp52
 70
     0
102
RTVSPropertyOp53
 70
     1
102
RTVSPropertyOp54
 70
     1
102
RTVSPropertyOp55
 70
     1
102
RTVSPropertyOp56
 70
     1
102
RTVSPropertyOp57
 70
     1
102
RTVSPropertyOp58
 70
     1
102
RTVSPropertyOp59
 70
     1
102
RTVSPropertyOp60
 70
     1
102
RTVSPropertyOp61
 70
     1
102
RTVSPropertyOp62
 70
     1
  0
XRECORD
  5
D32
102
{ACAD_REACTORS
330
D31
102
}
330
D31
100
AcDbXrecord
280
     1
102
RTVSPost2010Prop28
280
     0
102
RTVSPost2010PropOp28
 70
     1
102
RTVSPost2010Prop29
280
     1
102
RTVSPost2010PropOp29
 70
     1
102
RTVSPost2010Prop30
280
     1
102
RTVSPost2010PropOp30
 70
     1
102
RTVSPost2010Prop31
280
     0
102
RTVSPost2010PropOp31
 70
     1
102
RTVSPost2010Prop32
280
     0
102
RTVSPost2010PropOp32
 70
     1
102
RTVSPost2010Prop33
280
     0
102
RTVSPost2010PropOp33
 70
     1
102
RTVSPost2010Prop34
280
     0
102
RTVSPost2010PropOp34
 70
     1
102
RTVSPost2010Prop35
280
     0
102
RTVSPost2010PropOp35
 70
     1
102
RTVSPost2010Prop36
280
     0
102
RTVSPost2010PropOp36
 70
     1
102
RTVSPost2010Prop37
 90
       50
102
RTVSPost2010PropOp37
 70
     1
102
RTVSPost2010Prop38
140
0.0
102
RTVSPost2010PropOp38
 70
     1
102
RTVSPost2010Prop39
140
1.0
102
RTVSPost2010PropOp39
 70
     1
102
RTVSPost2010Prop40
 90
        0
102
RTVSPost2010PropOp40
 70
     1
102
RTVSPost2010Prop41ColorIndex
 90
       18
102
RTVSPost2010Prop41ColorRGB
 90
-16777216
102
RTVSPost2010PropOp41
 70
     1
102
RTVSPost2010Prop42
 90
       50
102
RTVSPost2010PropOp42
 70
     1
102
RTVSPost2010Prop43
 90
        3
102
RTVSPost2010PropOp43
 70
     1
102
RTVSPost2010Prop44ColorIndex
 90
        5
102
RTVSPost2010Prop44ColorRGB
 90
      255
102
RTVSPost2010PropOp44
 70
     1
102
RTVSPost2010Prop45
280
     0
102
RTVSPost2010PropOp45
 70
     1
102
RTVSPost2010Prop46
 90
       50
102
RTVSPost2010PropOp46
 70
     1
102
RTVSPost2010Prop47
 90
       50
102
RTVSPost2010PropOp47
 70
     1
102
RTVSPost2010Prop48
 90
       50
102
RTVSPost2010PropOp48
 70
     1
102
RTVSPost2010Prop49
280
     0
102
RTVSPost2010PropOp49
 70
     1
102
RTVSPost2010Prop50
 90
       50
102
RTVSPost2010PropOp50
 70
     1
102
RTVSPost2010Prop51ColorIndex
 90
      256
102
RTVSPost2010Prop51ColorRGB
 90
-16777216
102
RTVSPost2010PropOp51
 70
     0
102
RTVSPost2010Prop52
140
1.0
102
RTVSPost2010PropOp52
 70
     0
102
RTVSPost2010Prop53
 90
        2
102
RTVSPost2010PropOp53
 70
     1
102
RTVSPost2010Prop54
  1
strokes_ogs.tif
102
RTVSPost2010PropOp54
 70
     1
102
RTVSPost2010Prop55
280
     0
102
RTVSPost2010PropOp55
 70
     1
102
RTVSPost2010Prop56
140
1.0
102
RTVSPost2010PropOp56
 70
     1
102
RTVSPost2010Prop57
140
1.0
102
RTVSPost2010PropOp57
 70
     1
102
RTVSPropertyOp0
 70
     1
102
RTVSPropertyOp1
 70
     1
102
RTVSPropertyOp2
 70
     1
102
RTVSPropertyOp3
 70
     1
102
RTVSPropertyOp4
 70
     1
102
RTVSPropertyOp5
 70
     1
102
RTVSPropertyOp6
 70
     1
102
RTVSPropertyOp7
 70
     1
102
RTVSPropertyOp8
 70
     1
102
RTVSPropertyOp9
 70
     1
102
RTVSPropertyOp10
 70
     1
102
RTVSPropertyOp11
 70
     1
102
RTVSPropertyOp12
 70
     1
102
RTVSPropertyOp13
 70
     1
102
RTVSPropertyOp14
 70
     1
102
RTVSPropertyOp15
 70
     1
102
RTVSPropertyOp16
 70
     1
102
RTVSPropertyOp17
 70
     1
102
RTVSPropertyOp18
 70
     1
102
RTVSPropertyOp19
 70
     1
102
RTVSPropertyOp20
 70
     1
102
RTVSPropertyOp21
 70
     1
102
RTVSPropertyOp22
 70
     1
102
RTVSPropertyOp23
 70
     1
102
RTVSPropertyOp24
 70
     1
102
RTVSPropertyOp25
 70
     1
102
RTVSPropertyOp26
 70
     1
102
RTVSPropertyOp27
 70
     1
102
RTVSPropertyOp28
 70
     1
102
RTVSPropertyOp29
 70
     1
102
RTVSPropertyOp30
 70
     1
102
RTVSPropertyOp31
 70
     1
102
RTVSPropertyOp32
 70
     1
102
RTVSPropertyOp33
 70
     1
102
RTVSPropertyOp34
 70
     1
102
RTVSPropertyOp35
 70
     1
102
RTVSPropertyOp36
 70
     1
102
RTVSPropertyOp37
 70
     1
102
RTVSPropertyOp38
 70
     1
102
RTVSPropertyOp39
 70
     1
102
RTVSPropertyOp40
 70
     1
102
RTVSPropertyOp41
 70
     1
102
RTVSPropertyOp42
 70
     1
102
RTVSPropertyOp43
 70
     1
102
RTVSPropertyOp44
 70
     1
102
RTVSPropertyOp45
 70
     1
102
RTVSPropertyOp46
 70
     1
102
RTVSPropertyOp47
 70
     1
102
RTVSPropertyOp48
 70
     1
102
RTVSPropertyOp49
 70
     1
102
RTVSPropertyOp50
 70
     1
102
RTVSPropertyOp51
 70
     0
102
RTVSPropertyOp52
 70
     0
102
RTVSPropertyOp53
 70
     1
102
RTVSPropertyOp54
 70
     1
102
RTVSPropertyOp55
 70
     1
102
RTVSPropertyOp56
 70
     1
102
RTVSPropertyOp57
 70
     1
102
RTVSPropertyOp58
 70
     1
102
RTVSPropertyOp59
 70
     1
102
RTVSPropertyOp60
 70
     1
102
RTVSPropertyOp61
 70
     1
102
RTVSPropertyOp62
 70
     1
  0
XRECORD
  5
D34
102
{ACAD_REACTORS
330
D33
102
}
330
D33
100
AcDbXrecord
280
     1
102
RTVSPost2010Prop28
280
     0
102
RTVSPost2010PropOp28
 70
     1
102
RTVSPost2010Prop29
280
     1
102
RTVSPost2010PropOp29
 70
     1
102
RTVSPost2010Prop30
280
     1
102
RTVSPost2010PropOp30
 70
     1
102
RTVSPost2010Prop31
280
     0
102
RTVSPost2010PropOp31
 70
     1
102
RTVSPost2010Prop32
280
     0
102
RTVSPost2010PropOp32
 70
     1
102
RTVSPost2010Prop33
280
     0
102
RTVSPost2010PropOp33
 70
     1
102
RTVSPost2010Prop34
280
     0
102
RTVSPost2010PropOp34
 70
     1
102
RTVSPost2010Prop35
280
     0
102
RTVSPost2010PropOp35
 70
     1
102
RTVSPost2010Prop36
280
     0
102
RTVSPost2010PropOp36
 70
     1
102
RTVSPost2010Prop37
 90
       50
102
RTVSPost2010PropOp37
 70
     1
102
RTVSPost2010Prop38
140
0.0
102
RTVSPost2010PropOp38
 70
     1
102
RTVSPost2010Prop39
140
1.0
102
RTVSPost2010PropOp39
 70
     1
102
RTVSPost2010Prop40
 90
        0
102
RTVSPost2010PropOp40
 70
     1
102
RTVSPost2010Prop41ColorIndex
 90
       18
102
RTVSPost2010Prop41ColorRGB
 90
-16777216
102
RTVSPost2010PropOp41
 70
     1
102
RTVSPost2010Prop42
 90
       50
102
RTVSPost2010PropOp42
 70
     1
102
RTVSPost2010Prop43
 90
        3
102
RTVSPost2010PropOp43
 70
     1
102
RTVSPost2010Prop44ColorIndex
 90
        5
102
RTVSPost2010Prop44ColorRGB
 90
      255
102
RTVSPost2010PropOp44
 70
     1
102
RTVSPost2010Prop45
280
     0
102
RTVSPost2010PropOp45
 70
     1
102
RTVSPost2010Prop46
 90
       50
102
RTVSPost2010PropOp46
 70
     1
102
RTVSPost2010Prop47
 90
       50
102
RTVSPost2010PropOp47
 70
     1
102
RTVSPost2010Prop48
 90
       50
102
RTVSPost2010PropOp48
 70
     1
102
RTVSPost2010Prop49
280
     0
102
RTVSPost2010PropOp49
 70
     1
102
RTVSPost2010Prop50
 90
       50
102
RTVSPost2010PropOp50
 70
     1
102
RTVSPost2010Prop51ColorIndex
 90
      256
102
RTVSPost2010Prop51ColorRGB
 90
-16777216
102
RTVSPost2010PropOp51
 70
     0
102
RTVSPost2010Prop52
140
1.0
102
RTVSPost2010PropOp52
 70
     0
102
RTVSPost2010Prop53
 90
        2
102
RTVSPost2010PropOp53
 70
     1
102
RTVSPost2010Prop54
  1
strokes_ogs.tif
102
RTVSPost2010PropOp54
 70
     1
102
RTVSPost2010Prop55
280
     0
102
RTVSPost2010PropOp55
 70
     1
102
RTVSPost2010Prop56
140
1.0
102
RTVSPost2010PropOp56
 70
     1
102
RTVSPost2010Prop57
140
1.0
102
RTVSPost2010PropOp57
 70
     1
102
RTVSPropertyOp0
 70
     1
102
RTVSPropertyOp1
 70
     1
102
RTVSPropertyOp2
 70
     1
102
RTVSPropertyOp3
 70
     1
102
RTVSPropertyOp4
 70
     1
102
RTVSPropertyOp5
 70
     1
102
RTVSPropertyOp6
 70
     1
102
RTVSPropertyOp7
 70
     1
102
RTVSPropertyOp8
 70
     1
102
RTVSPropertyOp9
 70
     1
102
RTVSPropertyOp10
 70
     1
102
RTVSPropertyOp11
 70
     1
102
RTVSPropertyOp12
 70
     1
102
RTVSPropertyOp13
 70
     1
102
RTVSPropertyOp14
 70
     1
102
RTVSPropertyOp15
 70
     1
102
RTVSPropertyOp16
 70
     1
102
RTVSPropertyOp17
 70
     1
102
RTVSPropertyOp18
 70
     1
102
RTVSPropertyOp19
 70
     1
102
RTVSPropertyOp20
 70
     1
102
RTVSPropertyOp21
 70
     1
102
RTVSPropertyOp22
 70
     1
102
RTVSPropertyOp23
 70
     1
102
RTVSPropertyOp24
 70
     1
102
RTVSPropertyOp25
 70
     1
102
RTVSPropertyOp26
 70
     1
102
RTVSPropertyOp27
 70
     1
102
RTVSPropertyOp28
 70
     1
102
RTVSPropertyOp29
 70
     1
102
RTVSPropertyOp30
 70
     1
102
RTVSPropertyOp31
 70
     1
102
RTVSPropertyOp32
 70
     1
102
RTVSPropertyOp33
 70
     1
102
RTVSPropertyOp34
 70
     1
102
RTVSPropertyOp35
 70
     1
102
RTVSPropertyOp36
 70
     1
102
RTVSPropertyOp37
 70
     1
102
RTVSPropertyOp38
 70
     1
102
RTVSPropertyOp39
 70
     1
102
RTVSPropertyOp40
 70
     1
102
RTVSPropertyOp41
 70
     1
102
RTVSPropertyOp42
 70
     1
102
RTVSPropertyOp43
 70
     1
102
RTVSPropertyOp44
 70
     1
102
RTVSPropertyOp45
 70
     1
102
RTVSPropertyOp46
 70
     1
102
RTVSPropertyOp47
 70
     1
102
RTVSPropertyOp48
 70
     1
102
RTVSPropertyOp49
 70
     1
102
RTVSPropertyOp50
 70
     1
102
RTVSPropertyOp51
 70
     0
102
RTVSPropertyOp52
 70
     0
102
RTVSPropertyOp53
 70
     1
102
RTVSPropertyOp54
 70
     1
102
RTVSPropertyOp55
 70
     1
102
RTVSPropertyOp56
 70
     1
102
RTVSPropertyOp57
 70
     1
102
RTVSPropertyOp58
 70
     1
102
RTVSPropertyOp59
 70
     1
102
RTVSPropertyOp60
 70
     1
102
RTVSPropertyOp61
 70
     1
102
RTVSPropertyOp62
 70
     1
  0
XRECORD
  5
D36
102
{ACAD_REACTORS
330
D35
102
}
330
D35
100
AcDbXrecord
280
     1
102
RTVSPost2010Prop28
280
     0
102
RTVSPost2010PropOp28
 70
     1
102
RTVSPost2010Prop29
280
     1
102
RTVSPost2010PropOp29
 70
     1
102
RTVSPost2010Prop30
280
     1
102
RTVSPost2010PropOp30
 70
     1
102
RTVSPost2010Prop31
280
     0
102
RTVSPost2010PropOp31
 70
     1
102
RTVSPost2010Prop32
280
     0
102
RTVSPost2010PropOp32
 70
     1
102
RTVSPost2010Prop33
280
     0
102
RTVSPost2010PropOp33
 70
     1
102
RTVSPost2010Prop34
280
     0
102
RTVSPost2010PropOp34
 70
     1
102
RTVSPost2010Prop35
280
     0
102
RTVSPost2010PropOp35
 70
     1
102
RTVSPost2010Prop36
280
     0
102
RTVSPost2010PropOp36
 70
     1
102
RTVSPost2010Prop37
 90
       50
102
RTVSPost2010PropOp37
 70
     1
102
RTVSPost2010Prop38
140
0.0
102
RTVSPost2010PropOp38
 70
     1
102
RTVSPost2010Prop39
140
1.0
102
RTVSPost2010PropOp39
 70
     1
102
RTVSPost2010Prop40
 90
        0
102
RTVSPost2010PropOp40
 70
     1
102
RTVSPost2010Prop41ColorIndex
 90
       18
102
RTVSPost2010Prop41ColorRGB
 90
-16777216
102
RTVSPost2010PropOp41
 70
     1
102
RTVSPost2010Prop42
 90
       50
102
RTVSPost2010PropOp42
 70
     1
102
RTVSPost2010Prop43
 90
        3
102
RTVSPost2010PropOp43
 70
     1
102
RTVSPost2010Prop44ColorIndex
 90
        5
102
RTVSPost2010Prop44ColorRGB
 90
      255
102
RTVSPost2010PropOp44
 70
     1
102
RTVSPost2010Prop45
280
     0
102
RTVSPost2010PropOp45
 70
     1
102
RTVSPost2010Prop46
 90
       50
102
RTVSPost2010PropOp46
 70
     1
102
RTVSPost2010Prop47
 90
       50
102
RTVSPost2010PropOp47
 70
     1
102
RTVSPost2010Prop48
 90
       50
102
RTVSPost2010PropOp48
 70
     1
102
RTVSPost2010Prop49
280
     0
102
RTVSPost2010PropOp49
 70
     1
102
RTVSPost2010Prop50
 90
       50
102
RTVSPost2010PropOp50
 70
     1
102
RTVSPost2010Prop51ColorIndex
 90
      256
102
RTVSPost2010Prop51ColorRGB
 90
-16777216
102
RTVSPost2010PropOp51
 70
     0
102
RTVSPost2010Prop52
140
1.0
102
RTVSPost2010PropOp52
 70
     0
102
RTVSPost2010Prop53
 90
        2
102
RTVSPost2010PropOp53
 70
     1
102
RTVSPost2010Prop54
  1
strokes_ogs.tif
102
RTVSPost2010PropOp54
 70
     1
102
RTVSPost2010Prop55
280
     0
102
RTVSPost2010PropOp55
 70
     1
102
RTVSPost2010Prop56
140
1.0
102
RTVSPost2010PropOp56
 70
     1
102
RTVSPost2010Prop57
140
1.0
102
RTVSPost2010PropOp57
 70
     1
102
RTVSPropertyOp0
 70
     1
102
RTVSPropertyOp1
 70
     1
102
RTVSPropertyOp2
 70
     1
102
RTVSPropertyOp3
 70
     1
102
RTVSPropertyOp4
 70
     1
102
RTVSPropertyOp5
 70
     1
102
RTVSPropertyOp6
 70
     1
102
RTVSPropertyOp7
 70
     1
102
RTVSPropertyOp8
 70
     1
102
RTVSPropertyOp9
 70
     1
102
RTVSPropertyOp10
 70
     1
102
RTVSPropertyOp11
 70
     1
102
RTVSPropertyOp12
 70
     1
102
RTVSPropertyOp13
 70
     1
102
RTVSPropertyOp14
 70
     1
102
RTVSPropertyOp15
 70
     1
102
RTVSPropertyOp16
 70
     1
102
RTVSPropertyOp17
 70
     1
102
RTVSPropertyOp18
 70
     1
102
RTVSPropertyOp19
 70
     1
102
RTVSPropertyOp20
 70
     1
102
RTVSPropertyOp21
 70
     1
102
RTVSPropertyOp22
 70
     1
102
RTVSPropertyOp23
 70
     1
102
RTVSPropertyOp24
 70
     1
102
RTVSPropertyOp25
 70
     1
102
RTVSPropertyOp26
 70
     1
102
RTVSPropertyOp27
 70
     1
102
RTVSPropertyOp28
 70
     1
102
RTVSPropertyOp29
 70
     1
102
RTVSPropertyOp30
 70
     1
102
RTVSPropertyOp31
 70
     1
102
RTVSPropertyOp32
 70
     1
102
RTVSPropertyOp33
 70
     1
102
RTVSPropertyOp34
 70
     1
102
RTVSPropertyOp35
 70
     1
102
RTVSPropertyOp36
 70
     1
102
RTVSPropertyOp37
 70
     1
102
RTVSPropertyOp38
 70
     1
102
RTVSPropertyOp39
 70
     1
102
RTVSPropertyOp40
 70
     1
102
RTVSPropertyOp41
 70
     1
102
RTVSPropertyOp42
 70
     1
102
RTVSPropertyOp43
 70
     1
102
RTVSPropertyOp44
 70
     1
102
RTVSPropertyOp45
 70
     1
102
RTVSPropertyOp46
 70
     1
102
RTVSPropertyOp47
 70
     1
102
RTVSPropertyOp48
 70
     1
102
RTVSPropertyOp49
 70
     1
102
RTVSPropertyOp50
 70
     1
102
RTVSPropertyOp51
 70
     0
102
RTVSPropertyOp52
 70
     0
102
RTVSPropertyOp53
 70
     1
102
RTVSPropertyOp54
 70
     1
102
RTVSPropertyOp55
 70
     1
102
RTVSPropertyOp56
 70
     1
102
RTVSPropertyOp57
 70
     1
102
RTVSPropertyOp58
 70
     1
102
RTVSPropertyOp59
 70
     1
102
RTVSPropertyOp60
 70
     1
102
RTVSPropertyOp61
 70
     1
102
RTVSPropertyOp62
 70
     1
  0
XRECORD
  5
D38
102
{ACAD_REACTORS
330
D37
102
}
330
D37
100
AcDbXrecord
280
     1
102
RTVSPost2010Prop28
280
     0
102
RTVSPost2010PropOp28
 70
     1
102
RTVSPost2010Prop29
280
     1
102
RTVSPost2010PropOp29
 70
     1
102
RTVSPost2010Prop30
280
     1
102
RTVSPost2010PropOp30
 70
     1
102
RTVSPost2010Prop31
280
     0
102
RTVSPost2010PropOp31
 70
     1
102
RTVSPost2010Prop32
280
     0
102
RTVSPost2010PropOp32
 70
     1
102
RTVSPost2010Prop33
280
     0
102
RTVSPost2010PropOp33
 70
     1
102
RTVSPost2010Prop34
280
     0
102
RTVSPost2010PropOp34
 70
     1
102
RTVSPost2010Prop35
280
     0
102
RTVSPost2010PropOp35
 70
     1
102
RTVSPost2010Prop36
280
     0
102
RTVSPost2010PropOp36
 70
     1
102
RTVSPost2010Prop37
 90
       50
102
RTVSPost2010PropOp37
 70
     1
102
RTVSPost2010Prop38
140
0.0
102
RTVSPost2010PropOp38
 70
     1
102
RTVSPost2010Prop39
140
1.0
102
RTVSPost2010PropOp39
 70
     1
102
RTVSPost2010Prop40
 90
        0
102
RTVSPost2010PropOp40
 70
     1
102
RTVSPost2010Prop41ColorIndex
 90
       18
102
RTVSPost2010Prop41ColorRGB
 90
-16777216
102
RTVSPost2010PropOp41
 70
     1
102
RTVSPost2010Prop42
 90
       50
102
RTVSPost2010PropOp42
 70
     1
102
RTVSPost2010Prop43
 90
        3
102
RTVSPost2010PropOp43
 70
     1
102
RTVSPost2010Prop44ColorIndex
 90
        5
102
RTVSPost2010Prop44ColorRGB
 90
      255
102
RTVSPost2010PropOp44
 70
     1
102
RTVSPost2010Prop45
280
     0
102
RTVSPost2010PropOp45
 70
     1
102
RTVSPost2010Prop46
 90
       50
102
RTVSPost2010PropOp46
 70
     1
102
RTVSPost2010Prop47
 90
       50
102
RTVSPost2010PropOp47
 70
     1
102
RTVSPost2010Prop48
 90
       50
102
RTVSPost2010PropOp48
 70
     1
102
RTVSPost2010Prop49
280
     0
102
RTVSPost2010PropOp49
 70
     1
102
RTVSPost2010Prop50
 90
       50
102
RTVSPost2010PropOp50
 70
     1
102
RTVSPost2010Prop51ColorIndex
 90
      256
102
RTVSPost2010Prop51ColorRGB
 90
-16777216
102
RTVSPost2010PropOp51
 70
     0
102
RTVSPost2010Prop52
140
1.0
102
RTVSPost2010PropOp52
 70
     0
102
RTVSPost2010Prop53
 90
        2
102
RTVSPost2010PropOp53
 70
     1
102
RTVSPost2010Prop54
  1
strokes_ogs.tif
102
RTVSPost2010PropOp54
 70
     1
102
RTVSPost2010Prop55
280
     0
102
RTVSPost2010PropOp55
 70
     1
102
RTVSPost2010Prop56
140
1.0
102
RTVSPost2010PropOp56
 70
     1
102
RTVSPost2010Prop57
140
1.0
102
RTVSPost2010PropOp57
 70
     1
102
RTVSPropertyOp0
 70
     1
102
RTVSPropertyOp1
 70
     1
102
RTVSPropertyOp2
 70
     1
102
RTVSPropertyOp3
 70
     1
102
RTVSPropertyOp4
 70
     1
102
RTVSPropertyOp5
 70
     1
102
RTVSPropertyOp6
 70
     1
102
RTVSPropertyOp7
 70
     1
102
RTVSPropertyOp8
 70
     1
102
RTVSPropertyOp9
 70
     1
102
RTVSPropertyOp10
 70
     1
102
RTVSPropertyOp11
 70
     1
102
RTVSPropertyOp12
 70
     1
102
RTVSPropertyOp13
 70
     1
102
RTVSPropertyOp14
 70
     1
102
RTVSPropertyOp15
 70
     1
102
RTVSPropertyOp16
 70
     1
102
RTVSPropertyOp17
 70
     1
102
RTVSPropertyOp18
 70
     1
102
RTVSPropertyOp19
 70
     1
102
RTVSPropertyOp20
 70
     1
102
RTVSPropertyOp21
 70
     1
102
RTVSPropertyOp22
 70
     1
102
RTVSPropertyOp23
 70
     1
102
RTVSPropertyOp24
 70
     1
102
RTVSPropertyOp25
 70
     1
102
RTVSPropertyOp26
 70
     1
102
RTVSPropertyOp27
 70
     1
102
RTVSPropertyOp28
 70
     1
102
RTVSPropertyOp29
 70
     1
102
RTVSPropertyOp30
 70
     1
102
RTVSPropertyOp31
 70
     1
102
RTVSPropertyOp32
 70
     1
102
RTVSPropertyOp33
 70
     1
102
RTVSPropertyOp34
 70
     1
102
RTVSPropertyOp35
 70
     1
102
RTVSPropertyOp36
 70
     1
102
RTVSPropertyOp37
 70
     1
102
RTVSPropertyOp38
 70
     1
102
RTVSPropertyOp39
 70
     1
102
RTVSPropertyOp40
 70
     1
102
RTVSPropertyOp41
 70
     1
102
RTVSPropertyOp42
 70
     1
102
RTVSPropertyOp43
 70
     1
102
RTVSPropertyOp44
 70
     1
102
RTVSPropertyOp45
 70
     1
102
RTVSPropertyOp46
 70
     1
102
RTVSPropertyOp47
 70
     1
102
RTVSPropertyOp48
 70
     1
102
RTVSPropertyOp49
 70
     1
102
RTVSPropertyOp50
 70
     1
102
RTVSPropertyOp51
 70
     0
102
RTVSPropertyOp52
 70
     0
102
RTVSPropertyOp53
 70
     1
102
RTVSPropertyOp54
 70
     1
102
RTVSPropertyOp55
 70
     1
102
RTVSPropertyOp56
 70
     1
102
RTVSPropertyOp57
 70
     1
102
RTVSPropertyOp58
 70
     1
102
RTVSPropertyOp59
 70
     1
102
RTVSPropertyOp60
 70
     1
102
RTVSPropertyOp61
 70
     1
102
RTVSPropertyOp62
 70
     1
  0
XRECORD
  5
D40
102
{ACAD_REACTORS
330
D3F
102
}
330
D3F
100
AcDbXrecord
280
     1
102
RTVSPost2010Prop28
280
     0
102
RTVSPost2010PropOp28
 70
     1
102
RTVSPost2010Prop29
280
     1
102
RTVSPost2010PropOp29
 70
     1
102
RTVSPost2010Prop30
280
     1
102
RTVSPost2010PropOp30
 70
     1
102
RTVSPost2010Prop31
280
     0
102
RTVSPost2010PropOp31
 70
     1
102
RTVSPost2010Prop32
280
     0
102
RTVSPost2010PropOp32
 70
     1
102
RTVSPost2010Prop33
280
     0
102
RTVSPost2010PropOp33
 70
     1
102
RTVSPost2010Prop34
280
     0
102
RTVSPost2010PropOp34
 70
     1
102
RTVSPost2010Prop35
280
     0
102
RTVSPost2010PropOp35
 70
     1
102
RTVSPost2010Prop36
280
     0
102
RTVSPost2010PropOp36
 70
     1
102
RTVSPost2010Prop37
 90
       50
102
RTVSPost2010PropOp37
 70
     1
102
RTVSPost2010Prop38
140
0.0
102
RTVSPost2010PropOp38
 70
     1
102
RTVSPost2010Prop39
140
1.0
102
RTVSPost2010PropOp39
 70
     1
102
RTVSPost2010Prop40
 90
        0
102
RTVSPost2010PropOp40
 70
     1
102
RTVSPost2010Prop41ColorIndex
 90
       18
102
RTVSPost2010Prop41ColorRGB
 90
-16777216
102
RTVSPost2010PropOp41
 70
     1
102
RTVSPost2010Prop42
 90
       50
102
RTVSPost2010PropOp42
 70
     1
102
RTVSPost2010Prop43
 90
        3
102
RTVSPost2010PropOp43
 70
     1
102
RTVSPost2010Prop44ColorIndex
 90
        5
102
RTVSPost2010Prop44ColorRGB
 90
      255
102
RTVSPost2010PropOp44
 70
     1
102
RTVSPost2010Prop45
280
     0
102
RTVSPost2010PropOp45
 70
     1
102
RTVSPost2010Prop46
 90
       50
102
RTVSPost2010PropOp46
 70
     1
102
RTVSPost2010Prop47
 90
       50
102
RTVSPost2010PropOp47
 70
     1
102
RTVSPost2010Prop48
 90
       50
102
RTVSPost2010PropOp48
 70
     1
102
RTVSPost2010Prop49
280
     0
102
RTVSPost2010PropOp49
 70
     1
102
RTVSPost2010Prop50
 90
       50
102
RTVSPost2010PropOp50
 70
     1
102
RTVSPost2010Prop51ColorIndex
 90
      256
102
RTVSPost2010Prop51ColorRGB
 90
-16777216
102
RTVSPost2010PropOp51
 70
     0
102
RTVSPost2010Prop52
140
1.0
102
RTVSPost2010PropOp52
 70
     0
102
RTVSPost2010Prop53
 90
        2
102
RTVSPost2010PropOp53
 70
     1
102
RTVSPost2010Prop54
  1
strokes_ogs.tif
102
RTVSPost2010PropOp54
 70
     1
102
RTVSPost2010Prop55
280
     0
102
RTVSPost2010PropOp55
 70
     1
102
RTVSPost2010Prop56
140
1.0
102
RTVSPost2010PropOp56
 70
     1
102
RTVSPost2010Prop57
140
1.0
102
RTVSPost2010PropOp57
 70
     1
102
RTVSPropertyOp0
 70
     1
102
RTVSPropertyOp1
 70
     1
102
RTVSPropertyOp2
 70
     1
102
RTVSPropertyOp3
 70
     1
102
RTVSPropertyOp4
 70
     1
102
RTVSPropertyOp5
 70
     1
102
RTVSPropertyOp6
 70
     1
102
RTVSPropertyOp7
 70
     1
102
RTVSPropertyOp8
 70
     1
102
RTVSPropertyOp9
 70
     1
102
RTVSPropertyOp10
 70
     1
102
RTVSPropertyOp11
 70
     1
102
RTVSPropertyOp12
 70
     1
102
RTVSPropertyOp13
 70
     1
102
RTVSPropertyOp14
 70
     1
102
RTVSPropertyOp15
 70
     1
102
RTVSPropertyOp16
 70
     1
102
RTVSPropertyOp17
 70
     1
102
RTVSPropertyOp18
 70
     1
102
RTVSPropertyOp19
 70
     1
102
RTVSPropertyOp20
 70
     1
102
RTVSPropertyOp21
 70
     1
102
RTVSPropertyOp22
 70
     1
102
RTVSPropertyOp23
 70
     1
102
RTVSPropertyOp24
 70
     1
102
RTVSPropertyOp25
 70
     1
102
RTVSPropertyOp26
 70
     1
102
RTVSPropertyOp27
 70
     1
102
RTVSPropertyOp28
 70
     1
102
RTVSPropertyOp29
 70
     1
102
RTVSPropertyOp30
 70
     1
102
RTVSPropertyOp31
 70
     1
102
RTVSPropertyOp32
 70
     1
102
RTVSPropertyOp33
 70
     1
102
RTVSPropertyOp34
 70
     1
102
RTVSPropertyOp35
 70
     1
102
RTVSPropertyOp36
 70
     1
102
RTVSPropertyOp37
 70
     1
102
RTVSPropertyOp38
 70
     1
102
RTVSPropertyOp39
 70
     1
102
RTVSPropertyOp40
 70
     1
102
RTVSPropertyOp41
 70
     1
102
RTVSPropertyOp42
 70
     1
102
RTVSPropertyOp43
 70
     1
102
RTVSPropertyOp44
 70
     1
102
RTVSPropertyOp45
 70
     1
102
RTVSPropertyOp46
 70
     1
102
RTVSPropertyOp47
 70
     1
102
RTVSPropertyOp48
 70
     1
102
RTVSPropertyOp49
 70
     1
102
RTVSPropertyOp50
 70
     1
102
RTVSPropertyOp51
 70
     0
102
RTVSPropertyOp52
 70
     0
102
RTVSPropertyOp53
 70
     1
102
RTVSPropertyOp54
 70
     1
102
RTVSPropertyOp55
 70
     1
102
RTVSPropertyOp56
 70
     1
102
RTVSPropertyOp57
 70
     1
102
RTVSPropertyOp58
 70
     1
102
RTVSPropertyOp59
 70
     1
102
RTVSPropertyOp60
 70
     1
102
RTVSPropertyOp61
 70
     1
102
RTVSPropertyOp62
 70
     1
  0
XRECORD
  5
D5C
102
{ACAD_REACTORS
330
D5B
102
}
330
D5B
100
AcDbXrecord
280
     1
102
RTVSPost2010Prop28
280
     0
102
RTVSPost2010PropOp28
 70
     0
102
RTVSPost2010Prop29
280
     1
102
RTVSPost2010PropOp29
 70
     0
102
RTVSPost2010Prop30
280
     1
102
RTVSPost2010PropOp30
 70
     0
102
RTVSPost2010Prop31
280
     0
102
RTVSPost2010PropOp31
 70
     0
102
RTVSPost2010Prop32
280
     0
102
RTVSPost2010PropOp32
 70
     0
102
RTVSPost2010Prop33
280
     0
102
RTVSPost2010PropOp33
 70
     0
102
RTVSPost2010Prop34
280
     0
102
RTVSPost2010PropOp34
 70
     0
102
RTVSPost2010Prop35
280
     0
102
RTVSPost2010PropOp35
 70
     0
102
RTVSPost2010Prop36
280
     0
102
RTVSPost2010PropOp36
 70
     0
102
RTVSPost2010Prop37
 90
       50
102
RTVSPost2010PropOp37
 70
     0
102
RTVSPost2010Prop38
140
0.0
102
RTVSPost2010PropOp38
 70
     0
102
RTVSPost2010Prop39
140
1.0
102
RTVSPost2010PropOp39
 70
     0
102
RTVSPost2010Prop40
 90
        0
102
RTVSPost2010PropOp40
 70
     0
102
RTVSPost2010Prop41ColorIndex
 90
       18
102
RTVSPost2010Prop41ColorRGB
 90
-16777216
102
RTVSPost2010PropOp41
 70
     0
102
RTVSPost2010Prop42
 90
       50
102
RTVSPost2010PropOp42
 70
     0
102
RTVSPost2010Prop43
 90
        3
102
RTVSPost2010PropOp43
 70
     0
102
RTVSPost2010Prop44ColorIndex
 90
        5
102
RTVSPost2010Prop44ColorRGB
 90
      255
102
RTVSPost2010PropOp44
 70
     0
102
RTVSPost2010Prop45
280
     0
102
RTVSPost2010PropOp45
 70
     0
102
RTVSPost2010Prop46
 90
       50
102
RTVSPost2010PropOp46
 70
     0
102
RTVSPost2010Prop47
 90
       50
102
RTVSPost2010PropOp47
 70
     0
102
RTVSPost2010Prop48
 90
       50
102
RTVSPost2010PropOp48
 70
     0
102
RTVSPost2010Prop49
280
     0
102
RTVSPost2010PropOp49
 70
     0
102
RTVSPost2010Prop50
 90
       50
102
RTVSPost2010PropOp50
 70
     0
102
RTVSPost2010Prop51ColorIndex
 90
      256
102
RTVSPost2010Prop51ColorRGB
 90
-16777216
102
RTVSPost2010PropOp51
 70
     0
102
RTVSPost2010Prop52
140
1.0
102
RTVSPost2010PropOp52
 70
     0
102
RTVSPost2010Prop53
 90
        2
102
RTVSPost2010PropOp53
 70
     0
102
RTVSPost2010Prop54
  1
strokes_ogs.tif
102
RTVSPost2010PropOp54
 70
     0
102
RTVSPost2010Prop55
280
     0
102
RTVSPost2010PropOp55
 70
     0
102
RTVSPost2010Prop56
140
1.0
102
RTVSPost2010PropOp56
 70
     0
102
RTVSPost2010Prop57
140
1.0
102
RTVSPost2010PropOp57
 70
     0
102
RTVSPropertyOp0
 70
     0
102
RTVSPropertyOp1
 70
     0
102
RTVSPropertyOp2
 70
     0
102
RTVSPropertyOp3
 70
     0
102
RTVSPropertyOp4
 70
     0
102
RTVSPropertyOp5
 70
     0
102
RTVSPropertyOp6
 70
     0
102
RTVSPropertyOp7
 70
     0
102
RTVSPropertyOp8
 70
     0
102
RTVSPropertyOp9
 70
     0
102
RTVSPropertyOp10
 70
     0
102
RTVSPropertyOp11
 70
     0
102
RTVSPropertyOp12
 70
     0
102
RTVSPropertyOp13
 70
     0
102
RTVSPropertyOp14
 70
     2
102
RTVSPropertyOp15
 70
     0
102
RTVSPropertyOp16
 70
     0
102
RTVSPropertyOp17
 70
     0
102
RTVSPropertyOp18
 70
     0
102
RTVSPropertyOp19
 70
     0
102
RTVSPropertyOp20
 70
     0
102
RTVSPropertyOp21
 70
     0
102
RTVSPropertyOp22
 70
     0
102
RTVSPropertyOp23
 70
     0
102
RTVSPropertyOp24
 70
     0
102
RTVSPropertyOp25
 70
     0
102
RTVSPropertyOp26
 70
     0
102
RTVSPropertyOp27
 70
     0
102
RTVSPropertyOp28
 70
     0
102
RTVSPropertyOp29
 70
     0
102
RTVSPropertyOp30
 70
     0
102
RTVSPropertyOp31
 70
     0
102
RTVSPropertyOp32
 70
     0
102
RTVSPropertyOp33
 70
     0
102
RTVSPropertyOp34
 70
     0
102
RTVSPropertyOp35
 70
     0
102
RTVSPropertyOp36
 70
     0
102
RTVSPropertyOp37
 70
     0
102
RTVSPropertyOp38
 70
     0
102
RTVSPropertyOp39
 70
     0
102
RTVSPropertyOp40
 70
     0
102
RTVSPropertyOp41
 70
     0
102
RTVSPropertyOp42
 70
     0
102
RTVSPropertyOp43
 70
     0
102
RTVSPropertyOp44
 70
     0
102
RTVSPropertyOp45
 70
     0
102
RTVSPropertyOp46
 70
     0
102
RTVSPropertyOp47
 70
     0
102
RTVSPropertyOp48
 70
     0
102
RTVSPropertyOp49
 70
     0
102
RTVSPropertyOp50
 70
     0
102
RTVSPropertyOp51
 70
     0
102
RTVSPropertyOp52
 70
     0
102
RTVSPropertyOp53
 70
     0
102
RTVSPropertyOp54
 70
     0
102
RTVSPropertyOp55
 70
     0
102
RTVSPropertyOp56
 70
     0
102
RTVSPropertyOp57
 70
     0
102
RTVSPropertyOp58
 70
     1
102
RTVSPropertyOp59
 70
     1
102
RTVSPropertyOp60
 70
     1
102
RTVSPropertyOp61
 70
     1
102
RTVSPropertyOp62
 70
     1
  0
XRECORD
  5
D4C
102
{ACAD_REACTORS
330
D4B
102
}
330
D4B
100
AcDbXrecord
280
     1
102
RTVSPost2010Prop28
280
     0
102
RTVSPost2010PropOp28
 70
     1
102
RTVSPost2010Prop29
280
     1
102
RTVSPost2010PropOp29
 70
     1
102
RTVSPost2010Prop30
280
     1
102
RTVSPost2010PropOp30
 70
     1
102
RTVSPost2010Prop31
280
     0
102
RTVSPost2010PropOp31
 70
     1
102
RTVSPost2010Prop32
280
     0
102
RTVSPost2010PropOp32
 70
     1
102
RTVSPost2010Prop33
280
     0
102
RTVSPost2010PropOp33
 70
     1
102
RTVSPost2010Prop34
280
     0
102
RTVSPost2010PropOp34
 70
     1
102
RTVSPost2010Prop35
280
     0
102
RTVSPost2010PropOp35
 70
     1
102
RTVSPost2010Prop36
280
     0
102
RTVSPost2010PropOp36
 70
     1
102
RTVSPost2010Prop37
 90
       50
102
RTVSPost2010PropOp37
 70
     1
102
RTVSPost2010Prop38
140
0.0
102
RTVSPost2010PropOp38
 70
     1
102
RTVSPost2010Prop39
140
1.0
102
RTVSPost2010PropOp39
 70
     1
102
RTVSPost2010Prop40
 90
        0
102
RTVSPost2010PropOp40
 70
     1
102
RTVSPost2010Prop41ColorIndex
 90
       18
102
RTVSPost2010Prop41ColorRGB
 90
-16777216
102
RTVSPost2010PropOp41
 70
     1
102
RTVSPost2010Prop42
 90
       50
102
RTVSPost2010PropOp42
 70
     1
102
RTVSPost2010Prop43
 90
        3
102
RTVSPost2010PropOp43
 70
     1
102
RTVSPost2010Prop44ColorIndex
 90
        5
102
RTVSPost2010Prop44ColorRGB
 90
      255
102
RTVSPost2010PropOp44
 70
     1
102
RTVSPost2010Prop45
280
     0
102
RTVSPost2010PropOp45
 70
     1
102
RTVSPost2010Prop46
 90
       50
102
RTVSPost2010PropOp46
 70
     1
102
RTVSPost2010Prop47
 90
       50
102
RTVSPost2010PropOp47
 70
     1
102
RTVSPost2010Prop48
 90
       50
102
RTVSPost2010PropOp48
 70
     1
102
RTVSPost2010Prop49
280
     0
102
RTVSPost2010PropOp49
 70
     1
102
RTVSPost2010Prop50
 90
       50
102
RTVSPost2010PropOp50
 70
     1
102
RTVSPost2010Prop51ColorIndex
 90
      256
102
RTVSPost2010Prop51ColorRGB
 90
-16777216
102
RTVSPost2010PropOp51
 70
     0
102
RTVSPost2010Prop52
140
1.0
102
RTVSPost2010PropOp52
 70
     0
102
RTVSPost2010Prop53
 90
        2
102
RTVSPost2010PropOp53
 70
     1
102
RTVSPost2010Prop54
  1
strokes_ogs.tif
102
RTVSPost2010PropOp54
 70
     1
102
RTVSPost2010Prop55
280
     0
102
RTVSPost2010PropOp55
 70
     1
102
RTVSPost2010Prop56
140
1.0
102
RTVSPost2010PropOp56
 70
     1
102
RTVSPost2010Prop57
140
1.0
102
RTVSPost2010PropOp57
 70
     1
102
RTVSPropertyOp0
 70
     1
102
RTVSPropertyOp1
 70
     1
102
RTVSPropertyOp2
 70
     1
102
RTVSPropertyOp3
 70
     1
102
RTVSPropertyOp4
 70
     1
102
RTVSPropertyOp5
 70
     1
102
RTVSPropertyOp6
 70
     1
102
RTVSPropertyOp7
 70
     1
102
RTVSPropertyOp8
 70
     1
102
RTVSPropertyOp9
 70
     1
102
RTVSPropertyOp10
 70
     1
102
RTVSPropertyOp11
 70
     1
102
RTVSPropertyOp12
 70
     1
102
RTVSPropertyOp13
 70
     1
102
RTVSPropertyOp14
 70
     1
102
RTVSPropertyOp15
 70
     1
102
RTVSPropertyOp16
 70
     1
102
RTVSPropertyOp17
 70
     1
102
RTVSPropertyOp18
 70
     1
102
RTVSPropertyOp19
 70
     1
102
RTVSPropertyOp20
 70
     1
102
RTVSPropertyOp21
 70
     1
102
RTVSPropertyOp22
 70
     1
102
RTVSPropertyOp23
 70
     1
102
RTVSPropertyOp24
 70
     1
102
RTVSPropertyOp25
 70
     1
102
RTVSPropertyOp26
 70
     1
102
RTVSPropertyOp27
 70
     1
102
RTVSPropertyOp28
 70
     1
102
RTVSPropertyOp29
 70
     1
102
RTVSPropertyOp30
 70
     1
102
RTVSPropertyOp31
 70
     1
102
RTVSPropertyOp32
 70
     1
102
RTVSPropertyOp33
 70
     1
102
RTVSPropertyOp34
 70
     1
102
RTVSPropertyOp35
 70
     1
102
RTVSPropertyOp36
 70
     1
102
RTVSPropertyOp37
 70
     1
102
RTVSPropertyOp38
 70
     1
102
RTVSPropertyOp39
 70
     1
102
RTVSPropertyOp40
 70
     1
102
RTVSPropertyOp41
 70
     1
102
RTVSPropertyOp42
 70
     1
102
RTVSPropertyOp43
 70
     1
102
RTVSPropertyOp44
 70
     1
102
RTVSPropertyOp45
 70
     1
102
RTVSPropertyOp46
 70
     1
102
RTVSPropertyOp47
 70
     1
102
RTVSPropertyOp48
 70
     1
102
RTVSPropertyOp49
 70
     1
102
RTVSPropertyOp50
 70
     1
102
RTVSPropertyOp51
 70
     0
102
RTVSPropertyOp52
 70
     0
102
RTVSPropertyOp53
 70
     1
102
RTVSPropertyOp54
 70
     1
102
RTVSPropertyOp55
 70
     1
102
RTVSPropertyOp56
 70
     1
102
RTVSPropertyOp57
 70
     1
102
RTVSPropertyOp58
 70
     1
102
RTVSPropertyOp59
 70
     1
102
RTVSPropertyOp60
 70
     1
102
RTVSPropertyOp61
 70
     1
102
RTVSPropertyOp62
 70
     1
  0
XRECORD
  5
D5E
102
{ACAD_REACTORS
330
D5D
102
}
330
D5D
100
AcDbXrecord
280
     1
102
RTVSPost2010Prop28
280
     0
102
RTVSPost2010PropOp28
 70
     0
102
RTVSPost2010Prop29
280
     1
102
RTVSPost2010PropOp29
 70
     0
102
RTVSPost2010Prop30
280
     1
102
RTVSPost2010PropOp30
 70
     0
102
RTVSPost2010Prop31
280
     0
102
RTVSPost2010PropOp31
 70
     0
102
RTVSPost2010Prop32
280
     0
102
RTVSPost2010PropOp32
 70
     0
102
RTVSPost2010Prop33
280
     0
102
RTVSPost2010PropOp33
 70
     0
102
RTVSPost2010Prop34
280
     0
102
RTVSPost2010PropOp34
 70
     0
102
RTVSPost2010Prop35
280
     0
102
RTVSPost2010PropOp35
 70
     0
102
RTVSPost2010Prop36
280
     0
102
RTVSPost2010PropOp36
 70
     0
102
RTVSPost2010Prop37
 90
       50
102
RTVSPost2010PropOp37
 70
     0
102
RTVSPost2010Prop38
140
0.0
102
RTVSPost2010PropOp38
 70
     0
102
RTVSPost2010Prop39
140
1.0
102
RTVSPost2010PropOp39
 70
     0
102
RTVSPost2010Prop40
 90
        0
102
RTVSPost2010PropOp40
 70
     0
102
RTVSPost2010Prop41ColorIndex
 90
       18
102
RTVSPost2010Prop41ColorRGB
 90
-16777216
102
RTVSPost2010PropOp41
 70
     0
102
RTVSPost2010Prop42
 90
       50
102
RTVSPost2010PropOp42
 70
     0
102
RTVSPost2010Prop43
 90
        3
102
RTVSPost2010PropOp43
 70
     0
102
RTVSPost2010Prop44ColorIndex
 90
        5
102
RTVSPost2010Prop44ColorRGB
 90
      255
102
RTVSPost2010PropOp44
 70
     0
102
RTVSPost2010Prop45
280
     0
102
RTVSPost2010PropOp45
 70
     0
102
RTVSPost2010Prop46
 90
       50
102
RTVSPost2010PropOp46
 70
     0
102
RTVSPost2010Prop47
 90
       50
102
RTVSPost2010PropOp47
 70
     0
102
RTVSPost2010Prop48
 90
       50
102
RTVSPost2010PropOp48
 70
     0
102
RTVSPost2010Prop49
280
     0
102
RTVSPost2010PropOp49
 70
     0
102
RTVSPost2010Prop50
 90
       50
102
RTVSPost2010PropOp50
 70
     0
102
RTVSPost2010Prop51ColorIndex
 90
      256
102
RTVSPost2010Prop51ColorRGB
 90
-16777216
102
RTVSPost2010PropOp51
 70
     0
102
RTVSPost2010Prop52
140
1.0
102
RTVSPost2010PropOp52
 70
     0
102
RTVSPost2010Prop53
 90
        2
102
RTVSPost2010PropOp53
 70
     0
102
RTVSPost2010Prop54
  1
strokes_ogs.tif
102
RTVSPost2010PropOp54
 70
     0
102
RTVSPost2010Prop55
280
     0
102
RTVSPost2010PropOp55
 70
     0
102
RTVSPost2010Prop56
140
1.0
102
RTVSPost2010PropOp56
 70
     0
102
RTVSPost2010Prop57
140
1.0
102
RTVSPost2010PropOp57
 70
     0
102
RTVSPropertyOp0
 70
     0
102
RTVSPropertyOp1
 70
     0
102
RTVSPropertyOp2
 70
     0
102
RTVSPropertyOp3
 70
     0
102
RTVSPropertyOp4
 70
     0
102
RTVSPropertyOp5
 70
     0
102
RTVSPropertyOp6
 70
     0
102
RTVSPropertyOp7
 70
     0
102
RTVSPropertyOp8
 70
     0
102
RTVSPropertyOp9
 70
     0
102
RTVSPropertyOp10
 70
     0
102
RTVSPropertyOp11
 70
     0
102
RTVSPropertyOp12
 70
     0
102
RTVSPropertyOp13
 70
     0
102
RTVSPropertyOp14
 70
     2
102
RTVSPropertyOp15
 70
     0
102
RTVSPropertyOp16
 70
     0
102
RTVSPropertyOp17
 70
     0
102
RTVSPropertyOp18
 70
     0
102
RTVSPropertyOp19
 70
     0
102
RTVSPropertyOp20
 70
     0
102
RTVSPropertyOp21
 70
     0
102
RTVSPropertyOp22
 70
     0
102
RTVSPropertyOp23
 70
     0
102
RTVSPropertyOp24
 70
     0
102
RTVSPropertyOp25
 70
     0
102
RTVSPropertyOp26
 70
     0
102
RTVSPropertyOp27
 70
     0
102
RTVSPropertyOp28
 70
     0
102
RTVSPropertyOp29
 70
     0
102
RTVSPropertyOp30
 70
     0
102
RTVSPropertyOp31
 70
     0
102
RTVSPropertyOp32
 70
     0
102
RTVSPropertyOp33
 70
     0
102
RTVSPropertyOp34
 70
     0
102
RTVSPropertyOp35
 70
     0
102
RTVSPropertyOp36
 70
     0
102
RTVSPropertyOp37
 70
     0
102
RTVSPropertyOp38
 70
     0
102
RTVSPropertyOp39
 70
     0
102
RTVSPropertyOp40
 70
     0
102
RTVSPropertyOp41
 70
     0
102
RTVSPropertyOp42
 70
     0
102
RTVSPropertyOp43
 70
     0
102
RTVSPropertyOp44
 70
     0
102
RTVSPropertyOp45
 70
     0
102
RTVSPropertyOp46
 70
     0
102
RTVSPropertyOp47
 70
     0
102
RTVSPropertyOp48
 70
     0
102
RTVSPropertyOp49
 70
     0
102
RTVSPropertyOp50
 70
     0
102
RTVSPropertyOp51
 70
     0
102
RTVSPropertyOp52
 70
     0
102
RTVSPropertyOp53
 70
     0
102
RTVSPropertyOp54
 70
     0
102
RTVSPropertyOp55
 70
     0
102
RTVSPropertyOp56
 70
     0
102
RTVSPropertyOp57
 70
     0
102
RTVSPropertyOp58
 70
     1
102
RTVSPropertyOp59
 70
     1
102
RTVSPropertyOp60
 70
     1
102
RTVSPropertyOp61
 70
     1
102
RTVSPropertyOp62
 70
     1
  0
XRECORD
  5
D44
102
{ACAD_REACTORS
330
D43
102
}
330
D43
100
AcDbXrecord
280
     1
102
RTVSPost2010Prop28
280
     0
102
RTVSPost2010PropOp28
 70
     1
102
RTVSPost2010Prop29
280
     1
102
RTVSPost2010PropOp29
 70
     1
102
RTVSPost2010Prop30
280
     1
102
RTVSPost2010PropOp30
 70
     1
102
RTVSPost2010Prop31
280
     0
102
RTVSPost2010PropOp31
 70
     1
102
RTVSPost2010Prop32
280
     0
102
RTVSPost2010PropOp32
 70
     1
102
RTVSPost2010Prop33
280
     0
102
RTVSPost2010PropOp33
 70
     1
102
RTVSPost2010Prop34
280
     0
102
RTVSPost2010PropOp34
 70
     1
102
RTVSPost2010Prop35
280
     0
102
RTVSPost2010PropOp35
 70
     1
102
RTVSPost2010Prop36
280
     0
102
RTVSPost2010PropOp36
 70
     1
102
RTVSPost2010Prop37
 90
       50
102
RTVSPost2010PropOp37
 70
     1
102
RTVSPost2010Prop38
140
0.0
102
RTVSPost2010PropOp38
 70
     1
102
RTVSPost2010Prop39
140
1.0
102
RTVSPost2010PropOp39
 70
     1
102
RTVSPost2010Prop40
 90
        0
102
RTVSPost2010PropOp40
 70
     1
102
RTVSPost2010Prop41ColorIndex
 90
       18
102
RTVSPost2010Prop41ColorRGB
 90
-16777216
102
RTVSPost2010PropOp41
 70
     1
102
RTVSPost2010Prop42
 90
       50
102
RTVSPost2010PropOp42
 70
     1
102
RTVSPost2010Prop43
 90
        3
102
RTVSPost2010PropOp43
 70
     1
102
RTVSPost2010Prop44ColorIndex
 90
        5
102
RTVSPost2010Prop44ColorRGB
 90
      255
102
RTVSPost2010PropOp44
 70
     1
102
RTVSPost2010Prop45
280
     0
102
RTVSPost2010PropOp45
 70
     1
102
RTVSPost2010Prop46
 90
       50
102
RTVSPost2010PropOp46
 70
     1
102
RTVSPost2010Prop47
 90
       50
102
RTVSPost2010PropOp47
 70
     1
102
RTVSPost2010Prop48
 90
       50
102
RTVSPost2010PropOp48
 70
     1
102
RTVSPost2010Prop49
280
     0
102
RTVSPost2010PropOp49
 70
     1
102
RTVSPost2010Prop50
 90
       50
102
RTVSPost2010PropOp50
 70
     1
102
RTVSPost2010Prop51ColorIndex
 90
      256
102
RTVSPost2010Prop51ColorRGB
 90
-16777216
102
RTVSPost2010PropOp51
 70
     0
102
RTVSPost2010Prop52
140
1.0
102
RTVSPost2010PropOp52
 70
     0
102
RTVSPost2010Prop53
 90
        2
102
RTVSPost2010PropOp53
 70
     1
102
RTVSPost2010Prop54
  1
strokes_ogs.tif
102
RTVSPost2010PropOp54
 70
     1
102
RTVSPost2010Prop55
280
     0
102
RTVSPost2010PropOp55
 70
     1
102
RTVSPost2010Prop56
140
1.0
102
RTVSPost2010PropOp56
 70
     1
102
RTVSPost2010Prop57
140
1.0
102
RTVSPost2010PropOp57
 70
     1
102
RTVSPropertyOp0
 70
     1
102
RTVSPropertyOp1
 70
     1
102
RTVSPropertyOp2
 70
     1
102
RTVSPropertyOp3
 70
     1
102
RTVSPropertyOp4
 70
     1
102
RTVSPropertyOp5
 70
     1
102
RTVSPropertyOp6
 70
     1
102
RTVSPropertyOp7
 70
     1
102
RTVSPropertyOp8
 70
     1
102
RTVSPropertyOp9
 70
     1
102
RTVSPropertyOp10
 70
     1
102
RTVSPropertyOp11
 70
     1
102
RTVSPropertyOp12
 70
     1
102
RTVSPropertyOp13
 70
     1
102
RTVSPropertyOp14
 70
     1
102
RTVSPropertyOp15
 70
     1
102
RTVSPropertyOp16
 70
     1
102
RTVSPropertyOp17
 70
     1
102
RTVSPropertyOp18
 70
     1
102
RTVSPropertyOp19
 70
     1
102
RTVSPropertyOp20
 70
     1
102
RTVSPropertyOp21
 70
     1
102
RTVSPropertyOp22
 70
     1
102
RTVSPropertyOp23
 70
     1
102
RTVSPropertyOp24
 70
     1
102
RTVSPropertyOp25
 70
     1
102
RTVSPropertyOp26
 70
     1
102
RTVSPropertyOp27
 70
     1
102
RTVSPropertyOp28
 70
     1
102
RTVSPropertyOp29
 70
     1
102
RTVSPropertyOp30
 70
     1
102
RTVSPropertyOp31
 70
     1
102
RTVSPropertyOp32
 70
     1
102
RTVSPropertyOp33
 70
     1
102
RTVSPropertyOp34
 70
     1
102
RTVSPropertyOp35
 70
     1
102
RTVSPropertyOp36
 70
     1
102
RTVSPropertyOp37
 70
     1
102
RTVSPropertyOp38
 70
     1
102
RTVSPropertyOp39
 70
     1
102
RTVSPropertyOp40
 70
     1
102
RTVSPropertyOp41
 70
     1
102
RTVSPropertyOp42
 70
     1
102
RTVSPropertyOp43
 70
     1
102
RTVSPropertyOp44
 70
     1
102
RTVSPropertyOp45
 70
     1
102
RTVSPropertyOp46
 70
     1
102
RTVSPropertyOp47
 70
     1
102
RTVSPropertyOp48
 70
     1
102
RTVSPropertyOp49
 70
     1
102
RTVSPropertyOp50
 70
     1
102
RTVSPropertyOp51
 70
     0
102
RTVSPropertyOp52
 70
     0
102
RTVSPropertyOp53
 70
     1
102
RTVSPropertyOp54
 70
     1
102
RTVSPropertyOp55
 70
     1
102
RTVSPropertyOp56
 70
     1
102
RTVSPropertyOp57
 70
     1
102
RTVSPropertyOp58
 70
     1
102
RTVSPropertyOp59
 70
     1
102
RTVSPropertyOp60
 70
     1
102
RTVSPropertyOp61
 70
     1
102
RTVSPropertyOp62
 70
     1
  0
XRECORD
  5
D5A
102
{ACAD_REACTORS
330
D59
102
}
330
D59
100
AcDbXrecord
280
     1
102
RTVSPost2010Prop28
280
     0
102
RTVSPost2010PropOp28
 70
     1
102
RTVSPost2010Prop29
280
     1
102
RTVSPost2010PropOp29
 70
     1
102
RTVSPost2010Prop30
280
     1
102
RTVSPost2010PropOp30
 70
     1
102
RTVSPost2010Prop31
280
     0
102
RTVSPost2010PropOp31
 70
     1
102
RTVSPost2010Prop32
280
     0
102
RTVSPost2010PropOp32
 70
     1
102
RTVSPost2010Prop33
280
     0
102
RTVSPost2010PropOp33
 70
     1
102
RTVSPost2010Prop34
280
     0
102
RTVSPost2010PropOp34
 70
     1
102
RTVSPost2010Prop35
280
     0
102
RTVSPost2010PropOp35
 70
     1
102
RTVSPost2010Prop36
280
     0
102
RTVSPost2010PropOp36
 70
     1
102
RTVSPost2010Prop37
 90
       50
102
RTVSPost2010PropOp37
 70
     1
102
RTVSPost2010Prop38
140
0.0
102
RTVSPost2010PropOp38
 70
     1
102
RTVSPost2010Prop39
140
1.0
102
RTVSPost2010PropOp39
 70
     1
102
RTVSPost2010Prop40
 90
        0
102
RTVSPost2010PropOp40
 70
     1
102
RTVSPost2010Prop41ColorIndex
 90
       18
102
RTVSPost2010Prop41ColorRGB
 90
-16777216
102
RTVSPost2010PropOp41
 70
     1
102
RTVSPost2010Prop42
 90
       50
102
RTVSPost2010PropOp42
 70
     1
102
RTVSPost2010Prop43
 90
        3
102
RTVSPost2010PropOp43
 70
     1
102
RTVSPost2010Prop44ColorIndex
 90
        5
102
RTVSPost2010Prop44ColorRGB
 90
      255
102
RTVSPost2010PropOp44
 70
     1
102
RTVSPost2010Prop45
280
     0
102
RTVSPost2010PropOp45
 70
     1
102
RTVSPost2010Prop46
 90
       50
102
RTVSPost2010PropOp46
 70
     1
102
RTVSPost2010Prop47
 90
       50
102
RTVSPost2010PropOp47
 70
     1
102
RTVSPost2010Prop48
 90
       50
102
RTVSPost2010PropOp48
 70
     1
102
RTVSPost2010Prop49
280
     0
102
RTVSPost2010PropOp49
 70
     1
102
RTVSPost2010Prop50
 90
       50
102
RTVSPost2010PropOp50
 70
     1
102
RTVSPost2010Prop51ColorIndex
 90
      256
102
RTVSPost2010Prop51ColorRGB
 90
-16777216
102
RTVSPost2010PropOp51
 70
     0
102
RTVSPost2010Prop52
140
1.0
102
RTVSPost2010PropOp52
 70
     0
102
RTVSPost2010Prop53
 90
        2
102
RTVSPost2010PropOp53
 70
     1
102
RTVSPost2010Prop54
  1
strokes_ogs.tif
102
RTVSPost2010PropOp54
 70
     1
102
RTVSPost2010Prop55
280
     0
102
RTVSPost2010PropOp55
 70
     1
102
RTVSPost2010Prop56
140
1.0
102
RTVSPost2010PropOp56
 70
     1
102
RTVSPost2010Prop57
140
1.0
102
RTVSPost2010PropOp57
 70
     1
102
RTVSPropertyOp0
 70
     1
102
RTVSPropertyOp1
 70
     1
102
RTVSPropertyOp2
 70
     1
102
RTVSPropertyOp3
 70
     1
102
RTVSPropertyOp4
 70
     1
102
RTVSPropertyOp5
 70
     1
102
RTVSPropertyOp6
 70
     1
102
RTVSPropertyOp7
 70
     1
102
RTVSPropertyOp8
 70
     1
102
RTVSPropertyOp9
 70
     1
102
RTVSPropertyOp10
 70
     1
102
RTVSPropertyOp11
 70
     1
102
RTVSPropertyOp12
 70
     1
102
RTVSPropertyOp13
 70
     1
102
RTVSPropertyOp14
 70
     1
102
RTVSPropertyOp15
 70
     1
102
RTVSPropertyOp16
 70
     1
102
RTVSPropertyOp17
 70
     1
102
RTVSPropertyOp18
 70
     1
102
RTVSPropertyOp19
 70
     1
102
RTVSPropertyOp20
 70
     1
102
RTVSPropertyOp21
 70
     1
102
RTVSPropertyOp22
 70
     1
102
RTVSPropertyOp23
 70
     1
102
RTVSPropertyOp24
 70
     1
102
RTVSPropertyOp25
 70
     1
102
RTVSPropertyOp26
 70
     1
102
RTVSPropertyOp27
 70
     1
102
RTVSPropertyOp28
 70
     1
102
RTVSPropertyOp29
 70
     1
102
RTVSPropertyOp30
 70
     1
102
RTVSPropertyOp31
 70
     1
102
RTVSPropertyOp32
 70
     1
102
RTVSPropertyOp33
 70
     1
102
RTVSPropertyOp34
 70
     1
102
RTVSPropertyOp35
 70
     1
102
RTVSPropertyOp36
 70
     1
102
RTVSPropertyOp37
 70
     1
102
RTVSPropertyOp38
 70
     1
102
RTVSPropertyOp39
 70
     1
102
RTVSPropertyOp40
 70
     1
102
RTVSPropertyOp41
 70
     1
102
RTVSPropertyOp42
 70
     1
102
RTVSPropertyOp43
 70
     1
102
RTVSPropertyOp44
 70
     1
102
RTVSPropertyOp45
 70
     1
102
RTVSPropertyOp46
 70
     1
102
RTVSPropertyOp47
 70
     1
102
RTVSPropertyOp48
 70
     1
102
RTVSPropertyOp49
 70
     1
102
RTVSPropertyOp50
 70
     1
102
RTVSPropertyOp51
 70
     0
102
RTVSPropertyOp52
 70
     0
102
RTVSPropertyOp53
 70
     1
102
RTVSPropertyOp54
 70
     1
102
RTVSPropertyOp55
 70
     1
102
RTVSPropertyOp56
 70
     1
102
RTVSPropertyOp57
 70
     1
102
RTVSPropertyOp58
 70
     1
102
RTVSPropertyOp59
 70
     1
102
RTVSPropertyOp60
 70
     1
102
RTVSPropertyOp61
 70
     1
102
RTVSPropertyOp62
 70
     1
  0
XRECORD
  5
D58
102
{ACAD_REACTORS
330
D57
102
}
330
D57
100
AcDbXrecord
280
     1
102
RTVSPost2010Prop28
280
     0
102
RTVSPost2010PropOp28
 70
     1
102
RTVSPost2010Prop29
280
     1
102
RTVSPost2010PropOp29
 70
     1
102
RTVSPost2010Prop30
280
     1
102
RTVSPost2010PropOp30
 70
     1
102
RTVSPost2010Prop31
280
     0
102
RTVSPost2010PropOp31
 70
     1
102
RTVSPost2010Prop32
280
     0
102
RTVSPost2010PropOp32
 70
     1
102
RTVSPost2010Prop33
280
     0
102
RTVSPost2010PropOp33
 70
     1
102
RTVSPost2010Prop34
280
     0
102
RTVSPost2010PropOp34
 70
     1
102
RTVSPost2010Prop35
280
     0
102
RTVSPost2010PropOp35
 70
     1
102
RTVSPost2010Prop36
280
     0
102
RTVSPost2010PropOp36
 70
     1
102
RTVSPost2010Prop37
 90
       50
102
RTVSPost2010PropOp37
 70
     1
102
RTVSPost2010Prop38
140
0.0
102
RTVSPost2010PropOp38
 70
     1
102
RTVSPost2010Prop39
140
1.0
102
RTVSPost2010PropOp39
 70
     1
102
RTVSPost2010Prop40
 90
        0
102
RTVSPost2010PropOp40
 70
     1
102
RTVSPost2010Prop41ColorIndex
 90
       18
102
RTVSPost2010Prop41ColorRGB
 90
-16777216
102
RTVSPost2010PropOp41
 70
     1
102
RTVSPost2010Prop42
 90
       50
102
RTVSPost2010PropOp42
 70
     1
102
RTVSPost2010Prop43
 90
        3
102
RTVSPost2010PropOp43
 70
     1
102
RTVSPost2010Prop44ColorIndex
 90
        5
102
RTVSPost2010Prop44ColorRGB
 90
      255
102
RTVSPost2010PropOp44
 70
     1
102
RTVSPost2010Prop45
280
     0
102
RTVSPost2010PropOp45
 70
     1
102
RTVSPost2010Prop46
 90
       50
102
RTVSPost2010PropOp46
 70
     1
102
RTVSPost2010Prop47
 90
       50
102
RTVSPost2010PropOp47
 70
     1
102
RTVSPost2010Prop48
 90
       50
102
RTVSPost2010PropOp48
 70
     1
102
RTVSPost2010Prop49
280
     0
102
RTVSPost2010PropOp49
 70
     1
102
RTVSPost2010Prop50
 90
       50
102
RTVSPost2010PropOp50
 70
     1
102
RTVSPost2010Prop51ColorIndex
 90
      256
102
RTVSPost2010Prop51ColorRGB
 90
-16777216
102
RTVSPost2010PropOp51
 70
     0
102
RTVSPost2010Prop52
140
1.0
102
RTVSPost2010PropOp52
 70
     0
102
RTVSPost2010Prop53
 90
        2
102
RTVSPost2010PropOp53
 70
     1
102
RTVSPost2010Prop54
  1
strokes_ogs.tif
102
RTVSPost2010PropOp54
 70
     1
102
RTVSPost2010Prop55
280
     0
102
RTVSPost2010PropOp55
 70
     1
102
RTVSPost2010Prop56
140
1.0
102
RTVSPost2010PropOp56
 70
     1
102
RTVSPost2010Prop57
140
1.0
102
RTVSPost2010PropOp57
 70
     1
102
RTVSPropertyOp0
 70
     1
102
RTVSPropertyOp1
 70
     1
102
RTVSPropertyOp2
 70
     1
102
RTVSPropertyOp3
 70
     1
102
RTVSPropertyOp4
 70
     1
102
RTVSPropertyOp5
 70
     1
102
RTVSPropertyOp6
 70
     1
102
RTVSPropertyOp7
 70
     1
102
RTVSPropertyOp8
 70
     1
102
RTVSPropertyOp9
 70
     1
102
RTVSPropertyOp10
 70
     1
102
RTVSPropertyOp11
 70
     1
102
RTVSPropertyOp12
 70
     1
102
RTVSPropertyOp13
 70
     1
102
RTVSPropertyOp14
 70
     1
102
RTVSPropertyOp15
 70
     1
102
RTVSPropertyOp16
 70
     1
102
RTVSPropertyOp17
 70
     1
102
RTVSPropertyOp18
 70
     1
102
RTVSPropertyOp19
 70
     1
102
RTVSPropertyOp20
 70
     1
102
RTVSPropertyOp21
 70
     1
102
RTVSPropertyOp22
 70
     1
102
RTVSPropertyOp23
 70
     1
102
RTVSPropertyOp24
 70
     1
102
RTVSPropertyOp25
 70
     1
102
RTVSPropertyOp26
 70
     1
102
RTVSPropertyOp27
 70
     1
102
RTVSPropertyOp28
 70
     1
102
RTVSPropertyOp29
 70
     1
102
RTVSPropertyOp30
 70
     1
102
RTVSPropertyOp31
 70
     1
102
RTVSPropertyOp32
 70
     1
102
RTVSPropertyOp33
 70
     1
102
RTVSPropertyOp34
 70
     1
102
RTVSPropertyOp35
 70
     1
102
RTVSPropertyOp36
 70
     1
102
RTVSPropertyOp37
 70
     1
102
RTVSPropertyOp38
 70
     1
102
RTVSPropertyOp39
 70
     1
102
RTVSPropertyOp40
 70
     1
102
RTVSPropertyOp41
 70
     1
102
RTVSPropertyOp42
 70
     1
102
RTVSPropertyOp43
 70
     1
102
RTVSPropertyOp44
 70
     1
102
RTVSPropertyOp45
 70
     1
102
RTVSPropertyOp46
 70
     1
102
RTVSPropertyOp47
 70
     1
102
RTVSPropertyOp48
 70
     1
102
RTVSPropertyOp49
 70
     1
102
RTVSPropertyOp50
 70
     1
102
RTVSPropertyOp51
 70
     0
102
RTVSPropertyOp52
 70
     0
102
RTVSPropertyOp53
 70
     1
102
RTVSPropertyOp54
 70
     1
102
RTVSPropertyOp55
 70
     1
102
RTVSPropertyOp56
 70
     1
102
RTVSPropertyOp57
 70
     1
102
RTVSPropertyOp58
 70
     1
102
RTVSPropertyOp59
 70
     1
102
RTVSPropertyOp60
 70
     1
102
RTVSPropertyOp61
 70
     1
102
RTVSPropertyOp62
 70
     1
  0
XRECORD
  5
D52
102
{ACAD_REACTORS
330
D51
102
}
330
D51
100
AcDbXrecord
280
     1
102
RTVSPost2010Prop28
280
     0
102
RTVSPost2010PropOp28
 70
     1
102
RTVSPost2010Prop29
280
     1
102
RTVSPost2010PropOp29
 70
     1
102
RTVSPost2010Prop30
280
     1
102
RTVSPost2010PropOp30
 70
     1
102
RTVSPost2010Prop31
280
     0
102
RTVSPost2010PropOp31
 70
     1
102
RTVSPost2010Prop32
280
     0
102
RTVSPost2010PropOp32
 70
     1
102
RTVSPost2010Prop33
280
     0
102
RTVSPost2010PropOp33
 70
     1
102
RTVSPost2010Prop34
280
     0
102
RTVSPost2010PropOp34
 70
     1
102
RTVSPost2010Prop35
280
     0
102
RTVSPost2010PropOp35
 70
     1
102
RTVSPost2010Prop36
280
     0
102
RTVSPost2010PropOp36
 70
     1
102
RTVSPost2010Prop37
 90
       50
102
RTVSPost2010PropOp37
 70
     1
102
RTVSPost2010Prop38
140
0.0
102
RTVSPost2010PropOp38
 70
     1
102
RTVSPost2010Prop39
140
1.0
102
RTVSPost2010PropOp39
 70
     1
102
RTVSPost2010Prop40
 90
        0
102
RTVSPost2010PropOp40
 70
     1
102
RTVSPost2010Prop41ColorIndex
 90
       18
102
RTVSPost2010Prop41ColorRGB
 90
-16777216
102
RTVSPost2010PropOp41
 70
     1
102
RTVSPost2010Prop42
 90
       50
102
RTVSPost2010PropOp42
 70
     1
102
RTVSPost2010Prop43
 90
        3
102
RTVSPost2010PropOp43
 70
     1
102
RTVSPost2010Prop44ColorIndex
 90
        5
102
RTVSPost2010Prop44ColorRGB
 90
      255
102
RTVSPost2010PropOp44
 70
     1
102
RTVSPost2010Prop45
280
     0
102
RTVSPost2010PropOp45
 70
     1
102
RTVSPost2010Prop46
 90
       50
102
RTVSPost2010PropOp46
 70
     1
102
RTVSPost2010Prop47
 90
       50
102
RTVSPost2010PropOp47
 70
     1
102
RTVSPost2010Prop48
 90
       50
102
RTVSPost2010PropOp48
 70
     1
102
RTVSPost2010Prop49
280
     0
102
RTVSPost2010PropOp49
 70
     1
102
RTVSPost2010Prop50
 90
       50
102
RTVSPost2010PropOp50
 70
     1
102
RTVSPost2010Prop51ColorIndex
 90
      256
102
RTVSPost2010Prop51ColorRGB
 90
-16777216
102
RTVSPost2010PropOp51
 70
     0
102
RTVSPost2010Prop52
140
1.0
102
RTVSPost2010PropOp52
 70
     0
102
RTVSPost2010Prop53
 90
        2
102
RTVSPost2010PropOp53
 70
     1
102
RTVSPost2010Prop54
  1
strokes_ogs.tif
102
RTVSPost2010PropOp54
 70
     1
102
RTVSPost2010Prop55
280
     0
102
RTVSPost2010PropOp55
 70
     1
102
RTVSPost2010Prop56
140
1.0
102
RTVSPost2010PropOp56
 70
     1
102
RTVSPost2010Prop57
140
1.0
102
RTVSPost2010PropOp57
 70
     1
102
RTVSPropertyOp0
 70
     1
102
RTVSPropertyOp1
 70
     1
102
RTVSPropertyOp2
 70
     1
102
RTVSPropertyOp3
 70
     1
102
RTVSPropertyOp4
 70
     1
102
RTVSPropertyOp5
 70
     1
102
RTVSPropertyOp6
 70
     1
102
RTVSPropertyOp7
 70
     1
102
RTVSPropertyOp8
 70
     1
102
RTVSPropertyOp9
 70
     1
102
RTVSPropertyOp10
 70
     1
102
RTVSPropertyOp11
 70
     1
102
RTVSPropertyOp12
 70
     1
102
RTVSPropertyOp13
 70
     1
102
RTVSPropertyOp14
 70
     1
102
RTVSPropertyOp15
 70
     1
102
RTVSPropertyOp16
 70
     1
102
RTVSPropertyOp17
 70
     1
102
RTVSPropertyOp18
 70
     1
102
RTVSPropertyOp19
 70
     1
102
RTVSPropertyOp20
 70
     1
102
RTVSPropertyOp21
 70
     1
102
RTVSPropertyOp22
 70
     1
102
RTVSPropertyOp23
 70
     1
102
RTVSPropertyOp24
 70
     1
102
RTVSPropertyOp25
 70
     1
102
RTVSPropertyOp26
 70
     1
102
RTVSPropertyOp27
 70
     1
102
RTVSPropertyOp28
 70
     1
102
RTVSPropertyOp29
 70
     1
102
RTVSPropertyOp30
 70
     1
102
RTVSPropertyOp31
 70
     1
102
RTVSPropertyOp32
 70
     1
102
RTVSPropertyOp33
 70
     1
102
RTVSPropertyOp34
 70
     1
102
RTVSPropertyOp35
 70
     1
102
RTVSPropertyOp36
 70
     1
102
RTVSPropertyOp37
 70
     1
102
RTVSPropertyOp38
 70
     1
102
RTVSPropertyOp39
 70
     1
102
RTVSPropertyOp40
 70
     1
102
RTVSPropertyOp41
 70
     1
102
RTVSPropertyOp42
 70
     1
102
RTVSPropertyOp43
 70
     1
102
RTVSPropertyOp44
 70
     1
102
RTVSPropertyOp45
 70
     1
102
RTVSPropertyOp46
 70
     1
102
RTVSPropertyOp47
 70
     1
102
RTVSPropertyOp48
 70
     1
102
RTVSPropertyOp49
 70
     1
102
RTVSPropertyOp50
 70
     1
102
RTVSPropertyOp51
 70
     0
102
RTVSPropertyOp52
 70
     0
102
RTVSPropertyOp53
 70
     1
102
RTVSPropertyOp54
 70
     1
102
RTVSPropertyOp55
 70
     1
102
RTVSPropertyOp56
 70
     1
102
RTVSPropertyOp57
 70
     1
102
RTVSPropertyOp58
 70
     1
102
RTVSPropertyOp59
 70
     1
102
RTVSPropertyOp60
 70
     1
102
RTVSPropertyOp61
 70
     1
102
RTVSPropertyOp62
 70
     1
  0
XRECORD
  5
D54
102
{ACAD_REACTORS
330
D53
102
}
330
D53
100
AcDbXrecord
280
     1
102
RTVSPost2010Prop28
280
     0
102
RTVSPost2010PropOp28
 70
     1
102
RTVSPost2010Prop29
280
     1
102
RTVSPost2010PropOp29
 70
     1
102
RTVSPost2010Prop30
280
     1
102
RTVSPost2010PropOp30
 70
     1
102
RTVSPost2010Prop31
280
     0
102
RTVSPost2010PropOp31
 70
     1
102
RTVSPost2010Prop32
280
     0
102
RTVSPost2010PropOp32
 70
     1
102
RTVSPost2010Prop33
280
     0
102
RTVSPost2010PropOp33
 70
     1
102
RTVSPost2010Prop34
280
     0
102
RTVSPost2010PropOp34
 70
     1
102
RTVSPost2010Prop35
280
     0
102
RTVSPost2010PropOp35
 70
     1
102
RTVSPost2010Prop36
280
     0
102
RTVSPost2010PropOp36
 70
     1
102
RTVSPost2010Prop37
 90
       50
102
RTVSPost2010PropOp37
 70
     1
102
RTVSPost2010Prop38
140
0.0
102
RTVSPost2010PropOp38
 70
     1
102
RTVSPost2010Prop39
140
1.0
102
RTVSPost2010PropOp39
 70
     1
102
RTVSPost2010Prop40
 90
        0
102
RTVSPost2010PropOp40
 70
     1
102
RTVSPost2010Prop41ColorIndex
 90
       18
102
RTVSPost2010Prop41ColorRGB
 90
-16777216
102
RTVSPost2010PropOp41
 70
     1
102
RTVSPost2010Prop42
 90
       50
102
RTVSPost2010PropOp42
 70
     1
102
RTVSPost2010Prop43
 90
        3
102
RTVSPost2010PropOp43
 70
     1
102
RTVSPost2010Prop44ColorIndex
 90
        5
102
RTVSPost2010Prop44ColorRGB
 90
      255
102
RTVSPost2010PropOp44
 70
     1
102
RTVSPost2010Prop45
280
     0
102
RTVSPost2010PropOp45
 70
     1
102
RTVSPost2010Prop46
 90
       50
102
RTVSPost2010PropOp46
 70
     1
102
RTVSPost2010Prop47
 90
       50
102
RTVSPost2010PropOp47
 70
     1
102
RTVSPost2010Prop48
 90
       50
102
RTVSPost2010PropOp48
 70
     1
102
RTVSPost2010Prop49
280
     0
102
RTVSPost2010PropOp49
 70
     1
102
RTVSPost2010Prop50
 90
       50
102
RTVSPost2010PropOp50
 70
     1
102
RTVSPost2010Prop51ColorIndex
 90
      256
102
RTVSPost2010Prop51ColorRGB
 90
-16777216
102
RTVSPost2010PropOp51
 70
     0
102
RTVSPost2010Prop52
140
1.0
102
RTVSPost2010PropOp52
 70
     0
102
RTVSPost2010Prop53
 90
        2
102
RTVSPost2010PropOp53
 70
     1
102
RTVSPost2010Prop54
  1
strokes_ogs.tif
102
RTVSPost2010PropOp54
 70
     1
102
RTVSPost2010Prop55
280
     0
102
RTVSPost2010PropOp55
 70
     1
102
RTVSPost2010Prop56
140
1.0
102
RTVSPost2010PropOp56
 70
     1
102
RTVSPost2010Prop57
140
1.0
102
RTVSPost2010PropOp57
 70
     1
102
RTVSPropertyOp0
 70
     1
102
RTVSPropertyOp1
 70
     1
102
RTVSPropertyOp2
 70
     1
102
RTVSPropertyOp3
 70
     1
102
RTVSPropertyOp4
 70
     1
102
RTVSPropertyOp5
 70
     1
102
RTVSPropertyOp6
 70
     1
102
RTVSPropertyOp7
 70
     1
102
RTVSPropertyOp8
 70
     1
102
RTVSPropertyOp9
 70
     1
102
RTVSPropertyOp10
 70
     1
102
RTVSPropertyOp11
 70
     1
102
RTVSPropertyOp12
 70
     1
102
RTVSPropertyOp13
 70
     1
102
RTVSPropertyOp14
 70
     1
102
RTVSPropertyOp15
 70
     1
102
RTVSPropertyOp16
 70
     1
102
RTVSPropertyOp17
 70
     1
102
RTVSPropertyOp18
 70
     1
102
RTVSPropertyOp19
 70
     1
102
RTVSPropertyOp20
 70
     1
102
RTVSPropertyOp21
 70
     1
102
RTVSPropertyOp22
 70
     1
102
RTVSPropertyOp23
 70
     1
102
RTVSPropertyOp24
 70
     1
102
RTVSPropertyOp25
 70
     1
102
RTVSPropertyOp26
 70
     1
102
RTVSPropertyOp27
 70
     1
102
RTVSPropertyOp28
 70
     1
102
RTVSPropertyOp29
 70
     1
102
RTVSPropertyOp30
 70
     1
102
RTVSPropertyOp31
 70
     1
102
RTVSPropertyOp32
 70
     1
102
RTVSPropertyOp33
 70
     1
102
RTVSPropertyOp34
 70
     1
102
RTVSPropertyOp35
 70
     1
102
RTVSPropertyOp36
 70
     1
102
RTVSPropertyOp37
 70
     1
102
RTVSPropertyOp38
 70
     1
102
RTVSPropertyOp39
 70
     1
102
RTVSPropertyOp40
 70
     1
102
RTVSPropertyOp41
 70
     1
102
RTVSPropertyOp42
 70
     1
102
RTVSPropertyOp43
 70
     1
102
RTVSPropertyOp44
 70
     1
102
RTVSPropertyOp45
 70
     1
102
RTVSPropertyOp46
 70
     1
102
RTVSPropertyOp47
 70
     1
102
RTVSPropertyOp48
 70
     1
102
RTVSPropertyOp49
 70
     1
102
RTVSPropertyOp50
 70
     1
102
RTVSPropertyOp51
 70
     0
102
RTVSPropertyOp52
 70
     0
102
RTVSPropertyOp53
 70
     1
102
RTVSPropertyOp54
 70
     1
102
RTVSPropertyOp55
 70
     1
102
RTVSPropertyOp56
 70
     1
102
RTVSPropertyOp57
 70
     1
102
RTVSPropertyOp58
 70
     1
102
RTVSPropertyOp59
 70
     1
102
RTVSPropertyOp60
 70
     1
102
RTVSPropertyOp61
 70
     1
102
RTVSPropertyOp62
 70
     1
  0
XRECORD
  5
D4A
102
{ACAD_REACTORS
330
D49
102
}
330
D49
100
AcDbXrecord
280
     1
102
RTVSPost2010Prop28
280
     0
102
RTVSPost2010PropOp28
 70
     1
102
RTVSPost2010Prop29
280
     1
102
RTVSPost2010PropOp29
 70
     1
102
RTVSPost2010Prop30
280
     1
102
RTVSPost2010PropOp30
 70
     1
102
RTVSPost2010Prop31
280
     0
102
RTVSPost2010PropOp31
 70
     1
102
RTVSPost2010Prop32
280
     0
102
RTVSPost2010PropOp32
 70
     1
102
RTVSPost2010Prop33
280
     0
102
RTVSPost2010PropOp33
 70
     1
102
RTVSPost2010Prop34
280
     0
102
RTVSPost2010PropOp34
 70
     1
102
RTVSPost2010Prop35
280
     0
102
RTVSPost2010PropOp35
 70
     1
102
RTVSPost2010Prop36
280
     0
102
RTVSPost2010PropOp36
 70
     1
102
RTVSPost2010Prop37
 90
       50
102
RTVSPost2010PropOp37
 70
     1
102
RTVSPost2010Prop38
140
0.0
102
RTVSPost2010PropOp38
 70
     1
102
RTVSPost2010Prop39
140
1.0
102
RTVSPost2010PropOp39
 70
     1
102
RTVSPost2010Prop40
 90
        0
102
RTVSPost2010PropOp40
 70
     1
102
RTVSPost2010Prop41ColorIndex
 90
       18
102
RTVSPost2010Prop41ColorRGB
 90
-16777216
102
RTVSPost2010PropOp41
 70
     1
102
RTVSPost2010Prop42
 90
       50
102
RTVSPost2010PropOp42
 70
     1
102
RTVSPost2010Prop43
 90
        3
102
RTVSPost2010PropOp43
 70
     1
102
RTVSPost2010Prop44ColorIndex
 90
        5
102
RTVSPost2010Prop44ColorRGB
 90
      255
102
RTVSPost2010PropOp44
 70
     1
102
RTVSPost2010Prop45
280
     0
102
RTVSPost2010PropOp45
 70
     1
102
RTVSPost2010Prop46
 90
       50
102
RTVSPost2010PropOp46
 70
     1
102
RTVSPost2010Prop47
 90
       50
102
RTVSPost2010PropOp47
 70
     1
102
RTVSPost2010Prop48
 90
       50
102
RTVSPost2010PropOp48
 70
     1
102
RTVSPost2010Prop49
280
     0
102
RTVSPost2010PropOp49
 70
     1
102
RTVSPost2010Prop50
 90
       50
102
RTVSPost2010PropOp50
 70
     1
102
RTVSPost2010Prop51ColorIndex
 90
      256
102
RTVSPost2010Prop51ColorRGB
 90
-16777216
102
RTVSPost2010PropOp51
 70
     0
102
RTVSPost2010Prop52
140
1.0
102
RTVSPost2010PropOp52
 70
     0
102
RTVSPost2010Prop53
 90
        2
102
RTVSPost2010PropOp53
 70
     1
102
RTVSPost2010Prop54
  1
strokes_ogs.tif
102
RTVSPost2010PropOp54
 70
     1
102
RTVSPost2010Prop55
280
     0
102
RTVSPost2010PropOp55
 70
     1
102
RTVSPost2010Prop56
140
1.0
102
RTVSPost2010PropOp56
 70
     1
102
RTVSPost2010Prop57
140
1.0
102
RTVSPost2010PropOp57
 70
     1
102
RTVSPropertyOp0
 70
     1
102
RTVSPropertyOp1
 70
     1
102
RTVSPropertyOp2
 70
     1
102
RTVSPropertyOp3
 70
     1
102
RTVSPropertyOp4
 70
     1
102
RTVSPropertyOp5
 70
     1
102
RTVSPropertyOp6
 70
     1
102
RTVSPropertyOp7
 70
     1
102
RTVSPropertyOp8
 70
     1
102
RTVSPropertyOp9
 70
     1
102
RTVSPropertyOp10
 70
     1
102
RTVSPropertyOp11
 70
     1
102
RTVSPropertyOp12
 70
     1
102
RTVSPropertyOp13
 70
     1
102
RTVSPropertyOp14
 70
     1
102
RTVSPropertyOp15
 70
     1
102
RTVSPropertyOp16
 70
     1
102
RTVSPropertyOp17
 70
     1
102
RTVSPropertyOp18
 70
     1
102
RTVSPropertyOp19
 70
     1
102
RTVSPropertyOp20
 70
     1
102
RTVSPropertyOp21
 70
     1
102
RTVSPropertyOp22
 70
     1
102
RTVSPropertyOp23
 70
     1
102
RTVSPropertyOp24
 70
     1
102
RTVSPropertyOp25
 70
     1
102
RTVSPropertyOp26
 70
     1
102
RTVSPropertyOp27
 70
     1
102
RTVSPropertyOp28
 70
     1
102
RTVSPropertyOp29
 70
     1
102
RTVSPropertyOp30
 70
     1
102
RTVSPropertyOp31
 70
     1
102
RTVSPropertyOp32
 70
     1
102
RTVSPropertyOp33
 70
     1
102
RTVSPropertyOp34
 70
     1
102
RTVSPropertyOp35
 70
     1
102
RTVSPropertyOp36
 70
     1
102
RTVSPropertyOp37
 70
     1
102
RTVSPropertyOp38
 70
     1
102
RTVSPropertyOp39
 70
     1
102
RTVSPropertyOp40
 70
     1
102
RTVSPropertyOp41
 70
     1
102
RTVSPropertyOp42
 70
     1
102
RTVSPropertyOp43
 70
     1
102
RTVSPropertyOp44
 70
     1
102
RTVSPropertyOp45
 70
     1
102
RTVSPropertyOp46
 70
     1
102
RTVSPropertyOp47
 70
     1
102
RTVSPropertyOp48
 70
     1
102
RTVSPropertyOp49
 70
     1
102
RTVSPropertyOp50
 70
     1
102
RTVSPropertyOp51
 70
     0
102
RTVSPropertyOp52
 70
     0
102
RTVSPropertyOp53
 70
     1
102
RTVSPropertyOp54
 70
     1
102
RTVSPropertyOp55
 70
     1
102
RTVSPropertyOp56
 70
     1
102
RTVSPropertyOp57
 70
     1
102
RTVSPropertyOp58
 70
     1
102
RTVSPropertyOp59
 70
     1
102
RTVSPropertyOp60
 70
     1
102
RTVSPropertyOp61
 70
     1
102
RTVSPropertyOp62
 70
     1
  0
XRECORD
  5
D3E
102
{ACAD_REACTORS
330
D3D
102
}
330
D3D
100
AcDbXrecord
280
     1
102
RTVSPost2010Prop28
280
     0
102
RTVSPost2010PropOp28
 70
     1
102
RTVSPost2010Prop29
280
     1
102
RTVSPost2010PropOp29
 70
     1
102
RTVSPost2010Prop30
280
     1
102
RTVSPost2010PropOp30
 70
     1
102
RTVSPost2010Prop31
280
     0
102
RTVSPost2010PropOp31
 70
     1
102
RTVSPost2010Prop32
280
     0
102
RTVSPost2010PropOp32
 70
     1
102
RTVSPost2010Prop33
280
     0
102
RTVSPost2010PropOp33
 70
     1
102
RTVSPost2010Prop34
280
     0
102
RTVSPost2010PropOp34
 70
     1
102
RTVSPost2010Prop35
280
     0
102
RTVSPost2010PropOp35
 70
     1
102
RTVSPost2010Prop36
280
     0
102
RTVSPost2010PropOp36
 70
     1
102
RTVSPost2010Prop37
 90
       50
102
RTVSPost2010PropOp37
 70
     1
102
RTVSPost2010Prop38
140
0.0
102
RTVSPost2010PropOp38
 70
     1
102
RTVSPost2010Prop39
140
1.0
102
RTVSPost2010PropOp39
 70
     1
102
RTVSPost2010Prop40
 90
        0
102
RTVSPost2010PropOp40
 70
     1
102
RTVSPost2010Prop41ColorIndex
 90
       18
102
RTVSPost2010Prop41ColorRGB
 90
-16777216
102
RTVSPost2010PropOp41
 70
     1
102
RTVSPost2010Prop42
 90
       50
102
RTVSPost2010PropOp42
 70
     1
102
RTVSPost2010Prop43
 90
        3
102
RTVSPost2010PropOp43
 70
     1
102
RTVSPost2010Prop44ColorIndex
 90
        5
102
RTVSPost2010Prop44ColorRGB
 90
      255
102
RTVSPost2010PropOp44
 70
     1
102
RTVSPost2010Prop45
280
     0
102
RTVSPost2010PropOp45
 70
     1
102
RTVSPost2010Prop46
 90
       50
102
RTVSPost2010PropOp46
 70
     1
102
RTVSPost2010Prop47
 90
       50
102
RTVSPost2010PropOp47
 70
     1
102
RTVSPost2010Prop48
 90
       50
102
RTVSPost2010PropOp48
 70
     1
102
RTVSPost2010Prop49
280
     0
102
RTVSPost2010PropOp49
 70
     1
102
RTVSPost2010Prop50
 90
       50
102
RTVSPost2010PropOp50
 70
     1
102
RTVSPost2010Prop51ColorIndex
 90
      256
102
RTVSPost2010Prop51ColorRGB
 90
-16777216
102
RTVSPost2010PropOp51
 70
     0
102
RTVSPost2010Prop52
140
1.0
102
RTVSPost2010PropOp52
 70
     0
102
RTVSPost2010Prop53
 90
        2
102
RTVSPost2010PropOp53
 70
     1
102
RTVSPost2010Prop54
  1
strokes_ogs.tif
102
RTVSPost2010PropOp54
 70
     1
102
RTVSPost2010Prop55
280
     0
102
RTVSPost2010PropOp55
 70
     1
102
RTVSPost2010Prop56
140
1.0
102
RTVSPost2010PropOp56
 70
     1
102
RTVSPost2010Prop57
140
1.0
102
RTVSPost2010PropOp57
 70
     1
102
RTVSPropertyOp0
 70
     1
102
RTVSPropertyOp1
 70
     1
102
RTVSPropertyOp2
 70
     1
102
RTVSPropertyOp3
 70
     1
102
RTVSPropertyOp4
 70
     1
102
RTVSPropertyOp5
 70
     1
102
RTVSPropertyOp6
 70
     1
102
RTVSPropertyOp7
 70
     1
102
RTVSPropertyOp8
 70
     1
102
RTVSPropertyOp9
 70
     1
102
RTVSPropertyOp10
 70
     1
102
RTVSPropertyOp11
 70
     1
102
RTVSPropertyOp12
 70
     1
102
RTVSPropertyOp13
 70
     1
102
RTVSPropertyOp14
 70
     1
102
RTVSPropertyOp15
 70
     1
102
RTVSPropertyOp16
 70
     1
102
RTVSPropertyOp17
 70
     1
102
RTVSPropertyOp18
 70
     1
102
RTVSPropertyOp19
 70
     1
102
RTVSPropertyOp20
 70
     1
102
RTVSPropertyOp21
 70
     1
102
RTVSPropertyOp22
 70
     1
102
RTVSPropertyOp23
 70
     1
102
RTVSPropertyOp24
 70
     1
102
RTVSPropertyOp25
 70
     1
102
RTVSPropertyOp26
 70
     1
102
RTVSPropertyOp27
 70
     1
102
RTVSPropertyOp28
 70
     1
102
RTVSPropertyOp29
 70
     1
102
RTVSPropertyOp30
 70
     1
102
RTVSPropertyOp31
 70
     1
102
RTVSPropertyOp32
 70
     1
102
RTVSPropertyOp33
 70
     1
102
RTVSPropertyOp34
 70
     1
102
RTVSPropertyOp35
 70
     1
102
RTVSPropertyOp36
 70
     1
102
RTVSPropertyOp37
 70
     1
102
RTVSPropertyOp38
 70
     1
102
RTVSPropertyOp39
 70
     1
102
RTVSPropertyOp40
 70
     1
102
RTVSPropertyOp41
 70
     1
102
RTVSPropertyOp42
 70
     1
102
RTVSPropertyOp43
 70
     1
102
RTVSPropertyOp44
 70
     1
102
RTVSPropertyOp45
 70
     1
102
RTVSPropertyOp46
 70
     1
102
RTVSPropertyOp47
 70
     1
102
RTVSPropertyOp48
 70
     1
102
RTVSPropertyOp49
 70
     1
102
RTVSPropertyOp50
 70
     1
102
RTVSPropertyOp51
 70
     0
102
RTVSPropertyOp52
 70
     0
102
RTVSPropertyOp53
 70
     1
102
RTVSPropertyOp54
 70
     1
102
RTVSPropertyOp55
 70
     1
102
RTVSPropertyOp56
 70
     1
102
RTVSPropertyOp57
 70
     1
102
RTVSPropertyOp58
 70
     1
102
RTVSPropertyOp59
 70
     1
102
RTVSPropertyOp60
 70
     1
102
RTVSPropertyOp61
 70
     1
102
RTVSPropertyOp62
 70
     1
  0
XRECORD
  5
D56
102
{ACAD_REACTORS
330
D55
102
}
330
D55
100
AcDbXrecord
280
     1
102
RTVSPost2010Prop28
280
     0
102
RTVSPost2010PropOp28
 70
     1
102
RTVSPost2010Prop29
280
     1
102
RTVSPost2010PropOp29
 70
     1
102
RTVSPost2010Prop30
280
     1
102
RTVSPost2010PropOp30
 70
     1
102
RTVSPost2010Prop31
280
     0
102
RTVSPost2010PropOp31
 70
     1
102
RTVSPost2010Prop32
280
     0
102
RTVSPost2010PropOp32
 70
     1
102
RTVSPost2010Prop33
280
     0
102
RTVSPost2010PropOp33
 70
     1
102
RTVSPost2010Prop34
280
     0
102
RTVSPost2010PropOp34
 70
     1
102
RTVSPost2010Prop35
280
     0
102
RTVSPost2010PropOp35
 70
     1
102
RTVSPost2010Prop36
280
     0
102
RTVSPost2010PropOp36
 70
     1
102
RTVSPost2010Prop37
 90
       50
102
RTVSPost2010PropOp37
 70
     1
102
RTVSPost2010Prop38
140
0.0
102
RTVSPost2010PropOp38
 70
     1
102
RTVSPost2010Prop39
140
1.0
102
RTVSPost2010PropOp39
 70
     1
102
RTVSPost2010Prop40
 90
        0
102
RTVSPost2010PropOp40
 70
     1
102
RTVSPost2010Prop41ColorIndex
 90
       18
102
RTVSPost2010Prop41ColorRGB
 90
-16777216
102
RTVSPost2010PropOp41
 70
     1
102
RTVSPost2010Prop42
 90
       50
102
RTVSPost2010PropOp42
 70
     1
102
RTVSPost2010Prop43
 90
        3
102
RTVSPost2010PropOp43
 70
     1
102
RTVSPost2010Prop44ColorIndex
 90
        5
102
RTVSPost2010Prop44ColorRGB
 90
      255
102
RTVSPost2010PropOp44
 70
     1
102
RTVSPost2010Prop45
280
     0
102
RTVSPost2010PropOp45
 70
     1
102
RTVSPost2010Prop46
 90
       50
102
RTVSPost2010PropOp46
 70
     1
102
RTVSPost2010Prop47
 90
       50
102
RTVSPost2010PropOp47
 70
     1
102
RTVSPost2010Prop48
 90
       50
102
RTVSPost2010PropOp48
 70
     1
102
RTVSPost2010Prop49
280
     0
102
RTVSPost2010PropOp49
 70
     1
102
RTVSPost2010Prop50
 90
       50
102
RTVSPost2010PropOp50
 70
     1
102
RTVSPost2010Prop51ColorIndex
 90
      256
102
RTVSPost2010Prop51ColorRGB
 90
-16777216
102
RTVSPost2010PropOp51
 70
     0
102
RTVSPost2010Prop52
140
1.0
102
RTVSPost2010PropOp52
 70
     0
102
RTVSPost2010Prop53
 90
        2
102
RTVSPost2010PropOp53
 70
     1
102
RTVSPost2010Prop54
  1
strokes_ogs.tif
102
RTVSPost2010PropOp54
 70
     1
102
RTVSPost2010Prop55
280
     0
102
RTVSPost2010PropOp55
 70
     1
102
RTVSPost2010Prop56
140
1.0
102
RTVSPost2010PropOp56
 70
     1
102
RTVSPost2010Prop57
140
1.0
102
RTVSPost2010PropOp57
 70
     1
102
RTVSPropertyOp0
 70
     1
102
RTVSPropertyOp1
 70
     1
102
RTVSPropertyOp2
 70
     1
102
RTVSPropertyOp3
 70
     1
102
RTVSPropertyOp4
 70
     1
102
RTVSPropertyOp5
 70
     1
102
RTVSPropertyOp6
 70
     1
102
RTVSPropertyOp7
 70
     1
102
RTVSPropertyOp8
 70
     1
102
RTVSPropertyOp9
 70
     1
102
RTVSPropertyOp10
 70
     1
102
RTVSPropertyOp11
 70
     1
102
RTVSPropertyOp12
 70
     1
102
RTVSPropertyOp13
 70
     1
102
RTVSPropertyOp14
 70
     1
102
RTVSPropertyOp15
 70
     1
102
RTVSPropertyOp16
 70
     1
102
RTVSPropertyOp17
 70
     1
102
RTVSPropertyOp18
 70
     1
102
RTVSPropertyOp19
 70
     1
102
RTVSPropertyOp20
 70
     1
102
RTVSPropertyOp21
 70
     1
102
RTVSPropertyOp22
 70
     1
102
RTVSPropertyOp23
 70
     1
102
RTVSPropertyOp24
 70
     1
102
RTVSPropertyOp25
 70
     1
102
RTVSPropertyOp26
 70
     1
102
RTVSPropertyOp27
 70
     1
102
RTVSPropertyOp28
 70
     1
102
RTVSPropertyOp29
 70
     1
102
RTVSPropertyOp30
 70
     1
102
RTVSPropertyOp31
 70
     1
102
RTVSPropertyOp32
 70
     1
102
RTVSPropertyOp33
 70
     1
102
RTVSPropertyOp34
 70
     1
102
RTVSPropertyOp35
 70
     1
102
RTVSPropertyOp36
 70
     1
102
RTVSPropertyOp37
 70
     1
102
RTVSPropertyOp38
 70
     1
102
RTVSPropertyOp39
 70
     1
102
RTVSPropertyOp40
 70
     1
102
RTVSPropertyOp41
 70
     1
102
RTVSPropertyOp42
 70
     1
102
RTVSPropertyOp43
 70
     1
102
RTVSPropertyOp44
 70
     1
102
RTVSPropertyOp45
 70
     1
102
RTVSPropertyOp46
 70
     1
102
RTVSPropertyOp47
 70
     1
102
RTVSPropertyOp48
 70
     1
102
RTVSPropertyOp49
 70
     1
102
RTVSPropertyOp50
 70
     1
102
RTVSPropertyOp51
 70
     0
102
RTVSPropertyOp52
 70
     0
102
RTVSPropertyOp53
 70
     1
102
RTVSPropertyOp54
 70
     1
102
RTVSPropertyOp55
 70
     1
102
RTVSPropertyOp56
 70
     1
102
RTVSPropertyOp57
 70
     1
102
RTVSPropertyOp58
 70
     1
102
RTVSPropertyOp59
 70
     1
102
RTVSPropertyOp60
 70
     1
102
RTVSPropertyOp61
 70
     1
102
RTVSPropertyOp62
 70
     1
  0
ENDSEC
  0
EOF
