  0
SECTION
  2
HEADER
  9
$ACADVER
  1
AC1015
  9
$ACADMAINTVER
 70
    20
  9
$DWGCODEPAGE
  3
ANSI_1252
  9
$INSBASE
 10
0.0
 20
0.0
 30
0.0
  9
$EXTMIN
 10
-0.0000000000000024
 20
-0.0000000000000042
 30
0.0
  9
$EXTMAX
 10
34.0
 20
22.0
 30
0.0
  9
$LIMMIN
 10
0.0
 20
0.0
  9
$LIMMAX
 10
12.0
 20
9.0
  9
$ORTHOMODE
 70
     0
  9
$REGENMODE
 70
     1
  9
$FILLMODE
 70
     1
  9
$QTEXTMODE
 70
     0
  9
$MIRRTEXT
 70
     1
  9
$LTSCALE
 40
2.0
  9
$ATTMODE
 70
     1
  9
$TEXTSIZE
 40
0.2
  9
$TRACEWID
 40
0.05
  9
$TEXTSTYLE
  7
STANDARD
  9
$CLAYER
  8
0
  9
$CELTYPE
  6
BYLAYER
  9
$CECOLOR
 62
   256
  9
$CELTSCALE
 40
1.0
  9
$DISPSILH
 70
     0
  9
$DIMSCALE
 40
2.0
  9
$DIMASZ
 40
0.125
  9
$DIMEXO
 40
0.0625
  9
$DIMDLI
 40
0.38
  9
$DIMRND
 40
0.0
  9
$DIMDLE
 40
0.0
  9
$DIMEXE
 40
0.0625
  9
$DIMTP
 40
0.0
  9
$DIMTM
 40
0.0
  9
$DIMTXT
 40
0.125
  9
$DIMCEN
 40
-0.125
  9
$DIMTSZ
 40
0.0
  9
$DIMTOL
 70
     0
  9
$DIMLIM
 70
     0
  9
$DIMTIH
 70
     0
  9
$DIMTOH
 70
     0
  9
$DIMSE1
 70
     0
  9
$DIMSE2
 70
     0
  9
$DIMTAD
 70
     0
  9
$DIMZIN
 70
     4
  9
$DIMBLK
  1

  9
$DIMASO
 70
     1
  9
$DIMSHO
 70
     0
  9
$DIMPOST
  1

  9
$DIMAPOST
  1

  9
$DIMALT
 70
     0
  9
$DIMALTD
 70
     2
  9
$DIMALTF
 40
25.4
  9
$DIMLFAC
 40
1.0
  9
$DIMTOFL
 70
     0
  9
$DIMTVP
 40
0.0
  9
$DIMTIX
 70
     0
  9
$DIMSOXD
 70
     0
  9
$DIMSAH
 70
     0
  9
$DIMBLK1
  1

  9
$DIMBLK2
  1

  9
$DIMSTYLE
  2
STANDARD
  9
$DIMCLRD
 70
     0
  9
$DIMCLRE
 70
     0
  9
$DIMCLRT
 70
     0
  9
$DIMTFAC
 40
1.0
  9
$DIMGAP
 40
0.09
  9
$DIMJUST
 70
     0
  9
$DIMSD1
 70
     0
  9
$DIMSD2
 70
     0
  9
$DIMTOLJ
 70
     1
  9
$DIMTZIN
 70
     4
  9
$DIMALTZ
 70
     4
  9
$DIMALTTZ
 70
     4
  9
$DIMUPT
 70
     0
  9
$DIMDEC
 70
     3
  9
$DIMTDEC
 70
     3
  9
$DIMALTU
 70
     2
  9
$DIMALTTD
 70
     2
  9
$DIMTXSTY
  7
STANDARD
  9
$DIMAUNIT
 70
     0
  9
$DIMADEC
 70
     0
  9
$DIMALTRND
 40
0.0
  9
$DIMAZIN
 70
     0
  9
$DIMDSEP
 70
    46
  9
$DIMATFIT
 70
     3
  9
$DIMFRAC
 70
     0
  9
$DIMLDRBLK
  1

  9
$DIMLUNIT
 70
     2
  9
$DIMLWD
 70
    -2
  9
$DIMLWE
 70
    -2
  9
$DIMTMOVE
 70
     2
  9
$LUNITS
 70
     2
  9
$LUPREC
 70
     3
  9
$SKETCHINC
 40
0.1
  9
$FILLETRAD
 40
0.0
  9
$AUNITS
 70
     0
  9
$AUPREC
 70
     2
  9
$MENU
  1
ACAD
  9
$ELEVATION
 40
0.0
  9
$PELEVATION
 40
0.0
  9
$THICKNESS
 40
0.0
  9
$LIMCHECK
 70
     0
  9
$CHAMFERA
 40
0.0
  9
$CHAMFERB
 40
0.0
  9
$CHAMFERC
 40
0.0
  9
$CHAMFERD
 40
0.0
  9
$SKPOLY
 70
     0
  9
$TDCREATE
 40
2450143.698544791
  9
$TDUCREATE
 40
2450143.865211459
  9
$TDUPDATE
 40
2457155.548387280
  9
$TDUUPDATE
 40
2457155.715053947
  9
$TDINDWG
 40
0.1104392130
  9
$TDUSRTIMER
 40
0.1104392014
  9
$USRTIMER
 70
     1
  9
$ANGBASE
 50
0.0
  9
$ANGDIR
 70
     0
  9
$PDMODE
 70
     0
  9
$PDSIZE
 40
0.0
  9
$PLINEWID
 40
0.0
  9
$SPLFRAME
 70
     0
  9
$SPLINETYPE
 70
     6
  9
$SPLINESEGS
 70
     8
  9
$HANDSEED
  5
1AD8
  9
$SURFTAB1
 70
     6
  9
$SURFTAB2
 70
     6
  9
$SURFTYPE
 70
     6
  9
$SURFU
 70
     6
  9
$SURFV
 70
     6
  9
$UCSBASE
  2

  9
$UCSNAME
  2

  9
$UCSORG
 10
0.0
 20
0.0
 30
0.0
  9
$UCSXDIR
 10
1.0
 20
0.0
 30
0.0
  9
$UCSYDIR
 10
0.0
 20
1.0
 30
0.0
  9
$UCSORTHOREF
  2

  9
$UCSORTHOVIEW
 70
     0
  9
$UCSORGTOP
 10
0.0
 20
0.0
 30
0.0
  9
$UCSORGBOTTOM
 10
0.0
 20
0.0
 30
0.0
  9
$UCSORGLEFT
 10
0.0
 20
0.0
 30
0.0
  9
$UCSORGRIGHT
 10
0.0
 20
0.0
 30
0.0
  9
$UCSORGFRONT
 10
0.0
 20
0.0
 30
0.0
  9
$UCSORGBACK
 10
0.0
 20
0.0
 30
0.0
  9
$PUCSBASE
  2

  9
$PUCSNAME
  2

  9
$PUCSORG
 10
0.0
 20
0.0
 30
0.0
  9
$PUCSXDIR
 10
1.0
 20
0.0
 30
0.0
  9
$PUCSYDIR
 10
0.0
 20
1.0
 30
0.0
  9
$PUCSORTHOREF
  2

  9
$PUCSORTHOVIEW
 70
     0
  9
$PUCSORGTOP
 10
0.0
 20
0.0
 30
0.0
  9
$PUCSORGBOTTOM
 10
0.0
 20
0.0
 30
0.0
  9
$PUCSORGLEFT
 10
0.0
 20
0.0
 30
0.0
  9
$PUCSORGRIGHT
 10
0.0
 20
0.0
 30
0.0
  9
$PUCSORGFRONT
 10
0.0
 20
0.0
 30
0.0
  9
$PUCSORGBACK
 10
0.0
 20
0.0
 30
0.0
  9
$USERI1
 70
     0
  9
$USERI2
 70
     0
  9
$USERI3
 70
     0
  9
$USERI4
 70
     0
  9
$USERI5
 70
     0
  9
$USERR1
 40
0.0
  9
$USERR2
 40
0.0
  9
$USERR3
 40
0.0
  9
$USERR4
 40
0.0
  9
$USERR5
 40
0.0
  9
$WORLDVIEW
 70
     1
  9
$SHADEDGE
 70
     3
  9
$SHADEDIF
 70
    70
  9
$TILEMODE
 70
     1
  9
$MAXACTVP
 70
    16
  9
$PINSBASE
 10
0.0
 20
0.0
 30
0.0
  9
$PLIMCHECK
 70
     0
  9
$PEXTMIN
 10
1.000000000000000E+20
 20
1.000000000000000E+20
 30
1.000000000000000E+20
  9
$PEXTMAX
 10
-1.000000000000000E+20
 20
-1.000000000000000E+20
 30
-1.000000000000000E+20
  9
$PLIMMIN
 10
0.0
 20
0.0
  9
$PLIMMAX
 10
12.0
 20
9.0
  9
$UNITMODE
 70
     0
  9
$VISRETAIN
 70
     0
  9
$PLINEGEN
 70
     0
  9
$PSLTSCALE
 70
     0
  9
$TREEDEPTH
 70
  3020
  9
$CMLSTYLE
  2
STANDARD
  9
$CMLJUST
 70
     0
  9
$CMLSCALE
 40
1.0
  9
$PROXYGRAPHICS
 70
     1
  9
$MEASUREMENT
 70
     0
  9
$CELWEIGHT
370
    -1
  9
$ENDCAPS
280
     0
  9
$JOINSTYLE
280
     0
  9
$LWDISPLAY
290
     0
  9
$INSUNITS
 70
     0
  9
$HYPERLINKBASE
  1

  9
$STYLESHEET
  1

  9
$XEDIT
290
     1
  9
$CEPSNTYPE
380
     0
  9
$PSTYLEMODE
290
     1
  9
$FINGERPRINTGUID
  2
{44D7C44E-DA96-41F1-91CA-36C988F333C6}
  9
$VERSIONGUID
  2
{CF3ED05C-406B-4BAE-B36F-31939C6DCD56}
  9
$EXTNAMES
290
     1
  9
$PSVPSCALE
 40
0.0
  9
$OLESTARTUP
290
     0
  0
ENDSEC
  0
SECTION
  2
CLASSES
  0
CLASS
  1
DICTIONARYVAR
  2
AcDbDictionaryVar
  3
ObjectDBX Classes
 90
        0
280
     0
281
     0
  0
CLASS
  1
ACDBDICTIONARYWDFLT
  2
AcDbDictionaryWithDefault
  3
ObjectDBX Classes
 90
        0
280
     0
281
     0
  0
CLASS
  1
MATERIAL
  2
AcDbMaterial
  3
ObjectDBX Classes
 90
     1153
280
     0
281
     0
  0
CLASS
  1
VISUALSTYLE
  2
AcDbVisualStyle
  3
ObjectDBX Classes
 90
     4095
280
     0
281
     0
  0
CLASS
  1
TABLESTYLE
  2
AcDbTableStyle
  3
ObjectDBX Classes
 90
     4095
280
     0
281
     0
  0
CLASS
  1
SCALE
  2
AcDbScale
  3
ObjectDBX Classes
 90
     1153
280
     0
281
     0
  0
CLASS
  1
MLEADERSTYLE
  2
AcDbMLeaderStyle
  3
ACDB_MLEADERSTYLE_CLASS
 90
     4095
280
     0
281
     0
  0
CLASS
  1
ACDBSECTIONVIEWSTYLE
  2
AcDbSectionViewStyle
  3
ObjectDBX Classes
 90
     1025
280
     0
281
     0
  0
CLASS
  1
ACDBDETAILVIEWSTYLE
  2
AcDbDetailViewStyle
  3
ObjectDBX Classes
 90
     1025
280
     0
281
     0
  0
CLASS
  1
ACME_DOCUMENT
  2
AcMeDbDoc
  3
AcMeServices
 90
    33792
280
     0
281
     0
  0
CLASS
  1
AMGSETTINGSOBJ
  2
AmgSettingsObj
  3
"AcadM|Product Description: AutoCAD Mechanical|Company: Autodesk, Inc."
 90
    33792
280
     0
281
     0
  0
CLASS
  1
ACMESCOPE
  2
AcMeScope
  3
AcMeServices
 90
    33792
280
     0
281
     0
  0
CLASS
  1
ACMECOMMANDHISTORY
  2
AcMeCommandHistory
  3
AcMeServices
 90
    33792
280
     0
281
     0
  0
CLASS
  1
ACIMSYSVARMAN
  2
AcImSysVarManager
  3
AcMeServices
 90
    33792
280
     0
281
     0
  0
CLASS
  1
ACIMINTSYSVAR
  2
AcImIntSysVar
  3
AcMeServices
 90
    33792
280
     0
281
     0
  0
CLASS
  1
ACMESTATEMGR
  2
AcMeStateMgr
  3
AcMeServices
 90
    33792
280
     0
281
     0
  0
CLASS
  1
ACDBENTITYCACHE
  2
AcMeEntityCache
  3
AcMeServices
 90
    33792
280
     0
281
     0
  0
CLASS
  1
ACGREFMASTER
  2
AcGrefMaster
  3
AcAttribServices
 90
    33792
280
     0
281
     0
  0
CLASS
  1
ACME_DATABASE
  2
AcMeDbDatabase
  3
AcMeServices
 90
    33792
280
     0
281
     0
  0
CLASS
  1
ACRFINSADJUSTERMGR
  2
AcRfInsAdjusterMgr
  3
AcMeServices
 90
    33792
280
     0
281
     0
  0
CLASS
  1
ACGREFACADMASTER
  2
AcGrefacadMaster
  3
AcGrefServices
 90
    33792
280
     0
281
     0
  0
CLASS
  1
AMDTMENUSTATEMGR
  2
AmdtMenuStateMgr
  3
McadcomServices
 90
    33792
280
     0
281
     0
  0
CLASS
  1
AMDTMCOMMENUSTATE
  2
AmdtMcomMenuState
  3
McadcomServices
 90
    33792
280
     0
281
     0
  0
CLASS
  1
AMIMASTER
  2
AmiMaster
  3
AmiServices
 90
    33792
280
     0
281
     0
  0
CLASS
  1
MAPIAMMOUDLE
  2
MApiAmModule
  3
MApiAmServices
 90
    33792
280
     0
281
     0
  0
CLASS
  1
ACIMSTRSYSVAR
  2
AcImStrSysVar
  3
AcMeServices
 90
    33792
280
     0
281
     0
  0
CLASS
  1
AMDTAMMENUSTATE
  2
AmdtAmMenuState
  3
DesignerAssemblies
 90
    33792
280
     0
281
     0
  0
CLASS
  1
ACAMPROJECT
  2
AcAmProject
  3
DesignerAssemblies
 90
    33792
280
     0
281
     0
  0
CLASS
  1
ACAMGRCOMPDEF
  2
AcAmGrCompDef
  3
DesignerAssemblies
 90
    33792
280
     0
281
     0
  0
CLASS
  1
ACAMCOMPDEF
  2
AcAmCompDef
  3
DesignerAssemblies
 90
    33792
280
     0
281
     0
  0
CLASS
  1
ACAMCOMPDEFMGR
  2
AcAmCompDefMgr
  3
DesignerAssemblies
 90
    33792
280
     0
281
     0
  0
CLASS
  1
AMCONTEXTMGR
  2
AcAmContextMgr
  3
DesignerAssemblies
 90
    33792
280
     0
281
     0
  0
CLASS
  1
ACAMCONTEXTMODELER
  2
AcAmContextModeler
  3
DesignerAssemblies
 90
    33792
280
     0
281
     0
  0
CLASS
  1
ACMDATADICTIONARY
  2
AcmDataDictionary
  3
"AcmSymBB|Product Description: AutoCAD Mechanical|Company: Autodesk, Inc."
 90
    33792
280
     0
281
     0
  0
CLASS
  1
ACAMGRCOMPDEFSET
  2
AcAmGrCompDefSet
  3
DesignerAssemblies
 90
    33792
280
     0
281
     0
  0
CLASS
  1
AMDTBROWSERDBTAB
  2
AmdtBrowserDbTab
  3
McadcomServices
 90
    33792
280
     0
281
     0
  0
CLASS
  1
CBROWSERAPPOBJECT
  2
CBrowserAppObject
  3
McadcomServices
 90
    33792
280
     0
281
     0
  0
CLASS
  1
DM_PLACEHOLDER
  2
AcDmSelsetPlaceholder
  3
McadcomServices
 90
    33792
280
     0
281
     0
  0
CLASS
  1
EXACXREFPANELOBJECT
  2
ExAcXREFPanelObject
  3
EXAC_ESW
 90
    33793
280
     0
281
     0
  0
CLASS
  1
NPOCOLLECTION
  2
AcDbImpNonPersistentObjectsCollection
  3
ObjectDBX Classes
 90
    33921
280
     0
281
     0
  0
CLASS
  1
ACMSTANDARDANSI
  2
AcmStandardANSI
  3
"Amdt_StdImp|Product Description: AutoCAD Mechanical|Company: Autodesk, Inc."
 90
    33792
280
     0
281
     0
  0
CLASS
  1
ACMSURFSTANDARDANSI
  2
AcmSurfTextStdANSI
  3
"Amdt_StdImp|Product Description: AutoCAD Mechanical|Company: Autodesk, Inc."
 90
    33792
280
     0
281
     0
  0
CLASS
  1
ACMFCFSTANDARDANSI
  2
AcmFCFStdANSI
  3
"Amdt_StdImp|Product Description: AutoCAD Mechanical|Company: Autodesk, Inc."
 90
    33792
280
     0
281
     0
  0
CLASS
  1
ACMWELDSTANDARDANSI
  2
AcmWeldingStdANSI
  3
"Amdt_StdImp|Product Description: AutoCAD Mechanical|Company: Autodesk, Inc."
 90
    33792
280
     0
281
     0
  0
CLASS
  1
ACMIDSTANDARDANSI
  2
AcmIdStdANSI
  3
"Amdt_StdImp|Product Description: AutoCAD Mechanical|Company: Autodesk, Inc."
 90
    33792
280
     0
281
     0
  0
CLASS
  1
ACMDATUMSTANDARDANSI
  2
AcmDatumStdANSI
  3
"Amdt_StdImp|Product Description: AutoCAD Mechanical|Company: Autodesk, Inc."
 90
    33792
280
     0
281
     0
  0
CLASS
  1
ACMBOMSTANDARDANSI
  2
AcmBOMStdANSI
  3
"Amdt_StdImp|Product Description: AutoCAD Mechanical|Company: Autodesk, Inc."
 90
    33792
280
     0
281
     0
  0
CLASS
  1
ACMDETAILSTANDARDANSI
  2
AmdtDetailSymStdANSI
  3
"Amdt_StdImp|Product Description: AutoCAD Mechanical|Company: Autodesk, Inc."
 90
    33792
280
     0
281
     0
  0
CLASS
  1
ACMSECTIONSTANDARDANSI
  2
AmdtSectionSymStdANSI
  3
"Amdt_StdImp|Product Description: AutoCAD Mechanical|Company: Autodesk, Inc."
 90
    33792
280
     0
281
     0
  0
CLASS
  1
ACMCENTERLINESTANDARDANSI
  2
AmdtCenterLineStdANSI
  3
"Amdt_StdImp|Product Description: AutoCAD Mechanical|Company: Autodesk, Inc."
 90
    33792
280
     0
281
     0
  0
CLASS
  1
ACMTHREADLINESTANDARDANSI
  2
AmdtThreadLineStdANSI
  3
"Amdt_StdImp|Product Description: AutoCAD Mechanical|Company: Autodesk, Inc."
 90
    33792
280
     0
281
     0
  0
CLASS
  1
ACMNOTESTANDARDANSI
  2
AmdtNoteStdANSI
  3
"Amdt_StdImp|Product Description: AutoCAD Mechanical|Company: Autodesk, Inc."
 90
    33792
280
     0
281
     0
  0
CLASS
  1
ACMTAPERSTANDARDANSI
  2
AcmTaperStdANSI
  3
"Amdt_StdImp|Product Description: AutoCAD Mechanical|Company: Autodesk, Inc."
 90
    33792
280
     0
281
     0
  0
CLASS
  1
ACMANOOTATIONVIEWSTANDARDANSI
  2
AmdtAnViewStdANSI
  3
"Amdt_StdImp|Product Description: AutoCAD Mechanical|Company: Autodesk, Inc."
 90
    33792
280
     0
281
     0
  0
CLASS
  1
ACAMGLAYSTD
  2
AcAmgLayStd
  3
"AmgLay|Product Description: AutoCAD Mechanical|Company: Autodesk, Inc."
 90
    33792
280
     0
281
     0
  0
CLASS
  1
ACAMGDIMSTD
  2
AcAmgDimStd
  3
"AmgDim|Product Description: AutoCAD Mechanical|Company: Autodesk, Inc."
 90
    33792
280
     0
281
     0
  0
CLASS
  1
AMGOBJPROPCFG
  2
AmgObjPropCfg
  3
"AmgLay|Product Description: AutoCAD Mechanical|Company: Autodesk, Inc."
 90
    33792
280
     0
281
     0
  0
CLASS
  1
ACAMGHOLECHARTSTDANSI
  2
AcAmgHoleChartStdANSI
  3
AmgDim|Product Description: AutoCAD Mechanical|Company: Autodesk, Inc.
 90
    33792
280
     0
281
     0
  0
CLASS
  1
ACAMGTITLESTD
  2
AcAmgTitleStd
  3
"AmgTitle|Product Description: AutoCAD Mechanical|Company: Autodesk, Inc."
 90
    33792
280
     0
281
     0
  0
CLASS
  1
AMDTNOTETEMPLATEDB
  2
AmdtNoteTemplateDB
  3
AcmSymBB|Product Description: AutoCAD Mechanical|Company: Autodesk, Inc.
 90
    33792
280
     0
281
     0
  0
CLASS
  1
CELLSTYLEMAP
  2
AcDbCellStyleMap
  3
ObjectDBX Classes
 90
     1152
280
     0
281
     0
  0
CLASS
  1
ACAMGFILTERDAT
  2
AcAmgFilterDat
  3
"AcadM|Product Description: AutoCAD Mechanical|Company: Autodesk, Inc."
 90
    33792
280
     0
281
     0
  0
CLASS
  1
ACDBPLACEHOLDER
  2
AcDbPlaceHolder
  3
ObjectDBX Classes
 90
        0
280
     0
281
     0
  0
CLASS
  1
LAYOUT
  2
AcDbLayout
  3
ObjectDBX Classes
 90
        0
280
     0
281
     0
  0
ENDSEC
  0
SECTION
  2
TABLES
  0
TABLE
  2
VPORT
  5
8
102
{ACAD_XDICTIONARY
360
198F
102
}
330
0
100
AcDbSymbolTable
 70
     1
  0
VPORT
  5
1859
330
8
100
AcDbSymbolTableRecord
100
AcDbViewportTableRecord
  2
*ACTIVE
 70
     0
 10
0.0
 20
0.0
 11
1.0
 21
1.0
 12
16.99958525980344
 22
11.8108707900337
 13
0.0
 23
0.0
 14
1.0
 24
1.0
 15
0.0
 25
0.0
 16
0.0
 26
0.0
 36
1.0
 17
0.0
 27
0.0
 37
0.0
 40
22.96839521054319
 41
2.080545229244113
 42
50.0
 43
0.0
 44
0.0
 50
0.0
 51
0.0
 71
     0
 72
   250
 73
     1
 74
     0
 75
     0
 76
     0
 77
     0
 78
     0
281
     0
 65
     1
110
0.0
120
0.0
130
0.0
111
1.0
121
0.0
131
0.0
112
0.0
122
1.0
132
0.0
 79
     0
146
0.0
1001
ACAD_NAV_VCDISPLAY
1070
     3
  0
ENDTAB
  0
TABLE
  2
LTYPE
  5
5
330
0
100
AcDbSymbolTable
 70
    16
  0
LTYPE
  5
11
330
5
100
AcDbSymbolTableRecord
100
AcDbLinetypeTableRecord
  2
BYBLOCK
 70
     0
  3

 72
    65
 73
     0
 40
0.0
  0
LTYPE
  5
12
330
5
100
AcDbSymbolTableRecord
100
AcDbLinetypeTableRecord
  2
BYLAYER
 70
     0
  3

 72
    65
 73
     0
 40
0.0
  0
LTYPE
  5
13
330
5
100
AcDbSymbolTableRecord
100
AcDbLinetypeTableRecord
  2
CONTINUOUS
 70
     0
  3
Solid line
 72
    65
 73
     0
 40
0.0
  0
LTYPE
  5
18A7
330
5
100
AcDbSymbolTableRecord
100
AcDbLinetypeTableRecord
  2
PHANTOM2
 70
     0
  3
Phantom (.5x) ___ _ _ ___ _ _ ___ _ _ ___ _ _
 72
    65
 73
     6
 40
1.25
 49
0.625
 74
     0
 49
-0.125
 74
     0
 49
0.125
 74
     0
 49
-0.125
 74
     0
 49
0.125
 74
     0
 49
-0.125
 74
     0
  0
LTYPE
  5
18C1
330
5
100
AcDbSymbolTableRecord
100
AcDbLinetypeTableRecord
  2
HIDDEN
 70
     0
  3
Hidden __ __ __ __ __ __ __ __ __ __ __ __ __ _
 72
    65
 73
     2
 40
0.375
 49
0.25
 74
     0
 49
-0.125
 74
     0
  0
LTYPE
  5
18C2
330
5
100
AcDbSymbolTableRecord
100
AcDbLinetypeTableRecord
  2
CENTER
 70
     0
  3
Center ____ _ ____ _ ____ _ ____ _ ____ _ ____
 72
    65
 73
     4
 40
2.0
 49
1.25
 74
     0
 49
-0.25
 74
     0
 49
0.25
 74
     0
 49
-0.25
 74
     0
  0
LTYPE
  5
18FE
330
5
100
AcDbSymbolTableRecord
100
AcDbLinetypeTableRecord
  2
AM_ISO02W050
 70
     0
  3
__ __ __ __ __ __ __ __ __ __ __ __ __ __ __
 72
    65
 73
     2
 40
7.5
 49
6.0
 74
     0
 49
-1.5
 74
     0
  0
LTYPE
  5
18FF
330
5
100
AcDbSymbolTableRecord
100
AcDbLinetypeTableRecord
  2
AM_ISO08W050
 70
     0
  3
____ . ____ . ____ . ____ . ____ . ____ . ____
 72
    65
 73
     4
 40
18.0
 49
12.0
 74
     0
 49
-1.5
 74
     0
 49
3.0
 74
     0
 49
-1.5
 74
     0
  0
LTYPE
  5
1900
330
5
100
AcDbSymbolTableRecord
100
AcDbLinetypeTableRecord
  2
AM_ISO09W050
 70
     0
  3
_____ . . _____ . . _____ . . ____ .. ____
 72
    65
 73
     6
 40
22.5
 49
12.0
 74
     0
 49
-1.5
 74
     0
 49
3.0
 74
     0
 49
-1.5
 74
     0
 49
3.0
 74
     0
 49
-1.5
 74
     0
  0
LTYPE
  5
1901
330
5
100
AcDbSymbolTableRecord
100
AcDbLinetypeTableRecord
  2
Amconstr
 70
     0
  3
_______________________
 72
    65
 73
     2
 40
9999.0
 49
9999.0
 74
     0
 49
0.0
 74
     0
  0
LTYPE
  5
1902
330
5
100
AcDbSymbolTableRecord
100
AcDbLinetypeTableRecord
  2
AM_ISO08W050x2
 70
     0
  3
__ . __ . __ . __ . __ . __
 72
    65
 73
     4
 40
9.0
 49
6.0
 74
     0
 49
-0.75
 74
     0
 49
1.5
 74
     0
 49
-0.75
 74
     0
  0
LTYPE
  5
1903
330
5
100
AcDbSymbolTableRecord
100
AcDbLinetypeTableRecord
  2
AM_ISO02W050x2
 70
     0
  3
 _ _ _ _ _ _ _ _ _ _ _ _
 72
    65
 73
     2
 40
3.75
 49
3.0
 74
     0
 49
-0.75
 74
     0
  0
LTYPE
  5
1906
330
5
100
AcDbSymbolTableRecord
100
AcDbLinetypeTableRecord
  2
Amzigzag
 70
     0
  3
/\/-/\/-/\/-/\/-/\/-/\/
 72
    65
 73
     2
 40
11.0001
 49
0.0001
 74
     4
 75
   136
340
1905
 46
0.04
 50
0.0
 44
0.0
 45
0.0
 49
-11.0
 74
     0
  0
LTYPE
  5
1907
330
5
100
AcDbSymbolTableRecord
100
AcDbLinetypeTableRecord
  2
CENTER2
 70
     0
  3
Center (.5x) ___ _ ___ _ ___ _ ___ _ ___ _ ___
 72
    65
 73
     4
 40
1.125
 49
0.75
 74
     0
 49
-0.125
 74
     0
 49
0.125
 74
     0
 49
-0.125
 74
     0
  0
LTYPE
  5
1908
330
5
100
AcDbSymbolTableRecord
100
AcDbLinetypeTableRecord
  2
HIDDEN2
 70
     0
  3
Hidden (.5x) _ _ _ _ _ _ _ _ _ _ _ _ _ _ _ _ _
 72
    65
 73
     2
 40
0.1875
 49
0.125
 74
     0
 49
-0.0625
 74
     0
  0
LTYPE
  5
1909
330
5
100
AcDbSymbolTableRecord
100
AcDbLinetypeTableRecord
  2
Amzigzag2
 70
     0
  3
/\/-/\/-/\/-/\/-/\/-/\/
 72
    65
 73
     2
 40
0.4401
 49
0.0001
 74
     4
 75
   136
340
1905
 46
0.0016
 50
0.0
 44
0.0
 45
0.0
 49
-0.4400000000000003
 74
     0
  0
LTYPE
  5
1917
330
5
100
AcDbSymbolTableRecord
100
AcDbLinetypeTableRecord
  2
ACANSTGB
 70
     0
  3
__ . . __ . .
 72
    65
 73
     6
 40
0.35433070866
 49
0.15748031496
 74
     0
 49
-0.03937007874
 74
     0
 49
0.03937007874
 74
     0
 49
-0.03937007874
 74
     0
 49
0.03937007874
 74
     0
 49
-0.03937007874
 74
     0
  0
LTYPE
  5
1918
330
5
100
AcDbSymbolTableRecord
100
AcDbLinetypeTableRecord
  2
ACANSTGL
 70
     0
  3
_ _ _ _ _
 72
    65
 73
     2
 40
0.11811023622
 49
0.07874015748
 74
     0
 49
-0.03937007874
 74
     0
  0
ENDTAB
  0
TABLE
  2
LAYER
  5
2
102
{ACAD_XDICTIONARY
360
19E3
102
}
330
0
100
AcDbSymbolTable
 70
     6
  0
LAYER
  5
E
102
{ACAD_XDICTIONARY
360
1981
102
}
330
2
100
AcDbSymbolTableRecord
100
AcDbLayerTableRecord
  2
0
 70
     0
 62
     7
  6
CONTINUOUS
370
    -3
390
185C
  0
LAYER
  5
26
102
{ACAD_XDICTIONARY
360
1983
102
}
330
2
100
AcDbSymbolTableRecord
100
AcDbLayerTableRecord
  2
2
 70
     0
 62
     2
  6
CONTINUOUS
370
    -3
390
185C
  0
LAYER
  5
27
102
{ACAD_XDICTIONARY
360
1985
102
}
330
2
100
AcDbSymbolTableRecord
100
AcDbLayerTableRecord
  2
3
 70
     0
 62
     3
  6
CONTINUOUS
370
    -3
390
185C
  0
LAYER
  5
28
102
{ACAD_XDICTIONARY
360
1987
102
}
330
2
100
AcDbSymbolTableRecord
100
AcDbLayerTableRecord
  2
4
 70
     0
 62
     4
  6
CONTINUOUS
370
    -3
390
185C
  0
LAYER
  5
29
102
{ACAD_XDICTIONARY
360
1989
102
}
330
2
100
AcDbSymbolTableRecord
100
AcDbLayerTableRecord
  2
DIE
 70
     0
 62
     3
  6
CONTINUOUS
370
    -3
390
185C
  0
LAYER
  5
2A
330
2
100
AcDbSymbolTableRecord
100
AcDbLayerTableRecord
  2
DEFPOINTS
 70
     0
 62
     7
  6
CONTINUOUS
290
     0
370
    -3
390
185C
  0
ENDTAB
  0
TABLE
  2
STYLE
  5
3
330
0
100
AcDbSymbolTable
 70
     8
  0
STYLE
  5
F
330
3
100
AcDbSymbolTableRecord
100
AcDbTextStyleTableRecord
  2
STANDARD
 70
     0
 40
0.0
 41
1.0
 50
0.0
 71
     0
 42
0.2
  3
txt
  4

  0
STYLE
  5
20
330
3
100
AcDbSymbolTableRecord
100
AcDbTextStyleTableRecord
  2
SIMPLEX
 70
     0
 40
0.0
 41
1.0
 50
0.0
 71
     0
 42
0.078
  3
SIMPLEX
  4

  0
STYLE
  5
21
330
3
100
AcDbSymbolTableRecord
100
AcDbTextStyleTableRecord
  2
MED
 70
     0
 40
0.25
 41
1.0
 50
0.0
 71
     0
 42
0.156
  3
ROMANS
  4

  0
STYLE
  5
22
330
3
100
AcDbSymbolTableRecord
100
AcDbTextStyleTableRecord
  2
T
 70
     0
 40
0.0
 41
1.0
 50
0.0
 71
     0
 42
1.0
  3
ROMI____.PFB
  4

  0
STYLE
  5
23
330
3
100
AcDbSymbolTableRecord
100
AcDbTextStyleTableRecord
  2
CHPROP
 70
     0
 40
0.0
 41
1.0
 50
0.0
 71
     0
 42
1.379999999999999
  3
TXT.shx
  4

  0
STYLE
  5
1905
330
3
100
AcDbSymbolTableRecord
100
AcDbTextStyleTableRecord
  2

 70
     1
 40
0.0
 41
1.0
 50
0.0
 71
     0
 42
0.2
  3
genltshp.shx
  4

  0
STYLE
  5
1915
330
3
100
AcDbSymbolTableRecord
100
AcDbTextStyleTableRecord
  2
ACANSTS
 70
     0
 40
1.0
 41
1.0
 50
0.0
 71
     0
 42
0.2
  3
romans.shx
  4

  0
STYLE
  5
1916
330
3
100
AcDbSymbolTableRecord
100
AcDbTextStyleTableRecord
  2
ACANSGDT
 70
     0
 40
0.0
 41
1.0
 50
0.0
 71
     0
 42
0.2
  3
amgdt.shx
  4

  0
ENDTAB
  0
TABLE
  2
VIEW
  5
6
330
0
100
AcDbSymbolTable
 70
     0
  0
ENDTAB
  0
TABLE
  2
UCS
  5
7
330
0
100
AcDbSymbolTable
 70
     0
  0
ENDTAB
  0
TABLE
  2
APPID
  5
9
330
0
100
AcDbSymbolTable
 70
    14
  0
APPID
  5
10
330
9
100
AcDbSymbolTableRecord
100
AcDbRegAppTableRecord
  2
ACAD
 70
     0
  0
APPID
  5
18BA
330
9
100
AcDbSymbolTableRecord
100
AcDbRegAppTableRecord
  2
MCAD_NO_VIS
 70
     0
  0
APPID
  5
18BB
330
9
100
AcDbSymbolTableRecord
100
AcDbRegAppTableRecord
  2
ACAD_TEMP_GRAPHIC
 70
     0
  0
APPID
  5
18C7
330
9
100
AcDbSymbolTableRecord
100
AcDbRegAppTableRecord
  2
ACATTRIBSERVICES
 70
     0
  0
APPID
  5
18DF
330
9
100
AcDbSymbolTableRecord
100
AcDbRegAppTableRecord
  2
DESIGNERASSEMBLIES
 70
     0
  0
APPID
  5
18FB
330
9
100
AcDbSymbolTableRecord
100
AcDbRegAppTableRecord
  2
ACAD_DSTYLE_DIMJAG
 70
     0
  0
APPID
  5
18FC
330
9
100
AcDbSymbolTableRecord
100
AcDbRegAppTableRecord
  2
ACAD_DSTYLE_DIMBREAK
 70
     0
  0
APPID
  5
1920
330
9
100
AcDbSymbolTableRecord
100
AcDbRegAppTableRecord
  2
ACAD_NAV_VCDISPLAY
 70
     0
  0
APPID
  5
19C5
330
9
100
AcDbSymbolTableRecord
100
AcDbRegAppTableRecord
  2
ACAD_MLEADERVER
 70
     0
  0
APPID
  5
19CC
330
9
100
AcDbSymbolTableRecord
100
AcDbRegAppTableRecord
  2
ACAD_DSTYLE_DIMARC_LENGTH_SYMBOL
 70
     0
  0
APPID
  5
19CD
330
9
100
AcDbSymbolTableRecord
100
AcDbRegAppTableRecord
  2
ACAD_DSTYLE_DIM_LINETYPE
 70
     0
  0
APPID
  5
19CE
330
9
100
AcDbSymbolTableRecord
100
AcDbRegAppTableRecord
  2
ACAD_DSTYLE_DIM_EXT1_LINETYPE
 70
     0
  0
APPID
  5
19CF
330
9
100
AcDbSymbolTableRecord
100
AcDbRegAppTableRecord
  2
ACAD_DSTYLE_DIM_EXT2_LINETYPE
 70
     0
  0
APPID
  5
1A56
330
9
100
AcDbSymbolTableRecord
100
AcDbRegAppTableRecord
  2
ACAD_DSTYLE_DIMRADIAL_EXTENSION
 70
     0
  0
ENDTAB
  0
TABLE
  2
DIMSTYLE
  5
A
330
0
100
AcDbSymbolTable
 70
     7
100
AcDbDimStyleTable
 71
     1
340
1858
  0
DIMSTYLE
105
1858
102
{ACAD_REACTORS
330
1A48
330
1A57
330
1A66
102
}
330
A
100
AcDbSymbolTableRecord
100
AcDbDimStyleTableRecord
  2
STANDARD
 70
     0
340
F
  0
DIMSTYLE
105
18FA
330
A
100
AcDbSymbolTableRecord
100
AcDbDimStyleTableRecord
  2
AM_ANSI
 70
     0
  4
mm
 41
0.12
 42
0.05
 43
0.5
 44
0.1
 47
0.1
 48
0.1
 78
     7
 79
     2
140
0.12
141
0.0
146
0.71
147
0.06
176
   256
177
   256
178
     2
274
     4
284
     7
340
F
371
    -1
372
    -1
1001
ACAD_DSTYLE_DIMJAG
1070
   388
1040
1.5
1001
ACAD_DSTYLE_DIMBREAK
1070
   391
1040
0.125
1001
ACAD_DSTYLE_DIMARC_LENGTH_SYMBOL
1070
   379
1070
     1
1001
ACAD_DSTYLE_DIM_LINETYPE
1070
   380
1005
11
1001
ACAD_DSTYLE_DIM_EXT1_LINETYPE
1070
   381
1005
11
1001
ACAD_DSTYLE_DIM_EXT2_LINETYPE
1070
   382
1005
11
  0
DIMSTYLE
105
190A
330
A
100
AcDbSymbolTableRecord
100
AcDbDimStyleTableRecord
  2
AM_ANSI$3
 70
     0
  4
mm
 41
0.12
 42
0.05
 43
0.5
 44
0.1
 47
0.1
 48
0.1
 78
     7
 79
     2
140
0.12
141
0.0
146
0.71
147
0.06
176
   256
177
   256
178
     2
274
     4
284
     7
288
     1
289
     0
340
F
371
    -1
372
    -1
1001
ACAD_DSTYLE_DIMBREAK
1070
   391
1040
0.125
1001
ACAD_DSTYLE_DIMJAG
1070
   388
1040
1.5
1001
ACAD_DSTYLE_DIMARC_LENGTH_SYMBOL
1070
   379
1070
     1
1001
ACAD_DSTYLE_DIM_LINETYPE
1070
   380
1005
11
1001
ACAD_DSTYLE_DIM_EXT1_LINETYPE
1070
   381
1005
11
1001
ACAD_DSTYLE_DIM_EXT2_LINETYPE
1070
   382
1005
11
  0
DIMSTYLE
105
190B
330
A
100
AcDbSymbolTableRecord
100
AcDbDimStyleTableRecord
  2
AM_ANSI$4
 70
     0
  4
mm
 41
0.12
 42
0.05
 43
0.5
 44
0.1
 47
0.1
 48
0.1
 78
     7
 79
     2
140
0.12
141
0.0
146
0.71
147
0.06
176
   256
177
   256
178
     2
274
     4
284
     7
288
     1
289
     0
340
F
371
    -1
372
    -1
1001
ACAD_DSTYLE_DIMBREAK
1070
   391
1040
0.125
1001
ACAD_DSTYLE_DIMJAG
1070
   388
1040
1.5
1001
ACAD_DSTYLE_DIMARC_LENGTH_SYMBOL
1070
   379
1070
     1
1001
ACAD_DSTYLE_DIM_LINETYPE
1070
   380
1005
11
1001
ACAD_DSTYLE_DIM_EXT1_LINETYPE
1070
   381
1005
11
1001
ACAD_DSTYLE_DIM_EXT2_LINETYPE
1070
   382
1005
11
  0
DIMSTYLE
105
190C
330
A
100
AcDbSymbolTableRecord
100
AcDbDimStyleTableRecord
  2
AM_ANSI$7
 70
     0
  4
mm
 41
0.12
 42
0.05
 43
0.5
 44
0.1
 47
0.1
 48
0.1
 78
     7
 79
     2
140
0.12
141
0.0
146
0.71
147
0.06
176
   256
177
   256
178
     2
274
     4
284
     7
340
F
371
    -1
372
    -1
1001
ACAD_DSTYLE_DIMBREAK
1070
   391
1040
0.125
1001
ACAD_DSTYLE_DIMJAG
1070
   388
1040
1.5
1001
ACAD_DSTYLE_DIMARC_LENGTH_SYMBOL
1070
   379
1070
     1
1001
ACAD_DSTYLE_DIM_LINETYPE
1070
   380
1005
11
1001
ACAD_DSTYLE_DIM_EXT1_LINETYPE
1070
   381
1005
11
1001
ACAD_DSTYLE_DIM_EXT2_LINETYPE
1070
   382
1005
11
  0
DIMSTYLE
105
190D
330
A
100
AcDbSymbolTableRecord
100
AcDbDimStyleTableRecord
  2
AM_ANSI$SF
 70
     0
  4
mm
 41
0.12
 42
0.05
 43
0.5
 44
0.1
 47
0.1
 48
0.1
 75
     1
 76
     1
 78
     7
 79
     2
140
0.12
141
0.0
146
0.71
147
0.06
176
   256
177
   256
178
     2
274
     4
284
     7
340
F
371
    -1
372
    -1
1001
ACAD_DSTYLE_DIMBREAK
1070
   391
1040
0.125
1001
ACAD_DSTYLE_DIMJAG
1070
   388
1040
1.5
1001
ACAD_DSTYLE_DIMARC_LENGTH_SYMBOL
1070
   379
1070
     1
1001
ACAD_DSTYLE_DIM_LINETYPE
1070
   380
1005
11
1001
ACAD_DSTYLE_DIM_EXT1_LINETYPE
1070
   381
1005
11
1001
ACAD_DSTYLE_DIM_EXT2_LINETYPE
1070
   382
1005
11
  0
DIMSTYLE
105
1912
330
A
100
AcDbSymbolTableRecord
100
AcDbDimStyleTableRecord
  2
AM_ANSI$SH
 70
     0
  4
mm
 41
0.12
 42
0.05
 43
0.5
 44
0.1
 47
0.1
 48
0.1
 75
     1
 76
     1
 78
     7
 79
     2
140
0.12
141
0.0
146
0.71
147
0.06
173
     1
176
   256
177
   256
178
     2
274
     4
284
     7
340
F
343
190E
371
    -1
372
    -1
1001
ACAD_DSTYLE_DIMBREAK
1070
   391
1040
0.125
1001
ACAD_DSTYLE_DIMJAG
1070
   388
1040
1.5
1001
ACAD_DSTYLE_DIMARC_LENGTH_SYMBOL
1070
   379
1070
     1
1001
ACAD_DSTYLE_DIM_LINETYPE
1070
   380
1005
11
1001
ACAD_DSTYLE_DIM_EXT1_LINETYPE
1070
   381
1005
11
1001
ACAD_DSTYLE_DIM_EXT2_LINETYPE
1070
   382
1005
11
  0
ENDTAB
  0
TABLE
  2
BLOCK_RECORD
  5
1
330
0
100
AcDbSymbolTable
 70
     6
  0
BLOCK_RECORD
  5
17
330
1
100
AcDbSymbolTableRecord
100
AcDbBlockTableRecord
  2
*MODEL_SPACE
340
18AD
  0
BLOCK_RECORD
  5
14
330
1
100
AcDbSymbolTableRecord
100
AcDbBlockTableRecord
  2
*PAPER_SPACE
340
18AE
  0
BLOCK_RECORD
  5
1C
330
1
100
AcDbSymbolTableRecord
100
AcDbBlockTableRecord
  2
*X0
340
0
102
{BLKREFS
331
B71
102
}
  0
BLOCK_RECORD
  5
1D
330
1
100
AcDbSymbolTableRecord
100
AcDbBlockTableRecord
  2
*X1
340
0
102
{BLKREFS
331
B72
102
}
  0
BLOCK_RECORD
  5
190E
330
1
100
AcDbSymbolTableRecord
100
AcDbBlockTableRecord
  2
GENAXEH
340
0
  0
BLOCK_RECORD
  5
1A49
330
1
100
AcDbSymbolTableRecord
100
AcDbBlockTableRecord
  2
*D3
340
0
  0
BLOCK_RECORD
  5
1A58
330
1
100
AcDbSymbolTableRecord
100
AcDbBlockTableRecord
  2
*D4
340
0
  0
BLOCK_RECORD
  5
1A67
330
1
100
AcDbSymbolTableRecord
100
AcDbBlockTableRecord
  2
*D5
340
0
  0
ENDTAB
  0
ENDSEC
  0
SECTION
  2
BLOCKS
  0
BLOCK
  5
2D
330
17
100
AcDbEntity
  8
0
100
AcDbBlockBegin
  2
*MODEL_SPACE
 70
     0
 10
0.0
 20
0.0
 30
0.0
  3
*MODEL_SPACE
  1

  0
ENDBLK
  5
2E
330
17
100
AcDbEntity
  8
0
100
AcDbBlockEnd
  0
BLOCK
  5
2B
330
14
100
AcDbEntity
 67
     1
  8
0
100
AcDbBlockBegin
  2
*PAPER_SPACE
 70
     0
 10
0.0
 20
0.0
 30
0.0
  3
*PAPER_SPACE
  1

  0
ENDBLK
  5
2C
330
14
100
AcDbEntity
 67
     1
  8
0
100
AcDbBlockEnd
  0
BLOCK
  5
31
330
1C
100
AcDbEntity
  8
0
100
AcDbBlockBegin
  2
*X0
 70
     1
 10
0.0
 20
0.0
 30
0.0
  3
*X0
  1

  0
LINE
  5
32
330
1C
100
AcDbEntity
  8
0
  6
Continuous
 62
     0
100
AcDbLine
 10
2.150502033552613
 20
3.564715595925707
 30
0.0
 11
2.250502033552614
 21
3.664715595925707
 31
0.0
  0
LINE
  5
33
330
1C
100
AcDbEntity
  8
0
  6
Continuous
 62
     0
100
AcDbLine
 10
2.150502033552613
 20
3.741492291222345
 30
0.0
 11
2.208671570507005
 21
3.799661828176736
 31
0.0
  0
ENDBLK
  5
34
330
1C
100
AcDbEntity
  8
0
100
AcDbBlockEnd
  0
BLOCK
  5
35
330
1D
100
AcDbEntity
  8
0
100
AcDbBlockBegin
  2
*X1
 70
     1
 10
0.0
 20
0.0
 30
0.0
  3
*X1
  1

  0
LINE
  5
36
330
1D
100
AcDbEntity
  8
0
  6
Continuous
 62
     0
100
AcDbLine
 10
2.84255504699019
 20
3.549661828176736
 30
0.0
 11
2.897002033552613
 21
3.604108814739162
 31
0.0
  0
LINE
  5
37
330
1D
100
AcDbEntity
  8
0
  6
Continuous
 62
     0
100
AcDbLine
 10
2.665778351693553
 20
3.549661828176736
 30
0.0
 11
2.790778351693553
 21
3.674661828176736
 31
0.0
  0
LINE
  5
38
330
1D
100
AcDbEntity
  8
0
  6
Continuous
 62
     0
100
AcDbLine
 10
2.489001656396915
 20
3.549661828176736
 30
0.0
 11
2.772002033552614
 21
3.832662205332436
 31
0.0
  0
LINE
  5
39
330
1D
100
AcDbEntity
  8
0
  6
Continuous
 62
     0
100
AcDbLine
 10
2.450502033552614
 20
3.68793890062907
 30
0.0
 11
2.772002033552614
 21
4.009438900629071
 31
0.0
  0
LINE
  5
3A
330
1D
100
AcDbEntity
  8
0
  6
Continuous
 62
     0
100
AcDbLine
 10
2.550502033552614
 20
3.964715595925709
 30
0.0
 11
2.772002033552614
 21
4.186215595925707
 31
0.0
  0
LINE
  5
3B
330
1D
100
AcDbEntity
  8
0
  6
Continuous
 62
     0
100
AcDbLine
 10
2.550502033552614
 20
4.141492291222346
 30
0.0
 11
2.772002033552614
 21
4.362992291222345
 31
0.0
  0
LINE
  5
3C
330
1D
100
AcDbEntity
  8
0
  6
Continuous
 62
     0
100
AcDbLine
 10
2.550502033552614
 20
4.318268986518981
 30
0.0
 11
2.772002033552614
 21
4.539768986518983
 31
0.0
  0
LINE
  5
3D
330
1D
100
AcDbEntity
  8
0
  6
Continuous
 62
     0
100
AcDbLine
 10
2.550502033552614
 20
4.49504568181562
 30
0.0
 11
2.772002033552614
 21
4.716545681815619
 31
0.0
  0
LINE
  5
3E
330
1D
100
AcDbEntity
  8
0
  6
Continuous
 62
     0
100
AcDbLine
 10
2.550502033552614
 20
4.671822377112254
 30
0.0
 11
2.772002033552614
 21
4.893322377112255
 31
0.0
  0
LINE
  5
3F
330
1D
100
AcDbEntity
  8
0
  6
Continuous
 62
     0
100
AcDbLine
 10
2.550502033552614
 20
4.848599072408894
 30
0.0
 11
2.772002033552614
 21
5.070099072408893
 31
0.0
  0
LINE
  5
40
330
1D
100
AcDbEntity
  8
0
  6
Continuous
 62
     0
100
AcDbLine
 10
2.550502033552614
 20
5.02537576770553
 30
0.0
 11
2.765947362501896
 21
5.240821096654811
 31
0.0
  0
LINE
  5
41
330
1D
100
AcDbEntity
  8
0
  6
Continuous
 62
     0
100
AcDbLine
 10
2.550502033552614
 20
5.202152463002167
 30
0.0
 11
2.608011398727184
 21
5.259661828176736
 31
0.0
  0
LINE
  5
42
330
1D
100
AcDbEntity
  8
0
  6
Continuous
 62
     0
100
AcDbLine
 10
6.30900203355261
 20
5.071565166476155
 30
0.0
 11
6.497098695253192
 21
5.259661828176736
 31
0.0
  0
LINE
  5
43
330
1D
100
AcDbEntity
  8
0
  6
Continuous
 62
     0
100
AcDbLine
 10
6.30900203355261
 20
4.894788471179518
 30
0.0
 11
6.530502033552612
 21
5.116288471179518
 31
0.0
  0
LINE
  5
44
330
1D
100
AcDbEntity
  8
0
  6
Continuous
 62
     0
100
AcDbLine
 10
6.30900203355261
 20
4.718011775882882
 30
0.0
 11
6.530502033552612
 21
4.939511775882881
 31
0.0
  0
LINE
  5
45
330
1D
100
AcDbEntity
  8
0
  6
Continuous
 62
     0
100
AcDbLine
 10
6.30900203355261
 20
4.541235080586243
 30
0.0
 11
6.530502033552612
 21
4.762735080586245
 31
0.0
  0
LINE
  5
46
330
1D
100
AcDbEntity
  8
0
  6
Continuous
 62
     0
100
AcDbLine
 10
6.309002033552611
 20
4.364458385289607
 30
0.0
 11
6.530502033552612
 21
4.585958385289606
 31
0.0
  0
LINE
  5
47
330
1D
100
AcDbEntity
  8
0
  6
Continuous
 62
     0
100
AcDbLine
 10
6.309002033552611
 20
4.187681689992971
 30
0.0
 11
6.530502033552612
 21
4.409181689992971
 31
0.0
  0
LINE
  5
48
330
1D
100
AcDbEntity
  8
0
  6
Continuous
 62
     0
100
AcDbLine
 10
6.309002033552611
 20
4.010904994696335
 30
0.0
 11
6.530502033552612
 21
4.232404994696334
 31
0.0
  0
LINE
  5
49
330
1D
100
AcDbEntity
  8
0
  6
Continuous
 62
     0
100
AcDbLine
 10
6.309002033552611
 20
3.834128299399698
 30
0.0
 11
6.530502033552612
 21
4.055628299399698
 31
0.0
  0
LINE
  5
4A
330
1D
100
AcDbEntity
  8
0
  6
Continuous
 62
     0
100
AcDbLine
 10
6.20131225762629
 20
3.549661828176736
 30
0.0
 11
6.530502033552612
 21
3.878851604103058
 31
0.0
  0
LINE
  5
4B
330
1D
100
AcDbEntity
  8
0
  6
Continuous
 62
     0
100
AcDbLine
 10
6.378088952922927
 20
3.549661828176736
 30
0.0
 11
6.628088952922927
 21
3.799661828176736
 31
0.0
  0
LINE
  5
4C
330
1D
100
AcDbEntity
  8
0
  6
Continuous
 62
     0
100
AcDbLine
 10
6.554865648219562
 20
3.549661828176736
 30
0.0
 11
6.630502033552612
 21
3.625298213509786
 31
0.0
  0
LINE
  5
4D
330
1D
100
AcDbEntity
  8
0
  6
Continuous
 62
     0
100
AcDbLine
 10
6.830502033552612
 20
3.648521518213148
 30
0.0
 11
6.930502033552611
 21
3.748521518213148
 31
0.0
  0
LINE
  5
4E
330
1D
100
AcDbEntity
  8
0
  6
Continuous
 62
     0
100
AcDbLine
 10
6.908419038812837
 20
3.549661828176736
 30
0.0
 11
6.930502033552611
 21
3.571744822916512
 31
0.0
  0
ENDBLK
  5
4F
330
1D
100
AcDbEntity
  8
0
100
AcDbBlockEnd
  0
BLOCK
  5
1910
330
190E
100
AcDbEntity
  8
0
100
AcDbBlockBegin
  2
GENAXEH
 70
     0
 10
0.0
 20
0.0
 30
0.0
  3
GENAXEH
  1

  0
LINE
  5
190F
330
190E
100
AcDbEntity
  8
0
100
AcDbLine
 10
-1.0
 20
0.0
 30
0.0
 11
1.0
 21
0.0
 31
0.0
  0
ENDBLK
  5
1911
330
190E
100
AcDbEntity
  8
0
100
AcDbBlockEnd
  0
BLOCK
  5
1A4A
330
1A49
100
AcDbEntity
  8
0
100
AcDbBlockBegin
  2
*D3
 70
     1
 10
0.0
 20
0.0
 30
0.0
  3
*D3
  1

  0
LINE
  5
1A4C
330
1A49
100
AcDbEntity
  8
0
  6
ByBlock
 62
     0
370
    -2
100
AcDbLine
 10
20.96764087068626
 20
11.37113039679257
 30
0.0
 11
20.96764087068626
 21
12.55724760727902
 31
0.0
  0
LINE
  5
1A4D
330
1A49
100
AcDbEntity
  8
0
  6
ByBlock
 62
     0
370
    -2
100
AcDbLine
 10
19.25747966689893
 20
10.9710926883043
 30
0.0
 11
19.25747966689893
 21
12.55724760727902
 31
0.0
  0
LINE
  5
1A4E
330
1A49
100
AcDbEntity
  8
0
  6
ByBlock
 62
     0
370
    -2
100
AcDbLine
 10
21.21764087068626
 20
12.43224760727901
 30
0.0
 11
21.46764087068626
 21
12.43224760727901
 31
0.0
  0
LINE
  5
1A4F
330
1A49
100
AcDbEntity
  8
0
  6
ByBlock
 62
     0
370
    -2
100
AcDbLine
 10
19.00747966689893
 20
12.43224760727901
 30
0.0
 11
18.75747966689893
 21
12.43224760727901
 31
0.0
  0
SOLID
  5
1A50
330
1A49
100
AcDbEntity
  8
0
 62
     0
100
AcDbTrace
 10
21.21764087068626
 20
12.47391427394568
 30
0.0
 11
21.21764087068626
 21
12.39058094061235
 31
0.0
 12
20.96764087068626
 22
12.43224760727901
 32
0.0
 13
20.96764087068626
 23
12.43224760727901
 33
0.0
  0
SOLID
  5
1A51
330
1A49
100
AcDbEntity
  8
0
 62
     0
100
AcDbTrace
 10
19.00747966689893
 20
12.47391427394568
 30
0.0
 11
19.00747966689893
 21
12.39058094061235
 31
0.0
 12
19.25747966689893
 22
12.43224760727901
 32
0.0
 13
19.25747966689893
 23
12.43224760727901
 33
0.0
  0
MTEXT
  5
1A52
330
1A49
100
AcDbEntity
  8
0
 62
     0
100
AcDbMText
 10
20.1125602687926
 20
12.43224760727901
 30
0.0
 40
0.25
 41
0.0
 71
     5
 72
     1
  1
\A1;1.710
 73
     1
 44
1.0
1001
ACAD
1000
MTEXTBEGIN
1070
    73
1070
     1
1070
    44
1040
1.0
1070
    74
1070
     0
1000
MTEXTEND
  0
POINT
  5
1A53
330
1A49
100
AcDbEntity
  8
DEFPOINTS
 62
     0
100
AcDbPoint
 10
20.96764087068626
 20
11.24613039679257
 30
0.0
  0
POINT
  5
1A54
330
1A49
100
AcDbEntity
  8
DEFPOINTS
 62
     0
100
AcDbPoint
 10
19.25747966689893
 20
10.8460926883043
 30
0.0
  0
POINT
  5
1A55
330
1A49
100
AcDbEntity
  8
DEFPOINTS
 62
     0
100
AcDbPoint
 10
19.25747966689893
 20
12.43224760727901
 30
0.0
  0
ENDBLK
  5
1A4B
330
1A49
100
AcDbEntity
  8
0
100
AcDbBlockEnd
  0
BLOCK
  5
1A59
330
1A58
100
AcDbEntity
  8
0
100
AcDbBlockBegin
  2
*D4
 70
     1
 10
0.0
 20
0.0
 30
0.0
  3
*D4
  1

  0
LINE
  5
1A5B
330
1A58
100
AcDbEntity
  8
0
  6
ByBlock
 62
     0
370
    -2
100
AcDbLine
 10
13.71039063641624
 20
11.72263884706512
 30
0.0
 11
13.67858085287753
 21
11.47467082962895
 31
0.0
  0
MTEXT
  5
1A5C
102
{ACAD_XDICTIONARY
360
1AD6
102
}
330
1A58
100
AcDbEntity
  8
0
 62
     0
100
AcDbMText
 10
13.81016732411599
 20
12.50043186175654
 30
0.0
 40
0.25
 41
0.0
 71
     5
 72
     1
  1
\A1;\U+22054.780
 11
0.127239134154838
 21
0.9918720697446456
 31
0.0
 73
     1
 44
1.0
1001
ACAD
1000
MTEXTBEGIN
1070
    73
1070
     1
1070
    44
1040
1.0
1070
    74
1070
     0
1000
MTEXTEND
  0
SOLID
  5
1A5D
330
1A58
100
AcDbEntity
  8
0
 62
     0
100
AcDbTrace
 10
13.6372528499715
 20
11.47997246021874
 30
0.0
 11
13.71990885578356
 21
11.46936919903917
 31
0.0
 12
13.64677106933882
 22
11.22670281219279
 32
0.0
 13
13.64677106933882
 23
11.22670281219279
 33
0.0
  0
LINE
  5
1A5E
330
1A58
100
AcDbEntity
  8
0
 62
     0
370
    -2
100
AcDbLine
 10
13.09264087068626
 20
8.855905088575186
 30
0.0
 11
13.59264087068626
 21
8.855905088575186
 31
0.0
  0
LINE
  5
1A5F
330
1A58
100
AcDbEntity
  8
0
 62
     0
370
    -2
100
AcDbLine
 10
13.34264087068626
 20
8.605905088575187
 30
0.0
 11
13.34264087068626
 21
9.105905088575187
 31
0.0
  0
LINE
  5
1A60
330
1A58
100
AcDbEntity
  8
0
 62
     0
370
    -2
100
AcDbLine
 10
12.84264087068626
 20
8.855905088575186
 30
0.0
 11
10.70241556246888
 21
8.855905088575186
 31
0.0
  0
LINE
  5
1A61
330
1A58
100
AcDbEntity
  8
0
 62
     0
370
    -2
100
AcDbLine
 10
13.84264087068626
 20
8.855905088575186
 30
0.0
 11
15.98286617890364
 21
8.855905088575187
 31
0.0
  0
LINE
  5
1A62
330
1A58
100
AcDbEntity
  8
0
 62
     0
370
    -2
100
AcDbLine
 10
13.34264087068626
 20
8.355905088575187
 30
0.0
 11
13.34264087068626
 21
6.215679780357807
 31
0.0
  0
LINE
  5
1A63
330
1A58
100
AcDbEntity
  8
0
 62
     0
370
    -2
100
AcDbLine
 10
13.34264087068626
 20
9.355905088575187
 30
0.0
 11
13.34264087068626
 21
11.49613039679256
 31
0.0
  0
POINT
  5
1A64
330
1A58
100
AcDbEntity
  8
DEFPOINTS
 62
     0
100
AcDbPoint
 10
13.64677106933882
 20
11.22670281219279
 30
0.0
  0
POINT
  5
1A65
330
1A58
100
AcDbEntity
  8
DEFPOINTS
 62
     0
100
AcDbPoint
 10
13.0385106720337
 20
6.485107364957581
 30
0.0
  0
ENDBLK
  5
1A5A
330
1A58
100
AcDbEntity
  8
0
100
AcDbBlockEnd
  0
BLOCK
  5
1A68
330
1A67
100
AcDbEntity
  8
0
100
AcDbBlockBegin
  2
*D5
 70
     1
 10
0.0
 20
0.0
 30
0.0
  3
*D5
  1

  0
LINE
  5
1A6A
330
1A67
100
AcDbEntity
  8
0
  6
ByBlock
 62
     0
370
    -2
100
AcDbLine
 10
19.13247966689892
 20
10.66457557807776
 30
0.0
 11
18.22591491392586
 21
10.66457557807776
 31
0.0
  0
LINE
  5
1A6B
330
1A67
100
AcDbEntity
  8
0
  6
ByBlock
 62
     0
370
    -2
100
AcDbLine
 10
19.13247966689892
 20
7.087238369921447
 30
0.0
 11
18.22591491392586
 21
7.087238369921447
 31
0.0
  0
LINE
  5
1A6C
330
1A67
100
AcDbEntity
  8
0
  6
ByBlock
 62
     0
370
    -2
100
AcDbLine
 10
18.35091491392586
 20
10.41457557807776
 30
0.0
 11
18.35091491392586
 21
9.555906973999601
 31
0.0
  0
LINE
  5
1A6D
330
1A67
100
AcDbEntity
  8
0
  6
ByBlock
 62
     0
370
    -2
100
AcDbLine
 10
18.35091491392586
 20
7.337238369921447
 30
0.0
 11
18.35091491392586
 21
8.195906973999603
 31
0.0
  0
SOLID
  5
1A6E
330
1A67
100
AcDbEntity
  8
0
 62
     0
100
AcDbTrace
 10
18.30924824725919
 20
10.41457557807776
 30
0.0
 11
18.39258158059253
 21
10.41457557807776
 31
0.0
 12
18.35091491392586
 22
10.66457557807776
 32
0.0
 13
18.35091491392586
 23
10.66457557807776
 33
0.0
  0
SOLID
  5
1A6F
330
1A67
100
AcDbEntity
  8
0
 62
     0
100
AcDbTrace
 10
18.30924824725919
 20
7.337238369921447
 30
0.0
 11
18.39258158059253
 21
7.337238369921447
 31
0.0
 12
18.35091491392586
 22
7.087238369921447
 32
0.0
 13
18.35091491392586
 23
7.087238369921447
 33
0.0
  0
MTEXT
  5
1A70
330
1A67
100
AcDbEntity
  8
0
 62
     0
100
AcDbMText
 10
18.35091491392586
 20
8.875906973999605
 30
0.0
 40
0.25
 41
0.0
 71
     5
 72
     1
  1
\A1;3.577
 11
0.0000000000000001
 21
1.0
 31
0.0
 73
     1
 44
1.0
1001
ACAD
1000
MTEXTBEGIN
1070
    73
1070
     1
1070
    44
1040
1.0
1070
    74
1070
     0
1000
MTEXTEND
  0
POINT
  5
1A71
330
1A67
100
AcDbEntity
  8
DEFPOINTS
 62
     0
100
AcDbPoint
 10
19.25747966689892
 20
10.66457557807776
 30
0.0
  0
POINT
  5
1A72
330
1A67
100
AcDbEntity
  8
DEFPOINTS
 62
     0
100
AcDbPoint
 10
19.25747966689892
 20
7.087238369921447
 30
0.0
  0
POINT
  5
1A73
330
1A67
100
AcDbEntity
  8
DEFPOINTS
 62
     0
100
AcDbPoint
 10
18.35091491392586
 20
7.087238369921447
 30
0.0
  0
ENDBLK
  5
1A69
330
1A67
100
AcDbEntity
  8
0
100
AcDbBlockEnd
  0
ENDSEC
  0
SECTION
  2
ENTITIES
  0
TEXT
  5
6F
330
17
100
AcDbEntity
  8
2
100
AcDbText
 10
4.111625285400184
 20
20.1790499463757
 30
0.0
 40
0.156
  1
A
  7
SIMPLEX
 72
     1
 11
4.171053856828756
 21
20.1790499463757
 31
0.0
100
AcDbText
  0
TEXT
  5
71
330
17
100
AcDbEntity
  8
2
100
AcDbText
 10
1.807066995195513
 20
17.62182901565825
 30
0.0
 40
0.156
  1
1
  7
SIMPLEX
 72
     1
 11
1.825638423766942
 21
17.62182901565825
 31
0.0
100
AcDbText
  0
LINE
  5
7E
330
17
100
AcDbEntity
  8
4
100
AcDbLine
 10
1.699999999999995
 20
1.599999999999999
 30
0.0
 11
1.699999999999995
 21
20.4
 31
0.0
  0
LINE
  5
7F
330
17
100
AcDbEntity
  8
4
100
AcDbLine
 10
32.29999999999999
 20
20.4
 30
0.0
 11
1.699999999999995
 21
20.4
 31
0.0
  0
LINE
  5
80
330
17
100
AcDbEntity
  8
4
100
AcDbLine
 10
32.29999999999999
 20
20.4
 30
0.0
 11
32.3
 21
1.599999999999999
 31
0.0
  0
LINE
  5
82
330
17
100
AcDbEntity
  8
4
100
AcDbLine
 10
32.29999999999999
 20
1.599999999999995
 30
0.0
 11
1.699999999999995
 21
1.599999999999999
 31
0.0
  0
LINE
  5
83
330
17
100
AcDbEntity
  8
3
100
AcDbLine
 10
6.497297785850955
 20
20.12489485051321
 30
0.0
 11
6.497297785850955
 21
20.4
 31
0.0
  0
LINE
  5
84
330
17
100
AcDbEntity
  8
3
100
AcDbLine
 10
1.924699416826113
 20
16.23911588041056
 30
0.0
 11
1.674699462903275
 21
16.23911588041056
 31
0.0
  0
LINE
  5
85
330
17
100
AcDbEntity
  8
3
100
AcDbLine
 10
10.77307019453582
 20
20.12489485051321
 30
0.0
 11
10.77307019453582
 21
20.4
 31
0.0
  0
LINE
  5
86
330
17
100
AcDbEntity
  8
3
100
AcDbLine
 10
15.09819852390063
 20
20.12489485051321
 30
0.0
 11
15.09819852390063
 21
20.4
 31
0.0
  0
LINE
  5
87
330
17
100
AcDbEntity
  8
3
100
AcDbLine
 10
19.39864889292547
 20
20.12489485051321
 30
0.0
 11
19.39864889292548
 21
20.4
 31
0.0
  0
LINE
  5
88
330
17
100
AcDbEntity
  8
3
100
AcDbLine
 10
23.69909926195032
 20
20.12489485051321
 30
0.0
 11
23.69909926195032
 21
20.4
 31
0.0
  0
LINE
  5
89
330
17
100
AcDbEntity
  8
3
100
AcDbLine
 10
27.99954963097516
 20
20.12489485051321
 30
0.0
 11
27.99954963097516
 21
20.4
 31
0.0
  0
LINE
  5
8A
330
17
100
AcDbEntity
  8
3
100
AcDbLine
 10
1.924699416826113
 20
12.57933691030793
 30
0.0
 11
1.674699462903275
 21
12.57933691030793
 31
0.0
  0
LINE
  5
8B
330
17
100
AcDbEntity
  8
3
100
AcDbLine
 10
1.924699416826113
 20
8.919557940205285
 30
0.0
 11
1.674699462903275
 21
8.919557940205285
 31
0.0
  0
LINE
  5
8C
330
17
100
AcDbEntity
  8
3
100
AcDbLine
 10
1.924699416826113
 20
5.259778970102641
 30
0.0
 11
1.674699462903275
 21
5.259778970102641
 31
0.0
  0
TEXT
  5
8D
330
17
100
AcDbEntity
  8
2
100
AcDbText
 10
1.773638423766942
 20
14.25976005014101
 30
0.0
 40
0.156
  1
2
  7
SIMPLEX
 72
     1
 11
1.825638423766942
 21
14.25976005014101
 31
0.0
100
AcDbText
  0
TEXT
  5
8E
330
17
100
AcDbEntity
  8
2
100
AcDbText
 10
1.773638423766942
 20
10.56148418807205
 30
0.0
 40
0.156
  1
3
  7
SIMPLEX
 72
     1
 11
1.825638423766942
 21
10.56148418807205
 31
0.0
100
AcDbText
  0
TEXT
  5
8F
330
17
100
AcDbEntity
  8
2
100
AcDbText
 10
1.769924138052656
 20
6.86320832600308
 30
0.0
 40
0.156
  1
4
  7
SIMPLEX
 72
     1
 11
1.825638423766942
 21
6.86320832600308
 31
0.0
100
AcDbText
  0
TEXT
  5
90
330
17
100
AcDbEntity
  8
2
100
AcDbText
 10
1.773638423766942
 20
3.164932463934118
 30
0.0
 40
0.156
  1
5
  7
SIMPLEX
 72
     1
 11
1.825638423766942
 21
3.164932463934118
 31
0.0
100
AcDbText
  0
TEXT
  5
91
330
17
100
AcDbEntity
  8
2
100
AcDbText
 10
8.657846960277032
 20
20.1790499463757
 30
0.0
 40
0.156
  1
B
  7
SIMPLEX
 72
     1
 11
8.709846960277031
 21
20.1790499463757
 31
0.0
100
AcDbText
  0
TEXT
  5
92
330
17
100
AcDbEntity
  8
2
100
AcDbText
 10
12.96878784697654
 20
20.1790499463757
 30
0.0
 40
0.156
  1
C
  7
SIMPLEX
 72
     1
 11
13.02450213269083
 21
20.1790499463757
 31
0.0
100
AcDbText
  0
TEXT
  5
93
330
17
100
AcDbEntity
  8
2
100
AcDbText
 10
17.23112282234599
 20
20.1790499463757
 30
0.0
 40
0.156
  1
D
  7
SIMPLEX
 72
     1
 11
17.28312282234599
 21
20.1790499463757
 31
0.0
100
AcDbText
  0
TEXT
  5
94
330
17
100
AcDbEntity
  8
2
100
AcDbText
 10
21.6055267632327
 20
20.1790499463757
 30
0.0
 40
0.156
  1
E
  7
SIMPLEX
 72
     1
 11
21.65381247751841
 21
20.1790499463757
 31
0.0
100
AcDbText
  0
TEXT
  5
95
330
17
100
AcDbEntity
  8
2
100
AcDbText
 10
25.80811297012925
 20
20.1790499463757
 30
0.0
 40
0.156
  1
F
  7
SIMPLEX
 72
     1
 11
25.85639868441496
 21
20.1790499463757
 31
0.0
100
AcDbText
  0
TEXT
  5
96
330
17
100
AcDbEntity
  8
2
100
AcDbText
 10
30.05930508835584
 20
20.1790499463757
 30
0.0
 40
0.156
  1
G
  7
SIMPLEX
 72
     1
 11
30.11501937407013
 21
20.1790499463757
 31
0.0
100
AcDbText
  0
LINE
  5
9C
330
17
100
AcDbEntity
  8
4
100
AcDbLine
 10
33.99999999999999
 20
22.0
 30
0.0
 11
34.0
 21
-0.0000000000000042
 31
0.0
  0
LINE
  5
9D
330
17
100
AcDbEntity
  8
4
100
AcDbLine
 10
-0.0000000000000022
 20
0.0
 30
0.0
 11
-0.0000000000000024
 21
22.0
 31
0.0
  0
LINE
  5
9E
330
17
100
AcDbEntity
  8
4
100
AcDbLine
 10
34.0
 20
-0.0000000000000042
 30
0.0
 11
-0.0000000000000022
 21
0.0
 31
0.0
  0
LINE
  5
9F
330
17
100
AcDbEntity
  8
4
100
AcDbLine
 10
33.99999999999999
 20
22.0
 30
0.0
 11
-0.0000000000000024
 21
22.0
 31
0.0
  0
LINE
  5
AA
330
17
100
AcDbEntity
  8
0
100
AcDbLine
 10
22.01185508099067
 20
3.632001399999909
 30
0.0
 11
32.3
 21
3.632001399999909
 31
0.0
  0
LWPOLYLINE
  5
AB
330
17
100
AcDbEntity
  8
4
  6
Continuous
100
AcDbPolyline
 90
       18
 70
     0
 43
0.0
 10
24.31716664476465
 20
3.203508336307954
 10
24.31704809020893
 20
3.201611463416011
 10
24.31681098109745
 20
3.199714590524068
 10
24.31621820831869
 20
3.198054826743608
 10
24.31550688098416
 20
3.196513617518927
 10
24.31432133542676
 20
3.195090962850036
 10
24.31289868075778
 20
3.19402397184824
 10
24.3112389169773
 20
3.19331264451379
 10
24.30910493497389
 20
3.192956980846526
 10
24.30708950752624
 20
3.193075535402308
 10
24.30519263463431
 20
3.193668308181058
 10
24.30376997996532
 20
3.194735299182767
 10
24.30258443440782
 20
3.196157953851746
 10
24.3016359979619
 20
3.197817717632123
 10
24.30092467062745
 20
3.199596035968371
 10
24.3004504524044
 20
3.201492908860315
 10
24.30033189784871
 20
3.203508336307954
 10
24.31716664476465
 20
3.203508336307954
  0
LWPOLYLINE
  5
BF
330
17
100
AcDbEntity
  8
4
  6
Continuous
100
AcDbPolyline
 90
       18
 70
     0
 43
0.0
 10
24.30021334329302
 20
3.210503055096978
 10
24.30009478873721
 20
3.215600900994063
 10
24.30009478873721
 20
3.221172965114107
 10
24.30009478873721
 20
3.227219247457203
 10
24.30056900696019
 20
3.233739748023181
 10
24.30139888885042
 20
3.240615912256505
 10
24.30294009807518
 20
3.247966294712712
 10
24.30531118919001
 20
3.255672340836271
 10
24.30874927130671
 20
3.263734050627008
 10
24.31159458064458
 20
3.256146559059232
 10
24.31384711720371
 20
3.248677622047247
 10
24.31550688098416
 20
3.241445794146736
 10
24.31669242654166
 20
3.234451075357712
 10
24.31740375387619
 20
3.227693465680169
 10
24.3176408629876
 20
3.221528628781372
 10
24.3176408629876
 20
3.215719455549846
 10
24.31740375387619
 20
3.210503055096978
 10
24.30021334329302
 20
3.210503055096978
  0
TEXT
  5
D3
330
17
100
AcDbEntity
  8
3
100
AcDbText
 10
24.12721133705336
 20
2.850436771421593
 30
0.0
 40
0.0781522982138528
  1
NAME:
  7
SIMPLEX
100
AcDbText
  0
LWPOLYLINE
  5
D4
330
17
100
AcDbEntity
  8
4
  6
Continuous
100
AcDbPolyline
 90
       21
 70
     0
 43
0.0
 10
24.2941670609499
 20
3.515210762388193
 10
24.2941670609499
 20
3.203745445419437
 10
24.30744517119344
 20
3.07203133398554
 10
24.32321292710772
 20
3.203745445419437
 10
24.32321292710772
 20
3.51461798960944
 10
24.32285726344046
 20
3.519478726395043
 10
24.32190882699444
 20
3.523746690401893
 10
24.32048617232555
 20
3.527303327074301
 10
24.3187078539893
 20
3.530267190967956
 10
24.31645531743017
 20
3.532519727527167
 10
24.31396567175949
 20
3.534179491307626
 10
24.31135747153311
 20
3.535127927753554
 10
24.30874927130671
 20
3.535483591420821
 10
24.30602251652454
 20
3.535246482309341
 10
24.30341431629815
 20
3.534298045863323
 10
24.30092467062745
 20
3.532638282082865
 10
24.29867213406833
 20
3.530504300079436
 10
24.29689381573208
 20
3.527658990741565
 10
24.29547116106311
 20
3.524102354069158
 10
24.2945227246171
 20
3.519952944618091
 10
24.2941670609499
 20
3.515210762388193
  0
TEXT
  5
EB
330
17
100
AcDbEntity
  8
3
100
AcDbText
 10
24.11054985639057
 20
2.097977421109375
 30
0.0
 40
0.0781522982138528
  1
MAT'L DESCRIPTION:
  7
SIMPLEX
100
AcDbText
  0
TEXT
  5
EC
330
17
100
AcDbEntity
  8
3
100
AcDbText
 10
24.12301203311848
 20
2.372154126682993
 30
0.0
 40
0.0781522982138528
  1
MAT'L PART NO.:
  7
SIMPLEX
100
AcDbText
  0
LINE
  5
ED
330
17
100
AcDbEntity
  8
0
100
AcDbLine
 10
24.04381483455096
 20
2.269844922297489
 30
0.0
 11
29.49696939050781
 21
2.269844922297489
 31
0.0
  0
LINE
  5
EE
330
17
100
AcDbEntity
  8
0
100
AcDbLine
 10
24.04381483455087
 20
2.537827578566153
 30
0.0
 11
32.3
 21
2.537827578566153
 31
0.0
  0
LINE
  5
EF
330
17
100
AcDbEntity
  8
0
100
AcDbLine
 10
24.04381483455087
 20
3.013702094781773
 30
0.0
 11
32.3
 21
3.013702094781773
 31
0.0
  0
LINE
  5
F0
330
17
100
AcDbEntity
  8
0
100
AcDbLine
 10
24.04381483455096
 20
1.599999999999909
 30
0.0
 11
24.04381483455096
 21
3.631959753560114
 31
0.0
  0
LINE
  5
F1
330
17
100
AcDbEntity
  8
4
100
AcDbLine
 10
22.01185508099067
 20
3.632001399999909
 30
0.0
 11
22.01185508099067
 21
1.599999999999909
 31
0.0
  0
TEXT
  5
F2
330
17
100
AcDbEntity
  8
3
100
AcDbText
 10
22.12907657181773
 20
2.35906766772022
 30
0.0
 40
0.1236393780336343
  1
FRACTIONS %%P 1/32
  7
SIMPLEX
 72
     1
 11
23.03576534406439
 21
2.35906766772022
 31
0.0
100
AcDbText
  0
TEXT
  5
F3
330
17
100
AcDbEntity
  8
3
100
AcDbText
 10
22.47383768427123
 20
1.636244247895378
 30
0.0
 40
0.0840747770628713
  1
READ ALL NOTES
  7
SIMPLEX
 72
     1
 11
23.01832195477363
 21
1.636244247895378
 31
0.0
100
AcDbText
  0
TEXT
  5
F4
330
17
100
AcDbEntity
  8
3
100
AcDbText
 10
22.54590177889655
 20
1.756030017147534
 30
0.0
 40
0.0840747770628713
  1
DO NOT SCALE
  7
SIMPLEX
 72
     1
 11
23.01832195477363
 21
1.756030017147534
 31
0.0
100
AcDbText
  0
TEXT
  5
F5
330
17
100
AcDbEntity
  8
3
100
AcDbText
 10
22.36458014902466
 20
1.935161228747696
 30
0.0
 40
0.1236393780336343
  1
HOLES %%P .005
  7
SIMPLEX
 72
     1
 11
23.03576534406439
 21
1.935161228747696
 31
0.0
100
AcDbText
  0
TEXT
  5
F6
330
17
100
AcDbEntity
  8
3
100
AcDbText
 10
22.30864804943801
 20
2.147114448233956
 30
0.0
 40
0.1236393780336343
  1
ANGLES %%P 1/2%%D
  7
SIMPLEX
 72
     1
 11
23.03576534406439
 21
2.147114448233956
 31
0.0
100
AcDbText
  0
LINE
  5
F7
330
17
100
AcDbEntity
  8
0
100
AcDbLine
 10
22.01185508099067
 20
1.881460857912946
 30
0.0
 11
24.04381483455096
 21
1.881460857912946
 31
0.0
  0
TEXT
  5
F8
330
17
100
AcDbEntity
  8
3
100
AcDbText
 10
22.07299637918419
 20
3.474489422495883
 30
0.0
 40
0.0990742219853884
  1
UNLESS OTHERWISE SPECIFIED
 41
0.8436671689696833
  7
SIMPLEX
 72
     5
 11
23.9795456722393
 21
3.474489422495883
 31
0.0
100
AcDbText
  0
TEXT
  5
F9
330
17
100
AcDbEntity
  8
3
100
AcDbText
 10
22.07299637918419
 20
3.234021522969542
 30
0.0
 40
0.0990742219853884
  1
DIMENSIONS ARE IN INCHES
 41
0.9163641132346443
  7
SIMPLEX
 72
     5
 11
23.9795456722393
 21
3.234021522969542
 31
0.0
100
AcDbText
  0
TEXT
  5
FA
330
17
100
AcDbEntity
  8
3
100
AcDbText
 10
22.45289399047726
 20
2.571020887206394
 30
0.0
 40
0.1236393780336343
  1
.XXX %%P .005
  7
SIMPLEX
 72
     1
 11
23.03576534406439
 21
2.571020887206394
 31
0.0
100
AcDbText
  0
TEXT
  5
FB
330
17
100
AcDbEntity
  8
3
100
AcDbText
 10
22.52354506363933
 20
2.782974106692655
 30
0.0
 40
0.1236393780336343
  1
.XX %%P .010
  7
SIMPLEX
 72
     1
 11
23.03576534406439
 21
2.782974106692655
 31
0.0
100
AcDbText
  0
TEXT
  5
FC
330
17
100
AcDbEntity
  8
3
100
AcDbText
 10
22.46172537462252
 20
2.975094398511645
 30
0.0
 40
0.1236393780336343
  1
TOLERANCES
  7
SIMPLEX
 72
     1
 11
23.03576534406439
 21
2.975094398511645
 31
0.0
100
AcDbText
  0
LINE
  5
FD
330
17
100
AcDbEntity
  8
0
100
AcDbLine
 10
22.01185508099067
 20
3.397502858918576
 30
0.0
 11
24.04381483455096
 21
3.397502858918576
 31
0.0
  0
LINE
  5
FE
330
17
100
AcDbEntity
  8
0
100
AcDbLine
 10
22.01185508099067
 20
3.163045964277037
 30
0.0
 11
24.04381483455096
 21
3.163045964277037
 31
0.0
  0
LWPOLYLINE
  5
FF
330
17
100
AcDbEntity
  8
4
  6
Continuous
100
AcDbPolyline
 90
       21
 70
     0
 43
0.0
 10
24.19682452710033
 20
3.49485195722538
 10
24.19682452710033
 20
3.20386399997522
 10
24.21140673745704
 20
3.07203133398554
 10
24.22646316603681
 20
3.203271227196475
 10
24.22646316603681
 20
3.495918948227093
 10
24.22610750236954
 20
3.50066113045691
 10
24.22515906592362
 20
3.504691985352279
 10
24.22373641125462
 20
3.508130067468897
 10
24.22183953836269
 20
3.510975376806856
 10
24.21958700180347
 20
3.512990804254501
 10
24.21709735613287
 20
3.514532013479175
 10
24.21437060135069
 20
3.515361895369407
 10
24.21164384656852
 20
3.515599004480892
 10
24.20891709178635
 20
3.515124786257926
 10
24.20619033700417
 20
3.514057795256213
 10
24.20370069133357
 20
3.512398031475747
 10
24.20144815477437
 20
3.510145494916626
 10
24.19955128188251
 20
3.507181631022968
 10
24.19812862721345
 20
3.503743548906266
 10
24.19718019076753
 20
3.499594139455198
 10
24.19682452710033
 20
3.49485195722538
  0
LWPOLYLINE
  5
116
330
17
100
AcDbEntity
  8
4
  6
Continuous
100
AcDbPolyline
 90
       21
 70
     0
 43
0.0
 10
24.24614784408168
 20
3.543403366049746
 10
24.24614784408168
 20
3.203745445419437
 10
24.25942595432527
 20
3.07203133398554
 10
24.27519371023949
 20
3.203745445419437
 10
24.27519371023949
 20
3.542810593271001
 10
24.2748380465723
 20
3.5476713300566
 10
24.27388961012629
 20
3.551939294063453
 10
24.27246695545732
 20
3.555495930735856
 10
24.27068863712115
 20
3.558459794629511
 10
24.26843610056194
 20
3.560712331188717
 10
24.26594645489125
 20
3.562372094969096
 10
24.26333825466486
 20
3.563320531415108
 10
24.26073005443847
 20
3.563676195082287
 10
24.2580032996563
 20
3.563439085970808
 10
24.25539509942991
 20
3.56249064952488
 10
24.25290545375923
 20
3.560830885744416
 10
24.2506529172001
 20
3.558696903740996
 10
24.24887459886385
 20
3.555851594403121
 10
24.24745194419497
 20
3.552294957730717
 10
24.24650350774895
 20
3.548145548279565
 10
24.24614784408168
 20
3.543403366049746
  0
LWPOLYLINE
  5
12D
330
17
100
AcDbEntity
  8
4
  6
Continuous
100
AcDbPolyline
 90
       18
 70
     0
 43
0.0
 10
24.22136532013972
 20
3.203508336307954
 10
24.22136532013972
 20
3.201611463416011
 10
24.22112821102825
 20
3.199714590524068
 10
24.2205354382495
 20
3.197936272187908
 10
24.21958700180347
 20
3.196157953851746
 10
24.21840145624607
 20
3.194616744626983
 10
24.21674169246562
 20
3.193431199069573
 10
24.21484481957368
 20
3.192601317179343
 10
24.21247372845876
 20
3.192364208067861
 10
24.21010263734385
 20
3.192719871735044
 10
24.20808720989621
 20
3.193431199069573
 10
24.20630889155997
 20
3.194498190071286
 10
24.20476768233529
 20
3.196039399295963
 10
24.20370069133357
 20
3.197699163076427
 10
24.20275225488764
 20
3.199477481412587
 10
24.2022780366646
 20
3.201492908860315
 10
24.20204092755311
 20
3.203508336307954
 10
24.22136532013972
 20
3.203508336307954
  0
LWPOLYLINE
  5
141
330
17
100
AcDbEntity
  8
4
  6
Continuous
100
AcDbPolyline
 90
       18
 70
     0
 43
0.0
 10
24.20180381844164
 20
3.210028836874018
 10
24.20168526388593
 20
3.216905001107258
 10
24.2021594821089
 20
3.224018274452065
 10
24.20298936399904
 20
3.23113154779679
 10
24.20417490955653
 20
3.238126266585815
 10
24.20571611878121
 20
3.244765321707575
 10
24.20749443711746
 20
3.250693049494886
 10
24.20950986456511
 20
3.255909449947751
 10
24.21176240112432
 20
3.259940304843121
 10
24.21365927401617
 20
3.25602800450345
 10
24.21555614690821
 20
3.251048713162154
 10
24.21733446524437
 20
3.245002430819056
 10
24.21887567446904
 20
3.238244821141598
 10
24.22017977458224
 20
3.23113154779679
 10
24.22112821102825
 20
3.223899719896281
 10
24.22160242925122
 20
3.21678644655156
 10
24.22160242925122
 20
3.210028836874018
 10
24.20180381844164
 20
3.210028836874018
  0
LWPOLYLINE
  5
155
330
17
100
AcDbEntity
  8
4
  6
Continuous
100
AcDbPolyline
 90
       18
 70
     0
 43
0.0
 10
24.25219412642479
 20
3.210503055096978
 10
24.25207557186899
 20
3.215600900994063
 10
24.25207557186899
 20
3.221172965114107
 10
24.25207557186899
 20
3.227219247457203
 10
24.25254979009195
 20
3.233739748023181
 10
24.25337967198228
 20
3.240615912256505
 10
24.25492088120694
 20
3.247966294712712
 10
24.25729197232186
 20
3.255672340836271
 10
24.26073005443847
 20
3.263734050627008
 10
24.26357536377644
 20
3.256146559059232
 10
24.26582790033557
 20
3.248677622047247
 10
24.26748766411594
 20
3.241445794146736
 10
24.26867320967345
 20
3.234451075357712
 10
24.26938453700797
 20
3.227693465680169
 10
24.26962164611945
 20
3.221528628781372
 10
24.26962164611945
 20
3.215719455549846
 10
24.26938453700797
 20
3.210503055096978
 10
24.25219412642479
 20
3.210503055096978
  0
LWPOLYLINE
  5
169
330
17
100
AcDbEntity
  8
4
  6
Continuous
100
AcDbPolyline
 90
       18
 70
     0
 43
0.0
 10
24.26914742789639
 20
3.203508336307954
 10
24.2690288733407
 20
3.201611463416011
 10
24.26879176422922
 20
3.199714590524068
 10
24.26819899145046
 20
3.198054826743608
 10
24.26748766411594
 20
3.196513617518927
 10
24.26630211855853
 20
3.195090962850036
 10
24.26487946388956
 20
3.19402397184824
 10
24.26321970010908
 20
3.19331264451379
 10
24.26108571810566
 20
3.192956980846526
 10
24.25907029065802
 20
3.193075535402308
 10
24.25717341776607
 20
3.193668308181058
 10
24.2557507630971
 20
3.194735299182767
 10
24.25456521753968
 20
3.196157953851746
 10
24.25361678109367
 20
3.197817717632123
 10
24.25290545375923
 20
3.199596035968371
 10
24.25243123553625
 20
3.201492908860315
 10
24.25231268098055
 20
3.203508336307954
 10
24.26914742789639
 20
3.203508336307954
  0
LINE
  5
17D
330
17
100
AcDbEntity
  8
0
100
AcDbLine
 10
24.26043603597086
 20
3.563650628259062
 30
0.0
 11
24.26043603597086
 21
3.563650628259062
 31
0.0
  0
LWPOLYLINE
  5
17E
330
17
100
AcDbEntity
  8
4
  6
Continuous
100
AcDbPolyline
 90
       88
 70
     0
 43
0.0
 10
30.248555109065
 20
3.458746499044303
 10
30.05909019538548
 20
3.458746499044303
 10
30.06429686476902
 20
3.454696867301558
 10
30.06950353415256
 20
3.450068716738373
 10
30.07413168471574
 20
3.444862047354833
 10
30.07847057586868
 20
3.439655377971208
 10
30.08194168879105
 20
3.433580930357051
 10
30.08454502348282
 20
3.427506482742892
 10
30.08628057994406
 20
3.420564256898202
 10
30.08714835817459
 20
3.413622031053423
 10
30.08714835817459
 20
3.212586740965939
 10
30.03826351785115
 20
3.159073750079313
 10
30.21268694220049
 20
3.159073750079313
 10
30.21615805512289
 20
3.159073750079313
 10
30.21962916804519
 20
3.159652268899667
 10
30.22310028096766
 20
3.159941528309845
 10
30.22628213447978
 20
3.16080930654046
 10
30.22975324740218
 20
3.16167708477108
 10
30.23322436032456
 20
3.162834122411878
 10
30.2364062138367
 20
3.163991160052676
 10
30.23987732675907
 20
3.165726716513823
 10
30.24305918027129
 20
3.167173013564798
 10
30.24624103378342
 20
3.168908570026035
 10
30.24913362788544
 20
3.170933385897365
 10
30.25202622198748
 20
3.172958201768778
 10
30.25491881608942
 20
3.175272277050368
 10
30.25781141019137
 20
3.177586352331966
 10
30.26012548547296
 20
3.179900427613555
 10
30.26272882016473
 20
3.182503762305325
 10
30.26967104600951
 20
3.191181544611255
 10
30.27516697480323
 20
3.201305623968153
 10
30.27921660654606
 20
3.212008222145497
 10
30.28153068182765
 20
3.223000079733016
 10
30.28181994123783
 20
3.234281196730712
 10
30.28008438477659
 20
3.244694535497878
 10
30.27574549362358
 20
3.254529355444603
 10
30.26909252718916
 20
3.263207137750533
 10
30.20603397576599
 20
3.23601675319195
 10
30.20921582927811
 20
3.231388602628768
 10
30.21181916396988
 20
3.226181933245227
 10
30.21384397984129
 20
3.220975263861603
 10
30.21529027689228
 20
3.215479335067882
 10
30.21615805512289
 20
3.209983406274083
 10
30.21615805512289
 20
3.204487477480363
 10
30.21529027689228
 20
3.198991548686564
 10
30.21355472043111
 20
3.193784879303025
 10
30.21124064514952
 20
3.190024506970456
 10
30.20863731045775
 20
3.186553394048069
 10
30.20516619753538
 20
3.183371540535944
 10
30.20169508461298
 20
3.181057465254353
 10
30.19764545287015
 20
3.179032649382937
 10
30.19359582112749
 20
3.177297092921785
 10
30.18925692997448
 20
3.176429314691167
 10
30.18491803882147
 20
3.17614005528099
 10
30.08628057994406
 20
3.17614005528099
 10
30.15165320664873
 20
3.243826757267261
 10
30.15165320664873
 20
3.309777902792381
 10
30.22859620976138
 20
3.309777902792381
 10
30.22859620976138
 20
3.332918655608219
 10
30.15281024428953
 20
3.332918655608219
 10
30.15281024428953
 20
3.420853516308376
 10
30.13921505201024
 20
3.441969453252799
 10
30.18289322295006
 20
3.441969453252799
 10
30.19272804289677
 20
3.441390934432446
 10
30.20082730638244
 20
3.439076859150853
 10
30.20719101340669
 20
3.435316486818288
 10
30.21181916396988
 20
3.430109817434747
 10
30.21442249866165
 20
3.424035369820586
 10
30.21529027689228
 20
3.417093143975812
 10
30.21413323925147
 20
3.409283139900503
 10
30.21095138573933
 20
3.401473135825106
 10
30.27863808772561
 20
3.380935717701043
 10
30.28326623828879
 20
3.385853127674403
 10
30.28673735121119
 20
3.391349056468206
 10
30.28934068590297
 20
3.397423504082363
 10
30.29078698295393
 20
3.403497951696524
 10
30.29136550177437
 20
3.409861658720858
 10
30.29078698295393
 20
3.416514625155373
 10
30.28962994531314
 20
3.422878332179793
 10
30.28760512944173
 20
3.429242039204127
 10
30.28500179474995
 20
3.435027227408108
 10
30.28153068182765
 20
3.440812415612001
 10
30.27748105008483
 20
3.445729825585368
 10
30.27256364011146
 20
3.450068716738373
 10
30.26735697072792
 20
3.453829089070941
 10
30.26157178252393
 20
3.456432423762707
 10
30.2552080754996
 20
3.458167980223946
 10
30.248555109065
 20
3.458746499044303
  0
TEXT
  5
1D8
330
17
100
AcDbEntity
  8
3
100
AcDbText
 10
30.41404834376205
 20
2.323502844314683
 30
0.0
 40
0.077527079828142
  1
OF
  7
SIMPLEX
100
AcDbText
  0
LINE
  5
1D9
330
17
100
AcDbEntity
  8
0
100
AcDbLine
 10
29.49696939050781
 20
2.177674272979741
 30
0.0
 11
32.3
 21
2.177674272979741
 31
0.0
  0
TEXT
  5
1DA
330
17
100
AcDbEntity
  8
3
100
AcDbText
 10
30.05391903699231
 20
1.717904679869008
 30
0.0
 40
0.1750611479990302
  1
4045.00
  7
SIMPLEX
 72
     1
 11
30.57076623584659
 21
1.717904679869008
 31
0.0
100
AcDbText
  0
TEXT
  5
1DB
330
17
100
AcDbEntity
  8
3
100
AcDbText
 10
27.37603753803731
 20
2.622298285376089
 30
0.0
 40
0.1563045964277055
  1
PVC FLANGES
  7
SIMPLEX
 72
     1
 11
28.17244667221657
 21
2.622298285376089
 31
0.0
100
AcDbText
  0
LWPOLYLINE
  5
1DC
330
17
100
AcDbEntity
  8
4
  6
Continuous
100
AcDbPolyline
 90
       46
 70
     0
 43
0.0
 10
27.13531376554991
 20
3.463085390197308
 10
26.9782459058125
 20
3.463085390197308
 10
26.98171701873481
 20
3.458457239634122
 10
26.98518813165721
 20
3.453250570250498
 10
26.98808072575924
 20
3.448043900866958
 10
26.990684060451
 20
3.442547972073243
 10
26.99299813573259
 20
3.43676278386926
 10
26.99473369219366
 20
3.430977595665281
 10
26.99589072983454
 20
3.425481666871563
 10
26.99617998924471
 20
3.419696478667582
 10
26.99617998924471
 20
3.152710043054975
 10
27.06618076651259
 20
3.220107485631068
 10
27.06618076651259
 20
3.339860881452993
 10
27.16047933423708
 20
3.339860881452993
 10
27.16655378185134
 20
3.340150140863173
 10
27.17291748887557
 20
3.340439400273352
 10
27.17870267707964
 20
3.341307178503968
 10
27.18477712469371
 20
3.342464216144763
 10
27.19027305348743
 20
3.344199772605916
 10
27.19576898228122
 20
3.346513847887508
 10
27.20097565166485
 20
3.349117182579278
 10
27.20589306163821
 20
3.352299036091487
 10
27.21023195279115
 20
3.356059408424053
 10
27.2139923251237
 20
3.360687558987239
 10
27.21746343804611
 20
3.3656049689606
 10
27.22035603214813
 20
3.37139015716458
 10
27.22238084801946
 20
3.378043123599095
 10
27.22411640448061
 20
3.385274608854048
 10
27.22498418271122
 20
3.393373872339621
 10
27.22498418271122
 20
3.402340914055728
 10
27.22411640448061
 20
3.411886474592273
 10
27.22238084801946
 20
3.420564256898202
 10
27.21948825391742
 20
3.428085001563333
 10
27.21601714099512
 20
3.434737967997848
 10
27.21138899043193
 20
3.440523156201828
 10
27.20647158045859
 20
3.445440566175187
 10
27.2006863922546
 20
3.449490197917931
 10
27.19461194464044
 20
3.452961310840318
 10
27.18766971879566
 20
3.455853904942352
 10
27.18072749295096
 20
3.458167980223946
 10
27.17349600769602
 20
3.459903536685098
 10
27.16597526303089
 20
3.461060574325892
 10
27.1581652589555
 20
3.462217611966686
 10
27.15035525488018
 20
3.462796130787046
 10
27.14283451021505
 20
3.463085390197308
 10
27.13531376554991
 20
3.463085390197308
  0
TEXT
  5
20C
330
17
100
AcDbEntity
  8
3
100
AcDbText
 10
25.83815747531705
 20
1.783153505858029
 30
0.0
 40
0.1162906197422129
  1
ABS / (SEE NOTE 1)
  7
SIMPLEX
 72
     1
 11
26.77125125753433
 21
1.783153505858029
 31
0.0
100
AcDbText
  0
TEXT
  5
20D
330
17
100
AcDbEntity
  8
3
100
AcDbText
 10
25.75662715479432
 20
2.345443402288879
 30
0.0
 40
0.1162906197422129
  1
DWG/PART NO/404500
  7
SIMPLEX
 72
     1
 11
26.77832331395804
 21
2.345443402288879
 31
0.0
100
AcDbText
  0
LWPOLYLINE
  5
20E
330
17
100
AcDbEntity
  8
4
  6
Continuous
 62
     4
100
AcDbPolyline
 90
       96
 70
     0
 43
0.0
 10
25.91606436274175
 20
3.157048934207897
 10
25.91143621217857
 20
3.159941528309845
 10
25.9065188022052
 20
3.163412641232231
 10
25.90131213282166
 20
3.16775153238524
 10
25.89668398225848
 20
3.172668942358598
 10
25.89234509110547
 20
3.178164871152318
 10
25.88887397818316
 20
3.184817837586917
 10
25.88655990290157
 20
3.192049322841868
 10
25.88569212467088
 20
3.200437845737623
 10
25.88569212467088
 20
3.392216834698825
 10
25.88511360585052
 20
3.400316098184313
 10
25.88395656820971
 20
3.407836842849443
 10
25.88164249292821
 20
3.415068328104397
 10
25.87874989882619
 20
3.421721294538997
 10
25.87527878590381
 20
3.428374260973511
 10
25.87093989475078
 20
3.434159449177493
 10
25.86602248477742
 20
3.439655377971208
 10
25.86052655598371
 20
3.444862047354833
 10
25.85474136777982
 20
3.449490197917931
 10
25.84837766075539
 20
3.453539829660763
 10
25.84172469432079
 20
3.457010942583151
 10
25.83507172788636
 20
3.460192796095276
 10
25.82784024263141
 20
3.462506871376866
 10
25.82060875737646
 20
3.464242427838103
 10
25.81308801271132
 20
3.465688724889078
 10
25.80556726804611
 20
3.466267243709433
 10
25.80036059866249
 20
3.466267243709433
 10
25.79515392927894
 20
3.466267243709433
 10
25.79023651930558
 20
3.465688724889078
 10
25.78502984992204
 20
3.465110206068636
 10
25.78011243994868
 20
3.464242427838103
 10
25.77490577056514
 20
3.462796130787046
 10
25.76998836059178
 20
3.461349833736074
 10
25.76507095061841
 20
3.459903536685098
 10
25.76015354064505
 20
3.457878720813683
 10
25.75552539008187
 20
3.455853904942352
 10
25.75089723951869
 20
3.453539829660763
 10
25.7462690889555
 20
3.451225754379168
 10
25.74164093839231
 20
3.448333160277222
 10
25.73730204723948
 20
3.445729825585368
 10
25.73296315608649
 20
3.442837231483417
 10
25.72891352434364
 20
3.439655377971208
 10
25.7271779678825
 20
3.443705009714038
 10
25.72486389260091
 20
3.448043900866958
 10
25.7216820390887
 20
3.452093532609788
 10
25.71821092616638
 20
3.455853904942352
 10
25.71473981324392
 20
3.459035758454477
 10
25.71126870032161
 20
3.461639093146247
 10
25.70808684680948
 20
3.463374649607485
 10
25.70577277152789
 20
3.463953168427844
 10
25.63490421602941
 20
3.463953168427844
 10
25.63924310718234
 20
3.459903536685098
 10
25.6441605171557
 20
3.455275386121912
 10
25.64965644594951
 20
3.449779457328196
 10
25.65486311533304
 20
3.443415750303861
 10
25.65978052530641
 20
3.436184265048908
 10
25.66354089763895
 20
3.428663520383688
 10
25.66643349174099
 20
3.420274997488021
 10
25.66730126997153
 20
3.411597215182011
 10
25.66730126997153
 20
3.157338193618075
 10
25.73238463726613
 20
3.209983406274083
 10
25.73238463726613
 20
3.393952391159977
 10
25.73267389667631
 20
3.398580541723161
 10
25.73354167490683
 20
3.402919432876083
 10
25.73527723136808
 20
3.406969064618911
 10
25.73730204723948
 20
3.411018696361653
 10
25.73961612252098
 20
3.415068328104397
 10
25.74250871662302
 20
3.418539441026788
 10
25.74597982954532
 20
3.422010553949176
 10
25.7494509424677
 20
3.425192407461386
 10
25.75350057421045
 20
3.427795742153156
 10
25.75755020595329
 20
3.430109817434747
 10
25.76188909710629
 20
3.432423892716338
 10
25.76622798825922
 20
3.433870189767313
 10
25.77085613882231
 20
3.435316486818288
 10
25.77548428938549
 20
3.435895005638642
 10
25.7798231805385
 20
3.436473524459083
 10
25.78445133110169
 20
3.436184265048908
 10
25.79168281635664
 20
3.435027227408108
 10
25.79862504220141
 20
3.432713152126517
 10
25.80527800863594
 20
3.429531298614308
 10
25.8110631968399
 20
3.425192407461386
 10
25.81598060681327
 20
3.419985738077759
 10
25.81974097914575
 20
3.413911290463603
 10
25.82205505442734
 20
3.406679805208647
 10
25.82292283265805
 20
3.398580541723161
 10
25.82292283265805
 20
3.193206360482667
 10
25.82379061088858
 20
3.185685615817535
 10
25.82610468617018
 20
3.178743389972758
 10
25.82957579909255
 20
3.172668942358598
 10
25.83449320906583
 20
3.167462272975062
 10
25.8402783972699
 20
3.163123381822053
 10
25.84693136370443
 20
3.159652268899667
 10
25.85416284895938
 20
3.157627453028338
 10
25.8619728530347
 20
3.157048934207897
 10
25.91606436274175
 20
3.157048934207897
  0
LWPOLYLINE
  5
270
330
17
100
AcDbEntity
  8
4
  6
Continuous
100
AcDbPolyline
 90
      271
 70
     0
 43
0.0
 10
25.25775805707774
 20
3.341017919093788
 10
25.25370842533498
 20
3.343331994375383
 10
25.24965879359216
 20
3.345356810246713
 10
25.24531990243924
 20
3.347092366707948
 10
25.24127027069649
 20
3.348827923169098
 10
25.23693137954349
 20
3.350563479630252
 10
25.23259248839048
 20
3.351720517271048
 10
25.22825359723756
 20
3.353166814322108
 10
25.22391470608464
 20
3.354323851962903
 10
25.21928655552147
 20
3.355191630193439
 10
25.21494766436845
 20
3.35577014901388
 10
25.21003025439508
 20
3.356348667834232
 10
25.2054021038319
 20
3.356927186654673
 10
25.20048469385854
 20
3.357216446064851
 10
25.19556728388518
 20
3.357216446064851
 10
25.19064987391181
 20
3.357216446064851
 10
25.18544320452827
 20
3.356927186654673
 10
25.11717798372156
 20
3.29618271051309
 10
25.1223846531051
 20
3.297339748153888
 10
25.12759132248864
 20
3.298496785794683
 10
25.13279799187227
 20
3.299653823435478
 10
25.13800466125589
 20
3.300521601666098
 10
25.14321133063943
 20
3.301389379896631
 10
25.14841800002297
 20
3.301967898717073
 10
25.15362466940651
 20
3.302546417537428
 10
25.15912059820023
 20
3.302835676947606
 10
25.16432726758377
 20
3.303124936357868
 10
25.1695339369674
 20
3.303124936357868
 10
25.17474060635102
 20
3.303124936357868
 10
25.17994727573456
 20
3.302835676947606
 10
25.18515394511811
 20
3.302257158127248
 10
25.19036061450164
 20
3.301389379896631
 10
25.19556728388518
 20
3.300521601666098
 10
25.20077395326871
 20
3.299364564025303
 10
25.20424506619119
 20
3.298207526384506
 10
25.20800543852367
 20
3.297339748153888
 10
25.21147655144606
 20
3.295893451102913
 10
25.21494766436845
 20
3.294736413462117
 10
25.21841877729084
 20
3.293290116411142
 10
25.22188989021322
 20
3.291843819360086
 10
25.22507174372534
 20
3.290108262898933
 10
25.22854285664782
 20
3.288372706437785
 10
25.23172471015995
 20
3.28634789056637
 10
25.2346173042619
 20
3.284323074694952
 10
25.23750989836384
 20
3.282298258823622
 10
25.24040249246586
 20
3.279984183542035
 10
25.24300582715765
 20
3.277380848850265
 10
25.2456091618494
 20
3.274777514158491
 10
25.247923237131
 20
3.271884920056458
 10
25.2502373124126
 20
3.268992325954511
 10
25.25370842533498
 20
3.263785656570886
 10
25.25660101943693
 20
3.258000468366991
 10
25.25862583530835
 20
3.252215280163011
 10
25.26007213235933
 20
3.245851573138677
 10
25.26093991058994
 20
3.23977712552452
 10
25.26065065117978
 20
3.233413418500181
 10
25.2592043541287
 20
3.227338970886023
 10
25.25689027884711
 20
3.221553782682045
 10
25.2534191659248
 20
3.216347113298505
 10
25.24936953418198
 20
3.212008222145497
 10
25.2447413836188
 20
3.208247849812931
 10
25.23924545482508
 20
3.205065996300718
 10
25.23346026662118
 20
3.202462661608948
 10
25.22767507841712
 20
3.200437845737623
 10
25.22131137139287
 20
3.198702289276383
 10
25.21523692377862
 20
3.197545251635589
 10
25.21234432967669
 20
3.197255992225413
 10
25.20916247616455
 20
3.196677473405053
 10
25.20626988206251
 20
3.196388213994795
 10
25.20308802855031
 20
3.196388213994795
 10
25.19990617503818
 20
3.196098954584615
 10
25.19701358093624
 20
3.196098954584615
 10
25.19383172742394
 20
3.196098954584615
 10
25.19064987391181
 20
3.196098954584615
 10
25.18775727980987
 20
3.196098954584615
 10
25.18457542629774
 20
3.196388213994795
 10
25.18139357278544
 20
3.196388213994795
 10
25.17821171927332
 20
3.196966732815234
 10
25.17531912517136
 20
3.197255992225413
 10
25.17213727165918
 20
3.197834511045853
 10
25.16924467755713
 20
3.198413029866207
 10
25.166062824045
 20
3.198991548686564
 10
25.1625917111227
 20
3.199859326917178
 10
25.15912059820023
 20
3.200727105147798
 10
25.1559387446881
 20
3.201884142788593
 10
25.1524676317657
 20
3.203041180429393
 10
25.1492857782535
 20
3.204487477480363
 10
25.14610392474138
 20
3.205933774531338
 10
25.14292207122917
 20
3.207669330992573
 10
25.13974021771695
 20
3.209404887453727
 10
25.136847623615
 20
3.21114044391488
 10
25.13366577010288
 20
3.213165259786294
 10
25.13077317600086
 20
3.215190075657709
 10
25.12788058189882
 20
3.217214891529037
 10
25.12498798779687
 20
3.219239707400451
 10
25.1223846531051
 20
3.221553782682045
 10
25.11949205900315
 20
3.223867857963633
 10
25.11688872431138
 20
3.226181933245227
 10
25.11254983315839
 20
3.23052082439815
 10
25.10850020141563
 20
3.235148974961334
 10
25.10445056967289
 20
3.23977712552452
 10
25.10040093793006
 20
3.244405276087702
 10
25.09664056559758
 20
3.249033426650802
 10
25.0931694526751
 20
3.253950836624165
 10
25.08940908034262
 20
3.259157506007788
 10
25.08622722683033
 20
3.264074915981149
 10
25.0830453733182
 20
3.269281585364689
 10
25.08015277921626
 20
3.274777514158491
 10
25.07754944452448
 20
3.279984183542035
 10
25.07494610983271
 20
3.285480112335747
 10
25.07263203455112
 20
3.291265300539727
 10
25.07089647808989
 20
3.29676122933345
 10
25.06916092162874
 20
3.302835676947606
 10
25.06771462457776
 20
3.308620865151587
 10
25.06568980870635
 20
3.321926798020699
 10
25.06482203047581
 20
3.335811249710165
 10
25.06568980870635
 20
3.349695701399718
 10
25.06800388398794
 20
3.36300163426883
 10
25.07205351573069
 20
3.375729048317502
 10
25.07812796334484
 20
3.387299424725464
 10
25.08593796742015
 20
3.397712763492543
 10
25.09577278736687
 20
3.406101286388294
 10
25.09924390028935
 20
3.408126102259709
 10
25.10271501321165
 20
3.409861658720858
 10
25.1064753855443
 20
3.411597215182011
 10
25.10994649846661
 20
3.413043512233068
 10
25.11370687079927
 20
3.414200549873866
 10
25.11775650254191
 20
3.415357587514663
 10
25.12151687487456
 20
3.416225365745196
 10
25.12556650661732
 20
3.416803884565636
 10
25.12932687894987
 20
3.417382403385991
 10
25.13337651069271
 20
3.417671662796167
 10
25.13742614243536
 20
3.417671662796167
 10
25.14147577417819
 20
3.417671662796167
 10
25.14552540592102
 20
3.417671662796167
 10
25.14957503766368
 20
3.417382403385991
 10
25.15333540999633
 20
3.416803884565636
 10
25.15738504173908
 20
3.416225365745196
 10
25.1625917111227
 20
3.415357587514663
 10
25.16779838050624
 20
3.414200549873866
 10
25.17300504988978
 20
3.413043512233068
 10
25.17792245986314
 20
3.411307955771833
 10
25.18283986983651
 20
3.409572399310683
 10
25.18775727980987
 20
3.407547583439267
 10
25.19267468978323
 20
3.405522767567939
 10
25.19759209975659
 20
3.403208692286345
 10
25.20222025031977
 20
3.400605357594491
 10
25.20655914147278
 20
3.398002022902721
 10
25.21118729203589
 20
3.394820169390595
 10
25.2155261831888
 20
3.391927575288562
 10
25.2198650743418
 20
3.388456462366258
 10
25.22391470608464
 20
3.385274608854048
 10
25.22796433782737
 20
3.381514236521482
 10
25.23172471015995
 20
3.377753864188917
 10
25.28523770104657
 20
3.406679805208647
 10
25.28176658812411
 20
3.413043512233068
 10
25.27771695638144
 20
3.418828700436961
 10
25.27308880581826
 20
3.424324629230768
 10
25.26788213643472
 20
3.429242039204127
 10
25.26238620764092
 20
3.433870189767313
 10
25.25631176002675
 20
3.437919821510058
 10
25.2502373124126
 20
3.441680193842623
 10
25.24387360538826
 20
3.445151306765013
 10
25.2389561954149
 20
3.447465382046603
 10
25.23374952603136
 20
3.449779457328196
 10
25.228832116058
 20
3.451804273199526
 10
25.22362544667446
 20
3.453539829660763
 10
25.21812951788057
 20
3.455275386121912
 10
25.21292284849704
 20
3.456432423762707
 10
25.20742691970331
 20
3.457589461403506
 10
25.20193099090959
 20
3.458457239634122
 10
25.19643506211578
 20
3.459035758454477
 10
25.19093913332199
 20
3.459325017864742
 10
25.18515394511811
 20
3.459614277274916
 10
25.17965801632438
 20
3.459614277274916
 10
25.17416208753049
 20
3.459325017864742
 10
25.16866615873677
 20
3.458746499044303
 10
25.16317022994305
 20
3.457878720813683
 10
25.15767430114924
 20
3.456721683172887
 10
25.1524676317657
 20
3.455564645532092
 10
25.14755022179234
 20
3.453829089070941
 10
25.14234355240873
 20
3.452093532609788
 10
25.13742614243536
 20
3.450357976148553
 10
25.13279799187227
 20
3.448043900866958
 10
25.12788058189882
 20
3.445729825585368
 10
25.12325243133572
 20
3.443126490893599
 10
25.11862428077261
 20
3.440523156201828
 10
25.11399613020943
 20
3.437630562099878
 10
25.10965723905643
 20
3.434737967997848
 10
25.10531834790344
 20
3.431556114485723
 10
25.10097945675049
 20
3.428374260973511
 10
25.09664056559758
 20
3.424903148051121
 10
25.09259093385475
 20
3.421432035128818
 10
25.08825204270174
 20
3.417960922206431
 10
25.08420241095901
 20
3.414489809284042
 10
25.07841722275502
 20
3.409283139900503
 10
25.0729212939613
 20
3.404076470516877
 10
25.06742536516758
 20
3.398580541723161
 10
25.06221869578395
 20
3.392795353519181
 10
25.05701202640042
 20
3.387010165315201
 10
25.05209461642706
 20
3.381224977111303
 10
25.04746646586388
 20
3.375150529497147
 10
25.04283831530077
 20
3.368786822472727
 10
25.03878868355794
 20
3.362423115448388
 10
25.03473905181512
 20
3.35577014901388
 10
25.03097867948263
 20
3.349117182579278
 10
25.02779682597034
 20
3.342174956734588
 10
25.02490423186838
 20
3.335232730889806
 10
25.02230089717663
 20
3.328001245634856
 10
25.01998682189503
 20
3.320769760379903
 10
25.01825126543387
 20
3.313249015714768
 10
25.01651570897273
 20
3.303124936357868
 10
25.01564793074211
 20
3.292711597590703
 10
25.01535867133184
 20
3.282587518233801
 10
25.01564793074211
 20
3.27217417946664
 10
25.01680496838292
 20
3.262050100109732
 10
25.01882978425432
 20
3.251926020752834
 10
25.02143311894609
 20
3.241801941395932
 10
25.02490423186838
 20
3.232256380859384
 10
25.02721830715
 20
3.227049711475758
 10
25.02982164184177
 20
3.221843042092218
 10
25.03242497653352
 20
3.216925632118858
 10
25.03560683004582
 20
3.212297481555673
 10
25.03878868355794
 20
3.207669330992573
 10
25.04225979648025
 20
3.203041180429393
 10
25.04602016881289
 20
3.198702289276383
 10
25.04978054114547
 20
3.194652657533638
 10
25.05383017288821
 20
3.190603025790901
 10
25.05816906404121
 20
3.186842653458333
 10
25.06250795519422
 20
3.183082281125678
 10
25.06684684634705
 20
3.179611168203381
 10
25.07147499691024
 20
3.176429314691167
 10
25.0763924068836
 20
3.173536720589218
 10
25.08130981685698
 20
3.170644126487187
 10
25.08622722683033
 20
3.168040791795418
 10
25.09779760323829
 20
3.163123381822053
 10
25.10965723905643
 20
3.159073750079313
 10
25.12180613428474
 20
3.156181155977278
 10
25.13424428892324
 20
3.153867080695768
 10
25.14668244356175
 20
3.152710043054975
 10
25.15912059820023
 20
3.152131524234535
 10
25.17155875283872
 20
3.152710043054975
 10
25.18428616688748
 20
3.15415634010595
 10
25.19643506211578
 20
3.15647041538754
 10
25.20829469793385
 20
3.159652268899667
 10
25.22015433375198
 20
3.163991160052676
 10
25.23143545074977
 20
3.168908570026035
 10
25.24213804892702
 20
3.174983017640196
 10
25.25226212828393
 20
3.18192524348497
 10
25.26180768882047
 20
3.18973524756028
 10
25.27077473053666
 20
3.198413029866207
 10
25.27742769697126
 20
3.206223033941516
 10
25.28350214458534
 20
3.214611556837271
 10
25.28899807337905
 20
3.223000079733016
 10
25.29362622394224
 20
3.232256380859384
 10
25.29767585568506
 20
3.241512681985668
 10
25.30085770919719
 20
3.251058242522212
 10
25.30288252506861
 20
3.260893062468938
 10
25.30432882211967
 20
3.27101714182584
 10
25.30461808152984
 20
3.279116405311413
 10
25.30403956270941
 20
3.286926409386722
 10
25.30259326565842
 20
3.294736413462117
 10
25.29998993096666
 20
3.302546417537428
 10
25.29651881804428
 20
3.308910124561763
 10
25.29246918630152
 20
3.314695312765743
 10
25.28755177632816
 20
3.320191241559546
 10
25.28234510694453
 20
3.325108651532908
 10
25.27655991874055
 20
3.32944754268583
 10
25.27048547112649
 20
3.33378643383884
 10
25.26412176410206
 20
3.337546806171403
 10
25.25775805707774
 20
3.341017919093788
  0
LWPOLYLINE
  5
381
330
17
100
AcDbEntity
  8
4
  6
Continuous
100
AcDbPolyline
 90
       83
 70
     0
 43
0.0
 10
24.61964585942955
 20
3.425192407461386
 10
24.61501770886638
 20
3.429531298614308
 10
24.61038955830318
 20
3.433870189767313
 10
24.60576140774008
 20
3.437919821510058
 10
24.60084399776672
 20
3.441680193842623
 10
24.59563732838309
 20
3.444862047354833
 10
24.5898521401792
 20
3.447754641456783
 10
24.58348843315479
 20
3.450357976148553
 10
24.57625694789984
 20
3.452093532609788
 10
24.44146206274765
 20
3.377464604778736
 10
24.44088354392729
 20
3.185107096997095
 10
24.44117280333747
 20
3.18192524348497
 10
24.44175132215781
 20
3.178454130562577
 10
24.44290835979869
 20
3.175561536460548
 10
24.44435465684961
 20
3.172668942358598
 10
24.44609021331082
 20
3.170065607666828
 10
24.44811502918224
 20
3.167462272975062
 10
24.45042910446384
 20
3.165437457103648
 10
24.45303243915559
 20
3.163412641232231
 10
24.45737133030862
 20
3.16080930654046
 10
24.46199948087171
 20
3.15849523125887
 10
24.46662763143489
 20
3.15647041538754
 10
24.47154504140825
 20
3.154734858926305
 10
24.47646245138161
 20
3.153577821285511
 10
24.48137986135497
 20
3.152420783644712
 10
24.48658653073852
 20
3.15155300541418
 10
24.49179320012215
 20
3.15068522718356
 10
24.49699986950567
 20
3.150395967773381
 10
24.50220653888921
 20
3.150106708363118
 10
24.50741320827275
 20
3.150106708363118
 10
24.51290913706647
 20
3.150395967773381
 10
24.5181158064501
 20
3.15068522718356
 10
24.52332247583373
 20
3.151263746003913
 10
24.52852914521726
 20
3.151842264824356
 10
24.5337358146008
 20
3.152710043054975
 10
24.53981026221497
 20
3.153577821285511
 10
24.54588470982912
 20
3.155024118336481
 10
24.55166989803301
 20
3.15647041538754
 10
24.55745508623709
 20
3.158205971848691
 10
24.56324027444099
 20
3.160230787720108
 10
24.56902546264487
 20
3.162544863001699
 10
24.57452139143875
 20
3.16514819769347
 10
24.58001732023249
 20
3.16775153238524
 10
24.58522398961601
 20
3.170644126487187
 10
24.59071991840974
 20
3.173825979999396
 10
24.59563732838309
 20
3.177297092921785
 10
24.60084399776672
 20
3.180768205844174
 10
24.60576140774008
 20
3.18452857817674
 10
24.61038955830318
 20
3.188288950509305
 10
24.61501770886638
 20
3.19233858225205
 10
24.61964585942955
 20
3.196388213994795
 10
24.6268773446845
 20
3.203908958659923
 10
24.6335303111191
 20
3.211718962735319
 10
24.63989401814344
 20
3.219818226220807
 10
24.64538994693724
 20
3.228496008526818
 10
24.65059661632079
 20
3.237752309653105
 10
24.65522476688396
 20
3.247008610779471
 10
24.65898513921646
 20
3.256554171316018
 10
24.66245625213895
 20
3.266388991262741
 10
24.66505958683068
 20
3.276223811209467
 10
24.66708440270203
 20
3.286637149976542
 10
24.66853069975299
 20
3.29676122933345
 10
24.66939847798363
 20
3.307174568100615
 10
24.66968773739379
 20
3.317298647457513
 10
24.66910921857336
 20
3.327711986224678
 10
24.66795218093263
 20
3.338125324991759
 10
24.66621662447141
 20
3.348249404348741
 10
24.66477032742044
 20
3.353745333142464
 10
24.66332403036946
 20
3.359241261936263
 10
24.66158847390822
 20
3.364737190729984
 10
24.6595636580369
 20
3.369943860113524
 10
24.6572495827553
 20
3.375150529497147
 10
24.65464624806353
 20
3.380357198880689
 10
24.65204291337168
 20
3.385274608854048
 10
24.64915031926973
 20
3.390192018827411
 10
24.64596846575761
 20
3.395109428800774
 10
24.64249735283521
 20
3.399737579363959
 10
24.63902623991283
 20
3.404365729927143
 10
24.63555512699044
 20
3.408704621080064
 10
24.63179475465786
 20
3.413043512233068
 10
24.62774512291513
 20
3.417093143975812
 10
24.62369549117237
 20
3.421142775718557
 10
24.61964585942955
 20
3.425192407461386
  0
LWPOLYLINE
  5
3D6
330
17
100
AcDbEntity
  8
4
  6
Continuous
100
AcDbPolyline
 90
       61
 70
     0
 43
0.0
 10
24.90192304191933
 20
3.328001245634856
 10
24.91031156481499
 20
3.328579764455298
 10
24.91841082830057
 20
3.329736802096094
 10
24.92564231355543
 20
3.331472358557244
 10
24.93229527999004
 20
3.33378643383884
 10
24.93808046819403
 20
3.336679027940783
 10
24.94357639698782
 20
3.339860881452993
 10
24.94849380696118
 20
3.343621253785562
 10
24.95283269811411
 20
3.347960144938482
 10
24.95659307044666
 20
3.352588295501666
 10
24.95977492395879
 20
3.357505705475028
 10
24.96237825865065
 20
3.362712374858568
 10
24.96440307452199
 20
3.368497563062548
 10
24.96613863098321
 20
3.374282751266528
 10
24.96729566862393
 20
3.380357198880689
 10
24.96787418744445
 20
3.386720905905023
 10
24.96816344685463
 20
3.393373872339621
 10
24.96787418744445
 20
3.399448319953778
 10
24.96671714980357
 20
3.405522767567939
 10
24.9652708527526
 20
3.411307955771833
 10
24.96295677747101
 20
3.417093143975812
 10
24.96035344277924
 20
3.422589072769531
 10
24.95717158926702
 20
3.427795742153156
 10
24.95341121693456
 20
3.432713152126517
 10
24.94936158519172
 20
3.437341302689703
 10
24.94473343462853
 20
3.441390934432446
 10
24.93981602465517
 20
3.445151306765013
 10
24.93489861468181
 20
3.448333160277222
 10
24.92940268588809
 20
3.451225754379168
 10
24.92361749768412
 20
3.453539829660763
 10
24.91783230948013
 20
3.454986126711736
 10
24.91175786186605
 20
3.456143164352533
 10
24.90568341425181
 20
3.456432423762707
 10
24.70320182711326
 20
3.456432423762707
 10
24.7060944212153
 20
3.454118348481117
 10
24.70869775590707
 20
3.451804273199526
 10
24.71130109059892
 20
3.449200938507756
 10
24.71361516588051
 20
3.446886863226162
 10
24.71592924116202
 20
3.444572787944573
 10
24.71824331644362
 20
3.441680193842623
 10
24.72026813231494
 20
3.438787599740676
 10
24.72229294818637
 20
3.435316486818288
 10
24.72518554228833
 20
3.428952779793954
 10
24.72749961756991
 20
3.421432035128818
 10
24.72894591462097
 20
3.414200549873866
 10
24.72952443344131
 20
3.408415361669886
 10
24.72981369285149
 20
3.148371151901971
 10
24.79952521070926
 20
3.209404887453727
 10
24.79952521070926
 20
3.330026061506271
 10
24.83018670819014
 20
3.330315320916448
 10
24.93460935527163
 20
3.157338193618075
 10
25.0245690318432
 20
3.15675967479772
 10
25.0190731030494
 20
3.159941528309845
 10
25.01357717425569
 20
3.163701900642495
 10
25.00837050487205
 20
3.167462272975062
 10
25.00316383548851
 20
3.171801164127986
 10
24.99824642551516
 20
3.175850795870728
 10
24.99361827495197
 20
3.180478946433908
 10
24.98899012438879
 20
3.185107096997095
 10
24.98436197382562
 20
3.190024506970456
 10
24.90192304191933
 20
3.328001245634856
  0
LWPOLYLINE
  5
415
330
17
100
AcDbEntity
  8
4
  6
Continuous
100
AcDbPolyline
 90
       59
 70
     0
 43
0.0
 10
24.50220653888921
 20
3.375439788907323
 10
24.53171099872939
 20
3.398002022902721
 10
24.53633914929258
 20
3.397712763492543
 10
24.54067804044557
 20
3.397134244672188
 10
24.54501693159851
 20
3.395977207031391
 10
24.54906656334124
 20
3.394820169390595
 10
24.55340545449426
 20
3.393084612929356
 10
24.55745508623709
 20
3.391059797058028
 10
24.56121545856956
 20
3.388745721776437
 10
24.56497583090222
 20
3.386142387084667
 10
24.56844694382453
 20
3.383539052392813
 10
24.57191805674691
 20
3.380646458290863
 10
24.57538916966929
 20
3.377753864188917
 10
24.57857102318143
 20
3.374572010676705
 10
24.58146361728346
 20
3.37139015716458
 10
24.5843562113855
 20
3.368208303652371
 10
24.58695954607725
 20
3.365315709550423
 10
24.58927362135877
 20
3.362133856038214
 10
24.59737288484433
 20
3.349406441989541
 10
24.60373659186867
 20
3.336100509120428
 10
24.60836474243186
 20
3.321926798020699
 10
24.61154659594406
 20
3.307463827510787
 10
24.6135714118154
 20
3.292711597590703
 10
24.61443919004601
 20
3.277670108260438
 10
24.61501770886638
 20
3.262628618930176
 10
24.6147284494562
 20
3.247587129599828
 10
24.61414993063583
 20
3.23977712552452
 10
24.61270363358477
 20
3.232256380859384
 10
24.61038955830318
 20
3.22502489560443
 10
24.60749696420123
 20
3.218082669759653
 10
24.60402585127885
 20
3.211429703325142
 10
24.59968696012595
 20
3.205065996300718
 10
24.59505880956275
 20
3.199280808096823
 10
24.5898521401792
 20
3.193784879303025
 10
24.58406695197523
 20
3.188867469329658
 10
24.57828176377125
 20
3.184239318766477
 10
24.57191805674691
 20
3.180189687023736
 10
24.56555434972258
 20
3.176429314691167
 10
24.55919064269814
 20
3.173247461178953
 10
24.55253767626373
 20
3.170933385897365
 10
24.54588470982912
 20
3.168908570026035
 10
24.53952100280471
 20
3.167462272975062
 10
24.53576063047221
 20
3.16775153238524
 10
24.53200025813958
 20
3.168040791795418
 10
24.5282398858071
 20
3.168908570026035
 10
24.52476877288463
 20
3.170065607666828
 10
24.52129765996232
 20
3.171511904717805
 10
24.5181158064501
 20
3.173247461178953
 10
24.5149339529379
 20
3.175561536460548
 10
24.51233061824613
 20
3.177875611742138
 10
24.50943802414418
 20
3.180768205844174
 10
24.50741320827275
 20
3.183950059356298
 10
24.50567765181161
 20
3.187421172278686
 10
24.50423135476063
 20
3.191181544611255
 10
24.50336357653002
 20
3.19494191694382
 10
24.50278505770957
 20
3.198991548686564
 10
24.50220653888921
 20
3.203041180429393
 10
24.50220653888921
 20
3.207090812172133
 10
24.50220653888921
 20
3.375439788907323
  0
LWPOLYLINE
  5
452
330
17
100
AcDbEntity
  8
4
  6
Continuous
100
AcDbPolyline
 90
      114
 70
     0
 43
0.0
 10
25.60415485737225
 20
3.15675967479772
 10
25.60097300386012
 20
3.15936300948949
 10
25.5977911503479
 20
3.163123381822053
 10
25.59460929683571
 20
3.168330051205594
 10
25.59142744332358
 20
3.174693758230015
 10
25.58853484922163
 20
3.182214502895147
 10
25.58622077394004
 20
3.191470804021428
 10
25.58448521747882
 20
3.202173402198773
 10
25.58332817983809
 20
3.214322297427088
 10
25.58332817983809
 20
3.405812026978116
 10
25.58303892042791
 20
3.411018696361653
 10
25.58188188278704
 20
3.416514625155459
 10
25.57985706691562
 20
3.422010553949176
 10
25.57696447281367
 20
3.427217223332716
 10
25.57320410048111
 20
3.432423892716338
 10
25.56857594991793
 20
3.437630562099878
 10
25.56336928053439
 20
3.442547972073243
 10
25.55729483292022
 20
3.447465382046603
 10
25.55064186648563
 20
3.451804273199526
 10
25.54312112182049
 20
3.455853904942352
 10
25.53473259892483
 20
3.459325017864742
 10
25.52605481661881
 20
3.462506871376866
 10
25.51621999667209
 20
3.464820946658461
 10
25.50609591731519
 20
3.466845762529873
 10
25.49510405972768
 20
3.468002800170671
 10
25.48353368331979
 20
3.468581318991025
 10
25.47109552868131
 20
3.468002800170671
 10
25.45894663345298
 20
3.466267243709433
 10
25.44708699763486
 20
3.462796130787046
 10
25.43580588063707
 20
3.458457239634122
 10
25.4251032824598
 20
3.452672051430142
 10
25.41468994369272
 20
3.446019084995628
 10
25.40514438315618
 20
3.438209080920235
 10
25.39617734143998
 20
3.429531298614308
 10
25.38807807795452
 20
3.419985738077759
 10
25.38055733328937
 20
3.409861658720858
 10
25.37419362626496
 20
3.399159060543518
 10
25.36898695688142
 20
3.387877943545818
 10
25.36464806572841
 20
3.376018307727678
 10
25.36146621221629
 20
3.363869412499363
 10
25.35944139634486
 20
3.351431257860872
 10
25.35886287752452
 20
3.338703843812198
 10
25.35886287752452
 20
3.197545251635589
 10
25.35828435870407
 20
3.188578209919485
 10
25.35625954283275
 20
3.181057465254353
 10
25.35365620814097
 20
3.174693758230015
 10
25.3501850952185
 20
3.169487088846388
 10
25.34671398229619
 20
3.165437457103648
 10
25.34324286937381
 20
3.161966344181258
 10
25.33977175645141
 20
3.15936300948949
 10
25.33716842175965
 20
3.157048934207897
 10
25.39849141672159
 20
3.157048934207897
 10
25.40659068020706
 20
3.158205971848691
 10
25.41353290605186
 20
3.161098565950638
 10
25.41960735366608
 20
3.165437457103648
 10
25.42481402304962
 20
3.171222645307626
 10
25.42915291420255
 20
3.177586352331966
 10
25.43233476771476
 20
3.18452857817674
 10
25.43435958358617
 20
3.191760063431694
 10
25.43551662122688
 20
3.198991548686564
 10
25.43609514004725
 20
3.209404887453727
 10
25.43464884299635
 20
3.220107485631068
 10
25.43262402712493
 20
3.23052082439815
 10
25.43002069243316
 20
3.240644903755133
 10
25.42654957951079
 20
3.255107874264959
 10
25.42336772599858
 20
3.26957084477487
 10
25.42047513189662
 20
3.284033815284773
 10
25.41758253779467
 20
3.298496785794683
 10
25.4149792031029
 20
3.312959756304595
 10
25.4129543872315
 20
3.327711986224678
 10
25.41121883077025
 20
3.342174956734588
 10
25.41006179312955
 20
3.356927186654673
 10
25.40977253371937
 20
3.369076081882989
 10
25.41064031194991
 20
3.381514236521482
 10
25.41266512782132
 20
3.393663131749798
 10
25.41584698133345
 20
3.405522767567939
 10
25.42047513189662
 20
3.416514625155459
 10
25.42654957951079
 20
3.426638704512361
 10
25.43407032417592
 20
3.435316486818288
 10
25.44361588471246
 20
3.442547972073243
 10
25.44911181350626
 20
3.445440566175187
 10
25.45489700171017
 20
3.447465382046603
 10
25.46097144932432
 20
3.448911679097578
 10
25.46704589693848
 20
3.449779457328196
 10
25.47340960396289
 20
3.449779457328196
 10
25.47977331098714
 20
3.448911679097578
 10
25.4858477586014
 20
3.447465382046603
 10
25.49192220621546
 20
3.445440566175187
 10
25.49741813500927
 20
3.442547972073243
 10
25.50262480439288
 20
3.439076859150853
 10
25.50754221436618
 20
3.434737967997848
 10
25.51159184610892
 20
3.429820558024482
 10
25.51506295903138
 20
3.424324629230768
 10
25.51795555313332
 20
3.417960922206431
 10
25.51998036900473
 20
3.411018696361653
 10
25.52084814723527
 20
3.403497951696524
 10
25.52084814723527
 20
3.198123770456028
 10
25.52113740664545
 20
3.193206360482667
 10
25.52200518487608
 20
3.188867469329658
 10
25.52345148192704
 20
3.18452857817674
 10
25.52518703838828
 20
3.180478946433908
 10
25.52750111366989
 20
3.177007833511526
 10
25.53010444836166
 20
3.173536720589218
 10
25.53299704246359
 20
3.170354867077008
 10
25.53646815538598
 20
3.167462272975062
 10
25.54022852771854
 20
3.16514819769347
 10
25.5439889000511
 20
3.162834122411878
 10
25.54803853179386
 20
3.161098565950638
 10
25.55237742294686
 20
3.159652268899667
 10
25.55671631409988
 20
3.158205971848691
 10
25.56134446466308
 20
3.157338193618075
 10
25.56568335581598
 20
3.157048934207897
 10
25.57031150637907
 20
3.15675967479772
 10
25.60415485737225
 20
3.15675967479772
  0
LWPOLYLINE
  5
4C6
330
17
100
AcDbEntity
  8
4
  6
Continuous
100
AcDbPolyline
 90
        5
 70
     0
 43
0.0
 10
25.51245962433962
 20
3.308910124561763
 10
25.42770661715157
 20
3.36300163426883
 10
25.42770661715157
 20
3.310067162202557
 10
25.51274888374978
 20
3.264364175391328
 10
25.51245962433962
 20
3.308910124561763
  0
LWPOLYLINE
  5
4CD
330
17
100
AcDbEntity
  8
4
  6
Continuous
100
AcDbPolyline
 90
       21
 70
     0
 43
0.0
 10
24.90076600427845
 20
3.393373872339621
 10
24.89989822604791
 20
3.384406830623431
 10
24.89729489135614
 20
3.376018307727678
 10
24.89324525961333
 20
3.368786822472727
 10
24.8877493308196
 20
3.362423115448388
 10
24.88109636438502
 20
3.357216446064851
 10
24.87357561971987
 20
3.353456073732282
 10
24.86518709682421
 20
3.351141998450694
 10
24.85650931451819
 20
3.350274220220073
 10
24.79836817306837
 20
3.350274220220073
 10
24.79836817306837
 20
3.424613888640942
 10
24.79258298486449
 20
3.438787599740676
 10
24.85766635215898
 20
3.438787599740676
 10
24.86634413446492
 20
3.437919821510058
 10
24.87473265736067
 20
3.435316486818288
 10
24.88196414261562
 20
3.431266855075541
 10
24.88832784963996
 20
3.425770926281741
 10
24.89353451902349
 20
3.418828700436961
 10
24.89729489135614
 20
3.411307955771833
 10
24.89989822604791
 20
3.402630173465903
 10
24.90076600427845
 20
3.393373872339621
  0
LWPOLYLINE
  5
4E4
330
17
100
AcDbEntity
  8
4
  6
Continuous
100
AcDbPolyline
 90
      213
 70
     0
 43
0.0
 10
26.34012871514155
 20
3.446019084995628
 10
26.33347574870711
 20
3.448622419687398
 10
26.32682278227252
 20
3.450936494968992
 10
26.3201698158379
 20
3.452961310840318
 10
26.31322758999322
 20
3.454696867301558
 10
26.30628536414845
 20
3.455853904942352
 10
26.29934313830375
 20
3.457010942583151
 10
26.29240091245897
 20
3.457878720813683
 10
26.28545868661421
 20
3.458457239634122
 10
26.27822720135924
 20
3.458746499044303
 10
26.27128497551446
 20
3.458746499044303
 10
26.26405349025951
 20
3.458457239634122
 10
26.25711126441483
 20
3.457878720813683
 10
26.24987977915987
 20
3.457010942583151
 10
26.24293755331509
 20
3.456143164352533
 10
26.23599532747042
 20
3.454696867301558
 10
26.22905310162563
 20
3.453250570250498
 10
26.2169042063973
 20
3.449490197917931
 10
26.20504457057918
 20
3.443994269124216
 10
26.19376345358147
 20
3.437630562099878
 10
26.18277159599396
 20
3.429820558024482
 10
26.17264751663706
 20
3.421142775718557
 10
26.16310195610051
 20
3.411307955771833
 10
26.15471343320475
 20
3.400894617004754
 10
26.14719268853962
 20
3.389902759417234
 10
26.14111824092546
 20
3.378332383009272
 10
26.13649009036227
 20
3.366183487780954
 10
26.13301897743989
 20
3.354034592552638
 10
26.13157268038893
 20
3.341596437914146
 10
26.13186193979911
 20
3.329158283275653
 10
26.1338867556705
 20
3.316720128637158
 10
26.13793638741336
 20
3.304571233408845
 10
26.14430009443758
 20
3.293000857000881
 10
26.14574639148866
 20
3.291265300539727
 10
26.1474819479498
 20
3.289819003488756
 10
26.14921750441097
 20
3.288661965847957
 10
26.15124232028236
 20
3.287504928207163
 10
26.15326713615379
 20
3.286926409386722
 10
26.15529195202519
 20
3.286637149976542
 10
26.15760602730679
 20
3.286637149976542
 10
26.15992010258838
 20
3.287215668796986
 10
26.24206977508448
 20
3.302835676947606
 10
26.24669792564767
 20
3.303703455178224
 10
26.25132607621085
 20
3.304281973998662
 10
26.2562434861842
 20
3.305149752229198
 10
26.26087163674738
 20
3.305439011639458
 10
26.26578904672074
 20
3.306017530459817
 10
26.27041719728393
 20
3.306306789869994
 10
26.27504534784713
 20
3.306306789869994
 10
26.27996275782049
 20
3.306306789869994
 10
26.28459090838366
 20
3.306017530459817
 10
26.28921905894677
 20
3.305728271049638
 10
26.29384720950995
 20
3.305149752229198
 10
26.29847536007306
 20
3.304281973998662
 10
26.30281425122606
 20
3.303124936357868
 10
26.30744240178923
 20
3.301967898717073
 10
26.31178129294226
 20
3.300232342255833
 10
26.31612018409517
 20
3.298496785794683
 10
26.32595500404189
 20
3.292422338180526
 10
26.33318648929684
 20
3.283744555874598
 10
26.33810389927021
 20
3.273620476517611
 10
26.34099649337223
 20
3.262050100109732
 10
26.34128575278241
 20
3.249901204881417
 10
26.339260936911
 20
3.237463050242924
 10
26.33521130516826
 20
3.225892673834964
 10
26.3291368575541
 20
3.215190075657709
 10
26.32479796640111
 20
3.210272665684342
 10
26.32045907524808
 20
3.205355255710985
 10
26.31525240586454
 20
3.201305623968153
 10
26.310045736481
 20
3.197545251635589
 10
26.3045498076873
 20
3.194074138713198
 10
26.29847536007306
 20
3.191181544611255
 10
26.29240091245897
 20
3.189156728739838
 10
26.28603720543457
 20
3.187421172278686
 10
26.27851646076943
 20
3.186553394048069
 10
26.27099571610429
 20
3.186553394048069
 10
26.26376423084933
 20
3.18713191286851
 10
26.2562434861842
 20
3.188867469329658
 10
26.24930126033944
 20
3.190892285201075
 10
26.24206977508448
 20
3.193784879303025
 10
26.23541680864996
 20
3.197255992225413
 10
26.22876384221546
 20
3.201305623968153
 10
26.22240013519102
 20
3.205933774531338
 10
26.21632568757696
 20
3.210851184504698
 10
26.21054049937288
 20
3.216347113298505
 10
26.20504457057918
 20
3.2221323015024
 10
26.20012716060581
 20
3.228206749116556
 10
26.19520975063244
 20
3.23457045614098
 10
26.19087085947943
 20
3.241223422575491
 10
26.18711048714696
 20
3.247876389010003
 10
26.12029156339122
 20
3.2175041509393
 10
26.1237626763136
 20
3.208826368633372
 10
26.12810156746653
 20
3.200437845737623
 10
26.1338867556705
 20
3.192917101072405
 10
26.1405397221051
 20
3.185685615817535
 10
26.14806046677025
 20
3.179032649382937
 10
26.15644898966591
 20
3.172958201768778
 10
26.16541603138209
 20
3.167462272975062
 10
26.17496159191865
 20
3.162544863001699
 10
26.18508567127554
 20
3.15849523125887
 10
26.19549901004262
 20
3.155024118336481
 10
26.20649086763022
 20
3.152131524234535
 10
26.21719346580749
 20
3.150395967773381
 10
26.22818532339501
 20
3.14894967072241
 10
26.23917718098252
 20
3.148660411312146
 10
26.24987977915987
 20
3.149238930132588
 10
26.2605823773372
 20
3.150395967773381
 10
26.26868164082269
 20
3.152131524234535
 10
26.276491644898
 20
3.154445599516126
 10
26.28430164897341
 20
3.157048934207897
 10
26.29182239363861
 20
3.160230787720108
 10
26.29905387889349
 20
3.163991160052676
 10
26.30628536414845
 20
3.168330051205594
 10
26.31293833058296
 20
3.172668942358598
 10
26.31959129701755
 20
3.177875611742138
 10
26.32566574463171
 20
3.183082281125678
 10
26.33174019224588
 20
3.188867469329658
 10
26.3372361210396
 20
3.19494191694382
 10
26.34244279042313
 20
3.201594883378421
 10
26.34707094098632
 20
3.208247849812931
 10
26.35140983213931
 20
3.215190075657709
 10
26.35517020447189
 20
3.222421560912662
 10
26.35864131739428
 20
3.229942305577793
 10
26.36182317090641
 20
3.238330828473543
 10
26.364137246188
 20
3.246719351369295
 10
26.36587280264922
 20
3.255107874264959
 10
26.3673190997002
 20
3.264074915981149
 10
26.36789761852064
 20
3.272752698287078
 10
26.36789761852064
 20
3.281430480593006
 10
26.3673190997002
 20
3.290108262898933
 10
26.36587280264922
 20
3.29878604520486
 10
26.364137246188
 20
3.306306789869994
 10
26.36182317090641
 20
3.313538275124948
 10
26.35893057680446
 20
3.320480500969722
 10
26.35545946388216
 20
3.327422726814501
 10
26.35112057272913
 20
3.333497174428658
 10
26.34620316275577
 20
3.339282362632553
 10
26.3404179745518
 20
3.344489032016178
 10
26.33434352693765
 20
3.348827923169098
 10
26.33174019224588
 20
3.350563479630252
 10
26.32884759814392
 20
3.352299036091487
 10
26.32595500404189
 20
3.353745333142464
 10
26.32306240993985
 20
3.355191630193439
 10
26.3201698158379
 20
3.356637927244493
 10
26.31698796232579
 20
3.357794964885206
 10
26.31409536822385
 20
3.358662743115823
 10
26.31091351471163
 20
3.359530521346443
 10
26.30773166119941
 20
3.36039829957706
 10
26.3045498076873
 20
3.361266077807593
 10
26.30136795417508
 20
3.361844596628031
 10
26.29818610066287
 20
3.362423115448388
 10
26.29500424715074
 20
3.36300163426883
 10
26.29182239363861
 20
3.363290893679009
 10
26.28835128071614
 20
3.363869412499363
 10
26.28516942720402
 20
3.364158671909629
 10
26.28198757369189
 20
3.364158671909629
 10
26.27880572017959
 20
3.364158671909629
 10
26.27562386666748
 20
3.364447931319801
 10
26.27244201315534
 20
3.364447931319801
 10
26.26926015964314
 20
3.364447931319801
 10
26.26607830613093
 20
3.364737190729984
 10
26.26260719320854
 20
3.364737190729984
 10
26.25913608028616
 20
3.364737190729984
 10
26.25566496736384
 20
3.364737190729984
 10
26.25219385444146
 20
3.364447931319801
 10
26.24814422269871
 20
3.364158671909629
 10
26.24438385036607
 20
3.363869412499363
 10
26.24033421862332
 20
3.363580153089186
 10
26.23599532747042
 20
3.36300163426883
 10
26.2316564363174
 20
3.362133856038214
 10
26.2270282857542
 20
3.361266077807593
 10
26.16078788081892
 20
3.349117182579278
 10
26.15905232435769
 20
3.355191630193439
 10
26.15818454612715
 20
3.36097681839742
 10
26.15847380553731
 20
3.367051266011573
 10
26.15934158376793
 20
3.372836454215553
 10
26.16136639963926
 20
3.378621642419448
 10
26.16368047492087
 20
3.384117571213252
 10
26.16715158784325
 20
3.389613500006971
 10
26.17091196017581
 20
3.394530909980334
 10
26.17525085132881
 20
3.399159060543518
 10
26.18016826130219
 20
3.4037872111067
 10
26.18537493068572
 20
3.407547583439267
 10
26.1911601188897
 20
3.411018696361653
 10
26.19723456650387
 20
3.413911290463603
 10
26.20330901411802
 20
3.416514625155459
 10
26.20967272114235
 20
3.418250181616606
 10
26.21632568757696
 20
3.419407219257406
 10
26.22211087578084
 20
3.419696478667582
 10
26.22818532339501
 20
3.419696478667582
 10
26.23397051159898
 20
3.419117959847227
 10
26.23975569980288
 20
3.418250181616606
 10
26.24554088800695
 20
3.417093143975812
 10
26.25132607621085
 20
3.415357587514663
 10
26.25682200500456
 20
3.413332771643247
 10
26.26231793379836
 20
3.411018696361653
 10
26.26781386259216
 20
3.408415361669886
 10
26.27330979138589
 20
3.405522767567852
 10
26.27851646076943
 20
3.402630173465903
 10
26.28372313015296
 20
3.399159060543518
 10
26.28864054012633
 20
3.395687947621126
 10
26.29355795009968
 20
3.392216834698825
 10
26.29847536007306
 20
3.388456462366258
 10
26.30310351063624
 20
3.384696090033608
 10
26.37802169787754
 20
3.419985738077759
 10
26.37397206613471
 20
3.424035369820586
 10
26.36963317498179
 20
3.428085001563333
 10
26.36529428382888
 20
3.431845373895897
 10
26.36037687385551
 20
3.435027227408108
 10
26.35545946388216
 20
3.438209080920235
 10
26.35054205390878
 20
3.441101675022268
 10
26.34533538452517
 20
3.443705009714038
 10
26.34012871514155
 20
3.446019084995628
  0
LWPOLYLINE
  5
5BB
330
17
100
AcDbEntity
  8
4
  6
Continuous
100
AcDbPolyline
 90
      104
 70
     0
 43
0.0
 10
26.56625515455123
 20
3.463663909017662
 10
26.57435441803672
 20
3.454986126711736
 10
26.5778255309591
 20
3.450068716738373
 10
26.58071812506104
 20
3.445151306765013
 10
26.5833214597529
 20
3.440523156201828
 10
26.58534627562423
 20
3.436184265048908
 10
26.58708183208539
 20
3.431556114485723
 10
26.58823886972627
 20
3.426927963922538
 10
26.58881738854662
 20
3.422299813359351
 10
26.5891066479568
 20
3.417382403385991
 10
26.5891066479568
 20
3.192627841662226
 10
26.58187516270185
 20
3.193495619892845
 10
26.5746436774469
 20
3.19494191694382
 10
26.56770145160211
 20
3.196677473405053
 10
26.56075922575742
 20
3.198991548686564
 10
26.55410625932291
 20
3.201884142788593
 10
26.54745329288831
 20
3.204776736890543
 10
26.54080032645372
 20
3.208247849812931
 10
26.53472587883964
 20
3.212008222145497
 10
26.5286514312254
 20
3.216347113298505
 10
26.5228662430215
 20
3.220686004451423
 10
26.51737031422779
 20
3.22560341442479
 10
26.51216364484417
 20
3.230810083808326
 10
26.50695697546062
 20
3.23601675319195
 10
26.50232882489745
 20
3.241801941395845
 10
26.49798993374452
 20
3.247876389010003
 10
26.49394030200169
 20
3.253950836624165
 10
26.48757659497736
 20
3.265521213032122
 10
26.4823699255938
 20
3.277670108260438
 10
26.47832029385107
 20
3.290397522309111
 10
26.4757169591593
 20
3.303414195768047
 10
26.47455992151842
 20
3.316720128637158
 10
26.47513844033885
 20
3.329736802096007
 10
26.47774177503062
 20
3.343042734965118
 10
26.48208066618356
 20
3.35577014901388
 10
26.48439474146514
 20
3.361266077807593
 10
26.48699807615691
 20
3.366472747191133
 10
26.48989067025894
 20
3.371679416574759
 10
26.49278326436097
 20
3.37659682654812
 10
26.4959651178731
 20
3.381803495931661
 10
26.4994362307955
 20
3.386720905905023
 10
26.50290734371788
 20
3.391349056468206
 10
26.50637845664018
 20
3.396266466441568
 10
26.51013882897284
 20
3.400894617004754
 10
26.51389920130531
 20
3.405233508157673
 10
26.51794883304815
 20
3.409861658720858
 10
26.52199846479089
 20
3.414200549873866
 10
26.52604809653363
 20
3.418539441026788
 10
26.53038698768664
 20
3.422589072769531
 10
26.53443661942947
 20
3.426638704512361
 10
26.53877551058239
 20
3.430688336255101
 10
26.54224662350477
 20
3.434737967997848
 10
26.54456069878638
 20
3.43936611856103
 10
26.54600699583733
 20
3.443994269124216
 10
26.54600699583733
 20
3.448911679097578
 10
26.5454284770169
 20
3.453250570250498
 10
26.54369292055574
 20
3.457589461403506
 10
26.54166810468442
 20
3.461060574325892
 10
26.53877551058239
 20
3.463663909017662
 10
26.43522064173152
 20
3.463663909017662
 10
26.4401380517049
 20
3.459035758454477
 10
26.44563398049859
 20
3.453250570250498
 10
26.45084064988223
 20
3.446308344405808
 10
26.45517954103515
 20
3.438787599740676
 10
26.45836139454735
 20
3.430399076844926
 10
26.45980769159833
 20
3.421721294538997
 10
26.45865065395762
 20
3.413043512233068
 10
26.45460102221479
 20
3.404654989337318
 10
26.42278248709302
 20
3.349117182579278
 10
26.41497248301771
 20
3.332918655608219
 10
26.41005507304435
 20
3.315852350406538
 10
26.40774099776276
 20
3.298207526384506
 10
26.40803025717294
 20
3.280273442952208
 10
26.41092285127489
 20
3.262339359519915
 10
26.41670803947886
 20
3.245273054318233
 10
26.42480730296444
 20
3.229074527347173
 10
26.4355099011417
 20
3.214611556837271
 10
26.44071657052524
 20
3.208826368633372
 10
26.44621249931905
 20
3.203330439839568
 10
26.45199768752303
 20
3.197834511045765
 10
26.45807213513719
 20
3.192627841662226
 10
26.46414658275133
 20
3.187999691099046
 10
26.47079954918595
 20
3.183371540535944
 10
26.47745251562036
 20
3.179032649382937
 10
26.48439474146514
 20
3.175272277050368
 10
26.49133696730992
 20
3.171511904717805
 10
26.49856845256487
 20
3.168330051205594
 10
26.50579993781982
 20
3.165726716513823
 10
26.51332068248496
 20
3.163412641232231
 10
26.52084142715009
 20
3.161387825360906
 10
26.5286514312254
 20
3.160230787720108
 10
26.53617217589063
 20
3.15936300948949
 10
26.54398217996603
 20
3.159073750079313
 10
26.65476853407175
 20
3.159073750079313
 10
26.65476853407175
 20
3.420274997488021
 10
26.65505779348193
 20
3.426060185691917
 10
26.65534705289208
 20
3.431845373895897
 10
26.65621483112272
 20
3.437341302689617
 10
26.65737186876352
 20
3.443126490893599
 10
26.65910742522475
 20
3.448622419687398
 10
26.66113224109607
 20
3.453829089070941
 10
26.66344631637767
 20
3.458746499044303
 10
26.66604965106945
 20
3.463663909017662
 10
26.56625515455123
 20
3.463663909017662
  0
LWPOLYLINE
  5
625
330
17
100
AcDbEntity
  8
4
  6
Continuous
100
AcDbPolyline
 90
       46
 70
     0
 43
0.0
 10
26.85527873562073
 20
3.463953168427844
 10
26.69821087588331
 20
3.463953168427844
 10
26.70168198880563
 20
3.459325017864742
 10
26.70486384231775
 20
3.454118348481117
 10
26.70804569583004
 20
3.448911679097578
 10
26.71064903052182
 20
3.443415750303861
 10
26.71267384639314
 20
3.437630562099878
 10
26.71440940285429
 20
3.431845373895897
 10
26.71556644049517
 20
3.426349445102183
 10
26.71585569990536
 20
3.420564256898202
 10
26.71585569990536
 20
3.153577821285511
 10
26.78614573658348
 20
3.220975263861603
 10
26.78614573658348
 20
3.340728659683528
 10
26.88044430430789
 20
3.340728659683528
 10
26.88680801133232
 20
3.341017919093788
 10
26.89288245894637
 20
3.341307178503968
 10
26.89895690656063
 20
3.342174956734588
 10
26.90474209476452
 20
3.343331994375383
 10
26.9105272829685
 20
3.345067550836533
 10
26.9160232117623
 20
3.347381626118126
 10
26.92122988114583
 20
3.3499849608099
 10
26.92585803170903
 20
3.353166814322108
 10
26.93048618227222
 20
3.356927186654673
 10
26.93424655460468
 20
3.361555337217859
 10
26.93771766752717
 20
3.366472747191133
 10
26.94061026162912
 20
3.372257935395113
 10
26.94263507750053
 20
3.378910901829712
 10
26.94437063396168
 20
3.386142387084667
 10
26.9452384121923
 20
3.394241650570153
 10
26.9452384121923
 20
3.403208692286345
 10
26.94437063396168
 20
3.412754252822808
 10
26.94263507750053
 20
3.421142775718557
 10
26.93974248339849
 20
3.428663520383688
 10
26.93627137047611
 20
3.435316486818288
 10
26.93164321991293
 20
3.441101675022268
 10
26.92672580993956
 20
3.446019084995628
 10
26.92094062173568
 20
3.450357976148553
 10
26.91457691471125
 20
3.453829089070941
 10
26.90792394827673
 20
3.456721683172887
 10
26.90069246302177
 20
3.459035758454477
 10
26.89346097776682
 20
3.460771314915713
 10
26.88594023310169
 20
3.461928352556512
 10
26.8781302290263
 20
3.463085390197308
 10
26.87032022495099
 20
3.463663909017662
 10
26.86279948028586
 20
3.463953168427844
 10
26.85527873562073
 20
3.463953168427844
  0
LWPOLYLINE
  5
655
330
17
100
AcDbEntity
  8
4
  6
Continuous
100
AcDbPolyline
 90
       21
 70
     0
 43
0.0
 10
26.77341832253472
 20
3.448043900866958
 10
26.84428687803321
 20
3.448043900866958
 10
26.85325391974932
 20
3.447176122636426
 10
26.86193170205523
 20
3.444572787944573
 10
26.86945244672044
 20
3.440523156201828
 10
26.87639467256514
 20
3.435027227408108
 10
26.88189060135895
 20
3.428374260973511
 10
26.88622949251187
 20
3.420853516308376
 10
26.88883282720373
 20
3.412464993412628
 10
26.88970060543426
 20
3.403208692286345
 10
26.88912208661391
 20
3.395687947621126
 10
26.88738653015267
 20
3.388167202955995
 10
26.88478319546089
 20
3.381224977111303
 10
26.88102282312833
 20
3.375150529497147
 10
26.87610541315498
 20
3.369943860113524
 10
26.87032022495099
 20
3.365894228370778
 10
26.8636672585164
 20
3.363290893679009
 10
26.85585725444108
 20
3.362423115448388
 10
26.78672425540383
 20
3.362423115448388
 10
26.78672425540383
 20
3.432713152126517
 10
26.77341832253472
 20
3.448043900866958
  0
LWPOLYLINE
  5
66C
330
17
100
AcDbEntity
  8
4
  6
Continuous
100
AcDbPolyline
 90
       21
 70
     0
 43
0.0
 10
27.0534533524639
 20
3.447465382046603
 10
27.1243219079624
 20
3.447465382046603
 10
27.13357820908868
 20
3.446597603815986
 10
27.14196673198443
 20
3.443994269124216
 10
27.14977673605982
 20
3.43994463738147
 10
27.15671896190459
 20
3.434448708587666
 10
27.16221489069831
 20
3.427795742153156
 10
27.16655378185134
 20
3.419985738077759
 10
27.16915711654309
 20
3.411597215182011
 10
27.17002489477363
 20
3.402340914055728
 10
27.16944637595326
 20
3.394820169390595
 10
27.16771081949203
 20
3.387299424725464
 10
27.16481822539007
 20
3.380646458290863
 10
27.16105785305753
 20
3.374282751266528
 10
27.15614044308416
 20
3.369076081882989
 10
27.15035525488018
 20
3.365026450140156
 10
27.14370228844558
 20
3.362423115448388
 10
27.13589228437027
 20
3.361555337217859
 10
27.06675928533302
 20
3.361555337217859
 10
27.06675928533302
 20
3.431845373895897
 10
27.0534533524639
 20
3.447465382046603
  0
TEXT
  5
683
330
17
100
AcDbEntity
  8
3
100
AcDbText
 10
30.14181437240381
 20
2.281398689203137
 30
0.0
 40
0.1563045964277055
  1
1
  7
SIMPLEX
100
AcDbText
  0
LINE
  5
684
330
17
100
AcDbEntity
  8
0
100
AcDbLine
 10
29.49696939050781
 20
1.599999999999909
 30
0.0
 11
29.49696939050781
 21
2.537827578566153
 31
0.0
  0
TEXT
  5
685
330
17
100
AcDbEntity
  8
3
100
AcDbText
 10
29.61147997832251
 20
2.324167042848133
 30
0.0
 40
0.077527079828142
  1
SHEET
  7
SIMPLEX
100
AcDbText
  0
TEXT
  5
686
330
17
100
AcDbEntity
  8
3
100
AcDbText
 10
29.57117964010591
 20
2.031176911853149
 30
0.0
 40
0.0781522982138528
  1
PART/DWG. NO.
  7
SIMPLEX
100
AcDbText
  0
LWPOLYLINE
  5
687
330
17
100
AcDbEntity
  8
4
  6
Continuous
100
AcDbPolyline
 90
       44
 70
     0
 43
0.0
 10
28.52450832019339
 20
3.459903536685098
 10
28.39636640147571
 20
3.459903536685098
 10
28.40041603321845
 20
3.457589461403506
 10
28.40504418378163
 20
3.454407607891292
 10
28.40938307493464
 20
3.449779457328196
 10
28.41372196608764
 20
3.444572787944573
 10
28.41748233842013
 20
3.438498340330412
 10
28.42066419193233
 20
3.431556114485723
 10
28.42239974839349
 20
3.424324629230768
 10
28.4232675266242
 20
3.416514625155373
 10
28.4232675266242
 20
3.159073750079313
 10
28.51930165080984
 20
3.159073750079313
 10
28.53550017778089
 20
3.159941528309845
 10
28.55112018593159
 20
3.162255603591436
 10
28.56616167526187
 20
3.166015975924006
 10
28.5803353863616
 20
3.171222645307626
 10
28.59364131923063
 20
3.177875611742138
 10
28.60636873327938
 20
3.185974875227713
 10
28.61793910968724
 20
3.19494191694382
 10
28.62864170786469
 20
3.205355255710985
 10
28.63818726840115
 20
3.216636372708678
 10
28.64686505070708
 20
3.229074527347173
 10
28.65438579537221
 20
3.242380460216288
 10
28.66046024298645
 20
3.256554171316018
 10
28.6653776529598
 20
3.271595660646285
 10
28.6691380252923
 20
3.287215668796986
 10
28.67116284116371
 20
3.303703455178224
 10
28.67203061939433
 20
3.320769760379903
 10
28.67145210057389
 20
3.335232730889806
 10
28.6691380252923
 20
3.349117182579278
 10
28.6653776529598
 20
3.362423115448388
 10
28.66017098357618
 20
3.375150529497147
 10
28.65380727655185
 20
3.387588684135645
 10
28.64628653188672
 20
3.398869801133336
 10
28.63760874958071
 20
3.409572399310683
 10
28.62777392963399
 20
3.419407219257406
 10
28.6173605908669
 20
3.428374260973511
 10
28.60579021445893
 20
3.436473524459083
 10
28.59364131923063
 20
3.443415750303861
 10
28.58062464577178
 20
3.449200938507756
 10
28.56731871290266
 20
3.453829089070941
 10
28.5534342612132
 20
3.457300201993328
 10
28.53897129070329
 20
3.459325017864742
 10
28.52450832019339
 20
3.459903536685098
  0
LWPOLYLINE
  5
6B5
330
17
100
AcDbEntity
  8
4
  6
Continuous
100
AcDbPolyline
 90
       34
 70
     0
 43
0.0
 10
28.49182200684108
 20
3.435895005638642
 10
28.5031031238387
 20
3.434737967997848
 10
28.5140949814263
 20
3.432423892716252
 10
28.52450832019339
 20
3.428374260973511
 10
28.53463239955028
 20
3.422878332179793
 10
28.54388870067665
 20
3.416514625155373
 10
28.55285574239284
 20
3.408704621080064
 10
28.56095500587833
 20
3.400026838774136
 10
28.56847575054345
 20
3.390481278237586
 10
28.57541797638824
 20
3.379778680060245
 10
28.58120316459214
 20
3.368786822472727
 10
28.58640983397568
 20
3.356927186654673
 10
28.59074872512868
 20
3.344778291426356
 10
28.59421983805106
 20
3.332050877377598
 10
28.59653391333266
 20
3.319034203918747
 10
28.59826946979381
 20
3.306017530459817
 10
28.59855872920399
 20
3.292711597590703
 10
28.59769095097346
 20
3.28056270236239
 10
28.59537687569186
 20
3.268992325954511
 10
28.59190576276947
 20
3.257711208956727
 10
28.58727761220638
 20
3.247297870189647
 10
28.58149242400241
 20
3.23717379083275
 10
28.57483945756788
 20
3.227917489706379
 10
28.56731871290266
 20
3.21952896681063
 10
28.55950870882727
 20
3.211718962735319
 10
28.55112018593159
 20
3.204487477480363
 10
28.54244240362568
 20
3.198123770456028
 10
28.53347536190957
 20
3.192627841662226
 10
28.52479757960356
 20
3.187999691099046
 10
28.51583053788746
 20
3.18452857817674
 10
28.5074420149917
 20
3.181635984074707
 10
28.49934275150621
 20
3.179900427613555
 10
28.49182200684108
 20
3.179032649382937
 10
28.49182200684108
 20
3.435895005638642
  0
LWPOLYLINE
  5
6D9
330
17
100
AcDbEntity
  8
4
  6
Continuous
100
AcDbPolyline
 90
       96
 70
     0
 43
0.0
 10
28.36436365703196
 20
3.159073750079313
 10
28.35973550646876
 20
3.162255603591436
 10
28.35510735590559
 20
3.165437457103648
 10
28.35105772416284
 20
3.169197829436212
 10
28.34758661124046
 20
3.172958201768778
 10
28.34469401713851
 20
3.177297092921785
 10
28.34237994185692
 20
3.182214502895147
 10
28.34093364480594
 20
3.187421172278686
 10
28.34035512598552
 20
3.192917101072405
 10
28.34035512598552
 20
3.380646458290863
 10
28.34035512598552
 20
3.388456462366258
 10
28.33977660716506
 20
3.396266466441568
 10
28.33861956952436
 20
3.404654989337318
 10
28.33630549424275
 20
3.412754252822808
 10
28.33283438132038
 20
3.421142775718557
 10
28.32733845252658
 20
3.428952779793954
 10
28.32010696727162
 20
3.43676278386926
 10
28.3102721473249
 20
3.444283528534393
 10
28.30419769971083
 20
3.448043900866958
 10
28.29783399268639
 20
3.451225754379168
 10
28.29147028566207
 20
3.453829089070941
 10
28.28452805981738
 20
3.456143164352533
 10
28.2775858339726
 20
3.457589461403506
 10
28.27064360812781
 20
3.458457239634122
 10
28.26370138228305
 20
3.459035758454477
 10
28.25646989702809
 20
3.459035758454477
 10
28.2495276711834
 20
3.458457239634122
 10
28.24258544533862
 20
3.457589461403506
 10
28.23593247890411
 20
3.456432423762707
 10
28.22927951246952
 20
3.454696867301558
 10
28.22320506485544
 20
3.452672051430142
 10
28.21713061724118
 20
3.450068716738373
 10
28.21134542903731
 20
3.447465382046603
 10
28.20613875965377
 20
3.444283528534393
 10
28.20324616555173
 20
3.442837231483417
 10
28.20064283085995
 20
3.441390934432446
 10
28.19775023675794
 20
3.43994463738147
 10
28.19514690206616
 20
3.438209080920235
 10
28.19254356737438
 20
3.436184265048908
 10
28.18965097327243
 20
3.434159449177493
 10
28.18704763858067
 20
3.431556114485723
 10
28.18386578506845
 20
3.428952779793954
 10
28.18241948801747
 20
3.434448708587666
 10
28.18010541273589
 20
3.43936611856103
 10
28.17750207804413
 20
3.443705009714038
 10
28.174320224532
 20
3.447754641456783
 10
28.17084911160952
 20
3.451225754379168
 10
28.16708873927704
 20
3.454118348481117
 10
28.16332836694439
 20
3.456721683172887
 10
28.15927873520164
 20
3.458746499044303
 10
28.09303833026634
 20
3.458746499044303
 10
28.09911277788051
 20
3.454407607891292
 10
28.10431944726405
 20
3.449490197917931
 10
28.10865833841705
 20
3.444283528534393
 10
28.11241871074954
 20
3.438209080920235
 10
28.11531130485157
 20
3.431845373895897
 10
28.1173361207229
 20
3.424613888640942
 10
28.11878241777395
 20
3.417093143975812
 10
28.11907167718413
 20
3.408704621080064
 10
28.11907167718413
 20
3.151842264824356
 10
28.1864691197603
 20
3.203908958659923
 10
28.1864691197603
 20
3.381803495931661
 10
28.18762615740102
 20
3.391349056468206
 10
28.19051875150297
 20
3.399737579363959
 10
28.19485764265598
 20
3.406969064618911
 10
28.20064283085995
 20
3.413043512233068
 10
28.20729579729447
 20
3.417960922206431
 10
28.21452728254943
 20
3.421432035128818
 10
28.22233728662472
 20
3.423746110410327
 10
28.23014729070013
 20
3.424613888640942
 10
28.23477544126331
 20
3.424613888640942
 10
28.23940359182642
 20
3.424035369820586
 10
28.24374248297941
 20
3.423167591589971
 10
28.24808137413241
 20
3.422010553949176
 10
28.25213100587517
 20
3.420564256898202
 10
28.2561806376179
 20
3.418539441026788
 10
28.25994100995057
 20
3.416514625155373
 10
28.26341212287286
 20
3.413911290463603
 10
28.26688323579525
 20
3.411307955771833
 10
28.26977582989729
 20
3.408415361669886
 10
28.27208990517887
 20
3.404944248747497
 10
28.27440398046038
 20
3.401762395235286
 10
28.27613953692155
 20
3.398002022902721
 10
28.27729657456242
 20
3.394241650570153
 10
28.27816435279295
 20
3.390192018827411
 10
28.27845361220314
 20
3.385853127674403
 10
28.27845361220314
 20
3.187421172278686
 10
28.27874287161331
 20
3.182793021715506
 10
28.27932139043374
 20
3.177875611742138
 10
28.28076768748474
 20
3.173247461178953
 10
28.28279250335614
 20
3.168619310615861
 10
28.28597435686827
 20
3.164858938283287
 10
28.29002398861108
 20
3.16167708477108
 10
28.2955199174048
 20
3.159652268899667
 10
28.30246214324958
 20
3.159073750079313
 10
28.36436365703196
 20
3.159073750079313
  0
LWPOLYLINE
  5
73B
330
17
100
AcDbEntity
  8
4
  6
Continuous
100
AcDbPolyline
 90
      133
 70
     0
 43
0.0
 10
27.74219789892955
 20
3.463953168427844
 10
27.68058564455742
 20
3.463953168427844
 10
27.68492453571044
 20
3.459325017864742
 10
27.6886849080429
 20
3.454696867301558
 10
27.69157750214494
 20
3.450068716738373
 10
27.69418083683671
 20
3.445729825585368
 10
27.69620565270815
 20
3.441390934432446
 10
27.69765194975911
 20
3.437052043279436
 10
27.6988089873999
 20
3.432423892716338
 10
27.69909824681008
 20
3.427795742153156
 10
27.69909824681008
 20
3.269860104185044
 10
27.69389157742654
 20
3.270438623005483
 10
27.68839564863275
 20
3.271306401236103
 10
27.68318897924921
 20
3.27217417946664
 10
27.67769305045547
 20
3.273331217107433
 10
27.67248638107195
 20
3.274777514158491
 10
27.66699045227814
 20
3.276223811209467
 10
27.66178378289452
 20
3.27795936767062
 10
27.65657711351098
 20
3.279694924131768
 10
27.65165970353762
 20
3.281719740003183
 10
27.64645303415408
 20
3.284033815284773
 10
27.64182488359089
 20
3.28634789056637
 10
27.63690747361753
 20
3.28895122525814
 10
27.63227932305433
 20
3.291843819360086
 10
27.62765117249116
 20
3.294736413462117
 10
27.62331228133824
 20
3.298207526384506
 10
27.61926264959548
 20
3.301678639306808
 10
27.61174190493036
 20
3.309199383972026
 10
27.60508893849577
 20
3.317587906867776
 10
27.59930375029187
 20
3.326554948583885
 10
27.59409708090824
 20
3.336389768530606
 10
27.59004744916551
 20
3.346224588477332
 10
27.58657633624312
 20
3.356927186654673
 10
27.58426226096152
 20
3.367629784831926
 10
27.58281596391054
 20
3.378621642419448
 10
27.58194818568
 20
3.389613500006971
 10
27.58194818568
 20
3.400894617004754
 10
27.58310522332072
 20
3.411886474592273
 10
27.58484077978196
 20
3.422878332179793
 10
27.58744411447373
 20
3.433870189767313
 10
27.59120448680629
 20
3.444283528534393
 10
27.59554337795922
 20
3.454407607891381
 10
27.60075004734274
 20
3.463953168427844
 10
27.52178222835879
 20
3.463953168427844
 10
27.51599704015489
 20
3.445440566175187
 10
27.51194740841206
 20
3.427506482742892
 10
27.50992259254065
 20
3.409572399310683
 10
27.50963333313047
 20
3.392506094109004
 10
27.51079037077126
 20
3.375729048317502
 10
27.51397222428348
 20
3.359819780756621
 10
27.51860037484666
 20
3.344489032016178
 10
27.52467482246074
 20
3.329736802096007
 10
27.53248482653605
 20
3.316141609816718
 10
27.54145186825223
 20
3.303124936357868
 10
27.55186520701931
 20
3.291265300539727
 10
27.56343558342728
 20
3.280273442952208
 10
27.57645225688613
 20
3.270727882415663
 10
27.59062596798584
 20
3.262050100109732
 10
27.60566745731612
 20
3.254818614854781
 10
27.62186598428725
 20
3.248744167240625
 10
27.62649413485045
 20
3.247297870189647
 10
27.63141154482381
 20
3.246140832548853
 10
27.63632895479716
 20
3.244983794908058
 10
27.64153562418071
 20
3.243826757267261
 10
27.64645303415408
 20
3.242958979036645
 10
27.65165970353762
 20
3.242380460216288
 10
27.65657711351098
 20
3.241512681985668
 10
27.66178378289452
 20
3.241223422575491
 10
27.66670119286788
 20
3.240644903755133
 10
27.67161860284124
 20
3.240355644344875
 10
27.67653601281459
 20
3.240066384934693
 10
27.68116416337779
 20
3.240066384934693
 10
27.68579231394097
 20
3.240066384934693
 10
27.69013120509398
 20
3.240066384934693
 10
27.69447009624697
 20
3.240355644344875
 10
27.69851972798965
 20
3.240644903755133
 10
27.69851972798965
 20
3.209983406274083
 10
27.66699045227814
 20
3.19233858225205
 10
27.66062674525379
 20
3.190892285201075
 10
27.65426303822938
 20
3.190024506970456
 10
27.64789933120504
 20
3.190024506970456
 10
27.64211414300107
 20
3.190892285201075
 10
27.63603969538698
 20
3.192049322841868
 10
27.63054376659319
 20
3.194074138713198
 10
27.62533709720965
 20
3.196677473405053
 10
27.62013042782604
 20
3.199570067507004
 10
27.61521301785268
 20
3.203041180429393
 10
27.61058486728948
 20
3.206801552761957
 10
27.60624597613655
 20
3.21114044391488
 10
27.60219634439382
 20
3.215479335067882
 10
27.59843597206116
 20
3.220396745041245
 10
27.59496485913887
 20
3.225314155014609
 10
27.59178300562674
 20
3.230231564987971
 10
27.58917967093497
 20
3.235438234371509
 10
27.53364186417691
 20
3.209694146863903
 10
27.53624519886868
 20
3.204776736890543
 10
27.53942705238082
 20
3.199859326917178
 10
27.54260890589302
 20
3.194652657533638
 10
27.5460800188154
 20
3.18973524756028
 10
27.55012965055816
 20
3.184817837586917
 10
27.5541792823009
 20
3.179900427613555
 10
27.55880743286409
 20
3.175561536460548
 10
27.56343558342728
 20
3.170933385897365
 10
27.56835299340064
 20
3.166883754154618
 10
27.57384892219436
 20
3.163123381822053
 10
27.57963411039842
 20
3.159941528309845
 10
27.58541929860231
 20
3.15675967479772
 10
27.59178300562674
 20
3.154445599516126
 10
27.59814671265097
 20
3.152420783644712
 10
27.60508893849577
 20
3.150974486593741
 10
27.61232042375072
 20
3.150395967773381
 10
27.61463449903231
 20
3.150395967773381
 10
27.6169485743139
 20
3.15068522718356
 10
27.61955190900567
 20
3.150974486593741
 10
27.62215524369743
 20
3.151263746003913
 10
27.62446931897903
 20
3.151842264824356
 10
27.6270726536708
 20
3.152710043054975
 10
27.62938672895238
 20
3.153577821285511
 10
27.63170080423399
 20
3.154445599516126
 10
27.75695012884963
 20
3.228206749116556
 10
27.75984272295166
 20
3.23052082439815
 10
27.76186753882298
 20
3.233702677910359
 10
27.7627353170537
 20
3.237463050242924
 10
27.76302457646388
 20
3.241512681985668
 10
27.76302457646388
 20
3.435316486818288
 10
27.76244605764343
 20
3.441969453252799
 10
27.76128902000265
 20
3.448043900866958
 10
27.75926420413121
 20
3.452961310840318
 10
27.75666086943945
 20
3.457010942583151
 10
27.75347901592733
 20
3.459903536685098
 10
27.74971864359468
 20
3.462217611966686
 10
27.7459582712622
 20
3.463374649607485
 10
27.74219789892955
 20
3.463953168427844
  0
LWPOLYLINE
  5
7C2
330
17
100
AcDbEntity
  8
4
  6
Continuous
100
AcDbPolyline
 90
       21
 70
     0
 43
0.0
 10
28.04393666810603
 20
3.458457239634122
 10
27.96757218381375
 20
3.458457239634122
 10
27.97133255614638
 20
3.455853904942352
 10
27.97509292847887
 20
3.452382792019966
 10
27.97885330081153
 20
3.448911679097578
 10
27.98203515432366
 20
3.444862047354833
 10
27.98492774842568
 20
3.440812415612001
 10
27.98724182370718
 20
3.436184265048908
 10
27.98868812075826
 20
3.431556114485723
 10
27.98926663957862
 20
3.426638704512361
 10
27.98926663957862
 20
3.160230787720108
 10
28.06129223271798
 20
3.160230787720108
 10
28.06129223271798
 20
3.441101675022268
 10
28.06100297330771
 20
3.445151306765013
 10
28.0601351950771
 20
3.448622419687398
 10
28.05839963861594
 20
3.451515013789346
 10
28.05637482274462
 20
3.454118348481117
 10
28.05377148805277
 20
3.455853904942352
 10
28.05087889395081
 20
3.457300201993328
 10
28.04769704043859
 20
3.458167980223946
 10
28.04393666810603
 20
3.458457239634122
  0
LWPOLYLINE
  5
7D9
330
17
100
AcDbEntity
  8
4
  6
Continuous
100
AcDbPolyline
 90
       73
 70
     0
 43
0.0
 10
27.3936234450981
 20
3.233991937320536
 10
27.39854085507146
 20
3.231099343218589
 10
27.4025904868143
 20
3.227338970886023
 10
27.40606159973659
 20
3.222710820322839
 10
27.40866493442837
 20
3.2175041509393
 10
27.41011123147944
 20
3.211718962735319
 10
27.41040049088962
 20
3.205933774531338
 10
27.40953271265907
 20
3.200437845737623
 10
27.40721863737749
 20
3.19494191694382
 10
27.40461530268571
 20
3.191760063431694
 10
27.40201196799386
 20
3.188867469329658
 10
27.39883011448164
 20
3.186264134637892
 10
27.39535900155934
 20
3.183950059356298
 10
27.39159862922669
 20
3.182214502895147
 10
27.38754899748403
 20
3.180768205844174
 10
27.38321010633102
 20
3.179900427613555
 10
27.37887121517803
 20
3.179611168203381
 10
27.27329153045582
 20
3.179611168203381
 10
27.33027563426475
 20
3.227917489706379
 10
27.33374674718722
 20
3.231099343218589
 10
27.33635008187901
 20
3.234281196730712
 10
27.33866415716051
 20
3.23717379083275
 10
27.34011045421148
 20
3.240066384934693
 10
27.34126749185235
 20
3.242958979036645
 10
27.34184601067271
 20
3.246140832548853
 10
27.34242452949307
 20
3.249033426650802
 10
27.34242452949307
 20
3.252215280163011
 10
27.34242452949307
 20
3.443994269124216
 10
27.34184601067271
 20
3.448043900866958
 10
27.34068897303192
 20
3.452093532609788
 10
27.33866415716051
 20
3.455275386121912
 10
27.33606082246874
 20
3.458167980223946
 10
27.33287896895653
 20
3.460482055505453
 10
27.32940785603422
 20
3.462217611966686
 10
27.32535822429139
 20
3.463374649607485
 10
27.32130859254865
 20
3.463663909017662
 10
27.25882855994591
 20
3.463663909017662
 10
27.26316745109893
 20
3.459325017864742
 10
27.26692782343139
 20
3.455275386121912
 10
27.27010967694362
 20
3.450647235558728
 10
27.27271301163547
 20
3.446019084995628
 10
27.27502708691698
 20
3.440812415612001
 10
27.27647338396796
 20
3.435316486818288
 10
27.27734116219857
 20
3.428952779793954
 10
27.27763042160884
 20
3.421721294538997
 10
27.27763042160884
 20
3.221553782682045
 10
27.22614224659354
 20
3.159073750079313
 10
27.4208138296567
 20
3.159073750079313
 10
27.4239956831689
 20
3.15936300948949
 10
27.42746679609128
 20
3.159652268899667
 10
27.43064864960341
 20
3.160230787720108
 10
27.43411976252588
 20
3.161387825360906
 10
27.43759087544818
 20
3.162544863001699
 10
27.4407727289604
 20
3.163991160052676
 10
27.44395458247261
 20
3.165437457103648
 10
27.44713643598473
 20
3.167173013564798
 10
27.45031828949687
 20
3.169197829436212
 10
27.45321088359889
 20
3.171222645307626
 10
27.45610347770092
 20
3.173536720589218
 10
27.45899607180287
 20
3.175850795870728
 10
27.46131014708446
 20
3.178164871152318
 10
27.46391348177623
 20
3.180768205844174
 10
27.46593829764764
 20
3.183371540535944
 10
27.46796311351899
 20
3.185974875227713
 10
27.47259126408216
 20
3.195231176353996
 10
27.47548385818419
 20
3.205644515121162
 10
27.47693015523508
 20
3.217214891529037
 10
27.4766408958249
 20
3.229074527347173
 10
27.47461607995349
 20
3.240355644344875
 10
27.47114496703118
 20
3.25076898311204
 10
27.46622755705782
 20
3.259446765417962
 10
27.45957459062322
 20
3.266099731852477
 10
27.3936234450981
 20
3.233991937320536
  0
LWPOLYLINE
  5
824
330
17
100
AcDbEntity
  8
4
  6
Continuous
100
AcDbPolyline
 90
       21
 70
     0
 43
0.0
 10
29.91050705367978
 20
3.459035758454477
 10
29.91600298247348
 20
3.456143164352533
 10
29.92063113303668
 20
3.452672051430142
 10
29.92468076477941
 20
3.448622419687398
 10
29.92757335888145
 20
3.443994269124216
 10
29.92988743416304
 20
3.438787599740676
 10
29.93162299062419
 20
3.433291670946872
 10
29.93249076885481
 20
3.427217223332716
 10
29.93278002826499
 20
3.420853516308376
 10
29.93278002826499
 20
3.159073750079313
 10
30.00393784317366
 20
3.159073750079313
 10
30.00393784317366
 20
3.421721294538997
 10
30.00422710258381
 20
3.427795742153156
 10
30.00567339963489
 20
3.433002411536696
 10
30.00740895609603
 20
3.438209080920235
 10
30.01030155019798
 20
3.442837231483417
 10
30.0134834037102
 20
3.447176122636426
 10
30.01753303545295
 20
3.451515013789346
 10
30.02187192660585
 20
3.455275386121912
 10
30.02707859598949
 20
3.459035758454477
 10
29.91050705367978
 20
3.459035758454477
  0
LWPOLYLINE
  5
83B
330
17
100
AcDbEntity
  8
4
  6
Continuous
100
AcDbPolyline
 90
      138
 70
     0
 43
0.0
 10
28.86759456463771
 20
3.459035758454477
 10
28.87366901225185
 20
3.454696867301558
 10
28.87858642222521
 20
3.449779457328196
 10
28.88263605396797
 20
3.444283528534393
 10
28.88552864806992
 20
3.438498340330412
 10
28.88784272335151
 20
3.432423892716252
 10
28.88928902040257
 20
3.426060185691917
 10
28.89015679863311
 20
3.419117959847227
 10
28.89044605804328
 20
3.411886474592273
 10
28.89044605804328
 20
3.194652657533638
 10
28.88523938865974
 20
3.194652657533638
 10
28.8800327192762
 20
3.19494191694382
 10
28.87482604989266
 20
3.195520435764258
 10
28.8699086399193
 20
3.196388213994795
 10
28.86470197053576
 20
3.197545251635589
 10
28.85978456056241
 20
3.198991548686564
 10
28.85486715058903
 20
3.200727105147798
 10
28.85023900002584
 20
3.202462661608948
 10
28.84532159005248
 20
3.204776736890543
 10
28.8406934394893
 20
3.207090812172133
 10
28.8363545483363
 20
3.209694146863903
 10
28.83201565718336
 20
3.212586740965939
 10
28.82767676603037
 20
3.215768594478064
 10
28.82333787487744
 20
3.218950447990275
 10
28.81928824313462
 20
3.222421560912662
 10
28.81552787080214
 20
3.225892673834964
 10
28.80887490436754
 20
3.232545640269563
 10
28.80280045675339
 20
3.23977712552452
 10
28.79730452795958
 20
3.247297870189647
 10
28.79238711798623
 20
3.25539713367522
 10
28.78804822683328
 20
3.263785656570886
 10
28.7845771139109
 20
3.27217417946664
 10
28.78168451980896
 20
3.28114122118283
 10
28.77965970393754
 20
3.290108262898933
 10
28.77850266629675
 20
3.298496785794683
 10
28.77763488806613
 20
3.306885308690433
 10
28.77763488806613
 20
3.315563090996365
 10
28.77821340688648
 20
3.323951613892115
 10
28.77937044452738
 20
3.332340136787864
 10
28.78110600098852
 20
3.340728659683528
 10
28.78370933568037
 20
3.348827923169098
 10
28.78718044860269
 20
3.356637927244493
 10
28.78978378329446
 20
3.361555337217859
 10
28.79238711798623
 20
3.366472747191133
 10
28.79499045267799
 20
3.371100897754318
 10
28.79788304678001
 20
3.375729048317502
 10
28.8004863814718
 20
3.380357198880689
 10
28.80337897557382
 20
3.384696090033608
 10
28.80656082908594
 20
3.389034981186613
 10
28.80974268259807
 20
3.393084612929356
 10
28.81292453611037
 20
3.397423504082363
 10
28.81610638962249
 20
3.401473135825106
 10
28.81957750254479
 20
3.405522767567852
 10
28.82304861546727
 20
3.409572399310683
 10
28.82680898779975
 20
3.413332771643247
 10
28.8305693601324
 20
3.417382403385991
 10
28.83432973246488
 20
3.421142775718557
 10
28.83837936420771
 20
3.425192407461386
 10
28.84185047713009
 20
3.429242039204127
 10
28.84416455241161
 20
3.433580930357051
 10
28.84561084946266
 20
3.437919821510058
 10
28.84590010887284
 20
3.442258712663062
 10
28.84561084946266
 20
3.446597603815986
 10
28.84474307123213
 20
3.450936494968992
 10
28.84329677418107
 20
3.454986126711736
 10
28.84127195830966
 20
3.459035758454477
 10
28.7374278300487
 20
3.459035758454477
 10
28.73974190533029
 20
3.457010942583151
 10
28.74205598061188
 20
3.454986126711736
 10
28.74437005589339
 20
3.452961310840318
 10
28.74668413117499
 20
3.450647235558728
 10
28.74870894704631
 20
3.448333160277222
 10
28.75073376291773
 20
3.445729825585368
 10
28.75246931937896
 20
3.443126490893599
 10
28.75420487584012
 20
3.440523156201828
 10
28.7576759887625
 20
3.432713152126517
 10
28.75941154522374
 20
3.424324629230768
 10
28.75941154522374
 20
3.415646846924836
 10
28.75825450758286
 20
3.406969064618911
 10
28.75594043230127
 20
3.397712763492543
 10
28.75218005996878
 20
3.388745721776437
 10
28.74784116881578
 20
3.380357198880689
 10
28.74292375884243
 20
3.372257935395113
 10
28.73771708945888
 20
3.364158671909629
 10
28.73222116066508
 20
3.356348667834232
 10
28.72672523187127
 20
3.348249404348741
 10
28.72180782189791
 20
3.340150140863173
 10
28.71775819015525
 20
3.332050877377598
 10
28.71428707723278
 20
3.323951613892115
 10
28.71168374254101
 20
3.315273831586183
 10
28.70965892666961
 20
3.306596049280173
 10
28.70850188902888
 20
3.297918266974242
 10
28.70792337020852
 20
3.28895122525814
 10
28.70792337020852
 20
3.279984183542035
 10
28.70879114843906
 20
3.27101714182584
 10
28.70994818607986
 20
3.265231953621943
 10
28.71110522372065
 20
3.259446765417962
 10
28.71284078018189
 20
3.253661577213984
 10
28.71486559605323
 20
3.24816564842027
 10
28.71717967133482
 20
3.242669719626463
 10
28.71978300602658
 20
3.237463050242924
 10
28.72238634071836
 20
3.231967121449125
 10
28.72556819423056
 20
3.227049711475758
 10
28.72875004774268
 20
3.2221323015024
 10
28.73222116066508
 20
3.217214891529037
 10
28.73598153299764
 20
3.212586740965939
 10
28.74003116474047
 20
3.207958590402755
 10
28.74408079648321
 20
3.203619699249746
 10
28.74813042822595
 20
3.199280808096823
 10
28.75246931937896
 20
3.195231176353996
 10
28.75709746994214
 20
3.191470804021428
 10
28.76230413932568
 20
3.187421172278686
 10
28.76808932752958
 20
3.183660799946117
 10
28.77387451573365
 20
3.180189687023736
 10
28.77994896334772
 20
3.177007833511526
 10
28.78631267037214
 20
3.174115239409575
 10
28.79267637739639
 20
3.171511904717805
 10
28.79932934383099
 20
3.168908570026035
 10
28.80598231026559
 20
3.166883754154618
 10
28.81263527670011
 20
3.16514819769347
 10
28.81928824313462
 20
3.163412641232231
 10
28.8262304689794
 20
3.161966344181258
 10
28.83317269482417
 20
3.161098565950638
 10
28.83982566125867
 20
3.160230787720108
 10
28.84676788710347
 20
3.159652268899667
 10
28.85342085353797
 20
3.159073750079313
 10
28.86007381997258
 20
3.159073750079313
 10
28.95697572238884
 20
3.159073750079313
 10
28.95697572238884
 20
3.422589072769531
 10
28.95697572238884
 20
3.427217223332716
 10
28.95697572238884
 20
3.431845373895897
 10
28.95755424120928
 20
3.43676278386926
 10
28.95842201943981
 20
3.441680193842623
 10
28.96015757590105
 20
3.446308344405808
 10
28.96247165118264
 20
3.450647235558728
 10
28.96594276410495
 20
3.454986126711736
 10
28.97057091466813
 20
3.459035758454477
 10
28.86759456463771
 20
3.459035758454477
  0
LWPOLYLINE
  5
8C7
330
17
100
AcDbEntity
  8
4
  6
Continuous
100
AcDbPolyline
 90
      133
 70
     0
 43
0.0
 10
29.31882276039024
 20
3.445151306765013
 10
29.31390535041688
 20
3.43994463738147
 10
29.30927719985368
 20
3.433870189767313
 10
29.30522756811093
 20
3.427506482742892
 10
29.30088867695803
 20
3.420853516308376
 10
29.29654978580501
 20
3.414489809284042
 10
29.29192163524182
 20
3.408126102259709
 10
29.28729348467864
 20
3.402340914055728
 10
29.28179755588493
 20
3.397423504082363
 10
29.27977274001352
 20
3.395977207031391
 10
29.27774792414211
 20
3.394530909980334
 10
29.27572310827068
 20
3.393084612929356
 10
29.27369829239935
 20
3.391638315878383
 10
29.27167347652802
 20
3.390192018827411
 10
29.26935940124643
 20
3.388745721776437
 10
29.26704532596485
 20
3.387299424725464
 10
29.26415273186281
 20
3.385853127674403
 10
29.36915389776473
 20
3.385853127674403
 10
29.36452574720154
 20
3.382092755341838
 10
29.36018685604854
 20
3.378332383009272
 10
29.35613722430571
 20
3.374572010676705
 10
29.35208759256305
 20
3.370522378933963
 10
29.3483272202304
 20
3.366183487780954
 10
29.34456684789784
 20
3.361844596628031
 10
29.34109573497544
 20
3.357505705475028
 10
29.33791388146331
 20
3.352877554911843
 10
29.33444276854086
 20
3.347960144938482
 10
29.3315501744389
 20
3.342753475554943
 10
29.32865758033695
 20
3.337257546761223
 10
29.325764986235
 20
3.331761617967423
 10
29.32287239213307
 20
3.325687170353262
 10
29.3202690574412
 20
3.319612722739107
 10
29.31766572274943
 20
3.312959756304595
 10
29.31535164746783
 20
3.306017530459817
 10
29.31130201572511
 20
3.290686781719288
 10
29.3089879404435
 20
3.275356032978848
 10
29.30869868103334
 20
3.259736024828145
 10
29.31014497808421
 20
3.244116016677439
 10
29.31332683159651
 20
3.229074527347173
 10
29.31853350098005
 20
3.214322297427088
 10
29.32518646741466
 20
3.200437845737623
 10
29.33386424972049
 20
3.187710431688865
 10
29.33820314087352
 20
3.182503762305325
 10
29.34312055084686
 20
3.177586352331966
 10
29.34861647964059
 20
3.172668942358598
 10
29.35469092725482
 20
3.168330051205594
 10
29.36076537486889
 20
3.163991160052676
 10
29.36741834130349
 20
3.159941528309845
 10
29.37436056714827
 20
3.15647041538754
 10
29.38159205240324
 20
3.15328856187533
 10
29.38882353765818
 20
3.150395967773381
 10
29.39634428232331
 20
3.147792633081615
 10
29.40357576757826
 20
3.145767817210201
 10
29.41109651224339
 20
3.144321520159223
 10
29.41861725690854
 20
3.143164482518431
 10
29.42584874216348
 20
3.142875223108162
 10
29.43308022741844
 20
3.142875223108162
 10
29.44002245326313
 20
3.143453741928607
 10
29.44870023556907
 20
3.144900038979578
 10
29.45737801787507
 20
3.146635595440818
 10
29.46576654077073
 20
3.14894967072241
 10
29.47386580425622
 20
3.151842264824356
 10
29.48196506774188
 20
3.155024118336481
 10
29.48948581240701
 20
3.158784490669049
 10
29.49700655707214
 20
3.163123381822053
 10
29.50365952350665
 20
3.168040791795418
 10
29.51031248994117
 20
3.173536720589218
 10
29.51609767814524
 20
3.179321908793113
 10
29.52159360693896
 20
3.185685615817535
 10
29.52651101691233
 20
3.192627841662226
 10
29.53084990806532
 20
3.200148586327359
 10
29.53432102098764
 20
3.207958590402755
 10
29.53721361508957
 20
3.216636372708678
 10
29.53952769037118
 20
3.22560341442479
 10
29.53316398334691
 20
3.220107485631068
 10
29.52651101691233
 20
3.215190075657709
 10
29.51927953165736
 20
3.210561925094523
 10
29.51204804640241
 20
3.206801552761957
 10
29.50452730173727
 20
3.203330439839568
 10
29.49671729766196
 20
3.200437845737623
 10
29.4886180341764
 20
3.198123770456028
 10
29.48051877069082
 20
3.196388213994795
 10
29.47241950720533
 20
3.195231176353996
 10
29.46403098430959
 20
3.19494191694382
 10
29.45593172082401
 20
3.19494191694382
 10
29.44783245733852
 20
3.195809695174437
 10
29.43973319385295
 20
3.197255992225413
 10
29.43192318977755
 20
3.199570067507004
 10
29.42411318570224
 20
3.202462661608948
 10
29.41659244103711
 20
3.205933774531338
 10
29.40936095578216
 20
3.210561925094523
 10
29.40270798934756
 20
3.215479335067882
 10
29.3966335417335
 20
3.221264523271864
 10
29.3908483535295
 20
3.227338970886023
 10
29.38593094355615
 20
3.234281196730712
 10
29.38130279299297
 20
3.241223422575491
 10
29.37754242066039
 20
3.248744167240625
 10
29.37407130773801
 20
3.256554171316018
 10
29.37117871363599
 20
3.264653434801504
 10
29.36915389776473
 20
3.272752698287078
 10
29.36741834130349
 20
3.28114122118283
 10
29.36626130366263
 20
3.289819003488756
 10
29.36568278484227
 20
3.298207526384506
 10
29.36568278484227
 20
3.306885308690433
 10
29.36626130366263
 20
3.315563090996365
 10
29.36741834130349
 20
3.323951613892115
 10
29.37060019481562
 20
3.33378643383884
 10
29.37407130773801
 20
3.342464216144763
 10
29.37783168007057
 20
3.350563479630252
 10
29.38217057122358
 20
3.358084224295468
 10
29.38679872178678
 20
3.365315709550423
 10
29.39229465058048
 20
3.371968675984938
 10
29.3986583576049
 20
3.378910901829712
 10
29.40588984285985
 20
3.385563868264227
 10
29.46084913079737
 20
3.385563868264227
 10
29.46403098430959
 20
3.385563868264227
 10
29.46779135664215
 20
3.386142387084667
 10
29.4718409883849
 20
3.386720905905023
 10
29.47589062012763
 20
3.387877943545818
 10
29.47994025187046
 20
3.389034981186613
 10
29.48341136479277
 20
3.390770537647768
 10
29.48659321830506
 20
3.392506094109004
 10
29.48890729358657
 20
3.394820169390595
 10
29.54155250624258
 20
3.459035758454477
 10
29.35179833315279
 20
3.459035758454477
 10
29.34630240435899
 20
3.458746499044303
 10
29.3416742537958
 20
3.458457239634122
 10
29.33733536264289
 20
3.457589461403506
 10
29.33357499031031
 20
3.456143164352533
 10
29.32981461797777
 20
3.454407607891292
 10
29.32634350505536
 20
3.452093532609788
 10
29.3225831327228
 20
3.448911679097578
 10
29.31882276039024
 20
3.445151306765013
  0
LWPOLYLINE
  5
94E
330
17
100
AcDbEntity
  8
4
  6
Continuous
100
AcDbPolyline
 90
      205
 70
     0
 43
0.0
 10
29.25291268297087
 20
3.424903148051121
 10
29.24510267889557
 20
3.433002411536696
 10
29.23671415599981
 20
3.440523156201828
 10
29.22716859546325
 20
3.446886863226162
 10
29.21704451610636
 20
3.452382792019966
 10
29.20634191792903
 20
3.457010942583151
 10
29.19535006034151
 20
3.460771314915713
 10
29.18349042452344
 20
3.463663909017662
 10
29.17163078870532
 20
3.465688724889078
 10
29.15977115288716
 20
3.466845762529873
 10
29.14762225765885
 20
3.467135021940053
 10
29.13518410302037
 20
3.466267243709433
 10
29.12332446720223
 20
3.464820946658461
 10
29.11146483138408
 20
3.462217611966686
 10
29.09989445497621
 20
3.458746499044303
 10
29.0889025973887
 20
3.454118348481117
 10
29.07819999921144
 20
3.448911679097578
 10
29.07010073572577
 20
3.443994269124216
 10
29.06257999106065
 20
3.438787599740676
 10
29.0553485058057
 20
3.432713152126517
 10
29.04869553937117
 20
3.426349445102183
 10
29.04233183234685
 20
3.419407219257406
 10
29.03654664414295
 20
3.412175734002451
 10
29.03133997475932
 20
3.404365729927143
 10
29.02642256478596
 20
3.396266466441568
 10
29.0223729330432
 20
3.388167202955995
 10
29.01861256071057
 20
3.379489420650068
 10
29.01571996660861
 20
3.370522378933963
 10
29.01340589132703
 20
3.361555337217859
 10
29.01167033486587
 20
3.352588295501666
 10
29.01080255663526
 20
3.343331994375383
 10
29.01022403781489
 20
3.33378643383884
 10
29.01080255663526
 20
3.324530132712468
 10
29.01109181604545
 20
3.319901982149283
 10
29.01167033486587
 20
3.314984572175921
 10
29.0122488536863
 20
3.310356421612825
 10
29.01340589132703
 20
3.305728271049638
 10
29.01485218837809
 20
3.301389379896631
 10
29.01716626365967
 20
3.297339748153888
 10
29.02005885776162
 20
3.29415789464168
 10
29.02381923009419
 20
3.291843819360086
 10
29.02555478655533
 20
3.290976041129554
 10
29.02729034301657
 20
3.290397522309111
 10
29.029315158888
 20
3.290108262898933
 10
29.03105071534906
 20
3.290108262898933
 10
29.03307553122047
 20
3.290397522309111
 10
29.03510034709189
 20
3.290397522309111
 10
29.03712516296331
 20
3.290976041129554
 10
29.03972849765508
 20
3.291265300539727
 10
29.12563854248381
 20
3.306306789869994
 10
29.12939891481646
 20
3.306885308690433
 10
29.13344854655914
 20
3.307463827510787
 10
29.13720891889177
 20
3.307753086920969
 10
29.14125855063453
 20
3.308042346331228
 10
29.14501892296708
 20
3.308042346331228
 10
29.14906855470992
 20
3.308042346331228
 10
29.15282892704239
 20
3.308042346331228
 10
29.15687855878522
 20
3.307753086920969
 10
29.1606389311177
 20
3.307463827510787
 10
29.16468856286055
 20
3.306885308690433
 10
29.1684489351931
 20
3.306306789869994
 10
29.17220930752568
 20
3.305439011639458
 10
29.1762589392685
 20
3.304571233408845
 10
29.18001931160106
 20
3.303414195768047
 10
29.18349042452344
 20
3.302257158127248
 10
29.18725079685593
 20
3.300810861076276
 10
29.19592857916195
 20
3.29618271051309
 10
29.20287080500673
 20
3.289819003488756
 10
29.20836673380043
 20
3.282298258823622
 10
29.21183784672275
 20
3.273909735927873
 10
29.21386266259417
 20
3.264653434801504
 10
29.2144411814146
 20
3.255107874264959
 10
29.21328414377381
 20
3.2455623137285
 10
29.21039154967186
 20
3.236306012602129
 10
29.20749895556991
 20
3.230231564987971
 10
29.2043171020576
 20
3.224446376783991
 10
29.20026747031496
 20
3.219239707400451
 10
29.19592857916195
 20
3.214322297427088
 10
29.19101116918858
 20
3.209694146863903
 10
29.18580449980505
 20
3.205644515121162
 10
29.18030857101124
 20
3.202173402198773
 10
29.17452338280727
 20
3.198991548686564
 10
29.1684489351931
 20
3.196388213994795
 10
29.16208522816877
 20
3.194363398123464
 10
29.15572152114443
 20
3.192917101072405
 10
29.1493578141201
 20
3.19233858225205
 10
29.14270484768549
 20
3.192049322841868
 10
29.13605188125089
 20
3.192627841662226
 10
29.12968817422664
 20
3.193784879303025
 10
29.12332446720223
 20
3.195520435764258
 10
29.1181177978187
 20
3.197545251635589
 10
29.11320038784533
 20
3.199859326917178
 10
29.10857223728213
 20
3.202173402198773
 10
29.10394408671896
 20
3.205065996300718
 10
29.09931593615586
 20
3.207958590402755
 10
29.09497704500286
 20
3.211429703325142
 10
29.09063815384993
 20
3.214611556837271
 10
29.08658852210711
 20
3.218371929169834
 10
29.08282814977453
 20
3.2221323015024
 10
29.0787785180318
 20
3.226181933245227
 10
29.0753074051094
 20
3.230231564987971
 10
29.07183629218702
 20
3.234281196730712
 10
29.06836517926472
 20
3.238620087883718
 10
29.0651833257525
 20
3.243248238446903
 10
29.06200147224028
 20
3.247587129599828
 10
29.05910887813833
 20
3.252215280163011
 10
28.99055439792144
 20
3.218371929169834
 10
28.99605032671518
 20
3.209404887453727
 10
29.00241403373959
 20
3.201305623968153
 10
29.00935625958427
 20
3.193495619892845
 10
29.01687700424941
 20
3.186264134637892
 10
29.02497626773499
 20
3.179900427613555
 10
29.03365405004091
 20
3.174115239409575
 10
29.04262109175702
 20
3.168908570026035
 10
29.05216665229357
 20
3.164569678873028
 10
29.06200147224028
 20
3.16080930654046
 10
29.07183629218702
 20
3.157627453028338
 10
29.08224963095408
 20
3.155313377746745
 10
29.09266296972125
 20
3.153577821285511
 10
29.10307630848841
 20
3.152710043054975
 10
29.11348964725549
 20
3.152710043054975
 10
29.12390298602266
 20
3.153577821285511
 10
29.13431632478974
 20
3.155024118336481
 10
29.1447296635569
 20
3.157627453028338
 10
29.1548537429138
 20
3.16080930654046
 10
29.16439930345035
 20
3.164858938283287
 10
29.1739448639869
 20
3.170065607666828
 10
29.18291190570301
 20
3.175561536460548
 10
29.19130042859876
 20
3.181925243484883
 10
29.19939969208424
 20
3.188867469329658
 10
29.20692043674947
 20
3.196677473405053
 10
29.21357340318397
 20
3.204776736890543
 10
29.21993711020839
 20
3.213165259786294
 10
29.22543303900211
 20
3.222421560912662
 10
29.23006118956529
 20
3.231967121449125
 10
29.23411082130805
 20
3.241512681985668
 10
29.23729267482026
 20
3.251636761342656
 10
29.23960675010184
 20
3.262050100109732
 10
29.24076378774255
 20
3.272752698287078
 10
29.24105304715273
 20
3.280851961772567
 10
29.24076378774255
 20
3.28895122525814
 10
29.23989600951202
 20
3.29676122933345
 10
29.23844971246096
 20
3.304860492819018
 10
29.23613563717946
 20
3.312381237484153
 10
29.23353230248761
 20
3.319901982149283
 10
29.23006118956529
 20
3.327133467404237
 10
29.22572229841229
 20
3.334075693249013
 10
29.22225118549
 20
3.338703843812198
 10
29.21849081315734
 20
3.342753475554943
 10
29.2144411814146
 20
3.346513847887508
 10
29.20981303085141
 20
3.3499849608099
 10
29.20518488028831
 20
3.353166814322108
 10
29.20026747031496
 20
3.35577014901388
 10
29.19506080093133
 20
3.358373483705646
 10
29.18956487213753
 20
3.36039829957706
 10
29.1840689433438
 20
3.362423115448388
 10
29.17857301455008
 20
3.363869412499363
 10
29.17278782634611
 20
3.365315709550423
 10
29.1672918975523
 20
3.366472747191133
 10
29.16150670934842
 20
3.367340525421754
 10
29.15572152114443
 20
3.367919044242193
 10
29.14993633294045
 20
3.368497563062548
 10
29.14444040414672
 20
3.368786822472727
 10
29.14096929122434
 20
3.369076081882989
 10
29.13720891889177
 20
3.369076081882989
 10
29.13373780596939
 20
3.368786822472727
 10
29.13026669304701
 20
3.368786822472727
 10
29.12679558012461
 20
3.368497563062548
 10
29.12303520779204
 20
3.368208303652371
 10
29.11956409486974
 20
3.367629784831926
 10
29.11609298194728
 20
3.367340525421754
 10
29.11262186902496
 20
3.366762006601399
 10
29.1091507561025
 20
3.366183487780954
 10
29.10539038377002
 20
3.3656049689606
 10
29.10191927084763
 20
3.365026450140156
 10
29.09844815792523
 20
3.364447931319801
 10
29.09497704500286
 20
3.363869412499363
 10
29.09121667267029
 20
3.363290893679009
 10
29.0877455597479
 20
3.362712374858568
 10
29.03625738473268
 20
3.350274220220073
 10
29.03510034709189
 20
3.355191630193439
 10
29.03567886591223
 20
3.362712374858568
 10
29.03770368178366
 20
3.371968675984938
 10
29.04088553529586
 20
3.382382014752101
 10
29.04551368585897
 20
3.392795353519181
 10
29.05129887406303
 20
3.402630173465903
 10
29.05795184049755
 20
3.410729436951478
 10
29.06576184457286
 20
3.416803884565636
 10
29.07270407041763
 20
3.419985738077759
 10
29.07993555567249
 20
3.422299813359351
 10
29.0874563003377
 20
3.424035369820586
 10
29.09526630441312
 20
3.424903148051121
 10
29.10307630848841
 20
3.425192407461386
 10
29.1111755719739
 20
3.424903148051121
 10
29.11898557604921
 20
3.423746110410327
 10
29.12679558012461
 20
3.422010553949176
 10
29.1346055842
 20
3.419696478667582
 10
29.14183706945497
 20
3.416803884565636
 10
29.14906855470992
 20
3.413622031053423
 10
29.15572152114443
 20
3.409861658720858
 10
29.1617959687586
 20
3.405522767567852
 10
29.1672918975523
 20
3.400605357594491
 10
29.17220930752568
 20
3.395398688210951
 10
29.17654819867868
 20
3.389902759417234
 10
29.25291268297087
 20
3.424903148051121
  0
LWPOLYLINE
  5
A1D
330
17
100
AcDbEntity
  8
4
  6
Continuous
100
AcDbPolyline
 90
       61
 70
     0
 43
0.0
 10
29.77901716440861
 20
3.330315320916448
 10
29.78740568730446
 20
3.330893839736803
 10
29.79550495078995
 20
3.332050877377598
 10
29.8027364360449
 20
3.33378643383884
 10
29.8093894024794
 20
3.336100509120428
 10
29.81517459068339
 20
3.338993103222378
 10
29.82067051947711
 20
3.342174956734588
 10
29.82558792945047
 20
3.345935329067153
 10
29.82992682060348
 20
3.350274220220073
 10
29.83368719293613
 20
3.354902370783257
 10
29.83686904644826
 20
3.359819780756621
 10
29.83947238114003
 20
3.365026450140156
 10
29.84149719701143
 20
3.370811638344141
 10
29.84323275347258
 20
3.37659682654812
 10
29.84438979111338
 20
3.382671274162277
 10
29.84496830993374
 20
3.389034981186613
 10
29.84525756934399
 20
3.395687947621126
 10
29.84496830993374
 20
3.401762395235286
 10
29.84381127229303
 20
3.407836842849443
 10
29.84236497524197
 20
3.413622031053423
 10
29.84005089996039
 20
3.419407219257406
 10
29.8374475652686
 20
3.424903148051121
 10
29.83397645234631
 20
3.430109817434747
 10
29.83050533942382
 20
3.435027227408108
 10
29.82616644827091
 20
3.439655377971208
 10
29.82182755711799
 20
3.443705009714038
 10
29.81691014714461
 20
3.447465382046603
 10
29.81170347776109
 20
3.450647235558728
 10
29.80620754896728
 20
3.453539829660763
 10
29.80071162017349
 20
3.455853904942352
 10
29.79492643196959
 20
3.457300201993328
 10
29.78885198435533
 20
3.458457239634122
 10
29.78277753674128
 20
3.458746499044303
 10
29.58000669019255
 20
3.458746499044303
 10
29.5828992842945
 20
3.456432423762707
 10
29.58550261898627
 20
3.454118348481117
 10
29.58810595367804
 20
3.451515013789346
 10
29.59042002895963
 20
3.449200938507756
 10
29.59273410424122
 20
3.446886863226162
 10
29.59504817952281
 20
3.443994269124216
 10
29.59707299539422
 20
3.441101675022268
 10
29.59909781126555
 20
3.437630562099878
 10
29.60199040536757
 20
3.431266855075541
 10
29.60430448064918
 20
3.423746110410327
 10
29.60575077770007
 20
3.416514625155373
 10
29.60632929652052
 20
3.410729436951478
 10
29.60661855593077
 20
3.15068522718356
 10
29.67633007378838
 20
3.211718962735319
 10
29.67633007378838
 20
3.332340136787864
 10
29.70699157126943
 20
3.332629396198037
 10
29.81141421835082
 20
3.159652268899667
 10
29.90137389492232
 20
3.159073750079313
 10
29.89587796612859
 20
3.162255603591436
 10
29.89038203733488
 20
3.166015975924006
 10
29.88517536795134
 20
3.169776348256656
 10
29.88025795797798
 20
3.174115239409575
 10
29.87534054800462
 20
3.178164871152318
 10
29.87071239744144
 20
3.182793021715506
 10
29.86608424687825
 20
3.187421172278686
 10
29.86145609631505
 20
3.19233858225205
 10
29.77901716440861
 20
3.330315320916448
  0
LWPOLYLINE
  5
A5C
330
17
100
AcDbEntity
  8
4
  6
Continuous
100
AcDbPolyline
 90
       21
 70
     0
 43
0.0
 10
29.77757086735774
 20
3.395687947621126
 10
29.77670308912703
 20
3.386720905905023
 10
29.77409975443526
 20
3.378332383009272
 10
29.77005012269252
 20
3.371100897754318
 10
29.7645541938987
 20
3.364737190729984
 10
29.75790122746428
 20
3.359530521346443
 10
29.75038048279906
 20
3.35577014901388
 10
29.74228121931349
 20
3.353456073732282
 10
29.73360343700765
 20
3.352588295501666
 10
29.67546229555784
 20
3.352588295501666
 10
29.67546229555784
 20
3.426927963922538
 10
29.6693878479436
 20
3.441101675022268
 10
29.73447121523817
 20
3.441101675022268
 10
29.74343825695438
 20
3.440233896791647
 10
29.75153752043987
 20
3.437630562099878
 10
29.75876900569481
 20
3.433580930357051
 10
29.76513271271924
 20
3.428085001563333
 10
29.77033938210278
 20
3.421142775718557
 10
29.77409975443526
 20
3.413622031053423
 10
29.77670308912703
 20
3.404944248747497
 10
29.77757086735774
 20
3.395687947621126
  0
LINE
  5
A73
330
17
100
AcDbEntity
  8
0
100
AcDbLine
 10
30.95000730842624
 20
2.177674272979741
 30
0.0
 11
30.95000730842624
 21
2.537827578566153
 31
0.0
  0
TEXT
  5
A74
330
17
100
AcDbEntity
  8
3
100
AcDbText
 10
30.75085217219045
 20
2.281398689203137
 30
0.0
 40
0.1563045964277055
  1
1
  7
SIMPLEX
100
AcDbText
  0
TEXT
  5
A75
330
17
100
AcDbEntity
  8
3
100
AcDbText
 10
31.67706885038315
 20
2.296484104436288
 30
0.0
 40
0.1071624313108349
  1
.50=1
  7
SIMPLEX
 72
     1
 11
31.88373925362548
 21
2.296484104436288
 31
0.0
100
AcDbText
  0
TEXT
  5
A76
330
17
100
AcDbEntity
  8
3
100
AcDbText
 10
31.15988819379656
 20
2.312278887805056
 30
0.0
 40
0.0781522982138528
  1
SCALE:
  7
SIMPLEX
100
AcDbText
  0
LINE
  5
A77
330
17
100
AcDbEntity
  8
0
100
AcDbLine
 10
31.62950958281673
 20
1.599999999999995
 30
0.0
 11
31.62950958281673
 21
2.177674272979741
 31
0.0
  0
TEXT
  5
A78
330
17
100
AcDbEntity
  8
3
100
AcDbText
 10
31.90737487125105
 20
1.717904679869008
 30
0.0
 40
0.1750611479990302
  1
A
  7
SIMPLEX
 72
     1
 11
31.97406483239354
 21
1.717904679869008
 31
0.0
100
AcDbText
  0
TEXT
  5
A79
330
17
100
AcDbEntity
  8
3
100
AcDbText
 10
31.86587590401092
 20
2.030693672726664
 30
0.0
 40
0.0781522982138528
  1
REV.
  7
SIMPLEX
100
AcDbText
  0
TEXT
  5
A7A
330
17
100
AcDbEntity
  8
4
100
AcDbText
 10
30.72157383827758
 20
3.154739855979533
 30
0.0
 40
0.187
  1
inc., erie, pa.
  7
T
100
AcDbText
  0
LWPOLYLINE
  5
A7C
330
17
100
AcDbEntity
  8
4
  6
Continuous
 62
     4
100
AcDbPolyline
 90
      205
 70
     0
 43
0.0
 10
30.5771595587393
 20
3.422878332179793
 10
30.56934955466399
 20
3.430977595665281
 10
30.56096103176815
 20
3.438209080920235
 10
30.55141547123169
 20
3.444572787944573
 10
30.54129139187471
 20
3.450357976148553
 10
30.53058879369745
 20
3.454986126711736
 10
30.51959693610984
 20
3.458746499044303
 10
30.50802655970198
 20
3.461639093146247
 10
30.4961669238839
 20
3.463663909017662
 10
30.4840180286556
 20
3.464531687248283
 10
30.47186913342728
 20
3.464820946658461
 10
30.45972023819897
 20
3.464242427838103
 10
30.44757134297065
 20
3.462506871376866
 10
30.43571170715251
 20
3.459903536685098
 10
30.42414133074455
 20
3.456432423762707
 10
30.41314947315711
 20
3.452093532609788
 10
30.40244687497969
 20
3.446886863226162
 10
30.3943476114942
 20
3.441969453252799
 10
30.38682686682907
 20
3.436473524459083
 10
30.37959538157411
 20
3.430688336255101
 10
30.37294241513952
 20
3.424324629230768
 10
30.36657870811527
 20
3.417382403385991
 10
30.3607935199112
 20
3.409861658720858
 10
30.35529759111749
 20
3.402340914055728
 10
30.3506694405543
 20
3.394241650570153
 10
30.34633054940137
 20
3.385853127674403
 10
30.34257017706881
 20
3.377175345368475
 10
30.33967758296687
 20
3.368497563062548
 10
30.33736350768527
 20
3.359530521346443
 10
30.33562795122403
 20
3.350274220220073
 10
30.33447091358323
 20
3.341017919093788
 10
30.33418165417307
 20
3.331761617967423
 10
30.33476017299352
 20
3.322505316841137
 10
30.33504943240366
 20
3.317587906867776
 10
30.33562795122403
 20
3.312959756304595
 10
30.33620647004439
 20
3.308042346331228
 10
30.33736350768527
 20
3.303414195768047
 10
30.33909906414642
 20
3.299075304615037
 10
30.34112388001775
 20
3.295025672872297
 10
30.34430573352997
 20
3.291843819360086
 10
30.34806610586253
 20
3.28952974407858
 10
30.34980166232377
 20
3.288661965847957
 10
30.35153721878491
 20
3.288083447027517
 10
30.35356203465634
 20
3.288083447027517
 10
30.35529759111749
 20
3.288083447027517
 10
30.3573224069889
 20
3.288083447027517
 10
30.35934722286031
 20
3.288372706437785
 10
30.3616612981419
 20
3.28895122525814
 10
30.36426463283367
 20
3.289240484668313
 10
30.45017467766242
 20
3.304281973998662
 10
30.453935049995
 20
3.304860492819018
 10
30.45798468173773
 20
3.305149752229198
 10
30.46174505407038
 20
3.305728271049638
 10
30.46579468581304
 20
3.305728271049638
 10
30.46955505814569
 20
3.306017530459817
 10
30.47360468988844
 20
3.306017530459817
 10
30.47736506222101
 20
3.305728271049638
 10
30.48141469396383
 20
3.305439011639458
 10
30.48517506629631
 20
3.305149752229198
 10
30.48922469803914
 20
3.304571233408845
 10
30.4929850703717
 20
3.303992714588401
 10
30.49674544270427
 20
3.303124936357868
 10
30.50050581503685
 20
3.302257158127248
 10
30.5042661873694
 20
3.301389379896631
 10
30.50802655970198
 20
3.300232342255833
 10
30.51149767262436
 20
3.29878604520486
 10
30.52017545493037
 20
3.29415789464168
 10
30.52740694018523
 20
3.287794187617341
 10
30.53261360956886
 20
3.280273442952208
 10
30.53637398190135
 20
3.271595660646285
 10
30.53839879777276
 20
3.262628618930176
 10
30.53868805718294
 20
3.253083058393629
 10
30.53753101954221
 20
3.243537497857084
 10
30.53463842544019
 20
3.233991937320536
 10
30.53174583133817
 20
3.227917489706379
 10
30.52856397782604
 20
3.2221323015024
 10
30.52451434608321
 20
3.216925632118858
 10
30.52017545493037
 20
3.212008222145497
 10
30.51554730436719
 20
3.207380071582313
 10
30.51034063498356
 20
3.203330439839568
 10
30.50455544677958
 20
3.199859326917178
 10
30.49877025857568
 20
3.196677473405053
 10
30.49269581096152
 20
3.194074138713198
 10
30.48662136334737
 20
3.19233858225205
 10
30.47996839691277
 20
3.190892285201075
 10
30.47360468988844
 20
3.190024506970456
 10
30.46724098286411
 20
3.18973524756028
 10
30.4605880164295
 20
3.190313766380633
 10
30.45422430940516
 20
3.191470804021428
 10
30.44786060238083
 20
3.193495619892845
 10
30.44265393299729
 20
3.195520435764258
 10
30.43773652302393
 20
3.197834511045765
 10
30.43281911305057
 20
3.200148586327359
 10
30.42819096248738
 20
3.203041180429393
 10
30.42356281192418
 20
3.205933774531338
 10
30.4192239207712
 20
3.209115628043548
 10
30.41517428902853
 20
3.212586740965939
 10
30.41083539787552
 20
3.216347113298505
 10
30.40707502554287
 20
3.220107485631068
 10
30.40331465321039
 20
3.223867857963633
 10
30.39955428087774
 20
3.227917489706379
 10
30.39608316795544
 20
3.232256380859384
 10
30.39261205503296
 20
3.236595272012309
 10
30.38943020152084
 20
3.240934163165314
 10
30.38624834800872
 20
3.245273054318233
 10
30.38335575390668
 20
3.249901204881417
 10
30.31451201427961
 20
3.216347113298505
 10
30.32000794307332
 20
3.207380071582313
 10
30.32637165009767
 20
3.198991548686564
 10
30.33331387594244
 20
3.191181544611255
 10
30.34083462060757
 20
3.184239318766477
 10
30.34893388409314
 20
3.177586352331966
 10
30.35761166639908
 20
3.171801164127986
 10
30.36686796752544
 20
3.166594494744446
 10
30.37612426865172
 20
3.162255603591436
 10
30.38595908859854
 20
3.15849523125887
 10
30.39608316795544
 20
3.155313377746745
 10
30.40649650672252
 20
3.152999302465156
 10
30.41690984548961
 20
3.15155300541418
 10
30.42732318425676
 20
3.15068522718356
 10
30.43773652302393
 20
3.15068522718356
 10
30.44814986179101
 20
3.151263746003913
 10
30.45856320055809
 20
3.152999302465156
 10
30.46897653932534
 20
3.155313377746745
 10
30.47910061868224
 20
3.158784490669049
 10
30.48864617921879
 20
3.162834122411878
 10
30.49819173975524
 20
3.16775153238524
 10
30.50715878147136
 20
3.173536720589218
 10
30.51583656377737
 20
3.179900427613555
 10
30.52364656785267
 20
3.186842653458243
 10
30.53116731251781
 20
3.194363398123464
 10
30.53810953836258
 20
3.202462661608948
 10
30.54418398597674
 20
3.21114044391488
 10
30.54967991477055
 20
3.220107485631068
 10
30.55459732474382
 20
3.229653046167614
 10
30.55835769707638
 20
3.239487866114338
 10
30.56153955058859
 20
3.249611945471241
 10
30.56385362587018
 20
3.260025284238321
 10
30.56501066351099
 20
3.270438623005483
 10
30.56558918233134
 20
3.27853788649106
 10
30.56529992292116
 20
3.286637149976542
 10
30.56443214469063
 20
3.294736413462117
 10
30.56298584763957
 20
3.302546417537428
 10
30.56067177235798
 20
3.310356421612825
 10
30.55777917825603
 20
3.317877166277953
 10
30.55430806533364
 20
3.325108651532908
 10
30.54996917418072
 20
3.332050877377598
 10
30.54649806125825
 20
3.336389768530606
 10
30.54273768892576
 20
3.340728659683528
 10
30.53868805718294
 20
3.344489032016178
 10
30.53434916603003
 20
3.347670885528303
 10
30.52943175605657
 20
3.350852739040512
 10
30.52451434608321
 20
3.353745333142464
 10
30.51930767669967
 20
3.356059408424053
 10
30.51410100731612
 20
3.358373483705646
 10
30.50860507852241
 20
3.360109040166798
 10
30.50310914972861
 20
3.361844596628031
 10
30.49732396152463
 20
3.363290893679009
 10
30.49153877332073
 20
3.364447931319801
 10
30.48575358511674
 20
3.365315709550423
 10
30.47996839691277
 20
3.365894228370778
 10
30.47418320870888
 20
3.366472747191133
 10
30.46868727991507
 20
3.366762006601399
 10
30.46521616699268
 20
3.366762006601399
 10
30.46145579466013
 20
3.366762006601399
 10
30.45798468173773
 20
3.366762006601399
 10
30.45451356881543
 20
3.366472747191133
 10
30.45104245589296
 20
3.366183487780954
 10
30.44757134297065
 20
3.365894228370778
 10
30.44410023004826
 20
3.3656049689606
 10
30.44062911712588
 20
3.365026450140156
 10
30.4368687447933
 20
3.364447931319801
 10
30.43339763187093
 20
3.363869412499363
 10
30.42992651894854
 20
3.363290893679009
 10
30.42645540602614
 20
3.36300163426883
 10
30.42298429310384
 20
3.362423115448388
 10
30.41951318018146
 20
3.361844596628031
 10
30.41575280784889
 20
3.361266077807593
 10
30.41228169492651
 20
3.360687558987239
 10
30.36050426050102
 20
3.347960144938482
 10
30.35963648227049
 20
3.352877554911843
 10
30.36021500109085
 20
3.36039829957706
 10
30.36195055755208
 20
3.369654600703343
 10
30.36542167047439
 20
3.380067939470507
 10
30.36976056162739
 20
3.390481278237586
 10
30.37554574983138
 20
3.400316098184313
 10
30.38248797567606
 20
3.408415361669886
 10
30.39029797975145
 20
3.414489809284042
 10
30.39724020559615
 20
3.417671662796167
 10
30.40447169085111
 20
3.420274997488021
 10
30.41199243551624
 20
3.421721294538997
 10
30.41980243959164
 20
3.422878332179793
 10
30.42761244366703
 20
3.423167591589971
 10
30.43571170715251
 20
3.422589072769531
 10
30.44352171122783
 20
3.421721294538997
 10
30.45133171530321
 20
3.419985738077759
 10
30.45914171937854
 20
3.417671662796167
 10
30.46637320463349
 20
3.414779068694221
 10
30.47331543047818
 20
3.411307955771833
 10
30.47996839691277
 20
3.407547583439267
 10
30.48604284452692
 20
3.403208692286345
 10
30.49182803273091
 20
3.398291282312984
 10
30.49674544270427
 20
3.393084612929356
 10
30.50079507444709
 20
3.387588684135645
 10
30.5771595587393
 20
3.422878332179793
  0
CIRCLE
  5
B4C
330
17
100
AcDbEntity
  8
0
  6
Continuous
100
AcDbCircle
 10
13.34264087068626
 20
8.855905088575187
 30
0.0
 40
1.990187599729114
  0
CIRCLE
  5
B4D
330
17
100
AcDbEntity
  8
0
  6
Continuous
100
AcDbCircle
 10
13.34264087068626
 20
8.855905088575187
 30
0.0
 40
1.768666718653737
  0
CIRCLE
  5
B4E
330
17
100
AcDbEntity
  8
0
  6
Continuous
100
AcDbCircle
 10
13.34264087068626
 20
8.855905088575187
 30
0.0
 40
1.643654934751156
  0
CIRCLE
  5
B4F
330
17
100
AcDbEntity
  8
0
  6
Continuous
100
AcDbCircle
 10
15.5328473246595
 20
8.855905088575187
 30
0.0
 40
0.2000188542441324
  0
CIRCLE
  5
B50
330
17
100
AcDbEntity
  8
0
  6
Continuous
100
AcDbCircle
 10
15.5328473246595
 20
8.855905088575187
 30
0.0
 40
0.1000094271220662
  0
CIRCLE
  5
B51
330
17
100
AcDbEntity
  8
0
  6
Continuous
 62
     7
100
AcDbCircle
 10
13.34264087068626
 20
8.855905088575187
 30
0.0
 40
2.390225308217379
  0
CIRCLE
  5
B52
330
17
100
AcDbEntity
  8
0
  6
Continuous
100
AcDbCircle
 10
14.43774409767289
 20
10.75267951724865
 30
0.0
 40
0.2000188542441324
  0
CIRCLE
  5
B53
330
17
100
AcDbEntity
  8
0
  6
Continuous
100
AcDbCircle
 10
14.43774409767289
 20
10.75267951724865
 30
0.0
 40
0.1000094271220662
  0
CIRCLE
  5
B54
330
17
100
AcDbEntity
  8
0
  6
Continuous
100
AcDbCircle
 10
12.24753764369963
 20
10.75267951724865
 30
0.0
 40
0.2000188542441324
  0
CIRCLE
  5
B55
330
17
100
AcDbEntity
  8
0
  6
Continuous
100
AcDbCircle
 10
12.24753764369963
 20
10.75267951724865
 30
0.0
 40
0.1000094271220662
  0
CIRCLE
  5
B56
330
17
100
AcDbEntity
  8
0
  6
Continuous
 62
     7
100
AcDbCircle
 10
11.15243441671301
 20
8.855905088575187
 30
0.0
 40
0.2000188542441324
  0
CIRCLE
  5
B57
330
17
100
AcDbEntity
  8
0
  6
Continuous
 62
     7
100
AcDbCircle
 10
11.15243441671301
 20
8.855905088575187
 30
0.0
 40
0.1000094271220662
  0
CIRCLE
  5
B58
330
17
100
AcDbEntity
  8
0
  6
Continuous
100
AcDbCircle
 10
12.24753764369963
 20
6.959130659901712
 30
0.0
 40
0.2000188542441324
  0
CIRCLE
  5
B59
330
17
100
AcDbEntity
  8
0
  6
Continuous
100
AcDbCircle
 10
12.24753764369963
 20
6.959130659901712
 30
0.0
 40
0.1000094271220662
  0
CIRCLE
  5
B5A
330
17
100
AcDbEntity
  8
0
  6
Continuous
100
AcDbCircle
 10
14.43774409767289
 20
6.959130659901719
 30
0.0
 40
0.2000188542441324
  0
CIRCLE
  5
B5B
330
17
100
AcDbEntity
  8
0
  6
Continuous
100
AcDbCircle
 10
14.43774409767289
 20
6.959130659901719
 30
0.0
 40
0.1000094271220662
  0
LINE
  5
B5C
330
17
100
AcDbEntity
  8
0
  6
Continuous
100
AcDbLine
 10
20.75762107372992
 20
11.24613039679256
 30
0.0
 11
20.96764087068626
 21
11.24613039679257
 31
0.0
  0
LINE
  5
B5D
330
17
100
AcDbEntity
  8
0
  6
Continuous
100
AcDbLine
 10
20.75762107372992
 20
6.465679780357806
 30
0.0
 11
20.96764087068626
 21
6.465679780357806
 31
0.0
  0
LINE
  5
B5E
330
17
100
AcDbEntity
  8
0
  6
Continuous
100
AcDbLine
 10
20.96764087068626
 20
6.465679780357806
 30
0.0
 11
20.96764087068626
 21
11.24613039679257
 31
0.0
  0
LINE
  5
B5F
330
17
100
AcDbEntity
  8
0
  6
Continuous
100
AcDbLine
 10
19.25747966689893
 20
10.8460926883043
 30
0.0
 11
20.71761730288109
 21
10.8460926883043
 31
0.0
  0
LINE
  5
B60
330
17
100
AcDbEntity
  8
0
  6
Continuous
100
AcDbLine
 10
19.25747966689893
 20
6.865717488846072
 30
0.0
 11
20.71761730288109
 21
6.865717488846072
 31
0.0
  0
LINE
  5
B61
330
17
100
AcDbEntity
  8
0
  6
Continuous
100
AcDbLine
 10
20.71761730288109
 20
6.505683551206632
 30
0.0
 11
20.71761730288109
 21
6.865717488846072
 31
0.0
  0
LINE
  5
B62
330
17
100
AcDbEntity
  8
0
  6
Continuous
100
AcDbLine
 10
20.71761730288109
 20
10.8460926883043
 30
0.0
 11
20.71761730288109
 21
11.20612662594374
 31
0.0
  0
LINE
  5
B63
330
17
100
AcDbEntity
  8
0
  6
Continuous
100
AcDbLine
 10
20.84262908678368
 20
7.212250153824032
 30
0.0
 11
20.96764087068626
 21
7.212250153824032
 31
0.0
  0
LINE
  5
B64
330
17
100
AcDbEntity
  8
0
  6
Continuous
100
AcDbLine
 10
20.84262908678368
 20
10.49956002332634
 30
0.0
 11
20.96764087068626
 21
10.49956002332634
 31
0.0
  0
LINE
  5
B65
330
17
100
AcDbEntity
  8
0
  6
Continuous
100
AcDbLine
 10
19.29748343774775
 20
10.62457180722892
 30
0.0
 11
20.84262908678369
 21
10.62457180722892
 31
0.0
  0
LINE
  5
B66
330
17
100
AcDbEntity
  8
0
  6
Continuous
100
AcDbLine
 10
19.29748343774775
 20
7.087238369921447
 30
0.0
 11
20.84262908678368
 21
7.087238369921447
 31
0.0
  0
LINE
  5
B67
330
17
100
AcDbEntity
  8
0
  6
Continuous
100
AcDbLine
 10
20.84262908678368
 20
7.087238369921447
 30
0.0
 11
20.84262908678369
 21
10.62457180722892
 31
0.0
  0
LINE
  5
B68
330
17
100
AcDbEntity
  8
0
  6
Continuous
100
AcDbLine
 10
20.71761730288109
 20
6.56568920747987
 30
0.0
 11
20.96764087068626
 21
6.56568920747987
 31
0.0
  0
LINE
  5
B69
330
17
100
AcDbEntity
  8
0
  6
Continuous
100
AcDbLine
 10
20.71761730288109
 20
11.1461209696705
 30
0.0
 11
20.96764087068626
 21
11.1461209696705
 31
0.0
  0
LINE
  5
B6A
330
17
100
AcDbEntity
  8
0
  6
Continuous
100
AcDbLine
 10
20.71761730288109
 20
6.765708061724001
 30
0.0
 11
20.96764087068626
 21
6.765708061724001
 31
0.0
  0
LINE
  5
B6B
330
17
100
AcDbEntity
  8
0
  6
Continuous
100
AcDbLine
 10
20.71761730288109
 20
10.94610211542637
 30
0.0
 11
20.96764087068626
 21
10.94610211542637
 31
0.0
  0
ARC
  5
B6C
330
17
100
AcDbEntity
  8
0
  6
Continuous
100
AcDbCircle
 10
19.29748343774775
 20
10.66457557807776
 30
0.0
 40
0.0400037708488265
100
AcDbArc
 50
180.0
 51
270.0000000000001
  0
ARC
  5
B6D
330
17
100
AcDbEntity
  8
0
  6
Continuous
100
AcDbCircle
 10
19.29748343774775
 20
7.047234599072615
 30
0.0
 40
0.0400037708488265
100
AcDbArc
 50
90.0
 51
180.0
  0
LINE
  5
B6E
330
17
100
AcDbEntity
  8
0
  6
Continuous
100
AcDbLine
 10
19.25747966689893
 20
6.865717488846072
 30
0.0
 11
19.25747966689893
 21
10.8460926883043
 31
0.0
  0
ARC
  5
B6F
330
17
100
AcDbEntity
  8
0
  6
Continuous
100
AcDbCircle
 10
20.75762107372992
 20
6.505683551206632
 30
0.0
 40
0.0400037708488265
100
AcDbArc
 50
180.0000000000001
 51
270.0
  0
ARC
  5
B70
330
17
100
AcDbEntity
  8
0
  6
Continuous
100
AcDbCircle
 10
20.75762107372992
 20
11.20612662594374
 30
0.0
 40
0.0400037708488265
100
AcDbArc
 50
90.00000000000019
 51
179.9999999999999
  0
INSERT
  5
B71
330
17
100
AcDbEntity
  8
3
  6
Continuous
 62
     3
100
AcDbBlockReference
  2
*X0
 10
24.51763732981647
 20
4.314975016353453
 30
0.0
 41
1.000094271220659
 42
1.000094271220659
 43
1.000094271220659
 50
90.0
1001
ACAD
1000
HATCH
1002
{
1070
    16
1000
ANSI31
1040
1.0
1040
0.0
1002
}
  0
INSERT
  5
B72
330
17
100
AcDbEntity
  8
3
  6
Continuous
 62
     3
100
AcDbBlockReference
  2
*X1
 10
24.51763732981647
 20
4.314975016353453
 30
0.0
 41
1.000094271220659
 42
1.000094271220659
 43
1.000094271220659
 50
90.0
1001
ACAD
1000
HATCH
1002
{
1070
    16
1000
ANSI31
1040
1.0
1040
0.0
1002
}
  0
TEXT
  5
B9E
330
17
100
AcDbEntity
  8
DIE
  6
Continuous
 62
     4
100
AcDbText
 10
16.24582461826111
 20
18.28090503058892
 30
0.0
 40
0.15
  1

  7
CHPROP
 72
     1
 11
16.24582461826111
 21
18.35590503058892
 31
0.0
100
AcDbText
 73
     2
  0
POINT
  5
BEA
330
17
100
AcDbEntity
  8
DEFPOINTS
  6
ByBlock
 62
     0
100
AcDbPoint
 10
14.46737781054619
 20
6.863612449205397
 30
0.0
  0
POINT
  5
BEB
330
17
100
AcDbEntity
  8
DEFPOINTS
  6
ByBlock
 62
     0
100
AcDbPoint
 10
14.40811038479959
 20
7.054648870598041
 30
0.0
  0
POINT
  5
BF3
330
17
100
AcDbEntity
  8
DEFPOINTS
  6
ByBlock
 62
     0
100
AcDbPoint
 10
20.76876243390413
 20
11.24613039679256
 30
0.0
  0
POINT
  5
BF4
330
17
100
AcDbEntity
  8
DEFPOINTS
  6
ByBlock
 62
     0
100
AcDbPoint
 10
20.77579232354874
 20
6.465679780357806
 30
0.0
  0
POINT
  5
BFD
330
17
100
AcDbEntity
  8
DEFPOINTS
  6
ByBlock
 62
     0
100
AcDbPoint
 10
19.25747966689893
 20
10.8460926883043
 30
0.0
  0
POINT
  5
BFE
330
17
100
AcDbEntity
  8
DEFPOINTS
  6
ByBlock
 62
     0
100
AcDbPoint
 10
19.25747966689893
 20
6.865717488846072
 30
0.0
  0
POINT
  5
C07
330
17
100
AcDbEntity
  8
DEFPOINTS
  6
ByBlock
 62
     0
100
AcDbPoint
 10
19.29748343774775
 20
10.62457180722892
 30
0.0
  0
POINT
  5
C08
330
17
100
AcDbEntity
  8
DEFPOINTS
  6
ByBlock
 62
     0
100
AcDbPoint
 10
19.44706029297915
 20
7.087238369921447
 30
0.0
  0
POINT
  5
C11
330
17
100
AcDbEntity
  8
DEFPOINTS
  6
ByBlock
 62
     0
100
AcDbPoint
 10
20.96764087068626
 20
6.465679780357806
 30
0.0
  0
POINT
  5
C12
330
17
100
AcDbEntity
  8
DEFPOINTS
  6
ByBlock
 62
     0
100
AcDbPoint
 10
20.71761730288109
 20
6.52385480102545
 30
0.0
  0
POINT
  5
C19
330
17
100
AcDbEntity
  8
DEFPOINTS
  6
ByBlock
 62
     0
100
AcDbPoint
 10
19.25747966689893
 20
6.865717488846072
 30
0.0
  0
POINT
  5
C1A
330
17
100
AcDbEntity
  8
DEFPOINTS
  6
ByBlock
 62
     0
100
AcDbPoint
 10
20.84262908678368
 20
7.106016458128812
 30
0.0
  0
POINT
  5
C23
330
17
100
AcDbEntity
  8
DEFPOINTS
  6
ByBlock
 62
     0
100
AcDbPoint
 10
20.96764087068626
 20
11.24613039679257
 30
0.0
  0
POINT
  5
C24
330
17
100
AcDbEntity
  8
DEFPOINTS
  6
ByBlock
 62
     0
100
AcDbPoint
 10
19.25747966689893
 20
10.8460926883043
 30
0.0
  0
POINT
  5
C2D
330
17
100
AcDbEntity
  8
DEFPOINTS
  6
ByBlock
 62
     0
100
AcDbPoint
 10
20.96764087068626
 20
7.212250153824032
 30
0.0
  0
POINT
  5
C2E
330
17
100
AcDbEntity
  8
DEFPOINTS
  6
ByBlock
 62
     0
100
AcDbPoint
 10
20.96764087068626
 20
10.49956002332634
 30
0.0
  0
TEXT
  5
C3E
330
17
100
AcDbEntity
  8
3
100
AcDbText
 10
21.9378923163171
 20
16.4702192729104
 30
0.0
 40
0.2
  1
 
  7
SIMPLEX
100
AcDbText
  0
TEXT
  5
177F
330
17
100
AcDbEntity
  8
DIE
  6
Continuous
 62
     4
100
AcDbText
 10
16.22765408035141
 20
-4.864181339533093
 30
0.0
 40
0.15
  1

  7
CHPROP
 72
     1
 11
16.22765408035141
 21
-4.789181339533093
 31
0.0
100
AcDbText
 73
     2
  0
DIMENSION
  5
1A48
330
17
100
AcDbEntity
  8
0
100
AcDbDimension
  2
*D3
 10
19.25747966689893
 20
12.43224760727901
 30
0.0
 11
20.1125602687926
 21
12.43224760727901
 31
0.0
 70
    32
 71
     5
 42
1.710161203787329
  3
STANDARD
100
AcDbAlignedDimension
 13
20.96764087068626
 23
11.24613039679257
 33
0.0
 14
19.25747966689893
 24
10.8460926883043
 34
0.0
100
AcDbRotatedDimension
1001
ACAD
1000
DSTYLE
1002
{
1070
    40
1040
2.0
1070
    41
1040
0.125
1070
    44
1040
0.0625
1070
    73
1070
     0
1070
    74
1070
     0
1070
    78
1070
     4
1070
    90
1070
     1
1070
   140
1040
0.125
1070
   141
1040
-0.125
1070
   271
1070
     3
1070
   272
1070
     3
1070
   279
1070
     2
1070
   284
1070
     4
1070
   285
1070
     4
1070
   286
1070
     4
1070
   345
1005
11
1070
   346
1005
11
1070
   347
1005
11
1002
}
  0
DIMENSION
  5
1A57
330
17
100
AcDbEntity
  8
0
100
AcDbDimension
  2
*D4
 10
13.0385106720337
 20
6.485107364957581
 30
0.0
 11
13.81016732411599
 21
12.50043186175654
 31
0.0
 70
    35
 71
     5
 42
4.780450616434759
  3
STANDARD
100
AcDbDiametricDimension
 15
13.64677106933882
 25
11.22670281219279
 35
0.0
 40
0.0
1001
ACAD_DSTYLE_DIMRADIAL_EXTENSION
1070
   387
1070
     1
1070
   388
1040
0.0
1070
   390
1040
0.0
1001
ACAD
1000
DSTYLE
1002
{
1070
    40
1040
2.0
1070
    41
1040
0.125
1070
    44
1040
0.0625
1070
    73
1070
     0
1070
    74
1070
     0
1070
    78
1070
     4
1070
    90
1070
     1
1070
   140
1040
0.125
1070
   141
1040
-0.125
1070
   271
1070
     3
1070
   272
1070
     3
1070
   279
1070
     2
1070
   284
1070
     4
1070
   285
1070
     4
1070
   286
1070
     4
1070
   345
1005
11
1070
   346
1005
11
1070
   347
1005
11
1002
}
  0
DIMENSION
  5
1A66
330
17
100
AcDbEntity
  8
0
100
AcDbDimension
  2
*D5
 10
18.35091491392586
 20
7.087238369921447
 30
0.0
 11
18.35091491392586
 21
8.875906973999605
 31
0.0
 70
    32
 71
     5
 42
3.57733720815631
  3
STANDARD
100
AcDbAlignedDimension
 13
19.25747966689892
 23
10.66457557807776
 33
0.0
 14
19.25747966689892
 24
7.087238369921447
 34
0.0
 50
90.0
100
AcDbRotatedDimension
1001
ACAD
1000
DSTYLE
1002
{
1070
    40
1040
2.0
1070
    41
1040
0.125
1070
    44
1040
0.0625
1070
    73
1070
     0
1070
    74
1070
     0
1070
    78
1070
     4
1070
    90
1070
     1
1070
   140
1040
0.125
1070
   141
1040
-0.125
1070
   271
1070
     3
1070
   272
1070
     3
1070
   279
1070
     2
1070
   284
1070
     4
1070
   285
1070
     4
1070
   286
1070
     4
1070
   345
1005
11
1070
   346
1005
11
1070
   347
1005
11
1002
}
  0
ENDSEC
  0
SECTION
  2
OBJECTS
  0
DICTIONARY
  5
C
330
0
100
AcDbDictionary
281
     1
  3
ACAD_2007HEADERVARS_RT
350
1A8D
  3
ACAD_CIP_PREVIOUS_PRODUCT_INFO
350
18B3
  3
ACAD_COLOR
350
188F
  3
ACAD_DETAILVIEWSTYLE
350
18A9
  3
ACAD_GROUP
350
D
  3
ACAD_LAYOUT
350
18AB
  3
ACAD_MATERIAL
350
185D
  3
ACAD_MLEADERSTYLE
350
18A4
  3
ACAD_MLINESTYLE
350
1A
  3
ACAD_PLOTSETTINGS
350
18AC
  3
ACAD_PLOTSTYLENAME
350
185B
  3
ACAD_SCALELIST
350
1892
  3
ACAD_SECTIONVIEWSTYLE
350
18A6
  3
ACAD_TABLESTYLE
350
1890
  3
ACAD_VISUALSTYLE
350
1876
  3
ACDB_RECOMPOSE_DATA
350
1A8B
  3
ACDBVARIABLEDICTIONARY
350
2F
  3
AcDsDecomposeData
350
1A97
  3
AcmDictionary
350
18E0
  3
AMG
350
18B5
  3
AMGSNAPSETTINGS
350
197A
  3
DWGPROPS
350
1A8C
  0
DICTIONARY
  5
198F
330
8
100
AcDbDictionary
280
     1
281
     1
  0
DICTIONARY
  5
19E3
330
2
100
AcDbDictionary
280
     1
281
     1
  3
ACAD_LAYERSTATES
360
19E4
  0
DICTIONARY
  5
1981
330
E
100
AcDbDictionary
280
     1
281
     1
  3
ADSK_XREC_LAYER_RECONCILED
360
1982
  0
DICTIONARY
  5
1983
330
26
100
AcDbDictionary
280
     1
281
     1
  3
ADSK_XREC_LAYER_RECONCILED
360
1984
  0
DICTIONARY
  5
1985
330
27
100
AcDbDictionary
280
     1
281
     1
  3
ADSK_XREC_LAYER_RECONCILED
360
1986
  0
DICTIONARY
  5
1987
330
28
100
AcDbDictionary
280
     1
281
     1
  3
ADSK_XREC_LAYER_RECONCILED
360
1988
  0
DICTIONARY
  5
1989
330
29
100
AcDbDictionary
280
     1
281
     1
  3
ADSK_XREC_LAYER_RECONCILED
360
198A
  0
DICTIONARY
  5
1AD6
330
1A5C
100
AcDbDictionary
280
     1
281
     1
  3
ACAD_MTEXT_RT
360
1AD7
  0
DICTIONARY
  5
1A8D
102
{ACAD_REACTORS
330
C
102
}
330
C
100
AcDbDictionary
281
     1
  3
DIMARCSYM
350
1A8E
  3
DIMLTEX1
350
1A90
  3
DIMLTEX2
350
1A91
  3
DIMLTYPE
350
1A8F
  0
XRECORD
  5
18B3
102
{ACAD_REACTORS
330
C
102
}
330
C
100
AcDbXrecord
280
     1
300
AMECH_PP
300
2015
300
PDSU_F_S
  0
DICTIONARY
  5
188F
102
{ACAD_REACTORS
330
C
102
}
330
C
100
AcDbDictionary
281
     1
  0
DICTIONARY
  5
18A9
102
{ACAD_REACTORS
330
C
102
}
330
C
100
AcDbDictionary
281
     1
  3
Imperial24
350
18AA
  0
DICTIONARY
  5
D
102
{ACAD_REACTORS
330
C
102
}
330
C
100
AcDbDictionary
281
     1
  0
DICTIONARY
  5
18AB
102
{ACAD_REACTORS
330
C
102
}
330
C
100
AcDbDictionary
281
     1
  3
Layout1
350
18AE
  3
Model
350
18AD
  0
DICTIONARY
  5
185D
102
{ACAD_REACTORS
330
C
102
}
330
C
100
AcDbDictionary
281
     1
  3
ByBlock
350
1866
  3
ByLayer
350
185E
  3
Global
350
186E
  0
DICTIONARY
  5
18A4
102
{ACAD_REACTORS
330
C
102
}
330
C
100
AcDbDictionary
281
     1
  3
Standard
350
18A5
  0
DICTIONARY
  5
1A
102
{ACAD_REACTORS
330
C
102
}
330
C
100
AcDbDictionary
281
     1
  3
STANDARD
350
1B
  0
DICTIONARY
  5
18AC
102
{ACAD_REACTORS
330
C
102
}
330
C
100
AcDbDictionary
281
     1
  0
ACDBDICTIONARYWDFLT
  5
185B
102
{ACAD_REACTORS
330
C
102
}
330
C
100
AcDbDictionary
281
     1
  3
Normal
350
185C
100
AcDbDictionaryWithDefault
340
185C
  0
DICTIONARY
  5
1892
102
{ACAD_REACTORS
330
C
102
}
330
C
100
AcDbDictionary
281
     1
  3
A0
350
1893
  3
A1
350
1894
  3
A2
350
1895
  3
A3
350
1896
  3
A4
350
1897
  3
A5
350
1898
  3
A6
350
1899
  3
A7
350
189A
  3
A8
350
189B
  3
A9
350
189C
  3
B0
350
189D
  3
B1
350
189E
  3
B2
350
189F
  3
B3
350
18A0
  3
B4
350
18A1
  3
B5
350
18A2
  3
B6
350
18A3
  0
DICTIONARY
  5
18A6
102
{ACAD_REACTORS
330
C
102
}
330
C
100
AcDbDictionary
281
     1
  3
Imperial24
350
18A8
  0
DICTIONARY
  5
1890
102
{ACAD_REACTORS
330
C
102
}
330
C
100
AcDbDictionary
281
     1
  3
Standard
350
1891
  0
DICTIONARY
  5
1876
102
{ACAD_REACTORS
330
C
102
}
330
C
100
AcDbDictionary
281
     1
  3
2dWireframe
350
187C
  3
Basic
350
187B
  3
Brighten
350
1882
  3
ColorChange
350
1886
  3
Conceptual
350
187F
  3
Dim
350
1881
  3
EdgeColorOff
350
188E
  3
Facepattern
350
1885
  3
Flat
350
1877
  3
FlatWithEdges
350
1878
  3
Gouraud
350
1879
  3
GouraudWithEdges
350
187A
  3
Hidden
350
187E
  3
JitterOff
350
188C
  3
Linepattern
350
1884
  3
OverhangOff
350
188D
  3
Realistic
350
1880
  3
Shaded
350
188B
  3
Shaded with edges
350
188A
  3
Shades of Gray
350
1887
  3
Sketchy
350
1888
  3
Thicken
350
1883
  3
Wireframe
350
187D
  3
X-Ray
350
1889
  0
XRECORD
  5
1A8B
102
{ACAD_REACTORS
330
C
102
}
330
C
100
AcDbXrecord
280
     1
 90
        1
330
1891
  0
DICTIONARY
  5
2F
102
{ACAD_REACTORS
330
C
102
}
330
C
100
AcDbDictionary
281
     1
  3
CANNOSCALE
350
19D4
  3
CMLEADERSTYLE
350
19D1
  3
CTABLESTYLE
350
19D0
  3
CVIEWDETAILSTYLE
350
19D2
  3
CVIEWSECTIONSTYLE
350
19D3
  3
DIMADEC
350
30
  3
DIMASSOC
350
19D7
  3
INDEXCTL
350
19D6
  3
LAYEREVAL
350
1A38
  3
LAYERNOTIFY
350
1A39
  3
LIGHTINGUNITS
350
1A37
  3
LOFTANG1
350
1A86
  3
LOFTANG2
350
1A87
  3
LONGITUDE
350
1A88
  3
MSLTSCALE
350
1A36
  3
SORTENTS
350
19D5
  3
XCLIPFRAME
350
1A89
  0
DICTIONARY
  5
1A97
102
{ACAD_REACTORS
330
C
102
}
330
C
100
AcDbDictionary
281
     1
  3
AcDsRecords
350
1A99
  3
AcDsSchemas
350
1A98
1001
ACAD
1070
     2
  0
DICTIONARY
  5
18E0
102
{ACAD_REACTORS
330
C
102
}
330
C
100
AcDbDictionary
281
     1
  3
AcmStdDictionary
350
18E9
  0
DICTIONARY
  5
18B5
102
{ACAD_REACTORS
330
C
102
}
330
C
100
AcDbDictionary
281
     1
  0
DICTIONARY
  5
197A
102
{ACAD_REACTORS
330
C
102
}
330
C
100
AcDbDictionary
281
     1
  0
XRECORD
  5
1A8C
102
{ACAD_REACTORS
330
C
102
}
330
C
100
AcDbXrecord
280
     1
  1
DWGPROPS COOKIE
  2

  3

  4

  6

  7

  8
jmilewski
  9

300
=
301
=
302
=
303
=
304
=
305
=
306
=
307
=
308
=
309
=
 40
0.1104379166666667
 41
2450143.698544791
 42
2457155.54838728
  1

 90
        0
  0
DICTIONARY
  5
19E4
102
{ACAD_REACTORS
330
19E3
102
}
330
19E3
100
AcDbDictionary
281
     1
  0
XRECORD
  5
1982
102
{ACAD_REACTORS
330
1981
102
}
330
1981
100
AcDbXrecord
280
     1
290
     1
  0
XRECORD
  5
1984
102
{ACAD_REACTORS
330
1983
102
}
330
1983
100
AcDbXrecord
280
     1
290
     1
  0
XRECORD
  5
1986
102
{ACAD_REACTORS
330
1985
102
}
330
1985
100
AcDbXrecord
280
     1
290
     1
  0
XRECORD
  5
1988
102
{ACAD_REACTORS
330
1987
102
}
330
1987
100
AcDbXrecord
280
     1
290
     1
  0
XRECORD
  5
198A
102
{ACAD_REACTORS
330
1989
102
}
330
1989
100
AcDbXrecord
280
     1
290
     1
  0
XRECORD
  5
1AD7
102
{ACAD_REACTORS
330
1AD6
102
}
330
1AD6
100
AcDbXrecord
280
     1
 40
7389.0
  1
\A1;\U+22054.780
  0
XRECORD
  5
1A8E
102
{ACAD_REACTORS
330
1A8D
102
}
330
1A8D
100
AcDbXrecord
280
     1
 70
     1
  0
XRECORD
  5
1A90
102
{ACAD_REACTORS
330
1A8D
102
}
330
1A8D
100
AcDbXrecord
280
     1
340
11
  0
XRECORD
  5
1A91
102
{ACAD_REACTORS
330
1A8D
102
}
330
1A8D
100
AcDbXrecord
280
     1
340
11
  0
XRECORD
  5
1A8F
102
{ACAD_REACTORS
330
1A8D
102
}
330
1A8D
100
AcDbXrecord
280
     1
340
11
  0
ACDBDETAILVIEWSTYLE
  5
18AA
102
{ACAD_XDICTIONARY
360
1A3D
102
}
102
{ACAD_REACTORS
330
18A9
102
}
330
18A9
100
AcDbModelDocViewStyle
 70
     0
  3
Imperial24
290
     0
100
AcDbDetailViewStyle
 70
     0
 71
     0
 90
        3
 71
     1
340
F
 40
0.24
340
0
 40
0.24
300

 40
0.36
280
     3
 71
     2
340
13
 90
       25
 71
     3
340
F
 40
0.24
 90
        1
 40
0.75
 90
        1
300
%<\AcVar ViewType \f "%tc1">% %<\AcVar ViewDetailId>%\PSCALE %<\AcVar ViewScale \f "%sn">%
 71
     4
340
13
 90
       25
340
13
 90
       25
280
     0
  0
LAYOUT
  5
18AE
102
{ACAD_XDICTIONARY
360
1AD4
102
}
102
{ACAD_REACTORS
330
18AB
102
}
330
18AB
100
AcDbPlotSettings
  1

  2
TOSHIBA e-STUDIO351c PS3
  4

  6

 40
0.0
 41
0.0
 42
0.0
 43
0.0
 44
0.0
 45
0.0
 46
0.0
 47
0.0
 48
0.0
 49
0.0
140
0.0
141
0.0
142
1.0
143
1.0
 70
   688
 72
     0
 73
     0
 74
     5
  7
Herm B & W.ctb
 75
    16
147
1.0
148
0.0
149
0.0
100
AcDbLayout
  1
Layout1
 70
     0
 71
     1
 10
0.0
 20
0.0
 11
12.0
 21
9.0
 12
0.0
 22
0.0
 32
0.0
 14
1.000000000000000E+20
 24
1.000000000000000E+20
 34
1.000000000000000E+20
 15
-1.000000000000000E+20
 25
-1.000000000000000E+20
 35
-1.000000000000000E+20
146
0.0
 13
0.0
 23
0.0
 33
0.0
 16
1.0
 26
0.0
 36
0.0
 17
0.0
 27
1.0
 37
0.0
 76
     0
330
14
  0
LAYOUT
  5
18AD
102
{ACAD_XDICTIONARY
360
1AD2
102
}
102
{ACAD_REACTORS
330
18AB
102
}
330
18AB
100
AcDbPlotSettings
  1

  2
TOSHIBA e-STUDIO351c PS3
  4

  6

 40
0.0
 41
0.0
 42
0.0
 43
0.0
 44
0.0
 45
0.0
 46
0.0
 47
0.0
 48
0.0
 49
0.0
140
0.0
141
0.0
142
1.0
143
1.0
 70
  1712
 72
     0
 73
     0
 74
     0
  7
Herm B & W.ctb
 75
     0
147
1.0
148
0.0
149
0.0
100
AcDbLayout
  1
Model
 70
     1
 71
     0
 10
0.0
 20
0.0
 11
12.0
 21
9.0
 12
0.0
 22
0.0
 32
0.0
 14
0.0
 24
0.0
 34
0.0
 15
0.0
 25
0.0
 35
0.0
146
0.0
 13
0.0
 23
0.0
 33
0.0
 16
1.0
 26
0.0
 36
0.0
 17
0.0
 27
1.0
 37
0.0
 76
     0
330
17
331
1859
  0
MATERIAL
  5
1866
102
{ACAD_XDICTIONARY
360
1867
102
}
102
{ACAD_REACTORS
330
185D
102
}
330
185D
100
AcDbMaterial
  1
ByBlock
 72
     0
 43
0.0208333333333333
 43
0.0
 43
0.0
 43
0.0
 43
0.0
 43
0.0208333333333333
 43
0.0
 43
0.0
 43
0.0
 43
0.0
 43
1.0
 43
0.0
 43
0.0
 43
0.0
 43
0.0
 43
1.0
 77
     0
 47
0.0208333333333333
 47
0.0
 47
0.0
 47
0.0
 47
0.0
 47
0.0208333333333333
 47
0.0
 47
0.0
 47
0.0
 47
0.0
 47
1.0
 47
0.0
 47
0.0
 47
0.0
 47
0.0
 47
1.0
171
     0
 49
0.0208333333333333
 49
0.0
 49
0.0
 49
0.0
 49
0.0
 49
0.0208333333333333
 49
0.0
 49
0.0
 49
0.0
 49
0.0
 49
1.0
 49
0.0
 49
0.0
 49
0.0
 49
0.0
 49
1.0
175
     0
142
0.0208333333333333
142
0.0
142
0.0
142
0.0
142
0.0
142
0.0208333333333333
142
0.0
142
0.0
142
0.0
142
0.0
142
1.0
142
0.0
142
0.0
142
0.0
142
0.0
142
1.0
179
     0
144
0.0208333333333333
144
0.0
144
0.0
144
0.0
144
0.0
144
0.0208333333333333
144
0.0
144
0.0
144
0.0
144
0.0
144
1.0
144
0.0
144
0.0
144
0.0
144
0.0
144
1.0
147
0.0208333333333333
147
0.0
147
0.0
147
0.0
147
0.0
147
0.0208333333333333
147
0.0
147
0.0
147
0.0
147
0.0
147
1.0
147
0.0
147
0.0
147
0.0
147
0.0
147
1.0
  0
MATERIAL
  5
185E
102
{ACAD_XDICTIONARY
360
185F
102
}
102
{ACAD_REACTORS
330
185D
102
}
330
185D
100
AcDbMaterial
  1
ByLayer
 72
     0
 43
0.0208333333333333
 43
0.0
 43
0.0
 43
0.0
 43
0.0
 43
0.0208333333333333
 43
0.0
 43
0.0
 43
0.0
 43
0.0
 43
1.0
 43
0.0
 43
0.0
 43
0.0
 43
0.0
 43
1.0
 77
     0
 47
0.0208333333333333
 47
0.0
 47
0.0
 47
0.0
 47
0.0
 47
0.0208333333333333
 47
0.0
 47
0.0
 47
0.0
 47
0.0
 47
1.0
 47
0.0
 47
0.0
 47
0.0
 47
0.0
 47
1.0
171
     0
 49
0.0208333333333333
 49
0.0
 49
0.0
 49
0.0
 49
0.0
 49
0.0208333333333333
 49
0.0
 49
0.0
 49
0.0
 49
0.0
 49
1.0
 49
0.0
 49
0.0
 49
0.0
 49
0.0
 49
1.0
175
     0
142
0.0208333333333333
142
0.0
142
0.0
142
0.0
142
0.0
142
0.0208333333333333
142
0.0
142
0.0
142
0.0
142
0.0
142
1.0
142
0.0
142
0.0
142
0.0
142
0.0
142
1.0
179
     0
144
0.0208333333333333
144
0.0
144
0.0
144
0.0
144
0.0
144
0.0208333333333333
144
0.0
144
0.0
144
0.0
144
0.0
144
1.0
144
0.0
144
0.0
144
0.0
144
0.0
144
1.0
147
0.0208333333333333
147
0.0
147
0.0
147
0.0
147
0.0
147
0.0208333333333333
147
0.0
147
0.0
147
0.0
147
0.0
147
1.0
147
0.0
147
0.0
147
0.0
147
0.0
147
1.0
  0
MATERIAL
  5
186E
102
{ACAD_XDICTIONARY
360
186F
102
}
102
{ACAD_REACTORS
330
185D
102
}
330
185D
100
AcDbMaterial
  1
Global
 72
     0
 43
0.0208333333333333
 43
0.0
 43
0.0
 43
0.0
 43
0.0
 43
0.0208333333333333
 43
0.0
 43
0.0
 43
0.0
 43
0.0
 43
1.0
 43
0.0
 43
0.0
 43
0.0
 43
0.0
 43
1.0
 77
     0
 47
0.0208333333333333
 47
0.0
 47
0.0
 47
0.0
 47
0.0
 47
0.0208333333333333
 47
0.0
 47
0.0
 47
0.0
 47
0.0
 47
1.0
 47
0.0
 47
0.0
 47
0.0
 47
0.0
 47
1.0
171
     0
 49
0.0208333333333333
 49
0.0
 49
0.0
 49
0.0
 49
0.0
 49
0.0208333333333333
 49
0.0
 49
0.0
 49
0.0
 49
0.0
 49
1.0
 49
0.0
 49
0.0
 49
0.0
 49
0.0
 49
1.0
175
     0
142
0.0208333333333333
142
0.0
142
0.0
142
0.0
142
0.0
142
0.0208333333333333
142
0.0
142
0.0
142
0.0
142
0.0
142
1.0
142
0.0
142
0.0
142
0.0
142
0.0
142
1.0
179
     0
144
0.0208333333333333
144
0.0
144
0.0
144
0.0
144
0.0
144
0.0208333333333333
144
0.0
144
0.0
144
0.0
144
0.0
144
1.0
144
0.0
144
0.0
144
0.0
144
0.0
144
1.0
147
0.0208333333333333
147
0.0
147
0.0
147
0.0
147
0.0
147
0.0208333333333333
147
0.0
147
0.0
147
0.0
147
0.0
147
1.0
147
0.0
147
0.0
147
0.0
147
0.0
147
1.0
  0
MLEADERSTYLE
  5
18A5
102
{ACAD_XDICTIONARY
360
1ACE
102
}
102
{ACAD_REACTORS
330
18A4
102
}
330
18A4
100
AcDbMLeaderStyle
170
     2
171
     1
172
     0
 90
        2
 40
0.0
 41
0.0
173
     1
 91
-1056964608
340
11
 92
       -2
290
     1
 42
0.09
291
     1
 43
0.36
  3
Standard
 44
0.18
300

342
F
174
     1
178
     6
175
     1
176
     0
 93
-1056964608
 45
0.18
292
     0
297
     0
 46
0.18
 94
-1056964608
 47
1.0
 49
1.0
140
1.0
293
     1
141
0.0
294
     1
177
     0
142
1.0
295
     0
296
     0
143
0.125
1001
ACAD_MLEADERVER
1070
     2
  0
MLINESTYLE
  5
1B
102
{ACAD_REACTORS
330
1A
102
}
330
1A
100
AcDbMlineStyle
  2
STANDARD
 70
     0
  3

 62
   256
 51
90.0
 52
90.0
 71
     2
 49
0.5
 62
   256
  6
BYLAYER
 49
-0.5
 62
   256
  6
BYLAYER
  0
ACDBPLACEHOLDER
  5
185C
102
{ACAD_REACTORS
330
185B
102
}
330
185B
  0
SCALE
  5
1893
102
{ACAD_REACTORS
330
1892
102
}
330
1892
100
AcDbScale
 70
     0
300
1:1
140
1.0
141
1.0
290
     1
  0
SCALE
  5
1894
102
{ACAD_REACTORS
330
1892
102
}
330
1892
100
AcDbScale
 70
     0
300
1/128" = 1'-0"
140
0.0078125
141
12.0
290
     0
  0
SCALE
  5
1895
102
{ACAD_REACTORS
330
1892
102
}
330
1892
100
AcDbScale
 70
     0
300
1/64" = 1'-0"
140
0.015625
141
12.0
290
     0
  0
SCALE
  5
1896
102
{ACAD_REACTORS
330
1892
102
}
330
1892
100
AcDbScale
 70
     0
300
1/32" = 1'-0"
140
0.03125
141
12.0
290
     0
  0
SCALE
  5
1897
102
{ACAD_REACTORS
330
1892
102
}
330
1892
100
AcDbScale
 70
     0
300
1/16" = 1'-0"
140
0.0625
141
12.0
290
     0
  0
SCALE
  5
1898
102
{ACAD_REACTORS
330
1892
102
}
330
1892
100
AcDbScale
 70
     0
300
3/32" = 1'-0"
140
0.09375
141
12.0
290
     0
  0
SCALE
  5
1899
102
{ACAD_REACTORS
330
1892
102
}
330
1892
100
AcDbScale
 70
     0
300
1/8" = 1'-0"
140
0.125
141
12.0
290
     0
  0
SCALE
  5
189A
102
{ACAD_REACTORS
330
1892
102
}
330
1892
100
AcDbScale
 70
     0
300
3/16" = 1'-0"
140
0.1875
141
12.0
290
     0
  0
SCALE
  5
189B
102
{ACAD_REACTORS
330
1892
102
}
330
1892
100
AcDbScale
 70
     0
300
1/4" = 1'-0"
140
0.25
141
12.0
290
     0
  0
SCALE
  5
189C
102
{ACAD_REACTORS
330
1892
102
}
330
1892
100
AcDbScale
 70
     0
300
3/8" = 1'-0"
140
0.375
141
12.0
290
     0
  0
SCALE
  5
189D
102
{ACAD_REACTORS
330
1892
102
}
330
1892
100
AcDbScale
 70
     0
300
1/2" = 1'-0"
140
0.5
141
12.0
290
     0
  0
SCALE
  5
189E
102
{ACAD_REACTORS
330
1892
102
}
330
1892
100
AcDbScale
 70
     0
300
3/4" = 1'-0"
140
0.75
141
12.0
290
     0
  0
SCALE
  5
189F
102
{ACAD_REACTORS
330
1892
102
}
330
1892
100
AcDbScale
 70
     0
300
1" = 1'-0"
140
1.0
141
12.0
290
     0
  0
SCALE
  5
18A0
102
{ACAD_REACTORS
330
1892
102
}
330
1892
100
AcDbScale
 70
     0
300
1-1/2" = 1'-0"
140
1.5
141
12.0
290
     0
  0
SCALE
  5
18A1
102
{ACAD_REACTORS
330
1892
102
}
330
1892
100
AcDbScale
 70
     0
300
3" = 1'-0"
140
3.0
141
12.0
290
     0
  0
SCALE
  5
18A2
102
{ACAD_REACTORS
330
1892
102
}
330
1892
100
AcDbScale
 70
     0
300
6" = 1'-0"
140
6.0
141
12.0
290
     0
  0
SCALE
  5
18A3
102
{ACAD_REACTORS
330
1892
102
}
330
1892
100
AcDbScale
 70
     0
300
1'-0" = 1'-0"
140
12.0
141
12.0
290
     0
  0
ACDBSECTIONVIEWSTYLE
  5
18A8
102
{ACAD_XDICTIONARY
360
1A3B
102
}
102
{ACAD_REACTORS
330
18A6
102
}
330
18A6
100
AcDbModelDocViewStyle
 70
     0
  3
Imperial24
290
     0
100
AcDbSectionViewStyle
 70
     0
 71
     0
 90
       78
 71
     1
340
F
 40
0.24
340
0
340
0
 40
0.24
300
I, O, Q, S, X, Z
 40
0.48
 90
        3
 40
0.18
 90
        1
 71
     2
340
18A7
 90
       25
340
13
 90
       50
 40
0.24
 40
0.0
 40
0.24
 71
     3
340
F
 40
0.24
 90
        1
 40
0.75
 90
        1
300
%<\AcVar ViewType \f "%tc1">% %<\AcVar ViewSectionStartId>%-%<\AcVar ViewSectionEndId>%\PSCALE %<\AcVar ViewScale \f "%sn">%
 71
     4
300
ANSI31
 40
1.0
 90
        0
290
     0
290
     0
 90
        6
 40
0.0
 40
1.570796326794896
 40
0.2617993877991494
 40
1.308996938995747
 40
-0.2617993877991494
 40
1.832595714594044
  0
TABLESTYLE
  5
1891
102
{ACAD_XDICTIONARY
360
198B
102
}
102
{ACAD_REACTORS
330
1890
102
}
330
1890
100
AcDbTableStyle
  3
Standard
 70
     0
 71
     0
 40
0.06
 41
0.06
280
     0
281
     0
  7
STANDARD
140
0.18
170
     2
 62
     0
 63
     7
283
     0
274
    -2
284
     1
 64
     0
275
    -2
285
     1
 65
     0
276
    -2
286
     1
 66
     0
277
    -2
287
     1
 67
     0
278
    -2
288
     1
 68
     0
279
    -2
289
     1
 69
     0
  7
STANDARD
140
0.25
170
     5
 62
     0
 63
     7
283
     0
274
    -2
284
     1
 64
     0
275
    -2
285
     1
 65
     0
276
    -2
286
     1
 66
     0
277
    -2
287
     1
 67
     0
278
    -2
288
     1
 68
     0
279
    -2
289
     1
 69
     0
  7
STANDARD
140
0.18
170
     5
 62
     0
 63
     7
283
     0
274
    -2
284
     1
 64
     0
275
    -2
285
     1
 65
     0
276
    -2
286
     1
 66
     0
277
    -2
287
     1
 67
     0
278
    -2
288
     1
 68
     0
279
    -2
289
     1
 69
     0
  0
VISUALSTYLE
  5
187C
102
{ACAD_XDICTIONARY
360
1AA7
102
}
102
{ACAD_REACTORS
330
1876
102
}
330
1876
100
AcDbVisualStyle
  2
2dWireframe
 70
     4
 71
     0
 72
     2
 73
     0
 90
        0
 40
-0.6
 41
-30.0
 62
     5
 63
     7
 74
     1
 91
        4
 64
     7
 65
   257
 75
     1
175
     1
 42
1.0
 92
        0
 66
   257
 43
1.0
 76
     1
 77
     6
 78
     2
 67
     7
 79
     5
170
     0
171
     0
290
     0
174
     0
 93
        1
 44
0.0
173
     0
291
     0
 45
0.0
1001
ACAD
1000
AcDbSavedByObjectVersion
1070
     0
  0
VISUALSTYLE
  5
187B
102
{ACAD_XDICTIONARY
360
1AA5
102
}
102
{ACAD_REACTORS
330
1876
102
}
330
1876
100
AcDbVisualStyle
  2
Basic
 70
     7
 71
     1
 72
     0
 73
     1
 90
        0
 40
-0.6
 41
-30.0
 62
     5
 63
     7
 74
     0
 91
        4
 64
     7
 65
   257
 75
     1
175
     1
 42
1.0
 92
        8
 66
     7
 43
1.0
 76
     1
 77
     6
 78
     2
 67
     7
 79
     5
170
     0
171
     0
290
     0
174
     0
 93
        1
 44
0.0
173
     0
291
     1
 45
0.0
1001
ACAD
1000
AcDbSavedByObjectVersion
1070
     0
  0
VISUALSTYLE
  5
1882
102
{ACAD_XDICTIONARY
360
1AB3
102
}
102
{ACAD_REACTORS
330
1876
102
}
330
1876
100
AcDbVisualStyle
  2
Brighten
 70
    12
 71
     2
 72
     2
 73
     0
 90
        0
 40
-0.6
 41
-30.0
 62
     5
 63
     7
 74
     1
 91
        4
 64
     7
 65
   257
 75
     1
175
     1
 42
1.0
 92
        8
 66
     7
 43
1.0
 76
     1
 77
     6
 78
     2
 67
     7
 79
     5
170
     0
171
     0
290
     0
174
     0
 93
        1
 44
50.0
173
     0
291
     1
 45
0.0
1001
ACAD
1000
AcDbSavedByObjectVersion
1070
     0
  0
VISUALSTYLE
  5
1886
102
{ACAD_XDICTIONARY
360
1ABB
102
}
102
{ACAD_REACTORS
330
1876
102
}
330
1876
100
AcDbVisualStyle
  2
ColorChange
 70
    16
 71
     2
 72
     2
 73
     3
 90
        0
 40
-0.6
 41
-30.0
 62
     5
 63
     8
 74
     1
 91
        4
 64
     7
 65
   257
 75
     1
175
     1
 42
1.0
 92
        8
 66
     8
 43
1.0
 76
     1
 77
     6
 78
     2
 67
     7
 79
     5
170
     0
171
     0
290
     0
174
     0
 93
        1
 44
0.0
173
     0
291
     1
 45
0.0
1001
ACAD
1000
AcDbSavedByObjectVersion
1070
     0
  0
VISUALSTYLE
  5
187F
102
{ACAD_XDICTIONARY
360
1AAD
102
}
102
{ACAD_REACTORS
330
1876
102
}
330
1876
100
AcDbVisualStyle
  2
Conceptual
 70
     9
 71
     3
 72
     2
 73
     0
 90
        0
 40
-0.6
 41
-30.0
 62
     5
 63
     7
 74
     2
 91
        2
 64
     7
 65
   257
 75
     1
175
     1
 42
179.0
 92
        8
 66
     7
 43
1.0
 76
     1
 77
     6
 78
     2
 67
     7
 79
     3
170
     0
171
     0
290
     0
174
     0
 93
        1
 44
0.0
173
     0
291
     0
 45
0.0
1001
ACAD
1000
AcDbSavedByObjectVersion
1070
     0
  0
VISUALSTYLE
  5
1881
102
{ACAD_XDICTIONARY
360
1AB1
102
}
102
{ACAD_REACTORS
330
1876
102
}
330
1876
100
AcDbVisualStyle
  2
Dim
 70
    11
 71
     2
 72
     2
 73
     0
 90
        0
 40
-0.6
 41
-30.0
 62
     5
 63
     7
 74
     1
 91
        4
 64
     7
 65
   257
 75
     1
175
     1
 42
1.0
 92
        8
 66
     7
 43
1.0
 76
     1
 77
     6
 78
     2
 67
     7
 79
     5
170
     0
171
     0
290
     0
174
     0
 93
        1
 44
-50.0
173
     0
291
     1
 45
0.0
1001
ACAD
1000
AcDbSavedByObjectVersion
1070
     0
  0
VISUALSTYLE
  5
188E
102
{ACAD_XDICTIONARY
360
1ACB
102
}
102
{ACAD_REACTORS
330
1876
102
}
330
1876
100
AcDbVisualStyle
  2
EdgeColorOff
 70
    22
 71
     2
 72
     2
 73
     0
 90
        0
 40
-0.6
 41
-30.0
 62
     5
 63
     7
 74
     1
 91
        4
 64
     7
 65
   257
 75
     1
175
     1
 42
1.0
 92
        8
 66
     7
 43
1.0
 76
     1
 77
     6
 78
     2
 67
     7
 79
     5
170
     0
171
     0
290
     0
174
     0
 93
        1
 44
0.0
173
     0
291
     1
 45
0.0
1001
ACAD
1000
AcDbSavedByObjectVersion
1070
     0
  0
VISUALSTYLE
  5
1885
102
{ACAD_XDICTIONARY
360
1AB9
102
}
102
{ACAD_REACTORS
330
1876
102
}
330
1876
100
AcDbVisualStyle
  2
Facepattern
 70
    15
 71
     2
 72
     2
 73
     0
 90
        0
 40
-0.6
 41
-30.0
 62
     5
 63
     7
 74
     1
 91
        4
 64
     7
 65
   257
 75
     1
175
     1
 42
1.0
 92
        8
 66
     7
 43
1.0
 76
     1
 77
     6
 78
     2
 67
     7
 79
     5
170
     0
171
     0
290
     0
174
     0
 93
        1
 44
0.0
173
     0
291
     1
 45
0.0
1001
ACAD
1000
AcDbSavedByObjectVersion
1070
     0
  0
VISUALSTYLE
  5
1877
102
{ACAD_XDICTIONARY
360
1A9D
102
}
102
{ACAD_REACTORS
330
1876
102
}
330
1876
100
AcDbVisualStyle
  2
Flat
 70
     0
 71
     2
 72
     1
 73
     1
 90
        2
 40
-0.6
 41
30.0
 62
     5
 63
     7
 74
     0
 91
        0
 64
     7
 65
   257
 75
     1
175
     1
 42
1.0
 92
        8
 66
     7
 43
1.0
 76
     1
 77
     6
 78
     2
 67
     7
 79
     5
170
     0
171
     0
290
     0
174
     0
 93
       13
 44
0.0
173
     0
291
     1
 45
0.0
1001
ACAD
1000
AcDbSavedByObjectVersion
1070
     0
  0
VISUALSTYLE
  5
1878
102
{ACAD_XDICTIONARY
360
1A9F
102
}
102
{ACAD_REACTORS
330
1876
102
}
330
1876
100
AcDbVisualStyle
  2
FlatWithEdges
 70
     1
 71
     2
 72
     1
 73
     1
 90
        2
 40
-0.6
 41
30.0
 62
     5
 63
     7
 74
     1
 91
        0
 64
     7
 65
   257
 75
     1
175
     1
 42
1.0
 92
        0
 66
   257
 43
1.0
 76
     1
 77
     6
 78
     2
 67
     7
 79
     5
170
     0
171
     0
290
     0
174
     0
 93
       13
 44
0.0
173
     0
291
     1
 45
0.0
1001
ACAD
1000
AcDbSavedByObjectVersion
1070
     0
  0
VISUALSTYLE
  5
1879
102
{ACAD_XDICTIONARY
360
1AA1
102
}
102
{ACAD_REACTORS
330
1876
102
}
330
1876
100
AcDbVisualStyle
  2
Gouraud
 70
     2
 71
     2
 72
     2
 73
     1
 90
        2
 40
-0.6
 41
30.0
 62
     5
 63
     7
 74
     0
 91
        0
 64
     7
 65
   257
 75
     1
175
     1
 42
1.0
 92
        0
 66
     7
 43
1.0
 76
     1
 77
     6
 78
     2
 67
     7
 79
     5
170
     0
171
     0
290
     0
174
     0
 93
       13
 44
0.0
173
     0
291
     1
 45
0.0
1001
ACAD
1000
AcDbSavedByObjectVersion
1070
     0
  0
VISUALSTYLE
  5
187A
102
{ACAD_XDICTIONARY
360
1AA3
102
}
102
{ACAD_REACTORS
330
1876
102
}
330
1876
100
AcDbVisualStyle
  2
GouraudWithEdges
 70
     3
 71
     2
 72
     2
 73
     1
 90
        2
 40
-0.6
 41
30.0
 62
     5
 63
     7
 74
     1
 91
        0
 64
     7
 65
   257
 75
     1
175
     1
 42
1.0
 92
        0
 66
   257
 43
1.0
 76
     1
 77
     6
 78
     2
 67
     7
 79
     5
170
     0
171
     0
290
     0
174
     0
 93
       13
 44
0.0
173
     0
291
     1
 45
0.0
1001
ACAD
1000
AcDbSavedByObjectVersion
1070
     0
  0
VISUALSTYLE
  5
187E
102
{ACAD_XDICTIONARY
360
1AAB
102
}
102
{ACAD_REACTORS
330
1876
102
}
330
1876
100
AcDbVisualStyle
  2
Hidden
 70
     6
 71
     1
 72
     2
 73
     2
 90
        0
 40
-0.6
 41
-30.0
 62
     5
 63
     7
 74
     2
 91
        2
 64
     7
 65
   257
 75
     2
175
     1
 42
40.0
 92
        0
 66
   257
 43
1.0
 76
     1
 77
     6
 78
     2
 67
     7
 79
     3
170
     0
171
     0
290
     0
174
     0
 93
        1
 44
0.0
173
     0
291
     0
 45
0.0
1001
ACAD
1000
AcDbSavedByObjectVersion
1070
     0
  0
VISUALSTYLE
  5
188C
102
{ACAD_XDICTIONARY
360
1AC7
102
}
102
{ACAD_REACTORS
330
1876
102
}
330
1876
100
AcDbVisualStyle
  2
JitterOff
 70
    20
 71
     2
 72
     2
 73
     0
 90
        0
 40
-0.6
 41
-30.0
 62
     5
 63
     7
 74
     1
 91
        4
 64
     7
 65
   257
 75
     1
175
     1
 42
1.0
 92
       10
 66
     7
 43
1.0
 76
     1
 77
     6
 78
     2
 67
     7
 79
     5
170
     0
171
     0
290
     0
174
     0
 93
        1
 44
0.0
173
     0
291
     1
 45
0.0
1001
ACAD
1000
AcDbSavedByObjectVersion
1070
     0
  0
VISUALSTYLE
  5
1884
102
{ACAD_XDICTIONARY
360
1AB7
102
}
102
{ACAD_REACTORS
330
1876
102
}
330
1876
100
AcDbVisualStyle
  2
Linepattern
 70
    14
 71
     2
 72
     2
 73
     0
 90
        0
 40
-0.6
 41
-30.0
 62
     5
 63
     7
 74
     1
 91
        4
 64
     7
 65
   257
 75
     7
175
     7
 42
1.0
 92
        8
 66
     7
 43
1.0
 76
     1
 77
     6
 78
     2
 67
     7
 79
     5
170
     0
171
     0
290
     0
174
     0
 93
        1
 44
0.0
173
     0
291
     1
 45
0.0
1001
ACAD
1000
AcDbSavedByObjectVersion
1070
     0
  0
VISUALSTYLE
  5
188D
102
{ACAD_XDICTIONARY
360
1AC9
102
}
102
{ACAD_REACTORS
330
1876
102
}
330
1876
100
AcDbVisualStyle
  2
OverhangOff
 70
    21
 71
     2
 72
     2
 73
     0
 90
        0
 40
-0.6
 41
-30.0
 62
     5
 63
     7
 74
     1
 91
        4
 64
     7
 65
   257
 75
     1
175
     1
 42
1.0
 92
        9
 66
     7
 43
1.0
 76
     1
 77
     6
 78
     2
 67
     7
 79
     5
170
     0
171
     0
290
     0
174
     0
 93
        1
 44
0.0
173
     0
291
     1
 45
0.0
1001
ACAD
1000
AcDbSavedByObjectVersion
1070
     0
  0
VISUALSTYLE
  5
1880
102
{ACAD_XDICTIONARY
360
1AAF
102
}
102
{ACAD_REACTORS
330
1876
102
}
330
1876
100
AcDbVisualStyle
  2
Realistic
 70
     8
 71
     2
 72
     2
 73
     0
 90
        2
 40
-0.6
 41
30.0
 62
     5
 63
     7
 74
     0
 91
        0
 64
     7
 65
   257
 75
     1
175
     1
 42
1.0
 92
        8
 66
   257
 43
1.0
 76
     1
 77
     6
 78
     2
 67
     7
 79
     3
170
     0
171
     0
290
     0
174
     0
 93
       13
 44
0.0
173
     0
291
     0
 45
0.0
1001
ACAD
1000
AcDbSavedByObjectVersion
1070
     0
  0
VISUALSTYLE
  5
188B
102
{ACAD_XDICTIONARY
360
1AC5
102
}
102
{ACAD_REACTORS
330
1876
102
}
330
1876
100
AcDbVisualStyle
  2
Shaded
 70
    27
 71
     2
 72
     2
 73
     1
 90
        2
 40
-0.6
 41
30.0
 62
     5
 63
     7
 74
     0
 91
        4
 64
     7
 65
   257
 75
     1
175
     1
 42
1.0
 92
        8
 66
   257
 43
1.0
 76
     1
 77
     6
 78
     2
 67
     8
 79
     3
170
     0
171
     0
290
     0
174
     0
 93
        5
 44
0.0
173
     0
291
     0
 45
0.0
1001
ACAD
1000
AcDbSavedByObjectVersion
1070
     0
  0
VISUALSTYLE
  5
188A
102
{ACAD_XDICTIONARY
360
1AC3
102
}
102
{ACAD_REACTORS
330
1876
102
}
330
1876
100
AcDbVisualStyle
  2
Shaded with edges
 70
    26
 71
     2
 72
     2
 73
     1
 90
        2
 40
-0.6
 41
30.0
 62
     5
 63
     7
 74
     1
 91
       10
 64
     7
 65
   257
 75
     2
175
     1
 42
1.0
 92
        8
 66
   257
 43
1.0
 76
     1
 77
     6
 78
     2
 67
     7
 79
     3
170
     0
171
     0
290
     0
174
     0
 93
        5
 44
0.0
173
     0
291
     0
 45
0.0
1001
ACAD
1000
AcDbSavedByObjectVersion
1070
     0
  0
VISUALSTYLE
  5
1887
102
{ACAD_XDICTIONARY
360
1ABD
102
}
102
{ACAD_REACTORS
330
1876
102
}
330
1876
100
AcDbVisualStyle
  2
Shades of Gray
 70
    23
 71
     2
 72
     2
 73
     3
 90
        0
 40
-0.6
 41
-30.0
 62
     5
 63
     7
 74
     2
 91
        2
 64
     7
 65
     7
 75
     1
175
     1
 42
40.0
 92
        8
 66
     7
 43
1.0
 76
     1
 77
     6
 78
     2
 67
     7
 79
     3
170
     0
171
     0
290
     0
174
     0
 93
        1
 44
0.0
173
     0
291
     0
 45
0.0
1001
ACAD
1000
AcDbSavedByObjectVersion
1070
     0
  0
VISUALSTYLE
  5
1888
102
{ACAD_XDICTIONARY
360
1ABF
102
}
102
{ACAD_REACTORS
330
1876
102
}
330
1876
100
AcDbVisualStyle
  2
Sketchy
 70
    24
 71
     1
 72
     2
 73
     2
 90
        0
 40
-0.6
 41
-30.0
 62
     5
 63
     7
 74
     2
 91
        2
 64
     7
 65
     7
 75
     1
175
     1
 42
40.0
 92
       11
 66
     7
 43
1.0
 76
     1
 77
     6
 78
     2
 67
     7
 79
     6
170
     0
171
     0
290
     0
174
     0
 93
        1
 44
0.0
173
     0
291
     0
 45
0.0
1001
ACAD
1000
AcDbSavedByObjectVersion
1070
     0
  0
VISUALSTYLE
  5
1883
102
{ACAD_XDICTIONARY
360
1AB5
102
}
102
{ACAD_REACTORS
330
1876
102
}
330
1876
100
AcDbVisualStyle
  2
Thicken
 70
    13
 71
     2
 72
     2
 73
     0
 90
        0
 40
-0.6
 41
-30.0
 62
     5
 63
     7
 74
     1
 91
        4
 64
     7
 65
   257
 75
     1
175
     1
 42
1.0
 92
       12
 66
     7
 43
1.0
 76
     1
 77
     6
 78
     2
 67
     7
 79
     5
170
     0
171
     0
290
     0
174
     0
 93
        1
 44
0.0
173
     0
291
     1
 45
0.0
1001
ACAD
1000
AcDbSavedByObjectVersion
1070
     0
  0
VISUALSTYLE
  5
187D
102
{ACAD_XDICTIONARY
360
1AA9
102
}
102
{ACAD_REACTORS
330
1876
102
}
330
1876
100
AcDbVisualStyle
  2
Wireframe
 70
     5
 71
     0
 72
     2
 73
     0
 90
        0
 40
-0.6
 41
-30.0
 62
     5
 63
     7
 74
     1
 91
        4
 64
     7
 65
   257
 75
     1
175
     1
 42
1.0
 92
        0
 66
   257
 43
1.0
 76
     1
 77
     6
 78
     2
 67
     7
 79
     3
170
     0
171
     0
290
     0
174
     0
 93
        1
 44
0.0
173
     0
291
     0
 45
0.0
1001
ACAD
1000
AcDbSavedByObjectVersion
1070
     0
  0
VISUALSTYLE
  5
1889
102
{ACAD_XDICTIONARY
360
1AC1
102
}
102
{ACAD_REACTORS
330
1876
102
}
330
1876
100
AcDbVisualStyle
  2
X-Ray
 70
    25
 71
     2
 72
     2
 73
     1
 90
        1
 40
0.5
 41
-30.0
 62
     5
 63
     7
 74
     1
 91
        0
 64
     7
 65
   257
 75
     1
175
     1
 42
1.0
 92
        8
 66
     7
 43
1.0
 76
     1
 77
     6
 78
     2
 67
     7
 79
     3
170
     0
171
     0
290
     0
174
     0
 93
       13
 44
0.0
173
     0
291
     0
 45
0.0
1001
ACAD
1000
AcDbSavedByObjectVersion
1070
     0
  0
DICTIONARYVAR
  5
19D4
102
{ACAD_REACTORS
330
2F
102
}
330
2F
100
DictionaryVariables
280
     0
  1
1:1
  0
DICTIONARYVAR
  5
19D1
102
{ACAD_REACTORS
330
2F
102
}
330
2F
100
DictionaryVariables
280
     0
  1
STANDARD
  0
DICTIONARYVAR
  5
19D0
102
{ACAD_REACTORS
330
2F
102
}
330
2F
100
DictionaryVariables
280
     0
  1
STANDARD
  0
DICTIONARYVAR
  5
19D2
102
{ACAD_REACTORS
330
2F
102
}
330
2F
100
DictionaryVariables
280
     0
  1
Imperial24
  0
DICTIONARYVAR
  5
19D3
102
{ACAD_REACTORS
330
2F
102
}
330
2F
100
DictionaryVariables
280
     0
  1
Imperial24
  0
DICTIONARYVAR
  5
30
102
{ACAD_REACTORS
330
2F
102
}
330
2F
100
DictionaryVariables
280
     0
  1
2
  0
DICTIONARYVAR
  5
19D7
102
{ACAD_REACTORS
330
2F
102
}
330
2F
100
DictionaryVariables
280
     0
  1
1
  0
DICTIONARYVAR
  5
19D6
102
{ACAD_REACTORS
330
2F
102
}
330
2F
100
DictionaryVariables
280
     0
  1
0
  0
DICTIONARYVAR
  5
1A38
102
{ACAD_REACTORS
330
2F
102
}
330
2F
100
DictionaryVariables
280
     0
  1
1
  0
DICTIONARYVAR
  5
1A39
102
{ACAD_REACTORS
330
2F
102
}
330
2F
100
DictionaryVariables
280
     0
  1
15
  0
DICTIONARYVAR
  5
1A37
102
{ACAD_REACTORS
330
2F
102
}
330
2F
100
DictionaryVariables
280
     0
  1
0
  0
DICTIONARYVAR
  5
1A86
102
{ACAD_REACTORS
330
2F
102
}
330
2F
100
DictionaryVariables
280
     0
  1
1.570796
  0
DICTIONARYVAR
  5
1A87
102
{ACAD_REACTORS
330
2F
102
}
330
2F
100
DictionaryVariables
280
     0
  1
1.570796
  0
DICTIONARYVAR
  5
1A88
102
{ACAD_REACTORS
330
2F
102
}
330
2F
100
DictionaryVariables
280
     0
  1
-122.394000
  0
DICTIONARYVAR
  5
1A36
102
{ACAD_REACTORS
330
2F
102
}
330
2F
100
DictionaryVariables
280
     0
  1
0
  0
DICTIONARYVAR
  5
19D5
102
{ACAD_REACTORS
330
2F
102
}
330
2F
100
DictionaryVariables
280
     0
  1
127
  0
DICTIONARYVAR
  5
1A89
102
{ACAD_REACTORS
330
2F
102
}
330
2F
100
DictionaryVariables
280
     0
  1
2
  0
DICTIONARY
  5
1A99
102
{ACAD_REACTORS
330
1A97
102
}
330
1A97
100
AcDbDictionary
281
     1
  0
DICTIONARY
  5
1A98
102
{ACAD_REACTORS
330
1A97
102
}
330
1A97
100
AcDbDictionary
281
     1
  3
8796088083744
350
1A92
  3
8796088083760
350
1A93
  3
8796088083776
350
1A94
  3
8796088083792
350
1A95
  3
8796088083808
350
1A96
  0
DICTIONARY
  5
18E9
102
{ACAD_REACTORS
330
18E0
102
}
330
18E0
100
AcDbDictionary
281
     1
  0
DICTIONARY
  5
1A3D
330
18AA
100
AcDbDictionary
280
     1
281
     1
  3
ACAD_XREC_ROUNDTRIP
360
1AD1
  0
DICTIONARY
  5
1AD4
330
18AE
100
AcDbDictionary
280
     1
281
     1
  3
ACAD_XREC_ROUNDTRIP
360
1AD5
  0
DICTIONARY
  5
1AD2
330
18AD
100
AcDbDictionary
280
     1
281
     1
  3
ACAD_XREC_ROUNDTRIP
360
1AD3
  0
DICTIONARY
  5
1867
330
1866
100
AcDbDictionary
280
     1
281
     1
  3
ACAD_XREC_ROUNDTRIP
360
1A9B
  3
BUMPTILE
360
1869
  3
DIFFUSETILE
360
1868
  3
OPACITYTILE
360
186C
  3
REFLECTIONTILE
360
186B
  3
REFRACTIONTILE
360
186D
  3
SPECULARTILE
360
186A
  0
DICTIONARY
  5
185F
330
185E
100
AcDbDictionary
280
     1
281
     1
  3
ACAD_XREC_ROUNDTRIP
360
1A9A
  3
BUMPTILE
360
1861
  3
DIFFUSETILE
360
1860
  3
OPACITYTILE
360
1864
  3
REFLECTIONTILE
360
1863
  3
REFRACTIONTILE
360
1865
  3
SPECULARTILE
360
1862
  0
DICTIONARY
  5
186F
330
186E
100
AcDbDictionary
280
     1
281
     1
  3
ACAD_XREC_ROUNDTRIP
360
1A9C
  3
BUMPTILE
360
1871
  3
DIFFUSETILE
360
1870
  3
OPACITYTILE
360
1874
  3
REFLECTIONTILE
360
1873
  3
REFRACTIONTILE
360
1875
  3
SPECULARTILE
360
1872
  0
DICTIONARY
  5
1ACE
330
18A5
100
AcDbDictionary
280
     1
281
     1
  3
ACAD_XREC_ROUNDTRIP
360
1ACF
  0
DICTIONARY
  5
1A3B
330
18A8
100
AcDbDictionary
280
     1
281
     1
  3
ACAD_XREC_ROUNDTRIP
360
1AD0
  0
DICTIONARY
  5
198B
330
1891
100
AcDbDictionary
280
     1
281
     1
  3
ACAD_ROUNDTRIP_2008_TABLESTYLE_CELLSTYLEMAP
360
1A8A
  3
ACAD_XREC_ROUNDTRIP
360
1ACD
  0
DICTIONARY
  5
1AA7
330
187C
100
AcDbDictionary
280
     1
281
     1
  3
ACAD_XREC_ROUNDTRIP
360
1AA8
  0
DICTIONARY
  5
1AA5
330
187B
100
AcDbDictionary
280
     1
281
     1
  3
ACAD_XREC_ROUNDTRIP
360
1AA6
  0
DICTIONARY
  5
1AB3
330
1882
100
AcDbDictionary
280
     1
281
     1
  3
ACAD_XREC_ROUNDTRIP
360
1AB4
  0
DICTIONARY
  5
1ABB
330
1886
100
AcDbDictionary
280
     1
281
     1
  3
ACAD_XREC_ROUNDTRIP
360
1ABC
  0
DICTIONARY
  5
1AAD
330
187F
100
AcDbDictionary
280
     1
281
     1
  3
ACAD_XREC_ROUNDTRIP
360
1AAE
  0
DICTIONARY
  5
1AB1
330
1881
100
AcDbDictionary
280
     1
281
     1
  3
ACAD_XREC_ROUNDTRIP
360
1AB2
  0
DICTIONARY
  5
1ACB
330
188E
100
AcDbDictionary
280
     1
281
     1
  3
ACAD_XREC_ROUNDTRIP
360
1ACC
  0
DICTIONARY
  5
1AB9
330
1885
100
AcDbDictionary
280
     1
281
     1
  3
ACAD_XREC_ROUNDTRIP
360
1ABA
  0
DICTIONARY
  5
1A9D
330
1877
100
AcDbDictionary
280
     1
281
     1
  3
ACAD_XREC_ROUNDTRIP
360
1A9E
  0
DICTIONARY
  5
1A9F
330
1878
100
AcDbDictionary
280
     1
281
     1
  3
ACAD_XREC_ROUNDTRIP
360
1AA0
  0
DICTIONARY
  5
1AA1
330
1879
100
AcDbDictionary
280
     1
281
     1
  3
ACAD_XREC_ROUNDTRIP
360
1AA2
  0
DICTIONARY
  5
1AA3
330
187A
100
AcDbDictionary
280
     1
281
     1
  3
ACAD_XREC_ROUNDTRIP
360
1AA4
  0
DICTIONARY
  5
1AAB
330
187E
100
AcDbDictionary
280
     1
281
     1
  3
ACAD_XREC_ROUNDTRIP
360
1AAC
  0
DICTIONARY
  5
1AC7
330
188C
100
AcDbDictionary
280
     1
281
     1
  3
ACAD_XREC_ROUNDTRIP
360
1AC8
  0
DICTIONARY
  5
1AB7
330
1884
100
AcDbDictionary
280
     1
281
     1
  3
ACAD_XREC_ROUNDTRIP
360
1AB8
  0
DICTIONARY
  5
1AC9
330
188D
100
AcDbDictionary
280
     1
281
     1
  3
ACAD_XREC_ROUNDTRIP
360
1ACA
  0
DICTIONARY
  5
1AAF
330
1880
100
AcDbDictionary
280
     1
281
     1
  3
ACAD_XREC_ROUNDTRIP
360
1AB0
  0
DICTIONARY
  5
1AC5
330
188B
100
AcDbDictionary
280
     1
281
     1
  3
ACAD_XREC_ROUNDTRIP
360
1AC6
  0
DICTIONARY
  5
1AC3
330
188A
100
AcDbDictionary
280
     1
281
     1
  3
ACAD_XREC_ROUNDTRIP
360
1AC4
  0
DICTIONARY
  5
1ABD
330
1887
100
AcDbDictionary
280
     1
281
     1
  3
ACAD_XREC_ROUNDTRIP
360
1ABE
  0
DICTIONARY
  5
1ABF
330
1888
100
AcDbDictionary
280
     1
281
     1
  3
ACAD_XREC_ROUNDTRIP
360
1AC0
  0
DICTIONARY
  5
1AB5
330
1883
100
AcDbDictionary
280
     1
281
     1
  3
ACAD_XREC_ROUNDTRIP
360
1AB6
  0
DICTIONARY
  5
1AA9
330
187D
100
AcDbDictionary
280
     1
281
     1
  3
ACAD_XREC_ROUNDTRIP
360
1AAA
  0
DICTIONARY
  5
1AC1
330
1889
100
AcDbDictionary
280
     1
281
     1
  3
ACAD_XREC_ROUNDTRIP
360
1AC2
  0
XRECORD
  5
1A92
102
{ACAD_REACTORS
330
1A98
102
}
330
1A98
100
AcDbXrecord
280
     1
  1
AcDb_Thumbnail_Schema
102
{ATTRRECORD
341
1A93
  2
AcDbDs::TreatedAsObjectData
280
     1
291
     1
102
ATTRRECORD}
102
{ATTRRECORD
341
1A94
  2
AcDbDs::Legacy
280
     1
291
     1
102
ATTRRECORD}
  2
AcDbDs::ID
280
    10
 91
        8
102
{ATTRRECORD
341
1A95
  2
AcDs:Indexable
280
     1
291
     1
102
ATTRRECORD}
102
{ATTRRECORD
341
1A96
  2
AcDbDs::HandleAttribute
280
     7
282
     1
102
ATTRRECORD}
  2
Thumbnail_Data
280
    15
 91
        0
  0
XRECORD
  5
1A93
102
{ACAD_REACTORS
330
1A98
102
}
330
1A98
100
AcDbXrecord
280
     1
  1
AcDbDs::TreatedAsObjectDataSchema
  2
AcDbDs::TreatedAsObjectData
280
     1
 91
        0
  0
XRECORD
  5
1A94
102
{ACAD_REACTORS
330
1A98
102
}
330
1A98
100
AcDbXrecord
280
     1
  1
AcDbDs::LegacySchema
  2
AcDbDs::Legacy
280
     1
 91
        0
  0
XRECORD
  5
1A95
102
{ACAD_REACTORS
330
1A98
102
}
330
1A98
100
AcDbXrecord
280
     1
  1
AcDbDs::IndexedPropertySchema
  2
AcDs:Indexable
280
     1
 91
        0
  0
XRECORD
  5
1A96
102
{ACAD_REACTORS
330
1A98
102
}
330
1A98
100
AcDbXrecord
280
     1
  1
AcDbDs::HandleAttributeSchema
  2
AcDbDs::HandleAttribute
280
     7
 91
        1
284
     1
  0
XRECORD
  5
1AD1
102
{ACAD_REACTORS
330
1A3D
102
}
330
1A3D
100
AcDbXrecord
280
     1
102
DISPLAYNAME
  1
Imperial24
102
FLAGS
 90
        0
  0
XRECORD
  5
1AD5
102
{ACAD_REACTORS
330
1AD4
102
}
330
1AD4
100
AcDbXrecord
280
     1
102
SHADEPLOT
 70
     0
102
SHADEPLOTRESLEVEL
 70
     2
102
SHADEPLOTCUSTOMDPI
 70
   300
  0
XRECORD
  5
1AD3
102
{ACAD_REACTORS
330
1AD2
102
}
330
1AD2
100
AcDbXrecord
280
     1
102
SHADEPLOT
 70
     0
102
SHADEPLOTRESLEVEL
 70
     2
102
SHADEPLOTCUSTOMDPI
 70
   300
  0
XRECORD
  5
1A9B
102
{ACAD_REACTORS
330
1867
102
}
330
1867
100
AcDbXrecord
280
     1
102
MATERIAL
148
0.0
149
0.0
149
0.0
 93
        0
 94
      127
282
     0
 72
     0
 77
     0
171
     0
175
     0
179
     0
273
     0
  0
XRECORD
  5
1869
102
{ACAD_REACTORS
330
1867
102
}
330
1867
100
AcDbXrecord
280
     1
270
     1
271
     1
  0
XRECORD
  5
1868
102
{ACAD_REACTORS
330
1867
102
}
330
1867
100
AcDbXrecord
280
     1
270
     1
271
     1
  0
XRECORD
  5
186C
102
{ACAD_REACTORS
330
1867
102
}
330
1867
100
AcDbXrecord
280
     1
270
     1
271
     1
  0
XRECORD
  5
186B
102
{ACAD_REACTORS
330
1867
102
}
330
1867
100
AcDbXrecord
280
     1
270
     1
271
     1
  0
XRECORD
  5
186D
102
{ACAD_REACTORS
330
1867
102
}
330
1867
100
AcDbXrecord
280
     1
270
     1
271
     1
  0
XRECORD
  5
186A
102
{ACAD_REACTORS
330
1867
102
}
330
1867
100
AcDbXrecord
280
     1
270
     1
271
     1
  0
XRECORD
  5
1A9A
102
{ACAD_REACTORS
330
185F
102
}
330
185F
100
AcDbXrecord
280
     1
102
MATERIAL
148
0.0
149
0.0
149
0.0
 93
        0
 94
      127
282
     0
 72
     0
 77
     0
171
     0
175
     0
179
     0
273
     0
  0
XRECORD
  5
1861
102
{ACAD_REACTORS
330
185F
102
}
330
185F
100
AcDbXrecord
280
     1
270
     1
271
     1
  0
XRECORD
  5
1860
102
{ACAD_REACTORS
330
185F
102
}
330
185F
100
AcDbXrecord
280
     1
270
     1
271
     1
  0
XRECORD
  5
1864
102
{ACAD_REACTORS
330
185F
102
}
330
185F
100
AcDbXrecord
280
     1
270
     1
271
     1
  0
XRECORD
  5
1863
102
{ACAD_REACTORS
330
185F
102
}
330
185F
100
AcDbXrecord
280
     1
270
     1
271
     1
  0
XRECORD
  5
1865
102
{ACAD_REACTORS
330
185F
102
}
330
185F
100
AcDbXrecord
280
     1
270
     1
271
     1
  0
XRECORD
  5
1862
102
{ACAD_REACTORS
330
185F
102
}
330
185F
100
AcDbXrecord
280
     1
270
     1
271
     1
  0
XRECORD
  5
1A9C
102
{ACAD_REACTORS
330
186F
102
}
330
186F
100
AcDbXrecord
280
     1
102
MATERIAL
148
0.0
149
0.0
149
0.0
 93
        0
 94
      127
282
     0
 72
     0
 77
     0
171
     0
175
     0
179
     0
273
     0
  0
XRECORD
  5
1871
102
{ACAD_REACTORS
330
186F
102
}
330
186F
100
AcDbXrecord
280
     1
270
     1
271
     1
  0
XRECORD
  5
1870
102
{ACAD_REACTORS
330
186F
102
}
330
186F
100
AcDbXrecord
280
     1
270
     1
271
     1
  0
XRECORD
  5
1874
102
{ACAD_REACTORS
330
186F
102
}
330
186F
100
AcDbXrecord
280
     1
270
     1
271
     1
  0
XRECORD
  5
1873
102
{ACAD_REACTORS
330
186F
102
}
330
186F
100
AcDbXrecord
280
     1
270
     1
271
     1
  0
XRECORD
  5
1875
102
{ACAD_REACTORS
330
186F
102
}
330
186F
100
AcDbXrecord
280
     1
270
     1
271
     1
  0
XRECORD
  5
1872
102
{ACAD_REACTORS
330
186F
102
}
330
186F
100
AcDbXrecord
280
     1
270
     1
271
     1
  0
XRECORD
  5
1ACF
102
{ACAD_REACTORS
330
1ACE
102
}
330
1ACE
100
AcDbXrecord
280
     1
102
ACAD_ROUNDTRIP_2012_MLEADER_STYLE
298
     1
  0
XRECORD
  5
1AD0
102
{ACAD_REACTORS
330
1A3B
102
}
330
1A3B
100
AcDbXrecord
280
     1
102
DISPLAYNAME
  1
Imperial24
102
FLAGS
 90
        0
  0
CELLSTYLEMAP
  5
1A8A
102
{ACAD_REACTORS
330
198B
102
}
330
198B
100
AcDbCellStyleMap
 90
        3
300
CELLSTYLE
  1
TABLEFORMAT_BEGIN
 90
        5
170
     1
 91
        0
 92
    32768
 62
   257
 93
        1
300
CONTENTFORMAT
  1
CONTENTFORMAT_BEGIN
 90
        0
 91
        0
 92
      512
 93
        0
300

 40
0.0
140
1.0
 94
        5
 62
     0
340
F
144
0.25
309
CONTENTFORMAT_END
171
     1
301
MARGIN
  1
CELLMARGIN_BEGIN
 40
0.06
 40
0.06
 40
0.06
 40
0.06
 40
0.18
 40
0.18
309
CELLMARGIN_END
 94
        6
 95
        1
302
GRIDFORMAT
  1
GRIDFORMAT_BEGIN
 90
        0
 91
        1
 62
     0
 92
       -2
340
0
 93
        0
 40
0.045
309
GRIDFORMAT_END
 95
        2
302
GRIDFORMAT
  1
GRIDFORMAT_BEGIN
 90
        0
 91
        1
 62
     0
 92
       -2
340
0
 93
        0
 40
0.045
309
GRIDFORMAT_END
 95
        4
302
GRIDFORMAT
  1
GRIDFORMAT_BEGIN
 90
        0
 91
        1
 62
     0
 92
       -2
340
0
 93
        0
 40
0.045
309
GRIDFORMAT_END
 95
        8
302
GRIDFORMAT
  1
GRIDFORMAT_BEGIN
 90
        0
 91
        1
 62
     0
 92
       -2
340
0
 93
        0
 40
0.045
309
GRIDFORMAT_END
 95
       16
302
GRIDFORMAT
  1
GRIDFORMAT_BEGIN
 90
        0
 91
        1
 62
     0
 92
       -2
340
0
 93
        0
 40
0.045
309
GRIDFORMAT_END
 95
       32
302
GRIDFORMAT
  1
GRIDFORMAT_BEGIN
 90
        0
 91
        1
 62
     0
 92
       -2
340
0
 93
        0
 40
0.045
309
GRIDFORMAT_END
309
TABLEFORMAT_END
  1
CELLSTYLE_BEGIN
 90
        1
 91
        1
300
_TITLE
309
CELLSTYLE_END
300
CELLSTYLE
  1
TABLEFORMAT_BEGIN
 90
        5
170
     1
 91
        0
 92
        0
 62
   257
 93
        1
300
CONTENTFORMAT
  1
CONTENTFORMAT_BEGIN
 90
        0
 91
        0
 92
      512
 93
        0
300

 40
0.0
140
1.0
 94
        5
 62
     0
340
F
144
0.18
309
CONTENTFORMAT_END
171
     1
301
MARGIN
  1
CELLMARGIN_BEGIN
 40
0.06
 40
0.06
 40
0.06
 40
0.06
 40
0.18
 40
0.18
309
CELLMARGIN_END
 94
        6
 95
        1
302
GRIDFORMAT
  1
GRIDFORMAT_BEGIN
 90
        0
 91
        1
 62
     0
 92
       -2
340
0
 93
        0
 40
0.045
309
GRIDFORMAT_END
 95
        2
302
GRIDFORMAT
  1
GRIDFORMAT_BEGIN
 90
        0
 91
        1
 62
     0
 92
       -2
340
0
 93
        0
 40
0.045
309
GRIDFORMAT_END
 95
        4
302
GRIDFORMAT
  1
GRIDFORMAT_BEGIN
 90
        0
 91
        1
 62
     0
 92
       -2
340
0
 93
        0
 40
0.045
309
GRIDFORMAT_END
 95
        8
302
GRIDFORMAT
  1
GRIDFORMAT_BEGIN
 90
        0
 91
        1
 62
     0
 92
       -2
340
0
 93
        0
 40
0.045
309
GRIDFORMAT_END
 95
       16
302
GRIDFORMAT
  1
GRIDFORMAT_BEGIN
 90
        0
 91
        1
 62
     0
 92
       -2
340
0
 93
        0
 40
0.045
309
GRIDFORMAT_END
 95
       32
302
GRIDFORMAT
  1
GRIDFORMAT_BEGIN
 90
        0
 91
        1
 62
     0
 92
       -2
340
0
 93
        0
 40
0.045
309
GRIDFORMAT_END
309
TABLEFORMAT_END
  1
CELLSTYLE_BEGIN
 90
        2
 91
        1
300
_HEADER
309
CELLSTYLE_END
300
CELLSTYLE
  1
TABLEFORMAT_BEGIN
 90
        5
170
     1
 91
        0
 92
        0
 62
   257
 93
        1
300
CONTENTFORMAT
  1
CONTENTFORMAT_BEGIN
 90
        0
 91
        0
 92
      512
 93
        0
300

 40
0.0
140
1.0
 94
        2
 62
     0
340
F
144
0.18
309
CONTENTFORMAT_END
171
     1
301
MARGIN
  1
CELLMARGIN_BEGIN
 40
0.06
 40
0.06
 40
0.06
 40
0.06
 40
0.18
 40
0.18
309
CELLMARGIN_END
 94
        6
 95
        1
302
GRIDFORMAT
  1
GRIDFORMAT_BEGIN
 90
        0
 91
        1
 62
     0
 92
       -2
340
0
 93
        0
 40
0.045
309
GRIDFORMAT_END
 95
        2
302
GRIDFORMAT
  1
GRIDFORMAT_BEGIN
 90
        0
 91
        1
 62
     0
 92
       -2
340
0
 93
        0
 40
0.045
309
GRIDFORMAT_END
 95
        4
302
GRIDFORMAT
  1
GRIDFORMAT_BEGIN
 90
        0
 91
        1
 62
     0
 92
       -2
340
0
 93
        0
 40
0.045
309
GRIDFORMAT_END
 95
        8
302
GRIDFORMAT
  1
GRIDFORMAT_BEGIN
 90
        0
 91
        1
 62
     0
 92
       -2
340
0
 93
        0
 40
0.045
309
GRIDFORMAT_END
 95
       16
302
GRIDFORMAT
  1
GRIDFORMAT_BEGIN
 90
        0
 91
        1
 62
     0
 92
       -2
340
0
 93
        0
 40
0.045
309
GRIDFORMAT_END
 95
       32
302
GRIDFORMAT
  1
GRIDFORMAT_BEGIN
 90
        0
 91
        1
 62
     0
 92
       -2
340
0
 93
        0
 40
0.045
309
GRIDFORMAT_END
309
TABLEFORMAT_END
  1
CELLSTYLE_BEGIN
 90
        3
 91
        2
300
_DATA
309
CELLSTYLE_END
  0
XRECORD
  5
1ACD
102
{ACAD_REACTORS
330
198B
102
}
330
198B
100
AcDbXrecord
280
     1
102
ACAD_ROUNDTRIP_PRE2007_TABLESTYLE
 90
      512
 91
        0
  1

 92
      512
 93
        0
  2

 94
      512
 95
        0
  3

  0
XRECORD
  5
1AA8
102
{ACAD_REACTORS
330
1AA7
102
}
330
1AA7
100
AcDbXrecord
280
     1
102
RTVSPost2010Prop28
280
     1
102
RTVSPost2010PropOp28
 70
     1
102
RTVSPost2010Prop29
280
     1
102
RTVSPost2010PropOp29
 70
     1
102
RTVSPost2010Prop30
280
     0
102
RTVSPost2010PropOp30
 70
     1
102
RTVSPost2010Prop31
280
     0
102
RTVSPost2010PropOp31
 70
     1
102
RTVSPost2010Prop32
280
     0
102
RTVSPost2010PropOp32
 70
     1
102
RTVSPost2010Prop33
280
     0
102
RTVSPost2010PropOp33
 70
     1
102
RTVSPost2010Prop34
280
     0
102
RTVSPost2010PropOp34
 70
     1
102
RTVSPost2010Prop35
280
     0
102
RTVSPost2010PropOp35
 70
     1
102
RTVSPost2010Prop36
280
     0
102
RTVSPost2010PropOp36
 70
     1
102
RTVSPost2010Prop37
 90
       50
102
RTVSPost2010PropOp37
 70
     1
102
RTVSPost2010Prop38
140
0.0
102
RTVSPost2010PropOp38
 70
     1
102
RTVSPost2010Prop39
140
1.0
102
RTVSPost2010PropOp39
 70
     1
102
RTVSPost2010Prop40
 90
        0
102
RTVSPost2010PropOp40
 70
     1
102
RTVSPost2010Prop41ColorIndex
 90
       18
102
RTVSPost2010Prop41ColorRGB
 90
-16777216
102
RTVSPost2010PropOp41
 70
     1
102
RTVSPost2010Prop42
 90
       50
102
RTVSPost2010PropOp42
 70
     1
102
RTVSPost2010Prop43
 90
        3
102
RTVSPost2010PropOp43
 70
     1
102
RTVSPost2010Prop44ColorIndex
 90
        5
102
RTVSPost2010Prop44ColorRGB
 90
      255
102
RTVSPost2010PropOp44
 70
     1
102
RTVSPost2010Prop45
280
     0
102
RTVSPost2010PropOp45
 70
     1
102
RTVSPost2010Prop46
 90
       50
102
RTVSPost2010PropOp46
 70
     1
102
RTVSPost2010Prop47
 90
       50
102
RTVSPost2010PropOp47
 70
     1
102
RTVSPost2010Prop48
 90
       50
102
RTVSPost2010PropOp48
 70
     1
102
RTVSPost2010Prop49
280
     0
102
RTVSPost2010PropOp49
 70
     1
102
RTVSPost2010Prop50
 90
       50
102
RTVSPost2010PropOp50
 70
     1
102
RTVSPost2010Prop51ColorIndex
 90
      256
102
RTVSPost2010Prop51ColorRGB
 90
-16777216
102
RTVSPost2010PropOp51
 70
     0
102
RTVSPost2010Prop52
140
1.0
102
RTVSPost2010PropOp52
 70
     0
102
RTVSPost2010Prop53
 90
        2
102
RTVSPost2010PropOp53
 70
     1
102
RTVSPost2010Prop54
  1
strokes_ogs.tif
102
RTVSPost2010PropOp54
 70
     1
102
RTVSPost2010Prop55
280
     0
102
RTVSPost2010PropOp55
 70
     1
102
RTVSPost2010Prop56
140
1.0
102
RTVSPost2010PropOp56
 70
     1
102
RTVSPost2010Prop57
140
1.0
102
RTVSPost2010PropOp57
 70
     1
102
RTVSPropertyOp0
 70
     1
102
RTVSPropertyOp1
 70
     1
102
RTVSPropertyOp2
 70
     1
102
RTVSPropertyOp3
 70
     1
102
RTVSPropertyOp4
 70
     1
102
RTVSPropertyOp5
 70
     1
102
RTVSPropertyOp6
 70
     1
102
RTVSPropertyOp7
 70
     1
102
RTVSPropertyOp8
 70
     1
102
RTVSPropertyOp9
 70
     1
102
RTVSPropertyOp10
 70
     1
102
RTVSPropertyOp11
 70
     1
102
RTVSPropertyOp12
 70
     1
102
RTVSPropertyOp13
 70
     1
102
RTVSPropertyOp14
 70
     1
102
RTVSPropertyOp15
 70
     1
102
RTVSPropertyOp16
 70
     1
102
RTVSPropertyOp17
 70
     1
102
RTVSPropertyOp18
 70
     1
102
RTVSPropertyOp19
 70
     1
102
RTVSPropertyOp20
 70
     1
102
RTVSPropertyOp21
 70
     1
102
RTVSPropertyOp22
 70
     1
102
RTVSPropertyOp23
 70
     1
102
RTVSPropertyOp24
 70
     1
102
RTVSPropertyOp25
 70
     1
102
RTVSPropertyOp26
 70
     1
102
RTVSPropertyOp27
 70
     1
102
RTVSPropertyOp28
 70
     1
102
RTVSPropertyOp29
 70
     1
102
RTVSPropertyOp30
 70
     1
102
RTVSPropertyOp31
 70
     1
102
RTVSPropertyOp32
 70
     1
102
RTVSPropertyOp33
 70
     1
102
RTVSPropertyOp34
 70
     1
102
RTVSPropertyOp35
 70
     1
102
RTVSPropertyOp36
 70
     1
102
RTVSPropertyOp37
 70
     1
102
RTVSPropertyOp38
 70
     1
102
RTVSPropertyOp39
 70
     1
102
RTVSPropertyOp40
 70
     1
102
RTVSPropertyOp41
 70
     1
102
RTVSPropertyOp42
 70
     1
102
RTVSPropertyOp43
 70
     1
102
RTVSPropertyOp44
 70
     1
102
RTVSPropertyOp45
 70
     1
102
RTVSPropertyOp46
 70
     1
102
RTVSPropertyOp47
 70
     1
102
RTVSPropertyOp48
 70
     1
102
RTVSPropertyOp49
 70
     1
102
RTVSPropertyOp50
 70
     1
102
RTVSPropertyOp51
 70
     0
102
RTVSPropertyOp52
 70
     0
102
RTVSPropertyOp53
 70
     1
102
RTVSPropertyOp54
 70
     1
102
RTVSPropertyOp55
 70
     1
102
RTVSPropertyOp56
 70
     1
102
RTVSPropertyOp57
 70
     1
102
RTVSPropertyOp58
 70
     1
102
RTVSPropertyOp59
 70
     1
102
RTVSPropertyOp60
 70
     1
102
RTVSPropertyOp61
 70
     1
102
RTVSPropertyOp62
 70
     1
  0
XRECORD
  5
1AA6
102
{ACAD_REACTORS
330
1AA5
102
}
330
1AA5
100
AcDbXrecord
280
     1
102
RTVSPost2010Prop28
280
     0
102
RTVSPost2010PropOp28
 70
     1
102
RTVSPost2010Prop29
280
     1
102
RTVSPost2010PropOp29
 70
     1
102
RTVSPost2010Prop30
280
     1
102
RTVSPost2010PropOp30
 70
     1
102
RTVSPost2010Prop31
280
     0
102
RTVSPost2010PropOp31
 70
     1
102
RTVSPost2010Prop32
280
     0
102
RTVSPost2010PropOp32
 70
     1
102
RTVSPost2010Prop33
280
     0
102
RTVSPost2010PropOp33
 70
     1
102
RTVSPost2010Prop34
280
     0
102
RTVSPost2010PropOp34
 70
     1
102
RTVSPost2010Prop35
280
     0
102
RTVSPost2010PropOp35
 70
     1
102
RTVSPost2010Prop36
280
     0
102
RTVSPost2010PropOp36
 70
     1
102
RTVSPost2010Prop37
 90
       50
102
RTVSPost2010PropOp37
 70
     1
102
RTVSPost2010Prop38
140
0.0
102
RTVSPost2010PropOp38
 70
     1
102
RTVSPost2010Prop39
140
1.0
102
RTVSPost2010PropOp39
 70
     1
102
RTVSPost2010Prop40
 90
        0
102
RTVSPost2010PropOp40
 70
     1
102
RTVSPost2010Prop41ColorIndex
 90
       18
102
RTVSPost2010Prop41ColorRGB
 90
-16777216
102
RTVSPost2010PropOp41
 70
     1
102
RTVSPost2010Prop42
 90
       50
102
RTVSPost2010PropOp42
 70
     1
102
RTVSPost2010Prop43
 90
        3
102
RTVSPost2010PropOp43
 70
     1
102
RTVSPost2010Prop44ColorIndex
 90
        5
102
RTVSPost2010Prop44ColorRGB
 90
      255
102
RTVSPost2010PropOp44
 70
     1
102
RTVSPost2010Prop45
280
     0
102
RTVSPost2010PropOp45
 70
     1
102
RTVSPost2010Prop46
 90
       50
102
RTVSPost2010PropOp46
 70
     1
102
RTVSPost2010Prop47
 90
       50
102
RTVSPost2010PropOp47
 70
     1
102
RTVSPost2010Prop48
 90
       50
102
RTVSPost2010PropOp48
 70
     1
102
RTVSPost2010Prop49
280
     0
102
RTVSPost2010PropOp49
 70
     1
102
RTVSPost2010Prop50
 90
       50
102
RTVSPost2010PropOp50
 70
     1
102
RTVSPost2010Prop51ColorIndex
 90
      256
102
RTVSPost2010Prop51ColorRGB
 90
-16777216
102
RTVSPost2010PropOp51
 70
     0
102
RTVSPost2010Prop52
140
1.0
102
RTVSPost2010PropOp52
 70
     0
102
RTVSPost2010Prop53
 90
        2
102
RTVSPost2010PropOp53
 70
     1
102
RTVSPost2010Prop54
  1
strokes_ogs.tif
102
RTVSPost2010PropOp54
 70
     1
102
RTVSPost2010Prop55
280
     0
102
RTVSPost2010PropOp55
 70
     1
102
RTVSPost2010Prop56
140
1.0
102
RTVSPost2010PropOp56
 70
     1
102
RTVSPost2010Prop57
140
1.0
102
RTVSPost2010PropOp57
 70
     1
102
RTVSPropertyOp0
 70
     1
102
RTVSPropertyOp1
 70
     1
102
RTVSPropertyOp2
 70
     1
102
RTVSPropertyOp3
 70
     1
102
RTVSPropertyOp4
 70
     1
102
RTVSPropertyOp5
 70
     1
102
RTVSPropertyOp6
 70
     1
102
RTVSPropertyOp7
 70
     1
102
RTVSPropertyOp8
 70
     1
102
RTVSPropertyOp9
 70
     1
102
RTVSPropertyOp10
 70
     1
102
RTVSPropertyOp11
 70
     1
102
RTVSPropertyOp12
 70
     1
102
RTVSPropertyOp13
 70
     1
102
RTVSPropertyOp14
 70
     1
102
RTVSPropertyOp15
 70
     1
102
RTVSPropertyOp16
 70
     1
102
RTVSPropertyOp17
 70
     1
102
RTVSPropertyOp18
 70
     1
102
RTVSPropertyOp19
 70
     1
102
RTVSPropertyOp20
 70
     1
102
RTVSPropertyOp21
 70
     1
102
RTVSPropertyOp22
 70
     1
102
RTVSPropertyOp23
 70
     1
102
RTVSPropertyOp24
 70
     1
102
RTVSPropertyOp25
 70
     1
102
RTVSPropertyOp26
 70
     1
102
RTVSPropertyOp27
 70
     1
102
RTVSPropertyOp28
 70
     1
102
RTVSPropertyOp29
 70
     1
102
RTVSPropertyOp30
 70
     1
102
RTVSPropertyOp31
 70
     1
102
RTVSPropertyOp32
 70
     1
102
RTVSPropertyOp33
 70
     1
102
RTVSPropertyOp34
 70
     1
102
RTVSPropertyOp35
 70
     1
102
RTVSPropertyOp36
 70
     1
102
RTVSPropertyOp37
 70
     1
102
RTVSPropertyOp38
 70
     1
102
RTVSPropertyOp39
 70
     1
102
RTVSPropertyOp40
 70
     1
102
RTVSPropertyOp41
 70
     1
102
RTVSPropertyOp42
 70
     1
102
RTVSPropertyOp43
 70
     1
102
RTVSPropertyOp44
 70
     1
102
RTVSPropertyOp45
 70
     1
102
RTVSPropertyOp46
 70
     1
102
RTVSPropertyOp47
 70
     1
102
RTVSPropertyOp48
 70
     1
102
RTVSPropertyOp49
 70
     1
102
RTVSPropertyOp50
 70
     1
102
RTVSPropertyOp51
 70
     0
102
RTVSPropertyOp52
 70
     0
102
RTVSPropertyOp53
 70
     1
102
RTVSPropertyOp54
 70
     1
102
RTVSPropertyOp55
 70
     1
102
RTVSPropertyOp56
 70
     1
102
RTVSPropertyOp57
 70
     1
102
RTVSPropertyOp58
 70
     1
102
RTVSPropertyOp59
 70
     1
102
RTVSPropertyOp60
 70
     1
102
RTVSPropertyOp61
 70
     1
102
RTVSPropertyOp62
 70
     1
  0
XRECORD
  5
1AB4
102
{ACAD_REACTORS
330
1AB3
102
}
330
1AB3
100
AcDbXrecord
280
     1
102
RTVSPost2010Prop28
280
     0
102
RTVSPost2010PropOp28
 70
     1
102
RTVSPost2010Prop29
280
     1
102
RTVSPost2010PropOp29
 70
     1
102
RTVSPost2010Prop30
280
     1
102
RTVSPost2010PropOp30
 70
     1
102
RTVSPost2010Prop31
280
     0
102
RTVSPost2010PropOp31
 70
     1
102
RTVSPost2010Prop32
280
     0
102
RTVSPost2010PropOp32
 70
     1
102
RTVSPost2010Prop33
280
     0
102
RTVSPost2010PropOp33
 70
     1
102
RTVSPost2010Prop34
280
     0
102
RTVSPost2010PropOp34
 70
     1
102
RTVSPost2010Prop35
280
     0
102
RTVSPost2010PropOp35
 70
     1
102
RTVSPost2010Prop36
280
     0
102
RTVSPost2010PropOp36
 70
     1
102
RTVSPost2010Prop37
 90
       50
102
RTVSPost2010PropOp37
 70
     1
102
RTVSPost2010Prop38
140
0.0
102
RTVSPost2010PropOp38
 70
     1
102
RTVSPost2010Prop39
140
1.0
102
RTVSPost2010PropOp39
 70
     1
102
RTVSPost2010Prop40
 90
        0
102
RTVSPost2010PropOp40
 70
     1
102
RTVSPost2010Prop41ColorIndex
 90
       18
102
RTVSPost2010Prop41ColorRGB
 90
-16777216
102
RTVSPost2010PropOp41
 70
     1
102
RTVSPost2010Prop42
 90
       50
102
RTVSPost2010PropOp42
 70
     1
102
RTVSPost2010Prop43
 90
        3
102
RTVSPost2010PropOp43
 70
     1
102
RTVSPost2010Prop44ColorIndex
 90
        5
102
RTVSPost2010Prop44ColorRGB
 90
      255
102
RTVSPost2010PropOp44
 70
     1
102
RTVSPost2010Prop45
280
     0
102
RTVSPost2010PropOp45
 70
     1
102
RTVSPost2010Prop46
 90
       50
102
RTVSPost2010PropOp46
 70
     1
102
RTVSPost2010Prop47
 90
       50
102
RTVSPost2010PropOp47
 70
     1
102
RTVSPost2010Prop48
 90
       50
102
RTVSPost2010PropOp48
 70
     1
102
RTVSPost2010Prop49
280
     0
102
RTVSPost2010PropOp49
 70
     1
102
RTVSPost2010Prop50
 90
       50
102
RTVSPost2010PropOp50
 70
     1
102
RTVSPost2010Prop51ColorIndex
 90
      256
102
RTVSPost2010Prop51ColorRGB
 90
-16777216
102
RTVSPost2010PropOp51
 70
     0
102
RTVSPost2010Prop52
140
1.0
102
RTVSPost2010PropOp52
 70
     0
102
RTVSPost2010Prop53
 90
        2
102
RTVSPost2010PropOp53
 70
     1
102
RTVSPost2010Prop54
  1
strokes_ogs.tif
102
RTVSPost2010PropOp54
 70
     1
102
RTVSPost2010Prop55
280
     0
102
RTVSPost2010PropOp55
 70
     1
102
RTVSPost2010Prop56
140
1.0
102
RTVSPost2010PropOp56
 70
     1
102
RTVSPost2010Prop57
140
1.0
102
RTVSPost2010PropOp57
 70
     1
102
RTVSPropertyOp0
 70
     1
102
RTVSPropertyOp1
 70
     1
102
RTVSPropertyOp2
 70
     1
102
RTVSPropertyOp3
 70
     1
102
RTVSPropertyOp4
 70
     1
102
RTVSPropertyOp5
 70
     1
102
RTVSPropertyOp6
 70
     1
102
RTVSPropertyOp7
 70
     1
102
RTVSPropertyOp8
 70
     1
102
RTVSPropertyOp9
 70
     1
102
RTVSPropertyOp10
 70
     1
102
RTVSPropertyOp11
 70
     1
102
RTVSPropertyOp12
 70
     1
102
RTVSPropertyOp13
 70
     1
102
RTVSPropertyOp14
 70
     1
102
RTVSPropertyOp15
 70
     1
102
RTVSPropertyOp16
 70
     1
102
RTVSPropertyOp17
 70
     1
102
RTVSPropertyOp18
 70
     1
102
RTVSPropertyOp19
 70
     1
102
RTVSPropertyOp20
 70
     1
102
RTVSPropertyOp21
 70
     1
102
RTVSPropertyOp22
 70
     1
102
RTVSPropertyOp23
 70
     1
102
RTVSPropertyOp24
 70
     1
102
RTVSPropertyOp25
 70
     1
102
RTVSPropertyOp26
 70
     1
102
RTVSPropertyOp27
 70
     1
102
RTVSPropertyOp28
 70
     1
102
RTVSPropertyOp29
 70
     1
102
RTVSPropertyOp30
 70
     1
102
RTVSPropertyOp31
 70
     1
102
RTVSPropertyOp32
 70
     1
102
RTVSPropertyOp33
 70
     1
102
RTVSPropertyOp34
 70
     1
102
RTVSPropertyOp35
 70
     1
102
RTVSPropertyOp36
 70
     1
102
RTVSPropertyOp37
 70
     1
102
RTVSPropertyOp38
 70
     1
102
RTVSPropertyOp39
 70
     1
102
RTVSPropertyOp40
 70
     1
102
RTVSPropertyOp41
 70
     1
102
RTVSPropertyOp42
 70
     1
102
RTVSPropertyOp43
 70
     1
102
RTVSPropertyOp44
 70
     1
102
RTVSPropertyOp45
 70
     1
102
RTVSPropertyOp46
 70
     1
102
RTVSPropertyOp47
 70
     1
102
RTVSPropertyOp48
 70
     1
102
RTVSPropertyOp49
 70
     1
102
RTVSPropertyOp50
 70
     1
102
RTVSPropertyOp51
 70
     0
102
RTVSPropertyOp52
 70
     0
102
RTVSPropertyOp53
 70
     1
102
RTVSPropertyOp54
 70
     1
102
RTVSPropertyOp55
 70
     1
102
RTVSPropertyOp56
 70
     1
102
RTVSPropertyOp57
 70
     1
102
RTVSPropertyOp58
 70
     1
102
RTVSPropertyOp59
 70
     1
102
RTVSPropertyOp60
 70
     1
102
RTVSPropertyOp61
 70
     1
102
RTVSPropertyOp62
 70
     1
  0
XRECORD
  5
1ABC
102
{ACAD_REACTORS
330
1ABB
102
}
330
1ABB
100
AcDbXrecord
280
     1
102
RTVSPost2010Prop28
280
     0
102
RTVSPost2010PropOp28
 70
     1
102
RTVSPost2010Prop29
280
     1
102
RTVSPost2010PropOp29
 70
     1
102
RTVSPost2010Prop30
280
     1
102
RTVSPost2010PropOp30
 70
     1
102
RTVSPost2010Prop31
280
     0
102
RTVSPost2010PropOp31
 70
     1
102
RTVSPost2010Prop32
280
     0
102
RTVSPost2010PropOp32
 70
     1
102
RTVSPost2010Prop33
280
     0
102
RTVSPost2010PropOp33
 70
     1
102
RTVSPost2010Prop34
280
     0
102
RTVSPost2010PropOp34
 70
     1
102
RTVSPost2010Prop35
280
     0
102
RTVSPost2010PropOp35
 70
     1
102
RTVSPost2010Prop36
280
     0
102
RTVSPost2010PropOp36
 70
     1
102
RTVSPost2010Prop37
 90
       50
102
RTVSPost2010PropOp37
 70
     1
102
RTVSPost2010Prop38
140
0.0
102
RTVSPost2010PropOp38
 70
     1
102
RTVSPost2010Prop39
140
1.0
102
RTVSPost2010PropOp39
 70
     1
102
RTVSPost2010Prop40
 90
        0
102
RTVSPost2010PropOp40
 70
     1
102
RTVSPost2010Prop41ColorIndex
 90
       18
102
RTVSPost2010Prop41ColorRGB
 90
-16777216
102
RTVSPost2010PropOp41
 70
     1
102
RTVSPost2010Prop42
 90
       50
102
RTVSPost2010PropOp42
 70
     1
102
RTVSPost2010Prop43
 90
        3
102
RTVSPost2010PropOp43
 70
     1
102
RTVSPost2010Prop44ColorIndex
 90
        5
102
RTVSPost2010Prop44ColorRGB
 90
      255
102
RTVSPost2010PropOp44
 70
     1
102
RTVSPost2010Prop45
280
     0
102
RTVSPost2010PropOp45
 70
     1
102
RTVSPost2010Prop46
 90
       50
102
RTVSPost2010PropOp46
 70
     1
102
RTVSPost2010Prop47
 90
       50
102
RTVSPost2010PropOp47
 70
     1
102
RTVSPost2010Prop48
 90
       50
102
RTVSPost2010PropOp48
 70
     1
102
RTVSPost2010Prop49
280
     0
102
RTVSPost2010PropOp49
 70
     1
102
RTVSPost2010Prop50
 90
       50
102
RTVSPost2010PropOp50
 70
     1
102
RTVSPost2010Prop51ColorIndex
 90
      256
102
RTVSPost2010Prop51ColorRGB
 90
-16777216
102
RTVSPost2010PropOp51
 70
     0
102
RTVSPost2010Prop52
140
1.0
102
RTVSPost2010PropOp52
 70
     0
102
RTVSPost2010Prop53
 90
        2
102
RTVSPost2010PropOp53
 70
     1
102
RTVSPost2010Prop54
  1
strokes_ogs.tif
102
RTVSPost2010PropOp54
 70
     1
102
RTVSPost2010Prop55
280
     0
102
RTVSPost2010PropOp55
 70
     1
102
RTVSPost2010Prop56
140
1.0
102
RTVSPost2010PropOp56
 70
     1
102
RTVSPost2010Prop57
140
1.0
102
RTVSPost2010PropOp57
 70
     1
102
RTVSPropertyOp0
 70
     1
102
RTVSPropertyOp1
 70
     1
102
RTVSPropertyOp2
 70
     1
102
RTVSPropertyOp3
 70
     1
102
RTVSPropertyOp4
 70
     1
102
RTVSPropertyOp5
 70
     1
102
RTVSPropertyOp6
 70
     1
102
RTVSPropertyOp7
 70
     1
102
RTVSPropertyOp8
 70
     1
102
RTVSPropertyOp9
 70
     1
102
RTVSPropertyOp10
 70
     1
102
RTVSPropertyOp11
 70
     1
102
RTVSPropertyOp12
 70
     1
102
RTVSPropertyOp13
 70
     1
102
RTVSPropertyOp14
 70
     1
102
RTVSPropertyOp15
 70
     1
102
RTVSPropertyOp16
 70
     1
102
RTVSPropertyOp17
 70
     1
102
RTVSPropertyOp18
 70
     1
102
RTVSPropertyOp19
 70
     1
102
RTVSPropertyOp20
 70
     1
102
RTVSPropertyOp21
 70
     1
102
RTVSPropertyOp22
 70
     1
102
RTVSPropertyOp23
 70
     1
102
RTVSPropertyOp24
 70
     1
102
RTVSPropertyOp25
 70
     1
102
RTVSPropertyOp26
 70
     1
102
RTVSPropertyOp27
 70
     1
102
RTVSPropertyOp28
 70
     1
102
RTVSPropertyOp29
 70
     1
102
RTVSPropertyOp30
 70
     1
102
RTVSPropertyOp31
 70
     1
102
RTVSPropertyOp32
 70
     1
102
RTVSPropertyOp33
 70
     1
102
RTVSPropertyOp34
 70
     1
102
RTVSPropertyOp35
 70
     1
102
RTVSPropertyOp36
 70
     1
102
RTVSPropertyOp37
 70
     1
102
RTVSPropertyOp38
 70
     1
102
RTVSPropertyOp39
 70
     1
102
RTVSPropertyOp40
 70
     1
102
RTVSPropertyOp41
 70
     1
102
RTVSPropertyOp42
 70
     1
102
RTVSPropertyOp43
 70
     1
102
RTVSPropertyOp44
 70
     1
102
RTVSPropertyOp45
 70
     1
102
RTVSPropertyOp46
 70
     1
102
RTVSPropertyOp47
 70
     1
102
RTVSPropertyOp48
 70
     1
102
RTVSPropertyOp49
 70
     1
102
RTVSPropertyOp50
 70
     1
102
RTVSPropertyOp51
 70
     0
102
RTVSPropertyOp52
 70
     0
102
RTVSPropertyOp53
 70
     1
102
RTVSPropertyOp54
 70
     1
102
RTVSPropertyOp55
 70
     1
102
RTVSPropertyOp56
 70
     1
102
RTVSPropertyOp57
 70
     1
102
RTVSPropertyOp58
 70
     1
102
RTVSPropertyOp59
 70
     1
102
RTVSPropertyOp60
 70
     1
102
RTVSPropertyOp61
 70
     1
102
RTVSPropertyOp62
 70
     1
  0
XRECORD
  5
1AAE
102
{ACAD_REACTORS
330
1AAD
102
}
330
1AAD
100
AcDbXrecord
280
     1
102
RTVSPost2010Prop28
280
     0
102
RTVSPost2010PropOp28
 70
     1
102
RTVSPost2010Prop29
280
     1
102
RTVSPost2010PropOp29
 70
     1
102
RTVSPost2010Prop30
280
     1
102
RTVSPost2010PropOp30
 70
     1
102
RTVSPost2010Prop31
280
     0
102
RTVSPost2010PropOp31
 70
     1
102
RTVSPost2010Prop32
280
     0
102
RTVSPost2010PropOp32
 70
     1
102
RTVSPost2010Prop33
280
     0
102
RTVSPost2010PropOp33
 70
     1
102
RTVSPost2010Prop34
280
     0
102
RTVSPost2010PropOp34
 70
     1
102
RTVSPost2010Prop35
280
     0
102
RTVSPost2010PropOp35
 70
     1
102
RTVSPost2010Prop36
280
     0
102
RTVSPost2010PropOp36
 70
     1
102
RTVSPost2010Prop37
 90
       50
102
RTVSPost2010PropOp37
 70
     1
102
RTVSPost2010Prop38
140
0.0
102
RTVSPost2010PropOp38
 70
     1
102
RTVSPost2010Prop39
140
1.0
102
RTVSPost2010PropOp39
 70
     1
102
RTVSPost2010Prop40
 90
        0
102
RTVSPost2010PropOp40
 70
     1
102
RTVSPost2010Prop41ColorIndex
 90
       18
102
RTVSPost2010Prop41ColorRGB
 90
-16777216
102
RTVSPost2010PropOp41
 70
     1
102
RTVSPost2010Prop42
 90
       50
102
RTVSPost2010PropOp42
 70
     1
102
RTVSPost2010Prop43
 90
        3
102
RTVSPost2010PropOp43
 70
     1
102
RTVSPost2010Prop44ColorIndex
 90
        5
102
RTVSPost2010Prop44ColorRGB
 90
      255
102
RTVSPost2010PropOp44
 70
     1
102
RTVSPost2010Prop45
280
     0
102
RTVSPost2010PropOp45
 70
     1
102
RTVSPost2010Prop46
 90
       50
102
RTVSPost2010PropOp46
 70
     1
102
RTVSPost2010Prop47
 90
       50
102
RTVSPost2010PropOp47
 70
     1
102
RTVSPost2010Prop48
 90
       50
102
RTVSPost2010PropOp48
 70
     1
102
RTVSPost2010Prop49
280
     0
102
RTVSPost2010PropOp49
 70
     1
102
RTVSPost2010Prop50
 90
       50
102
RTVSPost2010PropOp50
 70
     1
102
RTVSPost2010Prop51ColorIndex
 90
      256
102
RTVSPost2010Prop51ColorRGB
 90
-16777216
102
RTVSPost2010PropOp51
 70
     0
102
RTVSPost2010Prop52
140
1.0
102
RTVSPost2010PropOp52
 70
     0
102
RTVSPost2010Prop53
 90
        2
102
RTVSPost2010PropOp53
 70
     1
102
RTVSPost2010Prop54
  1
strokes_ogs.tif
102
RTVSPost2010PropOp54
 70
     1
102
RTVSPost2010Prop55
280
     0
102
RTVSPost2010PropOp55
 70
     1
102
RTVSPost2010Prop56
140
1.0
102
RTVSPost2010PropOp56
 70
     1
102
RTVSPost2010Prop57
140
1.0
102
RTVSPost2010PropOp57
 70
     1
102
RTVSPropertyOp0
 70
     1
102
RTVSPropertyOp1
 70
     1
102
RTVSPropertyOp2
 70
     1
102
RTVSPropertyOp3
 70
     1
102
RTVSPropertyOp4
 70
     1
102
RTVSPropertyOp5
 70
     1
102
RTVSPropertyOp6
 70
     1
102
RTVSPropertyOp7
 70
     1
102
RTVSPropertyOp8
 70
     1
102
RTVSPropertyOp9
 70
     1
102
RTVSPropertyOp10
 70
     1
102
RTVSPropertyOp11
 70
     1
102
RTVSPropertyOp12
 70
     1
102
RTVSPropertyOp13
 70
     1
102
RTVSPropertyOp14
 70
     1
102
RTVSPropertyOp15
 70
     1
102
RTVSPropertyOp16
 70
     1
102
RTVSPropertyOp17
 70
     1
102
RTVSPropertyOp18
 70
     1
102
RTVSPropertyOp19
 70
     1
102
RTVSPropertyOp20
 70
     1
102
RTVSPropertyOp21
 70
     1
102
RTVSPropertyOp22
 70
     1
102
RTVSPropertyOp23
 70
     1
102
RTVSPropertyOp24
 70
     1
102
RTVSPropertyOp25
 70
     1
102
RTVSPropertyOp26
 70
     1
102
RTVSPropertyOp27
 70
     1
102
RTVSPropertyOp28
 70
     1
102
RTVSPropertyOp29
 70
     1
102
RTVSPropertyOp30
 70
     1
102
RTVSPropertyOp31
 70
     1
102
RTVSPropertyOp32
 70
     1
102
RTVSPropertyOp33
 70
     1
102
RTVSPropertyOp34
 70
     1
102
RTVSPropertyOp35
 70
     1
102
RTVSPropertyOp36
 70
     1
102
RTVSPropertyOp37
 70
     1
102
RTVSPropertyOp38
 70
     1
102
RTVSPropertyOp39
 70
     1
102
RTVSPropertyOp40
 70
     1
102
RTVSPropertyOp41
 70
     1
102
RTVSPropertyOp42
 70
     1
102
RTVSPropertyOp43
 70
     1
102
RTVSPropertyOp44
 70
     1
102
RTVSPropertyOp45
 70
     1
102
RTVSPropertyOp46
 70
     1
102
RTVSPropertyOp47
 70
     1
102
RTVSPropertyOp48
 70
     1
102
RTVSPropertyOp49
 70
     1
102
RTVSPropertyOp50
 70
     1
102
RTVSPropertyOp51
 70
     0
102
RTVSPropertyOp52
 70
     0
102
RTVSPropertyOp53
 70
     1
102
RTVSPropertyOp54
 70
     1
102
RTVSPropertyOp55
 70
     1
102
RTVSPropertyOp56
 70
     1
102
RTVSPropertyOp57
 70
     1
102
RTVSPropertyOp58
 70
     1
102
RTVSPropertyOp59
 70
     1
102
RTVSPropertyOp60
 70
     1
102
RTVSPropertyOp61
 70
     1
102
RTVSPropertyOp62
 70
     1
  0
XRECORD
  5
1AB2
102
{ACAD_REACTORS
330
1AB1
102
}
330
1AB1
100
AcDbXrecord
280
     1
102
RTVSPost2010Prop28
280
     0
102
RTVSPost2010PropOp28
 70
     1
102
RTVSPost2010Prop29
280
     1
102
RTVSPost2010PropOp29
 70
     1
102
RTVSPost2010Prop30
280
     1
102
RTVSPost2010PropOp30
 70
     1
102
RTVSPost2010Prop31
280
     0
102
RTVSPost2010PropOp31
 70
     1
102
RTVSPost2010Prop32
280
     0
102
RTVSPost2010PropOp32
 70
     1
102
RTVSPost2010Prop33
280
     0
102
RTVSPost2010PropOp33
 70
     1
102
RTVSPost2010Prop34
280
     0
102
RTVSPost2010PropOp34
 70
     1
102
RTVSPost2010Prop35
280
     0
102
RTVSPost2010PropOp35
 70
     1
102
RTVSPost2010Prop36
280
     0
102
RTVSPost2010PropOp36
 70
     1
102
RTVSPost2010Prop37
 90
       50
102
RTVSPost2010PropOp37
 70
     1
102
RTVSPost2010Prop38
140
0.0
102
RTVSPost2010PropOp38
 70
     1
102
RTVSPost2010Prop39
140
1.0
102
RTVSPost2010PropOp39
 70
     1
102
RTVSPost2010Prop40
 90
        0
102
RTVSPost2010PropOp40
 70
     1
102
RTVSPost2010Prop41ColorIndex
 90
       18
102
RTVSPost2010Prop41ColorRGB
 90
-16777216
102
RTVSPost2010PropOp41
 70
     1
102
RTVSPost2010Prop42
 90
       50
102
RTVSPost2010PropOp42
 70
     1
102
RTVSPost2010Prop43
 90
        3
102
RTVSPost2010PropOp43
 70
     1
102
RTVSPost2010Prop44ColorIndex
 90
        5
102
RTVSPost2010Prop44ColorRGB
 90
      255
102
RTVSPost2010PropOp44
 70
     1
102
RTVSPost2010Prop45
280
     0
102
RTVSPost2010PropOp45
 70
     1
102
RTVSPost2010Prop46
 90
       50
102
RTVSPost2010PropOp46
 70
     1
102
RTVSPost2010Prop47
 90
       50
102
RTVSPost2010PropOp47
 70
     1
102
RTVSPost2010Prop48
 90
       50
102
RTVSPost2010PropOp48
 70
     1
102
RTVSPost2010Prop49
280
     0
102
RTVSPost2010PropOp49
 70
     1
102
RTVSPost2010Prop50
 90
       50
102
RTVSPost2010PropOp50
 70
     1
102
RTVSPost2010Prop51ColorIndex
 90
      256
102
RTVSPost2010Prop51ColorRGB
 90
-16777216
102
RTVSPost2010PropOp51
 70
     0
102
RTVSPost2010Prop52
140
1.0
102
RTVSPost2010PropOp52
 70
     0
102
RTVSPost2010Prop53
 90
        2
102
RTVSPost2010PropOp53
 70
     1
102
RTVSPost2010Prop54
  1
strokes_ogs.tif
102
RTVSPost2010PropOp54
 70
     1
102
RTVSPost2010Prop55
280
     0
102
RTVSPost2010PropOp55
 70
     1
102
RTVSPost2010Prop56
140
1.0
102
RTVSPost2010PropOp56
 70
     1
102
RTVSPost2010Prop57
140
1.0
102
RTVSPost2010PropOp57
 70
     1
102
RTVSPropertyOp0
 70
     1
102
RTVSPropertyOp1
 70
     1
102
RTVSPropertyOp2
 70
     1
102
RTVSPropertyOp3
 70
     1
102
RTVSPropertyOp4
 70
     1
102
RTVSPropertyOp5
 70
     1
102
RTVSPropertyOp6
 70
     1
102
RTVSPropertyOp7
 70
     1
102
RTVSPropertyOp8
 70
     1
102
RTVSPropertyOp9
 70
     1
102
RTVSPropertyOp10
 70
     1
102
RTVSPropertyOp11
 70
     1
102
RTVSPropertyOp12
 70
     1
102
RTVSPropertyOp13
 70
     1
102
RTVSPropertyOp14
 70
     1
102
RTVSPropertyOp15
 70
     1
102
RTVSPropertyOp16
 70
     1
102
RTVSPropertyOp17
 70
     1
102
RTVSPropertyOp18
 70
     1
102
RTVSPropertyOp19
 70
     1
102
RTVSPropertyOp20
 70
     1
102
RTVSPropertyOp21
 70
     1
102
RTVSPropertyOp22
 70
     1
102
RTVSPropertyOp23
 70
     1
102
RTVSPropertyOp24
 70
     1
102
RTVSPropertyOp25
 70
     1
102
RTVSPropertyOp26
 70
     1
102
RTVSPropertyOp27
 70
     1
102
RTVSPropertyOp28
 70
     1
102
RTVSPropertyOp29
 70
     1
102
RTVSPropertyOp30
 70
     1
102
RTVSPropertyOp31
 70
     1
102
RTVSPropertyOp32
 70
     1
102
RTVSPropertyOp33
 70
     1
102
RTVSPropertyOp34
 70
     1
102
RTVSPropertyOp35
 70
     1
102
RTVSPropertyOp36
 70
     1
102
RTVSPropertyOp37
 70
     1
102
RTVSPropertyOp38
 70
     1
102
RTVSPropertyOp39
 70
     1
102
RTVSPropertyOp40
 70
     1
102
RTVSPropertyOp41
 70
     1
102
RTVSPropertyOp42
 70
     1
102
RTVSPropertyOp43
 70
     1
102
RTVSPropertyOp44
 70
     1
102
RTVSPropertyOp45
 70
     1
102
RTVSPropertyOp46
 70
     1
102
RTVSPropertyOp47
 70
     1
102
RTVSPropertyOp48
 70
     1
102
RTVSPropertyOp49
 70
     1
102
RTVSPropertyOp50
 70
     1
102
RTVSPropertyOp51
 70
     0
102
RTVSPropertyOp52
 70
     0
102
RTVSPropertyOp53
 70
     1
102
RTVSPropertyOp54
 70
     1
102
RTVSPropertyOp55
 70
     1
102
RTVSPropertyOp56
 70
     1
102
RTVSPropertyOp57
 70
     1
102
RTVSPropertyOp58
 70
     1
102
RTVSPropertyOp59
 70
     1
102
RTVSPropertyOp60
 70
     1
102
RTVSPropertyOp61
 70
     1
102
RTVSPropertyOp62
 70
     1
  0
XRECORD
  5
1ACC
102
{ACAD_REACTORS
330
1ACB
102
}
330
1ACB
100
AcDbXrecord
280
     1
102
RTVSPost2010Prop28
280
     0
102
RTVSPost2010PropOp28
 70
     0
102
RTVSPost2010Prop29
280
     1
102
RTVSPost2010PropOp29
 70
     0
102
RTVSPost2010Prop30
280
     1
102
RTVSPost2010PropOp30
 70
     0
102
RTVSPost2010Prop31
280
     0
102
RTVSPost2010PropOp31
 70
     0
102
RTVSPost2010Prop32
280
     0
102
RTVSPost2010PropOp32
 70
     0
102
RTVSPost2010Prop33
280
     0
102
RTVSPost2010PropOp33
 70
     0
102
RTVSPost2010Prop34
280
     0
102
RTVSPost2010PropOp34
 70
     0
102
RTVSPost2010Prop35
280
     0
102
RTVSPost2010PropOp35
 70
     0
102
RTVSPost2010Prop36
280
     0
102
RTVSPost2010PropOp36
 70
     0
102
RTVSPost2010Prop37
 90
       50
102
RTVSPost2010PropOp37
 70
     0
102
RTVSPost2010Prop38
140
0.0
102
RTVSPost2010PropOp38
 70
     0
102
RTVSPost2010Prop39
140
1.0
102
RTVSPost2010PropOp39
 70
     0
102
RTVSPost2010Prop40
 90
        0
102
RTVSPost2010PropOp40
 70
     0
102
RTVSPost2010Prop41ColorIndex
 90
       18
102
RTVSPost2010Prop41ColorRGB
 90
-16777216
102
RTVSPost2010PropOp41
 70
     0
102
RTVSPost2010Prop42
 90
       50
102
RTVSPost2010PropOp42
 70
     0
102
RTVSPost2010Prop43
 90
        3
102
RTVSPost2010PropOp43
 70
     0
102
RTVSPost2010Prop44ColorIndex
 90
        5
102
RTVSPost2010Prop44ColorRGB
 90
      255
102
RTVSPost2010PropOp44
 70
     0
102
RTVSPost2010Prop45
280
     0
102
RTVSPost2010PropOp45
 70
     0
102
RTVSPost2010Prop46
 90
       50
102
RTVSPost2010PropOp46
 70
     0
102
RTVSPost2010Prop47
 90
       50
102
RTVSPost2010PropOp47
 70
     0
102
RTVSPost2010Prop48
 90
       50
102
RTVSPost2010PropOp48
 70
     0
102
RTVSPost2010Prop49
280
     0
102
RTVSPost2010PropOp49
 70
     0
102
RTVSPost2010Prop50
 90
       50
102
RTVSPost2010PropOp50
 70
     0
102
RTVSPost2010Prop51ColorIndex
 90
      256
102
RTVSPost2010Prop51ColorRGB
 90
-16777216
102
RTVSPost2010PropOp51
 70
     0
102
RTVSPost2010Prop52
140
1.0
102
RTVSPost2010PropOp52
 70
     0
102
RTVSPost2010Prop53
 90
        2
102
RTVSPost2010PropOp53
 70
     0
102
RTVSPost2010Prop54
  1
strokes_ogs.tif
102
RTVSPost2010PropOp54
 70
     0
102
RTVSPost2010Prop55
280
     0
102
RTVSPost2010PropOp55
 70
     0
102
RTVSPost2010Prop56
140
1.0
102
RTVSPost2010PropOp56
 70
     0
102
RTVSPost2010Prop57
140
1.0
102
RTVSPost2010PropOp57
 70
     0
102
RTVSPropertyOp0
 70
     0
102
RTVSPropertyOp1
 70
     0
102
RTVSPropertyOp2
 70
     0
102
RTVSPropertyOp3
 70
     0
102
RTVSPropertyOp4
 70
     0
102
RTVSPropertyOp5
 70
     0
102
RTVSPropertyOp6
 70
     0
102
RTVSPropertyOp7
 70
     0
102
RTVSPropertyOp8
 70
     0
102
RTVSPropertyOp9
 70
     0
102
RTVSPropertyOp10
 70
     0
102
RTVSPropertyOp11
 70
     0
102
RTVSPropertyOp12
 70
     0
102
RTVSPropertyOp13
 70
     0
102
RTVSPropertyOp14
 70
     2
102
RTVSPropertyOp15
 70
     0
102
RTVSPropertyOp16
 70
     0
102
RTVSPropertyOp17
 70
     0
102
RTVSPropertyOp18
 70
     0
102
RTVSPropertyOp19
 70
     0
102
RTVSPropertyOp20
 70
     0
102
RTVSPropertyOp21
 70
     0
102
RTVSPropertyOp22
 70
     0
102
RTVSPropertyOp23
 70
     0
102
RTVSPropertyOp24
 70
     0
102
RTVSPropertyOp25
 70
     0
102
RTVSPropertyOp26
 70
     0
102
RTVSPropertyOp27
 70
     0
102
RTVSPropertyOp28
 70
     0
102
RTVSPropertyOp29
 70
     0
102
RTVSPropertyOp30
 70
     0
102
RTVSPropertyOp31
 70
     0
102
RTVSPropertyOp32
 70
     0
102
RTVSPropertyOp33
 70
     0
102
RTVSPropertyOp34
 70
     0
102
RTVSPropertyOp35
 70
     0
102
RTVSPropertyOp36
 70
     0
102
RTVSPropertyOp37
 70
     0
102
RTVSPropertyOp38
 70
     0
102
RTVSPropertyOp39
 70
     0
102
RTVSPropertyOp40
 70
     0
102
RTVSPropertyOp41
 70
     0
102
RTVSPropertyOp42
 70
     0
102
RTVSPropertyOp43
 70
     0
102
RTVSPropertyOp44
 70
     0
102
RTVSPropertyOp45
 70
     0
102
RTVSPropertyOp46
 70
     0
102
RTVSPropertyOp47
 70
     0
102
RTVSPropertyOp48
 70
     0
102
RTVSPropertyOp49
 70
     0
102
RTVSPropertyOp50
 70
     0
102
RTVSPropertyOp51
 70
     0
102
RTVSPropertyOp52
 70
     0
102
RTVSPropertyOp53
 70
     0
102
RTVSPropertyOp54
 70
     0
102
RTVSPropertyOp55
 70
     0
102
RTVSPropertyOp56
 70
     0
102
RTVSPropertyOp57
 70
     0
102
RTVSPropertyOp58
 70
     1
102
RTVSPropertyOp59
 70
     1
102
RTVSPropertyOp60
 70
     1
102
RTVSPropertyOp61
 70
     1
102
RTVSPropertyOp62
 70
     1
  0
XRECORD
  5
1ABA
102
{ACAD_REACTORS
330
1AB9
102
}
330
1AB9
100
AcDbXrecord
280
     1
102
RTVSPost2010Prop28
280
     0
102
RTVSPost2010PropOp28
 70
     1
102
RTVSPost2010Prop29
280
     1
102
RTVSPost2010PropOp29
 70
     1
102
RTVSPost2010Prop30
280
     1
102
RTVSPost2010PropOp30
 70
     1
102
RTVSPost2010Prop31
280
     0
102
RTVSPost2010PropOp31
 70
     1
102
RTVSPost2010Prop32
280
     0
102
RTVSPost2010PropOp32
 70
     1
102
RTVSPost2010Prop33
280
     0
102
RTVSPost2010PropOp33
 70
     1
102
RTVSPost2010Prop34
280
     0
102
RTVSPost2010PropOp34
 70
     1
102
RTVSPost2010Prop35
280
     0
102
RTVSPost2010PropOp35
 70
     1
102
RTVSPost2010Prop36
280
     0
102
RTVSPost2010PropOp36
 70
     1
102
RTVSPost2010Prop37
 90
       50
102
RTVSPost2010PropOp37
 70
     1
102
RTVSPost2010Prop38
140
0.0
102
RTVSPost2010PropOp38
 70
     1
102
RTVSPost2010Prop39
140
1.0
102
RTVSPost2010PropOp39
 70
     1
102
RTVSPost2010Prop40
 90
        0
102
RTVSPost2010PropOp40
 70
     1
102
RTVSPost2010Prop41ColorIndex
 90
       18
102
RTVSPost2010Prop41ColorRGB
 90
-16777216
102
RTVSPost2010PropOp41
 70
     1
102
RTVSPost2010Prop42
 90
       50
102
RTVSPost2010PropOp42
 70
     1
102
RTVSPost2010Prop43
 90
        3
102
RTVSPost2010PropOp43
 70
     1
102
RTVSPost2010Prop44ColorIndex
 90
        5
102
RTVSPost2010Prop44ColorRGB
 90
      255
102
RTVSPost2010PropOp44
 70
     1
102
RTVSPost2010Prop45
280
     0
102
RTVSPost2010PropOp45
 70
     1
102
RTVSPost2010Prop46
 90
       50
102
RTVSPost2010PropOp46
 70
     1
102
RTVSPost2010Prop47
 90
       50
102
RTVSPost2010PropOp47
 70
     1
102
RTVSPost2010Prop48
 90
       50
102
RTVSPost2010PropOp48
 70
     1
102
RTVSPost2010Prop49
280
     0
102
RTVSPost2010PropOp49
 70
     1
102
RTVSPost2010Prop50
 90
       50
102
RTVSPost2010PropOp50
 70
     1
102
RTVSPost2010Prop51ColorIndex
 90
      256
102
RTVSPost2010Prop51ColorRGB
 90
-16777216
102
RTVSPost2010PropOp51
 70
     0
102
RTVSPost2010Prop52
140
1.0
102
RTVSPost2010PropOp52
 70
     0
102
RTVSPost2010Prop53
 90
        2
102
RTVSPost2010PropOp53
 70
     1
102
RTVSPost2010Prop54
  1
strokes_ogs.tif
102
RTVSPost2010PropOp54
 70
     1
102
RTVSPost2010Prop55
280
     0
102
RTVSPost2010PropOp55
 70
     1
102
RTVSPost2010Prop56
140
1.0
102
RTVSPost2010PropOp56
 70
     1
102
RTVSPost2010Prop57
140
1.0
102
RTVSPost2010PropOp57
 70
     1
102
RTVSPropertyOp0
 70
     1
102
RTVSPropertyOp1
 70
     1
102
RTVSPropertyOp2
 70
     1
102
RTVSPropertyOp3
 70
     1
102
RTVSPropertyOp4
 70
     1
102
RTVSPropertyOp5
 70
     1
102
RTVSPropertyOp6
 70
     1
102
RTVSPropertyOp7
 70
     1
102
RTVSPropertyOp8
 70
     1
102
RTVSPropertyOp9
 70
     1
102
RTVSPropertyOp10
 70
     1
102
RTVSPropertyOp11
 70
     1
102
RTVSPropertyOp12
 70
     1
102
RTVSPropertyOp13
 70
     1
102
RTVSPropertyOp14
 70
     1
102
RTVSPropertyOp15
 70
     1
102
RTVSPropertyOp16
 70
     1
102
RTVSPropertyOp17
 70
     1
102
RTVSPropertyOp18
 70
     1
102
RTVSPropertyOp19
 70
     1
102
RTVSPropertyOp20
 70
     1
102
RTVSPropertyOp21
 70
     1
102
RTVSPropertyOp22
 70
     1
102
RTVSPropertyOp23
 70
     1
102
RTVSPropertyOp24
 70
     1
102
RTVSPropertyOp25
 70
     1
102
RTVSPropertyOp26
 70
     1
102
RTVSPropertyOp27
 70
     1
102
RTVSPropertyOp28
 70
     1
102
RTVSPropertyOp29
 70
     1
102
RTVSPropertyOp30
 70
     1
102
RTVSPropertyOp31
 70
     1
102
RTVSPropertyOp32
 70
     1
102
RTVSPropertyOp33
 70
     1
102
RTVSPropertyOp34
 70
     1
102
RTVSPropertyOp35
 70
     1
102
RTVSPropertyOp36
 70
     1
102
RTVSPropertyOp37
 70
     1
102
RTVSPropertyOp38
 70
     1
102
RTVSPropertyOp39
 70
     1
102
RTVSPropertyOp40
 70
     1
102
RTVSPropertyOp41
 70
     1
102
RTVSPropertyOp42
 70
     1
102
RTVSPropertyOp43
 70
     1
102
RTVSPropertyOp44
 70
     1
102
RTVSPropertyOp45
 70
     1
102
RTVSPropertyOp46
 70
     1
102
RTVSPropertyOp47
 70
     1
102
RTVSPropertyOp48
 70
     1
102
RTVSPropertyOp49
 70
     1
102
RTVSPropertyOp50
 70
     1
102
RTVSPropertyOp51
 70
     0
102
RTVSPropertyOp52
 70
     0
102
RTVSPropertyOp53
 70
     1
102
RTVSPropertyOp54
 70
     1
102
RTVSPropertyOp55
 70
     1
102
RTVSPropertyOp56
 70
     1
102
RTVSPropertyOp57
 70
     1
102
RTVSPropertyOp58
 70
     1
102
RTVSPropertyOp59
 70
     1
102
RTVSPropertyOp60
 70
     1
102
RTVSPropertyOp61
 70
     1
102
RTVSPropertyOp62
 70
     1
  0
XRECORD
  5
1A9E
102
{ACAD_REACTORS
330
1A9D
102
}
330
1A9D
100
AcDbXrecord
280
     1
102
RTVSPost2010Prop28
280
     0
102
RTVSPost2010PropOp28
 70
     1
102
RTVSPost2010Prop29
280
     1
102
RTVSPost2010PropOp29
 70
     1
102
RTVSPost2010Prop30
280
     1
102
RTVSPost2010PropOp30
 70
     1
102
RTVSPost2010Prop31
280
     0
102
RTVSPost2010PropOp31
 70
     1
102
RTVSPost2010Prop32
280
     0
102
RTVSPost2010PropOp32
 70
     1
102
RTVSPost2010Prop33
280
     0
102
RTVSPost2010PropOp33
 70
     1
102
RTVSPost2010Prop34
280
     0
102
RTVSPost2010PropOp34
 70
     1
102
RTVSPost2010Prop35
280
     0
102
RTVSPost2010PropOp35
 70
     1
102
RTVSPost2010Prop36
280
     0
102
RTVSPost2010PropOp36
 70
     1
102
RTVSPost2010Prop37
 90
       50
102
RTVSPost2010PropOp37
 70
     1
102
RTVSPost2010Prop38
140
0.0
102
RTVSPost2010PropOp38
 70
     1
102
RTVSPost2010Prop39
140
1.0
102
RTVSPost2010PropOp39
 70
     1
102
RTVSPost2010Prop40
 90
        0
102
RTVSPost2010PropOp40
 70
     1
102
RTVSPost2010Prop41ColorIndex
 90
       18
102
RTVSPost2010Prop41ColorRGB
 90
-16777216
102
RTVSPost2010PropOp41
 70
     1
102
RTVSPost2010Prop42
 90
       50
102
RTVSPost2010PropOp42
 70
     1
102
RTVSPost2010Prop43
 90
        3
102
RTVSPost2010PropOp43
 70
     1
102
RTVSPost2010Prop44ColorIndex
 90
        5
102
RTVSPost2010Prop44ColorRGB
 90
      255
102
RTVSPost2010PropOp44
 70
     1
102
RTVSPost2010Prop45
280
     0
102
RTVSPost2010PropOp45
 70
     1
102
RTVSPost2010Prop46
 90
       50
102
RTVSPost2010PropOp46
 70
     1
102
RTVSPost2010Prop47
 90
       50
102
RTVSPost2010PropOp47
 70
     1
102
RTVSPost2010Prop48
 90
       50
102
RTVSPost2010PropOp48
 70
     1
102
RTVSPost2010Prop49
280
     0
102
RTVSPost2010PropOp49
 70
     1
102
RTVSPost2010Prop50
 90
       50
102
RTVSPost2010PropOp50
 70
     1
102
RTVSPost2010Prop51ColorIndex
 90
      256
102
RTVSPost2010Prop51ColorRGB
 90
-16777216
102
RTVSPost2010PropOp51
 70
     0
102
RTVSPost2010Prop52
140
1.0
102
RTVSPost2010PropOp52
 70
     0
102
RTVSPost2010Prop53
 90
        2
102
RTVSPost2010PropOp53
 70
     1
102
RTVSPost2010Prop54
  1
strokes_ogs.tif
102
RTVSPost2010PropOp54
 70
     1
102
RTVSPost2010Prop55
280
     0
102
RTVSPost2010PropOp55
 70
     1
102
RTVSPost2010Prop56
140
1.0
102
RTVSPost2010PropOp56
 70
     1
102
RTVSPost2010Prop57
140
1.0
102
RTVSPost2010PropOp57
 70
     1
102
RTVSPropertyOp0
 70
     1
102
RTVSPropertyOp1
 70
     1
102
RTVSPropertyOp2
 70
     1
102
RTVSPropertyOp3
 70
     1
102
RTVSPropertyOp4
 70
     1
102
RTVSPropertyOp5
 70
     1
102
RTVSPropertyOp6
 70
     1
102
RTVSPropertyOp7
 70
     1
102
RTVSPropertyOp8
 70
     1
102
RTVSPropertyOp9
 70
     1
102
RTVSPropertyOp10
 70
     1
102
RTVSPropertyOp11
 70
     1
102
RTVSPropertyOp12
 70
     1
102
RTVSPropertyOp13
 70
     1
102
RTVSPropertyOp14
 70
     1
102
RTVSPropertyOp15
 70
     1
102
RTVSPropertyOp16
 70
     1
102
RTVSPropertyOp17
 70
     1
102
RTVSPropertyOp18
 70
     1
102
RTVSPropertyOp19
 70
     1
102
RTVSPropertyOp20
 70
     1
102
RTVSPropertyOp21
 70
     1
102
RTVSPropertyOp22
 70
     1
102
RTVSPropertyOp23
 70
     1
102
RTVSPropertyOp24
 70
     1
102
RTVSPropertyOp25
 70
     1
102
RTVSPropertyOp26
 70
     1
102
RTVSPropertyOp27
 70
     1
102
RTVSPropertyOp28
 70
     1
102
RTVSPropertyOp29
 70
     1
102
RTVSPropertyOp30
 70
     1
102
RTVSPropertyOp31
 70
     1
102
RTVSPropertyOp32
 70
     1
102
RTVSPropertyOp33
 70
     1
102
RTVSPropertyOp34
 70
     1
102
RTVSPropertyOp35
 70
     1
102
RTVSPropertyOp36
 70
     1
102
RTVSPropertyOp37
 70
     1
102
RTVSPropertyOp38
 70
     1
102
RTVSPropertyOp39
 70
     1
102
RTVSPropertyOp40
 70
     1
102
RTVSPropertyOp41
 70
     1
102
RTVSPropertyOp42
 70
     1
102
RTVSPropertyOp43
 70
     1
102
RTVSPropertyOp44
 70
     1
102
RTVSPropertyOp45
 70
     1
102
RTVSPropertyOp46
 70
     1
102
RTVSPropertyOp47
 70
     1
102
RTVSPropertyOp48
 70
     1
102
RTVSPropertyOp49
 70
     1
102
RTVSPropertyOp50
 70
     1
102
RTVSPropertyOp51
 70
     0
102
RTVSPropertyOp52
 70
     0
102
RTVSPropertyOp53
 70
     1
102
RTVSPropertyOp54
 70
     1
102
RTVSPropertyOp55
 70
     1
102
RTVSPropertyOp56
 70
     1
102
RTVSPropertyOp57
 70
     1
102
RTVSPropertyOp58
 70
     1
102
RTVSPropertyOp59
 70
     1
102
RTVSPropertyOp60
 70
     1
102
RTVSPropertyOp61
 70
     1
102
RTVSPropertyOp62
 70
     1
  0
XRECORD
  5
1AA0
102
{ACAD_REACTORS
330
1A9F
102
}
330
1A9F
100
AcDbXrecord
280
     1
102
RTVSPost2010Prop28
280
     0
102
RTVSPost2010PropOp28
 70
     1
102
RTVSPost2010Prop29
280
     1
102
RTVSPost2010PropOp29
 70
     1
102
RTVSPost2010Prop30
280
     1
102
RTVSPost2010PropOp30
 70
     1
102
RTVSPost2010Prop31
280
     0
102
RTVSPost2010PropOp31
 70
     1
102
RTVSPost2010Prop32
280
     0
102
RTVSPost2010PropOp32
 70
     1
102
RTVSPost2010Prop33
280
     0
102
RTVSPost2010PropOp33
 70
     1
102
RTVSPost2010Prop34
280
     0
102
RTVSPost2010PropOp34
 70
     1
102
RTVSPost2010Prop35
280
     0
102
RTVSPost2010PropOp35
 70
     1
102
RTVSPost2010Prop36
280
     0
102
RTVSPost2010PropOp36
 70
     1
102
RTVSPost2010Prop37
 90
       50
102
RTVSPost2010PropOp37
 70
     1
102
RTVSPost2010Prop38
140
0.0
102
RTVSPost2010PropOp38
 70
     1
102
RTVSPost2010Prop39
140
1.0
102
RTVSPost2010PropOp39
 70
     1
102
RTVSPost2010Prop40
 90
        0
102
RTVSPost2010PropOp40
 70
     1
102
RTVSPost2010Prop41ColorIndex
 90
       18
102
RTVSPost2010Prop41ColorRGB
 90
-16777216
102
RTVSPost2010PropOp41
 70
     1
102
RTVSPost2010Prop42
 90
       50
102
RTVSPost2010PropOp42
 70
     1
102
RTVSPost2010Prop43
 90
        3
102
RTVSPost2010PropOp43
 70
     1
102
RTVSPost2010Prop44ColorIndex
 90
        5
102
RTVSPost2010Prop44ColorRGB
 90
      255
102
RTVSPost2010PropOp44
 70
     1
102
RTVSPost2010Prop45
280
     0
102
RTVSPost2010PropOp45
 70
     1
102
RTVSPost2010Prop46
 90
       50
102
RTVSPost2010PropOp46
 70
     1
102
RTVSPost2010Prop47
 90
       50
102
RTVSPost2010PropOp47
 70
     1
102
RTVSPost2010Prop48
 90
       50
102
RTVSPost2010PropOp48
 70
     1
102
RTVSPost2010Prop49
280
     0
102
RTVSPost2010PropOp49
 70
     1
102
RTVSPost2010Prop50
 90
       50
102
RTVSPost2010PropOp50
 70
     1
102
RTVSPost2010Prop51ColorIndex
 90
      256
102
RTVSPost2010Prop51ColorRGB
 90
-16777216
102
RTVSPost2010PropOp51
 70
     0
102
RTVSPost2010Prop52
140
1.0
102
RTVSPost2010PropOp52
 70
     0
102
RTVSPost2010Prop53
 90
        2
102
RTVSPost2010PropOp53
 70
     1
102
RTVSPost2010Prop54
  1
strokes_ogs.tif
102
RTVSPost2010PropOp54
 70
     1
102
RTVSPost2010Prop55
280
     0
102
RTVSPost2010PropOp55
 70
     1
102
RTVSPost2010Prop56
140
1.0
102
RTVSPost2010PropOp56
 70
     1
102
RTVSPost2010Prop57
140
1.0
102
RTVSPost2010PropOp57
 70
     1
102
RTVSPropertyOp0
 70
     1
102
RTVSPropertyOp1
 70
     1
102
RTVSPropertyOp2
 70
     1
102
RTVSPropertyOp3
 70
     1
102
RTVSPropertyOp4
 70
     1
102
RTVSPropertyOp5
 70
     1
102
RTVSPropertyOp6
 70
     1
102
RTVSPropertyOp7
 70
     1
102
RTVSPropertyOp8
 70
     1
102
RTVSPropertyOp9
 70
     1
102
RTVSPropertyOp10
 70
     1
102
RTVSPropertyOp11
 70
     1
102
RTVSPropertyOp12
 70
     1
102
RTVSPropertyOp13
 70
     1
102
RTVSPropertyOp14
 70
     1
102
RTVSPropertyOp15
 70
     1
102
RTVSPropertyOp16
 70
     1
102
RTVSPropertyOp17
 70
     1
102
RTVSPropertyOp18
 70
     1
102
RTVSPropertyOp19
 70
     1
102
RTVSPropertyOp20
 70
     1
102
RTVSPropertyOp21
 70
     1
102
RTVSPropertyOp22
 70
     1
102
RTVSPropertyOp23
 70
     1
102
RTVSPropertyOp24
 70
     1
102
RTVSPropertyOp25
 70
     1
102
RTVSPropertyOp26
 70
     1
102
RTVSPropertyOp27
 70
     1
102
RTVSPropertyOp28
 70
     1
102
RTVSPropertyOp29
 70
     1
102
RTVSPropertyOp30
 70
     1
102
RTVSPropertyOp31
 70
     1
102
RTVSPropertyOp32
 70
     1
102
RTVSPropertyOp33
 70
     1
102
RTVSPropertyOp34
 70
     1
102
RTVSPropertyOp35
 70
     1
102
RTVSPropertyOp36
 70
     1
102
RTVSPropertyOp37
 70
     1
102
RTVSPropertyOp38
 70
     1
102
RTVSPropertyOp39
 70
     1
102
RTVSPropertyOp40
 70
     1
102
RTVSPropertyOp41
 70
     1
102
RTVSPropertyOp42
 70
     1
102
RTVSPropertyOp43
 70
     1
102
RTVSPropertyOp44
 70
     1
102
RTVSPropertyOp45
 70
     1
102
RTVSPropertyOp46
 70
     1
102
RTVSPropertyOp47
 70
     1
102
RTVSPropertyOp48
 70
     1
102
RTVSPropertyOp49
 70
     1
102
RTVSPropertyOp50
 70
     1
102
RTVSPropertyOp51
 70
     0
102
RTVSPropertyOp52
 70
     0
102
RTVSPropertyOp53
 70
     1
102
RTVSPropertyOp54
 70
     1
102
RTVSPropertyOp55
 70
     1
102
RTVSPropertyOp56
 70
     1
102
RTVSPropertyOp57
 70
     1
102
RTVSPropertyOp58
 70
     1
102
RTVSPropertyOp59
 70
     1
102
RTVSPropertyOp60
 70
     1
102
RTVSPropertyOp61
 70
     1
102
RTVSPropertyOp62
 70
     1
  0
XRECORD
  5
1AA2
102
{ACAD_REACTORS
330
1AA1
102
}
330
1AA1
100
AcDbXrecord
280
     1
102
RTVSPost2010Prop28
280
     0
102
RTVSPost2010PropOp28
 70
     1
102
RTVSPost2010Prop29
280
     1
102
RTVSPost2010PropOp29
 70
     1
102
RTVSPost2010Prop30
280
     1
102
RTVSPost2010PropOp30
 70
     1
102
RTVSPost2010Prop31
280
     0
102
RTVSPost2010PropOp31
 70
     1
102
RTVSPost2010Prop32
280
     0
102
RTVSPost2010PropOp32
 70
     1
102
RTVSPost2010Prop33
280
     0
102
RTVSPost2010PropOp33
 70
     1
102
RTVSPost2010Prop34
280
     0
102
RTVSPost2010PropOp34
 70
     1
102
RTVSPost2010Prop35
280
     0
102
RTVSPost2010PropOp35
 70
     1
102
RTVSPost2010Prop36
280
     0
102
RTVSPost2010PropOp36
 70
     1
102
RTVSPost2010Prop37
 90
       50
102
RTVSPost2010PropOp37
 70
     1
102
RTVSPost2010Prop38
140
0.0
102
RTVSPost2010PropOp38
 70
     1
102
RTVSPost2010Prop39
140
1.0
102
RTVSPost2010PropOp39
 70
     1
102
RTVSPost2010Prop40
 90
        0
102
RTVSPost2010PropOp40
 70
     1
102
RTVSPost2010Prop41ColorIndex
 90
       18
102
RTVSPost2010Prop41ColorRGB
 90
-16777216
102
RTVSPost2010PropOp41
 70
     1
102
RTVSPost2010Prop42
 90
       50
102
RTVSPost2010PropOp42
 70
     1
102
RTVSPost2010Prop43
 90
        3
102
RTVSPost2010PropOp43
 70
     1
102
RTVSPost2010Prop44ColorIndex
 90
        5
102
RTVSPost2010Prop44ColorRGB
 90
      255
102
RTVSPost2010PropOp44
 70
     1
102
RTVSPost2010Prop45
280
     0
102
RTVSPost2010PropOp45
 70
     1
102
RTVSPost2010Prop46
 90
       50
102
RTVSPost2010PropOp46
 70
     1
102
RTVSPost2010Prop47
 90
       50
102
RTVSPost2010PropOp47
 70
     1
102
RTVSPost2010Prop48
 90
       50
102
RTVSPost2010PropOp48
 70
     1
102
RTVSPost2010Prop49
280
     0
102
RTVSPost2010PropOp49
 70
     1
102
RTVSPost2010Prop50
 90
       50
102
RTVSPost2010PropOp50
 70
     1
102
RTVSPost2010Prop51ColorIndex
 90
      256
102
RTVSPost2010Prop51ColorRGB
 90
-16777216
102
RTVSPost2010PropOp51
 70
     0
102
RTVSPost2010Prop52
140
1.0
102
RTVSPost2010PropOp52
 70
     0
102
RTVSPost2010Prop53
 90
        2
102
RTVSPost2010PropOp53
 70
     1
102
RTVSPost2010Prop54
  1
strokes_ogs.tif
102
RTVSPost2010PropOp54
 70
     1
102
RTVSPost2010Prop55
280
     0
102
RTVSPost2010PropOp55
 70
     1
102
RTVSPost2010Prop56
140
1.0
102
RTVSPost2010PropOp56
 70
     1
102
RTVSPost2010Prop57
140
1.0
102
RTVSPost2010PropOp57
 70
     1
102
RTVSPropertyOp0
 70
     1
102
RTVSPropertyOp1
 70
     1
102
RTVSPropertyOp2
 70
     1
102
RTVSPropertyOp3
 70
     1
102
RTVSPropertyOp4
 70
     1
102
RTVSPropertyOp5
 70
     1
102
RTVSPropertyOp6
 70
     1
102
RTVSPropertyOp7
 70
     1
102
RTVSPropertyOp8
 70
     1
102
RTVSPropertyOp9
 70
     1
102
RTVSPropertyOp10
 70
     1
102
RTVSPropertyOp11
 70
     1
102
RTVSPropertyOp12
 70
     1
102
RTVSPropertyOp13
 70
     1
102
RTVSPropertyOp14
 70
     1
102
RTVSPropertyOp15
 70
     1
102
RTVSPropertyOp16
 70
     1
102
RTVSPropertyOp17
 70
     1
102
RTVSPropertyOp18
 70
     1
102
RTVSPropertyOp19
 70
     1
102
RTVSPropertyOp20
 70
     1
102
RTVSPropertyOp21
 70
     1
102
RTVSPropertyOp22
 70
     1
102
RTVSPropertyOp23
 70
     1
102
RTVSPropertyOp24
 70
     1
102
RTVSPropertyOp25
 70
     1
102
RTVSPropertyOp26
 70
     1
102
RTVSPropertyOp27
 70
     1
102
RTVSPropertyOp28
 70
     1
102
RTVSPropertyOp29
 70
     1
102
RTVSPropertyOp30
 70
     1
102
RTVSPropertyOp31
 70
     1
102
RTVSPropertyOp32
 70
     1
102
RTVSPropertyOp33
 70
     1
102
RTVSPropertyOp34
 70
     1
102
RTVSPropertyOp35
 70
     1
102
RTVSPropertyOp36
 70
     1
102
RTVSPropertyOp37
 70
     1
102
RTVSPropertyOp38
 70
     1
102
RTVSPropertyOp39
 70
     1
102
RTVSPropertyOp40
 70
     1
102
RTVSPropertyOp41
 70
     1
102
RTVSPropertyOp42
 70
     1
102
RTVSPropertyOp43
 70
     1
102
RTVSPropertyOp44
 70
     1
102
RTVSPropertyOp45
 70
     1
102
RTVSPropertyOp46
 70
     1
102
RTVSPropertyOp47
 70
     1
102
RTVSPropertyOp48
 70
     1
102
RTVSPropertyOp49
 70
     1
102
RTVSPropertyOp50
 70
     1
102
RTVSPropertyOp51
 70
     0
102
RTVSPropertyOp52
 70
     0
102
RTVSPropertyOp53
 70
     1
102
RTVSPropertyOp54
 70
     1
102
RTVSPropertyOp55
 70
     1
102
RTVSPropertyOp56
 70
     1
102
RTVSPropertyOp57
 70
     1
102
RTVSPropertyOp58
 70
     1
102
RTVSPropertyOp59
 70
     1
102
RTVSPropertyOp60
 70
     1
102
RTVSPropertyOp61
 70
     1
102
RTVSPropertyOp62
 70
     1
  0
XRECORD
  5
1AA4
102
{ACAD_REACTORS
330
1AA3
102
}
330
1AA3
100
AcDbXrecord
280
     1
102
RTVSPost2010Prop28
280
     0
102
RTVSPost2010PropOp28
 70
     1
102
RTVSPost2010Prop29
280
     1
102
RTVSPost2010PropOp29
 70
     1
102
RTVSPost2010Prop30
280
     1
102
RTVSPost2010PropOp30
 70
     1
102
RTVSPost2010Prop31
280
     0
102
RTVSPost2010PropOp31
 70
     1
102
RTVSPost2010Prop32
280
     0
102
RTVSPost2010PropOp32
 70
     1
102
RTVSPost2010Prop33
280
     0
102
RTVSPost2010PropOp33
 70
     1
102
RTVSPost2010Prop34
280
     0
102
RTVSPost2010PropOp34
 70
     1
102
RTVSPost2010Prop35
280
     0
102
RTVSPost2010PropOp35
 70
     1
102
RTVSPost2010Prop36
280
     0
102
RTVSPost2010PropOp36
 70
     1
102
RTVSPost2010Prop37
 90
       50
102
RTVSPost2010PropOp37
 70
     1
102
RTVSPost2010Prop38
140
0.0
102
RTVSPost2010PropOp38
 70
     1
102
RTVSPost2010Prop39
140
1.0
102
RTVSPost2010PropOp39
 70
     1
102
RTVSPost2010Prop40
 90
        0
102
RTVSPost2010PropOp40
 70
     1
102
RTVSPost2010Prop41ColorIndex
 90
       18
102
RTVSPost2010Prop41ColorRGB
 90
-16777216
102
RTVSPost2010PropOp41
 70
     1
102
RTVSPost2010Prop42
 90
       50
102
RTVSPost2010PropOp42
 70
     1
102
RTVSPost2010Prop43
 90
        3
102
RTVSPost2010PropOp43
 70
     1
102
RTVSPost2010Prop44ColorIndex
 90
        5
102
RTVSPost2010Prop44ColorRGB
 90
      255
102
RTVSPost2010PropOp44
 70
     1
102
RTVSPost2010Prop45
280
     0
102
RTVSPost2010PropOp45
 70
     1
102
RTVSPost2010Prop46
 90
       50
102
RTVSPost2010PropOp46
 70
     1
102
RTVSPost2010Prop47
 90
       50
102
RTVSPost2010PropOp47
 70
     1
102
RTVSPost2010Prop48
 90
       50
102
RTVSPost2010PropOp48
 70
     1
102
RTVSPost2010Prop49
280
     0
102
RTVSPost2010PropOp49
 70
     1
102
RTVSPost2010Prop50
 90
       50
102
RTVSPost2010PropOp50
 70
     1
102
RTVSPost2010Prop51ColorIndex
 90
      256
102
RTVSPost2010Prop51ColorRGB
 90
-16777216
102
RTVSPost2010PropOp51
 70
     0
102
RTVSPost2010Prop52
140
1.0
102
RTVSPost2010PropOp52
 70
     0
102
RTVSPost2010Prop53
 90
        2
102
RTVSPost2010PropOp53
 70
     1
102
RTVSPost2010Prop54
  1
strokes_ogs.tif
102
RTVSPost2010PropOp54
 70
     1
102
RTVSPost2010Prop55
280
     0
102
RTVSPost2010PropOp55
 70
     1
102
RTVSPost2010Prop56
140
1.0
102
RTVSPost2010PropOp56
 70
     1
102
RTVSPost2010Prop57
140
1.0
102
RTVSPost2010PropOp57
 70
     1
102
RTVSPropertyOp0
 70
     1
102
RTVSPropertyOp1
 70
     1
102
RTVSPropertyOp2
 70
     1
102
RTVSPropertyOp3
 70
     1
102
RTVSPropertyOp4
 70
     1
102
RTVSPropertyOp5
 70
     1
102
RTVSPropertyOp6
 70
     1
102
RTVSPropertyOp7
 70
     1
102
RTVSPropertyOp8
 70
     1
102
RTVSPropertyOp9
 70
     1
102
RTVSPropertyOp10
 70
     1
102
RTVSPropertyOp11
 70
     1
102
RTVSPropertyOp12
 70
     1
102
RTVSPropertyOp13
 70
     1
102
RTVSPropertyOp14
 70
     1
102
RTVSPropertyOp15
 70
     1
102
RTVSPropertyOp16
 70
     1
102
RTVSPropertyOp17
 70
     1
102
RTVSPropertyOp18
 70
     1
102
RTVSPropertyOp19
 70
     1
102
RTVSPropertyOp20
 70
     1
102
RTVSPropertyOp21
 70
     1
102
RTVSPropertyOp22
 70
     1
102
RTVSPropertyOp23
 70
     1
102
RTVSPropertyOp24
 70
     1
102
RTVSPropertyOp25
 70
     1
102
RTVSPropertyOp26
 70
     1
102
RTVSPropertyOp27
 70
     1
102
RTVSPropertyOp28
 70
     1
102
RTVSPropertyOp29
 70
     1
102
RTVSPropertyOp30
 70
     1
102
RTVSPropertyOp31
 70
     1
102
RTVSPropertyOp32
 70
     1
102
RTVSPropertyOp33
 70
     1
102
RTVSPropertyOp34
 70
     1
102
RTVSPropertyOp35
 70
     1
102
RTVSPropertyOp36
 70
     1
102
RTVSPropertyOp37
 70
     1
102
RTVSPropertyOp38
 70
     1
102
RTVSPropertyOp39
 70
     1
102
RTVSPropertyOp40
 70
     1
102
RTVSPropertyOp41
 70
     1
102
RTVSPropertyOp42
 70
     1
102
RTVSPropertyOp43
 70
     1
102
RTVSPropertyOp44
 70
     1
102
RTVSPropertyOp45
 70
     1
102
RTVSPropertyOp46
 70
     1
102
RTVSPropertyOp47
 70
     1
102
RTVSPropertyOp48
 70
     1
102
RTVSPropertyOp49
 70
     1
102
RTVSPropertyOp50
 70
     1
102
RTVSPropertyOp51
 70
     0
102
RTVSPropertyOp52
 70
     0
102
RTVSPropertyOp53
 70
     1
102
RTVSPropertyOp54
 70
     1
102
RTVSPropertyOp55
 70
     1
102
RTVSPropertyOp56
 70
     1
102
RTVSPropertyOp57
 70
     1
102
RTVSPropertyOp58
 70
     1
102
RTVSPropertyOp59
 70
     1
102
RTVSPropertyOp60
 70
     1
102
RTVSPropertyOp61
 70
     1
102
RTVSPropertyOp62
 70
     1
  0
XRECORD
  5
1AAC
102
{ACAD_REACTORS
330
1AAB
102
}
330
1AAB
100
AcDbXrecord
280
     1
102
RTVSPost2010Prop28
280
     0
102
RTVSPost2010PropOp28
 70
     1
102
RTVSPost2010Prop29
280
     1
102
RTVSPost2010PropOp29
 70
     1
102
RTVSPost2010Prop30
280
     1
102
RTVSPost2010PropOp30
 70
     1
102
RTVSPost2010Prop31
280
     0
102
RTVSPost2010PropOp31
 70
     1
102
RTVSPost2010Prop32
280
     0
102
RTVSPost2010PropOp32
 70
     1
102
RTVSPost2010Prop33
280
     0
102
RTVSPost2010PropOp33
 70
     1
102
RTVSPost2010Prop34
280
     0
102
RTVSPost2010PropOp34
 70
     1
102
RTVSPost2010Prop35
280
     0
102
RTVSPost2010PropOp35
 70
     1
102
RTVSPost2010Prop36
280
     0
102
RTVSPost2010PropOp36
 70
     1
102
RTVSPost2010Prop37
 90
       50
102
RTVSPost2010PropOp37
 70
     1
102
RTVSPost2010Prop38
140
0.0
102
RTVSPost2010PropOp38
 70
     1
102
RTVSPost2010Prop39
140
1.0
102
RTVSPost2010PropOp39
 70
     1
102
RTVSPost2010Prop40
 90
        0
102
RTVSPost2010PropOp40
 70
     1
102
RTVSPost2010Prop41ColorIndex
 90
       18
102
RTVSPost2010Prop41ColorRGB
 90
-16777216
102
RTVSPost2010PropOp41
 70
     1
102
RTVSPost2010Prop42
 90
       50
102
RTVSPost2010PropOp42
 70
     1
102
RTVSPost2010Prop43
 90
        3
102
RTVSPost2010PropOp43
 70
     1
102
RTVSPost2010Prop44ColorIndex
 90
        5
102
RTVSPost2010Prop44ColorRGB
 90
      255
102
RTVSPost2010PropOp44
 70
     1
102
RTVSPost2010Prop45
280
     0
102
RTVSPost2010PropOp45
 70
     1
102
RTVSPost2010Prop46
 90
       50
102
RTVSPost2010PropOp46
 70
     1
102
RTVSPost2010Prop47
 90
       50
102
RTVSPost2010PropOp47
 70
     1
102
RTVSPost2010Prop48
 90
       50
102
RTVSPost2010PropOp48
 70
     1
102
RTVSPost2010Prop49
280
     0
102
RTVSPost2010PropOp49
 70
     1
102
RTVSPost2010Prop50
 90
       50
102
RTVSPost2010PropOp50
 70
     1
102
RTVSPost2010Prop51ColorIndex
 90
      256
102
RTVSPost2010Prop51ColorRGB
 90
-16777216
102
RTVSPost2010PropOp51
 70
     0
102
RTVSPost2010Prop52
140
1.0
102
RTVSPost2010PropOp52
 70
     0
102
RTVSPost2010Prop53
 90
        2
102
RTVSPost2010PropOp53
 70
     1
102
RTVSPost2010Prop54
  1
strokes_ogs.tif
102
RTVSPost2010PropOp54
 70
     1
102
RTVSPost2010Prop55
280
     0
102
RTVSPost2010PropOp55
 70
     1
102
RTVSPost2010Prop56
140
1.0
102
RTVSPost2010PropOp56
 70
     1
102
RTVSPost2010Prop57
140
1.0
102
RTVSPost2010PropOp57
 70
     1
102
RTVSPropertyOp0
 70
     1
102
RTVSPropertyOp1
 70
     1
102
RTVSPropertyOp2
 70
     1
102
RTVSPropertyOp3
 70
     1
102
RTVSPropertyOp4
 70
     1
102
RTVSPropertyOp5
 70
     1
102
RTVSPropertyOp6
 70
     1
102
RTVSPropertyOp7
 70
     1
102
RTVSPropertyOp8
 70
     1
102
RTVSPropertyOp9
 70
     1
102
RTVSPropertyOp10
 70
     1
102
RTVSPropertyOp11
 70
     1
102
RTVSPropertyOp12
 70
     1
102
RTVSPropertyOp13
 70
     1
102
RTVSPropertyOp14
 70
     1
102
RTVSPropertyOp15
 70
     1
102
RTVSPropertyOp16
 70
     1
102
RTVSPropertyOp17
 70
     1
102
RTVSPropertyOp18
 70
     1
102
RTVSPropertyOp19
 70
     1
102
RTVSPropertyOp20
 70
     1
102
RTVSPropertyOp21
 70
     1
102
RTVSPropertyOp22
 70
     1
102
RTVSPropertyOp23
 70
     1
102
RTVSPropertyOp24
 70
     1
102
RTVSPropertyOp25
 70
     1
102
RTVSPropertyOp26
 70
     1
102
RTVSPropertyOp27
 70
     1
102
RTVSPropertyOp28
 70
     1
102
RTVSPropertyOp29
 70
     1
102
RTVSPropertyOp30
 70
     1
102
RTVSPropertyOp31
 70
     1
102
RTVSPropertyOp32
 70
     1
102
RTVSPropertyOp33
 70
     1
102
RTVSPropertyOp34
 70
     1
102
RTVSPropertyOp35
 70
     1
102
RTVSPropertyOp36
 70
     1
102
RTVSPropertyOp37
 70
     1
102
RTVSPropertyOp38
 70
     1
102
RTVSPropertyOp39
 70
     1
102
RTVSPropertyOp40
 70
     1
102
RTVSPropertyOp41
 70
     1
102
RTVSPropertyOp42
 70
     1
102
RTVSPropertyOp43
 70
     1
102
RTVSPropertyOp44
 70
     1
102
RTVSPropertyOp45
 70
     1
102
RTVSPropertyOp46
 70
     1
102
RTVSPropertyOp47
 70
     1
102
RTVSPropertyOp48
 70
     1
102
RTVSPropertyOp49
 70
     1
102
RTVSPropertyOp50
 70
     1
102
RTVSPropertyOp51
 70
     0
102
RTVSPropertyOp52
 70
     0
102
RTVSPropertyOp53
 70
     1
102
RTVSPropertyOp54
 70
     1
102
RTVSPropertyOp55
 70
     1
102
RTVSPropertyOp56
 70
     1
102
RTVSPropertyOp57
 70
     1
102
RTVSPropertyOp58
 70
     1
102
RTVSPropertyOp59
 70
     1
102
RTVSPropertyOp60
 70
     1
102
RTVSPropertyOp61
 70
     1
102
RTVSPropertyOp62
 70
     1
  0
XRECORD
  5
1AC8
102
{ACAD_REACTORS
330
1AC7
102
}
330
1AC7
100
AcDbXrecord
280
     1
102
RTVSPost2010Prop28
280
     0
102
RTVSPost2010PropOp28
 70
     0
102
RTVSPost2010Prop29
280
     1
102
RTVSPost2010PropOp29
 70
     0
102
RTVSPost2010Prop30
280
     1
102
RTVSPost2010PropOp30
 70
     0
102
RTVSPost2010Prop31
280
     0
102
RTVSPost2010PropOp31
 70
     0
102
RTVSPost2010Prop32
280
     0
102
RTVSPost2010PropOp32
 70
     0
102
RTVSPost2010Prop33
280
     0
102
RTVSPost2010PropOp33
 70
     0
102
RTVSPost2010Prop34
280
     0
102
RTVSPost2010PropOp34
 70
     0
102
RTVSPost2010Prop35
280
     0
102
RTVSPost2010PropOp35
 70
     0
102
RTVSPost2010Prop36
280
     0
102
RTVSPost2010PropOp36
 70
     0
102
RTVSPost2010Prop37
 90
       50
102
RTVSPost2010PropOp37
 70
     0
102
RTVSPost2010Prop38
140
0.0
102
RTVSPost2010PropOp38
 70
     0
102
RTVSPost2010Prop39
140
1.0
102
RTVSPost2010PropOp39
 70
     0
102
RTVSPost2010Prop40
 90
        0
102
RTVSPost2010PropOp40
 70
     0
102
RTVSPost2010Prop41ColorIndex
 90
       18
102
RTVSPost2010Prop41ColorRGB
 90
-16777216
102
RTVSPost2010PropOp41
 70
     0
102
RTVSPost2010Prop42
 90
       50
102
RTVSPost2010PropOp42
 70
     0
102
RTVSPost2010Prop43
 90
        3
102
RTVSPost2010PropOp43
 70
     0
102
RTVSPost2010Prop44ColorIndex
 90
        5
102
RTVSPost2010Prop44ColorRGB
 90
      255
102
RTVSPost2010PropOp44
 70
     0
102
RTVSPost2010Prop45
280
     0
102
RTVSPost2010PropOp45
 70
     0
102
RTVSPost2010Prop46
 90
       50
102
RTVSPost2010PropOp46
 70
     0
102
RTVSPost2010Prop47
 90
       50
102
RTVSPost2010PropOp47
 70
     0
102
RTVSPost2010Prop48
 90
       50
102
RTVSPost2010PropOp48
 70
     0
102
RTVSPost2010Prop49
280
     0
102
RTVSPost2010PropOp49
 70
     0
102
RTVSPost2010Prop50
 90
       50
102
RTVSPost2010PropOp50
 70
     0
102
RTVSPost2010Prop51ColorIndex
 90
      256
102
RTVSPost2010Prop51ColorRGB
 90
-16777216
102
RTVSPost2010PropOp51
 70
     0
102
RTVSPost2010Prop52
140
1.0
102
RTVSPost2010PropOp52
 70
     0
102
RTVSPost2010Prop53
 90
        2
102
RTVSPost2010PropOp53
 70
     0
102
RTVSPost2010Prop54
  1
strokes_ogs.tif
102
RTVSPost2010PropOp54
 70
     0
102
RTVSPost2010Prop55
280
     0
102
RTVSPost2010PropOp55
 70
     0
102
RTVSPost2010Prop56
140
1.0
102
RTVSPost2010PropOp56
 70
     0
102
RTVSPost2010Prop57
140
1.0
102
RTVSPost2010PropOp57
 70
     0
102
RTVSPropertyOp0
 70
     0
102
RTVSPropertyOp1
 70
     0
102
RTVSPropertyOp2
 70
     0
102
RTVSPropertyOp3
 70
     0
102
RTVSPropertyOp4
 70
     0
102
RTVSPropertyOp5
 70
     0
102
RTVSPropertyOp6
 70
     0
102
RTVSPropertyOp7
 70
     0
102
RTVSPropertyOp8
 70
     0
102
RTVSPropertyOp9
 70
     0
102
RTVSPropertyOp10
 70
     0
102
RTVSPropertyOp11
 70
     0
102
RTVSPropertyOp12
 70
     0
102
RTVSPropertyOp13
 70
     0
102
RTVSPropertyOp14
 70
     2
102
RTVSPropertyOp15
 70
     0
102
RTVSPropertyOp16
 70
     0
102
RTVSPropertyOp17
 70
     0
102
RTVSPropertyOp18
 70
     0
102
RTVSPropertyOp19
 70
     0
102
RTVSPropertyOp20
 70
     0
102
RTVSPropertyOp21
 70
     0
102
RTVSPropertyOp22
 70
     0
102
RTVSPropertyOp23
 70
     0
102
RTVSPropertyOp24
 70
     0
102
RTVSPropertyOp25
 70
     0
102
RTVSPropertyOp26
 70
     0
102
RTVSPropertyOp27
 70
     0
102
RTVSPropertyOp28
 70
     0
102
RTVSPropertyOp29
 70
     0
102
RTVSPropertyOp30
 70
     0
102
RTVSPropertyOp31
 70
     0
102
RTVSPropertyOp32
 70
     0
102
RTVSPropertyOp33
 70
     0
102
RTVSPropertyOp34
 70
     0
102
RTVSPropertyOp35
 70
     0
102
RTVSPropertyOp36
 70
     0
102
RTVSPropertyOp37
 70
     0
102
RTVSPropertyOp38
 70
     0
102
RTVSPropertyOp39
 70
     0
102
RTVSPropertyOp40
 70
     0
102
RTVSPropertyOp41
 70
     0
102
RTVSPropertyOp42
 70
     0
102
RTVSPropertyOp43
 70
     0
102
RTVSPropertyOp44
 70
     0
102
RTVSPropertyOp45
 70
     0
102
RTVSPropertyOp46
 70
     0
102
RTVSPropertyOp47
 70
     0
102
RTVSPropertyOp48
 70
     0
102
RTVSPropertyOp49
 70
     0
102
RTVSPropertyOp50
 70
     0
102
RTVSPropertyOp51
 70
     0
102
RTVSPropertyOp52
 70
     0
102
RTVSPropertyOp53
 70
     0
102
RTVSPropertyOp54
 70
     0
102
RTVSPropertyOp55
 70
     0
102
RTVSPropertyOp56
 70
     0
102
RTVSPropertyOp57
 70
     0
102
RTVSPropertyOp58
 70
     1
102
RTVSPropertyOp59
 70
     1
102
RTVSPropertyOp60
 70
     1
102
RTVSPropertyOp61
 70
     1
102
RTVSPropertyOp62
 70
     1
  0
XRECORD
  5
1AB8
102
{ACAD_REACTORS
330
1AB7
102
}
330
1AB7
100
AcDbXrecord
280
     1
102
RTVSPost2010Prop28
280
     0
102
RTVSPost2010PropOp28
 70
     1
102
RTVSPost2010Prop29
280
     1
102
RTVSPost2010PropOp29
 70
     1
102
RTVSPost2010Prop30
280
     1
102
RTVSPost2010PropOp30
 70
     1
102
RTVSPost2010Prop31
280
     0
102
RTVSPost2010PropOp31
 70
     1
102
RTVSPost2010Prop32
280
     0
102
RTVSPost2010PropOp32
 70
     1
102
RTVSPost2010Prop33
280
     0
102
RTVSPost2010PropOp33
 70
     1
102
RTVSPost2010Prop34
280
     0
102
RTVSPost2010PropOp34
 70
     1
102
RTVSPost2010Prop35
280
     0
102
RTVSPost2010PropOp35
 70
     1
102
RTVSPost2010Prop36
280
     0
102
RTVSPost2010PropOp36
 70
     1
102
RTVSPost2010Prop37
 90
       50
102
RTVSPost2010PropOp37
 70
     1
102
RTVSPost2010Prop38
140
0.0
102
RTVSPost2010PropOp38
 70
     1
102
RTVSPost2010Prop39
140
1.0
102
RTVSPost2010PropOp39
 70
     1
102
RTVSPost2010Prop40
 90
        0
102
RTVSPost2010PropOp40
 70
     1
102
RTVSPost2010Prop41ColorIndex
 90
       18
102
RTVSPost2010Prop41ColorRGB
 90
-16777216
102
RTVSPost2010PropOp41
 70
     1
102
RTVSPost2010Prop42
 90
       50
102
RTVSPost2010PropOp42
 70
     1
102
RTVSPost2010Prop43
 90
        3
102
RTVSPost2010PropOp43
 70
     1
102
RTVSPost2010Prop44ColorIndex
 90
        5
102
RTVSPost2010Prop44ColorRGB
 90
      255
102
RTVSPost2010PropOp44
 70
     1
102
RTVSPost2010Prop45
280
     0
102
RTVSPost2010PropOp45
 70
     1
102
RTVSPost2010Prop46
 90
       50
102
RTVSPost2010PropOp46
 70
     1
102
RTVSPost2010Prop47
 90
       50
102
RTVSPost2010PropOp47
 70
     1
102
RTVSPost2010Prop48
 90
       50
102
RTVSPost2010PropOp48
 70
     1
102
RTVSPost2010Prop49
280
     0
102
RTVSPost2010PropOp49
 70
     1
102
RTVSPost2010Prop50
 90
       50
102
RTVSPost2010PropOp50
 70
     1
102
RTVSPost2010Prop51ColorIndex
 90
      256
102
RTVSPost2010Prop51ColorRGB
 90
-16777216
102
RTVSPost2010PropOp51
 70
     0
102
RTVSPost2010Prop52
140
1.0
102
RTVSPost2010PropOp52
 70
     0
102
RTVSPost2010Prop53
 90
        2
102
RTVSPost2010PropOp53
 70
     1
102
RTVSPost2010Prop54
  1
strokes_ogs.tif
102
RTVSPost2010PropOp54
 70
     1
102
RTVSPost2010Prop55
280
     0
102
RTVSPost2010PropOp55
 70
     1
102
RTVSPost2010Prop56
140
1.0
102
RTVSPost2010PropOp56
 70
     1
102
RTVSPost2010Prop57
140
1.0
102
RTVSPost2010PropOp57
 70
     1
102
RTVSPropertyOp0
 70
     1
102
RTVSPropertyOp1
 70
     1
102
RTVSPropertyOp2
 70
     1
102
RTVSPropertyOp3
 70
     1
102
RTVSPropertyOp4
 70
     1
102
RTVSPropertyOp5
 70
     1
102
RTVSPropertyOp6
 70
     1
102
RTVSPropertyOp7
 70
     1
102
RTVSPropertyOp8
 70
     1
102
RTVSPropertyOp9
 70
     1
102
RTVSPropertyOp10
 70
     1
102
RTVSPropertyOp11
 70
     1
102
RTVSPropertyOp12
 70
     1
102
RTVSPropertyOp13
 70
     1
102
RTVSPropertyOp14
 70
     1
102
RTVSPropertyOp15
 70
     1
102
RTVSPropertyOp16
 70
     1
102
RTVSPropertyOp17
 70
     1
102
RTVSPropertyOp18
 70
     1
102
RTVSPropertyOp19
 70
     1
102
RTVSPropertyOp20
 70
     1
102
RTVSPropertyOp21
 70
     1
102
RTVSPropertyOp22
 70
     1
102
RTVSPropertyOp23
 70
     1
102
RTVSPropertyOp24
 70
     1
102
RTVSPropertyOp25
 70
     1
102
RTVSPropertyOp26
 70
     1
102
RTVSPropertyOp27
 70
     1
102
RTVSPropertyOp28
 70
     1
102
RTVSPropertyOp29
 70
     1
102
RTVSPropertyOp30
 70
     1
102
RTVSPropertyOp31
 70
     1
102
RTVSPropertyOp32
 70
     1
102
RTVSPropertyOp33
 70
     1
102
RTVSPropertyOp34
 70
     1
102
RTVSPropertyOp35
 70
     1
102
RTVSPropertyOp36
 70
     1
102
RTVSPropertyOp37
 70
     1
102
RTVSPropertyOp38
 70
     1
102
RTVSPropertyOp39
 70
     1
102
RTVSPropertyOp40
 70
     1
102
RTVSPropertyOp41
 70
     1
102
RTVSPropertyOp42
 70
     1
102
RTVSPropertyOp43
 70
     1
102
RTVSPropertyOp44
 70
     1
102
RTVSPropertyOp45
 70
     1
102
RTVSPropertyOp46
 70
     1
102
RTVSPropertyOp47
 70
     1
102
RTVSPropertyOp48
 70
     1
102
RTVSPropertyOp49
 70
     1
102
RTVSPropertyOp50
 70
     1
102
RTVSPropertyOp51
 70
     0
102
RTVSPropertyOp52
 70
     0
102
RTVSPropertyOp53
 70
     1
102
RTVSPropertyOp54
 70
     1
102
RTVSPropertyOp55
 70
     1
102
RTVSPropertyOp56
 70
     1
102
RTVSPropertyOp57
 70
     1
102
RTVSPropertyOp58
 70
     1
102
RTVSPropertyOp59
 70
     1
102
RTVSPropertyOp60
 70
     1
102
RTVSPropertyOp61
 70
     1
102
RTVSPropertyOp62
 70
     1
  0
XRECORD
  5
1ACA
102
{ACAD_REACTORS
330
1AC9
102
}
330
1AC9
100
AcDbXrecord
280
     1
102
RTVSPost2010Prop28
280
     0
102
RTVSPost2010PropOp28
 70
     0
102
RTVSPost2010Prop29
280
     1
102
RTVSPost2010PropOp29
 70
     0
102
RTVSPost2010Prop30
280
     1
102
RTVSPost2010PropOp30
 70
     0
102
RTVSPost2010Prop31
280
     0
102
RTVSPost2010PropOp31
 70
     0
102
RTVSPost2010Prop32
280
     0
102
RTVSPost2010PropOp32
 70
     0
102
RTVSPost2010Prop33
280
     0
102
RTVSPost2010PropOp33
 70
     0
102
RTVSPost2010Prop34
280
     0
102
RTVSPost2010PropOp34
 70
     0
102
RTVSPost2010Prop35
280
     0
102
RTVSPost2010PropOp35
 70
     0
102
RTVSPost2010Prop36
280
     0
102
RTVSPost2010PropOp36
 70
     0
102
RTVSPost2010Prop37
 90
       50
102
RTVSPost2010PropOp37
 70
     0
102
RTVSPost2010Prop38
140
0.0
102
RTVSPost2010PropOp38
 70
     0
102
RTVSPost2010Prop39
140
1.0
102
RTVSPost2010PropOp39
 70
     0
102
RTVSPost2010Prop40
 90
        0
102
RTVSPost2010PropOp40
 70
     0
102
RTVSPost2010Prop41ColorIndex
 90
       18
102
RTVSPost2010Prop41ColorRGB
 90
-16777216
102
RTVSPost2010PropOp41
 70
     0
102
RTVSPost2010Prop42
 90
       50
102
RTVSPost2010PropOp42
 70
     0
102
RTVSPost2010Prop43
 90
        3
102
RTVSPost2010PropOp43
 70
     0
102
RTVSPost2010Prop44ColorIndex
 90
        5
102
RTVSPost2010Prop44ColorRGB
 90
      255
102
RTVSPost2010PropOp44
 70
     0
102
RTVSPost2010Prop45
280
     0
102
RTVSPost2010PropOp45
 70
     0
102
RTVSPost2010Prop46
 90
       50
102
RTVSPost2010PropOp46
 70
     0
102
RTVSPost2010Prop47
 90
       50
102
RTVSPost2010PropOp47
 70
     0
102
RTVSPost2010Prop48
 90
       50
102
RTVSPost2010PropOp48
 70
     0
102
RTVSPost2010Prop49
280
     0
102
RTVSPost2010PropOp49
 70
     0
102
RTVSPost2010Prop50
 90
       50
102
RTVSPost2010PropOp50
 70
     0
102
RTVSPost2010Prop51ColorIndex
 90
      256
102
RTVSPost2010Prop51ColorRGB
 90
-16777216
102
RTVSPost2010PropOp51
 70
     0
102
RTVSPost2010Prop52
140
1.0
102
RTVSPost2010PropOp52
 70
     0
102
RTVSPost2010Prop53
 90
        2
102
RTVSPost2010PropOp53
 70
     0
102
RTVSPost2010Prop54
  1
strokes_ogs.tif
102
RTVSPost2010PropOp54
 70
     0
102
RTVSPost2010Prop55
280
     0
102
RTVSPost2010PropOp55
 70
     0
102
RTVSPost2010Prop56
140
1.0
102
RTVSPost2010PropOp56
 70
     0
102
RTVSPost2010Prop57
140
1.0
102
RTVSPost2010PropOp57
 70
     0
102
RTVSPropertyOp0
 70
     0
102
RTVSPropertyOp1
 70
     0
102
RTVSPropertyOp2
 70
     0
102
RTVSPropertyOp3
 70
     0
102
RTVSPropertyOp4
 70
     0
102
RTVSPropertyOp5
 70
     0
102
RTVSPropertyOp6
 70
     0
102
RTVSPropertyOp7
 70
     0
102
RTVSPropertyOp8
 70
     0
102
RTVSPropertyOp9
 70
     0
102
RTVSPropertyOp10
 70
     0
102
RTVSPropertyOp11
 70
     0
102
RTVSPropertyOp12
 70
     0
102
RTVSPropertyOp13
 70
     0
102
RTVSPropertyOp14
 70
     2
102
RTVSPropertyOp15
 70
     0
102
RTVSPropertyOp16
 70
     0
102
RTVSPropertyOp17
 70
     0
102
RTVSPropertyOp18
 70
     0
102
RTVSPropertyOp19
 70
     0
102
RTVSPropertyOp20
 70
     0
102
RTVSPropertyOp21
 70
     0
102
RTVSPropertyOp22
 70
     0
102
RTVSPropertyOp23
 70
     0
102
RTVSPropertyOp24
 70
     0
102
RTVSPropertyOp25
 70
     0
102
RTVSPropertyOp26
 70
     0
102
RTVSPropertyOp27
 70
     0
102
RTVSPropertyOp28
 70
     0
102
RTVSPropertyOp29
 70
     0
102
RTVSPropertyOp30
 70
     0
102
RTVSPropertyOp31
 70
     0
102
RTVSPropertyOp32
 70
     0
102
RTVSPropertyOp33
 70
     0
102
RTVSPropertyOp34
 70
     0
102
RTVSPropertyOp35
 70
     0
102
RTVSPropertyOp36
 70
     0
102
RTVSPropertyOp37
 70
     0
102
RTVSPropertyOp38
 70
     0
102
RTVSPropertyOp39
 70
     0
102
RTVSPropertyOp40
 70
     0
102
RTVSPropertyOp41
 70
     0
102
RTVSPropertyOp42
 70
     0
102
RTVSPropertyOp43
 70
     0
102
RTVSPropertyOp44
 70
     0
102
RTVSPropertyOp45
 70
     0
102
RTVSPropertyOp46
 70
     0
102
RTVSPropertyOp47
 70
     0
102
RTVSPropertyOp48
 70
     0
102
RTVSPropertyOp49
 70
     0
102
RTVSPropertyOp50
 70
     0
102
RTVSPropertyOp51
 70
     0
102
RTVSPropertyOp52
 70
     0
102
RTVSPropertyOp53
 70
     0
102
RTVSPropertyOp54
 70
     0
102
RTVSPropertyOp55
 70
     0
102
RTVSPropertyOp56
 70
     0
102
RTVSPropertyOp57
 70
     0
102
RTVSPropertyOp58
 70
     1
102
RTVSPropertyOp59
 70
     1
102
RTVSPropertyOp60
 70
     1
102
RTVSPropertyOp61
 70
     1
102
RTVSPropertyOp62
 70
     1
  0
XRECORD
  5
1AB0
102
{ACAD_REACTORS
330
1AAF
102
}
330
1AAF
100
AcDbXrecord
280
     1
102
RTVSPost2010Prop28
280
     0
102
RTVSPost2010PropOp28
 70
     1
102
RTVSPost2010Prop29
280
     1
102
RTVSPost2010PropOp29
 70
     1
102
RTVSPost2010Prop30
280
     1
102
RTVSPost2010PropOp30
 70
     1
102
RTVSPost2010Prop31
280
     0
102
RTVSPost2010PropOp31
 70
     1
102
RTVSPost2010Prop32
280
     0
102
RTVSPost2010PropOp32
 70
     1
102
RTVSPost2010Prop33
280
     0
102
RTVSPost2010PropOp33
 70
     1
102
RTVSPost2010Prop34
280
     0
102
RTVSPost2010PropOp34
 70
     1
102
RTVSPost2010Prop35
280
     0
102
RTVSPost2010PropOp35
 70
     1
102
RTVSPost2010Prop36
280
     0
102
RTVSPost2010PropOp36
 70
     1
102
RTVSPost2010Prop37
 90
       50
102
RTVSPost2010PropOp37
 70
     1
102
RTVSPost2010Prop38
140
0.0
102
RTVSPost2010PropOp38
 70
     1
102
RTVSPost2010Prop39
140
1.0
102
RTVSPost2010PropOp39
 70
     1
102
RTVSPost2010Prop40
 90
        0
102
RTVSPost2010PropOp40
 70
     1
102
RTVSPost2010Prop41ColorIndex
 90
       18
102
RTVSPost2010Prop41ColorRGB
 90
-16777216
102
RTVSPost2010PropOp41
 70
     1
102
RTVSPost2010Prop42
 90
       50
102
RTVSPost2010PropOp42
 70
     1
102
RTVSPost2010Prop43
 90
        3
102
RTVSPost2010PropOp43
 70
     1
102
RTVSPost2010Prop44ColorIndex
 90
        5
102
RTVSPost2010Prop44ColorRGB
 90
      255
102
RTVSPost2010PropOp44
 70
     1
102
RTVSPost2010Prop45
280
     0
102
RTVSPost2010PropOp45
 70
     1
102
RTVSPost2010Prop46
 90
       50
102
RTVSPost2010PropOp46
 70
     1
102
RTVSPost2010Prop47
 90
       50
102
RTVSPost2010PropOp47
 70
     1
102
RTVSPost2010Prop48
 90
       50
102
RTVSPost2010PropOp48
 70
     1
102
RTVSPost2010Prop49
280
     0
102
RTVSPost2010PropOp49
 70
     1
102
RTVSPost2010Prop50
 90
       50
102
RTVSPost2010PropOp50
 70
     1
102
RTVSPost2010Prop51ColorIndex
 90
      256
102
RTVSPost2010Prop51ColorRGB
 90
-16777216
102
RTVSPost2010PropOp51
 70
     0
102
RTVSPost2010Prop52
140
1.0
102
RTVSPost2010PropOp52
 70
     0
102
RTVSPost2010Prop53
 90
        2
102
RTVSPost2010PropOp53
 70
     1
102
RTVSPost2010Prop54
  1
strokes_ogs.tif
102
RTVSPost2010PropOp54
 70
     1
102
RTVSPost2010Prop55
280
     0
102
RTVSPost2010PropOp55
 70
     1
102
RTVSPost2010Prop56
140
1.0
102
RTVSPost2010PropOp56
 70
     1
102
RTVSPost2010Prop57
140
1.0
102
RTVSPost2010PropOp57
 70
     1
102
RTVSPropertyOp0
 70
     1
102
RTVSPropertyOp1
 70
     1
102
RTVSPropertyOp2
 70
     1
102
RTVSPropertyOp3
 70
     1
102
RTVSPropertyOp4
 70
     1
102
RTVSPropertyOp5
 70
     1
102
RTVSPropertyOp6
 70
     1
102
RTVSPropertyOp7
 70
     1
102
RTVSPropertyOp8
 70
     1
102
RTVSPropertyOp9
 70
     1
102
RTVSPropertyOp10
 70
     1
102
RTVSPropertyOp11
 70
     1
102
RTVSPropertyOp12
 70
     1
102
RTVSPropertyOp13
 70
     1
102
RTVSPropertyOp14
 70
     1
102
RTVSPropertyOp15
 70
     1
102
RTVSPropertyOp16
 70
     1
102
RTVSPropertyOp17
 70
     1
102
RTVSPropertyOp18
 70
     1
102
RTVSPropertyOp19
 70
     1
102
RTVSPropertyOp20
 70
     1
102
RTVSPropertyOp21
 70
     1
102
RTVSPropertyOp22
 70
     1
102
RTVSPropertyOp23
 70
     1
102
RTVSPropertyOp24
 70
     1
102
RTVSPropertyOp25
 70
     1
102
RTVSPropertyOp26
 70
     1
102
RTVSPropertyOp27
 70
     1
102
RTVSPropertyOp28
 70
     1
102
RTVSPropertyOp29
 70
     1
102
RTVSPropertyOp30
 70
     1
102
RTVSPropertyOp31
 70
     1
102
RTVSPropertyOp32
 70
     1
102
RTVSPropertyOp33
 70
     1
102
RTVSPropertyOp34
 70
     1
102
RTVSPropertyOp35
 70
     1
102
RTVSPropertyOp36
 70
     1
102
RTVSPropertyOp37
 70
     1
102
RTVSPropertyOp38
 70
     1
102
RTVSPropertyOp39
 70
     1
102
RTVSPropertyOp40
 70
     1
102
RTVSPropertyOp41
 70
     1
102
RTVSPropertyOp42
 70
     1
102
RTVSPropertyOp43
 70
     1
102
RTVSPropertyOp44
 70
     1
102
RTVSPropertyOp45
 70
     1
102
RTVSPropertyOp46
 70
     1
102
RTVSPropertyOp47
 70
     1
102
RTVSPropertyOp48
 70
     1
102
RTVSPropertyOp49
 70
     1
102
RTVSPropertyOp50
 70
     1
102
RTVSPropertyOp51
 70
     0
102
RTVSPropertyOp52
 70
     0
102
RTVSPropertyOp53
 70
     1
102
RTVSPropertyOp54
 70
     1
102
RTVSPropertyOp55
 70
     1
102
RTVSPropertyOp56
 70
     1
102
RTVSPropertyOp57
 70
     1
102
RTVSPropertyOp58
 70
     1
102
RTVSPropertyOp59
 70
     1
102
RTVSPropertyOp60
 70
     1
102
RTVSPropertyOp61
 70
     1
102
RTVSPropertyOp62
 70
     1
  0
XRECORD
  5
1AC6
102
{ACAD_REACTORS
330
1AC5
102
}
330
1AC5
100
AcDbXrecord
280
     1
102
RTVSPost2010Prop28
280
     0
102
RTVSPost2010PropOp28
 70
     1
102
RTVSPost2010Prop29
280
     1
102
RTVSPost2010PropOp29
 70
     1
102
RTVSPost2010Prop30
280
     1
102
RTVSPost2010PropOp30
 70
     1
102
RTVSPost2010Prop31
280
     0
102
RTVSPost2010PropOp31
 70
     1
102
RTVSPost2010Prop32
280
     0
102
RTVSPost2010PropOp32
 70
     1
102
RTVSPost2010Prop33
280
     0
102
RTVSPost2010PropOp33
 70
     1
102
RTVSPost2010Prop34
280
     0
102
RTVSPost2010PropOp34
 70
     1
102
RTVSPost2010Prop35
280
     0
102
RTVSPost2010PropOp35
 70
     1
102
RTVSPost2010Prop36
280
     0
102
RTVSPost2010PropOp36
 70
     1
102
RTVSPost2010Prop37
 90
       50
102
RTVSPost2010PropOp37
 70
     1
102
RTVSPost2010Prop38
140
0.0
102
RTVSPost2010PropOp38
 70
     1
102
RTVSPost2010Prop39
140
1.0
102
RTVSPost2010PropOp39
 70
     1
102
RTVSPost2010Prop40
 90
        0
102
RTVSPost2010PropOp40
 70
     1
102
RTVSPost2010Prop41ColorIndex
 90
       18
102
RTVSPost2010Prop41ColorRGB
 90
-16777216
102
RTVSPost2010PropOp41
 70
     1
102
RTVSPost2010Prop42
 90
       50
102
RTVSPost2010PropOp42
 70
     1
102
RTVSPost2010Prop43
 90
        3
102
RTVSPost2010PropOp43
 70
     1
102
RTVSPost2010Prop44ColorIndex
 90
        5
102
RTVSPost2010Prop44ColorRGB
 90
      255
102
RTVSPost2010PropOp44
 70
     1
102
RTVSPost2010Prop45
280
     0
102
RTVSPost2010PropOp45
 70
     1
102
RTVSPost2010Prop46
 90
       50
102
RTVSPost2010PropOp46
 70
     1
102
RTVSPost2010Prop47
 90
       50
102
RTVSPost2010PropOp47
 70
     1
102
RTVSPost2010Prop48
 90
       50
102
RTVSPost2010PropOp48
 70
     1
102
RTVSPost2010Prop49
280
     0
102
RTVSPost2010PropOp49
 70
     1
102
RTVSPost2010Prop50
 90
       50
102
RTVSPost2010PropOp50
 70
     1
102
RTVSPost2010Prop51ColorIndex
 90
      256
102
RTVSPost2010Prop51ColorRGB
 90
-16777216
102
RTVSPost2010PropOp51
 70
     0
102
RTVSPost2010Prop52
140
1.0
102
RTVSPost2010PropOp52
 70
     0
102
RTVSPost2010Prop53
 90
        2
102
RTVSPost2010PropOp53
 70
     1
102
RTVSPost2010Prop54
  1
strokes_ogs.tif
102
RTVSPost2010PropOp54
 70
     1
102
RTVSPost2010Prop55
280
     0
102
RTVSPost2010PropOp55
 70
     1
102
RTVSPost2010Prop56
140
1.0
102
RTVSPost2010PropOp56
 70
     1
102
RTVSPost2010Prop57
140
1.0
102
RTVSPost2010PropOp57
 70
     1
102
RTVSPropertyOp0
 70
     1
102
RTVSPropertyOp1
 70
     1
102
RTVSPropertyOp2
 70
     1
102
RTVSPropertyOp3
 70
     1
102
RTVSPropertyOp4
 70
     1
102
RTVSPropertyOp5
 70
     1
102
RTVSPropertyOp6
 70
     1
102
RTVSPropertyOp7
 70
     1
102
RTVSPropertyOp8
 70
     1
102
RTVSPropertyOp9
 70
     1
102
RTVSPropertyOp10
 70
     1
102
RTVSPropertyOp11
 70
     1
102
RTVSPropertyOp12
 70
     1
102
RTVSPropertyOp13
 70
     1
102
RTVSPropertyOp14
 70
     1
102
RTVSPropertyOp15
 70
     1
102
RTVSPropertyOp16
 70
     1
102
RTVSPropertyOp17
 70
     1
102
RTVSPropertyOp18
 70
     1
102
RTVSPropertyOp19
 70
     1
102
RTVSPropertyOp20
 70
     1
102
RTVSPropertyOp21
 70
     1
102
RTVSPropertyOp22
 70
     1
102
RTVSPropertyOp23
 70
     1
102
RTVSPropertyOp24
 70
     1
102
RTVSPropertyOp25
 70
     1
102
RTVSPropertyOp26
 70
     1
102
RTVSPropertyOp27
 70
     1
102
RTVSPropertyOp28
 70
     1
102
RTVSPropertyOp29
 70
     1
102
RTVSPropertyOp30
 70
     1
102
RTVSPropertyOp31
 70
     1
102
RTVSPropertyOp32
 70
     1
102
RTVSPropertyOp33
 70
     1
102
RTVSPropertyOp34
 70
     1
102
RTVSPropertyOp35
 70
     1
102
RTVSPropertyOp36
 70
     1
102
RTVSPropertyOp37
 70
     1
102
RTVSPropertyOp38
 70
     1
102
RTVSPropertyOp39
 70
     1
102
RTVSPropertyOp40
 70
     1
102
RTVSPropertyOp41
 70
     1
102
RTVSPropertyOp42
 70
     1
102
RTVSPropertyOp43
 70
     1
102
RTVSPropertyOp44
 70
     1
102
RTVSPropertyOp45
 70
     1
102
RTVSPropertyOp46
 70
     1
102
RTVSPropertyOp47
 70
     1
102
RTVSPropertyOp48
 70
     1
102
RTVSPropertyOp49
 70
     1
102
RTVSPropertyOp50
 70
     1
102
RTVSPropertyOp51
 70
     0
102
RTVSPropertyOp52
 70
     0
102
RTVSPropertyOp53
 70
     1
102
RTVSPropertyOp54
 70
     1
102
RTVSPropertyOp55
 70
     1
102
RTVSPropertyOp56
 70
     1
102
RTVSPropertyOp57
 70
     1
102
RTVSPropertyOp58
 70
     1
102
RTVSPropertyOp59
 70
     1
102
RTVSPropertyOp60
 70
     1
102
RTVSPropertyOp61
 70
     1
102
RTVSPropertyOp62
 70
     1
  0
XRECORD
  5
1AC4
102
{ACAD_REACTORS
330
1AC3
102
}
330
1AC3
100
AcDbXrecord
280
     1
102
RTVSPost2010Prop28
280
     0
102
RTVSPost2010PropOp28
 70
     1
102
RTVSPost2010Prop29
280
     1
102
RTVSPost2010PropOp29
 70
     1
102
RTVSPost2010Prop30
280
     1
102
RTVSPost2010PropOp30
 70
     1
102
RTVSPost2010Prop31
280
     0
102
RTVSPost2010PropOp31
 70
     1
102
RTVSPost2010Prop32
280
     0
102
RTVSPost2010PropOp32
 70
     1
102
RTVSPost2010Prop33
280
     0
102
RTVSPost2010PropOp33
 70
     1
102
RTVSPost2010Prop34
280
     0
102
RTVSPost2010PropOp34
 70
     1
102
RTVSPost2010Prop35
280
     0
102
RTVSPost2010PropOp35
 70
     1
102
RTVSPost2010Prop36
280
     0
102
RTVSPost2010PropOp36
 70
     1
102
RTVSPost2010Prop37
 90
       50
102
RTVSPost2010PropOp37
 70
     1
102
RTVSPost2010Prop38
140
0.0
102
RTVSPost2010PropOp38
 70
     1
102
RTVSPost2010Prop39
140
1.0
102
RTVSPost2010PropOp39
 70
     1
102
RTVSPost2010Prop40
 90
        0
102
RTVSPost2010PropOp40
 70
     1
102
RTVSPost2010Prop41ColorIndex
 90
       18
102
RTVSPost2010Prop41ColorRGB
 90
-16777216
102
RTVSPost2010PropOp41
 70
     1
102
RTVSPost2010Prop42
 90
       50
102
RTVSPost2010PropOp42
 70
     1
102
RTVSPost2010Prop43
 90
        3
102
RTVSPost2010PropOp43
 70
     1
102
RTVSPost2010Prop44ColorIndex
 90
        5
102
RTVSPost2010Prop44ColorRGB
 90
      255
102
RTVSPost2010PropOp44
 70
     1
102
RTVSPost2010Prop45
280
     0
102
RTVSPost2010PropOp45
 70
     1
102
RTVSPost2010Prop46
 90
       50
102
RTVSPost2010PropOp46
 70
     1
102
RTVSPost2010Prop47
 90
       50
102
RTVSPost2010PropOp47
 70
     1
102
RTVSPost2010Prop48
 90
       50
102
RTVSPost2010PropOp48
 70
     1
102
RTVSPost2010Prop49
280
     0
102
RTVSPost2010PropOp49
 70
     1
102
RTVSPost2010Prop50
 90
       50
102
RTVSPost2010PropOp50
 70
     1
102
RTVSPost2010Prop51ColorIndex
 90
      256
102
RTVSPost2010Prop51ColorRGB
 90
-16777216
102
RTVSPost2010PropOp51
 70
     0
102
RTVSPost2010Prop52
140
1.0
102
RTVSPost2010PropOp52
 70
     0
102
RTVSPost2010Prop53
 90
        2
102
RTVSPost2010PropOp53
 70
     1
102
RTVSPost2010Prop54
  1
strokes_ogs.tif
102
RTVSPost2010PropOp54
 70
     1
102
RTVSPost2010Prop55
280
     0
102
RTVSPost2010PropOp55
 70
     1
102
RTVSPost2010Prop56
140
1.0
102
RTVSPost2010PropOp56
 70
     1
102
RTVSPost2010Prop57
140
1.0
102
RTVSPost2010PropOp57
 70
     1
102
RTVSPropertyOp0
 70
     1
102
RTVSPropertyOp1
 70
     1
102
RTVSPropertyOp2
 70
     1
102
RTVSPropertyOp3
 70
     1
102
RTVSPropertyOp4
 70
     1
102
RTVSPropertyOp5
 70
     1
102
RTVSPropertyOp6
 70
     1
102
RTVSPropertyOp7
 70
     1
102
RTVSPropertyOp8
 70
     1
102
RTVSPropertyOp9
 70
     1
102
RTVSPropertyOp10
 70
     1
102
RTVSPropertyOp11
 70
     1
102
RTVSPropertyOp12
 70
     1
102
RTVSPropertyOp13
 70
     1
102
RTVSPropertyOp14
 70
     1
102
RTVSPropertyOp15
 70
     1
102
RTVSPropertyOp16
 70
     1
102
RTVSPropertyOp17
 70
     1
102
RTVSPropertyOp18
 70
     1
102
RTVSPropertyOp19
 70
     1
102
RTVSPropertyOp20
 70
     1
102
RTVSPropertyOp21
 70
     1
102
RTVSPropertyOp22
 70
     1
102
RTVSPropertyOp23
 70
     1
102
RTVSPropertyOp24
 70
     1
102
RTVSPropertyOp25
 70
     1
102
RTVSPropertyOp26
 70
     1
102
RTVSPropertyOp27
 70
     1
102
RTVSPropertyOp28
 70
     1
102
RTVSPropertyOp29
 70
     1
102
RTVSPropertyOp30
 70
     1
102
RTVSPropertyOp31
 70
     1
102
RTVSPropertyOp32
 70
     1
102
RTVSPropertyOp33
 70
     1
102
RTVSPropertyOp34
 70
     1
102
RTVSPropertyOp35
 70
     1
102
RTVSPropertyOp36
 70
     1
102
RTVSPropertyOp37
 70
     1
102
RTVSPropertyOp38
 70
     1
102
RTVSPropertyOp39
 70
     1
102
RTVSPropertyOp40
 70
     1
102
RTVSPropertyOp41
 70
     1
102
RTVSPropertyOp42
 70
     1
102
RTVSPropertyOp43
 70
     1
102
RTVSPropertyOp44
 70
     1
102
RTVSPropertyOp45
 70
     1
102
RTVSPropertyOp46
 70
     1
102
RTVSPropertyOp47
 70
     1
102
RTVSPropertyOp48
 70
     1
102
RTVSPropertyOp49
 70
     1
102
RTVSPropertyOp50
 70
     1
102
RTVSPropertyOp51
 70
     0
102
RTVSPropertyOp52
 70
     0
102
RTVSPropertyOp53
 70
     1
102
RTVSPropertyOp54
 70
     1
102
RTVSPropertyOp55
 70
     1
102
RTVSPropertyOp56
 70
     1
102
RTVSPropertyOp57
 70
     1
102
RTVSPropertyOp58
 70
     1
102
RTVSPropertyOp59
 70
     1
102
RTVSPropertyOp60
 70
     1
102
RTVSPropertyOp61
 70
     1
102
RTVSPropertyOp62
 70
     1
  0
XRECORD
  5
1ABE
102
{ACAD_REACTORS
330
1ABD
102
}
330
1ABD
100
AcDbXrecord
280
     1
102
RTVSPost2010Prop28
280
     0
102
RTVSPost2010PropOp28
 70
     1
102
RTVSPost2010Prop29
280
     1
102
RTVSPost2010PropOp29
 70
     1
102
RTVSPost2010Prop30
280
     1
102
RTVSPost2010PropOp30
 70
     1
102
RTVSPost2010Prop31
280
     0
102
RTVSPost2010PropOp31
 70
     1
102
RTVSPost2010Prop32
280
     0
102
RTVSPost2010PropOp32
 70
     1
102
RTVSPost2010Prop33
280
     0
102
RTVSPost2010PropOp33
 70
     1
102
RTVSPost2010Prop34
280
     0
102
RTVSPost2010PropOp34
 70
     1
102
RTVSPost2010Prop35
280
     0
102
RTVSPost2010PropOp35
 70
     1
102
RTVSPost2010Prop36
280
     0
102
RTVSPost2010PropOp36
 70
     1
102
RTVSPost2010Prop37
 90
       50
102
RTVSPost2010PropOp37
 70
     1
102
RTVSPost2010Prop38
140
0.0
102
RTVSPost2010PropOp38
 70
     1
102
RTVSPost2010Prop39
140
1.0
102
RTVSPost2010PropOp39
 70
     1
102
RTVSPost2010Prop40
 90
        0
102
RTVSPost2010PropOp40
 70
     1
102
RTVSPost2010Prop41ColorIndex
 90
       18
102
RTVSPost2010Prop41ColorRGB
 90
-16777216
102
RTVSPost2010PropOp41
 70
     1
102
RTVSPost2010Prop42
 90
       50
102
RTVSPost2010PropOp42
 70
     1
102
RTVSPost2010Prop43
 90
        3
102
RTVSPost2010PropOp43
 70
     1
102
RTVSPost2010Prop44ColorIndex
 90
        5
102
RTVSPost2010Prop44ColorRGB
 90
      255
102
RTVSPost2010PropOp44
 70
     1
102
RTVSPost2010Prop45
280
     0
102
RTVSPost2010PropOp45
 70
     1
102
RTVSPost2010Prop46
 90
       50
102
RTVSPost2010PropOp46
 70
     1
102
RTVSPost2010Prop47
 90
       50
102
RTVSPost2010PropOp47
 70
     1
102
RTVSPost2010Prop48
 90
       50
102
RTVSPost2010PropOp48
 70
     1
102
RTVSPost2010Prop49
280
     0
102
RTVSPost2010PropOp49
 70
     1
102
RTVSPost2010Prop50
 90
       50
102
RTVSPost2010PropOp50
 70
     1
102
RTVSPost2010Prop51ColorIndex
 90
      256
102
RTVSPost2010Prop51ColorRGB
 90
-16777216
102
RTVSPost2010PropOp51
 70
     0
102
RTVSPost2010Prop52
140
1.0
102
RTVSPost2010PropOp52
 70
     0
102
RTVSPost2010Prop53
 90
        2
102
RTVSPost2010PropOp53
 70
     1
102
RTVSPost2010Prop54
  1
strokes_ogs.tif
102
RTVSPost2010PropOp54
 70
     1
102
RTVSPost2010Prop55
280
     0
102
RTVSPost2010PropOp55
 70
     1
102
RTVSPost2010Prop56
140
1.0
102
RTVSPost2010PropOp56
 70
     1
102
RTVSPost2010Prop57
140
1.0
102
RTVSPost2010PropOp57
 70
     1
102
RTVSPropertyOp0
 70
     1
102
RTVSPropertyOp1
 70
     1
102
RTVSPropertyOp2
 70
     1
102
RTVSPropertyOp3
 70
     1
102
RTVSPropertyOp4
 70
     1
102
RTVSPropertyOp5
 70
     1
102
RTVSPropertyOp6
 70
     1
102
RTVSPropertyOp7
 70
     1
102
RTVSPropertyOp8
 70
     1
102
RTVSPropertyOp9
 70
     1
102
RTVSPropertyOp10
 70
     1
102
RTVSPropertyOp11
 70
     1
102
RTVSPropertyOp12
 70
     1
102
RTVSPropertyOp13
 70
     1
102
RTVSPropertyOp14
 70
     1
102
RTVSPropertyOp15
 70
     1
102
RTVSPropertyOp16
 70
     1
102
RTVSPropertyOp17
 70
     1
102
RTVSPropertyOp18
 70
     1
102
RTVSPropertyOp19
 70
     1
102
RTVSPropertyOp20
 70
     1
102
RTVSPropertyOp21
 70
     1
102
RTVSPropertyOp22
 70
     1
102
RTVSPropertyOp23
 70
     1
102
RTVSPropertyOp24
 70
     1
102
RTVSPropertyOp25
 70
     1
102
RTVSPropertyOp26
 70
     1
102
RTVSPropertyOp27
 70
     1
102
RTVSPropertyOp28
 70
     1
102
RTVSPropertyOp29
 70
     1
102
RTVSPropertyOp30
 70
     1
102
RTVSPropertyOp31
 70
     1
102
RTVSPropertyOp32
 70
     1
102
RTVSPropertyOp33
 70
     1
102
RTVSPropertyOp34
 70
     1
102
RTVSPropertyOp35
 70
     1
102
RTVSPropertyOp36
 70
     1
102
RTVSPropertyOp37
 70
     1
102
RTVSPropertyOp38
 70
     1
102
RTVSPropertyOp39
 70
     1
102
RTVSPropertyOp40
 70
     1
102
RTVSPropertyOp41
 70
     1
102
RTVSPropertyOp42
 70
     1
102
RTVSPropertyOp43
 70
     1
102
RTVSPropertyOp44
 70
     1
102
RTVSPropertyOp45
 70
     1
102
RTVSPropertyOp46
 70
     1
102
RTVSPropertyOp47
 70
     1
102
RTVSPropertyOp48
 70
     1
102
RTVSPropertyOp49
 70
     1
102
RTVSPropertyOp50
 70
     1
102
RTVSPropertyOp51
 70
     0
102
RTVSPropertyOp52
 70
     0
102
RTVSPropertyOp53
 70
     1
102
RTVSPropertyOp54
 70
     1
102
RTVSPropertyOp55
 70
     1
102
RTVSPropertyOp56
 70
     1
102
RTVSPropertyOp57
 70
     1
102
RTVSPropertyOp58
 70
     1
102
RTVSPropertyOp59
 70
     1
102
RTVSPropertyOp60
 70
     1
102
RTVSPropertyOp61
 70
     1
102
RTVSPropertyOp62
 70
     1
  0
XRECORD
  5
1AC0
102
{ACAD_REACTORS
330
1ABF
102
}
330
1ABF
100
AcDbXrecord
280
     1
102
RTVSPost2010Prop28
280
     0
102
RTVSPost2010PropOp28
 70
     1
102
RTVSPost2010Prop29
280
     1
102
RTVSPost2010PropOp29
 70
     1
102
RTVSPost2010Prop30
280
     1
102
RTVSPost2010PropOp30
 70
     1
102
RTVSPost2010Prop31
280
     0
102
RTVSPost2010PropOp31
 70
     1
102
RTVSPost2010Prop32
280
     0
102
RTVSPost2010PropOp32
 70
     1
102
RTVSPost2010Prop33
280
     0
102
RTVSPost2010PropOp33
 70
     1
102
RTVSPost2010Prop34
280
     0
102
RTVSPost2010PropOp34
 70
     1
102
RTVSPost2010Prop35
280
     0
102
RTVSPost2010PropOp35
 70
     1
102
RTVSPost2010Prop36
280
     0
102
RTVSPost2010PropOp36
 70
     1
102
RTVSPost2010Prop37
 90
       50
102
RTVSPost2010PropOp37
 70
     1
102
RTVSPost2010Prop38
140
0.0
102
RTVSPost2010PropOp38
 70
     1
102
RTVSPost2010Prop39
140
1.0
102
RTVSPost2010PropOp39
 70
     1
102
RTVSPost2010Prop40
 90
        0
102
RTVSPost2010PropOp40
 70
     1
102
RTVSPost2010Prop41ColorIndex
 90
       18
102
RTVSPost2010Prop41ColorRGB
 90
-16777216
102
RTVSPost2010PropOp41
 70
     1
102
RTVSPost2010Prop42
 90
       50
102
RTVSPost2010PropOp42
 70
     1
102
RTVSPost2010Prop43
 90
        3
102
RTVSPost2010PropOp43
 70
     1
102
RTVSPost2010Prop44ColorIndex
 90
        5
102
RTVSPost2010Prop44ColorRGB
 90
      255
102
RTVSPost2010PropOp44
 70
     1
102
RTVSPost2010Prop45
280
     0
102
RTVSPost2010PropOp45
 70
     1
102
RTVSPost2010Prop46
 90
       50
102
RTVSPost2010PropOp46
 70
     1
102
RTVSPost2010Prop47
 90
       50
102
RTVSPost2010PropOp47
 70
     1
102
RTVSPost2010Prop48
 90
       50
102
RTVSPost2010PropOp48
 70
     1
102
RTVSPost2010Prop49
280
     0
102
RTVSPost2010PropOp49
 70
     1
102
RTVSPost2010Prop50
 90
       50
102
RTVSPost2010PropOp50
 70
     1
102
RTVSPost2010Prop51ColorIndex
 90
      256
102
RTVSPost2010Prop51ColorRGB
 90
-16777216
102
RTVSPost2010PropOp51
 70
     0
102
RTVSPost2010Prop52
140
1.0
102
RTVSPost2010PropOp52
 70
     0
102
RTVSPost2010Prop53
 90
        2
102
RTVSPost2010PropOp53
 70
     1
102
RTVSPost2010Prop54
  1
strokes_ogs.tif
102
RTVSPost2010PropOp54
 70
     1
102
RTVSPost2010Prop55
280
     0
102
RTVSPost2010PropOp55
 70
     1
102
RTVSPost2010Prop56
140
1.0
102
RTVSPost2010PropOp56
 70
     1
102
RTVSPost2010Prop57
140
1.0
102
RTVSPost2010PropOp57
 70
     1
102
RTVSPropertyOp0
 70
     1
102
RTVSPropertyOp1
 70
     1
102
RTVSPropertyOp2
 70
     1
102
RTVSPropertyOp3
 70
     1
102
RTVSPropertyOp4
 70
     1
102
RTVSPropertyOp5
 70
     1
102
RTVSPropertyOp6
 70
     1
102
RTVSPropertyOp7
 70
     1
102
RTVSPropertyOp8
 70
     1
102
RTVSPropertyOp9
 70
     1
102
RTVSPropertyOp10
 70
     1
102
RTVSPropertyOp11
 70
     1
102
RTVSPropertyOp12
 70
     1
102
RTVSPropertyOp13
 70
     1
102
RTVSPropertyOp14
 70
     1
102
RTVSPropertyOp15
 70
     1
102
RTVSPropertyOp16
 70
     1
102
RTVSPropertyOp17
 70
     1
102
RTVSPropertyOp18
 70
     1
102
RTVSPropertyOp19
 70
     1
102
RTVSPropertyOp20
 70
     1
102
RTVSPropertyOp21
 70
     1
102
RTVSPropertyOp22
 70
     1
102
RTVSPropertyOp23
 70
     1
102
RTVSPropertyOp24
 70
     1
102
RTVSPropertyOp25
 70
     1
102
RTVSPropertyOp26
 70
     1
102
RTVSPropertyOp27
 70
     1
102
RTVSPropertyOp28
 70
     1
102
RTVSPropertyOp29
 70
     1
102
RTVSPropertyOp30
 70
     1
102
RTVSPropertyOp31
 70
     1
102
RTVSPropertyOp32
 70
     1
102
RTVSPropertyOp33
 70
     1
102
RTVSPropertyOp34
 70
     1
102
RTVSPropertyOp35
 70
     1
102
RTVSPropertyOp36
 70
     1
102
RTVSPropertyOp37
 70
     1
102
RTVSPropertyOp38
 70
     1
102
RTVSPropertyOp39
 70
     1
102
RTVSPropertyOp40
 70
     1
102
RTVSPropertyOp41
 70
     1
102
RTVSPropertyOp42
 70
     1
102
RTVSPropertyOp43
 70
     1
102
RTVSPropertyOp44
 70
     1
102
RTVSPropertyOp45
 70
     1
102
RTVSPropertyOp46
 70
     1
102
RTVSPropertyOp47
 70
     1
102
RTVSPropertyOp48
 70
     1
102
RTVSPropertyOp49
 70
     1
102
RTVSPropertyOp50
 70
     1
102
RTVSPropertyOp51
 70
     0
102
RTVSPropertyOp52
 70
     0
102
RTVSPropertyOp53
 70
     1
102
RTVSPropertyOp54
 70
     1
102
RTVSPropertyOp55
 70
     1
102
RTVSPropertyOp56
 70
     1
102
RTVSPropertyOp57
 70
     1
102
RTVSPropertyOp58
 70
     1
102
RTVSPropertyOp59
 70
     1
102
RTVSPropertyOp60
 70
     1
102
RTVSPropertyOp61
 70
     1
102
RTVSPropertyOp62
 70
     1
  0
XRECORD
  5
1AB6
102
{ACAD_REACTORS
330
1AB5
102
}
330
1AB5
100
AcDbXrecord
280
     1
102
RTVSPost2010Prop28
280
     0
102
RTVSPost2010PropOp28
 70
     1
102
RTVSPost2010Prop29
280
     1
102
RTVSPost2010PropOp29
 70
     1
102
RTVSPost2010Prop30
280
     1
102
RTVSPost2010PropOp30
 70
     1
102
RTVSPost2010Prop31
280
     0
102
RTVSPost2010PropOp31
 70
     1
102
RTVSPost2010Prop32
280
     0
102
RTVSPost2010PropOp32
 70
     1
102
RTVSPost2010Prop33
280
     0
102
RTVSPost2010PropOp33
 70
     1
102
RTVSPost2010Prop34
280
     0
102
RTVSPost2010PropOp34
 70
     1
102
RTVSPost2010Prop35
280
     0
102
RTVSPost2010PropOp35
 70
     1
102
RTVSPost2010Prop36
280
     0
102
RTVSPost2010PropOp36
 70
     1
102
RTVSPost2010Prop37
 90
       50
102
RTVSPost2010PropOp37
 70
     1
102
RTVSPost2010Prop38
140
0.0
102
RTVSPost2010PropOp38
 70
     1
102
RTVSPost2010Prop39
140
1.0
102
RTVSPost2010PropOp39
 70
     1
102
RTVSPost2010Prop40
 90
        0
102
RTVSPost2010PropOp40
 70
     1
102
RTVSPost2010Prop41ColorIndex
 90
       18
102
RTVSPost2010Prop41ColorRGB
 90
-16777216
102
RTVSPost2010PropOp41
 70
     1
102
RTVSPost2010Prop42
 90
       50
102
RTVSPost2010PropOp42
 70
     1
102
RTVSPost2010Prop43
 90
        3
102
RTVSPost2010PropOp43
 70
     1
102
RTVSPost2010Prop44ColorIndex
 90
        5
102
RTVSPost2010Prop44ColorRGB
 90
      255
102
RTVSPost2010PropOp44
 70
     1
102
RTVSPost2010Prop45
280
     0
102
RTVSPost2010PropOp45
 70
     1
102
RTVSPost2010Prop46
 90
       50
102
RTVSPost2010PropOp46
 70
     1
102
RTVSPost2010Prop47
 90
       50
102
RTVSPost2010PropOp47
 70
     1
102
RTVSPost2010Prop48
 90
       50
102
RTVSPost2010PropOp48
 70
     1
102
RTVSPost2010Prop49
280
     0
102
RTVSPost2010PropOp49
 70
     1
102
RTVSPost2010Prop50
 90
       50
102
RTVSPost2010PropOp50
 70
     1
102
RTVSPost2010Prop51ColorIndex
 90
      256
102
RTVSPost2010Prop51ColorRGB
 90
-16777216
102
RTVSPost2010PropOp51
 70
     0
102
RTVSPost2010Prop52
140
1.0
102
RTVSPost2010PropOp52
 70
     0
102
RTVSPost2010Prop53
 90
        2
102
RTVSPost2010PropOp53
 70
     1
102
RTVSPost2010Prop54
  1
strokes_ogs.tif
102
RTVSPost2010PropOp54
 70
     1
102
RTVSPost2010Prop55
280
     0
102
RTVSPost2010PropOp55
 70
     1
102
RTVSPost2010Prop56
140
1.0
102
RTVSPost2010PropOp56
 70
     1
102
RTVSPost2010Prop57
140
1.0
102
RTVSPost2010PropOp57
 70
     1
102
RTVSPropertyOp0
 70
     1
102
RTVSPropertyOp1
 70
     1
102
RTVSPropertyOp2
 70
     1
102
RTVSPropertyOp3
 70
     1
102
RTVSPropertyOp4
 70
     1
102
RTVSPropertyOp5
 70
     1
102
RTVSPropertyOp6
 70
     1
102
RTVSPropertyOp7
 70
     1
102
RTVSPropertyOp8
 70
     1
102
RTVSPropertyOp9
 70
     1
102
RTVSPropertyOp10
 70
     1
102
RTVSPropertyOp11
 70
     1
102
RTVSPropertyOp12
 70
     1
102
RTVSPropertyOp13
 70
     1
102
RTVSPropertyOp14
 70
     1
102
RTVSPropertyOp15
 70
     1
102
RTVSPropertyOp16
 70
     1
102
RTVSPropertyOp17
 70
     1
102
RTVSPropertyOp18
 70
     1
102
RTVSPropertyOp19
 70
     1
102
RTVSPropertyOp20
 70
     1
102
RTVSPropertyOp21
 70
     1
102
RTVSPropertyOp22
 70
     1
102
RTVSPropertyOp23
 70
     1
102
RTVSPropertyOp24
 70
     1
102
RTVSPropertyOp25
 70
     1
102
RTVSPropertyOp26
 70
     1
102
RTVSPropertyOp27
 70
     1
102
RTVSPropertyOp28
 70
     1
102
RTVSPropertyOp29
 70
     1
102
RTVSPropertyOp30
 70
     1
102
RTVSPropertyOp31
 70
     1
102
RTVSPropertyOp32
 70
     1
102
RTVSPropertyOp33
 70
     1
102
RTVSPropertyOp34
 70
     1
102
RTVSPropertyOp35
 70
     1
102
RTVSPropertyOp36
 70
     1
102
RTVSPropertyOp37
 70
     1
102
RTVSPropertyOp38
 70
     1
102
RTVSPropertyOp39
 70
     1
102
RTVSPropertyOp40
 70
     1
102
RTVSPropertyOp41
 70
     1
102
RTVSPropertyOp42
 70
     1
102
RTVSPropertyOp43
 70
     1
102
RTVSPropertyOp44
 70
     1
102
RTVSPropertyOp45
 70
     1
102
RTVSPropertyOp46
 70
     1
102
RTVSPropertyOp47
 70
     1
102
RTVSPropertyOp48
 70
     1
102
RTVSPropertyOp49
 70
     1
102
RTVSPropertyOp50
 70
     1
102
RTVSPropertyOp51
 70
     0
102
RTVSPropertyOp52
 70
     0
102
RTVSPropertyOp53
 70
     1
102
RTVSPropertyOp54
 70
     1
102
RTVSPropertyOp55
 70
     1
102
RTVSPropertyOp56
 70
     1
102
RTVSPropertyOp57
 70
     1
102
RTVSPropertyOp58
 70
     1
102
RTVSPropertyOp59
 70
     1
102
RTVSPropertyOp60
 70
     1
102
RTVSPropertyOp61
 70
     1
102
RTVSPropertyOp62
 70
     1
  0
XRECORD
  5
1AAA
102
{ACAD_REACTORS
330
1AA9
102
}
330
1AA9
100
AcDbXrecord
280
     1
102
RTVSPost2010Prop28
280
     0
102
RTVSPost2010PropOp28
 70
     1
102
RTVSPost2010Prop29
280
     1
102
RTVSPost2010PropOp29
 70
     1
102
RTVSPost2010Prop30
280
     1
102
RTVSPost2010PropOp30
 70
     1
102
RTVSPost2010Prop31
280
     0
102
RTVSPost2010PropOp31
 70
     1
102
RTVSPost2010Prop32
280
     0
102
RTVSPost2010PropOp32
 70
     1
102
RTVSPost2010Prop33
280
     0
102
RTVSPost2010PropOp33
 70
     1
102
RTVSPost2010Prop34
280
     0
102
RTVSPost2010PropOp34
 70
     1
102
RTVSPost2010Prop35
280
     0
102
RTVSPost2010PropOp35
 70
     1
102
RTVSPost2010Prop36
280
     0
102
RTVSPost2010PropOp36
 70
     1
102
RTVSPost2010Prop37
 90
       50
102
RTVSPost2010PropOp37
 70
     1
102
RTVSPost2010Prop38
140
0.0
102
RTVSPost2010PropOp38
 70
     1
102
RTVSPost2010Prop39
140
1.0
102
RTVSPost2010PropOp39
 70
     1
102
RTVSPost2010Prop40
 90
        0
102
RTVSPost2010PropOp40
 70
     1
102
RTVSPost2010Prop41ColorIndex
 90
       18
102
RTVSPost2010Prop41ColorRGB
 90
-16777216
102
RTVSPost2010PropOp41
 70
     1
102
RTVSPost2010Prop42
 90
       50
102
RTVSPost2010PropOp42
 70
     1
102
RTVSPost2010Prop43
 90
        3
102
RTVSPost2010PropOp43
 70
     1
102
RTVSPost2010Prop44ColorIndex
 90
        5
102
RTVSPost2010Prop44ColorRGB
 90
      255
102
RTVSPost2010PropOp44
 70
     1
102
RTVSPost2010Prop45
280
     0
102
RTVSPost2010PropOp45
 70
     1
102
RTVSPost2010Prop46
 90
       50
102
RTVSPost2010PropOp46
 70
     1
102
RTVSPost2010Prop47
 90
       50
102
RTVSPost2010PropOp47
 70
     1
102
RTVSPost2010Prop48
 90
       50
102
RTVSPost2010PropOp48
 70
     1
102
RTVSPost2010Prop49
280
     0
102
RTVSPost2010PropOp49
 70
     1
102
RTVSPost2010Prop50
 90
       50
102
RTVSPost2010PropOp50
 70
     1
102
RTVSPost2010Prop51ColorIndex
 90
      256
102
RTVSPost2010Prop51ColorRGB
 90
-16777216
102
RTVSPost2010PropOp51
 70
     0
102
RTVSPost2010Prop52
140
1.0
102
RTVSPost2010PropOp52
 70
     0
102
RTVSPost2010Prop53
 90
        2
102
RTVSPost2010PropOp53
 70
     1
102
RTVSPost2010Prop54
  1
strokes_ogs.tif
102
RTVSPost2010PropOp54
 70
     1
102
RTVSPost2010Prop55
280
     0
102
RTVSPost2010PropOp55
 70
     1
102
RTVSPost2010Prop56
140
1.0
102
RTVSPost2010PropOp56
 70
     1
102
RTVSPost2010Prop57
140
1.0
102
RTVSPost2010PropOp57
 70
     1
102
RTVSPropertyOp0
 70
     1
102
RTVSPropertyOp1
 70
     1
102
RTVSPropertyOp2
 70
     1
102
RTVSPropertyOp3
 70
     1
102
RTVSPropertyOp4
 70
     1
102
RTVSPropertyOp5
 70
     1
102
RTVSPropertyOp6
 70
     1
102
RTVSPropertyOp7
 70
     1
102
RTVSPropertyOp8
 70
     1
102
RTVSPropertyOp9
 70
     1
102
RTVSPropertyOp10
 70
     1
102
RTVSPropertyOp11
 70
     1
102
RTVSPropertyOp12
 70
     1
102
RTVSPropertyOp13
 70
     1
102
RTVSPropertyOp14
 70
     1
102
RTVSPropertyOp15
 70
     1
102
RTVSPropertyOp16
 70
     1
102
RTVSPropertyOp17
 70
     1
102
RTVSPropertyOp18
 70
     1
102
RTVSPropertyOp19
 70
     1
102
RTVSPropertyOp20
 70
     1
102
RTVSPropertyOp21
 70
     1
102
RTVSPropertyOp22
 70
     1
102
RTVSPropertyOp23
 70
     1
102
RTVSPropertyOp24
 70
     1
102
RTVSPropertyOp25
 70
     1
102
RTVSPropertyOp26
 70
     1
102
RTVSPropertyOp27
 70
     1
102
RTVSPropertyOp28
 70
     1
102
RTVSPropertyOp29
 70
     1
102
RTVSPropertyOp30
 70
     1
102
RTVSPropertyOp31
 70
     1
102
RTVSPropertyOp32
 70
     1
102
RTVSPropertyOp33
 70
     1
102
RTVSPropertyOp34
 70
     1
102
RTVSPropertyOp35
 70
     1
102
RTVSPropertyOp36
 70
     1
102
RTVSPropertyOp37
 70
     1
102
RTVSPropertyOp38
 70
     1
102
RTVSPropertyOp39
 70
     1
102
RTVSPropertyOp40
 70
     1
102
RTVSPropertyOp41
 70
     1
102
RTVSPropertyOp42
 70
     1
102
RTVSPropertyOp43
 70
     1
102
RTVSPropertyOp44
 70
     1
102
RTVSPropertyOp45
 70
     1
102
RTVSPropertyOp46
 70
     1
102
RTVSPropertyOp47
 70
     1
102
RTVSPropertyOp48
 70
     1
102
RTVSPropertyOp49
 70
     1
102
RTVSPropertyOp50
 70
     1
102
RTVSPropertyOp51
 70
     0
102
RTVSPropertyOp52
 70
     0
102
RTVSPropertyOp53
 70
     1
102
RTVSPropertyOp54
 70
     1
102
RTVSPropertyOp55
 70
     1
102
RTVSPropertyOp56
 70
     1
102
RTVSPropertyOp57
 70
     1
102
RTVSPropertyOp58
 70
     1
102
RTVSPropertyOp59
 70
     1
102
RTVSPropertyOp60
 70
     1
102
RTVSPropertyOp61
 70
     1
102
RTVSPropertyOp62
 70
     1
  0
XRECORD
  5
1AC2
102
{ACAD_REACTORS
330
1AC1
102
}
330
1AC1
100
AcDbXrecord
280
     1
102
RTVSPost2010Prop28
280
     0
102
RTVSPost2010PropOp28
 70
     1
102
RTVSPost2010Prop29
280
     1
102
RTVSPost2010PropOp29
 70
     1
102
RTVSPost2010Prop30
280
     1
102
RTVSPost2010PropOp30
 70
     1
102
RTVSPost2010Prop31
280
     0
102
RTVSPost2010PropOp31
 70
     1
102
RTVSPost2010Prop32
280
     0
102
RTVSPost2010PropOp32
 70
     1
102
RTVSPost2010Prop33
280
     0
102
RTVSPost2010PropOp33
 70
     1
102
RTVSPost2010Prop34
280
     0
102
RTVSPost2010PropOp34
 70
     1
102
RTVSPost2010Prop35
280
     0
102
RTVSPost2010PropOp35
 70
     1
102
RTVSPost2010Prop36
280
     0
102
RTVSPost2010PropOp36
 70
     1
102
RTVSPost2010Prop37
 90
       50
102
RTVSPost2010PropOp37
 70
     1
102
RTVSPost2010Prop38
140
0.0
102
RTVSPost2010PropOp38
 70
     1
102
RTVSPost2010Prop39
140
1.0
102
RTVSPost2010PropOp39
 70
     1
102
RTVSPost2010Prop40
 90
        0
102
RTVSPost2010PropOp40
 70
     1
102
RTVSPost2010Prop41ColorIndex
 90
       18
102
RTVSPost2010Prop41ColorRGB
 90
-16777216
102
RTVSPost2010PropOp41
 70
     1
102
RTVSPost2010Prop42
 90
       50
102
RTVSPost2010PropOp42
 70
     1
102
RTVSPost2010Prop43
 90
        3
102
RTVSPost2010PropOp43
 70
     1
102
RTVSPost2010Prop44ColorIndex
 90
        5
102
RTVSPost2010Prop44ColorRGB
 90
      255
102
RTVSPost2010PropOp44
 70
     1
102
RTVSPost2010Prop45
280
     0
102
RTVSPost2010PropOp45
 70
     1
102
RTVSPost2010Prop46
 90
       50
102
RTVSPost2010PropOp46
 70
     1
102
RTVSPost2010Prop47
 90
       50
102
RTVSPost2010PropOp47
 70
     1
102
RTVSPost2010Prop48
 90
       50
102
RTVSPost2010PropOp48
 70
     1
102
RTVSPost2010Prop49
280
     0
102
RTVSPost2010PropOp49
 70
     1
102
RTVSPost2010Prop50
 90
       50
102
RTVSPost2010PropOp50
 70
     1
102
RTVSPost2010Prop51ColorIndex
 90
      256
102
RTVSPost2010Prop51ColorRGB
 90
-16777216
102
RTVSPost2010PropOp51
 70
     0
102
RTVSPost2010Prop52
140
1.0
102
RTVSPost2010PropOp52
 70
     0
102
RTVSPost2010Prop53
 90
        2
102
RTVSPost2010PropOp53
 70
     1
102
RTVSPost2010Prop54
  1
strokes_ogs.tif
102
RTVSPost2010PropOp54
 70
     1
102
RTVSPost2010Prop55
280
     0
102
RTVSPost2010PropOp55
 70
     1
102
RTVSPost2010Prop56
140
1.0
102
RTVSPost2010PropOp56
 70
     1
102
RTVSPost2010Prop57
140
1.0
102
RTVSPost2010PropOp57
 70
     1
102
RTVSPropertyOp0
 70
     1
102
RTVSPropertyOp1
 70
     1
102
RTVSPropertyOp2
 70
     1
102
RTVSPropertyOp3
 70
     1
102
RTVSPropertyOp4
 70
     1
102
RTVSPropertyOp5
 70
     1
102
RTVSPropertyOp6
 70
     1
102
RTVSPropertyOp7
 70
     1
102
RTVSPropertyOp8
 70
     1
102
RTVSPropertyOp9
 70
     1
102
RTVSPropertyOp10
 70
     1
102
RTVSPropertyOp11
 70
     1
102
RTVSPropertyOp12
 70
     1
102
RTVSPropertyOp13
 70
     1
102
RTVSPropertyOp14
 70
     1
102
RTVSPropertyOp15
 70
     1
102
RTVSPropertyOp16
 70
     1
102
RTVSPropertyOp17
 70
     1
102
RTVSPropertyOp18
 70
     1
102
RTVSPropertyOp19
 70
     1
102
RTVSPropertyOp20
 70
     1
102
RTVSPropertyOp21
 70
     1
102
RTVSPropertyOp22
 70
     1
102
RTVSPropertyOp23
 70
     1
102
RTVSPropertyOp24
 70
     1
102
RTVSPropertyOp25
 70
     1
102
RTVSPropertyOp26
 70
     1
102
RTVSPropertyOp27
 70
     1
102
RTVSPropertyOp28
 70
     1
102
RTVSPropertyOp29
 70
     1
102
RTVSPropertyOp30
 70
     1
102
RTVSPropertyOp31
 70
     1
102
RTVSPropertyOp32
 70
     1
102
RTVSPropertyOp33
 70
     1
102
RTVSPropertyOp34
 70
     1
102
RTVSPropertyOp35
 70
     1
102
RTVSPropertyOp36
 70
     1
102
RTVSPropertyOp37
 70
     1
102
RTVSPropertyOp38
 70
     1
102
RTVSPropertyOp39
 70
     1
102
RTVSPropertyOp40
 70
     1
102
RTVSPropertyOp41
 70
     1
102
RTVSPropertyOp42
 70
     1
102
RTVSPropertyOp43
 70
     1
102
RTVSPropertyOp44
 70
     1
102
RTVSPropertyOp45
 70
     1
102
RTVSPropertyOp46
 70
     1
102
RTVSPropertyOp47
 70
     1
102
RTVSPropertyOp48
 70
     1
102
RTVSPropertyOp49
 70
     1
102
RTVSPropertyOp50
 70
     1
102
RTVSPropertyOp51
 70
     0
102
RTVSPropertyOp52
 70
     0
102
RTVSPropertyOp53
 70
     1
102
RTVSPropertyOp54
 70
     1
102
RTVSPropertyOp55
 70
     1
102
RTVSPropertyOp56
 70
     1
102
RTVSPropertyOp57
 70
     1
102
RTVSPropertyOp58
 70
     1
102
RTVSPropertyOp59
 70
     1
102
RTVSPropertyOp60
 70
     1
102
RTVSPropertyOp61
 70
     1
102
RTVSPropertyOp62
 70
     1
  0
ENDSEC
  0
EOF
