  0
SECTION
  2
HEADER
  9
$ACADVER
  1
AC1015
  9
$ACADMAINTVER
 70
    20
  9
$DWGCODEPAGE
  3
ANSI_1252
  9
$INSBASE
 10
0.0
 20
0.0
 30
0.0
  9
$EXTMIN
 10
-0.0000000000000012
 20
-0.0000000000000027
 30
0.0
  9
$EXTMAX
 10
22.661
 20
14.663
 30
0.0
  9
$LIMMIN
 10
0.0
 20
0.0
  9
$LIMMAX
 10
12.0
 20
9.0
  9
$ORTHOMODE
 70
     0
  9
$REGENMODE
 70
     1
  9
$FILLMODE
 70
     1
  9
$QTEXTMODE
 70
     0
  9
$MIRRTEXT
 70
     1
  9
$LTSCALE
 40
1.0
  9
$ATTMODE
 70
     1
  9
$TEXTSIZE
 40
0.078
  9
$TRACEWID
 40
0.05
  9
$TEXTSTYLE
  7
SIMPLEX
  9
$CLAYER
  8
3
  9
$CELTYPE
  6
BYLAYER
  9
$CECOLOR
 62
   256
  9
$CELTSCALE
 40
1.0
  9
$DISPSILH
 70
     0
  9
$DIMSCALE
 40
1.0
  9
$DIMASZ
 40
0.125
  9
$DIMEXO
 40
0.063
  9
$DIMDLI
 40
0.38
  9
$DIMRND
 40
0.0
  9
$DIMDLE
 40
0.0
  9
$DIMEXE
 40
0.063
  9
$DIMTP
 40
0.0
  9
$DIMTM
 40
0.0
  9
$DIMTXT
 40
0.125
  9
$DIMCEN
 40
-0.125
  9
$DIMTSZ
 40
0.0
  9
$DIMTOL
 70
     0
  9
$DIMLIM
 70
     0
  9
$DIMTIH
 70
     1
  9
$DIMTOH
 70
     1
  9
$DIMSE1
 70
     0
  9
$DIMSE2
 70
     0
  9
$DIMTAD
 70
     0
  9
$DIMZIN
 70
     4
  9
$DIMBLK
  1

  9
$DIMASO
 70
     1
  9
$DIMSHO
 70
     0
  9
$DIMPOST
  1

  9
$DIMAPOST
  1

  9
$DIMALT
 70
     0
  9
$DIMALTD
 70
     2
  9
$DIMALTF
 40
25.4
  9
$DIMLFAC
 40
1.0
  9
$DIMTOFL
 70
     0
  9
$DIMTVP
 40
0.0
  9
$DIMTIX
 70
     1
  9
$DIMSOXD
 70
     0
  9
$DIMSAH
 70
     0
  9
$DIMBLK1
  1

  9
$DIMBLK2
  1

  9
$DIMSTYLE
  2
STANDARD
  9
$DIMCLRD
 70
     0
  9
$DIMCLRE
 70
     0
  9
$DIMCLRT
 70
     0
  9
$DIMTFAC
 40
1.0
  9
$DIMGAP
 40
0.09
  9
$DIMJUST
 70
     0
  9
$DIMSD1
 70
     0
  9
$DIMSD2
 70
     0
  9
$DIMTOLJ
 70
     1
  9
$DIMTZIN
 70
     4
  9
$DIMALTZ
 70
     4
  9
$DIMALTTZ
 70
     4
  9
$DIMUPT
 70
     0
  9
$DIMDEC
 70
     3
  9
$DIMTDEC
 70
     3
  9
$DIMALTU
 70
     2
  9
$DIMALTTD
 70
     2
  9
$DIMTXSTY
  7
SIMPLEX
  9
$DIMAUNIT
 70
     0
  9
$DIMADEC
 70
     0
  9
$DIMALTRND
 40
0.0
  9
$DIMAZIN
 70
     0
  9
$DIMDSEP
 70
    46
  9
$DIMATFIT
 70
     3
  9
$DIMFRAC
 70
     0
  9
$DIMLDRBLK
  1

  9
$DIMLUNIT
 70
     2
  9
$DIMLWD
 70
    -2
  9
$DIMLWE
 70
    -2
  9
$DIMTMOVE
 70
     2
  9
$LUNITS
 70
     2
  9
$LUPREC
 70
     3
  9
$SKETCHINC
 40
0.1
  9
$FILLETRAD
 40
0.0
  9
$AUNITS
 70
     0
  9
$AUPREC
 70
     2
  9
$MENU
  1
ACAD
  9
$ELEVATION
 40
0.0
  9
$PELEVATION
 40
0.0
  9
$THICKNESS
 40
0.0
  9
$LIMCHECK
 70
     0
  9
$CHAMFERA
 40
0.0
  9
$CHAMFERB
 40
0.0
  9
$CHAMFERC
 40
0.0
  9
$CHAMFERD
 40
0.0
  9
$SKPOLY
 70
     0
  9
$TDCREATE
 40
2447600.596000695
  9
$TDUCREATE
 40
2447600.762667361
  9
$TDUPDATE
 40
2457155.546695741
  9
$TDUUPDATE
 40
2457155.713362408
  9
$TDINDWG
 40
0.2719184028
  9
$TDUSRTIMER
 40
0.2719183796
  9
$USRTIMER
 70
     1
  9
$ANGBASE
 50
0.0
  9
$ANGDIR
 70
     0
  9
$PDMODE
 70
     0
  9
$PDSIZE
 40
0.0
  9
$PLINEWID
 40
0.0
  9
$SPLFRAME
 70
     0
  9
$SPLINETYPE
 70
     6
  9
$SPLINESEGS
 70
     8
  9
$HANDSEED
  5
DAA
  9
$SURFTAB1
 70
     6
  9
$SURFTAB2
 70
     6
  9
$SURFTYPE
 70
     6
  9
$SURFU
 70
     6
  9
$SURFV
 70
     6
  9
$UCSBASE
  2

  9
$UCSNAME
  2

  9
$UCSORG
 10
0.0
 20
0.0
 30
0.0
  9
$UCSXDIR
 10
1.0
 20
0.0
 30
0.0
  9
$UCSYDIR
 10
0.0
 20
1.0
 30
0.0
  9
$UCSORTHOREF
  2

  9
$UCSORTHOVIEW
 70
     0
  9
$UCSORGTOP
 10
0.0
 20
0.0
 30
0.0
  9
$UCSORGBOTTOM
 10
0.0
 20
0.0
 30
0.0
  9
$UCSORGLEFT
 10
0.0
 20
0.0
 30
0.0
  9
$UCSORGRIGHT
 10
0.0
 20
0.0
 30
0.0
  9
$UCSORGFRONT
 10
0.0
 20
0.0
 30
0.0
  9
$UCSORGBACK
 10
0.0
 20
0.0
 30
0.0
  9
$PUCSBASE
  2

  9
$PUCSNAME
  2

  9
$PUCSORG
 10
0.0
 20
0.0
 30
0.0
  9
$PUCSXDIR
 10
1.0
 20
0.0
 30
0.0
  9
$PUCSYDIR
 10
0.0
 20
1.0
 30
0.0
  9
$PUCSORTHOREF
  2

  9
$PUCSORTHOVIEW
 70
     0
  9
$PUCSORGTOP
 10
0.0
 20
0.0
 30
0.0
  9
$PUCSORGBOTTOM
 10
0.0
 20
0.0
 30
0.0
  9
$PUCSORGLEFT
 10
0.0
 20
0.0
 30
0.0
  9
$PUCSORGRIGHT
 10
0.0
 20
0.0
 30
0.0
  9
$PUCSORGFRONT
 10
0.0
 20
0.0
 30
0.0
  9
$PUCSORGBACK
 10
0.0
 20
0.0
 30
0.0
  9
$USERI1
 70
     0
  9
$USERI2
 70
     0
  9
$USERI3
 70
     0
  9
$USERI4
 70
     0
  9
$USERI5
 70
     0
  9
$USERR1
 40
0.0
  9
$USERR2
 40
0.0
  9
$USERR3
 40
0.0
  9
$USERR4
 40
0.0
  9
$USERR5
 40
0.0
  9
$WORLDVIEW
 70
     1
  9
$SHADEDGE
 70
     3
  9
$SHADEDIF
 70
    70
  9
$TILEMODE
 70
     1
  9
$MAXACTVP
 70
    16
  9
$PINSBASE
 10
0.0
 20
0.0
 30
0.0
  9
$PLIMCHECK
 70
     0
  9
$PEXTMIN
 10
1.000000000000000E+20
 20
1.000000000000000E+20
 30
1.000000000000000E+20
  9
$PEXTMAX
 10
-1.000000000000000E+20
 20
-1.000000000000000E+20
 30
-1.000000000000000E+20
  9
$PLIMMIN
 10
0.0
 20
0.0
  9
$PLIMMAX
 10
12.0
 20
9.0
  9
$UNITMODE
 70
     0
  9
$VISRETAIN
 70
     0
  9
$PLINEGEN
 70
     0
  9
$PSLTSCALE
 70
     0
  9
$TREEDEPTH
 70
  3020
  9
$CMLSTYLE
  2
STANDARD
  9
$CMLJUST
 70
     0
  9
$CMLSCALE
 40
1.0
  9
$PROXYGRAPHICS
 70
     1
  9
$MEASUREMENT
 70
     0
  9
$CELWEIGHT
370
    -1
  9
$ENDCAPS
280
     0
  9
$JOINSTYLE
280
     0
  9
$LWDISPLAY
290
     0
  9
$INSUNITS
 70
     0
  9
$HYPERLINKBASE
  1

  9
$STYLESHEET
  1

  9
$XEDIT
290
     1
  9
$CEPSNTYPE
380
     0
  9
$PSTYLEMODE
290
     1
  9
$FINGERPRINTGUID
  2
{C4A29FB3-5626-4ED1-B786-BB48358ADEC4}
  9
$VERSIONGUID
  2
{D1D8C30D-E377-4722-B818-FF0AE18DB6F2}
  9
$EXTNAMES
290
     1
  9
$PSVPSCALE
 40
0.0
  9
$OLESTARTUP
290
     0
  0
ENDSEC
  0
SECTION
  2
CLASSES
  0
CLASS
  1
DICTIONARYVAR
  2
AcDbDictionaryVar
  3
ObjectDBX Classes
 90
        0
280
     0
281
     0
  0
CLASS
  1
ACDBDICTIONARYWDFLT
  2
AcDbDictionaryWithDefault
  3
ObjectDBX Classes
 90
        0
280
     0
281
     0
  0
CLASS
  1
MATERIAL
  2
AcDbMaterial
  3
ObjectDBX Classes
 90
     1153
280
     0
281
     0
  0
CLASS
  1
VISUALSTYLE
  2
AcDbVisualStyle
  3
ObjectDBX Classes
 90
     4095
280
     0
281
     0
  0
CLASS
  1
TABLESTYLE
  2
AcDbTableStyle
  3
ObjectDBX Classes
 90
     4095
280
     0
281
     0
  0
CLASS
  1
SCALE
  2
AcDbScale
  3
ObjectDBX Classes
 90
     1153
280
     0
281
     0
  0
CLASS
  1
MLEADERSTYLE
  2
AcDbMLeaderStyle
  3
ACDB_MLEADERSTYLE_CLASS
 90
     4095
280
     0
281
     0
  0
CLASS
  1
ACDBSECTIONVIEWSTYLE
  2
AcDbSectionViewStyle
  3
ObjectDBX Classes
 90
     1025
280
     0
281
     0
  0
CLASS
  1
ACDBDETAILVIEWSTYLE
  2
AcDbDetailViewStyle
  3
ObjectDBX Classes
 90
     1025
280
     0
281
     0
  0
CLASS
  1
CELLSTYLEMAP
  2
AcDbCellStyleMap
  3
ObjectDBX Classes
 90
     1152
280
     0
281
     0
  0
CLASS
  1
ACDBPLACEHOLDER
  2
AcDbPlaceHolder
  3
ObjectDBX Classes
 90
        0
280
     0
281
     0
  0
CLASS
  1
LAYOUT
  2
AcDbLayout
  3
ObjectDBX Classes
 90
        0
280
     0
281
     0
  0
ENDSEC
  0
SECTION
  2
TABLES
  0
TABLE
  2
VPORT
  5
8
330
0
100
AcDbSymbolTable
 70
     1
  0
VPORT
  5
C3B
330
8
100
AcDbSymbolTableRecord
100
AcDbViewportTableRecord
  2
*ACTIVE
 70
     0
 10
0.0
 20
0.0
 11
1.0
 21
1.0
 12
11.33050005276174
 22
7.872110795743087
 13
0.0
 23
0.0
 14
1.0
 24
1.0
 15
0.0
 25
0.0
 16
0.0
 26
0.0
 36
1.0
 17
0.0
 27
0.0
 37
0.0
 40
15.30847773517683
 41
2.080545229244113
 42
50.0
 43
0.0
 44
0.0
 50
0.0
 51
0.0
 71
     0
 72
   250
 73
     1
 74
     0
 75
     0
 76
     0
 77
     0
 78
     0
281
     0
 65
     1
110
0.0
120
0.0
130
0.0
111
1.0
121
0.0
131
0.0
112
0.0
122
1.0
132
0.0
 79
     0
146
0.0
1001
ACAD_NAV_VCDISPLAY
1070
     3
  0
ENDTAB
  0
TABLE
  2
LTYPE
  5
5
330
0
100
AcDbSymbolTable
 70
     2
  0
LTYPE
  5
11
330
5
100
AcDbSymbolTableRecord
100
AcDbLinetypeTableRecord
  2
BYBLOCK
 70
     0
  3

 72
    65
 73
     0
 40
0.0
  0
LTYPE
  5
12
330
5
100
AcDbSymbolTableRecord
100
AcDbLinetypeTableRecord
  2
BYLAYER
 70
     0
  3

 72
    65
 73
     0
 40
0.0
  0
LTYPE
  5
13
330
5
100
AcDbSymbolTableRecord
100
AcDbLinetypeTableRecord
  2
CONTINUOUS
 70
     0
  3
Solid line
 72
    65
 73
     0
 40
0.0
  0
LTYPE
  5
2E
330
5
100
AcDbSymbolTableRecord
100
AcDbLinetypeTableRecord
  2
PHANTOM
 70
     0
  3
______  __  __  ______  __  __  ______  __  __ 
 72
    65
 73
     6
 40
2.5
 49
1.25
 74
     0
 49
-0.25
 74
     0
 49
0.25
 74
     0
 49
-0.25
 74
     0
 49
0.25
 74
     0
 49
-0.25
 74
     0
  0
ENDTAB
  0
TABLE
  2
LAYER
  5
2
102
{ACAD_XDICTIONARY
360
CA0
102
}
330
0
100
AcDbSymbolTable
 70
     5
  0
LAYER
  5
E
102
{ACAD_XDICTIONARY
360
C95
102
}
330
2
100
AcDbSymbolTableRecord
100
AcDbLayerTableRecord
  2
0
 70
     0
 62
     7
  6
CONTINUOUS
370
    -3
390
C3E
  0
LAYER
  5
31
102
{ACAD_XDICTIONARY
360
C97
102
}
330
2
100
AcDbSymbolTableRecord
100
AcDbLayerTableRecord
  2
2
 70
     0
 62
     2
  6
CONTINUOUS
370
    -3
390
C3E
  0
LAYER
  5
32
102
{ACAD_XDICTIONARY
360
C99
102
}
330
2
100
AcDbSymbolTableRecord
100
AcDbLayerTableRecord
  2
3
 70
     0
 62
     3
  6
CONTINUOUS
370
    -3
390
C3E
  0
LAYER
  5
33
102
{ACAD_XDICTIONARY
360
C9B
102
}
330
2
100
AcDbSymbolTableRecord
100
AcDbLayerTableRecord
  2
4
 70
     0
 62
     4
  6
CONTINUOUS
370
    -3
390
C3E
  0
LAYER
  5
34
330
2
100
AcDbSymbolTableRecord
100
AcDbLayerTableRecord
  2
DEFPOINTS
 70
     0
 62
    -7
  6
CONTINUOUS
290
     0
370
    -3
390
C3E
  0
ENDTAB
  0
TABLE
  2
STYLE
  5
3
330
0
100
AcDbSymbolTable
 70
     5
  0
STYLE
  5
F
330
3
100
AcDbSymbolTableRecord
100
AcDbTextStyleTableRecord
  2
STANDARD
 70
     0
 40
0.0
 41
1.0
 50
0.0
 71
     0
 42
0.2
  3
txt
  4

  0
STYLE
  5
27
330
3
100
AcDbSymbolTableRecord
100
AcDbTextStyleTableRecord
  2
SIMPLEX
 70
     0
 40
0.0
 41
1.0
 50
0.0
 71
     0
 42
0.078
  3
SIMPLEX.shx
  4

  0
STYLE
  5
28
330
3
100
AcDbSymbolTableRecord
100
AcDbTextStyleTableRecord
  2
MED
 70
     0
 40
0.125
 41
1.0
 50
0.0
 71
     0
 42
0.078
  3
ROMANS
  4

  0
STYLE
  5
29
330
3
100
AcDbSymbolTableRecord
100
AcDbTextStyleTableRecord
  2
T
 70
     0
 40
0.0
 41
1.0
 50
0.0
 71
     0
 42
1.0
  3
ROMI____.PFB
  4

  0
STYLE
  5
2B
330
3
100
AcDbSymbolTableRecord
100
AcDbTextStyleTableRecord
  2
ROMANS
 70
     0
 40
0.25
 41
1.0
 50
0.0
 71
     0
 42
0.25
  3
Romans
  4

  0
ENDTAB
  0
TABLE
  2
VIEW
  5
6
330
0
100
AcDbSymbolTable
 70
     0
  0
ENDTAB
  0
TABLE
  2
UCS
  5
7
330
0
100
AcDbSymbolTable
 70
     0
  0
ENDTAB
  0
TABLE
  2
APPID
  5
9
330
0
100
AcDbSymbolTable
 70
     5
  0
APPID
  5
10
330
9
100
AcDbSymbolTableRecord
100
AcDbRegAppTableRecord
  2
ACAD
 70
     0
  0
APPID
  5
CA6
330
9
100
AcDbSymbolTableRecord
100
AcDbRegAppTableRecord
  2
ACAD_NAV_VCDISPLAY
 70
     0
  0
APPID
  5
D0D
330
9
100
AcDbSymbolTableRecord
100
AcDbRegAppTableRecord
  2
ACAD_EXEMPT_FROM_CAD_STANDARDS
 70
     0
  0
APPID
  5
D3E
330
9
100
AcDbSymbolTableRecord
100
AcDbRegAppTableRecord
  2
ACAD_DSTYLE_DIMRADIAL_EXTENSION
 70
     0
  0
APPID
  5
D9F
330
9
100
AcDbSymbolTableRecord
100
AcDbRegAppTableRecord
  2
ACAD_MLEADERVER
 70
     0
  0
ENDTAB
  0
TABLE
  2
DIMSTYLE
  5
A
330
0
100
AcDbSymbolTable
 70
     1
100
AcDbDimStyleTable
 71
     1
340
C39
  0
DIMSTYLE
105
C39
102
{ACAD_REACTORS
330
D14
330
D22
330
D30
330
D3F
102
}
330
A
100
AcDbSymbolTableRecord
100
AcDbDimStyleTableRecord
  2
STANDARD
 70
     0
340
F
  0
ENDTAB
  0
TABLE
  2
BLOCK_RECORD
  5
1
330
0
100
AcDbSymbolTable
 70
    10
  0
BLOCK_RECORD
  5
17
330
1
100
AcDbSymbolTableRecord
100
AcDbBlockTableRecord
  2
*MODEL_SPACE
340
C8E
  0
BLOCK_RECORD
  5
14
330
1
100
AcDbSymbolTableRecord
100
AcDbBlockTableRecord
  2
*PAPER_SPACE
340
C8F
  0
BLOCK_RECORD
  5
21
330
1
100
AcDbSymbolTableRecord
100
AcDbBlockTableRecord
  2
*D0
340
0
  0
BLOCK_RECORD
  5
22
330
1
100
AcDbSymbolTableRecord
100
AcDbBlockTableRecord
  2
*D1
340
0
  0
BLOCK_RECORD
  5
23
330
1
100
AcDbSymbolTableRecord
100
AcDbBlockTableRecord
  2
*D2
340
0
  0
BLOCK_RECORD
  5
24
330
1
100
AcDbSymbolTableRecord
100
AcDbBlockTableRecord
  2
*D3
340
0
  0
BLOCK_RECORD
  5
25
330
1
100
AcDbSymbolTableRecord
100
AcDbBlockTableRecord
  2
*D4
340
0
  0
BLOCK_RECORD
  5
26
330
1
100
AcDbSymbolTableRecord
100
AcDbBlockTableRecord
  2
*X5
340
0
102
{BLKREFS
331
C2E
102
}
  0
BLOCK_RECORD
  5
D15
330
1
100
AcDbSymbolTableRecord
100
AcDbBlockTableRecord
  2
*D6
340
0
  0
BLOCK_RECORD
  5
D23
330
1
100
AcDbSymbolTableRecord
100
AcDbBlockTableRecord
  2
*D7
340
0
  0
BLOCK_RECORD
  5
D31
330
1
100
AcDbSymbolTableRecord
100
AcDbBlockTableRecord
  2
*D8
340
0
  0
BLOCK_RECORD
  5
D40
330
1
100
AcDbSymbolTableRecord
100
AcDbBlockTableRecord
  2
*D9
340
0
  0
ENDTAB
  0
ENDSEC
  0
SECTION
  2
BLOCKS
  0
BLOCK
  5
37
330
17
100
AcDbEntity
  8
0
100
AcDbBlockBegin
  2
*MODEL_SPACE
 70
     0
 10
0.0
 20
0.0
 30
0.0
  3
*MODEL_SPACE
  1

  0
ENDBLK
  5
38
330
17
100
AcDbEntity
  8
0
100
AcDbBlockEnd
  0
BLOCK
  5
35
330
14
100
AcDbEntity
 67
     1
  8
0
100
AcDbBlockBegin
  2
*PAPER_SPACE
 70
     0
 10
0.0
 20
0.0
 30
0.0
  3
*PAPER_SPACE
  1

  0
ENDBLK
  5
36
330
14
100
AcDbEntity
 67
     1
  8
0
100
AcDbBlockEnd
  0
BLOCK
  5
3B
330
21
100
AcDbEntity
  8
0
100
AcDbBlockBegin
  2
*D0
 70
     1
 10
0.0
 20
0.0
 30
0.0
  3
*D0
  1

  0
LINE
  5
3C
330
21
100
AcDbEntity
  8
0
  6
ByBlock
 62
     0
100
AcDbLine
 10
5.527521159797463
 20
10.27941218687855
 30
0.0
 11
4.595952092406887
 21
10.27941218687855
 31
0.0
  0
LINE
  5
3D
330
21
100
AcDbEntity
  8
0
  6
ByBlock
 62
     0
100
AcDbLine
 10
4.895627318781675
 20
8.52955231945021
 30
0.0
 11
4.595952092406887
 21
8.52955231945021
 31
0.0
  0
LINE
  5
3E
330
21
100
AcDbEntity
  8
0
  6
ByBlock
 62
     0
100
AcDbLine
 10
4.658952092406886
 20
10.15441218687855
 30
0.0
 11
4.658952092406886
 21
9.556982253164381
 31
0.0
  0
LINE
  5
3F
330
21
100
AcDbEntity
  8
0
  6
ByBlock
 62
     0
100
AcDbLine
 10
4.658952092406886
 20
8.65455231945021
 30
0.0
 11
4.658952092406886
 21
9.25198225316438
 31
0.0
  0
SOLID
  5
40
330
21
100
AcDbEntity
  8
0
  6
ByBlock
 62
     0
100
AcDbTrace
 10
4.638118759073551
 20
10.15441218687855
 30
0.0
 11
4.679785425740217
 21
10.15441218687855
 31
0.0
 12
4.658952092406886
 22
10.27941218687855
 32
0.0
 13
4.658952092406886
 23
10.27941218687855
 33
0.0
  0
SOLID
  5
41
330
21
100
AcDbEntity
  8
0
  6
ByBlock
 62
     0
100
AcDbTrace
 10
4.638118759073551
 20
8.65455231945021
 30
0.0
 11
4.679785425740217
 21
8.65455231945021
 31
0.0
 12
4.658952092406886
 22
8.52955231945021
 32
0.0
 13
4.658952092406886
 23
8.52955231945021
 33
0.0
  0
TEXT
  5
42
330
21
100
AcDbEntity
  8
0
  6
ByBlock
 62
     0
100
AcDbText
 10
4.62026161621641
 20
9.341982253164379
 30
0.0
 40
0.125
  1
E
  7
SIMPLEX
 72
     1
 11
4.658952092406886
 21
9.404482253164379
 31
0.0
100
AcDbText
 73
     2
  0
POINT
  5
44
330
21
100
AcDbEntity
  8
DEFPOINTS
  6
ByBlock
 62
     0
100
AcDbPoint
 10
5.590521159797463
 20
10.27941218687855
 30
0.0
  0
POINT
  5
45
330
21
100
AcDbEntity
  8
DEFPOINTS
  6
ByBlock
 62
     0
100
AcDbPoint
 10
4.958627318781674
 20
8.52955231945021
 30
0.0
  0
POINT
  5
46
330
21
100
AcDbEntity
  8
DEFPOINTS
  6
ByBlock
 62
     0
100
AcDbPoint
 10
4.658952092406886
 20
8.52955231945021
 30
0.0
  0
ENDBLK
  5
47
330
21
100
AcDbEntity
  8
0
100
AcDbBlockEnd
  0
BLOCK
  5
48
330
22
100
AcDbEntity
  8
0
100
AcDbBlockBegin
  2
*D1
 70
     1
 10
0.0
 20
0.0
 30
0.0
  3
*D1
  1

  0
LINE
  5
49
330
22
100
AcDbEntity
  8
0
  6
ByBlock
 62
     0
100
AcDbLine
 10
5.590521159797463
 20
10.34241218687855
 30
0.0
 11
5.590521159797463
 21
11.14172625097172
 31
0.0
  0
LINE
  5
4A
330
22
100
AcDbEntity
  8
0
  6
ByBlock
 62
     0
100
AcDbLine
 10
9.430491424431872
 20
10.34241218687855
 30
0.0
 11
9.430491424431872
 21
11.14172625097172
 31
0.0
  0
LINE
  5
4B
330
22
100
AcDbEntity
  8
0
  6
ByBlock
 62
     0
100
AcDbLine
 10
5.715521159797463
 20
11.07872625097172
 30
0.0
 11
7.37288724449562
 21
11.07872625097172
 31
0.0
  0
LINE
  5
4C
330
22
100
AcDbEntity
  8
0
  6
ByBlock
 62
     0
100
AcDbLine
 10
9.305491424431872
 20
11.07872625097172
 30
0.0
 11
7.648125339733716
 21
11.07872625097172
 31
0.0
  0
SOLID
  5
4D
330
22
100
AcDbEntity
  8
0
  6
ByBlock
 62
     0
100
AcDbTrace
 10
5.715521159797463
 20
11.09955958430505
 30
0.0
 11
5.715521159797463
 21
11.05789291763838
 31
0.0
 12
5.590521159797463
 22
11.07872625097172
 32
0.0
 13
5.590521159797463
 23
11.07872625097172
 33
0.0
  0
SOLID
  5
4E
330
22
100
AcDbEntity
  8
0
  6
ByBlock
 62
     0
100
AcDbTrace
 10
9.305491424431872
 20
11.09955958430505
 30
0.0
 11
9.305491424431872
 21
11.05789291763838
 31
0.0
 12
9.430491424431872
 22
11.07872625097172
 32
0.0
 13
9.430491424431872
 23
11.07872625097172
 33
0.0
  0
TEXT
  5
4F
330
22
100
AcDbEntity
  8
0
  6
ByBlock
 62
     0
100
AcDbText
 10
7.46288724449562
 20
11.01622625097172
 30
0.0
 40
0.125
  1
A
  7
SIMPLEX
 72
     1
 11
7.510506292114667
 21
11.07872625097172
 31
0.0
100
AcDbText
 73
     2
  0
POINT
  5
50
330
22
100
AcDbEntity
  8
DEFPOINTS
  6
ByBlock
 62
     0
100
AcDbPoint
 10
5.590521159797463
 20
10.27941218687855
 30
0.0
  0
POINT
  5
51
330
22
100
AcDbEntity
  8
DEFPOINTS
  6
ByBlock
 62
     0
100
AcDbPoint
 10
9.430491424431872
 20
10.27941218687855
 30
0.0
  0
POINT
  5
52
330
22
100
AcDbEntity
  8
DEFPOINTS
  6
ByBlock
 62
     0
100
AcDbPoint
 10
9.430491424431872
 20
11.07872625097172
 30
0.0
  0
ENDBLK
  5
53
330
22
100
AcDbEntity
  8
0
100
AcDbBlockEnd
  0
BLOCK
  5
54
330
23
100
AcDbEntity
  8
0
100
AcDbBlockBegin
  2
*D2
 70
     1
 10
0.0
 20
0.0
 30
0.0
  3
*D2
  1

  0
LINE
  5
55
330
23
100
AcDbEntity
  8
0
  6
ByBlock
 62
     0
100
AcDbLine
 10
5.663431987606982
 20
10.34241218687855
 30
0.0
 11
5.663431987606982
 21
10.65467865084567
 31
0.0
  0
LINE
  5
56
330
23
100
AcDbEntity
  8
0
  6
ByBlock
 62
     0
100
AcDbLine
 10
9.357580596622359
 20
10.34241218687855
 30
0.0
 11
9.357580596622359
 21
10.65467865084567
 31
0.0
  0
LINE
  5
57
330
23
100
AcDbEntity
  8
0
  6
ByBlock
 62
     0
100
AcDbLine
 10
5.788431987606982
 20
10.59167865084567
 30
0.0
 11
7.378839625448002
 21
10.59167865084567
 31
0.0
  0
LINE
  5
58
330
23
100
AcDbEntity
  8
0
  6
ByBlock
 62
     0
100
AcDbLine
 10
9.232580596622359
 20
10.59167865084567
 30
0.0
 11
7.642172958781337
 21
10.59167865084567
 31
0.0
  0
SOLID
  5
59
330
23
100
AcDbEntity
  8
0
  6
ByBlock
 62
     0
100
AcDbTrace
 10
5.788431987606982
 20
10.612511984179
 30
0.0
 11
5.788431987606982
 21
10.57084531751234
 31
0.0
 12
5.663431987606982
 22
10.59167865084567
 32
0.0
 13
5.663431987606982
 23
10.59167865084567
 33
0.0
  0
SOLID
  5
5A
330
23
100
AcDbEntity
  8
0
  6
ByBlock
 62
     0
100
AcDbTrace
 10
9.232580596622359
 20
10.612511984179
 30
0.0
 11
9.232580596622359
 21
10.57084531751234
 31
0.0
 12
9.357580596622359
 22
10.59167865084567
 32
0.0
 13
9.357580596622359
 23
10.59167865084567
 33
0.0
  0
TEXT
  5
5B
330
23
100
AcDbEntity
  8
0
  6
ByBlock
 62
     0
100
AcDbText
 10
7.468839625448003
 20
10.52917865084567
 30
0.0
 40
0.125
  1
B
  7
SIMPLEX
 72
     1
 11
7.51050629211467
 21
10.59167865084567
 31
0.0
100
AcDbText
 73
     2
  0
POINT
  5
5C
330
23
100
AcDbEntity
  8
DEFPOINTS
  6
ByBlock
 62
     0
100
AcDbPoint
 10
5.663431987606982
 20
10.27941218687855
 30
0.0
  0
POINT
  5
5D
330
23
100
AcDbEntity
  8
DEFPOINTS
  6
ByBlock
 62
     0
100
AcDbPoint
 10
9.357580596622359
 20
10.27941218687855
 30
0.0
  0
POINT
  5
5E
330
23
100
AcDbEntity
  8
DEFPOINTS
  6
ByBlock
 62
     0
100
AcDbPoint
 10
9.357580596622359
 20
10.59167865084567
 30
0.0
  0
ENDBLK
  5
5F
330
23
100
AcDbEntity
  8
0
100
AcDbBlockEnd
  0
BLOCK
  5
60
330
24
100
AcDbEntity
  8
0
100
AcDbBlockBegin
  2
*D3
 70
     1
 10
0.0
 20
0.0
 30
0.0
  3
*D3
  1

  0
LINE
  5
61
330
24
100
AcDbEntity
  8
0
  6
ByBlock
 62
     0
100
AcDbLine
 10
4.910020100241998
 20
8.345034273101022
 30
0.0
 11
4.910020100241998
 21
7.597863478703848
 31
0.0
  0
LINE
  5
62
330
24
100
AcDbEntity
  8
0
  6
ByBlock
 62
     0
100
AcDbLine
 10
10.11099248398734
 20
8.345034273101022
 30
0.0
 11
10.11099248398734
 21
7.597863478703848
 31
0.0
  0
LINE
  5
63
330
24
100
AcDbEntity
  8
0
  6
ByBlock
 62
     0
100
AcDbLine
 10
5.035020100241998
 20
7.660863478703848
 30
0.0
 11
7.378839625448002
 21
7.660863478703848
 31
0.0
  0
LINE
  5
64
330
24
100
AcDbEntity
  8
0
  6
ByBlock
 62
     0
100
AcDbLine
 10
9.98599248398734
 20
7.660863478703848
 30
0.0
 11
7.642172958781337
 21
7.660863478703848
 31
0.0
  0
SOLID
  5
65
330
24
100
AcDbEntity
  8
0
  6
ByBlock
 62
     0
100
AcDbTrace
 10
5.035020100241998
 20
7.681696812037182
 30
0.0
 11
5.035020100241998
 21
7.640030145370513
 31
0.0
 12
4.910020100241998
 22
7.660863478703848
 32
0.0
 13
4.910020100241998
 23
7.660863478703848
 33
0.0
  0
SOLID
  5
66
330
24
100
AcDbEntity
  8
0
  6
ByBlock
 62
     0
100
AcDbTrace
 10
9.98599248398734
 20
7.681696812037182
 30
0.0
 11
9.98599248398734
 21
7.640030145370513
 31
0.0
 12
10.11099248398734
 22
7.660863478703848
 32
0.0
 13
10.11099248398734
 23
7.660863478703848
 33
0.0
  0
TEXT
  5
67
330
24
100
AcDbEntity
  8
0
  6
ByBlock
 62
     0
100
AcDbText
 10
7.468839625448003
 20
7.598363478703848
 30
0.0
 40
0.125
  1
D
  7
SIMPLEX
 72
     1
 11
7.51050629211467
 21
7.660863478703848
 31
0.0
100
AcDbText
 73
     2
  0
POINT
  5
68
330
24
100
AcDbEntity
  8
DEFPOINTS
  6
ByBlock
 62
     0
100
AcDbPoint
 10
4.910020100241998
 20
8.408034273101021
 30
0.0
  0
POINT
  5
69
330
24
100
AcDbEntity
  8
DEFPOINTS
  6
ByBlock
 62
     0
100
AcDbPoint
 10
10.11099248398734
 20
8.408034273101021
 30
0.0
  0
POINT
  5
6A
330
24
100
AcDbEntity
  8
DEFPOINTS
  6
ByBlock
 62
     0
100
AcDbPoint
 10
10.11099248398734
 20
7.660863478703848
 30
0.0
  0
ENDBLK
  5
6B
330
24
100
AcDbEntity
  8
0
100
AcDbBlockEnd
  0
BLOCK
  5
6C
330
25
100
AcDbEntity
  8
0
100
AcDbBlockBegin
  2
*D4
 70
     1
 10
0.0
 20
0.0
 30
0.0
  3
*D4
  1

  0
LINE
  5
6D
330
25
100
AcDbEntity
  8
0
  6
ByBlock
 62
     0
100
AcDbLine
 10
5.639128378337138
 20
8.345034273101022
 30
0.0
 11
5.639128378337138
 21
7.97491136699891
 31
0.0
  0
LINE
  5
6E
330
25
100
AcDbEntity
  8
0
  6
ByBlock
 62
     0
100
AcDbLine
 10
9.381884205892195
 20
8.345034273101022
 30
0.0
 11
9.381884205892195
 21
7.97491136699891
 31
0.0
  0
LINE
  5
6F
330
25
100
AcDbEntity
  8
0
  6
ByBlock
 62
     0
100
AcDbLine
 10
5.764128378337138
 20
8.037911366998912
 30
0.0
 11
7.375863434971813
 21
8.037911366998912
 31
0.0
  0
LINE
  5
70
330
25
100
AcDbEntity
  8
0
  6
ByBlock
 62
     0
100
AcDbLine
 10
9.256884205892195
 20
8.037911366998912
 30
0.0
 11
7.645149149257527
 21
8.037911366998912
 31
0.0
  0
SOLID
  5
71
330
25
100
AcDbEntity
  8
0
  6
ByBlock
 62
     0
100
AcDbTrace
 10
5.764128378337138
 20
8.058744700332246
 30
0.0
 11
5.764128378337138
 21
8.017078033665576
 31
0.0
 12
5.639128378337138
 22
8.037911366998912
 32
0.0
 13
5.639128378337138
 23
8.037911366998912
 33
0.0
  0
SOLID
  5
72
330
25
100
AcDbEntity
  8
0
  6
ByBlock
 62
     0
100
AcDbTrace
 10
9.256884205892195
 20
8.058744700332246
 30
0.0
 11
9.256884205892195
 21
8.017078033665576
 31
0.0
 12
9.381884205892195
 22
8.037911366998912
 32
0.0
 13
9.381884205892195
 23
8.037911366998912
 33
0.0
  0
TEXT
  5
73
330
25
100
AcDbEntity
  8
0
  6
ByBlock
 62
     0
100
AcDbText
 10
7.465863434971811
 20
7.975411366998912
 30
0.0
 40
0.125
  1
C
  7
SIMPLEX
 72
     1
 11
7.510506292114667
 21
8.037911366998912
 31
0.0
100
AcDbText
 73
     2
  0
POINT
  5
74
330
25
100
AcDbEntity
  8
DEFPOINTS
  6
ByBlock
 62
     0
100
AcDbPoint
 10
5.639128378337138
 20
8.408034273101021
 30
0.0
  0
POINT
  5
75
330
25
100
AcDbEntity
  8
DEFPOINTS
  6
ByBlock
 62
     0
100
AcDbPoint
 10
9.381884205892195
 20
8.408034273101021
 30
0.0
  0
POINT
  5
76
330
25
100
AcDbEntity
  8
DEFPOINTS
  6
ByBlock
 62
     0
100
AcDbPoint
 10
9.381884205892195
 20
8.037911366998912
 30
0.0
  0
ENDBLK
  5
77
330
25
100
AcDbEntity
  8
0
100
AcDbBlockEnd
  0
BLOCK
  5
78
330
26
100
AcDbEntity
  8
0
100
AcDbBlockBegin
  2
*X5
 70
     1
 10
0.0
 20
0.0
 30
0.0
  3
*X5
  1

  0
LINE
  5
79
330
26
100
AcDbEntity
  8
0
 62
     0
100
AcDbLine
 10
5.579607148354835
 20
8.408034273101025
 30
0.0
 11
5.639911552415854
 21
8.468338677162044
 31
0.0
  0
LINE
  5
7A
330
26
100
AcDbEntity
  8
0
 62
     0
100
AcDbLine
 10
5.402830453058198
 20
8.408034273101025
 30
0.0
 11
5.642237561564495
 21
8.64744138160732
 31
0.0
  0
LINE
  5
7B
330
26
100
AcDbEntity
  8
0
 62
     0
100
AcDbLine
 10
5.226053757761561
 20
8.408034273101025
 30
0.0
 11
5.347571804110749
 21
8.529552319450214
 31
0.0
  0
LINE
  5
7C
330
26
100
AcDbEntity
  8
0
 62
     0
100
AcDbLine
 10
5.501879364989129
 20
8.683859880328594
 30
0.0
 11
5.644563570713135
 21
8.826544086052598
 31
0.0
  0
LINE
  5
7D
330
26
100
AcDbEntity
  8
0
 62
     0
100
AcDbLine
 10
5.049277062464923
 20
8.408034273101025
 30
0.0
 11
5.170795108814113
 21
8.529552319450214
 31
0.0
  0
LINE
  5
7E
330
26
100
AcDbEntity
  8
0
 62
     0
100
AcDbLine
 10
5.512277994124229
 20
8.871035204760328
 30
0.0
 11
5.646889579861775
 21
9.005646790497875
 31
0.0
  0
LINE
  5
7F
330
26
100
AcDbEntity
  8
0
 62
     0
100
AcDbLine
 10
4.910020100241998
 20
8.445554006174736
 30
0.0
 11
4.994018413517474
 21
8.529552319450214
 31
0.0
  0
LINE
  5
80
330
26
100
AcDbEntity
  8
0
 62
     0
100
AcDbLine
 10
5.522676623259323
 20
9.058210529192059
 30
0.0
 11
5.649215589010415
 21
9.184749494943153
 31
0.0
  0
LINE
  5
81
330
26
100
AcDbEntity
  8
0
 62
     0
100
AcDbLine
 10
5.533075252394421
 20
9.245385853623796
 30
0.0
 11
5.651541598159053
 21
9.363852199388427
 31
0.0
  0
LINE
  5
82
330
26
100
AcDbEntity
  8
0
 62
     0
100
AcDbLine
 10
5.543473881529518
 20
9.432561178055527
 30
0.0
 11
5.653867607307692
 21
9.542954903833708
 31
0.0
  0
LINE
  5
83
330
26
100
AcDbEntity
  8
0
 62
     0
100
AcDbLine
 10
5.553872510664612
 20
9.619736502487262
 30
0.0
 11
5.656193616456333
 21
9.722057608278984
 31
0.0
  0
LINE
  5
84
330
26
100
AcDbEntity
  8
0
 62
     0
100
AcDbLine
 10
5.56427113979971
 20
9.806911826918994
 30
0.0
 11
5.658519625604974
 21
9.901160312724259
 31
0.0
  0
LINE
  5
85
330
26
100
AcDbEntity
  8
0
 62
     0
100
AcDbLine
 10
5.574669768934806
 20
9.994087151350727
 30
0.0
 11
5.660845634753616
 21
10.08026301716953
 31
0.0
  0
LINE
  5
86
330
26
100
AcDbEntity
  8
0
 62
     0
100
AcDbLine
 10
5.585068398069903
 20
10.18126247578246
 30
0.0
 11
5.663171643902255
 21
10.25936572161481
 31
0.0
  0
LINE
  5
87
330
26
100
AcDbEntity
  8
0
 62
     0
100
AcDbLine
 10
9.358067110901499
 20
10.24195058738468
 30
0.0
 11
9.395528710395367
 21
10.27941218687855
 31
0.0
  0
LINE
  5
88
330
26
100
AcDbEntity
  8
0
 62
     0
100
AcDbLine
 10
9.360333478789918
 20
10.06744025997647
 30
0.0
 11
9.437955318182407
 21
10.14506209936895
 31
0.0
  0
LINE
  5
89
330
26
100
AcDbEntity
  8
0
 62
     0
100
AcDbLine
 10
9.362599846678335
 20
9.892929932568248
 30
0.0
 11
9.447259354776962
 21
9.97758944066688
 31
0.0
  0
LINE
  5
8A
330
26
100
AcDbEntity
  8
0
 62
     0
100
AcDbLine
 10
9.364866214566754
 20
9.718419605160027
 30
0.0
 11
9.456563391371528
 21
9.810116781964801
 31
0.0
  0
LINE
  5
8B
330
26
100
AcDbEntity
  8
0
 62
     0
100
AcDbLine
 10
9.367132582455171
 20
9.54390927775181
 30
0.0
 11
9.465867427966085
 21
9.642644123262725
 31
0.0
  0
LINE
  5
8C
330
26
100
AcDbEntity
  8
0
 62
     0
100
AcDbLine
 10
9.369398950343592
 20
9.369398950343592
 30
0.0
 11
9.475171464560649
 21
9.475171464560649
 31
0.0
  0
LINE
  5
8D
330
26
100
AcDbEntity
  8
0
 62
     0
100
AcDbLine
 10
9.371665318232011
 20
9.194888622935376
 30
0.0
 11
9.484475501155204
 21
9.307698805858567
 31
0.0
  0
LINE
  5
8E
330
26
100
AcDbEntity
  8
0
 62
     0
100
AcDbLine
 10
9.37393168612043
 20
9.020378295527157
 30
0.0
 11
9.493779537749766
 21
9.140226147156491
 31
0.0
  0
LINE
  5
8F
330
26
100
AcDbEntity
  8
0
 62
     0
100
AcDbLine
 10
9.376198054008847
 20
8.845867968118936
 30
0.0
 11
9.503083574344323
 21
8.972753488454412
 31
0.0
  0
LINE
  5
90
330
26
100
AcDbEntity
  8
0
 62
     0
100
AcDbLine
 10
9.378464421897266
 20
8.671357640710716
 30
0.0
 11
9.512387610938882
 21
8.805280829752337
 31
0.0
  0
LINE
  5
91
330
26
100
AcDbEntity
  8
0
 62
     0
100
AcDbLine
 10
9.380730789785683
 20
8.496847313302501
 30
0.0
 11
9.521691647533442
 21
8.637808171050258
 31
0.0
  0
LINE
  5
92
330
26
100
AcDbEntity
  8
0
 62
     0
100
AcDbLine
 10
9.468694444880842
 20
8.408034273101021
 30
0.0
 11
9.593735517967607
 21
8.533075346187786
 31
0.0
  0
LINE
  5
93
330
26
100
AcDbEntity
  8
0
 62
     0
100
AcDbLine
 10
9.645471140177482
 20
8.408034273101021
 30
0.0
 11
9.766989186526672
 21
8.529552319450214
 31
0.0
  0
LINE
  5
94
330
26
100
AcDbEntity
  8
0
 62
     0
100
AcDbLine
 10
9.822247835474119
 20
8.408034273101021
 30
0.0
 11
9.94376588182331
 21
8.529552319450214
 31
0.0
  0
LINE
  5
95
330
26
100
AcDbEntity
  8
0
 62
     0
100
AcDbLine
 10
9.999024530770755
 20
8.408034273101021
 30
0.0
 11
10.10119749429114
 21
8.510207236621408
 31
0.0
  0
ENDBLK
  5
96
330
26
100
AcDbEntity
  8
0
100
AcDbBlockEnd
  0
BLOCK
  5
D16
330
D15
100
AcDbEntity
  8
0
100
AcDbBlockBegin
  2
*D6
 70
     1
 10
0.0
 20
0.0
 30
0.0
  3
*D6
  1

  0
LINE
  5
D18
330
D15
100
AcDbEntity
  8
3
 62
     0
370
    -2
100
AcDbLine
 10
5.639128378337138
 20
8.345034273101019
 30
0.0
 11
5.639128378337138
 21
8.102875491822418
 31
0.0
  0
LINE
  5
D19
330
D15
100
AcDbEntity
  8
3
 62
     0
370
    -2
100
AcDbLine
 10
9.381884205892195
 20
8.345034273101019
 30
0.0
 11
9.381884205892195
 21
8.102875491822418
 31
0.0
  0
LINE
  5
D1A
330
D15
100
AcDbEntity
  8
3
 62
     0
370
    -2
100
AcDbLine
 10
5.764128378337138
 20
8.165875491822419
 30
0.0
 11
7.170506292114668
 21
8.165875491822419
 31
0.0
  0
LINE
  5
D1B
330
D15
100
AcDbEntity
  8
3
 62
     0
370
    -2
100
AcDbLine
 10
9.256884205892195
 20
8.165875491822419
 30
0.0
 11
7.850506292114667
 21
8.165875491822419
 31
0.0
  0
SOLID
  5
D1C
330
D15
100
AcDbEntity
  8
3
 62
     0
100
AcDbTrace
 10
5.764128378337138
 20
8.186708825155752
 30
0.0
 11
5.764128378337138
 21
8.145042158489085
 31
0.0
 12
5.639128378337138
 22
8.165875491822419
 32
0.0
 13
5.639128378337138
 23
8.165875491822419
 33
0.0
  0
SOLID
  5
D1D
330
D15
100
AcDbEntity
  8
3
 62
     0
100
AcDbTrace
 10
9.256884205892195
 20
8.186708825155752
 30
0.0
 11
9.256884205892195
 21
8.145042158489085
 31
0.0
 12
9.381884205892195
 22
8.165875491822419
 32
0.0
 13
9.381884205892195
 23
8.165875491822419
 33
0.0
  0
MTEXT
  5
D1E
330
D15
100
AcDbEntity
  8
3
 62
     0
100
AcDbMText
 10
7.510506292114667
 20
8.165875491822419
 30
0.0
 40
0.125
 41
0.0
 71
     5
 72
     1
  1
\A1;3.743
  7
SIMPLEX
 73
     1
 44
1.0
1001
ACAD
1000
MTEXTBEGIN
1070
    73
1070
     1
1070
    44
1040
1.0
1070
    74
1070
     0
1000
MTEXTEND
  0
POINT
  5
D1F
330
D15
100
AcDbEntity
  8
DEFPOINTS
 62
     0
100
AcDbPoint
 10
5.639128378337138
 20
8.408034273101021
 30
0.0
  0
POINT
  5
D20
330
D15
100
AcDbEntity
  8
DEFPOINTS
 62
     0
100
AcDbPoint
 10
9.381884205892195
 20
8.408034273101021
 30
0.0
  0
POINT
  5
D21
330
D15
100
AcDbEntity
  8
DEFPOINTS
 62
     0
100
AcDbPoint
 10
9.381884205892195
 20
8.165875491822419
 30
0.0
  0
ENDBLK
  5
D17
330
D15
100
AcDbEntity
  8
0
100
AcDbBlockEnd
  0
BLOCK
  5
D24
330
D23
100
AcDbEntity
  8
0
100
AcDbBlockBegin
  2
*D7
 70
     1
 10
0.0
 20
0.0
 30
0.0
  3
*D7
  1

  0
LINE
  5
D26
330
D23
100
AcDbEntity
  8
3
 62
     0
370
    -2
100
AcDbLine
 10
4.910020100241998
 20
8.345034273101019
 30
0.0
 11
4.910020100241998
 21
7.584626964847681
 31
0.0
  0
LINE
  5
D27
330
D23
100
AcDbEntity
  8
3
 62
     0
370
    -2
100
AcDbLine
 10
10.11099248398734
 20
8.345034273101019
 30
0.0
 11
10.11099248398734
 21
7.584626964847681
 31
0.0
  0
LINE
  5
D28
330
D23
100
AcDbEntity
  8
3
 62
     0
370
    -2
100
AcDbLine
 10
5.035020100241998
 20
7.647626964847681
 30
0.0
 11
7.197292006400383
 21
7.647626964847681
 31
0.0
  0
LINE
  5
D29
330
D23
100
AcDbEntity
  8
3
 62
     0
370
    -2
100
AcDbLine
 10
9.98599248398734
 20
7.647626964847681
 30
0.0
 11
7.823720577828956
 21
7.647626964847681
 31
0.0
  0
SOLID
  5
D2A
330
D23
100
AcDbEntity
  8
3
 62
     0
100
AcDbTrace
 10
5.035020100241998
 20
7.668460298181013
 30
0.0
 11
5.035020100241998
 21
7.626793631514347
 31
0.0
 12
4.910020100241998
 22
7.647626964847681
 32
0.0
 13
4.910020100241998
 23
7.647626964847681
 33
0.0
  0
SOLID
  5
D2B
330
D23
100
AcDbEntity
  8
3
 62
     0
100
AcDbTrace
 10
9.98599248398734
 20
7.668460298181013
 30
0.0
 11
9.98599248398734
 21
7.626793631514347
 31
0.0
 12
10.11099248398734
 22
7.647626964847681
 32
0.0
 13
10.11099248398734
 23
7.647626964847681
 33
0.0
  0
MTEXT
  5
D2C
330
D23
100
AcDbEntity
  8
3
 62
     0
100
AcDbMText
 10
7.510506292114668
 20
7.647626964847681
 30
0.0
 40
0.125
 41
0.0
 71
     5
 72
     1
  1
\A1;5.201
  7
SIMPLEX
 73
     1
 44
1.0
1001
ACAD
1000
MTEXTBEGIN
1070
    73
1070
     1
1070
    44
1040
1.0
1070
    74
1070
     0
1000
MTEXTEND
  0
POINT
  5
D2D
330
D23
100
AcDbEntity
  8
DEFPOINTS
 62
     0
100
AcDbPoint
 10
4.910020100241998
 20
8.408034273101021
 30
0.0
  0
POINT
  5
D2E
330
D23
100
AcDbEntity
  8
DEFPOINTS
 62
     0
100
AcDbPoint
 10
10.11099248398734
 20
8.408034273101021
 30
0.0
  0
POINT
  5
D2F
330
D23
100
AcDbEntity
  8
DEFPOINTS
 62
     0
100
AcDbPoint
 10
10.11099248398734
 20
7.647626964847681
 30
0.0
  0
ENDBLK
  5
D25
330
D23
100
AcDbEntity
  8
0
100
AcDbBlockEnd
  0
BLOCK
  5
D32
330
D31
100
AcDbEntity
  8
0
100
AcDbBlockBegin
  2
*D8
 70
     1
 10
0.0
 20
0.0
 30
0.0
  3
*D8
  1

  0
LINE
  5
D34
330
D31
100
AcDbEntity
  8
3
 62
     0
370
    -2
100
AcDbLine
 10
4.847020100242
 20
8.408034273101021
 30
0.0
 11
3.778648723031738
 21
8.408034273101021
 31
0.0
  0
LINE
  5
D35
330
D31
100
AcDbEntity
  8
3
 62
     0
370
    -2
100
AcDbLine
 10
5.527521159797463
 20
10.27941218687855
 30
0.0
 11
3.778648723031738
 21
10.27941218687855
 31
0.0
  0
LINE
  5
D36
330
D31
100
AcDbEntity
  8
3
 62
     0
370
    -2
100
AcDbLine
 10
3.841648723031738
 20
8.533034273101021
 30
0.0
 11
3.841648723031738
 21
9.191223229989788
 31
0.0
  0
LINE
  5
D37
330
D31
100
AcDbEntity
  8
3
 62
     0
370
    -2
100
AcDbLine
 10
3.841648723031738
 20
10.15441218687855
 30
0.0
 11
3.841648723031738
 21
9.496223229989787
 31
0.0
  0
SOLID
  5
D38
330
D31
100
AcDbEntity
  8
3
 62
     0
100
AcDbTrace
 10
3.820815389698404
 20
8.533034273101021
 30
0.0
 11
3.862482056365071
 21
8.533034273101021
 31
0.0
 12
3.841648723031738
 22
8.408034273101021
 32
0.0
 13
3.841648723031738
 23
8.408034273101021
 33
0.0
  0
SOLID
  5
D39
330
D31
100
AcDbEntity
  8
3
 62
     0
100
AcDbTrace
 10
3.820815389698404
 20
10.15441218687855
 30
0.0
 11
3.862482056365071
 21
10.15441218687855
 31
0.0
 12
3.841648723031738
 22
10.27941218687855
 32
0.0
 13
3.841648723031738
 23
10.27941218687855
 33
0.0
  0
MTEXT
  5
D3A
330
D31
100
AcDbEntity
  8
3
 62
     0
100
AcDbMText
 10
3.841648723031736
 20
9.343723229989787
 30
0.0
 40
0.125
 41
0.0
 71
     5
 72
     1
  1
\A1;1.871
  7
SIMPLEX
 73
     1
 44
1.0
1001
ACAD
1000
MTEXTBEGIN
1070
    73
1070
     1
1070
    44
1040
1.0
1070
    74
1070
     0
1000
MTEXTEND
  0
POINT
  5
D3B
330
D31
100
AcDbEntity
  8
DEFPOINTS
 62
     0
100
AcDbPoint
 10
4.910020100241998
 20
8.408034273101021
 30
0.0
  0
POINT
  5
D3C
330
D31
100
AcDbEntity
  8
DEFPOINTS
 62
     0
100
AcDbPoint
 10
5.590521159797463
 20
10.27941218687855
 30
0.0
  0
POINT
  5
D3D
330
D31
100
AcDbEntity
  8
DEFPOINTS
 62
     0
100
AcDbPoint
 10
3.841648723031738
 20
10.27941218687855
 30
0.0
  0
ENDBLK
  5
D33
330
D31
100
AcDbEntity
  8
0
100
AcDbBlockEnd
  0
BLOCK
  5
D41
330
D40
100
AcDbEntity
  8
0
100
AcDbBlockBegin
  2
*D9
 70
     1
 10
0.0
 20
0.0
 30
0.0
  3
*D9
  1

  0
LINE
  5
D43
330
D40
100
AcDbEntity
  8
3
 62
     0
370
    -2
100
AcDbLine
 10
16.93874175110584
 20
11.1415017718467
 30
0.0
 11
16.81374175110583
 21
11.14150177184669
 31
0.0
  0
LINE
  5
D44
330
D40
100
AcDbEntity
  8
3
 62
     0
370
    -2
100
AcDbLine
 10
16.81374175110583
 20
11.14150177184669
 30
0.0
 11
16.7163908237783
 21
11.06309388354157
 31
0.0
  0
MTEXT
  5
D45
102
{ACAD_XDICTIONARY
360
DA8
102
}
330
D40
100
AcDbEntity
  8
3
 62
     0
100
AcDbMText
 10
17.33528937015346
 20
11.14150177184669
 30
0.0
 40
0.125
 41
0.0
 71
     5
 72
     1
  1
\A1;\U+22055.200
  7
SIMPLEX
 73
     1
 44
1.0
1001
ACAD
1000
MTEXTBEGIN
1070
    73
1070
     1
1070
    44
1040
1.0
1070
    74
1070
     0
1000
MTEXTEND
  0
SOLID
  5
D46
330
D40
100
AcDbEntity
  8
3
 62
     0
100
AcDbTrace
 10
16.70332284239411
 20
11.07931903809616
 30
0.0
 11
16.72945880516248
 21
11.04686872898698
 31
0.0
 12
16.61903989645076
 22
10.98468599523645
 32
0.0
 13
16.61903989645076
 23
10.98468599523645
 33
0.0
  0
LINE
  5
D47
330
D40
100
AcDbEntity
  8
3
 62
     0
370
    -2
100
AcDbLine
 10
14.46914060803798
 20
9.353801918489914
 30
0.0
 11
14.71914060803798
 21
9.353801918489914
 31
0.0
  0
LINE
  5
D48
330
D40
100
AcDbEntity
  8
3
 62
     0
370
    -2
100
AcDbLine
 10
14.59414060803798
 20
9.228801918489914
 30
0.0
 11
14.59414060803798
 21
9.478801918489912
 31
0.0
  0
LINE
  5
D49
330
D40
100
AcDbEntity
  8
3
 62
     0
370
    -2
100
AcDbLine
 10
14.34414060803798
 20
9.353801918489912
 30
0.0
 11
11.86914060803798
 21
9.353801918489912
 31
0.0
  0
LINE
  5
D4A
330
D40
100
AcDbEntity
  8
3
 62
     0
370
    -2
100
AcDbLine
 10
14.84414060803798
 20
9.353801918489912
 30
0.0
 11
17.31914060803797
 21
9.353801918489914
 31
0.0
  0
LINE
  5
D4B
330
D40
100
AcDbEntity
  8
3
 62
     0
370
    -2
100
AcDbLine
 10
14.59414060803798
 20
9.103801918489915
 30
0.0
 11
14.59414060803798
 21
6.628801918489915
 31
0.0
  0
LINE
  5
D4C
330
D40
100
AcDbEntity
  8
3
 62
     0
370
    -2
100
AcDbLine
 10
14.59414060803798
 20
9.603801918489914
 30
0.0
 11
14.59414060803798
 21
12.07880191848991
 31
0.0
  0
POINT
  5
D4D
330
D40
100
AcDbEntity
  8
DEFPOINTS
 62
     0
100
AcDbPoint
 10
16.61903989645076
 20
10.98468599523645
 30
0.0
  0
POINT
  5
D4E
330
D40
100
AcDbEntity
  8
DEFPOINTS
 62
     0
100
AcDbPoint
 10
12.5692413196252
 20
7.722917841743377
 30
0.0
  0
ENDBLK
  5
D42
330
D40
100
AcDbEntity
  8
0
100
AcDbBlockEnd
  0
ENDSEC
  0
SECTION
  2
ENTITIES
  0
TEXT
  5
97
330
17
100
AcDbEntity
  8
2
100
AcDbText
 10
2.740398252719224
 20
13.4493367892594
 30
0.0
 40
0.103974
  1
A
  7
SIMPLEX
 72
     1
 11
2.780007395576368
 21
13.4493367892594
 31
0.0
100
AcDbText
  0
TEXT
  5
98
330
17
100
AcDbEntity
  8
2
100
AcDbText
 10
1.20441015229781
 20
11.74494903893623
 30
0.0
 40
0.103974
  1
1
  7
SIMPLEX
 72
     1
 11
1.216788009440668
 21
11.74494903893623
 31
0.0
100
AcDbText
  0
LINE
  5
A4
330
17
100
AcDbEntity
  8
4
100
AcDbLine
 10
1.133049999999999
 20
1.0664
 30
0.0
 11
1.133049999999999
 21
13.5966
 31
0.0
  0
LINE
  5
A5
330
17
100
AcDbEntity
  8
4
100
AcDbLine
 10
21.52795
 20
13.5966
 30
0.0
 11
1.133049999999999
 21
13.5966
 31
0.0
  0
LINE
  5
A6
330
17
100
AcDbEntity
  8
4
100
AcDbLine
 10
21.52795
 20
13.5966
 30
0.0
 11
21.52795
 21
1.0664
 31
0.0
  0
LINE
  5
A8
330
17
100
AcDbEntity
  8
4
100
AcDbLine
 10
21.52795
 20
1.066399999999997
 30
0.0
 11
1.133049999999999
 21
1.0664
 31
0.0
  0
LINE
  5
A9
330
17
100
AcDbEntity
  8
3
100
AcDbLine
 10
4.330448974269661
 20
13.41324241786705
 30
0.0
 11
4.330448974269661
 21
13.5966
 31
0.0
  0
LINE
  5
AA
330
17
100
AcDbEntity
  8
3
100
AcDbLine
 10
1.282812161314605
 20
10.82337073429364
 30
0.0
 11
1.133049999999999
 21
10.82337073429364
 31
0.0
  0
LINE
  5
AB
330
17
100
AcDbEntity
  8
3
100
AcDbLine
 10
7.180251284658124
 20
13.41324241786705
 30
0.0
 11
7.180251284658128
 21
13.5966
 31
0.0
  0
LINE
  5
AC
330
17
100
AcDbEntity
  8
3
100
AcDbLine
 10
10.06294931617977
 20
13.41324241786705
 30
0.0
 11
10.06294931617977
 21
13.5966
 31
0.0
  0
LINE
  5
AD
330
17
100
AcDbEntity
  8
3
100
AcDbLine
 10
12.92919948713483
 20
13.41324241786705
 30
0.0
 11
12.92919948713483
 21
13.5966
 31
0.0
  0
LINE
  5
AE
330
17
100
AcDbEntity
  8
3
100
AcDbLine
 10
15.79544965808989
 20
13.41324241786705
 30
0.0
 11
15.79544965808989
 21
13.5966
 31
0.0
  0
LINE
  5
AF
330
17
100
AcDbEntity
  8
3
100
AcDbLine
 10
18.66169982904494
 20
13.41324241786705
 30
0.0
 11
18.66169982904494
 21
13.5966
 31
0.0
  0
LINE
  5
B0
330
17
100
AcDbEntity
  8
3
100
AcDbLine
 10
1.282812161314605
 20
8.384128050720235
 30
0.0
 11
1.133049999999999
 21
8.384128050720235
 31
0.0
  0
LINE
  5
B1
330
17
100
AcDbEntity
  8
3
100
AcDbLine
 10
1.282812161314605
 20
5.944885367146822
 30
0.0
 11
1.133049999999999
 21
5.944885367146822
 31
0.0
  0
LINE
  5
B2
330
17
100
AcDbEntity
  8
3
100
AcDbLine
 10
1.282812161314605
 20
3.505642683573411
 30
0.0
 11
1.133049999999999
 21
3.505642683573411
 31
0.0
  0
TEXT
  5
B3
330
17
100
AcDbEntity
  8
2
100
AcDbText
 10
1.182130009440667
 20
9.504130073418986
 30
0.0
 40
0.103974
  1
2
  7
SIMPLEX
 72
     1
 11
1.216788009440668
 21
9.504130073418986
 31
0.0
100
AcDbText
  0
TEXT
  5
B4
330
17
100
AcDbEntity
  8
2
100
AcDbText
 10
1.182130009440667
 20
7.039229211350021
 30
0.0
 40
0.103974
  1
3
  7
SIMPLEX
 72
     1
 11
1.216788009440668
 21
7.039229211350021
 31
0.0
100
AcDbText
  0
TEXT
  5
B5
330
17
100
AcDbEntity
  8
2
100
AcDbText
 10
1.179654438012096
 20
4.574328349281055
 30
0.0
 40
0.103974
  1
4
  7
SIMPLEX
 72
     1
 11
1.216788009440668
 21
4.574328349281055
 31
0.0
100
AcDbText
  0
TEXT
  5
B6
330
17
100
AcDbEntity
  8
2
100
AcDbText
 10
1.182130009440667
 20
2.109427487212089
 30
0.0
 40
0.103974
  1
5
  7
SIMPLEX
 72
     1
 11
1.216788009440668
 21
2.109427487212089
 31
0.0
100
AcDbText
  0
TEXT
  5
B7
330
17
100
AcDbEntity
  8
2
100
AcDbText
 10
5.770454999024642
 20
13.4493367892594
 30
0.0
 40
0.103974
  1
B
  7
SIMPLEX
 72
     1
 11
5.805112999024642
 21
13.4493367892594
 31
0.0
100
AcDbText
  0
TEXT
  5
B8
330
17
100
AcDbEntity
  8
2
100
AcDbText
 10
8.643697100009866
 20
13.4493367892594
 30
0.0
 40
0.103974
  1
C
  7
SIMPLEX
 72
     1
 11
8.680830671438437
 21
13.4493367892594
 31
0.0
100
AcDbText
  0
TEXT
  5
B9
330
17
100
AcDbEntity
  8
2
100
AcDbText
 10
11.4845433610936
 20
13.4493367892594
 30
0.0
 40
0.103974
  1
D
  7
SIMPLEX
 72
     1
 11
11.5192013610936
 21
13.4493367892594
 31
0.0
100
AcDbText
  0
TEXT
  5
BA
330
17
100
AcDbEntity
  8
2
100
AcDbText
 10
14.40008358769459
 20
13.4493367892594
 30
0.0
 40
0.103974
  1
E
  7
SIMPLEX
 72
     1
 11
14.43226601626602
 21
13.4493367892594
 31
0.0
100
AcDbText
  0
TEXT
  5
BB
330
17
100
AcDbEntity
  8
2
100
AcDbText
 10
17.20110729459115
 20
13.4493367892594
 30
0.0
 40
0.103974
  1
F
  7
SIMPLEX
 72
     1
 11
17.23328972316258
 21
13.4493367892594
 31
0.0
100
AcDbText
  0
TEXT
  5
BC
330
17
100
AcDbEntity
  8
2
100
AcDbText
 10
20.03452684138918
 20
13.4493367892594
 30
0.0
 40
0.103974
  1
G
  7
SIMPLEX
 72
     1
 11
20.07166041281775
 21
13.4493367892594
 31
0.0
100
AcDbText
  0
LINE
  5
C2
330
17
100
AcDbEntity
  8
4
100
AcDbLine
 10
-0.0000000000000012
 20
0.0
 30
0.0
 11
-0.0000000000000012
 21
14.663
 31
0.0
  0
LINE
  5
C3
330
17
100
AcDbEntity
  8
4
100
AcDbLine
 10
22.661
 20
14.663
 30
0.0
 11
22.661
 21
-0.0000000000000027
 31
0.0
  0
LINE
  5
C4
330
17
100
AcDbEntity
  8
4
100
AcDbLine
 10
22.661
 20
14.663
 30
0.0
 11
-0.0000000000000012
 21
14.663
 31
0.0
  0
LINE
  5
C5
330
17
100
AcDbEntity
  8
4
100
AcDbLine
 10
22.661
 20
-0.0000000000000027
 30
0.0
 11
-0.0000000000000012
 21
0.0
 31
0.0
  0
LINE
  5
D1
330
17
100
AcDbEntity
  8
0
100
AcDbLine
 10
14.67090141148028
 20
2.420728933099939
 30
0.0
 11
21.52795
 21
2.420728933099939
 31
0.0
  0
LWPOLYLINE
  5
D2
330
17
100
AcDbEntity
  8
4
  6
Continuous
100
AcDbPolyline
 90
       18
 70
     0
 43
0.0
 10
16.20739156873563
 20
2.135138306149253
 10
16.20731255212425
 20
2.133874040366773
 10
16.20715451890144
 20
2.13260977458429
 10
16.20675943584441
 20
2.131503542024614
 10
16.20628533617594
 20
2.130476326076367
 10
16.20549517006194
 20
2.129528126739549
 10
16.20454697072506
 20
2.128816977236851
 10
16.20344073816538
 20
2.128342877568439
 10
16.2020184391601
 20
2.128105827734208
 10
16.20067515676624
 20
2.128184844345639
 10
16.19941089098376
 20
2.128579927402675
 10
16.19846269164689
 20
2.129291076905313
 10
16.19767252553282
 20
2.13023927624219
 10
16.19704039264161
 20
2.13134550880181
 10
16.1965662929732
 20
2.132530757972919
 10
16.19625022652754
 20
2.133795023755399
 10
16.19617120991617
 20
2.135138306149253
 10
16.20739156873563
 20
2.135138306149253
  0
LWPOLYLINE
  5
E6
330
17
100
AcDbEntity
  8
4
  6
Continuous
100
AcDbPolyline
 90
       18
 70
     0
 43
0.0
 10
16.19609219330479
 20
2.139800286222135
 10
16.19601317669336
 20
2.143198000512543
 10
16.19601317669336
 20
2.146911781248553
 10
16.19601317669336
 20
2.150941628430225
 10
16.19632924313897
 20
2.155287542057449
 10
16.19688235941881
 20
2.159870505518961
 10
16.19790957536711
 20
2.164769535426023
 10
16.19948990759514
 20
2.169905615167373
 10
16.20178138932592
 20
2.175278744742902
 10
16.20367778799961
 20
2.170221681612977
 10
16.20517910361626
 20
2.165243635094491
 10
16.20628533617594
 20
2.160423621798798
 10
16.20707550229002
 20
2.155761641725916
 10
16.20754960195849
 20
2.151257694875833
 10
16.20770763518123
 20
2.147148831082784
 10
16.20770763518123
 20
2.143277017123973
 10
16.20754960195849
 20
2.139800286222135
 10
16.19609219330479
 20
2.139800286222135
  0
TEXT
  5
FA
330
17
100
AcDbEntity
  8
3
100
AcDbText
 10
16.08078635614606
 20
1.89981610815249
 30
0.0
 40
0.0520885067595329
  1
NAME:
  7
SIMPLEX
100
AcDbText
  0
LWPOLYLINE
  5
FB
330
17
100
AcDbEntity
  8
4
  6
Continuous
100
AcDbPolyline
 90
       21
 70
     0
 43
0.0
 10
16.19206234612312
 20
2.342887973131732
 10
16.19206234612312
 20
2.135296339372053
 10
16.20091220660042
 20
2.047508884101362
 10
16.2114214159173
 20
2.135296339372053
 10
16.2114214159173
 20
2.342492890074693
 10
16.21118436608307
 20
2.345732571142296
 10
16.2105522331918
 20
2.348577169152863
 10
16.20960403385498
 20
2.350947667495022
 10
16.20841878468387
 20
2.352923082780141
 10
16.20691746906722
 20
2.354424398396858
 10
16.2052581202277
 20
2.355530630956534
 10
16.20351975477681
 20
2.356162763847744
 10
16.20178138932592
 20
2.356399813681977
 10
16.1999640072636
 20
2.356241780459174
 10
16.19822564181271
 20
2.355609647567904
 10
16.1965662929732
 20
2.354503415008228
 10
16.19506497735654
 20
2.353081116002943
 10
16.19387972818544
 20
2.351184717329252
 10
16.19293152884856
 20
2.348814218987094
 10
16.19229939595729
 20
2.346048637587958
 10
16.19206234612312
 20
2.342887973131732
  0
TEXT
  5
112
330
17
100
AcDbEntity
  8
3
100
AcDbText
 10
16.06968147928431
 20
1.398301951169397
 30
0.0
 40
0.0520885067595329
  1
MAT'L DESCRIPTION:
  7
SIMPLEX
100
AcDbText
  0
TEXT
  5
113
330
17
100
AcDbEntity
  8
3
100
AcDbText
 10
16.07798752007347
 20
1.581040725434216
 30
0.0
 40
0.0520885067595329
  1
FILE PATH:
  7
SIMPLEX
100
AcDbText
  0
LINE
  5
114
330
17
100
AcDbEntity
  8
0
100
AcDbLine
 10
16.02520258722822
 20
1.512851640711275
 30
0.0
 11
19.65973009877345
 21
1.512851640711275
 31
0.0
  0
LINE
  5
115
330
17
100
AcDbEntity
  8
0
100
AcDbLine
 10
16.02520258722816
 20
1.69146208111434
 30
0.0
 11
21.52795
 21
1.69146208111434
 31
0.0
  0
LINE
  5
116
330
17
100
AcDbEntity
  8
0
100
AcDbLine
 10
16.02520258722816
 20
2.008632446172053
 30
0.0
 11
21.52795
 21
2.008632446172053
 31
0.0
  0
LINE
  5
117
330
17
100
AcDbEntity
  8
0
100
AcDbLine
 10
16.02520258722822
 20
1.066399999999938
 30
0.0
 11
16.02520258722822
 21
2.420701175747816
 31
0.0
  0
LINE
  5
118
330
17
100
AcDbEntity
  8
4
100
AcDbLine
 10
14.67090141148028
 20
2.420728933099939
 30
0.0
 11
14.67090141148028
 21
1.066399999999938
 31
0.0
  0
TEXT
  5
119
330
17
100
AcDbEntity
  8
3
100
AcDbText
 10
14.74902953511652
 20
1.572318600535527
 30
0.0
 40
0.0824056454594173
  1
FRACTIONS %%P 1/32
  7
SIMPLEX
 72
     1
 11
15.35333760181891
 21
1.572318600535527
 31
0.0
100
AcDbText
  0
TEXT
  5
11A
330
17
100
AcDbEntity
  8
3
100
AcDbText
 10
14.97881281656677
 20
1.09055679122227
 30
0.0
 40
0.0560358389124037
  1
READ ALL NOTES
  7
SIMPLEX
 72
     1
 11
15.34171158285662
 21
1.09055679122227
 31
0.0
100
AcDbText
  0
TEXT
  5
11B
330
17
100
AcDbEntity
  8
3
100
AcDbText
 10
15.02684353563454
 20
1.170394006428832
 30
0.0
 40
0.0560358389124037
  1
DO NOT SCALE
  7
SIMPLEX
 72
     1
 11
15.34171158285662
 21
1.170394006428832
 31
0.0
100
AcDbText
  0
TEXT
  5
11C
330
17
100
AcDbEntity
  8
3
100
AcDbText
 10
14.90599266932493
 20
1.28978495896034
 30
0.0
 40
0.0824056454594173
  1
HOLES %%P .005
  7
SIMPLEX
 72
     1
 11
15.35333760181891
 21
1.28978495896034
 31
0.0
100
AcDbText
  0
TEXT
  5
11D
330
17
100
AcDbEntity
  8
3
100
AcDbText
 10
14.86871392495043
 20
1.431051779747933
 30
0.0
 40
0.0824056454594173
  1
ANGLES %%P 1/2%%D
  7
SIMPLEX
 72
     1
 11
15.35333760181891
 21
1.431051779747933
 31
0.0
100
AcDbText
  0
LINE
  5
11E
330
17
100
AcDbEntity
  8
0
100
AcDbLine
 10
14.67090141148028
 20
1.253993661798979
 30
0.0
 11
16.02520258722822
 21
1.253993661798979
 31
0.0
  0
TEXT
  5
11F
330
17
100
AcDbEntity
  8
3
100
AcDbText
 10
14.71165208672626
 20
2.315747200093504
 30
0.0
 40
0.0660329689532614
  1
UNLESS OTHERWISE SPECIFIED
 41
0.8436671689696833
  7
SIMPLEX
 72
     5
 11
15.98236719054749
 21
2.315747200093504
 31
0.0
100
AcDbText
  0
TEXT
  5
120
330
17
100
AcDbEntity
  8
3
100
AcDbText
 10
14.71165208672626
 20
2.155475345059199
 30
0.0
 40
0.0660329689532614
  1
DIMENSIONS ARE IN INCHES
 41
0.9163641132346443
  7
SIMPLEX
 72
     5
 11
15.98236719054749
 21
2.155475345059199
 31
0.0
100
AcDbText
  0
TEXT
  5
121
330
17
100
AcDbEntity
  8
3
100
AcDbText
 10
14.91580286521295
 20
1.713585421323063
 30
0.0
 40
0.0824056454594173
  1
.XXX %%P .005 
  7
SIMPLEX
 72
     1
 11
15.35333760181891
 21
1.713585421323063
 31
0.0
100
AcDbText
  0
TEXT
  5
122
330
17
100
AcDbEntity
  8
3
100
AcDbText
 10
15.01194278491561
 20
1.854852242110655
 30
0.0
 40
0.0824056454594173
  1
.XX %%P .010
  7
SIMPLEX
 72
     1
 11
15.35333760181891
 21
1.854852242110655
 31
0.0
100
AcDbText
  0
TEXT
  5
123
330
17
100
AcDbEntity
  8
3
100
AcDbText
 10
14.9707399621859
 20
1.982900416608011
 30
0.0
 40
0.0824056454594173
  1
TOLERANCES
  7
SIMPLEX
 72
     1
 11
15.35333760181891
 21
1.982900416608011
 31
0.0
100
AcDbText
  0
LINE
  5
124
330
17
100
AcDbEntity
  8
0
100
AcDbLine
 10
14.67090141148028
 20
2.264435655469231
 30
0.0
 11
16.02520258722822
 21
2.264435655469231
 31
0.0
  0
LINE
  5
125
330
17
100
AcDbEntity
  8
0
100
AcDbLine
 10
14.67090141148028
 20
2.108170135190645
 30
0.0
 11
16.02520258722822
 21
2.108170135190645
 31
0.0
  0
LWPOLYLINE
  5
126
330
17
100
AcDbEntity
  8
4
  6
Continuous
100
AcDbPolyline
 90
       21
 70
     0
 43
0.0
 10
16.12718354731238
 20
2.329318829490715
 10
16.12718354731238
 20
2.135375355983485
 10
16.13690259051512
 20
2.047508884101362
 10
16.14693770016353
 20
2.134980272926449
 10
16.14693770016353
 20
2.330029978993358
 10
16.1467006503293
 20
2.333190643449531
 10
16.14606851743809
 20
2.335877208237294
 10
16.14512031810121
 20
2.33816868996802
 10
16.14385605231874
 20
2.340065088641769
 10
16.14235473670202
 20
2.341408371035623
 10
16.14069538786256
 20
2.342435586983872
 10
16.13887800580025
 20
2.34298870326371
 10
16.13706062373793
 20
2.343146736486514
 10
16.13524324167561
 20
2.342830670040908
 10
16.13342585961328
 20
2.342119520538266
 10
16.13176651077383
 20
2.341013287978586
 10
16.13026519515712
 20
2.339511972361931
 10
16.12900092937469
 20
2.337536557076808
 10
16.12805273003776
 20
2.335245075346024
 10
16.12742059714656
 20
2.33247949394689
 10
16.12718354731238
 20
2.329318829490715
  0
LWPOLYLINE
  5
13D
330
17
100
AcDbEntity
  8
4
  6
Continuous
100
AcDbPolyline
 90
       21
 70
     0
 43
0.0
 10
16.16005753808044
 20
2.361678343472154
 10
16.16005753808044
 20
2.135296339372053
 10
16.1689073985578
 20
2.047508884101362
 10
16.17941660787462
 20
2.135296339372053
 10
16.17941660787462
 20
2.361283260415122
 10
16.17917955804044
 20
2.364522941482724
 10
16.17854742514918
 20
2.367367539493292
 10
16.17759922581231
 20
2.369738037835448
 10
16.17641397664125
 20
2.371713453120568
 10
16.17491266102454
 20
2.373214768737279
 10
16.17325331218503
 20
2.374321001296903
 10
16.17151494673413
 20
2.37495313418817
 10
16.16977658128325
 20
2.375190184022345
 10
16.16795919922093
 20
2.375032150799543
 10
16.16622083377003
 20
2.374400017908333
 10
16.16456148493052
 20
2.373293785348654
 10
16.16306016931386
 20
2.371871486343374
 10
16.16187492014276
 20
2.36997508766968
 10
16.16092672080594
 20
2.367604589327521
 10
16.16029458791467
 20
2.364839007928329
 10
16.16005753808044
 20
2.361678343472154
  0
LWPOLYLINE
  5
154
330
17
100
AcDbEntity
  8
4
  6
Continuous
100
AcDbPolyline
 90
       18
 70
     0
 43
0.0
 10
16.14353998587313
 20
2.135138306149253
 10
16.14353998587313
 20
2.133874040366773
 10
16.14338195265033
 20
2.13260977458429
 10
16.14298686959329
 20
2.13142452541324
 10
16.14235473670202
 20
2.13023927624219
 10
16.14156457058801
 20
2.129212060293886
 10
16.14045833802833
 20
2.12842189417987
 10
16.13919407224585
 20
2.127868777900033
 10
16.13761374001777
 20
2.12771074467723
 10
16.13603340778968
 20
2.127947794511408
 10
16.13469012539582
 20
2.12842189417987
 10
16.13350487622472
 20
2.129133043682513
 10
16.13247766027647
 20
2.13016025963076
 10
16.13176651077383
 20
2.131266492190439
 10
16.13113437788262
 20
2.13245174136149
 10
16.13081831143696
 20
2.133795023755399
 10
16.13066027821415
 20
2.135138306149253
 10
16.14353998587313
 20
2.135138306149253
  0
LWPOLYLINE
  5
168
330
17
100
AcDbEntity
  8
4
  6
Continuous
100
AcDbPolyline
 90
       18
 70
     0
 43
0.0
 10
16.13050224499135
 20
2.139484219776533
 10
16.13042322837998
 20
2.144067183237988
 10
16.13073929482558
 20
2.148808179922301
 10
16.13129241110536
 20
2.153549176606559
 10
16.13208257721943
 20
2.158211156679445
 10
16.13310979316769
 20
2.1626360869181
 10
16.13429504233879
 20
2.16658691748834
 10
16.13563832473264
 20
2.170063648390176
 10
16.13713964034936
 20
2.172750213177939
 10
16.13840390613178
 20
2.17014266500155
 10
16.13966817191432
 20
2.166823967322576
 10
16.14085342108537
 20
2.162794120140901
 10
16.14188063703362
 20
2.158290173290877
 10
16.14274981975906
 20
2.153549176606559
 10
16.14338195265033
 20
2.14872916331087
 10
16.14369801909594
 20
2.143988166626614
 10
16.14369801909594
 20
2.139484219776533
 10
16.13050224499135
 20
2.139484219776533
  0
LWPOLYLINE
  5
17C
330
17
100
AcDbEntity
  8
4
  6
Continuous
100
AcDbPolyline
 90
       18
 70
     0
 43
0.0
 10
16.16408738526212
 20
2.139800286222135
 10
16.16400836865068
 20
2.143198000512543
 10
16.16400836865068
 20
2.146911781248553
 10
16.16400836865068
 20
2.150941628430225
 10
16.16432443509629
 20
2.155287542057449
 10
16.16487755137619
 20
2.159870505518961
 10
16.16590476732443
 20
2.164769535426023
 10
16.16748509955252
 20
2.169905615167373
 10
16.16977658128325
 20
2.175278744742902
 10
16.171672979957
 20
2.170221681612977
 10
16.17317429557365
 20
2.165243635094491
 10
16.17428052813327
 20
2.160423621798798
 10
16.17507069424735
 20
2.155761641725916
 10
16.17554479391581
 20
2.151257694875833
 10
16.17570282713861
 20
2.147148831082784
 10
16.17570282713861
 20
2.143277017123973
 10
16.17554479391581
 20
2.139800286222135
 10
16.16408738526212
 20
2.139800286222135
  0
LWPOLYLINE
  5
190
330
17
100
AcDbEntity
  8
4
  6
Continuous
100
AcDbPolyline
 90
       18
 70
     0
 43
0.0
 10
16.17538676069295
 20
2.135138306149253
 10
16.17530774408158
 20
2.133874040366773
 10
16.17514971085877
 20
2.13260977458429
 10
16.17475462780173
 20
2.131503542024614
 10
16.17428052813327
 20
2.130476326076367
 10
16.17349036201926
 20
2.129528126739549
 10
16.17254216268239
 20
2.128816977236851
 10
16.1714359301227
 20
2.128342877568439
 10
16.17001363111742
 20
2.128105827734208
 10
16.16867034872356
 20
2.128184844345639
 10
16.16740608294109
 20
2.128579927402675
 10
16.16645788360422
 20
2.129291076905313
 10
16.1656677174902
 20
2.13023927624219
 10
16.16503558459893
 20
2.13134550880181
 10
16.16456148493052
 20
2.132530757972919
 10
16.16424541848491
 20
2.133795023755399
 10
16.16416640187354
 20
2.135138306149253
 10
16.17538676069295
 20
2.135138306149253
  0
LINE
  5
1A4
330
17
100
AcDbEntity
  8
0
100
AcDbLine
 10
16.16958061797458
 20
2.375173143734666
 30
0.0
 11
16.16958061797458
 21
2.375173143734666
 31
0.0
  0
LWPOLYLINE
  5
1A5
330
17
100
AcDbEntity
  8
4
  6
Continuous
100
AcDbPolyline
 90
       88
 70
     0
 43
0.0
 10
20.16066198019183
 20
2.305254541613029
 10
20.03438361522443
 20
2.305254541613029
 10
20.03785386036856
 20
2.302555462056489
 10
20.04132410551269
 20
2.299470799706124
 10
20.04440876786304
 20
2.296000554561997
 10
20.04730063881647
 20
2.29253030941781
 10
20.04961413557925
 20
2.288481690082974
 10
20.05134925815131
 20
2.284433070748136
 10
20.05250600653272
 20
2.279806077222653
 10
20.05308438072337
 20
2.275179083697104
 10
20.05308438072337
 20
2.1411890628538
 10
20.02050263464779
 20
2.10552265442786
 10
20.13675584697663
 20
2.10552265442786
 10
20.1390693437394
 20
2.10552265442786
 10
20.14138284050212
 20
2.105908237221628
 10
20.14369633726495
 20
2.10610102861851
 10
20.14581704263078
 20
2.106679402809216
 10
20.14813053939355
 20
2.107257776999925
 10
20.15044403615632
 20
2.108028942587516
 10
20.15256474152216
 20
2.108800108175107
 10
20.15487823828493
 20
2.109956856556463
 10
20.15699894365082
 20
2.11092081354094
 10
20.15911964901665
 20
2.11207756192235
 10
20.16104756298565
 20
2.113427101700594
 10
20.16297547695466
 20
2.11477664147889
 10
20.1649033909236
 20
2.116318972654071
 10
20.16683130489255
 20
2.117861303829254
 10
20.16837363606773
 20
2.119403635004434
 10
20.17010875863979
 20
2.121138757576499
 10
20.17473575216534
 20
2.1269224994834
 10
20.17839878870636
 20
2.133670198374774
 10
20.18109786826295
 20
2.140803480059974
 10
20.18264019943813
 20
2.148129553142054
 10
20.18283299083501
 20
2.155648417621021
 10
20.1816762424536
 20
2.162588907909334
 10
20.17878437150012
 20
2.169143815403829
 10
20.17435016937158
 20
2.174927557310732
 10
20.13232164484803
 20
2.156805166002436
 10
20.13444235021387
 20
2.153720503652075
 10
20.13617747278593
 20
2.150250258507944
 10
20.13752701256422
 20
2.14678001336376
 10
20.1384909695487
 20
2.143116976822745
 10
20.1390693437394
 20
2.139453940281678
 10
20.1390693437394
 20
2.135790903740663
 10
20.1384909695487
 20
2.132127867199594
 10
20.13733422116734
 20
2.128657622055465
 10
20.13579188999216
 20
2.126151333895808
 10
20.1340567674201
 20
2.123837837133037
 10
20.13174327065733
 20
2.121717131767208
 10
20.12942977389455
 20
2.120174800592026
 10
20.12673069433796
 20
2.118825260813728
 10
20.12403161478148
 20
2.117668512432369
 10
20.12113974382799
 20
2.117090138241663
 10
20.11824787287451
 20
2.11689734684478
 10
20.05250600653272
 20
2.11689734684478
 10
20.09607686223139
 20
2.162010533718629
 10
20.09607686223139
 20
2.205966972211122
 10
20.14735937380596
 20
2.205966972211122
 10
20.14735937380596
 20
2.221390283962878
 10
20.09684802781897
 20
2.221390283962878
 10
20.09684802781897
 20
2.279998868619534
 10
20.08778683216483
 20
2.29407264059299
 10
20.11689833309622
 20
2.29407264059299
 10
20.12345324059071
 20
2.293687057799225
 10
20.1288513997039
 20
2.292144726624044
 10
20.13309281043556
 20
2.28963843846439
 10
20.13617747278593
 20
2.286168193320259
 10
20.13791259535799
 20
2.282119573985422
 10
20.1384909695487
 20
2.277492580459878
 10
20.13771980396111
 20
2.272287212743686
 10
20.13559909859527
 20
2.267081845027435
 10
20.18071228546913
 20
2.253393655847746
 10
20.18379694781949
 20
2.25667110959499
 10
20.18611044458226
 20
2.260334146136059
 10
20.18784556715432
 20
2.264382765470895
 10
20.1888095241388
 20
2.268431384805733
 10
20.18919510693262
 20
2.272672795537451
 10
20.1888095241388
 20
2.277106997666056
 10
20.18803835855121
 20
2.281348408397831
 10
20.18668881877291
 20
2.285589819129549
 10
20.18495369620084
 20
2.289445647067502
 10
20.18264019943813
 20
2.293301475005399
 10
20.17994111988154
 20
2.296578928752647
 10
20.17666366613429
 20
2.299470799706124
 10
20.17319342099016
 20
2.301977087865783
 10
20.16933759305221
 20
2.303712210437845
 10
20.16509618232049
 20
2.304868958819259
 10
20.16066198019183
 20
2.305254541613029
  0
TEXT
  5
1FF
330
17
100
AcDbEntity
  8
3
100
AcDbText
 10
20.27096322111741
 20
1.548614645735734
 30
0.0
 40
0.0516717987054566
  1
OF
  7
SIMPLEX
100
AcDbText
  0
LINE
  5
200
330
17
100
AcDbEntity
  8
0
100
AcDbLine
 10
19.65973009877345
 20
1.451419902940996
 30
0.0
 11
21.52795
 21
1.451419902940996
 31
0.0
  0
TEXT
  5
201
330
17
100
AcDbEntity
  8
3
100
AcDbText
 10
20.03093703815537
 20
1.144983469132694
 30
0.0
 40
0.1166782551413537
  1
4040.00
  7
SIMPLEX
 72
     1
 11
20.37541569619175
 21
1.144983469132694
 31
0.0
100
AcDbText
  0
TEXT
  5
202
330
17
100
AcDbEntity
  8
3
100
AcDbText
 10
18.19900132250991
 20
1.747761807203165
 30
0.0
 40
0.1041770135190657
  1
CAST FLANGES
  7
SIMPLEX
 72
     1
 11
18.77693570703235
 21
1.747761807203165
 31
0.0
100
AcDbText
  0
LWPOLYLINE
  5
203
330
17
100
AcDbEntity
  8
4
  6
Continuous
100
AcDbPolyline
 90
       46
 70
     0
 43
0.0
 10
18.08568662473902
 20
2.308146412566506
 10
17.98100089622404
 20
2.308146412566506
 10
17.98331439298675
 20
2.305061750216143
 10
17.98562788974953
 20
2.301591505071957
 10
17.98755580371853
 20
2.298121259927826
 10
17.9892909262906
 20
2.294458223386817
 10
17.99083325746577
 20
2.290602395448861
 10
17.99199000584707
 20
2.28674656751091
 10
17.99276117143472
 20
2.283083530969896
 10
17.9929539628316
 20
2.279227703031943
 10
17.9929539628316
 20
2.101281243696139
 10
18.03960948088064
 20
2.146201639173108
 10
18.03960948088064
 20
2.226017277488418
 10
18.10245947626901
 20
2.226017277488418
 10
18.10650809560391
 20
2.226210068885305
 10
18.11074950633557
 20
2.226402860282187
 10
18.11460533427358
 20
2.226981234472894
 10
18.11865395360836
 20
2.227752400060484
 10
18.12231699014938
 20
2.228909148441843
 10
18.12598002669044
 20
2.230451479617025
 10
18.12945027183463
 20
2.23218660218909
 10
18.13272772558187
 20
2.234307307554975
 10
18.1356195965353
 20
2.236813595714632
 10
18.13812588469495
 20
2.239898258064995
 10
18.14043938145772
 20
2.24317571181224
 10
18.14236729542673
 20
2.247031539750194
 10
18.14371683520497
 20
2.251465741878798
 10
18.14487358358633
 20
2.256285526801224
 10
18.14545195777704
 20
2.261683685914355
 10
18.14545195777704
 20
2.267660219218142
 10
18.14487358358633
 20
2.274022335315748
 10
18.14371683520497
 20
2.279806077222653
 10
18.14178892123597
 20
2.284818653541961
 10
18.13947542447325
 20
2.289252855670564
 10
18.13639076212289
 20
2.293108683608519
 10
18.13311330837565
 20
2.296386137355763
 10
18.12925748043769
 20
2.299085216912303
 10
18.12520886110285
 20
2.301398713675073
 10
18.12058186757731
 20
2.303326627644078
 10
18.11595487405183
 20
2.304868958819259
 10
18.11113508912939
 20
2.306025707200618
 10
18.10612251281008
 20
2.306796872788208
 10
18.10091714509383
 20
2.307568038375797
 10
18.09571177737764
 20
2.307953621169565
 10
18.09069920105833
 20
2.308146412566506
 10
18.08568662473902
 20
2.308146412566506
  0
TEXT
  5
233
330
17
100
AcDbEntity
  8
3
100
AcDbText
 10
16.95925996314663
 20
1.188471811654375
 30
0.0
 40
0.103974
  1
MATERIAL:  ALUMINUM
  7
SIMPLEX
 72
     1
 11
17.84303896314663
 21
1.188471811654375
 31
0.0
100
AcDbText
  0
TEXT
  5
234
330
17
100
AcDbEntity
  8
3
100
AcDbText
 10
17.1667919986704
 20
1.563238027625539
 30
0.0
 40
0.0775076980581849
  1
DWG/PART NO/404000
  7
SIMPLEX
 72
     1
 11
17.84775248875303
 21
1.563238027625539
 31
0.0
100
AcDbText
  0
LWPOLYLINE
  5
235
330
17
100
AcDbEntity
  8
4
  6
Continuous
 62
     4
100
AcDbPolyline
 90
       96
 70
     0
 43
0.0
 10
17.27305689776737
 20
2.104173114649563
 10
17.26997223541702
 20
2.10610102861851
 10
17.26669478166977
 20
2.108414525381283
 10
17.26322453652564
 20
2.111306396334763
 10
17.26013987417528
 20
2.114583850082005
 10
17.2572480032218
 20
2.11824688662302
 10
17.25493450645908
 20
2.122681088751679
 10
17.2533921752839
 20
2.127500873674105
 10
17.25281380109314
 20
2.133091824184126
 10
17.25281380109314
 20
2.260912520326768
 10
17.25242821829937
 20
2.266310679439845
 10
17.25165705271178
 20
2.271323255759154
 10
17.25011472153666
 20
2.276143040681581
 10
17.24818680756766
 20
2.280577242810243
 10
17.24587331080488
 20
2.285011444938845
 10
17.2429814398514
 20
2.288867272876798
 10
17.23970398610416
 20
2.29253030941781
 10
17.23604094956314
 20
2.296000554561997
 10
17.23218512162525
 20
2.299085216912303
 10
17.22794371089347
 20
2.301784296468897
 10
17.22350950876481
 20
2.304097793231668
 10
17.21907530663626
 20
2.3062184985975
 10
17.21425552171384
 20
2.307760829772683
 10
17.20943573679141
 20
2.308917578154094
 10
17.2044231604721
 20
2.309881535138569
 10
17.19941058415273
 20
2.310267117932335
 10
17.19594033900855
 20
2.310267117932335
 10
17.19247009386442
 20
2.310267117932335
 10
17.18919264011717
 20
2.309881535138569
 10
17.18572239497304
 20
2.309495952344748
 10
17.1824449412258
 20
2.308917578154094
 10
17.17897469608167
 20
2.307953621169565
 10
17.17569724233442
 20
2.306989664185093
 10
17.17241978858717
 20
2.306025707200618
 10
17.16914233483993
 20
2.304676167422318
 10
17.16605767248957
 20
2.303326627644078
 10
17.16297301013921
 20
2.301784296468897
 10
17.15988834778884
 20
2.300241965293713
 10
17.15680368543848
 20
2.29831405132477
 10
17.15391181448511
 20
2.296578928752647
 10
17.15101994353164
 20
2.294651014783698
 10
17.14832086397503
 20
2.29253030941781
 10
17.14716411559368
 20
2.295229388974405
 10
17.1456217844185
 20
2.298121259927826
 10
17.14350107905261
 20
2.300820339484423
 10
17.14118758228989
 20
2.303326627644078
 10
17.13887408552707
 20
2.305447333009909
 10
17.13656058876436
 20
2.307182455581973
 10
17.13443988339853
 20
2.308339203963388
 10
17.13289755222334
 20
2.308724786757158
 10
17.08566365998361
 20
2.308724786757158
 10
17.08855553093703
 20
2.306025707200618
 10
17.09183298468427
 20
2.302941044850253
 10
17.09549602122534
 20
2.299278008309243
 10
17.09896626636947
 20
2.295036597577523
 10
17.10224372011672
 20
2.290216812655098
 10
17.10475000827637
 20
2.285204236335728
 10
17.10667792224538
 20
2.279613285825768
 10
17.10725629643603
 20
2.27382954391881
 10
17.10725629643603
 20
2.104365906046445
 10
17.15063436073787
 20
2.139453940281678
 10
17.15063436073787
 20
2.262069268708124
 10
17.15082715213475
 20
2.265153931058485
 10
17.15140552632541
 20
2.26804580201191
 10
17.15256227470682
 20
2.270744881568504
 10
17.15391181448511
 20
2.273443961125042
 10
17.15545414566024
 20
2.276143040681581
 10
17.15738205962925
 20
2.278456537444355
 10
17.15969555639196
 20
2.280770034207125
 10
17.16200905315473
 20
2.282890739573014
 10
17.16470813271127
 20
2.284625862145079
 10
17.16740721226787
 20
2.286168193320259
 10
17.17029908322135
 20
2.287710524495437
 10
17.17319095417477
 20
2.288674481479914
 10
17.17627561652507
 20
2.28963843846439
 10
17.17936027887544
 20
2.290024021258154
 10
17.18225214982891
 20
2.290409604051979
 10
17.18533681217928
 20
2.290216812655098
 10
17.1901565971017
 20
2.289445647067502
 10
17.19478359062725
 20
2.287903315892325
 10
17.19921779275585
 20
2.285782610526435
 10
17.2030736206938
 20
2.282890739573014
 10
17.20635107444105
 20
2.279420494428828
 10
17.20885736260064
 20
2.27537187509399
 10
17.21039969377583
 20
2.270552090171563
 10
17.2109780679666
 20
2.265153931058485
 10
17.2109780679666
 20
2.128272039261698
 10
17.21155644215724
 20
2.123259462942385
 10
17.21309877333242
 20
2.118632469416843
 10
17.2154122700952
 20
2.114583850082005
 10
17.21868972384238
 20
2.111113604937879
 10
17.22254555178039
 20
2.108221733984398
 10
17.226979753909
 20
2.105908237221628
 10
17.23179953883143
 20
2.104558697443386
 10
17.23700490654762
 20
2.104173114649563
 10
17.27305689776737
 20
2.104173114649563
  0
LWPOLYLINE
  5
297
330
17
100
AcDbEntity
  8
4
  6
Continuous
100
AcDbPolyline
 90
      271
 70
     0
 43
0.0
 10
16.83429574504231
 20
2.226788443076009
 10
16.83159666548577
 20
2.228330774251193
 10
16.82889758592917
 20
2.229680314029435
 10
16.82600571497575
 20
2.230837062410848
 10
16.82330663541921
 20
2.231993810792204
 10
16.82041476446574
 20
2.233150559173564
 10
16.81752289351226
 20
2.233921724761154
 10
16.81463102255882
 20
2.234885681745685
 10
16.81173915160541
 20
2.235656847333276
 10
16.80865448925505
 20
2.236235221523928
 10
16.80576261830157
 20
2.23662080431775
 10
16.80248516455433
 20
2.237006387111517
 10
16.79940050220396
 20
2.237391969905339
 10
16.79612304845672
 20
2.237584761302223
 10
16.79284559470947
 20
2.237584761302223
 10
16.78956814096222
 20
2.237584761302223
 10
16.78609789581809
 20
2.237391969905339
 10
16.74059912615042
 20
2.196905776556975
 10
16.74406937129455
 20
2.197676942144568
 10
16.74753961643868
 20
2.198448107732156
 10
16.75100986158286
 20
2.199219273319747
 10
16.75448010672705
 20
2.199797647510453
 10
16.75795035187119
 20
2.200376021701103
 10
16.76142059701532
 20
2.20076160449493
 10
16.76489084215944
 20
2.201147187288695
 10
16.76855387870045
 20
2.20133997868558
 10
16.77202412384458
 20
2.201532770082518
 10
16.77549436898877
 20
2.201532770082518
 10
16.77896461413296
 20
2.201532770082518
 10
16.78243485927708
 20
2.20133997868558
 10
16.78590510442121
 20
2.200954395891809
 10
16.78937534956534
 20
2.200376021701103
 10
16.79284559470947
 20
2.199797647510453
 10
16.7963158398536
 20
2.199026481922865
 10
16.79862933661643
 20
2.198255316335274
 10
16.80113562477603
 20
2.197676942144568
 10
16.8034491215388
 20
2.196712985160091
 10
16.80576261830157
 20
2.195941819572503
 10
16.80807611506434
 20
2.194977862588026
 10
16.81038961182711
 20
2.194013905603496
 10
16.81251031719294
 20
2.192857157222139
 10
16.81482381395577
 20
2.191700408840784
 10
16.81694451932161
 20
2.190350869062485
 10
16.81887243329056
 20
2.189001329284185
 10
16.8208003472595
 20
2.187651789505946
 10
16.8227282612285
 20
2.186109458330765
 10
16.82446338380058
 20
2.1843743357587
 10
16.82619850637263
 20
2.182639213186635
 10
16.82774083754782
 20
2.180711299217628
 10
16.829283168723
 20
2.178783385248681
 10
16.83159666548577
 20
2.175313140104496
 10
16.83352457945472
 20
2.1714573121666
 10
16.83487411923302
 20
2.167601484228648
 10
16.83583807621749
 20
2.163360073496928
 10
16.8364164504082
 20
2.159311454162093
 10
16.83622365901132
 20
2.155070043430372
 10
16.83525970202678
 20
2.151021424095536
 10
16.83371737085161
 20
2.147165596157583
 10
16.83140387408888
 20
2.143695351013453
 10
16.82870479453229
 20
2.140803480059974
 10
16.82562013218193
 20
2.13829719190032
 10
16.82195709564091
 20
2.136176486534429
 10
16.81810126770302
 20
2.134441363962364
 10
16.81424543976502
 20
2.133091824184126
 10
16.81000402903334
 20
2.13193507580271
 10
16.80595540969846
 20
2.13116391021512
 10
16.80402749572951
 20
2.130971118818238
 10
16.80190679036368
 20
2.130585536024469
 10
16.79997887639467
 20
2.130392744627529
 10
16.79785817102878
 20
2.130392744627529
 10
16.79573746566295
 20
2.130199953230646
 10
16.79380955169401
 20
2.130199953230646
 10
16.79168884632806
 20
2.130199953230646
 10
16.78956814096222
 20
2.130199953230646
 10
16.78764022699328
 20
2.130199953230646
 10
16.78551952162745
 20
2.130392744627529
 10
16.7833988162615
 20
2.130392744627529
 10
16.78127811089567
 20
2.130778327421352
 10
16.77935019692672
 20
2.130971118818238
 10
16.77722949156083
 20
2.131356701612061
 10
16.77530157759183
 20
2.131742284405826
 10
16.77318087222599
 20
2.132127867199594
 10
16.77086737546328
 20
2.132706241390299
 10
16.76855387870045
 20
2.133284615581009
 10
16.76643317333462
 20
2.134055781168598
 10
16.76411967657185
 20
2.13482694675619
 10
16.76199897120596
 20
2.135790903740663
 10
16.75987826584013
 20
2.136754860725138
 10
16.75775756047424
 20
2.137911609106551
 10
16.75563685510836
 20
2.139068357487909
 10
16.7537089411394
 20
2.140225105869268
 10
16.75158823577357
 20
2.141574645647564
 10
16.74966032180457
 20
2.142924185425864
 10
16.74773240783556
 20
2.144273725204103
 10
16.74580449386661
 20
2.1456232649824
 10
16.74406937129455
 20
2.147165596157583
 10
16.74214145732561
 20
2.148707927332762
 10
16.74040633475354
 20
2.150250258507944
 10
16.73751446380006
 20
2.153142129461365
 10
16.73481538424352
 20
2.15622679181173
 10
16.73211630468698
 20
2.159311454162093
 10
16.72941722513039
 20
2.162396116512454
 10
16.72691093697079
 20
2.16548077886276
 10
16.72459744020796
 20
2.168758232610004
 10
16.72209115204836
 20
2.17222847775419
 10
16.71997044668242
 20
2.175505931501434
 10
16.71784974131659
 20
2.178976176645563
 10
16.71592182734763
 20
2.182639213186635
 10
16.71418670477557
 20
2.186109458330765
 10
16.71245158220351
 20
2.189772494871775
 10
16.71090925102832
 20
2.193628322809729
 10
16.70975250264692
 20
2.197291359350744
 10
16.70859575426555
 20
2.20133997868558
 10
16.70763179728109
 20
2.205195806623533
 10
16.70628225750279
 20
2.214064210880794
 10
16.70570388331213
 20
2.223318197931825
 10
16.70628225750279
 20
2.232572184982913
 10
16.70782458867797
 20
2.241440589240174
 10
16.71052366823451
 20
2.249923410703615
 10
16.71457228756934
 20
2.257635066579521
 10
16.71977765528553
 20
2.264575556867779
 10
16.72633256278002
 20
2.270166507377798
 10
16.72864605954285
 20
2.271516047156096
 10
16.73095955630557
 20
2.272672795537451
 10
16.73346584446528
 20
2.27382954391881
 10
16.73577934122799
 20
2.274793500903338
 10
16.73828562938771
 20
2.275564666490931
 10
16.74098470894418
 20
2.276335832078522
 10
16.7434909971039
 20
2.276914206269173
 10
16.74619007666044
 20
2.277299789062996
 10
16.74869636482009
 20
2.277685371856763
 10
16.75139544437669
 20
2.277878163253646
 10
16.75409452393317
 20
2.277878163253646
 10
16.75679360348977
 20
2.277878163253646
 10
16.75949268304636
 20
2.277878163253646
 10
16.76219176260284
 20
2.277685371856763
 10
16.76469805076256
 20
2.277299789062996
 10
16.7673971303191
 20
2.276914206269173
 10
16.77086737546328
 20
2.276335832078522
 10
16.77433762060741
 20
2.275564666490931
 10
16.77780786575153
 20
2.274793500903338
 10
16.78108531949879
 20
2.273636752521925
 10
16.78436277324603
 20
2.272480004140569
 10
16.78764022699328
 20
2.271130464362272
 10
16.79091768074052
 20
2.269780924584031
 10
16.79419513448777
 20
2.26823859340885
 10
16.79727979683813
 20
2.266503470836727
 10
16.80017166779161
 20
2.264768348264664
 10
16.80325633014192
 20
2.262647642898833
 10
16.80614820109534
 20
2.260719728929826
 10
16.80904007204881
 20
2.258406232167109
 10
16.81173915160541
 20
2.256285526801224
 10
16.81443823116195
 20
2.253779238641568
 10
16.81694451932161
 20
2.251272950481915
 10
16.85261092774755
 20
2.270552090171563
 10
16.85029743098471
 20
2.274793500903338
 10
16.84759835142823
 20
2.278649328841234
 10
16.84451368907787
 20
2.282312365382308
 10
16.84104344393374
 20
2.285589819129549
 10
16.83738040739267
 20
2.288674481479914
 10
16.83333178805783
 20
2.291373561036454
 10
16.829283168723
 20
2.293879849196108
 10
16.82504175799128
 20
2.296193345958882
 10
16.82176430424403
 20
2.297735677134061
 10
16.8182940590999
 20
2.299278008309243
 10
16.81501660535265
 20
2.300627548087482
 10
16.81154636020853
 20
2.301784296468897
 10
16.8078833236674
 20
2.302941044850253
 10
16.80441307852326
 20
2.303712210437845
 10
16.80075004198226
 20
2.304483376025437
 10
16.79708700544125
 20
2.305061750216143
 10
16.79342396890018
 20
2.305447333009909
 10
16.78976093235911
 20
2.305640124406852
 10
16.78590510442121
 20
2.305832915803732
 10
16.78224206788019
 20
2.305832915803732
 10
16.77857903133908
 20
2.305640124406852
 10
16.77491599479806
 20
2.305254541613029
 10
16.77125295825705
 20
2.304676167422318
 10
16.76758992171598
 20
2.30390500183473
 10
16.76411967657185
 20
2.303133836247141
 10
16.76084222282461
 20
2.301977087865783
 10
16.75737197768042
 20
2.300820339484423
 10
16.75409452393317
 20
2.299663591103009
 10
16.75100986158286
 20
2.298121259927826
 10
16.74773240783556
 20
2.296578928752647
 10
16.74464774548526
 20
2.294843806180584
 10
16.74156308313495
 20
2.293108683608519
 10
16.73847842078459
 20
2.291180769639568
 10
16.73558654983111
 20
2.289252855670564
 10
16.73269467887764
 20
2.287132150304735
 10
16.72980280792421
 20
2.285011444938845
 10
16.72691093697079
 20
2.282697948176074
 10
16.72421185741419
 20
2.280384451413357
 10
16.72131998646071
 20
2.278070954650584
 10
16.71862090690417
 20
2.275757457887813
 10
16.71476507896622
 20
2.272287212743686
 10
16.71110204242521
 20
2.268816967599498
 10
16.7074390058842
 20
2.265153931058485
 10
16.70396876074001
 20
2.261298103120533
 10
16.70049851559588
 20
2.257442275182582
 10
16.69722106184863
 20
2.253586447244684
 10
16.69413639949827
 20
2.24953782790985
 10
16.69105173714797
 20
2.245296417178074
 10
16.68835265759137
 20
2.241055006446351
 10
16.68565357803478
 20
2.23662080431775
 10
16.68314728987518
 20
2.23218660218909
 10
16.68102658450924
 20
2.227559608663602
 10
16.67909867054028
 20
2.222932615138056
 10
16.67736354796822
 20
2.21811283021563
 10
16.67582121679304
 20
2.213293045293207
 10
16.67466446841169
 20
2.208280468973891
 10
16.67350772003032
 20
2.201532770082518
 10
16.67292934583961
 20
2.194592279794204
 10
16.67273655444268
 20
2.187844580902829
 10
16.67292934583961
 20
2.180904090614514
 10
16.67370051142721
 20
2.174156391723137
 10
16.67505005120551
 20
2.167408692831764
 10
16.67678517377757
 20
2.160660993940389
 10
16.67909867054028
 20
2.15429887784278
 10
16.68064100171547
 20
2.150828632698593
 10
16.68237612428753
 20
2.147358387554464
 10
16.68411124685959
 20
2.144080933807218
 10
16.68623195222554
 20
2.140996271456856
 10
16.68835265759137
 20
2.137911609106551
 10
16.69066615435409
 20
2.13482694675619
 10
16.6931724425138
 20
2.13193507580271
 10
16.69567873067346
 20
2.129235996246169
 10
16.69837781023
 20
2.126536916689635
 10
16.70126968118347
 20
2.124030628529979
 10
16.70416155213695
 20
2.121524340370263
 10
16.70705342309031
 20
2.119210843607553
 10
16.71013808544068
 20
2.117090138241663
 10
16.71341553918792
 20
2.115162224272715
 10
16.71669299293517
 20
2.113234310303711
 10
16.71997044668242
 20
2.111499187731646
 10
16.72768210255832
 20
2.108221733984398
 10
16.73558654983111
 20
2.10552265442786
 10
16.74368378850079
 20
2.103594740458855
 10
16.75197381856734
 20
2.10205240928373
 10
16.7602638486339
 20
2.101281243696139
 10
16.76855387870045
 20
2.100895660902318
 10
16.77684390876701
 20
2.101281243696139
 10
16.7853267302305
 20
2.102245200680616
 10
16.79342396890018
 20
2.103787531855793
 10
16.80132841617291
 20
2.105908237221628
 10
16.8092328634457
 20
2.108800108175107
 10
16.81675172792473
 20
2.11207756192235
 10
16.82388500960986
 20
2.116126181257188
 10
16.83063270850124
 20
2.120753174782731
 10
16.83699482459885
 20
2.125958542498926
 10
16.84297135790268
 20
2.131742284405826
 10
16.84740556003135
 20
2.13694765212202
 10
16.85145417936613
 20
2.142538602632039
 10
16.85511721590714
 20
2.148129553142054
 10
16.8582018782575
 20
2.15429887784278
 10
16.8609009578141
 20
2.160468202543448
 10
16.86302166317993
 20
2.166830318641054
 10
16.86437120295823
 20
2.173385226135548
 10
16.86533515994276
 20
2.180132925026923
 10
16.86552795133964
 20
2.185531084140058
 10
16.86514236854582
 20
2.19073645185625
 10
16.86417841156134
 20
2.195941819572503
 10
16.86244328898928
 20
2.201147187288695
 10
16.86012979222651
 20
2.205388598020415
 10
16.85743071266997
 20
2.209244425958369
 10
16.85415325892272
 20
2.212907462499436
 10
16.85068301377854
 20
2.216184916246684
 10
16.84682718584058
 20
2.219076787200107
 10
16.84277856650581
 20
2.221968658153587
 10
16.83853715577402
 20
2.22447494631324
 10
16.83429574504231
 20
2.226788443076009
  0
LWPOLYLINE
  5
3A8
330
17
100
AcDbEntity
  8
4
  6
Continuous
100
AcDbPolyline
 90
       83
 70
     0
 43
0.0
 10
16.4089939653098
 20
2.282890739573014
 10
16.40590930295944
 20
2.285782610526435
 10
16.40282464060907
 20
2.288674481479914
 10
16.39973997825877
 20
2.291373561036454
 10
16.39646252451153
 20
2.293879849196108
 10
16.39299227936734
 20
2.296000554561997
 10
16.38913645142944
 20
2.297928468530945
 10
16.38489504069767
 20
2.299663591103009
 10
16.38007525577524
 20
2.300820339484423
 10
16.29023446482131
 20
2.251080159085029
 10
16.28984888202754
 20
2.122873880148564
 10
16.29004167342442
 20
2.120753174782731
 10
16.29042725621818
 20
2.118439678019959
 10
16.29119842180584
 20
2.116511764050955
 10
16.29216237879025
 20
2.114583850082005
 10
16.29331912717167
 20
2.11284872750994
 10
16.29466866694996
 20
2.111113604937879
 10
16.29621099812515
 20
2.109764065159581
 10
16.29794612069721
 20
2.108414525381283
 10
16.30083799165069
 20
2.106679402809216
 10
16.30392265400099
 20
2.105137071634036
 10
16.30700731635136
 20
2.103787531855793
 10
16.3102847700986
 20
2.102630783474383
 10
16.31356222384585
 20
2.101859617886793
 10
16.31683967759309
 20
2.101088452299201
 10
16.32030992273723
 20
2.100510078108551
 10
16.32378016788141
 20
2.099931703917842
 10
16.32725041302554
 20
2.09973891252096
 10
16.33072065816967
 20
2.099546121124018
 10
16.33419090331379
 20
2.099546121124018
 10
16.33785393985481
 20
2.09973891252096
 10
16.341324184999
 20
2.099931703917842
 10
16.34479443014318
 20
2.100317286711609
 10
16.34826467528731
 20
2.100702869505433
 10
16.35173492043144
 20
2.101281243696139
 10
16.35578353976628
 20
2.101859617886793
 10
16.35983215910111
 20
2.102823574871266
 10
16.36368798703901
 20
2.103787531855793
 10
16.36754381497702
 20
2.104944280237154
 10
16.37139964291491
 20
2.106293820015451
 10
16.37525547085281
 20
2.107836151190634
 10
16.37891850739394
 20
2.109571273762698
 10
16.38258154393495
 20
2.111306396334763
 10
16.38605178907908
 20
2.113234310303711
 10
16.38971482562009
 20
2.115355015669599
 10
16.39299227936734
 20
2.117668512432369
 10
16.39646252451153
 20
2.119982009195143
 10
16.39973997825877
 20
2.122488297354796
 10
16.40282464060907
 20
2.12499458551445
 10
16.40590930295944
 20
2.127693665070991
 10
16.4089939653098
 20
2.130392744627529
 10
16.41381375023223
 20
2.13540532094684
 10
16.41824795236088
 20
2.14061068866309
 10
16.42248936309261
 20
2.146008847776168
 10
16.42615239963368
 20
2.151792589683124
 10
16.42962264477781
 20
2.157961914383795
 10
16.43270730712817
 20
2.164131239084516
 10
16.43521359528777
 20
2.170493355182127
 10
16.4375270920506
 20
2.177048262676616
 10
16.43926221462266
 20
2.183603170171108
 10
16.44061175440089
 20
2.190543660459364
 10
16.44157571138537
 20
2.197291359350744
 10
16.44215408557609
 20
2.20423184963906
 10
16.44234687697296
 20
2.210979548530433
 10
16.44196129417914
 20
2.217920038818748
 10
16.4411901285916
 20
2.224860529107008
 10
16.44003338021019
 20
2.231608227998437
 10
16.43906942322572
 20
2.235271264539453
 10
16.43810546624124
 20
2.23893430108052
 10
16.43694871785983
 20
2.242597337621535
 10
16.43559917808159
 20
2.246067582765664
 10
16.43405684690641
 20
2.24953782790985
 10
16.43232172433435
 20
2.253008073053978
 10
16.43058660176222
 20
2.256285526801224
 10
16.42865868779327
 20
2.25956298054847
 10
16.42653798242744
 20
2.262840434295714
 10
16.42422448566467
 20
2.265925096646079
 10
16.4219109889019
 20
2.26900975899644
 10
16.41959749213913
 20
2.271901629949863
 10
16.41709120397947
 20
2.274793500903338
 10
16.41439212442293
 20
2.277492580459878
 10
16.41169304486639
 20
2.28019166001642
 10
16.4089939653098
 20
2.282890739573014
  0
LWPOLYLINE
  5
3FD
330
17
100
AcDbEntity
  8
4
  6
Continuous
100
AcDbPolyline
 90
       61
 70
     0
 43
0.0
 10
16.59713170743924
 20
2.21811283021563
 10
16.6027226579492
 20
2.218498413009458
 10
16.60812081706233
 20
2.219269578597045
 10
16.6129406019847
 20
2.220426326978403
 10
16.61737480411336
 20
2.221968658153587
 10
16.62123063205132
 20
2.22389657212253
 10
16.62489366859239
 20
2.226017277488418
 10
16.62817112233963
 20
2.228523565648076
 10
16.63106299329306
 20
2.231415436601499
 10
16.63356928145271
 20
2.234500098951861
 10
16.63568998681854
 20
2.237777552699105
 10
16.63742510939066
 20
2.241247797843235
 10
16.6387746491689
 20
2.245103625781188
 10
16.63993139755031
 20
2.248959453719141
 10
16.64070256313785
 20
2.253008073053978
 10
16.64108814593173
 20
2.257249483785698
 10
16.64128093732862
 20
2.261683685914355
 10
16.64108814593173
 20
2.265732305249193
 10
16.64031698034408
 20
2.269780924584031
 10
16.63935302335961
 20
2.273636752521925
 10
16.63781069218443
 20
2.277492580459878
 10
16.63607556961236
 20
2.281155617000892
 10
16.63395486424647
 20
2.284625862145079
 10
16.63144857608688
 20
2.287903315892325
 10
16.62874949653028
 20
2.290987978242688
 10
16.62566483417992
 20
2.293687057799225
 10
16.62238738043267
 20
2.296193345958882
 10
16.61910992668543
 20
2.29831405132477
 10
16.61544689014441
 20
2.300241965293713
 10
16.61159106220646
 20
2.301784296468897
 10
16.60773523426851
 20
2.302748253453372
 10
16.60368661493373
 20
2.303519419040962
 10
16.59963799559883
 20
2.303712210437845
 10
16.464684017771
 20
2.303712210437845
 10
16.46661193174
 20
2.302169879262665
 10
16.46834705431207
 20
2.300627548087482
 10
16.47008217688419
 20
2.298892425515417
 10
16.47162450805937
 20
2.297350094340238
 10
16.47316683923449
 20
2.295807763165059
 10
16.47470917040967
 20
2.293879849196108
 10
16.47605871018791
 20
2.291951935227161
 10
16.47740824996621
 20
2.28963843846439
 10
16.47933616393516
 20
2.28539702773267
 10
16.48087849511034
 20
2.280384451413357
 10
16.48184245209488
 20
2.275564666490931
 10
16.48222803488864
 20
2.271708838552978
 10
16.48242082628552
 20
2.098389372742663
 10
16.52888355293773
 20
2.139068357487909
 10
16.52888355293773
 20
2.21946236999393
 10
16.54931944100874
 20
2.219655161390813
 10
16.61891713528854
 20
2.104365906046445
 10
16.6788752597235
 20
2.103980323252681
 10
16.67521222318243
 20
2.10610102861851
 10
16.67154918664142
 20
2.108607316778223
 10
16.66807894149723
 20
2.111113604937879
 10
16.6646086963531
 20
2.114005475891301
 10
16.66133124260586
 20
2.11670455544784
 10
16.6582465802555
 20
2.119789217798199
 10
16.65516191790513
 20
2.122873880148564
 10
16.65207725555477
 20
2.126151333895808
 10
16.59713170743924
 20
2.21811283021563
  0
LWPOLYLINE
  5
43C
330
17
100
AcDbEntity
  8
4
  6
Continuous
100
AcDbPolyline
 90
       59
 70
     0
 43
0.0
 10
16.33072065816967
 20
2.249730619306729
 10
16.35038538065314
 20
2.264768348264664
 10
16.35347004300351
 20
2.264575556867779
 10
16.35636191395698
 20
2.264189974074014
 10
16.35925378491041
 20
2.26341880848642
 10
16.36195286446694
 20
2.262647642898833
 10
16.36484473542042
 20
2.261490894517416
 10
16.36754381497702
 20
2.260141354739174
 10
16.37005010313662
 20
2.258599023563997
 10
16.37255639129633
 20
2.256863900991931
 10
16.37486988805903
 20
2.255128778419811
 10
16.37718338482182
 20
2.253200864450858
 10
16.37949688158459
 20
2.251272950481915
 10
16.38161758695042
 20
2.249152245116022
 10
16.38354550091943
 20
2.247031539750194
 10
16.38547341488843
 20
2.244910834384306
 10
16.38720853746049
 20
2.242982920415356
 10
16.38875086863562
 20
2.24086221504947
 10
16.39414902774875
 20
2.232379393586029
 10
16.39839043848047
 20
2.223510989328766
 10
16.40147510083084
 20
2.214064210880794
 10
16.40359580619672
 20
2.204424641035941
 10
16.40494534597497
 20
2.194592279794204
 10
16.40552372016567
 20
2.184567127155581
 10
16.40590930295944
 20
2.174541974516963
 10
16.40571651156255
 20
2.164516821878287
 10
16.40533092876879
 20
2.159311454162093
 10
16.40436697178425
 20
2.15429887784278
 10
16.40282464060907
 20
2.149479092920353
 10
16.40089672664013
 20
2.14485209939481
 10
16.39858322987735
 20
2.140417897266206
 10
16.39569135892394
 20
2.136176486534429
 10
16.39260669657357
 20
2.132320658596534
 10
16.38913645142944
 20
2.128657622055465
 10
16.38528062349149
 20
2.125380168308218
 10
16.38142479555353
 20
2.122295505957857
 10
16.37718338482182
 20
2.11959642640132
 10
16.3729419740901
 20
2.117090138241663
 10
16.36870056335832
 20
2.114969432875773
 10
16.36426636122978
 20
2.113427101700594
 10
16.35983215910111
 20
2.11207756192235
 10
16.35559074836934
 20
2.111113604937879
 10
16.35308446020974
 20
2.111306396334763
 10
16.35057817205003
 20
2.111499187731646
 10
16.34807188389043
 20
2.11207756192235
 10
16.3457583871276
 20
2.11284872750994
 10
16.34344489036488
 20
2.113812684494416
 10
16.341324184999
 20
2.114969432875773
 10
16.33920347963311
 20
2.116511764050955
 10
16.33746835706105
 20
2.118054095226134
 10
16.33554044309209
 20
2.119982009195143
 10
16.33419090331379
 20
2.122102714560974
 10
16.33303415493244
 20
2.124416211323745
 10
16.33207019794796
 20
2.1269224994834
 10
16.33149182375726
 20
2.129428787643055
 10
16.33110624096343
 20
2.132127867199594
 10
16.33072065816967
 20
2.13482694675619
 10
16.33072065816967
 20
2.137526026312726
 10
16.33072065816967
 20
2.249730619306729
  0
LWPOLYLINE
  5
479
330
17
100
AcDbEntity
  8
4
  6
Continuous
100
AcDbPolyline
 90
      114
 70
     0
 43
0.0
 10
17.06516921243861
 20
2.103980323252681
 10
17.06304850707278
 20
2.105715445824746
 10
17.06092780170688
 20
2.108221733984398
 10
17.058807096341
 20
2.111691979128529
 10
17.05668639097517
 20
2.115933389860304
 10
17.05475847700622
 20
2.120945966179614
 10
17.05321614583104
 20
2.127115290880283
 10
17.05205939744963
 20
2.134248572565482
 10
17.05128823186209
 20
2.142345811235156
 10
17.05128823186209
 20
2.269973715980915
 10
17.05109544046521
 20
2.273443961125042
 10
17.05032427487756
 20
2.277106997666114
 10
17.04897473509927
 20
2.280770034207125
 10
17.04704682113031
 20
2.284240279351255
 10
17.04454053297067
 20
2.287710524495437
 10
17.0414558706203
 20
2.291180769639568
 10
17.03798562547617
 20
2.294458223386817
 10
17.03393700614133
 20
2.297735677134061
 10
17.02950280401267
 20
2.300627548087482
 10
17.02449022769336
 20
2.303326627644078
 10
17.0188992771834
 20
2.305640124406852
 10
17.01311553527644
 20
2.307760829772683
 10
17.00656062778195
 20
2.309303160947864
 10
16.99981292889058
 20
2.310652700726159
 10
16.99248685580849
 20
2.31142386631375
 10
16.98477519993264
 20
2.311809449107518
 10
16.97648516986609
 20
2.31142386631375
 10
16.96838793119642
 20
2.310267117932335
 10
16.96048348392363
 20
2.307953621169565
 10
16.95296461944461
 20
2.305061750216143
 10
16.94583133775947
 20
2.301205922278189
 10
16.93889084747121
 20
2.296771720149584
 10
16.9325287313736
 20
2.291566352433338
 10
16.92655219806975
 20
2.285782610526435
 10
16.92115403895668
 20
2.279420494428828
 10
16.91614146263737
 20
2.272672795537451
 10
16.91190005190559
 20
2.265539513852254
 10
16.90842980676147
 20
2.258020649373288
 10
16.90553793580798
 20
2.250116202100497
 10
16.90341723044214
 20
2.242018963430826
 10
16.90206769066385
 20
2.23372893336427
 10
16.90168210787009
 20
2.225246111900831
 10
16.90168210787009
 20
2.13116391021512
 10
16.90129652507626
 20
2.125187376911335
 10
16.89994698529802
 20
2.120174800592026
 10
16.89821186272596
 20
2.115933389860304
 10
16.89589836596313
 20
2.112463144716119
 10
16.89358486920041
 20
2.109764065159581
 10
16.89127137243764
 20
2.10745056839681
 10
16.88895787567487
 20
2.105715445824746
 10
16.88722275310281
 20
2.104173114649563
 10
16.92809452924494
 20
2.104173114649563
 10
16.93349268835801
 20
2.104944280237154
 10
16.93811968188356
 20
2.1068721942061
 10
16.94216830121845
 20
2.109764065159581
 10
16.94563854636258
 20
2.113619893097534
 10
16.948530417316
 20
2.117861303829254
 10
16.95065112268189
 20
2.122488297354796
 10
16.95200066246019
 20
2.127308082277223
 10
16.95277182804772
 20
2.132127867199594
 10
16.95315741084149
 20
2.139068357487909
 10
16.95219345385707
 20
2.146201639173108
 10
16.95084391407877
 20
2.153142129461365
 10
16.94910879150671
 20
2.159889828352795
 10
16.94679529474394
 20
2.169529398197596
 10
16.94467458937805
 20
2.179168968042449
 10
16.94274667540911
 20
2.188808537887301
 10
16.94081876144016
 20
2.198448107732156
 10
16.93908363886809
 20
2.208087677577013
 10
16.93773409908979
 20
2.217920038818748
 10
16.93657735070838
 20
2.227559608663602
 10
16.93580618512084
 20
2.237391969905339
 10
16.93561339372396
 20
2.24548920857501
 10
16.93619176791461
 20
2.253779238641568
 10
16.9375413076929
 20
2.26187647731124
 10
16.93966201305874
 20
2.269780924584031
 10
16.94274667540911
 20
2.277106997666114
 10
16.94679529474394
 20
2.283854696557489
 10
16.95180787106325
 20
2.28963843846439
 10
16.95816998716086
 20
2.294458223386817
 10
16.96183302370193
 20
2.296386137355763
 10
16.96568885163982
 20
2.297735677134061
 10
16.96973747097466
 20
2.298699634118535
 10
16.97378609030949
 20
2.299278008309243
 10
16.97802750104127
 20
2.299278008309243
 10
16.98226891177294
 20
2.298699634118535
 10
16.98631753110783
 20
2.297735677134061
 10
16.99036615044261
 20
2.296386137355763
 10
16.99402918698368
 20
2.294458223386817
 10
16.99749943212786
 20
2.292144726624044
 10
17.00077688587505
 20
2.289252855670564
 10
17.00347596543159
 20
2.285975401923318
 10
17.00578946219442
 20
2.282312365382308
 10
17.00771737616336
 20
2.278070954650584
 10
17.00906691594166
 20
2.273443961125042
 10
17.00964529013231
 20
2.268431384805733
 10
17.00964529013231
 20
2.131549493008944
 10
17.0098380815292
 20
2.128272039261698
 10
17.0104164557199
 20
2.125380168308218
 10
17.01138041270438
 20
2.122488297354796
 10
17.01253716108579
 20
2.119789217798199
 10
17.01407949226098
 20
2.117475721035432
 10
17.01581461483304
 20
2.115162224272715
 10
17.01774252880199
 20
2.113041518906828
 10
17.02005602556476
 20
2.111113604937879
 10
17.02256231372441
 20
2.109571273762698
 10
17.02506860188407
 20
2.108028942587516
 10
17.02776768144061
 20
2.1068721942061
 10
17.03065955239409
 20
2.105908237221628
 10
17.03355142334757
 20
2.104944280237154
 10
17.03663608569793
 20
2.104365906046445
 10
17.03952795665134
 20
2.104173114649563
 10
17.04261261900166
 20
2.103980323252681
 10
17.06516921243861
 20
2.103980323252681
  0
LWPOLYLINE
  5
4ED
330
17
100
AcDbEntity
  8
4
  6
Continuous
100
AcDbPolyline
 90
        5
 70
     0
 43
0.0
 10
17.00405433962236
 20
2.205388598020415
 10
16.94756646033153
 20
2.241440589240174
 10
16.94756646033153
 20
2.206159763608003
 10
17.00424713101924
 20
2.175698722898321
 10
17.00405433962236
 20
2.205388598020415
  0
LWPOLYLINE
  5
4F4
330
17
100
AcDbEntity
  8
4
  6
Continuous
100
AcDbPolyline
 90
       21
 70
     0
 43
0.0
 10
16.59636054185159
 20
2.261683685914355
 10
16.59578216766093
 20
2.255707152610517
 10
16.59404704508888
 20
2.250116202100497
 10
16.59134796553228
 20
2.245296417178074
 10
16.58768492899127
 20
2.241055006446351
 10
16.58325072686261
 20
2.237584761302223
 10
16.5782381505433
 20
2.235078473142567
 10
16.57264720003334
 20
2.233536141967388
 10
16.56686345812637
 20
2.232957767776678
 10
16.52811238735008
 20
2.232957767776678
 10
16.52811238735008
 20
2.282505156779186
 10
16.52425655941218
 20
2.291951935227161
 10
16.56763462371396
 20
2.291951935227161
 10
16.57341836562087
 20
2.291373561036454
 10
16.57900931613089
 20
2.28963843846439
 10
16.58382910105331
 20
2.286939358907849
 10
16.58807051178504
 20
2.283276322366779
 10
16.59154075692916
 20
2.278649328841234
 10
16.59404704508888
 20
2.273636752521925
 10
16.59578216766093
 20
2.267853010615024
 10
16.59636054185159
 20
2.261683685914355
  0
LWPOLYLINE
  5
50B
330
17
100
AcDbEntity
  8
4
  6
Continuous
100
AcDbPolyline
 90
      213
 70
     0
 43
0.0
 10
17.55569578864184
 20
2.296771720149584
 10
17.55126158651329
 20
2.298506842721649
 10
17.54682738438463
 20
2.300049173896833
 10
17.54239318225597
 20
2.301398713675073
 10
17.53776618873048
 20
2.302555462056489
 10
17.53313919520494
 20
2.303326627644078
 10
17.52851220167945
 20
2.304097793231668
 10
17.52388520815391
 20
2.304676167422318
 10
17.51925821462837
 20
2.305061750216143
 10
17.51443842970594
 20
2.305254541613029
 10
17.5098114361804
 20
2.305254541613029
 10
17.50499165125797
 20
2.305061750216143
 10
17.50036465773249
 20
2.304676167422318
 10
17.49554487281006
 20
2.304097793231668
 10
17.49091787928452
 20
2.303519419040962
 10
17.48629088575902
 20
2.302555462056489
 10
17.48166389223348
 20
2.301591505071957
 10
17.47356665356381
 20
2.299085216912303
 10
17.46566220629102
 20
2.29542218037129
 10
17.45814334181206
 20
2.291180769639568
 10
17.45081726872998
 20
2.285975401923318
 10
17.4440695698386
 20
2.28019166001642
 10
17.43770745374099
 20
2.273636752521925
 10
17.43211650323097
 20
2.266696262233669
 10
17.42710392691166
 20
2.259370189151586
 10
17.42305530757683
 20
2.251658533275681
 10
17.41997064522646
 20
2.243561294606005
 10
17.41765714846369
 20
2.235464055936331
 10
17.41669319147922
 20
2.227174025869778
 10
17.4168859828761
 20
2.218883995803224
 10
17.4182355226544
 20
2.210593965736666
 10
17.42093460221099
 20
2.202496727066995
 10
17.42517601294265
 20
2.194785071191088
 10
17.42613996992719
 20
2.193628322809729
 10
17.42729671830854
 20
2.192664365825254
 10
17.4284534666899
 20
2.191893200237664
 10
17.4298030064682
 20
2.191122034650073
 10
17.43115254624649
 20
2.19073645185625
 10
17.4325020860248
 20
2.190543660459364
 10
17.43404441719998
 20
2.190543660459364
 10
17.43558674837516
 20
2.19092924325319
 10
17.49033950509381
 20
2.20133997868558
 10
17.49342416744417
 20
2.201918352876286
 10
17.49650882979453
 20
2.202303935670107
 10
17.49978628354178
 20
2.20288230986076
 10
17.50287094589214
 20
2.203075101257699
 10
17.50614839963938
 20
2.203460684051468
 10
17.50923306198975
 20
2.20365347544835
 10
17.51231772434011
 20
2.20365347544835
 10
17.51559517808735
 20
2.20365347544835
 10
17.51867984043771
 20
2.203460684051468
 10
17.52176450278802
 20
2.203267892654583
 10
17.52484916513838
 20
2.20288230986076
 10
17.52793382748869
 20
2.202303935670107
 10
17.53082569844217
 20
2.201532770082518
 10
17.53391036079253
 20
2.20076160449493
 10
17.53680223174601
 20
2.199604856113513
 10
17.53969410269943
 20
2.198448107732156
 10
17.54624901019393
 20
2.194399488397321
 10
17.55106879511635
 20
2.188615746490421
 10
17.5543462488636
 20
2.181868047598988
 10
17.5562741628326
 20
2.174156391723137
 10
17.55646695422948
 20
2.166059153053465
 10
17.55511741445119
 20
2.157769122986909
 10
17.55241833489465
 20
2.150057467111004
 10
17.54836971555981
 20
2.142924185425864
 10
17.54547784460634
 20
2.139646731678616
 10
17.54258597365285
 20
2.13636927793137
 10
17.53911572850872
 20
2.133670198374774
 10
17.53564548336459
 20
2.13116391021512
 10
17.53198244682359
 20
2.128850413452346
 10
17.52793382748869
 20
2.1269224994834
 10
17.52388520815391
 20
2.125572959705101
 10
17.51964379742213
 20
2.124416211323745
 10
17.51463122110282
 20
2.123837837133037
 10
17.50961864478351
 20
2.123837837133037
 10
17.50479885986109
 20
2.124223419926861
 10
17.49978628354178
 20
2.125380168308218
 10
17.49515929001623
 20
2.126729708086516
 10
17.49033950509381
 20
2.128657622055465
 10
17.4859053029652
 20
2.130971118818238
 10
17.4814711008366
 20
2.133670198374774
 10
17.47722969010482
 20
2.136754860725138
 10
17.47318107077004
 20
2.14003231447238
 10
17.46932524283202
 20
2.143695351013453
 10
17.46566220629102
 20
2.14755117895135
 10
17.46238475254377
 20
2.151599798286183
 10
17.45910729879653
 20
2.155841209017963
 10
17.45621542784305
 20
2.160275411146566
 10
17.45370913968345
 20
2.164709613275168
 10
17.40917432700025
 20
2.144466516601043
 10
17.41148782376302
 20
2.138682774694141
 10
17.41437969471645
 20
2.133091824184126
 10
17.4182355226544
 20
2.128079247864758
 10
17.42266972478305
 20
2.123259462942385
 10
17.42768230110237
 20
2.118825260813728
 10
17.43327325161233
 20
2.11477664147889
 10
17.43924978491617
 20
2.111113604937879
 10
17.44561190101378
 20
2.107836151190634
 10
17.45235959990515
 20
2.105137071634036
 10
17.45930009019341
 20
2.102823574871266
 10
17.46662616327555
 20
2.100895660902318
 10
17.4737594449607
 20
2.09973891252096
 10
17.48108551804277
 20
2.098774955536486
 10
17.48841159112485
 20
2.098582164139545
 10
17.49554487281006
 20
2.09896774693337
 10
17.50267815449525
 20
2.09973891252096
 10
17.50807631360833
 20
2.100895660902318
 10
17.51328168132453
 20
2.102437992077498
 10
17.51848704904078
 20
2.104173114649563
 10
17.52349962536014
 20
2.106293820015451
 10
17.52831941028251
 20
2.108800108175107
 10
17.53313919520494
 20
2.111691979128529
 10
17.53757339733354
 20
2.114583850082005
 10
17.5420075994622
 20
2.118054095226134
 10
17.54605621879704
 20
2.121524340370263
 10
17.55010483813188
 20
2.125380168308218
 10
17.55376787467289
 20
2.129428787643055
 10
17.55723811981702
 20
2.133862989771718
 10
17.56032278216738
 20
2.13829719190032
 10
17.56321465312086
 20
2.142924185425864
 10
17.56572094128051
 20
2.147743970348289
 10
17.56803443804329
 20
2.152756546667601
 10
17.57015514340912
 20
2.158347497177618
 10
17.5716974745843
 20
2.163938447687635
 10
17.57285422296571
 20
2.169529398197596
 10
17.57381817995019
 20
2.175505931501434
 10
17.57420376274401
 20
2.181289673408338
 10
17.57420376274401
 20
2.187073415315238
 10
17.57381817995019
 20
2.192857157222139
 10
17.57285422296571
 20
2.198640899129038
 10
17.5716974745843
 20
2.20365347544835
 10
17.57015514340912
 20
2.208473260370779
 10
17.56822722944017
 20
2.213100253896319
 10
17.56591373267746
 20
2.217727247421865
 10
17.56302186172397
 20
2.221775866756701
 10
17.55974440797673
 20
2.225631694694595
 10
17.55588858003878
 20
2.229101939838783
 10
17.55183996070394
 20
2.231993810792204
 10
17.55010483813188
 20
2.233150559173564
 10
17.54817692416293
 20
2.234307307554975
 10
17.54624901019393
 20
2.235271264539453
 10
17.54432109622492
 20
2.236235221523928
 10
17.54239318225597
 20
2.237199178508455
 10
17.54027247689014
 20
2.23797034409599
 10
17.53834456292119
 20
2.238548718286694
 10
17.5362238575553
 20
2.239127092477404
 10
17.53410315218942
 20
2.239705466668109
 10
17.53198244682359
 20
2.240283840858759
 10
17.52986174145769
 20
2.240669423652584
 10
17.52774103609181
 20
2.241055006446351
 10
17.52562033072597
 20
2.241440589240174
 10
17.52349962536014
 20
2.241633380637059
 10
17.52118612859731
 20
2.242018963430826
 10
17.51906542323148
 20
2.242211754827768
 10
17.51694471786565
 20
2.242211754827768
 10
17.5148240124997
 20
2.242211754827768
 10
17.51270330713387
 20
2.242404546224649
 10
17.51058260176804
 20
2.242404546224649
 10
17.50846189640215
 20
2.242404546224649
 10
17.50634119103627
 20
2.242597337621535
 10
17.50402769427349
 20
2.242597337621535
 10
17.50171419751072
 20
2.242597337621535
 10
17.49940070074801
 20
2.242597337621535
 10
17.49708720398524
 20
2.242404546224649
 10
17.49438812442869
 20
2.242211754827768
 10
17.49188183626898
 20
2.242018963430826
 10
17.48918275671243
 20
2.241826172033943
 10
17.48629088575902
 20
2.241440589240174
 10
17.48339901480555
 20
2.24086221504947
 10
17.48031435245518
 20
2.240283840858759
 10
17.4361651225658
 20
2.23218660218909
 10
17.4350083741844
 20
2.236235221523928
 10
17.43442999999374
 20
2.240091049461878
 10
17.43462279139062
 20
2.244139668796714
 10
17.43520116558133
 20
2.247995496734664
 10
17.43655070535957
 20
2.251851324672561
 10
17.43809303653475
 20
2.255514361213634
 10
17.44040653329753
 20
2.259177397754644
 10
17.44291282145718
 20
2.262454851501892
 10
17.44580469241066
 20
2.265539513852254
 10
17.44908214615791
 20
2.268624176202615
 10
17.45255239130204
 20
2.271130464362272
 10
17.45640821923999
 20
2.273443961125042
 10
17.46045683857483
 20
2.27537187509399
 10
17.46450545790966
 20
2.277106997666114
 10
17.46874686864138
 20
2.278263746047469
 10
17.47318107077004
 20
2.279034911635061
 10
17.47703689870794
 20
2.279227703031943
 10
17.48108551804277
 20
2.279227703031943
 10
17.48494134598072
 20
2.278842120238178
 10
17.48879717391863
 20
2.278263746047469
 10
17.49265300185664
 20
2.277492580459878
 10
17.49650882979453
 20
2.276335832078522
 10
17.50017186633554
 20
2.274986292300225
 10
17.50383490287661
 20
2.273443961125042
 10
17.50749793941768
 20
2.271708838552978
 10
17.51116097595869
 20
2.269780924583975
 10
17.51463122110282
 20
2.267853010615024
 10
17.51810146624694
 20
2.265539513852254
 10
17.5213789199942
 20
2.26322601708948
 10
17.52465637374144
 20
2.260912520326768
 10
17.52793382748869
 20
2.258406232167109
 10
17.53101848983905
 20
2.2558999440074
 10
17.58095146163539
 20
2.279420494428828
 10
17.57825238207878
 20
2.282119573985422
 10
17.57536051112537
 20
2.284818653541961
 10
17.57246864017195
 20
2.287324941701615
 10
17.5691911864247
 20
2.289445647067502
 10
17.56591373267746
 20
2.291566352433338
 10
17.5626362789302
 20
2.29349426640234
 10
17.55916603378603
 20
2.295229388974405
 10
17.55569578864184
 20
2.296771720149584
  0
LWPOLYLINE
  5
5E2
330
17
100
AcDbEntity
  8
4
  6
Continuous
100
AcDbPolyline
 90
      104
 70
     0
 43
0.0
 10
17.7064090605084
 20
2.30853199536027
 10
17.71180721962146
 20
2.302748253453372
 10
17.71412071638424
 20
2.299470799706124
 10
17.71604863035319
 20
2.296193345958882
 10
17.7177837529253
 20
2.293108683608519
 10
17.71913329270355
 20
2.290216812655098
 10
17.72029004108491
 20
2.287132150304735
 10
17.72106120667256
 20
2.284047487954372
 10
17.72144678946633
 20
2.280962825604009
 10
17.72163958086321
 20
2.277685371856763
 10
17.72163958086321
 20
2.127886456467873
 10
17.71681979594078
 20
2.128464830658581
 10
17.71200001101836
 20
2.129428787643055
 10
17.70737301749281
 20
2.130585536024469
 10
17.70274602396733
 20
2.132127867199594
 10
17.69831182183872
 20
2.134055781168598
 10
17.69387761971006
 20
2.135983695137547
 10
17.68944341758141
 20
2.13829719190032
 10
17.68539479824662
 20
2.140803480059974
 10
17.68134617891173
 20
2.143695351013453
 10
17.67749035097383
 20
2.146587221966874
 10
17.67382731443283
 20
2.149864675714121
 10
17.67035706928863
 20
2.15333492085825
 10
17.6668868241445
 20
2.156805166002436
 10
17.66380216179415
 20
2.16066099394033
 10
17.66091029084072
 20
2.164709613275168
 10
17.65821121128413
 20
2.168758232610004
 10
17.65396980055241
 20
2.176469888485911
 10
17.65049955540828
 20
2.184567127155581
 10
17.64780047585174
 20
2.193049948619023
 10
17.64606535327968
 20
2.201725561479403
 10
17.64529418769203
 20
2.210593965736666
 10
17.64567977048585
 20
2.21926957859699
 10
17.64741489305791
 20
2.228137982854252
 10
17.65030676401134
 20
2.23662080431775
 10
17.65184909518652
 20
2.240283840858759
 10
17.65358421775857
 20
2.243754086002891
 10
17.65551213172759
 20
2.247224331147076
 10
17.65744004569659
 20
2.250501784894323
 10
17.65956075106242
 20
2.253972030038451
 10
17.6618742478252
 20
2.257249483785698
 10
17.66418774458797
 20
2.260334146136059
 10
17.66650124135068
 20
2.263611599883305
 10
17.6690075295104
 20
2.266696262233669
 10
17.67151381766998
 20
2.269588133187089
 10
17.67421289722659
 20
2.272672795537451
 10
17.67691197678313
 20
2.275564666490931
 10
17.67961105633967
 20
2.278456537444355
 10
17.68250292729314
 20
2.281155617000892
 10
17.68520200684974
 20
2.283854696557489
 10
17.68809387780316
 20
2.286553776114024
 10
17.69040737456593
 20
2.289252855670564
 10
17.69194970574112
 20
2.292337518020926
 10
17.69291366272559
 20
2.29542218037129
 10
17.69291366272559
 20
2.298699634118535
 10
17.69252807993177
 20
2.301591505071957
 10
17.69137133155039
 20
2.304483376025437
 10
17.69002179177217
 20
2.306796872788208
 10
17.68809387780316
 20
2.30853199536027
 10
17.61907455771406
 20
2.30853199536027
 10
17.62235201146131
 20
2.305447333009909
 10
17.62601504800231
 20
2.301591505071957
 10
17.62948529314651
 20
2.29696451154647
 10
17.63237716409993
 20
2.291951935227161
 10
17.63449786946581
 20
2.286360984717143
 10
17.63546182645029
 20
2.280577242810243
 10
17.63469066086276
 20
2.274793500903338
 10
17.63199158130616
 20
2.269202550393323
 10
17.6107845276475
 20
2.23218660218909
 10
17.60557915993131
 20
2.221390283962878
 10
17.60230170618407
 20
2.210015591545956
 10
17.60075937500889
 20
2.198255316335274
 10
17.60095216640576
 20
2.186302249727646
 10
17.60288008037472
 20
2.174349183120023
 10
17.60673590831267
 20
2.162974490703101
 10
17.6121340674258
 20
2.152178172476892
 10
17.61926734911095
 20
2.142538602632039
 10
17.62273759425507
 20
2.138682774694141
 10
17.62640063079615
 20
2.135019738153073
 10
17.63025645873409
 20
2.131356701612002
 10
17.63430507806893
 20
2.127886456467873
 10
17.63835369740377
 20
2.124801794117514
 10
17.64278789953243
 20
2.121717131767208
 10
17.64722210166097
 20
2.118825260813728
 10
17.65184909518652
 20
2.116318972654071
 10
17.65647608871206
 20
2.113812684494416
 10
17.66129587363449
 20
2.111691979128529
 10
17.66611565855691
 20
2.109956856556463
 10
17.67112823487623
 20
2.108414525381283
 10
17.67614081119553
 20
2.107064985603043
 10
17.68134617891173
 20
2.106293820015451
 10
17.6863587552311
 20
2.105715445824746
 10
17.69156412294735
 20
2.10552265442786
 10
17.76540322795882
 20
2.10552265442786
 10
17.76540322795882
 20
2.279613285825768
 10
17.7655960193557
 20
2.283469113763664
 10
17.76578881075258
 20
2.287324941701615
 10
17.76636718494328
 20
2.290987978242629
 10
17.76713835053089
 20
2.294843806180584
 10
17.7682950989123
 20
2.298506842721649
 10
17.76964463869054
 20
2.301977087865783
 10
17.77118696986572
 20
2.305254541613029
 10
17.77292209243779
 20
2.30853199536027
 10
17.7064090605084
 20
2.30853199536027
  0
LWPOLYLINE
  5
64C
330
17
100
AcDbEntity
  8
4
  6
Continuous
100
AcDbPolyline
 90
       46
 70
     0
 43
0.0
 10
17.89904327729122
 20
2.308724786757158
 10
17.79435754877623
 20
2.308724786757158
 10
17.79667104553895
 20
2.305640124406852
 10
17.79879175090478
 20
2.302169879262665
 10
17.80091245627072
 20
2.298699634118535
 10
17.80264757884279
 20
2.295036597577523
 10
17.80399711862103
 20
2.291180769639568
 10
17.80515386700239
 20
2.287324941701615
 10
17.80592503259003
 20
2.283661905160605
 10
17.80611782398692
 20
2.279806077222653
 10
17.80611782398692
 20
2.101859617886793
 10
17.85296613343289
 20
2.14678001336376
 10
17.85296613343289
 20
2.22659565167907
 10
17.91581612882121
 20
2.22659565167907
 10
17.92005753955299
 20
2.226788443076009
 10
17.92410615888776
 20
2.226981234472894
 10
17.92815477822266
 20
2.227559608663602
 10
17.93201060616055
 20
2.228330774251193
 10
17.93586643409851
 20
2.229487522632549
 10
17.93952947063958
 20
2.231029853807731
 10
17.94299971578371
 20
2.232764976379798
 10
17.94608437813407
 20
2.234885681745685
 10
17.94916904048443
 20
2.237391969905339
 10
17.95167532864403
 20
2.240476632255703
 10
17.95398882540686
 20
2.243754086002891
 10
17.95591673937581
 20
2.247609913940843
 10
17.95726627915411
 20
2.252044116069502
 10
17.95842302753547
 20
2.256863900991931
 10
17.95900140172617
 20
2.262262060105005
 10
17.95900140172617
 20
2.26823859340885
 10
17.95842302753547
 20
2.2746007095064
 10
17.95726627915411
 20
2.28019166001642
 10
17.9553383651851
 20
2.285204236335728
 10
17.95302486842233
 20
2.28963843846439
 10
17.94994020607196
 20
2.29349426640234
 10
17.94666275232472
 20
2.296771720149584
 10
17.94280692438682
 20
2.299663591103009
 10
17.93856551365505
 20
2.301977087865783
 10
17.93413131152644
 20
2.30390500183473
 10
17.92931152660402
 20
2.305447333009909
 10
17.92449174168159
 20
2.306604081391324
 10
17.91947916536228
 20
2.307375246978915
 10
17.91427379764603
 20
2.308146412566506
 10
17.90906842992984
 20
2.30853199536027
 10
17.90405585361053
 20
2.308724786757158
 10
17.89904327729122
 20
2.308724786757158
  0
LWPOLYLINE
  5
67C
330
17
100
AcDbEntity
  8
4
  6
Continuous
100
AcDbPolyline
 90
       21
 70
     0
 43
0.0
 10
17.8444833119694
 20
2.298121259927826
 10
17.89171720420913
 20
2.298121259927826
 10
17.89769373751292
 20
2.297542885737178
 10
17.90347747941982
 20
2.295807763165059
 10
17.90849005573918
 20
2.293108683608519
 10
17.91311704926467
 20
2.289445647067502
 10
17.91678008580573
 20
2.285011444938845
 10
17.91967195675917
 20
2.279998868619534
 10
17.92140707933129
 20
2.274407918109516
 10
17.92198545352194
 20
2.26823859340885
 10
17.92159987072817
 20
2.26322601708948
 10
17.92044312234676
 20
2.258213440770171
 10
17.91870799977469
 20
2.253586447244684
 10
17.91620171161504
 20
2.24953782790985
 10
17.91292425786779
 20
2.246067582765664
 10
17.90906842992984
 20
2.243368503209123
 10
17.90463422780117
 20
2.241633380637059
 10
17.89942886008498
 20
2.241055006446351
 10
17.85335171622666
 20
2.241055006446351
 10
17.85335171622666
 20
2.287903315892325
 10
17.8444833119694
 20
2.298121259927826
  0
LWPOLYLINE
  5
693
330
17
100
AcDbEntity
  8
4
  6
Continuous
100
AcDbPolyline
 90
       21
 70
     0
 43
0.0
 10
18.0311266594172
 20
2.297735677134061
 10
18.07836055165694
 20
2.297735677134061
 10
18.0845298763576
 20
2.297157302943353
 10
18.09012082686763
 20
2.29542218037129
 10
18.09532619458388
 20
2.292723100814749
 10
18.09995318810942
 20
2.289060064273681
 10
18.10361622465043
 20
2.284625862145079
 10
18.10650809560391
 20
2.279420494428828
 10
18.10824321817596
 20
2.27382954391881
 10
18.10882159236662
 20
2.267660219218142
 10
18.10843600957285
 20
2.262647642898833
 10
18.10727926119144
 20
2.257635066579521
 10
18.1053513472225
 20
2.253200864450858
 10
18.10284505906284
 20
2.248959453719141
 10
18.09956760531559
 20
2.24548920857501
 10
18.09571177737764
 20
2.242790129018414
 10
18.09127757524898
 20
2.241055006446351
 10
18.08607220753279
 20
2.240476632255703
 10
18.03999506367446
 20
2.240476632255703
 10
18.03999506367446
 20
2.287324941701615
 10
18.0311266594172
 20
2.297735677134061
  0
TEXT
  5
6AA
330
17
100
AcDbEntity
  8
3
100
AcDbText
 10
20.08951927920714
 20
1.520552226353889
 30
0.0
 40
0.1041770135190657
  1
1
  7
SIMPLEX
100
AcDbText
  0
LINE
  5
6AB
330
17
100
AcDbEntity
  8
0
100
AcDbLine
 10
19.65973009877345
 20
1.066399999999938
 30
0.0
 11
19.65973009877345
 21
1.69146208111434
 31
0.0
  0
TEXT
  5
6AC
330
17
100
AcDbEntity
  8
3
100
AcDbText
 10
19.73605140555195
 20
1.54905733405828
 30
0.0
 40
0.0516717987054566
  1
SHEET
  7
SIMPLEX
100
AcDbText
  0
TEXT
  5
6AD
330
17
100
AcDbEntity
  8
3
100
AcDbText
 10
19.7091912301306
 20
1.353779411750124
 30
0.0
 40
0.0520885067595329
  1
PART/DWG. NO.
  7
SIMPLEX
100
AcDbText
  0
LWPOLYLINE
  5
6AE
330
17
100
AcDbEntity
  8
4
  6
Continuous
100
AcDbPolyline
 90
       44
 70
     0
 43
0.0
 10
19.0115847954089
 20
2.306025707200618
 10
18.92617820658356
 20
2.306025707200618
 10
18.9288772861401
 20
2.304483376025437
 10
18.93196194849046
 20
2.302362670659547
 10
18.93485381944394
 20
2.299278008309243
 10
18.93774569039742
 20
2.295807763165059
 10
18.94025197855701
 20
2.29175914383022
 10
18.9423726839229
 20
2.287132150304735
 10
18.94352943230426
 20
2.282312365382308
 10
18.94410780649503
 20
2.277106997666056
 10
18.94410780649503
 20
2.10552265442786
 10
19.00811455026476
 20
2.10552265442786
 10
19.01891086849096
 20
2.10610102861851
 10
19.02932160392342
 20
2.107643359793692
 10
19.03934675656204
 20
2.11014964795335
 10
19.04879353501
 20
2.113619893097534
 10
19.05766193926721
 20
2.118054095226134
 10
19.06614476073071
 20
2.123452254339273
 10
19.07385641660656
 20
2.129428787643055
 10
19.08098969829182
 20
2.13636927793137
 10
19.08735181438937
 20
2.143888142410335
 10
19.09313555629627
 20
2.152178172476892
 10
19.09814813261558
 20
2.161046576734158
 10
19.10219675195047
 20
2.170493355182127
 10
19.10547420569772
 20
2.180518507820749
 10
19.10798049385731
 20
2.19092924325319
 10
19.10933003363561
 20
2.201918352876286
 10
19.10990840782632
 20
2.213293045293207
 10
19.10952282503249
 20
2.222932615138056
 10
19.10798049385731
 20
2.23218660218909
 10
19.10547420569772
 20
2.241055006446351
 10
19.10200396055353
 20
2.24953782790985
 10
19.09776254982181
 20
2.257827857976405
 10
19.0927499735025
 20
2.26534672245537
 10
19.08696623159554
 20
2.272480004140569
 10
19.08041132410105
 20
2.279034911635061
 10
19.07347083381279
 20
2.285011444938845
 10
19.06575917793689
 20
2.290409604051979
 10
19.05766193926721
 20
2.295036597577523
 10
19.04898632640689
 20
2.298892425515417
 10
19.04011792214962
 20
2.301977087865783
 10
19.0308639350986
 20
2.304290584628553
 10
19.02122436525374
 20
2.305640124406852
 10
19.0115847954089
 20
2.306025707200618
  0
LWPOLYLINE
  5
6DC
330
17
100
AcDbEntity
  8
4
  6
Continuous
100
AcDbPolyline
 90
       34
 70
     0
 43
0.0
 10
18.98979936755958
 20
2.290024021258154
 10
18.99731823203849
 20
2.289252855670564
 10
19.00464430512062
 20
2.287710524495381
 10
19.0115847954089
 20
2.285011444938845
 10
19.01833249430026
 20
2.281348408397831
 10
19.02450181900099
 20
2.277106997666056
 10
19.03047835230483
 20
2.271901629949863
 10
19.03587651141791
 20
2.26611788804296
 10
19.04088908773722
 20
2.259755771945353
 10
19.04551608126276
 20
2.252622490260154
 10
19.04937190920066
 20
2.245296417178074
 10
19.05284215434479
 20
2.237391969905339
 10
19.05573402529826
 20
2.229294731235667
 10
19.05804752206104
 20
2.220811909772169
 10
19.05958985323622
 20
2.212136296911844
 10
19.06074660161758
 20
2.203460684051468
 10
19.06093939301446
 20
2.194592279794204
 10
19.06036101882381
 20
2.186495041124532
 10
19.05881868764863
 20
2.178783385248681
 10
19.05650519088586
 20
2.171264520769659
 10
19.05342052853555
 20
2.164324030481399
 10
19.0495647005976
 20
2.157576331590028
 10
19.04513049846899
 20
2.1514070068893
 10
19.04011792214962
 20
2.145816056379284
 10
19.03491255443338
 20
2.14061068866309
 10
19.02932160392342
 20
2.135790903740663
 10
19.02353786201651
 20
2.131549493008944
 10
19.01756132871273
 20
2.127886456467873
 10
19.01177758680578
 20
2.124801794117514
 10
19.00580105350199
 20
2.122488297354796
 10
19.00021010299196
 20
2.120560383385793
 10
18.9948119438789
 20
2.119403635004434
 10
18.98979936755958
 20
2.118825260813728
 10
18.98979936755958
 20
2.290024021258154
  0
LWPOLYLINE
  5
700
330
17
100
AcDbEntity
  8
4
  6
Continuous
100
AcDbPolyline
 90
       96
 70
     0
 43
0.0
 10
18.9048483774118
 20
2.10552265442786
 10
18.90176371506144
 20
2.107643359793692
 10
18.89867905271108
 20
2.109764065159581
 10
18.89597997315454
 20
2.112270353319235
 10
18.89366647639177
 20
2.11477664147889
 10
18.89173856242283
 20
2.117668512432369
 10
18.89019623124764
 20
2.120945966179614
 10
18.88923227426316
 20
2.124416211323745
 10
18.88884669146934
 20
2.128079247864758
 10
18.88884669146934
 20
2.253200864450858
 10
18.88884669146934
 20
2.258406232167109
 10
18.88846110867552
 20
2.263611599883305
 10
18.88768994308799
 20
2.269202550393323
 10
18.8861476119128
 20
2.2746007095064
 10
18.88383411515003
 20
2.28019166001642
 10
18.88017107860896
 20
2.28539702773267
 10
18.87535129368653
 20
2.290602395448861
 10
18.86879638619205
 20
2.295614971768173
 10
18.86474776685727
 20
2.298121259927826
 10
18.86050635612549
 20
2.300241965293713
 10
18.85626494539376
 20
2.301977087865783
 10
18.85163795186828
 20
2.303519419040962
 10
18.84701095834274
 20
2.304483376025437
 10
18.84238396481719
 20
2.305061750216143
 10
18.83775697129165
 20
2.305447333009909
 10
18.83293718636923
 20
2.305447333009909
 10
18.82831019284374
 20
2.305061750216143
 10
18.8236831993182
 20
2.304483376025437
 10
18.81924899718959
 20
2.303712210437845
 10
18.81481479506093
 20
2.302555462056489
 10
18.81076617572615
 20
2.301205922278189
 10
18.80671755639125
 20
2.299470799706124
 10
18.80286172845336
 20
2.297735677134061
 10
18.79939148330923
 20
2.295614971768173
 10
18.79746356934023
 20
2.294651014783698
 10
18.79572844676816
 20
2.293687057799225
 10
18.79380053279916
 20
2.292723100814749
 10
18.79206541022709
 20
2.291566352433338
 10
18.79033028765503
 20
2.290216812655098
 10
18.78840237368608
 20
2.288867272876798
 10
18.78666725111402
 20
2.287132150304735
 10
18.78454654574813
 20
2.28539702773267
 10
18.78358258876365
 20
2.289060064273681
 10
18.78204025758846
 20
2.292337518020926
 10
18.78030513501641
 20
2.295229388974405
 10
18.77818442965058
 20
2.297928468530945
 10
18.77587093288775
 20
2.300241965293713
 10
18.77336464472815
 20
2.302169879262665
 10
18.77085835656843
 20
2.30390500183473
 10
18.7681592770119
 20
2.305254541613029
 10
18.72401004712252
 20
2.305254541613029
 10
18.72805866645736
 20
2.302362670659547
 10
18.73152891160149
 20
2.299085216912303
 10
18.73442078255497
 20
2.295614971768173
 10
18.73692707071457
 20
2.291566352433338
 10
18.73885498468357
 20
2.287324941701615
 10
18.74020452446181
 20
2.282505156779186
 10
18.74116848144634
 20
2.277492580459878
 10
18.74136127284321
 20
2.271901629949863
 10
18.74136127284321
 20
2.100702869505433
 10
18.78628166832025
 20
2.13540532094684
 10
18.78628166832025
 20
2.253972030038451
 10
18.78705283390778
 20
2.260334146136059
 10
18.78898074787673
 20
2.265925096646079
 10
18.79187261883021
 20
2.270744881568504
 10
18.79572844676816
 20
2.274793500903338
 10
18.80016264889676
 20
2.278070954650584
 10
18.8049824338192
 20
2.280384451413357
 10
18.81018780153539
 20
2.281926782588484
 10
18.81539316925164
 20
2.282505156779186
 10
18.818477831602
 20
2.282505156779186
 10
18.82156249395231
 20
2.282119573985422
 10
18.82445436490579
 20
2.281541199794716
 10
18.82734623585926
 20
2.280770034207125
 10
18.8300453154158
 20
2.279806077222653
 10
18.83274439497234
 20
2.278456537444355
 10
18.83525068313205
 20
2.277106997666056
 10
18.83756417989476
 20
2.27537187509399
 10
18.83987767665754
 20
2.273636752521925
 10
18.84180559062654
 20
2.271708838552978
 10
18.84334792180173
 20
2.269395341790207
 10
18.84489025297685
 20
2.267274636424318
 10
18.84604700135821
 20
2.264768348264664
 10
18.84681816694585
 20
2.262262060105005
 10
18.8473965411365
 20
2.25956298054847
 10
18.84758933253339
 20
2.25667110959499
 10
18.84758933253339
 20
2.124416211323745
 10
18.84778212393027
 20
2.121331548973385
 10
18.84816770672409
 20
2.118054095226134
 10
18.84913166370857
 20
2.114969432875773
 10
18.85048120348687
 20
2.11188477052547
 10
18.8526019088527
 20
2.109378482365813
 10
18.8553009884093
 20
2.107257776999925
 10
18.85896402495031
 20
2.105908237221628
 10
18.86359101847585
 20
2.10552265442786
 10
18.9048483774118
 20
2.10552265442786
  0
LWPOLYLINE
  5
762
330
17
100
AcDbEntity
  8
4
  6
Continuous
100
AcDbPolyline
 90
      133
 70
     0
 43
0.0
 10
18.49017489963654
 20
2.308724786757158
 10
18.44911033209753
 20
2.308724786757158
 10
18.45200220305101
 20
2.305640124406852
 10
18.4545084912106
 20
2.302555462056489
 10
18.45643640517961
 20
2.299470799706124
 10
18.45817152775167
 20
2.296578928752647
 10
18.45952106752998
 20
2.293687057799225
 10
18.46048502451444
 20
2.290795186845746
 10
18.46125619010203
 20
2.287710524495437
 10
18.46144898149892
 20
2.284625862145079
 10
18.46144898149892
 20
2.179361759439331
 10
18.45797873635479
 20
2.179747342233155
 10
18.45431569981372
 20
2.180325716423864
 10
18.4508454546696
 20
2.180904090614514
 10
18.44718241812858
 20
2.181675256202105
 10
18.44371217298445
 20
2.182639213186635
 10
18.44004913644338
 20
2.183603170171108
 10
18.43657889129919
 20
2.184759918552467
 10
18.43310864615506
 20
2.185916666933823
 10
18.42983119240782
 20
2.187266206712123
 10
18.42636094726369
 20
2.188808537887301
 10
18.42327628491332
 20
2.190350869062485
 10
18.41999883116608
 20
2.19208599163455
 10
18.41691416881572
 20
2.194013905603496
 10
18.41382950646536
 20
2.195941819572503
 10
18.41093763551194
 20
2.198255316335274
 10
18.4082385559554
 20
2.200568813097988
 10
18.40322597963609
 20
2.205581389417356
 10
18.39879177750743
 20
2.211172339927371
 10
18.39493594956953
 20
2.217148873231159
 10
18.39146570442534
 20
2.223703780725649
 10
18.38876662486881
 20
2.230258688220142
 10
18.38645312810603
 20
2.237391969905339
 10
18.38491079693086
 20
2.244525251590478
 10
18.38394683994638
 20
2.251851324672561
 10
18.38336846575573
 20
2.259177397754644
 10
18.38336846575573
 20
2.266696262233669
 10
18.38413963134327
 20
2.274022335315748
 10
18.38529637972468
 20
2.281348408397831
 10
18.38703150229674
 20
2.288674481479914
 10
18.3895377904564
 20
2.295614971768173
 10
18.39242966140982
 20
2.302362670659604
 10
18.39589990655395
 20
2.308724786757158
 10
18.34326785520113
 20
2.308724786757158
 10
18.33941202726323
 20
2.296386137355763
 10
18.33671294770664
 20
2.284433070748136
 10
18.33536340792834
 20
2.272480004140569
 10
18.33517061653146
 20
2.261105311723651
 10
18.33594178211905
 20
2.249923410703615
 10
18.33806248748494
 20
2.239319883874288
 10
18.3411471498353
 20
2.229101939838783
 10
18.34519576917008
 20
2.21926957859699
 10
18.35040113688627
 20
2.210208382942841
 10
18.35637767019011
 20
2.201532770082518
 10
18.36331816047837
 20
2.193628322809729
 10
18.37102981635428
 20
2.186302249727646
 10
18.3797054292146
 20
2.179940133630041
 10
18.38915220766257
 20
2.174156391723137
 10
18.39917736030119
 20
2.16933660680071
 10
18.40997367852746
 20
2.165287987465875
 10
18.41305834087783
 20
2.164324030481399
 10
18.41633579462507
 20
2.16355286489381
 10
18.41961324837231
 20
2.162781699306222
 10
18.42308349351644
 20
2.162010533718629
 10
18.42636094726369
 20
2.161432159527924
 10
18.42983119240782
 20
2.161046576734158
 10
18.43310864615506
 20
2.160468202543448
 10
18.43657889129919
 20
2.160275411146566
 10
18.43985634504644
 20
2.159889828352795
 10
18.44313379879369
 20
2.159697036955859
 10
18.44641125254093
 20
2.159504245558974
 10
18.4494959148913
 20
2.159504245558974
 10
18.45258057724166
 20
2.159504245558974
 10
18.45547244819514
 20
2.159504245558974
 10
18.45836431914862
 20
2.159697036955859
 10
18.4610633987051
 20
2.159889828352795
 10
18.4610633987051
 20
2.139453940281678
 10
18.44004913644338
 20
2.127693665070991
 10
18.43580772571166
 20
2.126729708086516
 10
18.43156631497988
 20
2.126151333895808
 10
18.42732490424817
 20
2.126151333895808
 10
18.42346907631021
 20
2.126729708086516
 10
18.41942045697543
 20
2.127500873674105
 10
18.41575742043437
 20
2.128850413452346
 10
18.41228717529023
 20
2.130585536024469
 10
18.40881693014605
 20
2.132513449993417
 10
18.4055394763988
 20
2.13482694675619
 10
18.40245481404844
 20
2.137333234915844
 10
18.39956294309502
 20
2.140225105869268
 10
18.39686386353848
 20
2.143116976822745
 10
18.39435757537877
 20
2.146394430569989
 10
18.39204407861605
 20
2.149671884317235
 10
18.38992337325022
 20
2.152949338064483
 10
18.38818825067816
 20
2.156419583208609
 10
18.35117230247392
 20
2.139261148884791
 10
18.35290742504598
 20
2.135983695137547
 10
18.35502813041182
 20
2.132706241390299
 10
18.3571488357777
 20
2.129235996246169
 10
18.35946233254047
 20
2.125958542498926
 10
18.36216141209702
 20
2.122681088751679
 10
18.36486049165355
 20
2.119403635004434
 10
18.36794515400392
 20
2.116511764050955
 10
18.37102981635428
 20
2.113427101700594
 10
18.37430727010152
 20
2.110728022144054
 10
18.37797030664254
 20
2.108221733984398
 10
18.38182613458055
 20
2.10610102861851
 10
18.38568196251844
 20
2.103980323252681
 10
18.38992337325022
 20
2.102437992077498
 10
18.39416478398188
 20
2.101088452299201
 10
18.39879177750743
 20
2.100124495314728
 10
18.40361156242985
 20
2.09973891252096
 10
18.40515389360503
 20
2.09973891252096
 10
18.40669622478022
 20
2.099931703917842
 10
18.40843134735228
 20
2.100124495314728
 10
18.41016646992435
 20
2.100317286711609
 10
18.41170880109953
 20
2.100702869505433
 10
18.41344392367159
 20
2.101281243696139
 10
18.41498625484677
 20
2.101859617886793
 10
18.41652858602196
 20
2.102437992077498
 10
18.50000726087828
 20
2.151599798286183
 10
18.50193517484728
 20
2.153142129461365
 10
18.50328471462553
 20
2.155262834827254
 10
18.50386308881629
 20
2.157769122986909
 10
18.50405588021317
 20
2.160468202543448
 10
18.50405588021317
 20
2.28963843846439
 10
18.50367029741935
 20
2.29407264059299
 10
18.50289913183176
 20
2.298121259927826
 10
18.50154959205346
 20
2.301398713675073
 10
18.4998144694814
 20
2.304097793231668
 10
18.49769376411557
 20
2.306025707200618
 10
18.49518747595585
 20
2.307568038375797
 10
18.49268118779626
 20
2.308339203963388
 10
18.49017489963654
 20
2.308724786757158
  0
LWPOLYLINE
  5
7E9
330
17
100
AcDbEntity
  8
4
  6
Continuous
100
AcDbPolyline
 90
       21
 70
     0
 43
0.0
 10
18.69128378929267
 20
2.305061750216143
 10
18.64038686051186
 20
2.305061750216143
 10
18.64289314867157
 20
2.303326627644078
 10
18.64539943683117
 20
2.301013130881306
 10
18.64790572499088
 20
2.298699634118535
 10
18.65002643035672
 20
2.296000554561997
 10
18.65195434432571
 20
2.293301475005399
 10
18.65349667550084
 20
2.290216812655098
 10
18.65446063248538
 20
2.287132150304735
 10
18.65484621527915
 20
2.283854696557489
 10
18.65484621527915
 20
2.106293820015451
 10
18.70285127310653
 20
2.106293820015451
 10
18.70285127310653
 20
2.29349426640234
 10
18.70265848170959
 20
2.296193345958882
 10
18.70208010751889
 20
2.298506842721649
 10
18.70092335913752
 20
2.3004347566906
 10
18.69957381935929
 20
2.302169879262665
 10
18.69783869678716
 20
2.303326627644078
 10
18.69591078281822
 20
2.304290584628553
 10
18.69379007745233
 20
2.304868958819259
 10
18.69128378929267
 20
2.305061750216143
  0
LWPOLYLINE
  5
800
330
17
100
AcDbEntity
  8
4
  6
Continuous
100
AcDbPolyline
 90
       73
 70
     0
 43
0.0
 10
18.25785002615789
 20
2.155455626224138
 10
18.26112747990514
 20
2.153527712255189
 10
18.26382655946173
 20
2.151021424095536
 10
18.26614005622445
 20
2.147936761745173
 10
18.26787517879651
 20
2.144466516601043
 10
18.26883913578105
 20
2.14061068866309
 10
18.26903192717793
 20
2.136754860725138
 10
18.26845355298727
 20
2.133091824184126
 10
18.2669112218121
 20
2.129428787643055
 10
18.26517609924003
 20
2.127308082277223
 10
18.2634409766679
 20
2.125380168308218
 10
18.26132027130202
 20
2.123645045736155
 10
18.2590067745393
 20
2.122102714560974
 10
18.2565004863796
 20
2.120945966179614
 10
18.25380140682311
 20
2.119982009195143
 10
18.25090953586963
 20
2.119403635004434
 10
18.24801766491616
 20
2.119210843607553
 10
18.17764880504881
 20
2.119210843607553
 10
18.21562871023746
 20
2.1514070068893
 10
18.21794220700029
 20
2.153527712255189
 10
18.21967732957236
 20
2.155648417621021
 10
18.22121966074748
 20
2.157576331590028
 10
18.22218361773195
 20
2.159504245558974
 10
18.2229547833196
 20
2.161432159527924
 10
18.22334036611337
 20
2.16355286489381
 10
18.22372594890714
 20
2.16548077886276
 10
18.22372594890714
 20
2.167601484228648
 10
18.22372594890714
 20
2.29542218037129
 10
18.22334036611337
 20
2.298121259927826
 10
18.22256920052577
 20
2.300820339484423
 10
18.22121966074748
 20
2.302941044850253
 10
18.21948453817542
 20
2.304868958819259
 10
18.21736383280953
 20
2.306411289994384
 10
18.21505033604681
 20
2.307568038375797
 10
18.21235125649022
 20
2.308339203963388
 10
18.20965217693368
 20
2.30853199536027
 10
18.16800923520396
 20
2.30853199536027
 10
18.17090110615744
 20
2.305640124406852
 10
18.17340739431703
 20
2.302941044850253
 10
18.17552809968292
 20
2.299856382499892
 10
18.17726322225504
 20
2.296771720149584
 10
18.17880555343017
 20
2.293301475005399
 10
18.17976951041465
 20
2.28963843846439
 10
18.18034788460535
 20
2.28539702773267
 10
18.18054067600229
 20
2.280577242810243
 10
18.18054067600229
 20
2.147165596157583
 10
18.14622380735459
 20
2.10552265442786
 10
18.27597241746618
 20
2.10552265442786
 10
18.27809312283207
 20
2.105715445824746
 10
18.28040661959485
 20
2.105908237221628
 10
18.28252732496068
 20
2.106293820015451
 10
18.2848408217235
 20
2.107064985603043
 10
18.28715431848622
 20
2.107836151190634
 10
18.28927502385211
 20
2.108800108175107
 10
18.291395729218
 20
2.109764065159581
 10
18.29351643458383
 20
2.11092081354094
 10
18.29563713994966
 20
2.112270353319235
 10
18.29756505391866
 20
2.113619893097534
 10
18.29949296788767
 20
2.115162224272715
 10
18.30142088185661
 20
2.11670455544784
 10
18.3029632130318
 20
2.11824688662302
 10
18.30469833560386
 20
2.119982009195143
 10
18.30604787538216
 20
2.121717131767208
 10
18.3073974151604
 20
2.123452254339273
 10
18.31048207751076
 20
2.129621579039937
 10
18.31240999147977
 20
2.136562069328254
 10
18.31337394846419
 20
2.144273725204103
 10
18.3131811570673
 20
2.152178172476892
 10
18.31183161728901
 20
2.159697036955859
 10
18.30951812052629
 20
2.166637527244175
 10
18.30624066677905
 20
2.172421269151072
 10
18.30180646465038
 20
2.176855471279678
 10
18.25785002615789
 20
2.155455626224138
  0
LWPOLYLINE
  5
84B
330
17
100
AcDbEntity
  8
4
  6
Continuous
100
AcDbPolyline
 90
       21
 70
     0
 43
0.0
 10
19.93535295127757
 20
2.305447333009909
 10
19.93901598781858
 20
2.303519419040962
 10
19.94210065016894
 20
2.301205922278189
 10
19.94479972972548
 20
2.298506842721649
 10
19.94672764369449
 20
2.29542218037129
 10
19.94826997486967
 20
2.291951935227161
 10
19.94942672325103
 20
2.288288898686089
 10
19.95000509744174
 20
2.284240279351255
 10
19.95019788883862
 20
2.279998868619534
 10
19.95019788883862
 20
2.10552265442786
 10
19.99762457247524
 20
2.10552265442786
 10
19.99762457247524
 20
2.280577242810243
 10
19.99781736387212
 20
2.284625862145079
 10
19.99878132085665
 20
2.288096107289208
 10
19.99993806923801
 20
2.291566352433338
 10
20.00186598320696
 20
2.294651014783698
 10
20.00398668857285
 20
2.297542885737178
 10
20.00668576812939
 20
2.3004347566906
 10
20.00957763908281
 20
2.302941044850253
 10
20.013047884227
 20
2.305447333009909
 10
19.93535295127757
 20
2.305447333009909
  0
LWPOLYLINE
  5
862
330
17
100
AcDbEntity
  8
4
  6
Continuous
100
AcDbPolyline
 90
      138
 70
     0
 43
0.0
 10
19.24025177733103
 20
2.305447333009909
 10
19.24430039666587
 20
2.302555462056489
 10
19.24757785041311
 20
2.299278008309243
 10
19.25027692996965
 20
2.295614971768173
 10
19.2522048439386
 20
2.29175914383022
 10
19.25374717511379
 20
2.287710524495381
 10
19.25471113209832
 20
2.283469113763664
 10
19.25528950628897
 20
2.278842120238178
 10
19.25548229768585
 20
2.274022335315748
 10
19.25548229768585
 20
2.129235996246169
 10
19.25201205254172
 20
2.129235996246169
 10
19.24854180739759
 20
2.129428787643055
 10
19.24507156225345
 20
2.129814370436879
 10
19.24179410850621
 20
2.130392744627529
 10
19.23832386336209
 20
2.13116391021512
 10
19.23504640961484
 20
2.132127867199594
 10
19.23176895586759
 20
2.133284615581009
 10
19.22868429351723
 20
2.134441363962364
 10
19.22540683976999
 20
2.135983695137547
 10
19.22232217741963
 20
2.137526026312726
 10
19.21943030646614
 20
2.139261148884791
 10
19.21653843551272
 20
2.1411890628538
 10
19.21364656455924
 20
2.14330976821963
 10
19.21075469360582
 20
2.145430473585518
 10
19.20805561404923
 20
2.147743970348289
 10
19.20554932588963
 20
2.150057467111004
 10
19.20111512376097
 20
2.154491669239665
 10
19.19706650442613
 20
2.159311454162093
 10
19.19340346788506
 20
2.164324030481399
 10
19.19012601413782
 20
2.169722189594534
 10
19.18723414318439
 20
2.175313140104496
 10
19.18492064642162
 20
2.180904090614514
 10
19.18299273245267
 20
2.186880623918356
 10
19.18164319267437
 20
2.192857157222139
 10
19.18087202708678
 20
2.198448107732156
 10
19.18029365289608
 20
2.204039058242173
 10
19.18029365289608
 20
2.209822800149076
 10
19.18067923568985
 20
2.215413750659095
 10
19.18145040127749
 20
2.22100470116911
 10
19.18260714965885
 20
2.22659565167907
 10
19.18434227223096
 20
2.231993810792204
 10
19.18665576899369
 20
2.237199178508455
 10
19.18839089156575
 20
2.240476632255703
 10
19.19012601413782
 20
2.243754086002891
 10
19.19186113670988
 20
2.246838748353253
 10
19.19378905067888
 20
2.249923410703615
 10
19.19552417325095
 20
2.253008073053978
 10
19.19745208721996
 20
2.2558999440074
 10
19.19957279258579
 20
2.258791814960876
 10
19.20169349795162
 20
2.261490894517416
 10
19.20381420331756
 20
2.264382765470895
 10
19.20593490868339
 20
2.267081845027435
 10
19.20824840544611
 20
2.269780924583975
 10
19.21056190220894
 20
2.272480004140569
 10
19.21306819036854
 20
2.274986292300225
 10
19.21557447852825
 20
2.277685371856763
 10
19.21808076668785
 20
2.28019166001642
 10
19.22077984624444
 20
2.282890739573014
 10
19.22309334300721
 20
2.285589819129549
 10
19.22463567418233
 20
2.288481690082974
 10
19.22559963116687
 20
2.291373561036454
 10
19.22579242256375
 20
2.294265431989931
 10
19.22559963116687
 20
2.297157302943353
 10
19.22502125697622
 20
2.300049173896833
 10
19.22405729999169
 20
2.302748253453372
 10
19.22270776021339
 20
2.305447333009909
 10
19.15349564872746
 20
2.305447333009909
 10
19.15503797990264
 20
2.304097793231668
 10
19.15658031107783
 20
2.302748253453372
 10
19.15812264225295
 20
2.301398713675073
 10
19.15966497342813
 20
2.299856382499892
 10
19.16101451320637
 20
2.29831405132477
 10
19.16236405298467
 20
2.296578928752647
 10
19.16352080136608
 20
2.294843806180584
 10
19.16467754974744
 20
2.293108683608519
 10
19.16699104651021
 20
2.287903315892325
 10
19.16814779489163
 20
2.282312365382308
 10
19.16814779489163
 20
2.276528623475404
 10
19.16737662930398
 20
2.270744881568504
 10
19.1658342981288
 20
2.264575556867779
 10
19.1633280099692
 20
2.258599023563997
 10
19.16043613901572
 20
2.253008073053978
 10
19.15715868526847
 20
2.247609913940843
 10
19.15368844012435
 20
2.242211754827768
 10
19.15002540358328
 20
2.237006387111517
 10
19.14636236704221
 20
2.231608227998437
 10
19.14308491329496
 20
2.226210068885305
 10
19.14038583373848
 20
2.220811909772169
 10
19.13807233697564
 20
2.215413750659095
 10
19.13633721440358
 20
2.209630008752192
 10
19.13498767462529
 20
2.203846266845234
 10
19.13421650903775
 20
2.198062524938332
 10
19.13383092624399
 20
2.19208599163455
 10
19.13383092624399
 20
2.186109458330765
 10
19.13440930043464
 20
2.180132925026923
 10
19.13518046602223
 20
2.176277097089024
 10
19.13595163160982
 20
2.172421269151072
 10
19.13710837999123
 20
2.16856544121312
 10
19.13845791976948
 20
2.16490240467211
 10
19.14000025094465
 20
2.161239368131036
 10
19.14173537351672
 20
2.157769122986909
 10
19.14347049608878
 20
2.15410608644584
 10
19.14559120145467
 20
2.150828632698593
 10
19.1477119068205
 20
2.14755117895135
 10
19.15002540358328
 20
2.144273725204103
 10
19.15253169174293
 20
2.1411890628538
 10
19.15523077129953
 20
2.138104400503435
 10
19.15792985085605
 20
2.135212529549955
 10
19.1606289304126
 20
2.132320658596534
 10
19.16352080136608
 20
2.129621579039937
 10
19.16660546371644
 20
2.127115290880283
 10
19.17007570886057
 20
2.124416211323745
 10
19.17393153679847
 20
2.121909923164089
 10
19.17778736473648
 20
2.11959642640132
 10
19.18183598407126
 20
2.117475721035432
 10
19.18607739480303
 20
2.11554780706648
 10
19.1903188055347
 20
2.113812684494416
 10
19.19475300766336
 20
2.11207756192235
 10
19.19918720979202
 20
2.110728022144054
 10
19.20362141192062
 20
2.109571273762698
 10
19.20805561404923
 20
2.108414525381283
 10
19.21268260757477
 20
2.10745056839681
 10
19.2173096011003
 20
2.1068721942061
 10
19.22174380322891
 20
2.106293820015451
 10
19.22637079675446
 20
2.105908237221628
 10
19.23080499888306
 20
2.10552265442786
 10
19.23523920101172
 20
2.10552265442786
 10
19.29982431897217
 20
2.10552265442786
 10
19.29982431897217
 20
2.281155617000892
 10
19.29982431897217
 20
2.284240279351255
 10
19.29982431897217
 20
2.287324941701615
 10
19.30020990176599
 20
2.290602395448861
 10
19.30078827595664
 20
2.293879849196108
 10
19.30194502433805
 20
2.29696451154647
 10
19.30348735551323
 20
2.299856382499892
 10
19.30580085227594
 20
2.302748253453372
 10
19.30888551462631
 20
2.305447333009909
 10
19.24025177733103
 20
2.305447333009909
  0
LWPOLYLINE
  5
8EE
330
17
100
AcDbEntity
  8
4
  6
Continuous
100
AcDbPolyline
 90
      133
 70
     0
 43
0.0
 10
19.54099536980009
 20
2.296193345958882
 10
19.53771791605285
 20
2.292723100814749
 10
19.53463325370248
 20
2.288674481479914
 10
19.53193417414595
 20
2.284433070748136
 10
19.52904230319252
 20
2.279998868619534
 10
19.52615043223904
 20
2.275757457887813
 10
19.52306576988868
 20
2.271516047156096
 10
19.51998110753832
 20
2.267660219218142
 10
19.5163180709973
 20
2.264382765470895
 10
19.514968531219
 20
2.26341880848642
 10
19.51361899144071
 20
2.262454851501892
 10
19.51226945166241
 20
2.261490894517416
 10
19.51091991188417
 20
2.26052693753294
 10
19.50957037210593
 20
2.25956298054847
 10
19.50802804093075
 20
2.258599023563997
 10
19.50648570975557
 20
2.257635066579521
 10
19.50455779578657
 20
2.25667110959499
 10
19.5745410728602
 20
2.25667110959499
 10
19.57145641050983
 20
2.254164821435336
 10
19.56856453955635
 20
2.251658533275681
 10
19.56586545999976
 20
2.249152245116022
 10
19.56316638044328
 20
2.246453165559485
 10
19.56066009228357
 20
2.243561294606005
 10
19.5581538041239
 20
2.240669423652584
 10
19.55584030736114
 20
2.237777552699105
 10
19.5537196019953
 20
2.234692890348743
 10
19.55140610523248
 20
2.231415436601499
 10
19.54947819126353
 20
2.22794519145737
 10
19.54755027729459
 20
2.224282154916354
 10
19.54562236332564
 20
2.220619118375289
 10
19.54369444935669
 20
2.216570499040451
 10
19.54195932678457
 20
2.212521879705615
 10
19.5402242042125
 20
2.208087677577013
 10
19.53868187303731
 20
2.203460684051468
 10
19.53598279348078
 20
2.193242740015906
 10
19.5344404623056
 20
2.183024795980402
 10
19.53424767090872
 20
2.172614060547958
 10
19.53521162789314
 20
2.162203325115513
 10
19.53733233325909
 20
2.152178172476892
 10
19.54080257840321
 20
2.142345811235156
 10
19.54523678053187
 20
2.133091824184126
 10
19.55102052243871
 20
2.124609002720629
 10
19.55391239339219
 20
2.121138757576499
 10
19.55718984713944
 20
2.117861303829254
 10
19.56085288368045
 20
2.114583850082005
 10
19.56490150301534
 20
2.111691979128529
 10
19.56895012235012
 20
2.108800108175107
 10
19.57338432447879
 20
2.10610102861851
 10
19.57801131800433
 20
2.103787531855793
 10
19.58283110292676
 20
2.101666826489906
 10
19.58765088784918
 20
2.09973891252096
 10
19.59266346416849
 20
2.098003789948897
 10
19.59748324909092
 20
2.096654250170599
 10
19.60249582541023
 20
2.095690293186124
 10
19.60750840172954
 20
2.094919127598534
 10
19.61232818665196
 20
2.094726336201591
 10
19.61714797157439
 20
2.094726336201591
 10
19.62177496509988
 20
2.095111918995417
 10
19.62755870700678
 20
2.096075875979888
 10
19.63334244891374
 20
2.097232624361303
 10
19.63893339942369
 20
2.098774955536486
 10
19.64433155853678
 20
2.100702869505433
 10
19.64972971764997
 20
2.102823574871266
 10
19.65474229396928
 20
2.10532986303092
 10
19.65975487028859
 20
2.108221733984398
 10
19.66418907241719
 20
2.111499187731646
 10
19.66862327454579
 20
2.115162224272715
 10
19.6724791024838
 20
2.119018052210611
 10
19.67614213902482
 20
2.123259462942385
 10
19.67941959277206
 20
2.127886456467873
 10
19.68231146372554
 20
2.132899032787185
 10
19.68462496048825
 20
2.138104400503435
 10
19.6865528744572
 20
2.143888142410335
 10
19.68809520563238
 20
2.149864675714121
 10
19.68385379490072
 20
2.146201639173108
 10
19.67941959277206
 20
2.142924185425864
 10
19.67459980784963
 20
2.1398395230755
 10
19.66978002292721
 20
2.137333234915844
 10
19.6647674466079
 20
2.135019738153073
 10
19.65956207889171
 20
2.133091824184126
 10
19.65416391977857
 20
2.131549493008944
 10
19.64876576066544
 20
2.130392744627529
 10
19.64336760155236
 20
2.129621579039937
 10
19.63777665104234
 20
2.129428787643055
 10
19.63237849192921
 20
2.129428787643055
 10
19.62698033281613
 20
2.130007161833761
 10
19.621582173703
 20
2.130971118818238
 10
19.61637680598674
 20
2.132513449993417
 10
19.61117143827055
 20
2.134441363962364
 10
19.60615886195124
 20
2.136754860725138
 10
19.6013390770288
 20
2.1398395230755
 10
19.59690487490014
 20
2.143116976822745
 10
19.59285625556538
 20
2.146972804760697
 10
19.58900042762742
 20
2.151021424095536
 10
19.58572297388018
 20
2.155648417621021
 10
19.58263831152981
 20
2.160275411146566
 10
19.58013202337015
 20
2.165287987465875
 10
19.57781852660739
 20
2.170493355182127
 10
19.57589061263838
 20
2.175891514295202
 10
19.5745410728602
 20
2.181289673408338
 10
19.57338432447879
 20
2.186880623918356
 10
19.57261315889114
 20
2.192664365825254
 10
19.57222757609737
 20
2.198255316335274
 10
19.57222757609737
 20
2.204039058242173
 10
19.57261315889114
 20
2.209822800149076
 10
19.57338432447879
 20
2.215413750659095
 10
19.57550502984462
 20
2.221968658153587
 10
19.57781852660739
 20
2.227752400060484
 10
19.58032481476704
 20
2.233150559173564
 10
19.58321668572052
 20
2.23816313549293
 10
19.58630134807089
 20
2.242982920415356
 10
19.58996438461189
 20
2.247417122543962
 10
19.59420579534367
 20
2.252044116069502
 10
19.5990255802661
 20
2.256478318198109
 10
19.63565594567645
 20
2.256478318198109
 10
19.63777665104234
 20
2.256478318198109
 10
19.640282939202
 20
2.256863900991931
 10
19.64298201875853
 20
2.257249483785698
 10
19.64568109831507
 20
2.258020649373288
 10
19.64838017787166
 20
2.258791814960876
 10
19.65069367463438
 20
2.259948563342238
 10
19.65281438000033
 20
2.261105311723651
 10
19.65435671117545
 20
2.262647642898833
 10
19.68944474541068
 20
2.305447333009909
 10
19.56297358904634
 20
2.305447333009909
 10
19.55931055250527
 20
2.305254541613029
 10
19.5562258901549
 20
2.305061750216143
 10
19.55333401920148
 20
2.304483376025437
 10
19.55082773104183
 20
2.303519419040962
 10
19.54832144288218
 20
2.302362670659547
 10
19.5460079461194
 20
2.300820339484423
 10
19.54350165795975
 20
2.298699634118535
 10
19.54099536980009
 20
2.296193345958882
  0
LWPOLYLINE
  5
975
330
17
100
AcDbEntity
  8
4
  6
Continuous
100
AcDbPolyline
 90
      205
 70
     0
 43
0.0
 10
19.49706630320009
 20
2.282697948176074
 10
19.4918609354839
 20
2.288096107289208
 10
19.48626998497388
 20
2.293108683608519
 10
19.47990786887627
 20
2.297350094340238
 10
19.4731601699849
 20
2.301013130881306
 10
19.4660268882997
 20
2.304097793231668
 10
19.45870081521762
 20
2.306604081391324
 10
19.45079636794488
 20
2.30853199536027
 10
19.44289192067209
 20
2.309881535138569
 10
19.4349874733993
 20
2.310652700726159
 10
19.42689023472963
 20
2.310845492123045
 10
19.41860020466308
 20
2.310267117932335
 10
19.41069575739028
 20
2.309303160947864
 10
19.4027913101175
 20
2.307568038375797
 10
19.39507965424165
 20
2.305254541613029
 10
19.38775358115957
 20
2.302169879262665
 10
19.38062029947442
 20
2.298699634118535
 10
19.37522214036123
 20
2.29542218037129
 10
19.37020956404192
 20
2.291951935227161
 10
19.36538977911949
 20
2.287903315892325
 10
19.36095557699089
 20
2.283661905160605
 10
19.35671416625917
 20
2.279034911635061
 10
19.35285833832128
 20
2.274215126712634
 10
19.34938809317709
 20
2.26900975899644
 10
19.34611063942984
 20
2.263611599883305
 10
19.3434115598733
 20
2.258213440770171
 10
19.34090527171359
 20
2.252429698863271
 10
19.33897735774464
 20
2.246453165559485
 10
19.33743502656946
 20
2.240476632255703
 10
19.33627827818811
 20
2.234500098951861
 10
19.3356999039974
 20
2.228330774251193
 10
19.33531432120364
 20
2.221968658153587
 10
19.3356999039974
 20
2.215799333452859
 10
19.33589269539428
 20
2.212714671102498
 10
19.33627827818811
 20
2.209437217355251
 10
19.33666386098193
 20
2.206352555004948
 10
19.33743502656946
 20
2.203267892654583
 10
19.338398983554
 20
2.200376021701103
 10
19.33994131472918
 20
2.197676942144568
 10
19.34186922869813
 20
2.195556236778678
 10
19.34437551685778
 20
2.194013905603496
 10
19.34553226523914
 20
2.193435531412848
 10
19.34668901362055
 20
2.193049948619023
 10
19.34803855339885
 20
2.192857157222139
 10
19.34919530178015
 20
2.192857157222139
 10
19.35054484155845
 20
2.193049948619023
 10
19.35189438133674
 20
2.193049948619023
 10
19.35324392111505
 20
2.193435531412848
 10
19.35497904368711
 20
2.193628322809729
 10
19.41223808856546
 20
2.20365347544835
 10
19.41474437672518
 20
2.204039058242173
 10
19.41744345628166
 20
2.204424641035941
 10
19.41994974444137
 20
2.204617432432826
 10
19.42264882399792
 20
2.204810223829764
 10
19.42515511215756
 20
2.204810223829764
 10
19.42785419171416
 20
2.204810223829764
 10
19.43036047987376
 20
2.204810223829764
 10
19.43305955943036
 20
2.204617432432826
 10
19.43556584758996
 20
2.204424641035941
 10
19.43826492714655
 20
2.204039058242173
 10
19.4407712153062
 20
2.20365347544835
 10
19.44327750346586
 20
2.203075101257699
 10
19.44597658302246
 20
2.202496727066995
 10
19.44848287118211
 20
2.201725561479403
 10
19.45079636794488
 20
2.200954395891809
 10
19.45330265610448
 20
2.199990438907339
 10
19.45908639801144
 20
2.196905776556975
 10
19.46371339153699
 20
2.192664365825254
 10
19.46737642807798
 20
2.187651789505946
 10
19.46968992484071
 20
2.182060838995929
 10
19.47103946461901
 20
2.175891514295202
 10
19.47142504741282
 20
2.169529398197596
 10
19.47065388182524
 20
2.163167282100046
 10
19.46872596785629
 20
2.156997957399318
 10
19.46679805388734
 20
2.152949338064483
 10
19.4646773485214
 20
2.14909351012653
 10
19.46197826896491
 20
2.1456232649824
 10
19.45908639801144
 20
2.142345811235156
 10
19.45580894426419
 20
2.139261148884791
 10
19.45233869912006
 20
2.136562069328254
 10
19.44867566257899
 20
2.134248572565482
 10
19.44481983464104
 20
2.132127867199594
 10
19.4407712153062
 20
2.130392744627529
 10
19.43652980457448
 20
2.129043204849288
 10
19.43228839384277
 20
2.128079247864758
 10
19.42804698311105
 20
2.127693665070991
 10
19.42361278098238
 20
2.127500873674105
 10
19.41917857885372
 20
2.127886456467873
 10
19.41493716812206
 20
2.128657622055465
 10
19.41069575739028
 20
2.129814370436879
 10
19.40722551224616
 20
2.13116391021512
 10
19.40394805849891
 20
2.132706241390299
 10
19.40086339614855
 20
2.134248572565482
 10
19.39777873379818
 20
2.136176486534429
 10
19.39469407144787
 20
2.138104400503435
 10
19.3918022004944
 20
2.140417897266206
 10
19.38891032954098
 20
2.142538602632039
 10
19.38621124998439
 20
2.145044890791695
 10
19.38370496182472
 20
2.14755117895135
 10
19.38100588226819
 20
2.150250258507944
 10
19.37869238550542
 20
2.152949338064483
 10
19.37637888874265
 20
2.155648417621021
 10
19.37406539197994
 20
2.158540288574496
 10
19.37194468661404
 20
2.16162495092486
 10
19.36982398124816
 20
2.164516821878287
 10
19.36789606727921
 20
2.167601484228648
 10
19.32220450621464
 20
2.145044890791695
 10
19.32586754275567
 20
2.139068357487909
 10
19.33010895348744
 20
2.133670198374774
 10
19.33473594701292
 20
2.128464830658581
 10
19.33974852333223
 20
2.123645045736155
 10
19.34514668244537
 20
2.119403635004434
 10
19.35093042435227
 20
2.11554780706648
 10
19.35690695765605
 20
2.11207756192235
 10
19.36326907375367
 20
2.109185690968875
 10
19.36982398124816
 20
2.106679402809216
 10
19.37637888874265
 20
2.104558697443386
 10
19.3833193790309
 20
2.103016366268204
 10
19.39025986931922
 20
2.101859617886793
 10
19.39720035960753
 20
2.101281243696139
 10
19.40414084989579
 20
2.101281243696139
 10
19.41108134018411
 20
2.101859617886793
 10
19.41802183047237
 20
2.102823574871266
 10
19.42496232076068
 20
2.104558697443386
 10
19.43171001965206
 20
2.106679402809216
 10
19.43807213574966
 20
2.109378482365813
 10
19.44443425184728
 20
2.11284872750994
 10
19.45041078515106
 20
2.116511764050955
 10
19.45600173566108
 20
2.120753174782675
 10
19.46139989477415
 20
2.125380168308218
 10
19.46641247109353
 20
2.130585536024469
 10
19.47084667322212
 20
2.135983695137547
 10
19.4750880839539
 20
2.141574645647564
 10
19.47875112049491
 20
2.147743970348289
 10
19.48183578284528
 20
2.15410608644584
 10
19.48453486240181
 20
2.160468202543448
 10
19.4866555677677
 20
2.167215901434879
 10
19.48819789894288
 20
2.174156391723137
 10
19.48896906453041
 20
2.181289673408338
 10
19.48916185592731
 20
2.186687832521414
 10
19.48896906453041
 20
2.19208599163455
 10
19.48839069033977
 20
2.197291359350744
 10
19.48742673335523
 20
2.202689518463874
 10
19.48588440218011
 20
2.207702094783189
 10
19.48414927960799
 20
2.212714671102498
 10
19.48183578284528
 20
2.217534456024923
 10
19.4789439118918
 20
2.222161449550468
 10
19.47663041512909
 20
2.225246111900831
 10
19.47412412696937
 20
2.22794519145737
 10
19.47142504741282
 20
2.230451479617025
 10
19.46834038506247
 20
2.232764976379798
 10
19.46525572271216
 20
2.234885681745685
 10
19.46197826896491
 20
2.23662080431775
 10
19.45850802382073
 20
2.238355926889811
 10
19.45484498727966
 20
2.239705466668109
 10
19.45118195073865
 20
2.241055006446351
 10
19.44751891419764
 20
2.242018963430826
 10
19.44366308625968
 20
2.242982920415356
 10
19.44000004971861
 20
2.243754086002891
 10
19.43614422178072
 20
2.244332460193599
 10
19.43228839384277
 20
2.24471804298742
 10
19.42843256590482
 20
2.245103625781188
 10
19.4247695293638
 20
2.245296417178074
 10
19.42245603260102
 20
2.24548920857501
 10
19.41994974444137
 20
2.24548920857501
 10
19.4176362476786
 20
2.245296417178074
 10
19.41532275091583
 20
2.245296417178074
 10
19.41300925415306
 20
2.245103625781188
 10
19.4105029659934
 20
2.244910834384306
 10
19.40818946923069
 20
2.244525251590478
 10
19.40587597246786
 20
2.244332460193599
 10
19.40356247570514
 20
2.243946877399833
 10
19.40124897894231
 20
2.243561294606005
 10
19.39874269078272
 20
2.24317571181224
 10
19.39642919401995
 20
2.242790129018414
 10
19.39411569725718
 20
2.242404546224649
 10
19.3918022004944
 20
2.242018963430826
 10
19.38929591233475
 20
2.241633380637059
 10
19.38698241557198
 20
2.241247797843235
 10
19.35266554692434
 20
2.232957767776678
 10
19.35189438133674
 20
2.236235221523928
 10
19.35227996413051
 20
2.241247797843235
 10
19.35362950390881
 20
2.247417122543962
 10
19.3557502092747
 20
2.254357612832274
 10
19.358834871625
 20
2.261298103120533
 10
19.36269069956302
 20
2.267853010615024
 10
19.36712490169162
 20
2.27325116972816
 10
19.37233026940781
 20
2.277299789062996
 10
19.37695726293335
 20
2.279420494428828
 10
19.38177704785571
 20
2.280962825604009
 10
19.38678962417509
 20
2.282119573985422
 10
19.39199499189134
 20
2.282697948176074
 10
19.39720035960753
 20
2.282890739573014
 10
19.40259851872061
 20
2.282697948176074
 10
19.40780388643681
 20
2.281926782588484
 10
19.41300925415306
 20
2.280770034207125
 10
19.41821462186931
 20
2.279227703031943
 10
19.42303440679174
 20
2.277299789062996
 10
19.42785419171416
 20
2.275179083697104
 10
19.43228839384277
 20
2.272672795537451
 10
19.43633701317761
 20
2.269780924583975
 10
19.44000004971861
 20
2.266503470836727
 10
19.44327750346586
 20
2.263033225692598
 10
19.44616937441933
 20
2.259370189151586
 10
19.49706630320009
 20
2.282697948176074
  0
LWPOLYLINE
  5
A44
330
17
100
AcDbEntity
  8
4
  6
Continuous
100
AcDbPolyline
 90
       61
 70
     0
 43
0.0
 10
19.84771494007835
 20
2.219655161390813
 10
19.85330589058842
 20
2.22004074418458
 10
19.8587040497015
 20
2.220811909772169
 10
19.86352383462393
 20
2.221968658153587
 10
19.86795803675252
 20
2.223510989328766
 10
19.87181386469048
 20
2.225438903297714
 10
19.87547690123149
 20
2.227559608663602
 10
19.87875435497874
 20
2.230065896823258
 10
19.88164622593222
 20
2.232957767776678
 10
19.88415251409193
 20
2.23604243012704
 10
19.88627321945776
 20
2.239319883874288
 10
19.88800834202983
 20
2.242790129018414
 10
19.88935788180812
 20
2.24664595695637
 10
19.89051463018948
 20
2.250501784894323
 10
19.89128579577707
 20
2.254550404229159
 10
19.89167137857084
 20
2.258791814960876
 10
19.89186416996777
 20
2.26322601708948
 10
19.89167137857084
 20
2.267274636424318
 10
19.89090021298331
 20
2.271323255759154
 10
19.88993625599877
 20
2.275179083697104
 10
19.8883939248236
 20
2.279034911635061
 10
19.88665880225153
 20
2.282697948176074
 10
19.88434530548881
 20
2.286168193320259
 10
19.88203180872599
 20
2.289445647067502
 10
19.87913993777256
 20
2.29253030941781
 10
19.87624806681914
 20
2.295229388974405
 10
19.87297061307189
 20
2.297735677134061
 10
19.86950036792777
 20
2.299856382499892
 10
19.8658373313867
 20
2.301784296468897
 10
19.86217429484563
 20
2.303326627644078
 10
19.85831846690773
 20
2.304290584628553
 10
19.85426984757283
 20
2.305061750216143
 10
19.85022122823806
 20
2.305254541613029
 10
19.71507445901333
 20
2.305254541613029
 10
19.71700237298228
 20
2.303712210437845
 10
19.71873749555435
 20
2.302169879262665
 10
19.7204726181264
 20
2.3004347566906
 10
19.72201494930159
 20
2.298892425515417
 10
19.72355728047678
 20
2.297350094340238
 10
19.72509961165195
 20
2.29542218037129
 10
19.72644915143025
 20
2.29349426640234
 10
19.72779869120849
 20
2.291180769639568
 10
19.7297266051775
 20
2.286939358907849
 10
19.73126893635268
 20
2.281926782588484
 10
19.7322328933371
 20
2.277106997666056
 10
19.73261847613092
 20
2.27325116972816
 10
19.73281126752786
 20
2.099931703917842
 10
19.77927399417995
 20
2.14061068866309
 10
19.77927399417995
 20
2.22100470116911
 10
19.79970988225108
 20
2.22119749256599
 10
19.86930757653082
 20
2.105908237221628
 10
19.92926570096572
 20
2.10552265442786
 10
19.92560266442471
 20
2.107643359793692
 10
19.9219396278837
 20
2.11014964795335
 10
19.91846938273957
 20
2.112655936113061
 10
19.91519192899232
 20
2.11554780706648
 10
19.91191447524508
 20
2.11824688662302
 10
19.90882981289472
 20
2.121331548973385
 10
19.90574515054435
 20
2.124416211323745
 10
19.90266048819399
 20
2.127693665070991
 10
19.84771494007835
 20
2.219655161390813
  0
LWPOLYLINE
  5
A83
330
17
100
AcDbEntity
  8
4
  6
Continuous
100
AcDbPolyline
 90
       21
 70
     0
 43
0.0
 10
19.84675098309393
 20
2.26322601708948
 10
19.84617260890317
 20
2.257249483785698
 10
19.8444374863311
 20
2.251658533275681
 10
19.84173840677456
 20
2.246838748353253
 10
19.83807537023348
 20
2.242597337621535
 10
19.83364116810495
 20
2.239127092477404
 10
19.82862859178558
 20
2.23662080431775
 10
19.82323043267244
 20
2.235078473142567
 10
19.8174466907656
 20
2.234500098951861
 10
19.7786956199893
 20
2.234500098951861
 10
19.7786956199893
 20
2.284047487954372
 10
19.77464700065441
 20
2.29349426640234
 10
19.81802506495625
 20
2.29349426640234
 10
19.82400159826009
 20
2.292915892211633
 10
19.82939975737317
 20
2.291180769639568
 10
19.83421954229559
 20
2.288481690082974
 10
19.83846095302737
 20
2.284818653541961
 10
19.8419311981715
 20
2.28019166001642
 10
19.8444374863311
 20
2.275179083697104
 10
19.84617260890317
 20
2.269395341790207
 10
19.84675098309393
 20
2.26322601708948
  0
LINE
  5
A9A
330
17
100
AcDbEntity
  8
0
100
AcDbLine
 10
20.62817987106609
 20
1.451419902940996
 30
0.0
 11
20.62817987106609
 21
1.69146208111434
 31
0.0
  0
TEXT
  5
A9B
330
17
100
AcDbEntity
  8
3
100
AcDbText
 10
20.49544297276494
 20
1.520552226353889
 30
0.0
 40
0.1041770135190657
  1
1
  7
SIMPLEX
100
AcDbText
  0
TEXT
  5
A9C
330
17
100
AcDbEntity
  8
3
100
AcDbText
 10
21.11276638878037
 20
1.530606655606787
 30
0.0
 40
0.0714237604686715
  1
.75=1
  7
SIMPLEX
 72
     1
 11
21.25051221254138
 21
1.530606655606787
 31
0.0
100
AcDbText
  0
TEXT
  5
A9D
330
17
100
AcDbEntity
  8
3
100
AcDbText
 10
20.76806548116541
 20
1.54113387872207
 30
0.0
 40
0.0520885067595329
  1
SCALE:
  7
SIMPLEX
100
AcDbText
  0
LINE
  5
A9E
330
17
100
AcDbEntity
  8
0
100
AcDbLine
 10
21.08106813694735
 20
1.066399999999997
 30
0.0
 11
21.08106813694735
 21
1.451419902940996
 31
0.0
  0
TEXT
  5
A9F
330
17
100
AcDbEntity
  8
3
100
AcDbText
 10
21.26626535168883
 20
1.144983469132694
 30
0.0
 40
0.1166782551413537
  1
A
  7
SIMPLEX
 72
     1
 11
21.3107142107903
 21
1.144983469132694
 31
0.0
100
AcDbText
  0
TEXT
  5
AA0
330
17
100
AcDbEntity
  8
3
100
AcDbText
 10
21.23860629002328
 20
1.35345733287232
 30
0.0
 40
0.0520885067595329
  1
REV.
  7
SIMPLEX
100
AcDbText
  0
TEXT
  5
AA1
330
17
100
AcDbEntity
  8
4
100
AcDbText
 10
20.47592896321201
 20
2.102634114010359
 30
0.0
 40
0.109
  1
inc., erie, pa.
  7
T
100
AcDbText
  0
LWPOLYLINE
  5
AA3
330
17
100
AcDbEntity
  8
4
  6
Continuous
 62
     4
100
AcDbPolyline
 90
      205
 70
     0
 43
0.0
 10
20.37967684589975
 20
2.281348408397831
 10
20.37447147818355
 20
2.28674656751091
 10
20.36888052767348
 20
2.291566352433338
 10
20.36251841157593
 20
2.295807763165059
 10
20.35577071268449
 20
2.299663591103009
 10
20.34863743099935
 20
2.302748253453372
 10
20.34131135791721
 20
2.305254541613029
 10
20.33359970204136
 20
2.307182455581973
 10
20.32569525476863
 20
2.30853199536027
 10
20.31759801609896
 20
2.30911036955098
 10
20.30950077742929
 20
2.309303160947864
 10
20.30140353875962
 20
2.308917578154094
 10
20.29330630008994
 20
2.307760829772683
 10
20.28540185281715
 20
2.306025707200618
 10
20.27769019694125
 20
2.303712210437845
 10
20.27036412385922
 20
2.300820339484423
 10
20.26323084217397
 20
2.297350094340238
 10
20.25783268306089
 20
2.29407264059299
 10
20.25282010674159
 20
2.290409604051979
 10
20.24800032181915
 20
2.286553776114024
 10
20.2435661196905
 20
2.282312365382308
 10
20.23932470895883
 20
2.277685371856763
 10
20.23546888102082
 20
2.272672795537451
 10
20.23180584447981
 20
2.267660219218142
 10
20.22872118212944
 20
2.262262060105005
 10
20.22582931117602
 20
2.25667110959499
 10
20.22332302301637
 20
2.250887367688087
 10
20.22139510904742
 20
2.245103625781188
 10
20.21985277787224
 20
2.239127092477404
 10
20.21869602949082
 20
2.232957767776678
 10
20.21792486390323
 20
2.226788443076009
 10
20.21773207250635
 20
2.220619118375289
 10
20.21811765530018
 20
2.214449793674619
 10
20.21831044669705
 20
2.211172339927371
 10
20.21869602949082
 20
2.208087677577013
 10
20.21908161228459
 20
2.204810223829764
 10
20.21985277787224
 20
2.201725561479403
 10
20.22100952625359
 20
2.198833690525924
 10
20.22235906603184
 20
2.196134610969386
 10
20.22447977139772
 20
2.194013905603496
 10
20.22698605955738
 20
2.192471574428374
 10
20.2281428079388
 20
2.191893200237664
 10
20.22929955632015
 20
2.19150761744384
 10
20.23064909609845
 20
2.19150761744384
 10
20.23180584447981
 20
2.19150761744384
 10
20.2331553842581
 20
2.19150761744384
 10
20.2345049240364
 20
2.191700408840784
 10
20.23604725521158
 20
2.19208599163455
 10
20.23778237778365
 20
2.192278783031429
 10
20.29504142266201
 20
2.202303935670107
 10
20.29754771082167
 20
2.202689518463874
 10
20.3002467903782
 20
2.20288230986076
 10
20.30275307853791
 20
2.203267892654583
 10
20.30545215809439
 20
2.203267892654583
 10
20.3079584462541
 20
2.203460684051468
 10
20.31065752581064
 20
2.203460684051468
 10
20.31316381397031
 20
2.203267892654583
 10
20.3158628935269
 20
2.203075101257699
 10
20.31836918168649
 20
2.20288230986076
 10
20.32106826124309
 20
2.202496727066995
 10
20.32357454940274
 20
2.202111144273168
 10
20.3260808375624
 20
2.201532770082518
 10
20.32858712572206
 20
2.200954395891809
 10
20.33109341388171
 20
2.200376021701103
 10
20.33359970204136
 20
2.199604856113513
 10
20.33591319880414
 20
2.198640899129038
 10
20.3416969407111
 20
2.195556236778678
 10
20.34651672563347
 20
2.191314826046958
 10
20.34998697077766
 20
2.186302249727646
 10
20.35249325893725
 20
2.180518507820749
 10
20.35384279871555
 20
2.174541974516963
 10
20.35403559011244
 20
2.168179858419354
 10
20.3532644245249
 20
2.161817742321745
 10
20.35133651055589
 20
2.155455626224138
 10
20.34940859658689
 20
2.1514070068893
 10
20.34728789122105
 20
2.14755117895135
 10
20.34458881166446
 20
2.144080933807218
 10
20.3416969407111
 20
2.140803480059974
 10
20.33861227836074
 20
2.137718817709613
 10
20.33514203321655
 20
2.135019738153073
 10
20.3312862052786
 20
2.132706241390299
 10
20.3274303773407
 20
2.130585536024469
 10
20.32338175800586
 20
2.128850413452346
 10
20.31933313867103
 20
2.127693665070991
 10
20.31489893654236
 20
2.126729708086516
 10
20.31065752581064
 20
2.126151333895808
 10
20.30641611507893
 20
2.125958542498926
 10
20.30198191295026
 20
2.126344125292693
 10
20.29774050221854
 20
2.127115290880283
 10
20.29349909148682
 20
2.128464830658581
 10
20.2900288463427
 20
2.129814370436879
 10
20.28675139259545
 20
2.131356701612002
 10
20.28347393884821
 20
2.132899032787185
 10
20.28038927649784
 20
2.13482694675619
 10
20.27730461414748
 20
2.136754860725138
 10
20.27441274319401
 20
2.138875566091024
 10
20.27171366363752
 20
2.1411890628538
 10
20.26882179268404
 20
2.143695351013453
 10
20.26631550452433
 20
2.146201639173108
 10
20.26380921636473
 20
2.148707927332762
 10
20.26130292820502
 20
2.1514070068893
 10
20.2589894314423
 20
2.15429887784278
 10
20.25667593467948
 20
2.157190748796205
 10
20.25455522931364
 20
2.16008261974968
 10
20.25243452394782
 20
2.162974490703101
 10
20.25050660997881
 20
2.166059153053465
 10
20.20462225751737
 20
2.143695351013453
 10
20.20828529405838
 20
2.137718817709613
 10
20.2125267047901
 20
2.132127867199594
 10
20.21715369831564
 20
2.1269224994834
 10
20.22216627463496
 20
2.122295505957857
 10
20.22756443374809
 20
2.117861303829254
 10
20.23334817565499
 20
2.114005475891301
 10
20.23951750035571
 20
2.110535230747172
 10
20.24568682505638
 20
2.107643359793692
 10
20.25224173255093
 20
2.105137071634036
 10
20.2589894314423
 20
2.103016366268204
 10
20.26592992173056
 20
2.101474035093025
 10
20.27287041201882
 20
2.100510078108551
 10
20.27981090230714
 20
2.099931703917842
 10
20.28675139259545
 20
2.099931703917842
 10
20.29369188288371
 20
2.100317286711609
 10
20.30063237317197
 20
2.101474035093025
 10
20.30757286346034
 20
2.103016366268204
 10
20.31432056235172
 20
2.10532986303092
 10
20.32068267844932
 20
2.108028942587516
 10
20.32704479454688
 20
2.111306396334763
 10
20.33302132785066
 20
2.115162224272715
 10
20.33880506975762
 20
2.119403635004434
 10
20.34401043747381
 20
2.124030628529919
 10
20.34902301379312
 20
2.129043204849288
 10
20.35365000731866
 20
2.134441363962364
 10
20.3576986266535
 20
2.140225105869268
 10
20.36136166319457
 20
2.146201639173108
 10
20.36463911694176
 20
2.152563755270715
 10
20.36714540510141
 20
2.159118662765206
 10
20.3692661104673
 20
2.165866361656581
 10
20.37080844164249
 20
2.17280685194484
 10
20.37157960723007
 20
2.179747342233155
 10
20.37196519002384
 20
2.185145501346291
 10
20.37177239862696
 20
2.190543660459364
 10
20.37119402443631
 20
2.195941819572503
 10
20.37023006745178
 20
2.201147187288695
 10
20.3686877362766
 20
2.206352555004948
 10
20.36675982230764
 20
2.211365131324254
 10
20.36444632554488
 20
2.216184916246684
 10
20.36155445459145
 20
2.220811909772169
 10
20.35924095782862
 20
2.223703780725649
 10
20.35673466966902
 20
2.22659565167907
 10
20.35403559011244
 20
2.229101939838783
 10
20.35114371915901
 20
2.231222645204614
 10
20.34786626541171
 20
2.233343350570502
 10
20.34458881166446
 20
2.235271264539453
 10
20.34111856652033
 20
2.236813595714632
 10
20.3376483213762
 20
2.238355926889811
 10
20.33398528483519
 20
2.23951267527117
 10
20.33032224829412
 20
2.240669423652584
 10
20.32646642035617
 20
2.241633380637059
 10
20.32261059241827
 20
2.242404546224649
 10
20.31875476448032
 20
2.242982920415356
 10
20.31489893654236
 20
2.243368503209123
 10
20.31104310860447
 20
2.243754086002891
 10
20.3073800720634
 20
2.243946877399833
 10
20.30506657530063
 20
2.243946877399833
 10
20.30256028714097
 20
2.243946877399833
 10
20.3002467903782
 20
2.243946877399833
 10
20.29793329361549
 20
2.243754086002891
 10
20.29561979685266
 20
2.243561294606005
 10
20.29330630008994
 20
2.243368503209123
 10
20.29099280332717
 20
2.24317571181224
 10
20.2886793065644
 20
2.242790129018414
 10
20.28617301840474
 20
2.242404546224649
 10
20.28385952164197
 20
2.242018963430826
 10
20.2815460248792
 20
2.241633380637059
 10
20.27923252811643
 20
2.241440589240174
 10
20.27691903135371
 20
2.241055006446351
 10
20.27460553459094
 20
2.240669423652584
 10
20.27209924643129
 20
2.240283840858759
 10
20.26978574966852
 20
2.239898258064995
 10
20.23527608962393
 20
2.231415436601499
 10
20.23469771543329
 20
2.234692890348743
 10
20.23508329822705
 20
2.239705466668109
 10
20.23624004660847
 20
2.245874791368778
 10
20.23855354337118
 20
2.252815281657094
 10
20.24144541432466
 20
2.259755771945353
 10
20.24530124226261
 20
2.266310679439845
 10
20.2499282357881
 20
2.271708838552978
 10
20.25513360350435
 20
2.275757457887813
 10
20.25976059702984
 20
2.277878163253646
 10
20.26458038195226
 20
2.279613285825768
 10
20.26959295827158
 20
2.280577242810243
 10
20.27479832598783
 20
2.281348408397831
 10
20.28000369370408
 20
2.281541199794716
 10
20.28540185281715
 20
2.281155617000892
 10
20.29060722053335
 20
2.280577242810243
 10
20.29581258824959
 20
2.279420494428828
 10
20.30101795596579
 20
2.277878163253646
 10
20.30583774088822
 20
2.275950249284698
 10
20.31046473441371
 20
2.273636752521925
 10
20.31489893654236
 20
2.271130464362272
 10
20.3189475558772
 20
2.26823859340885
 10
20.32280338381515
 20
2.264961139661604
 10
20.3260808375624
 20
2.261490894517416
 10
20.32877991711899
 20
2.257827857976405
 10
20.37967684589975
 20
2.281348408397831
  0
TEXT
  5
B76
330
17
100
AcDbEntity
  8
3
100
AcDbText
 10
16.2785345405091
 20
12.87487493700387
 30
0.0
 40
0.0779805
  1
 
  7
SIMPLEX
100
AcDbText
  0
TEXT
  5
B77
330
17
100
AcDbEntity
  8
3
100
AcDbText
 10
20.11929431500398
 20
12.87998221498577
 30
0.0
 40
0.07810546875
  1
 
  7
SIMPLEX
 72
     1
 11
20.15462774134327
 21
12.87998221498577
 31
0.0
100
AcDbText
  0
TEXT
  5
B78
330
17
100
AcDbEntity
  8
3
100
AcDbText
 10
21.20725167601305
 20
12.87936762882998
 30
0.0
 40
0.0779805
  1
 
 41
0.875
  7
SIMPLEX
 72
     1
 11
21.23811895726305
 21
12.87936762882998
 31
0.0
100
AcDbText
  0
TEXT
  5
B79
330
17
100
AcDbEntity
  8
3
100
AcDbText
 10
16.04817041930443
 20
12.71850052453636
 30
0.0
 40
0.07810546875
  1
 
  7
SIMPLEX
 72
     1
 11
16.08350384564371
 21
12.71850052453636
 31
0.0
100
AcDbText
  0
TEXT
  5
B7D
330
17
100
AcDbEntity
  8
3
100
AcDbText
 10
16.04817041930443
 20
12.56263485991118
 30
0.0
 40
0.07810546875
  1
 
  7
SIMPLEX
 72
     1
 11
16.08350384564371
 21
12.56263485991118
 31
0.0
100
AcDbText
  0
TEXT
  5
B7E
330
17
100
AcDbEntity
  8
3
100
AcDbText
 10
16.2785345405091
 20
12.5631436077535
 30
0.0
 40
0.0779805
  1
 
  7
SIMPLEX
100
AcDbText
  0
TEXT
  5
B7F
330
17
100
AcDbEntity
  8
3
100
AcDbText
 10
20.11929431500398
 20
12.5682508857354
 30
0.0
 40
0.07810546875
  1
 
  7
SIMPLEX
 72
     1
 11
20.15462774134327
 21
12.5682508857354
 31
0.0
100
AcDbText
  0
TEXT
  5
B80
330
17
100
AcDbEntity
  8
3
100
AcDbText
 10
21.20725167601305
 20
12.56763629957962
 30
0.0
 40
0.0779805
  1
 
 41
0.875
  7
SIMPLEX
 72
     1
 11
21.23811895726305
 21
12.56763629957962
 31
0.0
100
AcDbText
  0
LINE
  5
B83
330
17
100
AcDbEntity
  8
0
100
AcDbLine
 10
4.910020100241998
 20
8.408034273101021
 30
0.0
 11
10.11099248398734
 21
8.408034273101021
 31
0.0
  0
LINE
  5
B84
330
17
100
AcDbEntity
  8
0
100
AcDbLine
 10
10.11099248398734
 20
8.408034273101021
 30
0.0
 11
10.11099248398734
 21
8.480945100910535
 31
0.0
  0
LINE
  5
B85
330
17
100
AcDbEntity
  8
0
100
AcDbLine
 10
4.910020100241998
 20
8.408034273101021
 30
0.0
 11
4.910020100241998
 21
8.480945100910535
 31
0.0
  0
LINE
  5
B86
330
17
100
AcDbEntity
  8
0
100
AcDbLine
 10
5.590521159797463
 20
10.27941218687855
 30
0.0
 11
9.430491424431872
 21
10.27941218687855
 31
0.0
  0
LINE
  5
B87
330
17
100
AcDbEntity
  8
0
100
AcDbLine
 10
9.357580596622359
 20
10.27941218687855
 30
0.0
 11
9.381884205892195
 21
8.408034273101021
 31
0.0
  0
LINE
  5
B88
330
17
100
AcDbEntity
  8
0
100
AcDbLine
 10
5.663431987606982
 20
10.27941218687855
 30
0.0
 11
5.639128378337138
 21
8.408034273101021
 31
0.0
  0
LINE
  5
B89
330
17
100
AcDbEntity
  8
0
100
AcDbLine
 10
10.06238526544766
 20
8.529552319450214
 30
0.0
 11
9.619669403230419
 21
8.529552319450214
 31
0.0
  0
LINE
  5
B8A
330
17
100
AcDbEntity
  8
0
100
AcDbLine
 10
9.430491424431872
 20
10.27941218687855
 30
0.0
 11
9.522604642047506
 21
8.621374269797181
 31
0.0
  0
LINE
  5
B8B
330
17
100
AcDbEntity
  8
0
100
AcDbLine
 10
4.958627318781674
 20
8.529552319450214
 30
0.0
 11
5.401343180998915
 21
8.529552319450214
 31
0.0
  0
LINE
  5
B8C
330
17
100
AcDbEntity
  8
0
100
AcDbLine
 10
5.590521159797463
 20
10.27941218687855
 30
0.0
 11
5.498407942181831
 21
8.621374269797181
 31
0.0
  0
POINT
  5
B8D
330
17
100
AcDbEntity
  8
DEFPOINTS
  6
ByBlock
 62
     0
100
AcDbPoint
 10
4.910020100241998
 20
8.529552319450214
 30
0.0
  0
POINT
  5
B8E
330
17
100
AcDbEntity
  8
DEFPOINTS
  6
ByBlock
 62
     0
100
AcDbPoint
 10
4.910020100241998
 20
8.408034273101021
 30
0.0
  0
ARC
  5
B8F
330
17
100
AcDbEntity
  8
0
100
AcDbCircle
 10
4.958627318781674
 20
8.480945100910535
 30
0.0
 40
0.0486072185396761
100
AcDbArc
 50
90.0
 51
180.0
  0
ARC
  5
B90
330
17
100
AcDbEntity
  8
0
100
AcDbCircle
 10
5.401343180998915
 20
8.626766756529566
 30
0.0
 40
0.0972144370793522
100
AcDbArc
 50
270.0
 51
356.8201698801356
  0
ARC
  5
B91
330
17
100
AcDbEntity
  8
0
100
AcDbCircle
 10
9.619669403230419
 20
8.626766756529566
 30
0.0
 40
0.0972144370793522
100
AcDbArc
 50
183.1798301198642
 51
270.0
  0
ARC
  5
B92
330
17
100
AcDbEntity
  8
0
100
AcDbCircle
 10
10.06238526544766
 20
8.480945100910535
 30
0.0
 40
0.0486072185396761
100
AcDbArc
 50
0.0
 51
90.0
  0
POINT
  5
B93
330
17
100
AcDbEntity
  8
DEFPOINTS
  6
ByBlock
 62
     0
100
AcDbPoint
 10
4.910020100241998
 20
8.408034273101021
 30
0.0
  0
POINT
  5
B94
330
17
100
AcDbEntity
  8
DEFPOINTS
  6
ByBlock
 62
     0
100
AcDbPoint
 10
5.498407942181831
 20
8.621374269797181
 30
0.0
  0
POINT
  5
B95
330
17
100
AcDbEntity
  8
DEFPOINTS
  6
ByBlock
 62
     0
100
AcDbPoint
 10
4.910020100241998
 20
8.408034273101021
 30
0.0
  0
POINT
  5
B96
330
17
100
AcDbEntity
  8
DEFPOINTS
  6
ByBlock
 62
     0
100
AcDbPoint
 10
5.639128378337138
 20
8.408034273101021
 30
0.0
  0
POINT
  5
B97
330
17
100
AcDbEntity
  8
DEFPOINTS
  6
ByBlock
 62
     0
100
AcDbPoint
 10
10.11099248398734
 20
8.408034273101021
 30
0.0
  0
POINT
  5
B98
330
17
100
AcDbEntity
  8
DEFPOINTS
  6
ByBlock
 62
     0
100
AcDbPoint
 10
9.522604642047506
 20
8.621374269797181
 30
0.0
  0
POINT
  5
B99
330
17
100
AcDbEntity
  8
DEFPOINTS
  6
ByBlock
 62
     0
100
AcDbPoint
 10
9.522604642047506
 20
8.621374269797181
 30
0.0
  0
POINT
  5
B9A
330
17
100
AcDbEntity
  8
DEFPOINTS
  6
ByBlock
 62
     0
100
AcDbPoint
 10
9.381884205892195
 20
8.408034273101021
 30
0.0
  0
CIRCLE
  5
B9B
330
17
100
AcDbEntity
  8
0
 62
     7
100
AcDbCircle
 10
14.59414060803798
 20
9.353801918489914
 30
0.0
 40
2.6
  0
POINT
  5
BB3
330
17
100
AcDbEntity
  8
DEFPOINTS
  6
ByBlock
 62
     0
100
AcDbPoint
 10
10.06238526544766
 20
8.52955231945021
 30
0.0
  0
POINT
  5
BB4
330
17
100
AcDbEntity
  8
DEFPOINTS
  6
ByBlock
 62
     0
100
AcDbPoint
 10
10.11099248398734
 20
8.408034273101021
 30
0.0
  0
CIRCLE
  5
BC9
330
17
100
AcDbEntity
  8
0
 62
     7
100
AcDbCircle
 10
16.68044145064919
 20
10.0496987212303
 30
0.0
 40
0.07025
  0
CIRCLE
  5
BCA
330
17
100
AcDbEntity
  8
0
 62
     7
100
AcDbCircle
 10
14.5770058348684
 20
11.55303586818535
 30
0.0
 40
0.07025
  0
CIRCLE
  5
BCB
330
17
100
AcDbEntity
  8
0
 62
     7
100
AcDbCircle
 10
12.49724989321846
 20
10.01710644587397
 30
0.0
 40
0.07025
  0
CIRCLE
  5
BCC
330
17
100
AcDbEntity
  8
0
 62
     7
100
AcDbCircle
 10
13.31532564875503
 20
7.564512711609522
 30
0.0
 40
0.07025
  0
CIRCLE
  5
BCD
330
17
100
AcDbEntity
  8
0
 62
     7
100
AcDbCircle
 10
15.90068021269884
 20
7.584655845550422
 30
0.0
 40
0.07025
  0
SOLID
  5
BCE
330
17
100
AcDbEntity
  8
3
 62
     3
100
AcDbTrace
 10
16.00823657852989
 20
7.367606902998962
 30
0.0
 11
16.062281697558
 21
7.393666931955936
 31
0.0
 12
15.95707905117302
 22
7.542772274561754
 32
0.0
 13
15.95707905117302
 23
7.542772274561754
 33
0.0
  0
CIRCLE
  5
BD3
330
17
100
AcDbEntity
  8
0
 62
     7
100
AcDbCircle
 10
14.59414060803798
 20
9.353801918489914
 30
0.0
 40
1.919999999999999
  0
CIRCLE
  5
BD4
330
17
100
AcDbEntity
  8
0
 62
     7
100
AcDbCircle
 10
14.59414060803798
 20
9.353801918489914
 30
0.0
 40
1.844999999999999
  0
LINE
  5
C29
330
17
100
AcDbEntity
  8
3
  6
PHANTOM
100
AcDbLine
 10
11.46867682952566
 20
9.353801918489914
 30
0.0
 11
17.66689458849343
 21
9.353801918489914
 31
0.0
  0
SOLID
  5
C2A
330
17
100
AcDbEntity
  8
3
100
AcDbTrace
 10
11.44784349619233
 20
9.836747803831672
 30
0.0
 11
11.489510162859
 21
9.836747803831672
 31
0.0
 12
11.46867682952566
 22
9.961747803831672
 32
0.0
 13
11.46867682952566
 23
9.961747803831672
 33
0.0
  0
LINE
  5
C2B
330
17
100
AcDbEntity
  8
3
100
AcDbLine
 10
11.46867682952566
 20
9.836747803831672
 30
0.0
 11
11.46867682952566
 21
9.353801918489914
 31
0.0
  0
LINE
  5
C2C
330
17
100
AcDbEntity
  8
3
100
AcDbLine
 10
17.66689458849343
 20
9.836747803831672
 30
0.0
 11
17.66689458849343
 21
9.353801918489914
 31
0.0
  0
SOLID
  5
C2D
330
17
100
AcDbEntity
  8
3
100
AcDbTrace
 10
17.64606125516009
 20
9.836747803831672
 30
0.0
 11
17.68772792182676
 21
9.836747803831672
 31
0.0
 12
17.66689458849343
 22
9.961747803831672
 32
0.0
 13
17.66689458849343
 23
9.961747803831672
 33
0.0
  0
INSERT
  5
C2E
330
17
100
AcDbEntity
  8
3
100
AcDbBlockReference
  2
*X5
 10
0.0
 20
0.0
 30
0.0
1001
ACAD
1000
HATCH
1002
{
1070
    16
1000
ANSI31
1040
1.0
1040
0.0
1002
}
  0
DIMENSION
  5
D14
330
17
100
AcDbEntity
  8
3
100
AcDbDimension
  2
*D6
 10
9.381884205892195
 20
8.165875491822419
 30
0.0
 11
7.510506292114667
 21
8.165875491822419
 31
0.0
 70
    32
 71
     5
 42
3.742755827555056
  3
STANDARD
100
AcDbAlignedDimension
 13
5.639128378337138
 23
8.408034273101021
 33
0.0
 14
9.381884205892195
 24
8.408034273101021
 34
0.0
100
AcDbRotatedDimension
1001
ACAD
1000
DSTYLE
1002
{
1070
    41
1040
0.125
1070
    42
1040
0.063
1070
    44
1040
0.063
1070
    78
1070
     4
1070
   140
1040
0.125
1070
   141
1040
-0.125
1070
   174
1070
     1
1070
   271
1070
     3
1070
   272
1070
     3
1070
   279
1070
     2
1070
   284
1070
     4
1070
   285
1070
     4
1070
   286
1070
     4
1070
   340
1005
27
1002
}
  0
DIMENSION
  5
D22
330
17
100
AcDbEntity
  8
3
100
AcDbDimension
  2
*D7
 10
10.11099248398734
 20
7.647626964847681
 30
0.0
 11
7.510506292114668
 21
7.647626964847681
 31
0.0
 70
    32
 71
     5
 42
5.20097238374534
  3
STANDARD
100
AcDbAlignedDimension
 13
4.910020100241998
 23
8.408034273101021
 33
0.0
 14
10.11099248398734
 24
8.408034273101021
 34
0.0
100
AcDbRotatedDimension
1001
ACAD
1000
DSTYLE
1002
{
1070
    41
1040
0.125
1070
    42
1040
0.063
1070
    44
1040
0.063
1070
    78
1070
     4
1070
   140
1040
0.125
1070
   141
1040
-0.125
1070
   174
1070
     1
1070
   271
1070
     3
1070
   272
1070
     3
1070
   279
1070
     2
1070
   284
1070
     4
1070
   285
1070
     4
1070
   286
1070
     4
1070
   340
1005
27
1002
}
  0
DIMENSION
  5
D30
330
17
100
AcDbEntity
  8
3
100
AcDbDimension
  2
*D8
 10
3.841648723031738
 20
10.27941218687855
 30
0.0
 11
3.841648723031736
 21
9.343723229989787
 31
0.0
 70
    32
 71
     5
 42
1.871377913777529
  3
STANDARD
100
AcDbAlignedDimension
 13
4.910020100241998
 23
8.408034273101021
 33
0.0
 14
5.590521159797463
 24
10.27941218687855
 34
0.0
 50
90.0
100
AcDbRotatedDimension
1001
ACAD
1000
DSTYLE
1002
{
1070
    41
1040
0.125
1070
    42
1040
0.063
1070
    44
1040
0.063
1070
    78
1070
     4
1070
   140
1040
0.125
1070
   141
1040
-0.125
1070
   174
1070
     1
1070
   271
1070
     3
1070
   272
1070
     3
1070
   279
1070
     2
1070
   284
1070
     4
1070
   285
1070
     4
1070
   286
1070
     4
1070
   340
1005
27
1002
}
  0
DIMENSION
  5
D3F
330
17
100
AcDbEntity
  8
3
100
AcDbDimension
  2
*D9
 10
12.5692413196252
 20
7.722917841743377
 30
0.0
 11
17.33528937015346
 21
11.14150177184669
 31
0.0
 70
    35
 71
     5
 42
5.199999999999996
  3
STANDARD
100
AcDbDiametricDimension
 15
16.61903989645076
 25
10.98468599523645
 35
0.0
 40
0.0
1001
ACAD_DSTYLE_DIMRADIAL_EXTENSION
1070
   387
1070
     1
1070
   388
1040
0.0
1070
   390
1040
0.0
1001
ACAD
1000
DSTYLE
1002
{
1070
    41
1040
0.125
1070
    42
1040
0.063
1070
    44
1040
0.063
1070
    78
1070
     4
1070
   140
1040
0.125
1070
   141
1040
-0.125
1070
   174
1070
     1
1070
   271
1070
     3
1070
   272
1070
     3
1070
   279
1070
     2
1070
   284
1070
     4
1070
   285
1070
     4
1070
   286
1070
     4
1070
   340
1005
27
1002
}
  0
ENDSEC
  0
SECTION
  2
OBJECTS
  0
DICTIONARY
  5
C
330
0
100
AcDbDictionary
281
     1
  3
ACAD_CIP_PREVIOUS_PRODUCT_INFO
350
C94
  3
ACAD_COLOR
350
C71
  3
ACAD_DETAILVIEWSTYLE
350
C8A
  3
ACAD_GROUP
350
D
  3
ACAD_LAYOUT
350
C8C
  3
ACAD_MATERIAL
350
C3F
  3
ACAD_MLEADERSTYLE
350
C86
  3
ACAD_MLINESTYLE
350
1A
  3
ACAD_PLOTSETTINGS
350
C8D
  3
ACAD_PLOTSTYLENAME
350
C3D
  3
ACAD_SCALELIST
350
C74
  3
ACAD_SECTIONVIEWSTYLE
350
C88
  3
ACAD_TABLESTYLE
350
C72
  3
ACAD_VISUALSTYLE
350
C58
  3
ACDB_RECOMPOSE_DATA
350
D61
  3
ACDBVARIABLEDICTIONARY
350
39
  3
AcDsDecomposeData
350
D68
  3
DWGPROPS
350
D62
  0
DICTIONARY
  5
CA0
330
2
100
AcDbDictionary
280
     1
281
     1
  3
ACAD_LAYERSTATES
360
CA1
  0
DICTIONARY
  5
C95
330
E
100
AcDbDictionary
280
     1
281
     1
  3
ADSK_XREC_LAYER_RECONCILED
360
C96
  0
DICTIONARY
  5
C97
330
31
100
AcDbDictionary
280
     1
281
     1
  3
ADSK_XREC_LAYER_RECONCILED
360
C98
  0
DICTIONARY
  5
C99
330
32
100
AcDbDictionary
280
     1
281
     1
  3
ADSK_XREC_LAYER_RECONCILED
360
C9A
  0
DICTIONARY
  5
C9B
330
33
100
AcDbDictionary
280
     1
281
     1
  3
ADSK_XREC_LAYER_RECONCILED
360
C9C
  0
DICTIONARY
  5
DA8
330
D45
100
AcDbDictionary
280
     1
281
     1
  3
ACAD_MTEXT_RT
360
DA9
  0
XRECORD
  5
C94
102
{ACAD_REACTORS
330
C
102
}
330
C
100
AcDbXrecord
280
     1
300
AMECH_PP
300
2015
300
PDSU_F_S
  0
DICTIONARY
  5
C71
102
{ACAD_REACTORS
330
C
102
}
330
C
100
AcDbDictionary
281
     1
  0
DICTIONARY
  5
C8A
102
{ACAD_REACTORS
330
C
102
}
330
C
100
AcDbDictionary
281
     1
  3
Imperial24
350
C8B
  0
DICTIONARY
  5
D
102
{ACAD_REACTORS
330
C
102
}
330
C
100
AcDbDictionary
281
     1
  0
DICTIONARY
  5
C8C
102
{ACAD_REACTORS
330
C
102
}
330
C
100
AcDbDictionary
281
     1
  3
Layout1
350
C8F
  3
Model
350
C8E
  0
DICTIONARY
  5
C3F
102
{ACAD_REACTORS
330
C
102
}
330
C
100
AcDbDictionary
281
     1
  3
ByBlock
350
C48
  3
ByLayer
350
C40
  3
Global
350
C50
  0
DICTIONARY
  5
C86
102
{ACAD_REACTORS
330
C
102
}
330
C
100
AcDbDictionary
281
     1
  3
Standard
350
C87
  0
DICTIONARY
  5
1A
102
{ACAD_REACTORS
330
C
102
}
330
C
100
AcDbDictionary
281
     1
  3
STANDARD
350
1B
  0
DICTIONARY
  5
C8D
102
{ACAD_REACTORS
330
C
102
}
330
C
100
AcDbDictionary
281
     1
  0
ACDBDICTIONARYWDFLT
  5
C3D
102
{ACAD_REACTORS
330
C
102
}
330
C
100
AcDbDictionary
281
     1
  3
Normal
350
C3E
100
AcDbDictionaryWithDefault
340
C3E
  0
DICTIONARY
  5
C74
102
{ACAD_REACTORS
330
C
102
}
330
C
100
AcDbDictionary
281
     1
  3
A0
350
C75
  3
A1
350
C76
  3
A2
350
C77
  3
A3
350
C78
  3
A4
350
C79
  3
A5
350
C7A
  3
A6
350
C7B
  3
A7
350
C7C
  3
A8
350
C7D
  3
A9
350
C7E
  3
B0
350
C7F
  3
B1
350
C80
  3
B2
350
C81
  3
B3
350
C82
  3
B4
350
C83
  3
B5
350
C84
  3
B6
350
C85
  0
DICTIONARY
  5
C88
102
{ACAD_REACTORS
330
C
102
}
330
C
100
AcDbDictionary
281
     1
  3
Imperial24
350
C89
  0
DICTIONARY
  5
C72
102
{ACAD_REACTORS
330
C
102
}
330
C
100
AcDbDictionary
281
     1
  3
Standard
350
C73
  0
DICTIONARY
  5
C58
102
{ACAD_REACTORS
330
C
102
}
330
C
100
AcDbDictionary
281
     1
  3
2dWireframe
350
C5E
  3
Basic
350
C5D
  3
Brighten
350
C64
  3
ColorChange
350
C68
  3
Conceptual
350
C61
  3
Dim
350
C63
  3
EdgeColorOff
350
C70
  3
Facepattern
350
C67
  3
Flat
350
C59
  3
FlatWithEdges
350
C5A
  3
Gouraud
350
C5B
  3
GouraudWithEdges
350
C5C
  3
Hidden
350
C60
  3
JitterOff
350
C6E
  3
Linepattern
350
C66
  3
OverhangOff
350
C6F
  3
Realistic
350
C62
  3
Shaded
350
C6D
  3
Shaded with edges
350
C6C
  3
Shades of Gray
350
C69
  3
Sketchy
350
C6A
  3
Thicken
350
C65
  3
Wireframe
350
C5F
  3
X-Ray
350
C6B
  0
XRECORD
  5
D61
102
{ACAD_REACTORS
330
C
102
}
330
C
100
AcDbXrecord
280
     1
 90
        1
330
C73
  0
DICTIONARY
  5
39
102
{ACAD_REACTORS
330
C
102
}
330
C
100
AcDbDictionary
281
     1
  3
CANNOSCALE
350
CFC
  3
CMLEADERSTYLE
350
CF8
  3
CTABLESTYLE
350
CF7
  3
CVIEWDETAILSTYLE
350
CF9
  3
CVIEWSECTIONSTYLE
350
CFA
  3
DIMADEC
350
3A
  3
DIMASSOC
350
D5B
  3
INDEXCTL
350
D5A
  3
LAYEREVAL
350
CFE
  3
LAYERNOTIFY
350
CFF
  3
LIGHTINGUNITS
350
CFD
  3
LOFTANG1
350
D5C
  3
LOFTANG2
350
D5D
  3
LONGITUDE
350
D5E
  3
MSLTSCALE
350
CFB
  3
SORTENTS
350
D59
  3
XCLIPFRAME
350
D5F
  0
DICTIONARY
  5
D68
102
{ACAD_REACTORS
330
C
102
}
330
C
100
AcDbDictionary
281
     1
  3
AcDsRecords
350
D6A
  3
AcDsSchemas
350
D69
1001
ACAD
1070
     2
  0
XRECORD
  5
D62
102
{ACAD_REACTORS
330
C
102
}
330
C
100
AcDbXrecord
280
     1
  1
DWGPROPS COOKIE
  2

  3

  4

  6

  7

  8
jmilewski
  9

300
=
301
=
302
=
303
=
304
=
305
=
306
=
307
=
308
=
309
=
 40
0.2719171064814815
 41
2447600.596000695
 42
2457155.546695741
  1

 90
        0
  0
DICTIONARY
  5
CA1
102
{ACAD_REACTORS
330
CA0
102
}
330
CA0
100
AcDbDictionary
281
     1
  0
XRECORD
  5
C96
102
{ACAD_REACTORS
330
C95
102
}
330
C95
100
AcDbXrecord
280
     1
290
     1
  0
XRECORD
  5
C98
102
{ACAD_REACTORS
330
C97
102
}
330
C97
100
AcDbXrecord
280
     1
290
     1
  0
XRECORD
  5
C9A
102
{ACAD_REACTORS
330
C99
102
}
330
C99
100
AcDbXrecord
280
     1
290
     1
  0
XRECORD
  5
C9C
102
{ACAD_REACTORS
330
C9B
102
}
330
C9B
100
AcDbXrecord
280
     1
290
     1
  0
XRECORD
  5
DA9
102
{ACAD_REACTORS
330
DA8
102
}
330
DA8
100
AcDbXrecord
280
     1
 40
7211.0
  1
\A1;\U+22055.200
  0
ACDBDETAILVIEWSTYLE
  5
C8B
102
{ACAD_XDICTIONARY
360
D04
102
}
102
{ACAD_REACTORS
330
C8A
102
}
330
C8A
100
AcDbModelDocViewStyle
 70
     0
  3
Imperial24
290
     0
100
AcDbDetailViewStyle
 70
     0
 71
     0
 90
        3
 71
     1
340
F
 40
0.24
340
0
 40
0.24
300

 40
0.36
280
     3
 71
     2
340
13
 90
       25
 71
     3
340
F
 40
0.24
 90
        1
 40
0.75
 90
        1
300
%<\AcVar ViewType \f "%tc1">% %<\AcVar ViewDetailId>%\PSCALE %<\AcVar ViewScale \f "%sn">%
 71
     4
340
13
 90
       25
340
13
 90
       25
280
     0
  0
LAYOUT
  5
C8F
102
{ACAD_XDICTIONARY
360
DA6
102
}
102
{ACAD_REACTORS
330
C8C
102
}
330
C8C
100
AcDbPlotSettings
  1

  2
TOSHIBA e-STUDIO351c PS3
  4

  6

 40
0.0
 41
0.0
 42
0.0
 43
0.0
 44
0.0
 45
0.0
 46
0.0
 47
0.0
 48
0.0
 49
0.0
140
0.0
141
0.0
142
1.0
143
1.0
 70
   688
 72
     0
 73
     0
 74
     5
  7
monochrome.ctb
 75
    16
147
1.0
148
0.0
149
0.0
100
AcDbLayout
  1
Layout1
 70
     0
 71
     1
 10
0.0
 20
0.0
 11
12.0
 21
9.0
 12
0.0
 22
0.0
 32
0.0
 14
1.000000000000000E+20
 24
1.000000000000000E+20
 34
1.000000000000000E+20
 15
-1.000000000000000E+20
 25
-1.000000000000000E+20
 35
-1.000000000000000E+20
146
0.0
 13
0.0
 23
0.0
 33
0.0
 16
1.0
 26
0.0
 36
0.0
 17
0.0
 27
1.0
 37
0.0
 76
     0
330
14
  0
LAYOUT
  5
C8E
102
{ACAD_XDICTIONARY
360
DA4
102
}
102
{ACAD_REACTORS
330
C8C
102
}
330
C8C
100
AcDbPlotSettings
  1

  2
TOSHIBA e-STUDIO351c PS3
  4

  6

 40
0.0
 41
0.0
 42
0.0
 43
0.0
 44
0.0
 45
0.0
 46
0.0
 47
0.0
 48
0.0
 49
0.0
140
0.0
141
0.0
142
1.0
143
1.0
 70
  1712
 72
     0
 73
     0
 74
     0
  7
monochrome.ctb
 75
     0
147
1.0
148
0.0
149
0.0
100
AcDbLayout
  1
Model
 70
     1
 71
     0
 10
0.0
 20
0.0
 11
12.0
 21
9.0
 12
0.0
 22
0.0
 32
0.0
 14
0.0
 24
0.0
 34
0.0
 15
0.0
 25
0.0
 35
0.0
146
0.0
 13
0.0
 23
0.0
 33
0.0
 16
1.0
 26
0.0
 36
0.0
 17
0.0
 27
1.0
 37
0.0
 76
     0
330
17
331
C3B
  0
MATERIAL
  5
C48
102
{ACAD_XDICTIONARY
360
C49
102
}
102
{ACAD_REACTORS
330
C3F
102
}
330
C3F
100
AcDbMaterial
  1
ByBlock
 72
     0
 43
0.0208333333333333
 43
0.0
 43
0.0
 43
0.0
 43
0.0
 43
0.0208333333333333
 43
0.0
 43
0.0
 43
0.0
 43
0.0
 43
1.0
 43
0.0
 43
0.0
 43
0.0
 43
0.0
 43
1.0
 77
     0
 47
0.0208333333333333
 47
0.0
 47
0.0
 47
0.0
 47
0.0
 47
0.0208333333333333
 47
0.0
 47
0.0
 47
0.0
 47
0.0
 47
1.0
 47
0.0
 47
0.0
 47
0.0
 47
0.0
 47
1.0
171
     0
 49
0.0208333333333333
 49
0.0
 49
0.0
 49
0.0
 49
0.0
 49
0.0208333333333333
 49
0.0
 49
0.0
 49
0.0
 49
0.0
 49
1.0
 49
0.0
 49
0.0
 49
0.0
 49
0.0
 49
1.0
175
     0
142
0.0208333333333333
142
0.0
142
0.0
142
0.0
142
0.0
142
0.0208333333333333
142
0.0
142
0.0
142
0.0
142
0.0
142
1.0
142
0.0
142
0.0
142
0.0
142
0.0
142
1.0
179
     0
144
0.0208333333333333
144
0.0
144
0.0
144
0.0
144
0.0
144
0.0208333333333333
144
0.0
144
0.0
144
0.0
144
0.0
144
1.0
144
0.0
144
0.0
144
0.0
144
0.0
144
1.0
147
0.0208333333333333
147
0.0
147
0.0
147
0.0
147
0.0
147
0.0208333333333333
147
0.0
147
0.0
147
0.0
147
0.0
147
1.0
147
0.0
147
0.0
147
0.0
147
0.0
147
1.0
  0
MATERIAL
  5
C40
102
{ACAD_XDICTIONARY
360
C41
102
}
102
{ACAD_REACTORS
330
C3F
102
}
330
C3F
100
AcDbMaterial
  1
ByLayer
 72
     0
 43
0.0208333333333333
 43
0.0
 43
0.0
 43
0.0
 43
0.0
 43
0.0208333333333333
 43
0.0
 43
0.0
 43
0.0
 43
0.0
 43
1.0
 43
0.0
 43
0.0
 43
0.0
 43
0.0
 43
1.0
 77
     0
 47
0.0208333333333333
 47
0.0
 47
0.0
 47
0.0
 47
0.0
 47
0.0208333333333333
 47
0.0
 47
0.0
 47
0.0
 47
0.0
 47
1.0
 47
0.0
 47
0.0
 47
0.0
 47
0.0
 47
1.0
171
     0
 49
0.0208333333333333
 49
0.0
 49
0.0
 49
0.0
 49
0.0
 49
0.0208333333333333
 49
0.0
 49
0.0
 49
0.0
 49
0.0
 49
1.0
 49
0.0
 49
0.0
 49
0.0
 49
0.0
 49
1.0
175
     0
142
0.0208333333333333
142
0.0
142
0.0
142
0.0
142
0.0
142
0.0208333333333333
142
0.0
142
0.0
142
0.0
142
0.0
142
1.0
142
0.0
142
0.0
142
0.0
142
0.0
142
1.0
179
     0
144
0.0208333333333333
144
0.0
144
0.0
144
0.0
144
0.0
144
0.0208333333333333
144
0.0
144
0.0
144
0.0
144
0.0
144
1.0
144
0.0
144
0.0
144
0.0
144
0.0
144
1.0
147
0.0208333333333333
147
0.0
147
0.0
147
0.0
147
0.0
147
0.0208333333333333
147
0.0
147
0.0
147
0.0
147
0.0
147
1.0
147
0.0
147
0.0
147
0.0
147
0.0
147
1.0
  0
MATERIAL
  5
C50
102
{ACAD_XDICTIONARY
360
C51
102
}
102
{ACAD_REACTORS
330
C3F
102
}
330
C3F
100
AcDbMaterial
  1
Global
 72
     0
 43
0.0208333333333333
 43
0.0
 43
0.0
 43
0.0
 43
0.0
 43
0.0208333333333333
 43
0.0
 43
0.0
 43
0.0
 43
0.0
 43
1.0
 43
0.0
 43
0.0
 43
0.0
 43
0.0
 43
1.0
 77
     0
 47
0.0208333333333333
 47
0.0
 47
0.0
 47
0.0
 47
0.0
 47
0.0208333333333333
 47
0.0
 47
0.0
 47
0.0
 47
0.0
 47
1.0
 47
0.0
 47
0.0
 47
0.0
 47
0.0
 47
1.0
171
     0
 49
0.0208333333333333
 49
0.0
 49
0.0
 49
0.0
 49
0.0
 49
0.0208333333333333
 49
0.0
 49
0.0
 49
0.0
 49
0.0
 49
1.0
 49
0.0
 49
0.0
 49
0.0
 49
0.0
 49
1.0
175
     0
142
0.0208333333333333
142
0.0
142
0.0
142
0.0
142
0.0
142
0.0208333333333333
142
0.0
142
0.0
142
0.0
142
0.0
142
1.0
142
0.0
142
0.0
142
0.0
142
0.0
142
1.0
179
     0
144
0.0208333333333333
144
0.0
144
0.0
144
0.0
144
0.0
144
0.0208333333333333
144
0.0
144
0.0
144
0.0
144
0.0
144
1.0
144
0.0
144
0.0
144
0.0
144
0.0
144
1.0
147
0.0208333333333333
147
0.0
147
0.0
147
0.0
147
0.0
147
0.0208333333333333
147
0.0
147
0.0
147
0.0
147
0.0
147
1.0
147
0.0
147
0.0
147
0.0
147
0.0
147
1.0
  0
MLEADERSTYLE
  5
C87
102
{ACAD_XDICTIONARY
360
DA0
102
}
102
{ACAD_REACTORS
330
C86
102
}
330
C86
100
AcDbMLeaderStyle
170
     2
171
     1
172
     0
 90
        2
 40
0.0
 41
0.0
173
     1
 91
-1056964608
340
11
 92
       -2
290
     1
 42
0.09
291
     1
 43
0.36
  3
Standard
 44
0.18
300

342
F
174
     1
178
     6
175
     1
176
     0
 93
-1056964608
 45
0.18
292
     0
297
     0
 46
0.18
 94
-1056964608
 47
1.0
 49
1.0
140
1.0
293
     1
141
0.0
294
     1
177
     0
142
1.0
295
     0
296
     0
143
0.125
1001
ACAD_MLEADERVER
1070
     2
  0
MLINESTYLE
  5
1B
102
{ACAD_REACTORS
330
1A
102
}
330
1A
100
AcDbMlineStyle
  2
STANDARD
 70
     0
  3

 62
   256
 51
90.0
 52
90.0
 71
     2
 49
0.5
 62
   256
  6
BYLAYER
 49
-0.5
 62
   256
  6
BYLAYER
  0
ACDBPLACEHOLDER
  5
C3E
102
{ACAD_REACTORS
330
C3D
102
}
330
C3D
  0
SCALE
  5
C75
102
{ACAD_REACTORS
330
C74
102
}
330
C74
100
AcDbScale
 70
     0
300
1:1
140
1.0
141
1.0
290
     1
  0
SCALE
  5
C76
102
{ACAD_REACTORS
330
C74
102
}
330
C74
100
AcDbScale
 70
     0
300
1/128" = 1'-0"
140
0.0078125
141
12.0
290
     0
  0
SCALE
  5
C77
102
{ACAD_REACTORS
330
C74
102
}
330
C74
100
AcDbScale
 70
     0
300
1/64" = 1'-0"
140
0.015625
141
12.0
290
     0
  0
SCALE
  5
C78
102
{ACAD_REACTORS
330
C74
102
}
330
C74
100
AcDbScale
 70
     0
300
1/32" = 1'-0"
140
0.03125
141
12.0
290
     0
  0
SCALE
  5
C79
102
{ACAD_REACTORS
330
C74
102
}
330
C74
100
AcDbScale
 70
     0
300
1/16" = 1'-0"
140
0.0625
141
12.0
290
     0
  0
SCALE
  5
C7A
102
{ACAD_REACTORS
330
C74
102
}
330
C74
100
AcDbScale
 70
     0
300
3/32" = 1'-0"
140
0.09375
141
12.0
290
     0
  0
SCALE
  5
C7B
102
{ACAD_REACTORS
330
C74
102
}
330
C74
100
AcDbScale
 70
     0
300
1/8" = 1'-0"
140
0.125
141
12.0
290
     0
  0
SCALE
  5
C7C
102
{ACAD_REACTORS
330
C74
102
}
330
C74
100
AcDbScale
 70
     0
300
3/16" = 1'-0"
140
0.1875
141
12.0
290
     0
  0
SCALE
  5
C7D
102
{ACAD_REACTORS
330
C74
102
}
330
C74
100
AcDbScale
 70
     0
300
1/4" = 1'-0"
140
0.25
141
12.0
290
     0
  0
SCALE
  5
C7E
102
{ACAD_REACTORS
330
C74
102
}
330
C74
100
AcDbScale
 70
     0
300
3/8" = 1'-0"
140
0.375
141
12.0
290
     0
  0
SCALE
  5
C7F
102
{ACAD_REACTORS
330
C74
102
}
330
C74
100
AcDbScale
 70
     0
300
1/2" = 1'-0"
140
0.5
141
12.0
290
     0
  0
SCALE
  5
C80
102
{ACAD_REACTORS
330
C74
102
}
330
C74
100
AcDbScale
 70
     0
300
3/4" = 1'-0"
140
0.75
141
12.0
290
     0
  0
SCALE
  5
C81
102
{ACAD_REACTORS
330
C74
102
}
330
C74
100
AcDbScale
 70
     0
300
1" = 1'-0"
140
1.0
141
12.0
290
     0
  0
SCALE
  5
C82
102
{ACAD_REACTORS
330
C74
102
}
330
C74
100
AcDbScale
 70
     0
300
1-1/2" = 1'-0"
140
1.5
141
12.0
290
     0
  0
SCALE
  5
C83
102
{ACAD_REACTORS
330
C74
102
}
330
C74
100
AcDbScale
 70
     0
300
3" = 1'-0"
140
3.0
141
12.0
290
     0
  0
SCALE
  5
C84
102
{ACAD_REACTORS
330
C74
102
}
330
C74
100
AcDbScale
 70
     0
300
6" = 1'-0"
140
6.0
141
12.0
290
     0
  0
SCALE
  5
C85
102
{ACAD_REACTORS
330
C74
102
}
330
C74
100
AcDbScale
 70
     0
300
1'-0" = 1'-0"
140
12.0
141
12.0
290
     0
  0
ACDBSECTIONVIEWSTYLE
  5
C89
102
{ACAD_XDICTIONARY
360
D02
102
}
102
{ACAD_REACTORS
330
C88
102
}
330
C88
100
AcDbModelDocViewStyle
 70
     0
  3
Imperial24
290
     0
100
AcDbSectionViewStyle
 70
     0
 71
     0
 90
       78
 71
     1
340
F
 40
0.24
340
0
340
0
 40
0.24
300
I, O, Q, S, X, Z
 40
0.48
 90
        3
 40
0.18
 90
        1
 71
     2
340
13
 90
       25
340
13
 90
       50
 40
0.24
 40
0.0
 40
0.24
 71
     3
340
F
 40
0.24
 90
        1
 40
0.75
 90
        1
300
%<\AcVar ViewType \f "%tc1">% %<\AcVar ViewSectionStartId>%-%<\AcVar ViewSectionEndId>%\PSCALE %<\AcVar ViewScale \f "%sn">%
 71
     4
300
ANSI31
 40
1.0
 90
        0
290
     0
290
     0
 90
        6
 40
0.0
 40
1.570796326794896
 40
0.2617993877991494
 40
1.308996938995747
 40
-0.2617993877991494
 40
1.832595714594044
  0
TABLESTYLE
  5
C73
102
{ACAD_XDICTIONARY
360
D00
102
}
102
{ACAD_REACTORS
330
C72
102
}
330
C72
100
AcDbTableStyle
  3
Standard
 70
     0
 71
     0
 40
0.06
 41
0.06
280
     0
281
     0
  7
STANDARD
140
0.18
170
     2
 62
     0
 63
     7
283
     0
274
    -2
284
     1
 64
     0
275
    -2
285
     1
 65
     0
276
    -2
286
     1
 66
     0
277
    -2
287
     1
 67
     0
278
    -2
288
     1
 68
     0
279
    -2
289
     1
 69
     0
  7
STANDARD
140
0.25
170
     5
 62
     0
 63
     7
283
     0
274
    -2
284
     1
 64
     0
275
    -2
285
     1
 65
     0
276
    -2
286
     1
 66
     0
277
    -2
287
     1
 67
     0
278
    -2
288
     1
 68
     0
279
    -2
289
     1
 69
     0
  7
STANDARD
140
0.18
170
     5
 62
     0
 63
     7
283
     0
274
    -2
284
     1
 64
     0
275
    -2
285
     1
 65
     0
276
    -2
286
     1
 66
     0
277
    -2
287
     1
 67
     0
278
    -2
288
     1
 68
     0
279
    -2
289
     1
 69
     0
  0
VISUALSTYLE
  5
C5E
102
{ACAD_XDICTIONARY
360
D78
102
}
102
{ACAD_REACTORS
330
C58
102
}
330
C58
100
AcDbVisualStyle
  2
2dWireframe
 70
     4
 71
     0
 72
     2
 73
     0
 90
        0
 40
-0.6
 41
-30.0
 62
     5
 63
     7
 74
     1
 91
        4
 64
     7
 65
   257
 75
     1
175
     1
 42
1.0
 92
        0
 66
   257
 43
1.0
 76
     1
 77
     6
 78
     2
 67
     7
 79
     5
170
     0
171
     0
290
     0
174
     0
 93
        1
 44
0.0
173
     0
291
     0
 45
0.0
1001
ACAD
1000
AcDbSavedByObjectVersion
1070
     0
  0
VISUALSTYLE
  5
C5D
102
{ACAD_XDICTIONARY
360
D76
102
}
102
{ACAD_REACTORS
330
C58
102
}
330
C58
100
AcDbVisualStyle
  2
Basic
 70
     7
 71
     1
 72
     0
 73
     1
 90
        0
 40
-0.6
 41
-30.0
 62
     5
 63
     7
 74
     0
 91
        4
 64
     7
 65
   257
 75
     1
175
     1
 42
1.0
 92
        8
 66
     7
 43
1.0
 76
     1
 77
     6
 78
     2
 67
     7
 79
     5
170
     0
171
     0
290
     0
174
     0
 93
        1
 44
0.0
173
     0
291
     1
 45
0.0
1001
ACAD
1000
AcDbSavedByObjectVersion
1070
     0
  0
VISUALSTYLE
  5
C64
102
{ACAD_XDICTIONARY
360
D84
102
}
102
{ACAD_REACTORS
330
C58
102
}
330
C58
100
AcDbVisualStyle
  2
Brighten
 70
    12
 71
     2
 72
     2
 73
     0
 90
        0
 40
-0.6
 41
-30.0
 62
     5
 63
     7
 74
     1
 91
        4
 64
     7
 65
   257
 75
     1
175
     1
 42
1.0
 92
        8
 66
     7
 43
1.0
 76
     1
 77
     6
 78
     2
 67
     7
 79
     5
170
     0
171
     0
290
     0
174
     0
 93
        1
 44
50.0
173
     0
291
     1
 45
0.0
1001
ACAD
1000
AcDbSavedByObjectVersion
1070
     0
  0
VISUALSTYLE
  5
C68
102
{ACAD_XDICTIONARY
360
D8C
102
}
102
{ACAD_REACTORS
330
C58
102
}
330
C58
100
AcDbVisualStyle
  2
ColorChange
 70
    16
 71
     2
 72
     2
 73
     3
 90
        0
 40
-0.6
 41
-30.0
 62
     5
 63
     8
 74
     1
 91
        4
 64
     7
 65
   257
 75
     1
175
     1
 42
1.0
 92
        8
 66
     8
 43
1.0
 76
     1
 77
     6
 78
     2
 67
     7
 79
     5
170
     0
171
     0
290
     0
174
     0
 93
        1
 44
0.0
173
     0
291
     1
 45
0.0
1001
ACAD
1000
AcDbSavedByObjectVersion
1070
     0
  0
VISUALSTYLE
  5
C61
102
{ACAD_XDICTIONARY
360
D7E
102
}
102
{ACAD_REACTORS
330
C58
102
}
330
C58
100
AcDbVisualStyle
  2
Conceptual
 70
     9
 71
     3
 72
     2
 73
     0
 90
        0
 40
-0.6
 41
-30.0
 62
     5
 63
     7
 74
     2
 91
        2
 64
     7
 65
   257
 75
     1
175
     1
 42
179.0
 92
        8
 66
     7
 43
1.0
 76
     1
 77
     6
 78
     2
 67
     7
 79
     3
170
     0
171
     0
290
     0
174
     0
 93
        1
 44
0.0
173
     0
291
     0
 45
0.0
1001
ACAD
1000
AcDbSavedByObjectVersion
1070
     0
  0
VISUALSTYLE
  5
C63
102
{ACAD_XDICTIONARY
360
D82
102
}
102
{ACAD_REACTORS
330
C58
102
}
330
C58
100
AcDbVisualStyle
  2
Dim
 70
    11
 71
     2
 72
     2
 73
     0
 90
        0
 40
-0.6
 41
-30.0
 62
     5
 63
     7
 74
     1
 91
        4
 64
     7
 65
   257
 75
     1
175
     1
 42
1.0
 92
        8
 66
     7
 43
1.0
 76
     1
 77
     6
 78
     2
 67
     7
 79
     5
170
     0
171
     0
290
     0
174
     0
 93
        1
 44
-50.0
173
     0
291
     1
 45
0.0
1001
ACAD
1000
AcDbSavedByObjectVersion
1070
     0
  0
VISUALSTYLE
  5
C70
102
{ACAD_XDICTIONARY
360
D9C
102
}
102
{ACAD_REACTORS
330
C58
102
}
330
C58
100
AcDbVisualStyle
  2
EdgeColorOff
 70
    22
 71
     2
 72
     2
 73
     0
 90
        0
 40
-0.6
 41
-30.0
 62
     5
 63
     7
 74
     1
 91
        4
 64
     7
 65
   257
 75
     1
175
     1
 42
1.0
 92
        8
 66
     7
 43
1.0
 76
     1
 77
     6
 78
     2
 67
     7
 79
     5
170
     0
171
     0
290
     0
174
     0
 93
        1
 44
0.0
173
     0
291
     1
 45
0.0
1001
ACAD
1000
AcDbSavedByObjectVersion
1070
     0
  0
VISUALSTYLE
  5
C67
102
{ACAD_XDICTIONARY
360
D8A
102
}
102
{ACAD_REACTORS
330
C58
102
}
330
C58
100
AcDbVisualStyle
  2
Facepattern
 70
    15
 71
     2
 72
     2
 73
     0
 90
        0
 40
-0.6
 41
-30.0
 62
     5
 63
     7
 74
     1
 91
        4
 64
     7
 65
   257
 75
     1
175
     1
 42
1.0
 92
        8
 66
     7
 43
1.0
 76
     1
 77
     6
 78
     2
 67
     7
 79
     5
170
     0
171
     0
290
     0
174
     0
 93
        1
 44
0.0
173
     0
291
     1
 45
0.0
1001
ACAD
1000
AcDbSavedByObjectVersion
1070
     0
  0
VISUALSTYLE
  5
C59
102
{ACAD_XDICTIONARY
360
D6E
102
}
102
{ACAD_REACTORS
330
C58
102
}
330
C58
100
AcDbVisualStyle
  2
Flat
 70
     0
 71
     2
 72
     1
 73
     1
 90
        2
 40
-0.6
 41
30.0
 62
     5
 63
     7
 74
     0
 91
        0
 64
     7
 65
   257
 75
     1
175
     1
 42
1.0
 92
        8
 66
     7
 43
1.0
 76
     1
 77
     6
 78
     2
 67
     7
 79
     5
170
     0
171
     0
290
     0
174
     0
 93
       13
 44
0.0
173
     0
291
     1
 45
0.0
1001
ACAD
1000
AcDbSavedByObjectVersion
1070
     0
  0
VISUALSTYLE
  5
C5A
102
{ACAD_XDICTIONARY
360
D70
102
}
102
{ACAD_REACTORS
330
C58
102
}
330
C58
100
AcDbVisualStyle
  2
FlatWithEdges
 70
     1
 71
     2
 72
     1
 73
     1
 90
        2
 40
-0.6
 41
30.0
 62
     5
 63
     7
 74
     1
 91
        0
 64
     7
 65
   257
 75
     1
175
     1
 42
1.0
 92
        0
 66
   257
 43
1.0
 76
     1
 77
     6
 78
     2
 67
     7
 79
     5
170
     0
171
     0
290
     0
174
     0
 93
       13
 44
0.0
173
     0
291
     1
 45
0.0
1001
ACAD
1000
AcDbSavedByObjectVersion
1070
     0
  0
VISUALSTYLE
  5
C5B
102
{ACAD_XDICTIONARY
360
D72
102
}
102
{ACAD_REACTORS
330
C58
102
}
330
C58
100
AcDbVisualStyle
  2
Gouraud
 70
     2
 71
     2
 72
     2
 73
     1
 90
        2
 40
-0.6
 41
30.0
 62
     5
 63
     7
 74
     0
 91
        0
 64
     7
 65
   257
 75
     1
175
     1
 42
1.0
 92
        0
 66
     7
 43
1.0
 76
     1
 77
     6
 78
     2
 67
     7
 79
     5
170
     0
171
     0
290
     0
174
     0
 93
       13
 44
0.0
173
     0
291
     1
 45
0.0
1001
ACAD
1000
AcDbSavedByObjectVersion
1070
     0
  0
VISUALSTYLE
  5
C5C
102
{ACAD_XDICTIONARY
360
D74
102
}
102
{ACAD_REACTORS
330
C58
102
}
330
C58
100
AcDbVisualStyle
  2
GouraudWithEdges
 70
     3
 71
     2
 72
     2
 73
     1
 90
        2
 40
-0.6
 41
30.0
 62
     5
 63
     7
 74
     1
 91
        0
 64
     7
 65
   257
 75
     1
175
     1
 42
1.0
 92
        0
 66
   257
 43
1.0
 76
     1
 77
     6
 78
     2
 67
     7
 79
     5
170
     0
171
     0
290
     0
174
     0
 93
       13
 44
0.0
173
     0
291
     1
 45
0.0
1001
ACAD
1000
AcDbSavedByObjectVersion
1070
     0
  0
VISUALSTYLE
  5
C60
102
{ACAD_XDICTIONARY
360
D7C
102
}
102
{ACAD_REACTORS
330
C58
102
}
330
C58
100
AcDbVisualStyle
  2
Hidden
 70
     6
 71
     1
 72
     2
 73
     2
 90
        0
 40
-0.6
 41
-30.0
 62
     5
 63
     7
 74
     2
 91
        2
 64
     7
 65
   257
 75
     2
175
     1
 42
40.0
 92
        0
 66
   257
 43
1.0
 76
     1
 77
     6
 78
     2
 67
     7
 79
     3
170
     0
171
     0
290
     0
174
     0
 93
        1
 44
0.0
173
     0
291
     0
 45
0.0
1001
ACAD
1000
AcDbSavedByObjectVersion
1070
     0
  0
VISUALSTYLE
  5
C6E
102
{ACAD_XDICTIONARY
360
D98
102
}
102
{ACAD_REACTORS
330
C58
102
}
330
C58
100
AcDbVisualStyle
  2
JitterOff
 70
    20
 71
     2
 72
     2
 73
     0
 90
        0
 40
-0.6
 41
-30.0
 62
     5
 63
     7
 74
     1
 91
        4
 64
     7
 65
   257
 75
     1
175
     1
 42
1.0
 92
       10
 66
     7
 43
1.0
 76
     1
 77
     6
 78
     2
 67
     7
 79
     5
170
     0
171
     0
290
     0
174
     0
 93
        1
 44
0.0
173
     0
291
     1
 45
0.0
1001
ACAD
1000
AcDbSavedByObjectVersion
1070
     0
  0
VISUALSTYLE
  5
C66
102
{ACAD_XDICTIONARY
360
D88
102
}
102
{ACAD_REACTORS
330
C58
102
}
330
C58
100
AcDbVisualStyle
  2
Linepattern
 70
    14
 71
     2
 72
     2
 73
     0
 90
        0
 40
-0.6
 41
-30.0
 62
     5
 63
     7
 74
     1
 91
        4
 64
     7
 65
   257
 75
     7
175
     7
 42
1.0
 92
        8
 66
     7
 43
1.0
 76
     1
 77
     6
 78
     2
 67
     7
 79
     5
170
     0
171
     0
290
     0
174
     0
 93
        1
 44
0.0
173
     0
291
     1
 45
0.0
1001
ACAD
1000
AcDbSavedByObjectVersion
1070
     0
  0
VISUALSTYLE
  5
C6F
102
{ACAD_XDICTIONARY
360
D9A
102
}
102
{ACAD_REACTORS
330
C58
102
}
330
C58
100
AcDbVisualStyle
  2
OverhangOff
 70
    21
 71
     2
 72
     2
 73
     0
 90
        0
 40
-0.6
 41
-30.0
 62
     5
 63
     7
 74
     1
 91
        4
 64
     7
 65
   257
 75
     1
175
     1
 42
1.0
 92
        9
 66
     7
 43
1.0
 76
     1
 77
     6
 78
     2
 67
     7
 79
     5
170
     0
171
     0
290
     0
174
     0
 93
        1
 44
0.0
173
     0
291
     1
 45
0.0
1001
ACAD
1000
AcDbSavedByObjectVersion
1070
     0
  0
VISUALSTYLE
  5
C62
102
{ACAD_XDICTIONARY
360
D80
102
}
102
{ACAD_REACTORS
330
C58
102
}
330
C58
100
AcDbVisualStyle
  2
Realistic
 70
     8
 71
     2
 72
     3
 73
     0
 90
        2
 40
-0.6
 41
30.0
 62
     5
 63
     7
 74
     0
 91
        0
 64
     7
 65
   257
 75
     1
175
     1
 42
1.0
 92
        8
 66
   257
 43
1.0
 76
     1
 77
     6
 78
     2
 67
     7
 79
     3
170
     0
171
     0
290
     0
174
     0
 93
       13
 44
0.0
173
     0
291
     0
 45
0.0
1001
ACAD
1000
AcDbSavedByObjectVersion
1070
     0
  0
VISUALSTYLE
  5
C6D
102
{ACAD_XDICTIONARY
360
D96
102
}
102
{ACAD_REACTORS
330
C58
102
}
330
C58
100
AcDbVisualStyle
  2
Shaded
 70
    27
 71
     2
 72
     2
 73
     1
 90
        2
 40
-0.6
 41
30.0
 62
     5
 63
     7
 74
     0
 91
        4
 64
     7
 65
   257
 75
     1
175
     1
 42
1.0
 92
        8
 66
   257
 43
1.0
 76
     1
 77
     6
 78
     2
 67
     8
 79
     3
170
     0
171
     0
290
     0
174
     0
 93
        5
 44
0.0
173
     0
291
     0
 45
0.0
1001
ACAD
1000
AcDbSavedByObjectVersion
1070
     0
  0
VISUALSTYLE
  5
C6C
102
{ACAD_XDICTIONARY
360
D94
102
}
102
{ACAD_REACTORS
330
C58
102
}
330
C58
100
AcDbVisualStyle
  2
Shaded with edges
 70
    26
 71
     2
 72
     2
 73
     1
 90
        2
 40
-0.6
 41
30.0
 62
     5
 63
     7
 74
     1
 91
       10
 64
     7
 65
   257
 75
     2
175
     1
 42
1.0
 92
        8
 66
   257
 43
1.0
 76
     1
 77
     6
 78
     2
 67
     7
 79
     3
170
     0
171
     0
290
     0
174
     0
 93
        5
 44
0.0
173
     0
291
     0
 45
0.0
1001
ACAD
1000
AcDbSavedByObjectVersion
1070
     0
  0
VISUALSTYLE
  5
C69
102
{ACAD_XDICTIONARY
360
D8E
102
}
102
{ACAD_REACTORS
330
C58
102
}
330
C58
100
AcDbVisualStyle
  2
Shades of Gray
 70
    23
 71
     2
 72
     2
 73
     3
 90
        0
 40
-0.6
 41
-30.0
 62
     5
 63
     7
 74
     2
 91
        2
 64
     7
 65
     7
 75
     1
175
     1
 42
40.0
 92
        8
 66
     7
 43
1.0
 76
     1
 77
     6
 78
     2
 67
     7
 79
     3
170
     0
171
     0
290
     0
174
     0
 93
        1
 44
0.0
173
     0
291
     0
 45
0.0
1001
ACAD
1000
AcDbSavedByObjectVersion
1070
     0
  0
VISUALSTYLE
  5
C6A
102
{ACAD_XDICTIONARY
360
D90
102
}
102
{ACAD_REACTORS
330
C58
102
}
330
C58
100
AcDbVisualStyle
  2
Sketchy
 70
    24
 71
     1
 72
     2
 73
     2
 90
        0
 40
-0.6
 41
-30.0
 62
     5
 63
     7
 74
     2
 91
        2
 64
     7
 65
     7
 75
     1
175
     1
 42
40.0
 92
       11
 66
     7
 43
1.0
 76
     1
 77
     6
 78
     2
 67
     7
 79
     6
170
     0
171
     0
290
     0
174
     0
 93
        1
 44
0.0
173
     0
291
     0
 45
0.0
1001
ACAD
1000
AcDbSavedByObjectVersion
1070
     0
  0
VISUALSTYLE
  5
C65
102
{ACAD_XDICTIONARY
360
D86
102
}
102
{ACAD_REACTORS
330
C58
102
}
330
C58
100
AcDbVisualStyle
  2
Thicken
 70
    13
 71
     2
 72
     2
 73
     0
 90
        0
 40
-0.6
 41
-30.0
 62
     5
 63
     7
 74
     1
 91
        4
 64
     7
 65
   257
 75
     1
175
     1
 42
1.0
 92
       12
 66
     7
 43
1.0
 76
     1
 77
     6
 78
     2
 67
     7
 79
     5
170
     0
171
     0
290
     0
174
     0
 93
        1
 44
0.0
173
     0
291
     1
 45
0.0
1001
ACAD
1000
AcDbSavedByObjectVersion
1070
     0
  0
VISUALSTYLE
  5
C5F
102
{ACAD_XDICTIONARY
360
D7A
102
}
102
{ACAD_REACTORS
330
C58
102
}
330
C58
100
AcDbVisualStyle
  2
Wireframe
 70
     5
 71
     0
 72
     2
 73
     0
 90
        0
 40
-0.6
 41
-30.0
 62
     5
 63
     7
 74
     1
 91
        4
 64
     7
 65
   257
 75
     1
175
     1
 42
1.0
 92
        0
 66
   257
 43
1.0
 76
     1
 77
     6
 78
     2
 67
     7
 79
     3
170
     0
171
     0
290
     0
174
     0
 93
        1
 44
0.0
173
     0
291
     0
 45
0.0
1001
ACAD
1000
AcDbSavedByObjectVersion
1070
     0
  0
VISUALSTYLE
  5
C6B
102
{ACAD_XDICTIONARY
360
D92
102
}
102
{ACAD_REACTORS
330
C58
102
}
330
C58
100
AcDbVisualStyle
  2
X-Ray
 70
    25
 71
     2
 72
     2
 73
     1
 90
        1
 40
0.5
 41
-30.0
 62
     5
 63
     7
 74
     1
 91
        0
 64
     7
 65
   257
 75
     1
175
     1
 42
1.0
 92
        8
 66
     7
 43
1.0
 76
     1
 77
     6
 78
     2
 67
     7
 79
     3
170
     0
171
     0
290
     0
174
     0
 93
       13
 44
0.0
173
     0
291
     0
 45
0.0
1001
ACAD
1000
AcDbSavedByObjectVersion
1070
     0
  0
DICTIONARYVAR
  5
CFC
102
{ACAD_REACTORS
330
39
102
}
330
39
100
DictionaryVariables
280
     0
  1
1:1
  0
DICTIONARYVAR
  5
CF8
102
{ACAD_REACTORS
330
39
102
}
330
39
100
DictionaryVariables
280
     0
  1
STANDARD
  0
DICTIONARYVAR
  5
CF7
102
{ACAD_REACTORS
330
39
102
}
330
39
100
DictionaryVariables
280
     0
  1
STANDARD
  0
DICTIONARYVAR
  5
CF9
102
{ACAD_REACTORS
330
39
102
}
330
39
100
DictionaryVariables
280
     0
  1
Imperial24
  0
DICTIONARYVAR
  5
CFA
102
{ACAD_REACTORS
330
39
102
}
330
39
100
DictionaryVariables
280
     0
  1
Imperial24
  0
DICTIONARYVAR
  5
3A
102
{ACAD_REACTORS
330
39
102
}
330
39
100
DictionaryVariables
280
     0
  1
2
  0
DICTIONARYVAR
  5
D5B
102
{ACAD_REACTORS
330
39
102
}
330
39
100
DictionaryVariables
280
     0
  1
1
  0
DICTIONARYVAR
  5
D5A
102
{ACAD_REACTORS
330
39
102
}
330
39
100
DictionaryVariables
280
     0
  1
0
  0
DICTIONARYVAR
  5
CFE
102
{ACAD_REACTORS
330
39
102
}
330
39
100
DictionaryVariables
280
     0
  1
1
  0
DICTIONARYVAR
  5
CFF
102
{ACAD_REACTORS
330
39
102
}
330
39
100
DictionaryVariables
280
     0
  1
15
  0
DICTIONARYVAR
  5
CFD
102
{ACAD_REACTORS
330
39
102
}
330
39
100
DictionaryVariables
280
     0
  1
0
  0
DICTIONARYVAR
  5
D5C
102
{ACAD_REACTORS
330
39
102
}
330
39
100
DictionaryVariables
280
     0
  1
1.570796
  0
DICTIONARYVAR
  5
D5D
102
{ACAD_REACTORS
330
39
102
}
330
39
100
DictionaryVariables
280
     0
  1
1.570796
  0
DICTIONARYVAR
  5
D5E
102
{ACAD_REACTORS
330
39
102
}
330
39
100
DictionaryVariables
280
     0
  1
-122.394000
  0
DICTIONARYVAR
  5
CFB
102
{ACAD_REACTORS
330
39
102
}
330
39
100
DictionaryVariables
280
     0
  1
0
  0
DICTIONARYVAR
  5
D59
102
{ACAD_REACTORS
330
39
102
}
330
39
100
DictionaryVariables
280
     0
  1
127
  0
DICTIONARYVAR
  5
D5F
102
{ACAD_REACTORS
330
39
102
}
330
39
100
DictionaryVariables
280
     0
  1
2
  0
DICTIONARY
  5
D6A
102
{ACAD_REACTORS
330
D68
102
}
330
D68
100
AcDbDictionary
281
     1
  0
DICTIONARY
  5
D69
102
{ACAD_REACTORS
330
D68
102
}
330
D68
100
AcDbDictionary
281
     1
  3
8796088507440
350
D63
  3
8796088507456
350
D64
  3
8796088507472
350
D65
  3
8796088507488
350
D66
  3
8796088507504
350
D67
  0
DICTIONARY
  5
D04
330
C8B
100
AcDbDictionary
280
     1
281
     1
  3
ACAD_XREC_ROUNDTRIP
360
DA3
  0
DICTIONARY
  5
DA6
330
C8F
100
AcDbDictionary
280
     1
281
     1
  3
ACAD_XREC_ROUNDTRIP
360
DA7
  0
DICTIONARY
  5
DA4
330
C8E
100
AcDbDictionary
280
     1
281
     1
  3
ACAD_XREC_ROUNDTRIP
360
DA5
  0
DICTIONARY
  5
C49
330
C48
100
AcDbDictionary
280
     1
281
     1
  3
ACAD_XREC_ROUNDTRIP
360
D6C
  3
BUMPTILE
360
C4B
  3
DIFFUSETILE
360
C4A
  3
OPACITYTILE
360
C4E
  3
REFLECTIONTILE
360
C4D
  3
REFRACTIONTILE
360
C4F
  3
SPECULARTILE
360
C4C
  0
DICTIONARY
  5
C41
330
C40
100
AcDbDictionary
280
     1
281
     1
  3
ACAD_XREC_ROUNDTRIP
360
D6B
  3
BUMPTILE
360
C43
  3
DIFFUSETILE
360
C42
  3
OPACITYTILE
360
C46
  3
REFLECTIONTILE
360
C45
  3
REFRACTIONTILE
360
C47
  3
SPECULARTILE
360
C44
  0
DICTIONARY
  5
C51
330
C50
100
AcDbDictionary
280
     1
281
     1
  3
ACAD_XREC_ROUNDTRIP
360
D6D
  3
BUMPTILE
360
C53
  3
DIFFUSETILE
360
C52
  3
OPACITYTILE
360
C56
  3
REFLECTIONTILE
360
C55
  3
REFRACTIONTILE
360
C57
  3
SPECULARTILE
360
C54
  0
DICTIONARY
  5
DA0
330
C87
100
AcDbDictionary
280
     1
281
     1
  3
ACAD_XREC_ROUNDTRIP
360
DA1
  0
DICTIONARY
  5
D02
330
C89
100
AcDbDictionary
280
     1
281
     1
  3
ACAD_XREC_ROUNDTRIP
360
DA2
  0
DICTIONARY
  5
D00
330
C73
100
AcDbDictionary
280
     1
281
     1
  3
ACAD_ROUNDTRIP_2008_TABLESTYLE_CELLSTYLEMAP
360
D60
  3
ACAD_XREC_ROUNDTRIP
360
D9E
  0
DICTIONARY
  5
D78
330
C5E
100
AcDbDictionary
280
     1
281
     1
  3
ACAD_XREC_ROUNDTRIP
360
D79
  0
DICTIONARY
  5
D76
330
C5D
100
AcDbDictionary
280
     1
281
     1
  3
ACAD_XREC_ROUNDTRIP
360
D77
  0
DICTIONARY
  5
D84
330
C64
100
AcDbDictionary
280
     1
281
     1
  3
ACAD_XREC_ROUNDTRIP
360
D85
  0
DICTIONARY
  5
D8C
330
C68
100
AcDbDictionary
280
     1
281
     1
  3
ACAD_XREC_ROUNDTRIP
360
D8D
  0
DICTIONARY
  5
D7E
330
C61
100
AcDbDictionary
280
     1
281
     1
  3
ACAD_XREC_ROUNDTRIP
360
D7F
  0
DICTIONARY
  5
D82
330
C63
100
AcDbDictionary
280
     1
281
     1
  3
ACAD_XREC_ROUNDTRIP
360
D83
  0
DICTIONARY
  5
D9C
330
C70
100
AcDbDictionary
280
     1
281
     1
  3
ACAD_XREC_ROUNDTRIP
360
D9D
  0
DICTIONARY
  5
D8A
330
C67
100
AcDbDictionary
280
     1
281
     1
  3
ACAD_XREC_ROUNDTRIP
360
D8B
  0
DICTIONARY
  5
D6E
330
C59
100
AcDbDictionary
280
     1
281
     1
  3
ACAD_XREC_ROUNDTRIP
360
D6F
  0
DICTIONARY
  5
D70
330
C5A
100
AcDbDictionary
280
     1
281
     1
  3
ACAD_XREC_ROUNDTRIP
360
D71
  0
DICTIONARY
  5
D72
330
C5B
100
AcDbDictionary
280
     1
281
     1
  3
ACAD_XREC_ROUNDTRIP
360
D73
  0
DICTIONARY
  5
D74
330
C5C
100
AcDbDictionary
280
     1
281
     1
  3
ACAD_XREC_ROUNDTRIP
360
D75
  0
DICTIONARY
  5
D7C
330
C60
100
AcDbDictionary
280
     1
281
     1
  3
ACAD_XREC_ROUNDTRIP
360
D7D
  0
DICTIONARY
  5
D98
330
C6E
100
AcDbDictionary
280
     1
281
     1
  3
ACAD_XREC_ROUNDTRIP
360
D99
  0
DICTIONARY
  5
D88
330
C66
100
AcDbDictionary
280
     1
281
     1
  3
ACAD_XREC_ROUNDTRIP
360
D89
  0
DICTIONARY
  5
D9A
330
C6F
100
AcDbDictionary
280
     1
281
     1
  3
ACAD_XREC_ROUNDTRIP
360
D9B
  0
DICTIONARY
  5
D80
330
C62
100
AcDbDictionary
280
     1
281
     1
  3
ACAD_XREC_ROUNDTRIP
360
D81
  0
DICTIONARY
  5
D96
330
C6D
100
AcDbDictionary
280
     1
281
     1
  3
ACAD_XREC_ROUNDTRIP
360
D97
  0
DICTIONARY
  5
D94
330
C6C
100
AcDbDictionary
280
     1
281
     1
  3
ACAD_XREC_ROUNDTRIP
360
D95
  0
DICTIONARY
  5
D8E
330
C69
100
AcDbDictionary
280
     1
281
     1
  3
ACAD_XREC_ROUNDTRIP
360
D8F
  0
DICTIONARY
  5
D90
330
C6A
100
AcDbDictionary
280
     1
281
     1
  3
ACAD_XREC_ROUNDTRIP
360
D91
  0
DICTIONARY
  5
D86
330
C65
100
AcDbDictionary
280
     1
281
     1
  3
ACAD_XREC_ROUNDTRIP
360
D87
  0
DICTIONARY
  5
D7A
330
C5F
100
AcDbDictionary
280
     1
281
     1
  3
ACAD_XREC_ROUNDTRIP
360
D7B
  0
DICTIONARY
  5
D92
330
C6B
100
AcDbDictionary
280
     1
281
     1
  3
ACAD_XREC_ROUNDTRIP
360
D93
  0
XRECORD
  5
D63
102
{ACAD_REACTORS
330
D69
102
}
330
D69
100
AcDbXrecord
280
     1
  1
AcDb_Thumbnail_Schema
102
{ATTRRECORD
341
D64
  2
AcDbDs::TreatedAsObjectData
280
     1
291
     1
102
ATTRRECORD}
102
{ATTRRECORD
341
D65
  2
AcDbDs::Legacy
280
     1
291
     1
102
ATTRRECORD}
  2
AcDbDs::ID
280
    10
 91
        8
102
{ATTRRECORD
341
D66
  2
AcDs:Indexable
280
     1
291
     1
102
ATTRRECORD}
102
{ATTRRECORD
341
D67
  2
AcDbDs::HandleAttribute
280
     7
282
     1
102
ATTRRECORD}
  2
Thumbnail_Data
280
    15
 91
        0
  0
XRECORD
  5
D64
102
{ACAD_REACTORS
330
D69
102
}
330
D69
100
AcDbXrecord
280
     1
  1
AcDbDs::TreatedAsObjectDataSchema
  2
AcDbDs::TreatedAsObjectData
280
     1
 91
        0
  0
XRECORD
  5
D65
102
{ACAD_REACTORS
330
D69
102
}
330
D69
100
AcDbXrecord
280
     1
  1
AcDbDs::LegacySchema
  2
AcDbDs::Legacy
280
     1
 91
        0
  0
XRECORD
  5
D66
102
{ACAD_REACTORS
330
D69
102
}
330
D69
100
AcDbXrecord
280
     1
  1
AcDbDs::IndexedPropertySchema
  2
AcDs:Indexable
280
     1
 91
        0
  0
XRECORD
  5
D67
102
{ACAD_REACTORS
330
D69
102
}
330
D69
100
AcDbXrecord
280
     1
  1
AcDbDs::HandleAttributeSchema
  2
AcDbDs::HandleAttribute
280
     7
 91
        1
284
     1
  0
XRECORD
  5
DA3
102
{ACAD_REACTORS
330
D04
102
}
330
D04
100
AcDbXrecord
280
     1
102
DISPLAYNAME
  1
Imperial24
102
FLAGS
 90
        0
  0
XRECORD
  5
DA7
102
{ACAD_REACTORS
330
DA6
102
}
330
DA6
100
AcDbXrecord
280
     1
102
SHADEPLOT
 70
     0
102
SHADEPLOTRESLEVEL
 70
     2
102
SHADEPLOTCUSTOMDPI
 70
   300
  0
XRECORD
  5
DA5
102
{ACAD_REACTORS
330
DA4
102
}
330
DA4
100
AcDbXrecord
280
     1
102
SHADEPLOT
 70
     0
102
SHADEPLOTRESLEVEL
 70
     2
102
SHADEPLOTCUSTOMDPI
 70
   300
  0
XRECORD
  5
D6C
102
{ACAD_REACTORS
330
C49
102
}
330
C49
100
AcDbXrecord
280
     1
102
MATERIAL
148
0.0
149
0.0
149
0.0
 93
        0
 94
      127
282
     0
 72
     0
 77
     0
171
     0
175
     0
179
     0
273
     0
  0
XRECORD
  5
C4B
102
{ACAD_REACTORS
330
C49
102
}
330
C49
100
AcDbXrecord
280
     1
270
     1
271
     1
  0
XRECORD
  5
C4A
102
{ACAD_REACTORS
330
C49
102
}
330
C49
100
AcDbXrecord
280
     1
270
     1
271
     1
  0
XRECORD
  5
C4E
102
{ACAD_REACTORS
330
C49
102
}
330
C49
100
AcDbXrecord
280
     1
270
     1
271
     1
  0
XRECORD
  5
C4D
102
{ACAD_REACTORS
330
C49
102
}
330
C49
100
AcDbXrecord
280
     1
270
     1
271
     1
  0
XRECORD
  5
C4F
102
{ACAD_REACTORS
330
C49
102
}
330
C49
100
AcDbXrecord
280
     1
270
     1
271
     1
  0
XRECORD
  5
C4C
102
{ACAD_REACTORS
330
C49
102
}
330
C49
100
AcDbXrecord
280
     1
270
     1
271
     1
  0
XRECORD
  5
D6B
102
{ACAD_REACTORS
330
C41
102
}
330
C41
100
AcDbXrecord
280
     1
102
MATERIAL
148
0.0
149
0.0
149
0.0
 93
        0
 94
      127
282
     0
 72
     0
 77
     0
171
     0
175
     0
179
     0
273
     0
  0
XRECORD
  5
C43
102
{ACAD_REACTORS
330
C41
102
}
330
C41
100
AcDbXrecord
280
     1
270
     1
271
     1
  0
XRECORD
  5
C42
102
{ACAD_REACTORS
330
C41
102
}
330
C41
100
AcDbXrecord
280
     1
270
     1
271
     1
  0
XRECORD
  5
C46
102
{ACAD_REACTORS
330
C41
102
}
330
C41
100
AcDbXrecord
280
     1
270
     1
271
     1
  0
XRECORD
  5
C45
102
{ACAD_REACTORS
330
C41
102
}
330
C41
100
AcDbXrecord
280
     1
270
     1
271
     1
  0
XRECORD
  5
C47
102
{ACAD_REACTORS
330
C41
102
}
330
C41
100
AcDbXrecord
280
     1
270
     1
271
     1
  0
XRECORD
  5
C44
102
{ACAD_REACTORS
330
C41
102
}
330
C41
100
AcDbXrecord
280
     1
270
     1
271
     1
  0
XRECORD
  5
D6D
102
{ACAD_REACTORS
330
C51
102
}
330
C51
100
AcDbXrecord
280
     1
102
MATERIAL
148
0.0
149
0.0
149
0.0
 93
        0
 94
      127
282
     0
 72
     0
 77
     0
171
     0
175
     0
179
     0
273
     0
  0
XRECORD
  5
C53
102
{ACAD_REACTORS
330
C51
102
}
330
C51
100
AcDbXrecord
280
     1
270
     1
271
     1
  0
XRECORD
  5
C52
102
{ACAD_REACTORS
330
C51
102
}
330
C51
100
AcDbXrecord
280
     1
270
     1
271
     1
  0
XRECORD
  5
C56
102
{ACAD_REACTORS
330
C51
102
}
330
C51
100
AcDbXrecord
280
     1
270
     1
271
     1
  0
XRECORD
  5
C55
102
{ACAD_REACTORS
330
C51
102
}
330
C51
100
AcDbXrecord
280
     1
270
     1
271
     1
  0
XRECORD
  5
C57
102
{ACAD_REACTORS
330
C51
102
}
330
C51
100
AcDbXrecord
280
     1
270
     1
271
     1
  0
XRECORD
  5
C54
102
{ACAD_REACTORS
330
C51
102
}
330
C51
100
AcDbXrecord
280
     1
270
     1
271
     1
  0
XRECORD
  5
DA1
102
{ACAD_REACTORS
330
DA0
102
}
330
DA0
100
AcDbXrecord
280
     1
102
ACAD_ROUNDTRIP_2012_MLEADER_STYLE
298
     1
  0
XRECORD
  5
DA2
102
{ACAD_REACTORS
330
D02
102
}
330
D02
100
AcDbXrecord
280
     1
102
DISPLAYNAME
  1
Imperial24
102
FLAGS
 90
        0
  0
CELLSTYLEMAP
  5
D60
102
{ACAD_REACTORS
330
D00
102
}
330
D00
100
AcDbCellStyleMap
 90
        3
300
CELLSTYLE
  1
TABLEFORMAT_BEGIN
 90
        5
170
     1
 91
        0
 92
    32768
 62
   257
 93
        1
300
CONTENTFORMAT
  1
CONTENTFORMAT_BEGIN
 90
        0
 91
        0
 92
      512
 93
        0
300

 40
0.0
140
1.0
 94
        5
 62
     0
340
F
144
0.25
309
CONTENTFORMAT_END
171
     1
301
MARGIN
  1
CELLMARGIN_BEGIN
 40
0.06
 40
0.06
 40
0.06
 40
0.06
 40
0.18
 40
0.18
309
CELLMARGIN_END
 94
        6
 95
        1
302
GRIDFORMAT
  1
GRIDFORMAT_BEGIN
 90
        0
 91
        1
 62
     0
 92
       -2
340
0
 93
        0
 40
0.045
309
GRIDFORMAT_END
 95
        2
302
GRIDFORMAT
  1
GRIDFORMAT_BEGIN
 90
        0
 91
        1
 62
     0
 92
       -2
340
0
 93
        0
 40
0.045
309
GRIDFORMAT_END
 95
        4
302
GRIDFORMAT
  1
GRIDFORMAT_BEGIN
 90
        0
 91
        1
 62
     0
 92
       -2
340
0
 93
        0
 40
0.045
309
GRIDFORMAT_END
 95
        8
302
GRIDFORMAT
  1
GRIDFORMAT_BEGIN
 90
        0
 91
        1
 62
     0
 92
       -2
340
0
 93
        0
 40
0.045
309
GRIDFORMAT_END
 95
       16
302
GRIDFORMAT
  1
GRIDFORMAT_BEGIN
 90
        0
 91
        1
 62
     0
 92
       -2
340
0
 93
        0
 40
0.045
309
GRIDFORMAT_END
 95
       32
302
GRIDFORMAT
  1
GRIDFORMAT_BEGIN
 90
        0
 91
        1
 62
     0
 92
       -2
340
0
 93
        0
 40
0.045
309
GRIDFORMAT_END
309
TABLEFORMAT_END
  1
CELLSTYLE_BEGIN
 90
        1
 91
        1
300
_TITLE
309
CELLSTYLE_END
300
CELLSTYLE
  1
TABLEFORMAT_BEGIN
 90
        5
170
     1
 91
        0
 92
        0
 62
   257
 93
        1
300
CONTENTFORMAT
  1
CONTENTFORMAT_BEGIN
 90
        0
 91
        0
 92
      512
 93
        0
300

 40
0.0
140
1.0
 94
        5
 62
     0
340
F
144
0.18
309
CONTENTFORMAT_END
171
     1
301
MARGIN
  1
CELLMARGIN_BEGIN
 40
0.06
 40
0.06
 40
0.06
 40
0.06
 40
0.18
 40
0.18
309
CELLMARGIN_END
 94
        6
 95
        1
302
GRIDFORMAT
  1
GRIDFORMAT_BEGIN
 90
        0
 91
        1
 62
     0
 92
       -2
340
0
 93
        0
 40
0.045
309
GRIDFORMAT_END
 95
        2
302
GRIDFORMAT
  1
GRIDFORMAT_BEGIN
 90
        0
 91
        1
 62
     0
 92
       -2
340
0
 93
        0
 40
0.045
309
GRIDFORMAT_END
 95
        4
302
GRIDFORMAT
  1
GRIDFORMAT_BEGIN
 90
        0
 91
        1
 62
     0
 92
       -2
340
0
 93
        0
 40
0.045
309
GRIDFORMAT_END
 95
        8
302
GRIDFORMAT
  1
GRIDFORMAT_BEGIN
 90
        0
 91
        1
 62
     0
 92
       -2
340
0
 93
        0
 40
0.045
309
GRIDFORMAT_END
 95
       16
302
GRIDFORMAT
  1
GRIDFORMAT_BEGIN
 90
        0
 91
        1
 62
     0
 92
       -2
340
0
 93
        0
 40
0.045
309
GRIDFORMAT_END
 95
       32
302
GRIDFORMAT
  1
GRIDFORMAT_BEGIN
 90
        0
 91
        1
 62
     0
 92
       -2
340
0
 93
        0
 40
0.045
309
GRIDFORMAT_END
309
TABLEFORMAT_END
  1
CELLSTYLE_BEGIN
 90
        2
 91
        1
300
_HEADER
309
CELLSTYLE_END
300
CELLSTYLE
  1
TABLEFORMAT_BEGIN
 90
        5
170
     1
 91
        0
 92
        0
 62
   257
 93
        1
300
CONTENTFORMAT
  1
CONTENTFORMAT_BEGIN
 90
        0
 91
        0
 92
      512
 93
        0
300

 40
0.0
140
1.0
 94
        2
 62
     0
340
F
144
0.18
309
CONTENTFORMAT_END
171
     1
301
MARGIN
  1
CELLMARGIN_BEGIN
 40
0.06
 40
0.06
 40
0.06
 40
0.06
 40
0.18
 40
0.18
309
CELLMARGIN_END
 94
        6
 95
        1
302
GRIDFORMAT
  1
GRIDFORMAT_BEGIN
 90
        0
 91
        1
 62
     0
 92
       -2
340
0
 93
        0
 40
0.045
309
GRIDFORMAT_END
 95
        2
302
GRIDFORMAT
  1
GRIDFORMAT_BEGIN
 90
        0
 91
        1
 62
     0
 92
       -2
340
0
 93
        0
 40
0.045
309
GRIDFORMAT_END
 95
        4
302
GRIDFORMAT
  1
GRIDFORMAT_BEGIN
 90
        0
 91
        1
 62
     0
 92
       -2
340
0
 93
        0
 40
0.045
309
GRIDFORMAT_END
 95
        8
302
GRIDFORMAT
  1
GRIDFORMAT_BEGIN
 90
        0
 91
        1
 62
     0
 92
       -2
340
0
 93
        0
 40
0.045
309
GRIDFORMAT_END
 95
       16
302
GRIDFORMAT
  1
GRIDFORMAT_BEGIN
 90
        0
 91
        1
 62
     0
 92
       -2
340
0
 93
        0
 40
0.045
309
GRIDFORMAT_END
 95
       32
302
GRIDFORMAT
  1
GRIDFORMAT_BEGIN
 90
        0
 91
        1
 62
     0
 92
       -2
340
0
 93
        0
 40
0.045
309
GRIDFORMAT_END
309
TABLEFORMAT_END
  1
CELLSTYLE_BEGIN
 90
        3
 91
        2
300
_DATA
309
CELLSTYLE_END
  0
XRECORD
  5
D9E
102
{ACAD_REACTORS
330
D00
102
}
330
D00
100
AcDbXrecord
280
     1
102
ACAD_ROUNDTRIP_PRE2007_TABLESTYLE
 90
      512
 91
        0
  1

 92
      512
 93
        0
  2

 94
      512
 95
        0
  3

  0
XRECORD
  5
D79
102
{ACAD_REACTORS
330
D78
102
}
330
D78
100
AcDbXrecord
280
     1
102
RTVSPost2010Prop28
280
     1
102
RTVSPost2010PropOp28
 70
     1
102
RTVSPost2010Prop29
280
     1
102
RTVSPost2010PropOp29
 70
     1
102
RTVSPost2010Prop30
280
     0
102
RTVSPost2010PropOp30
 70
     1
102
RTVSPost2010Prop31
280
     0
102
RTVSPost2010PropOp31
 70
     1
102
RTVSPost2010Prop32
280
     0
102
RTVSPost2010PropOp32
 70
     1
102
RTVSPost2010Prop33
280
     0
102
RTVSPost2010PropOp33
 70
     1
102
RTVSPost2010Prop34
280
     0
102
RTVSPost2010PropOp34
 70
     1
102
RTVSPost2010Prop35
280
     0
102
RTVSPost2010PropOp35
 70
     1
102
RTVSPost2010Prop36
280
     0
102
RTVSPost2010PropOp36
 70
     1
102
RTVSPost2010Prop37
 90
       50
102
RTVSPost2010PropOp37
 70
     1
102
RTVSPost2010Prop38
140
0.0
102
RTVSPost2010PropOp38
 70
     1
102
RTVSPost2010Prop39
140
1.0
102
RTVSPost2010PropOp39
 70
     1
102
RTVSPost2010Prop40
 90
        0
102
RTVSPost2010PropOp40
 70
     1
102
RTVSPost2010Prop41ColorIndex
 90
       18
102
RTVSPost2010Prop41ColorRGB
 90
-16777216
102
RTVSPost2010PropOp41
 70
     1
102
RTVSPost2010Prop42
 90
       50
102
RTVSPost2010PropOp42
 70
     1
102
RTVSPost2010Prop43
 90
        3
102
RTVSPost2010PropOp43
 70
     1
102
RTVSPost2010Prop44ColorIndex
 90
        5
102
RTVSPost2010Prop44ColorRGB
 90
      255
102
RTVSPost2010PropOp44
 70
     1
102
RTVSPost2010Prop45
280
     0
102
RTVSPost2010PropOp45
 70
     1
102
RTVSPost2010Prop46
 90
       50
102
RTVSPost2010PropOp46
 70
     1
102
RTVSPost2010Prop47
 90
       50
102
RTVSPost2010PropOp47
 70
     1
102
RTVSPost2010Prop48
 90
       50
102
RTVSPost2010PropOp48
 70
     1
102
RTVSPost2010Prop49
280
     0
102
RTVSPost2010PropOp49
 70
     1
102
RTVSPost2010Prop50
 90
       50
102
RTVSPost2010PropOp50
 70
     1
102
RTVSPost2010Prop51ColorIndex
 90
      256
102
RTVSPost2010Prop51ColorRGB
 90
-16777216
102
RTVSPost2010PropOp51
 70
     0
102
RTVSPost2010Prop52
140
1.0
102
RTVSPost2010PropOp52
 70
     0
102
RTVSPost2010Prop53
 90
        2
102
RTVSPost2010PropOp53
 70
     1
102
RTVSPost2010Prop54
  1
strokes_ogs.tif
102
RTVSPost2010PropOp54
 70
     1
102
RTVSPost2010Prop55
280
     0
102
RTVSPost2010PropOp55
 70
     1
102
RTVSPost2010Prop56
140
1.0
102
RTVSPost2010PropOp56
 70
     1
102
RTVSPost2010Prop57
140
1.0
102
RTVSPost2010PropOp57
 70
     1
102
RTVSPropertyOp0
 70
     1
102
RTVSPropertyOp1
 70
     1
102
RTVSPropertyOp2
 70
     1
102
RTVSPropertyOp3
 70
     1
102
RTVSPropertyOp4
 70
     1
102
RTVSPropertyOp5
 70
     1
102
RTVSPropertyOp6
 70
     1
102
RTVSPropertyOp7
 70
     1
102
RTVSPropertyOp8
 70
     1
102
RTVSPropertyOp9
 70
     1
102
RTVSPropertyOp10
 70
     1
102
RTVSPropertyOp11
 70
     1
102
RTVSPropertyOp12
 70
     1
102
RTVSPropertyOp13
 70
     1
102
RTVSPropertyOp14
 70
     1
102
RTVSPropertyOp15
 70
     1
102
RTVSPropertyOp16
 70
     1
102
RTVSPropertyOp17
 70
     1
102
RTVSPropertyOp18
 70
     1
102
RTVSPropertyOp19
 70
     1
102
RTVSPropertyOp20
 70
     1
102
RTVSPropertyOp21
 70
     1
102
RTVSPropertyOp22
 70
     1
102
RTVSPropertyOp23
 70
     1
102
RTVSPropertyOp24
 70
     1
102
RTVSPropertyOp25
 70
     1
102
RTVSPropertyOp26
 70
     1
102
RTVSPropertyOp27
 70
     1
102
RTVSPropertyOp28
 70
     1
102
RTVSPropertyOp29
 70
     1
102
RTVSPropertyOp30
 70
     1
102
RTVSPropertyOp31
 70
     1
102
RTVSPropertyOp32
 70
     1
102
RTVSPropertyOp33
 70
     1
102
RTVSPropertyOp34
 70
     1
102
RTVSPropertyOp35
 70
     1
102
RTVSPropertyOp36
 70
     1
102
RTVSPropertyOp37
 70
     1
102
RTVSPropertyOp38
 70
     1
102
RTVSPropertyOp39
 70
     1
102
RTVSPropertyOp40
 70
     1
102
RTVSPropertyOp41
 70
     1
102
RTVSPropertyOp42
 70
     1
102
RTVSPropertyOp43
 70
     1
102
RTVSPropertyOp44
 70
     1
102
RTVSPropertyOp45
 70
     1
102
RTVSPropertyOp46
 70
     1
102
RTVSPropertyOp47
 70
     1
102
RTVSPropertyOp48
 70
     1
102
RTVSPropertyOp49
 70
     1
102
RTVSPropertyOp50
 70
     1
102
RTVSPropertyOp51
 70
     0
102
RTVSPropertyOp52
 70
     0
102
RTVSPropertyOp53
 70
     1
102
RTVSPropertyOp54
 70
     1
102
RTVSPropertyOp55
 70
     1
102
RTVSPropertyOp56
 70
     1
102
RTVSPropertyOp57
 70
     1
102
RTVSPropertyOp58
 70
     1
102
RTVSPropertyOp59
 70
     1
102
RTVSPropertyOp60
 70
     1
102
RTVSPropertyOp61
 70
     1
102
RTVSPropertyOp62
 70
     1
  0
XRECORD
  5
D77
102
{ACAD_REACTORS
330
D76
102
}
330
D76
100
AcDbXrecord
280
     1
102
RTVSPost2010Prop28
280
     0
102
RTVSPost2010PropOp28
 70
     1
102
RTVSPost2010Prop29
280
     1
102
RTVSPost2010PropOp29
 70
     1
102
RTVSPost2010Prop30
280
     1
102
RTVSPost2010PropOp30
 70
     1
102
RTVSPost2010Prop31
280
     0
102
RTVSPost2010PropOp31
 70
     1
102
RTVSPost2010Prop32
280
     0
102
RTVSPost2010PropOp32
 70
     1
102
RTVSPost2010Prop33
280
     0
102
RTVSPost2010PropOp33
 70
     1
102
RTVSPost2010Prop34
280
     0
102
RTVSPost2010PropOp34
 70
     1
102
RTVSPost2010Prop35
280
     0
102
RTVSPost2010PropOp35
 70
     1
102
RTVSPost2010Prop36
280
     0
102
RTVSPost2010PropOp36
 70
     1
102
RTVSPost2010Prop37
 90
       50
102
RTVSPost2010PropOp37
 70
     1
102
RTVSPost2010Prop38
140
0.0
102
RTVSPost2010PropOp38
 70
     1
102
RTVSPost2010Prop39
140
1.0
102
RTVSPost2010PropOp39
 70
     1
102
RTVSPost2010Prop40
 90
        0
102
RTVSPost2010PropOp40
 70
     1
102
RTVSPost2010Prop41ColorIndex
 90
       18
102
RTVSPost2010Prop41ColorRGB
 90
-16777216
102
RTVSPost2010PropOp41
 70
     1
102
RTVSPost2010Prop42
 90
       50
102
RTVSPost2010PropOp42
 70
     1
102
RTVSPost2010Prop43
 90
        3
102
RTVSPost2010PropOp43
 70
     1
102
RTVSPost2010Prop44ColorIndex
 90
        5
102
RTVSPost2010Prop44ColorRGB
 90
      255
102
RTVSPost2010PropOp44
 70
     1
102
RTVSPost2010Prop45
280
     0
102
RTVSPost2010PropOp45
 70
     1
102
RTVSPost2010Prop46
 90
       50
102
RTVSPost2010PropOp46
 70
     1
102
RTVSPost2010Prop47
 90
       50
102
RTVSPost2010PropOp47
 70
     1
102
RTVSPost2010Prop48
 90
       50
102
RTVSPost2010PropOp48
 70
     1
102
RTVSPost2010Prop49
280
     0
102
RTVSPost2010PropOp49
 70
     1
102
RTVSPost2010Prop50
 90
       50
102
RTVSPost2010PropOp50
 70
     1
102
RTVSPost2010Prop51ColorIndex
 90
      256
102
RTVSPost2010Prop51ColorRGB
 90
-16777216
102
RTVSPost2010PropOp51
 70
     0
102
RTVSPost2010Prop52
140
1.0
102
RTVSPost2010PropOp52
 70
     0
102
RTVSPost2010Prop53
 90
        2
102
RTVSPost2010PropOp53
 70
     1
102
RTVSPost2010Prop54
  1
strokes_ogs.tif
102
RTVSPost2010PropOp54
 70
     1
102
RTVSPost2010Prop55
280
     0
102
RTVSPost2010PropOp55
 70
     1
102
RTVSPost2010Prop56
140
1.0
102
RTVSPost2010PropOp56
 70
     1
102
RTVSPost2010Prop57
140
1.0
102
RTVSPost2010PropOp57
 70
     1
102
RTVSPropertyOp0
 70
     1
102
RTVSPropertyOp1
 70
     1
102
RTVSPropertyOp2
 70
     1
102
RTVSPropertyOp3
 70
     1
102
RTVSPropertyOp4
 70
     1
102
RTVSPropertyOp5
 70
     1
102
RTVSPropertyOp6
 70
     1
102
RTVSPropertyOp7
 70
     1
102
RTVSPropertyOp8
 70
     1
102
RTVSPropertyOp9
 70
     1
102
RTVSPropertyOp10
 70
     1
102
RTVSPropertyOp11
 70
     1
102
RTVSPropertyOp12
 70
     1
102
RTVSPropertyOp13
 70
     1
102
RTVSPropertyOp14
 70
     1
102
RTVSPropertyOp15
 70
     1
102
RTVSPropertyOp16
 70
     1
102
RTVSPropertyOp17
 70
     1
102
RTVSPropertyOp18
 70
     1
102
RTVSPropertyOp19
 70
     1
102
RTVSPropertyOp20
 70
     1
102
RTVSPropertyOp21
 70
     1
102
RTVSPropertyOp22
 70
     1
102
RTVSPropertyOp23
 70
     1
102
RTVSPropertyOp24
 70
     1
102
RTVSPropertyOp25
 70
     1
102
RTVSPropertyOp26
 70
     1
102
RTVSPropertyOp27
 70
     1
102
RTVSPropertyOp28
 70
     1
102
RTVSPropertyOp29
 70
     1
102
RTVSPropertyOp30
 70
     1
102
RTVSPropertyOp31
 70
     1
102
RTVSPropertyOp32
 70
     1
102
RTVSPropertyOp33
 70
     1
102
RTVSPropertyOp34
 70
     1
102
RTVSPropertyOp35
 70
     1
102
RTVSPropertyOp36
 70
     1
102
RTVSPropertyOp37
 70
     1
102
RTVSPropertyOp38
 70
     1
102
RTVSPropertyOp39
 70
     1
102
RTVSPropertyOp40
 70
     1
102
RTVSPropertyOp41
 70
     1
102
RTVSPropertyOp42
 70
     1
102
RTVSPropertyOp43
 70
     1
102
RTVSPropertyOp44
 70
     1
102
RTVSPropertyOp45
 70
     1
102
RTVSPropertyOp46
 70
     1
102
RTVSPropertyOp47
 70
     1
102
RTVSPropertyOp48
 70
     1
102
RTVSPropertyOp49
 70
     1
102
RTVSPropertyOp50
 70
     1
102
RTVSPropertyOp51
 70
     0
102
RTVSPropertyOp52
 70
     0
102
RTVSPropertyOp53
 70
     1
102
RTVSPropertyOp54
 70
     1
102
RTVSPropertyOp55
 70
     1
102
RTVSPropertyOp56
 70
     1
102
RTVSPropertyOp57
 70
     1
102
RTVSPropertyOp58
 70
     1
102
RTVSPropertyOp59
 70
     1
102
RTVSPropertyOp60
 70
     1
102
RTVSPropertyOp61
 70
     1
102
RTVSPropertyOp62
 70
     1
  0
XRECORD
  5
D85
102
{ACAD_REACTORS
330
D84
102
}
330
D84
100
AcDbXrecord
280
     1
102
RTVSPost2010Prop28
280
     0
102
RTVSPost2010PropOp28
 70
     1
102
RTVSPost2010Prop29
280
     1
102
RTVSPost2010PropOp29
 70
     1
102
RTVSPost2010Prop30
280
     1
102
RTVSPost2010PropOp30
 70
     1
102
RTVSPost2010Prop31
280
     0
102
RTVSPost2010PropOp31
 70
     1
102
RTVSPost2010Prop32
280
     0
102
RTVSPost2010PropOp32
 70
     1
102
RTVSPost2010Prop33
280
     0
102
RTVSPost2010PropOp33
 70
     1
102
RTVSPost2010Prop34
280
     0
102
RTVSPost2010PropOp34
 70
     1
102
RTVSPost2010Prop35
280
     0
102
RTVSPost2010PropOp35
 70
     1
102
RTVSPost2010Prop36
280
     0
102
RTVSPost2010PropOp36
 70
     1
102
RTVSPost2010Prop37
 90
       50
102
RTVSPost2010PropOp37
 70
     1
102
RTVSPost2010Prop38
140
0.0
102
RTVSPost2010PropOp38
 70
     1
102
RTVSPost2010Prop39
140
1.0
102
RTVSPost2010PropOp39
 70
     1
102
RTVSPost2010Prop40
 90
        0
102
RTVSPost2010PropOp40
 70
     1
102
RTVSPost2010Prop41ColorIndex
 90
       18
102
RTVSPost2010Prop41ColorRGB
 90
-16777216
102
RTVSPost2010PropOp41
 70
     1
102
RTVSPost2010Prop42
 90
       50
102
RTVSPost2010PropOp42
 70
     1
102
RTVSPost2010Prop43
 90
        3
102
RTVSPost2010PropOp43
 70
     1
102
RTVSPost2010Prop44ColorIndex
 90
        5
102
RTVSPost2010Prop44ColorRGB
 90
      255
102
RTVSPost2010PropOp44
 70
     1
102
RTVSPost2010Prop45
280
     0
102
RTVSPost2010PropOp45
 70
     1
102
RTVSPost2010Prop46
 90
       50
102
RTVSPost2010PropOp46
 70
     1
102
RTVSPost2010Prop47
 90
       50
102
RTVSPost2010PropOp47
 70
     1
102
RTVSPost2010Prop48
 90
       50
102
RTVSPost2010PropOp48
 70
     1
102
RTVSPost2010Prop49
280
     0
102
RTVSPost2010PropOp49
 70
     1
102
RTVSPost2010Prop50
 90
       50
102
RTVSPost2010PropOp50
 70
     1
102
RTVSPost2010Prop51ColorIndex
 90
      256
102
RTVSPost2010Prop51ColorRGB
 90
-16777216
102
RTVSPost2010PropOp51
 70
     0
102
RTVSPost2010Prop52
140
1.0
102
RTVSPost2010PropOp52
 70
     0
102
RTVSPost2010Prop53
 90
        2
102
RTVSPost2010PropOp53
 70
     1
102
RTVSPost2010Prop54
  1
strokes_ogs.tif
102
RTVSPost2010PropOp54
 70
     1
102
RTVSPost2010Prop55
280
     0
102
RTVSPost2010PropOp55
 70
     1
102
RTVSPost2010Prop56
140
1.0
102
RTVSPost2010PropOp56
 70
     1
102
RTVSPost2010Prop57
140
1.0
102
RTVSPost2010PropOp57
 70
     1
102
RTVSPropertyOp0
 70
     1
102
RTVSPropertyOp1
 70
     1
102
RTVSPropertyOp2
 70
     1
102
RTVSPropertyOp3
 70
     1
102
RTVSPropertyOp4
 70
     1
102
RTVSPropertyOp5
 70
     1
102
RTVSPropertyOp6
 70
     1
102
RTVSPropertyOp7
 70
     1
102
RTVSPropertyOp8
 70
     1
102
RTVSPropertyOp9
 70
     1
102
RTVSPropertyOp10
 70
     1
102
RTVSPropertyOp11
 70
     1
102
RTVSPropertyOp12
 70
     1
102
RTVSPropertyOp13
 70
     1
102
RTVSPropertyOp14
 70
     1
102
RTVSPropertyOp15
 70
     1
102
RTVSPropertyOp16
 70
     1
102
RTVSPropertyOp17
 70
     1
102
RTVSPropertyOp18
 70
     1
102
RTVSPropertyOp19
 70
     1
102
RTVSPropertyOp20
 70
     1
102
RTVSPropertyOp21
 70
     1
102
RTVSPropertyOp22
 70
     1
102
RTVSPropertyOp23
 70
     1
102
RTVSPropertyOp24
 70
     1
102
RTVSPropertyOp25
 70
     1
102
RTVSPropertyOp26
 70
     1
102
RTVSPropertyOp27
 70
     1
102
RTVSPropertyOp28
 70
     1
102
RTVSPropertyOp29
 70
     1
102
RTVSPropertyOp30
 70
     1
102
RTVSPropertyOp31
 70
     1
102
RTVSPropertyOp32
 70
     1
102
RTVSPropertyOp33
 70
     1
102
RTVSPropertyOp34
 70
     1
102
RTVSPropertyOp35
 70
     1
102
RTVSPropertyOp36
 70
     1
102
RTVSPropertyOp37
 70
     1
102
RTVSPropertyOp38
 70
     1
102
RTVSPropertyOp39
 70
     1
102
RTVSPropertyOp40
 70
     1
102
RTVSPropertyOp41
 70
     1
102
RTVSPropertyOp42
 70
     1
102
RTVSPropertyOp43
 70
     1
102
RTVSPropertyOp44
 70
     1
102
RTVSPropertyOp45
 70
     1
102
RTVSPropertyOp46
 70
     1
102
RTVSPropertyOp47
 70
     1
102
RTVSPropertyOp48
 70
     1
102
RTVSPropertyOp49
 70
     1
102
RTVSPropertyOp50
 70
     1
102
RTVSPropertyOp51
 70
     0
102
RTVSPropertyOp52
 70
     0
102
RTVSPropertyOp53
 70
     1
102
RTVSPropertyOp54
 70
     1
102
RTVSPropertyOp55
 70
     1
102
RTVSPropertyOp56
 70
     1
102
RTVSPropertyOp57
 70
     1
102
RTVSPropertyOp58
 70
     1
102
RTVSPropertyOp59
 70
     1
102
RTVSPropertyOp60
 70
     1
102
RTVSPropertyOp61
 70
     1
102
RTVSPropertyOp62
 70
     1
  0
XRECORD
  5
D8D
102
{ACAD_REACTORS
330
D8C
102
}
330
D8C
100
AcDbXrecord
280
     1
102
RTVSPost2010Prop28
280
     0
102
RTVSPost2010PropOp28
 70
     1
102
RTVSPost2010Prop29
280
     1
102
RTVSPost2010PropOp29
 70
     1
102
RTVSPost2010Prop30
280
     1
102
RTVSPost2010PropOp30
 70
     1
102
RTVSPost2010Prop31
280
     0
102
RTVSPost2010PropOp31
 70
     1
102
RTVSPost2010Prop32
280
     0
102
RTVSPost2010PropOp32
 70
     1
102
RTVSPost2010Prop33
280
     0
102
RTVSPost2010PropOp33
 70
     1
102
RTVSPost2010Prop34
280
     0
102
RTVSPost2010PropOp34
 70
     1
102
RTVSPost2010Prop35
280
     0
102
RTVSPost2010PropOp35
 70
     1
102
RTVSPost2010Prop36
280
     0
102
RTVSPost2010PropOp36
 70
     1
102
RTVSPost2010Prop37
 90
       50
102
RTVSPost2010PropOp37
 70
     1
102
RTVSPost2010Prop38
140
0.0
102
RTVSPost2010PropOp38
 70
     1
102
RTVSPost2010Prop39
140
1.0
102
RTVSPost2010PropOp39
 70
     1
102
RTVSPost2010Prop40
 90
        0
102
RTVSPost2010PropOp40
 70
     1
102
RTVSPost2010Prop41ColorIndex
 90
       18
102
RTVSPost2010Prop41ColorRGB
 90
-16777216
102
RTVSPost2010PropOp41
 70
     1
102
RTVSPost2010Prop42
 90
       50
102
RTVSPost2010PropOp42
 70
     1
102
RTVSPost2010Prop43
 90
        3
102
RTVSPost2010PropOp43
 70
     1
102
RTVSPost2010Prop44ColorIndex
 90
        5
102
RTVSPost2010Prop44ColorRGB
 90
      255
102
RTVSPost2010PropOp44
 70
     1
102
RTVSPost2010Prop45
280
     0
102
RTVSPost2010PropOp45
 70
     1
102
RTVSPost2010Prop46
 90
       50
102
RTVSPost2010PropOp46
 70
     1
102
RTVSPost2010Prop47
 90
       50
102
RTVSPost2010PropOp47
 70
     1
102
RTVSPost2010Prop48
 90
       50
102
RTVSPost2010PropOp48
 70
     1
102
RTVSPost2010Prop49
280
     0
102
RTVSPost2010PropOp49
 70
     1
102
RTVSPost2010Prop50
 90
       50
102
RTVSPost2010PropOp50
 70
     1
102
RTVSPost2010Prop51ColorIndex
 90
      256
102
RTVSPost2010Prop51ColorRGB
 90
-16777216
102
RTVSPost2010PropOp51
 70
     0
102
RTVSPost2010Prop52
140
1.0
102
RTVSPost2010PropOp52
 70
     0
102
RTVSPost2010Prop53
 90
        2
102
RTVSPost2010PropOp53
 70
     1
102
RTVSPost2010Prop54
  1
strokes_ogs.tif
102
RTVSPost2010PropOp54
 70
     1
102
RTVSPost2010Prop55
280
     0
102
RTVSPost2010PropOp55
 70
     1
102
RTVSPost2010Prop56
140
1.0
102
RTVSPost2010PropOp56
 70
     1
102
RTVSPost2010Prop57
140
1.0
102
RTVSPost2010PropOp57
 70
     1
102
RTVSPropertyOp0
 70
     1
102
RTVSPropertyOp1
 70
     1
102
RTVSPropertyOp2
 70
     1
102
RTVSPropertyOp3
 70
     1
102
RTVSPropertyOp4
 70
     1
102
RTVSPropertyOp5
 70
     1
102
RTVSPropertyOp6
 70
     1
102
RTVSPropertyOp7
 70
     1
102
RTVSPropertyOp8
 70
     1
102
RTVSPropertyOp9
 70
     1
102
RTVSPropertyOp10
 70
     1
102
RTVSPropertyOp11
 70
     1
102
RTVSPropertyOp12
 70
     1
102
RTVSPropertyOp13
 70
     1
102
RTVSPropertyOp14
 70
     1
102
RTVSPropertyOp15
 70
     1
102
RTVSPropertyOp16
 70
     1
102
RTVSPropertyOp17
 70
     1
102
RTVSPropertyOp18
 70
     1
102
RTVSPropertyOp19
 70
     1
102
RTVSPropertyOp20
 70
     1
102
RTVSPropertyOp21
 70
     1
102
RTVSPropertyOp22
 70
     1
102
RTVSPropertyOp23
 70
     1
102
RTVSPropertyOp24
 70
     1
102
RTVSPropertyOp25
 70
     1
102
RTVSPropertyOp26
 70
     1
102
RTVSPropertyOp27
 70
     1
102
RTVSPropertyOp28
 70
     1
102
RTVSPropertyOp29
 70
     1
102
RTVSPropertyOp30
 70
     1
102
RTVSPropertyOp31
 70
     1
102
RTVSPropertyOp32
 70
     1
102
RTVSPropertyOp33
 70
     1
102
RTVSPropertyOp34
 70
     1
102
RTVSPropertyOp35
 70
     1
102
RTVSPropertyOp36
 70
     1
102
RTVSPropertyOp37
 70
     1
102
RTVSPropertyOp38
 70
     1
102
RTVSPropertyOp39
 70
     1
102
RTVSPropertyOp40
 70
     1
102
RTVSPropertyOp41
 70
     1
102
RTVSPropertyOp42
 70
     1
102
RTVSPropertyOp43
 70
     1
102
RTVSPropertyOp44
 70
     1
102
RTVSPropertyOp45
 70
     1
102
RTVSPropertyOp46
 70
     1
102
RTVSPropertyOp47
 70
     1
102
RTVSPropertyOp48
 70
     1
102
RTVSPropertyOp49
 70
     1
102
RTVSPropertyOp50
 70
     1
102
RTVSPropertyOp51
 70
     0
102
RTVSPropertyOp52
 70
     0
102
RTVSPropertyOp53
 70
     1
102
RTVSPropertyOp54
 70
     1
102
RTVSPropertyOp55
 70
     1
102
RTVSPropertyOp56
 70
     1
102
RTVSPropertyOp57
 70
     1
102
RTVSPropertyOp58
 70
     1
102
RTVSPropertyOp59
 70
     1
102
RTVSPropertyOp60
 70
     1
102
RTVSPropertyOp61
 70
     1
102
RTVSPropertyOp62
 70
     1
  0
XRECORD
  5
D7F
102
{ACAD_REACTORS
330
D7E
102
}
330
D7E
100
AcDbXrecord
280
     1
102
RTVSPost2010Prop28
280
     0
102
RTVSPost2010PropOp28
 70
     1
102
RTVSPost2010Prop29
280
     1
102
RTVSPost2010PropOp29
 70
     1
102
RTVSPost2010Prop30
280
     1
102
RTVSPost2010PropOp30
 70
     1
102
RTVSPost2010Prop31
280
     0
102
RTVSPost2010PropOp31
 70
     1
102
RTVSPost2010Prop32
280
     0
102
RTVSPost2010PropOp32
 70
     1
102
RTVSPost2010Prop33
280
     0
102
RTVSPost2010PropOp33
 70
     1
102
RTVSPost2010Prop34
280
     0
102
RTVSPost2010PropOp34
 70
     1
102
RTVSPost2010Prop35
280
     0
102
RTVSPost2010PropOp35
 70
     1
102
RTVSPost2010Prop36
280
     0
102
RTVSPost2010PropOp36
 70
     1
102
RTVSPost2010Prop37
 90
       50
102
RTVSPost2010PropOp37
 70
     1
102
RTVSPost2010Prop38
140
0.0
102
RTVSPost2010PropOp38
 70
     1
102
RTVSPost2010Prop39
140
1.0
102
RTVSPost2010PropOp39
 70
     1
102
RTVSPost2010Prop40
 90
        0
102
RTVSPost2010PropOp40
 70
     1
102
RTVSPost2010Prop41ColorIndex
 90
       18
102
RTVSPost2010Prop41ColorRGB
 90
-16777216
102
RTVSPost2010PropOp41
 70
     1
102
RTVSPost2010Prop42
 90
       50
102
RTVSPost2010PropOp42
 70
     1
102
RTVSPost2010Prop43
 90
        3
102
RTVSPost2010PropOp43
 70
     1
102
RTVSPost2010Prop44ColorIndex
 90
        5
102
RTVSPost2010Prop44ColorRGB
 90
      255
102
RTVSPost2010PropOp44
 70
     1
102
RTVSPost2010Prop45
280
     0
102
RTVSPost2010PropOp45
 70
     1
102
RTVSPost2010Prop46
 90
       50
102
RTVSPost2010PropOp46
 70
     1
102
RTVSPost2010Prop47
 90
       50
102
RTVSPost2010PropOp47
 70
     1
102
RTVSPost2010Prop48
 90
       50
102
RTVSPost2010PropOp48
 70
     1
102
RTVSPost2010Prop49
280
     0
102
RTVSPost2010PropOp49
 70
     1
102
RTVSPost2010Prop50
 90
       50
102
RTVSPost2010PropOp50
 70
     1
102
RTVSPost2010Prop51ColorIndex
 90
      256
102
RTVSPost2010Prop51ColorRGB
 90
-16777216
102
RTVSPost2010PropOp51
 70
     0
102
RTVSPost2010Prop52
140
1.0
102
RTVSPost2010PropOp52
 70
     0
102
RTVSPost2010Prop53
 90
        2
102
RTVSPost2010PropOp53
 70
     1
102
RTVSPost2010Prop54
  1
strokes_ogs.tif
102
RTVSPost2010PropOp54
 70
     1
102
RTVSPost2010Prop55
280
     0
102
RTVSPost2010PropOp55
 70
     1
102
RTVSPost2010Prop56
140
1.0
102
RTVSPost2010PropOp56
 70
     1
102
RTVSPost2010Prop57
140
1.0
102
RTVSPost2010PropOp57
 70
     1
102
RTVSPropertyOp0
 70
     1
102
RTVSPropertyOp1
 70
     1
102
RTVSPropertyOp2
 70
     1
102
RTVSPropertyOp3
 70
     1
102
RTVSPropertyOp4
 70
     1
102
RTVSPropertyOp5
 70
     1
102
RTVSPropertyOp6
 70
     1
102
RTVSPropertyOp7
 70
     1
102
RTVSPropertyOp8
 70
     1
102
RTVSPropertyOp9
 70
     1
102
RTVSPropertyOp10
 70
     1
102
RTVSPropertyOp11
 70
     1
102
RTVSPropertyOp12
 70
     1
102
RTVSPropertyOp13
 70
     1
102
RTVSPropertyOp14
 70
     1
102
RTVSPropertyOp15
 70
     1
102
RTVSPropertyOp16
 70
     1
102
RTVSPropertyOp17
 70
     1
102
RTVSPropertyOp18
 70
     1
102
RTVSPropertyOp19
 70
     1
102
RTVSPropertyOp20
 70
     1
102
RTVSPropertyOp21
 70
     1
102
RTVSPropertyOp22
 70
     1
102
RTVSPropertyOp23
 70
     1
102
RTVSPropertyOp24
 70
     1
102
RTVSPropertyOp25
 70
     1
102
RTVSPropertyOp26
 70
     1
102
RTVSPropertyOp27
 70
     1
102
RTVSPropertyOp28
 70
     1
102
RTVSPropertyOp29
 70
     1
102
RTVSPropertyOp30
 70
     1
102
RTVSPropertyOp31
 70
     1
102
RTVSPropertyOp32
 70
     1
102
RTVSPropertyOp33
 70
     1
102
RTVSPropertyOp34
 70
     1
102
RTVSPropertyOp35
 70
     1
102
RTVSPropertyOp36
 70
     1
102
RTVSPropertyOp37
 70
     1
102
RTVSPropertyOp38
 70
     1
102
RTVSPropertyOp39
 70
     1
102
RTVSPropertyOp40
 70
     1
102
RTVSPropertyOp41
 70
     1
102
RTVSPropertyOp42
 70
     1
102
RTVSPropertyOp43
 70
     1
102
RTVSPropertyOp44
 70
     1
102
RTVSPropertyOp45
 70
     1
102
RTVSPropertyOp46
 70
     1
102
RTVSPropertyOp47
 70
     1
102
RTVSPropertyOp48
 70
     1
102
RTVSPropertyOp49
 70
     1
102
RTVSPropertyOp50
 70
     1
102
RTVSPropertyOp51
 70
     0
102
RTVSPropertyOp52
 70
     0
102
RTVSPropertyOp53
 70
     1
102
RTVSPropertyOp54
 70
     1
102
RTVSPropertyOp55
 70
     1
102
RTVSPropertyOp56
 70
     1
102
RTVSPropertyOp57
 70
     1
102
RTVSPropertyOp58
 70
     1
102
RTVSPropertyOp59
 70
     1
102
RTVSPropertyOp60
 70
     1
102
RTVSPropertyOp61
 70
     1
102
RTVSPropertyOp62
 70
     1
  0
XRECORD
  5
D83
102
{ACAD_REACTORS
330
D82
102
}
330
D82
100
AcDbXrecord
280
     1
102
RTVSPost2010Prop28
280
     0
102
RTVSPost2010PropOp28
 70
     1
102
RTVSPost2010Prop29
280
     1
102
RTVSPost2010PropOp29
 70
     1
102
RTVSPost2010Prop30
280
     1
102
RTVSPost2010PropOp30
 70
     1
102
RTVSPost2010Prop31
280
     0
102
RTVSPost2010PropOp31
 70
     1
102
RTVSPost2010Prop32
280
     0
102
RTVSPost2010PropOp32
 70
     1
102
RTVSPost2010Prop33
280
     0
102
RTVSPost2010PropOp33
 70
     1
102
RTVSPost2010Prop34
280
     0
102
RTVSPost2010PropOp34
 70
     1
102
RTVSPost2010Prop35
280
     0
102
RTVSPost2010PropOp35
 70
     1
102
RTVSPost2010Prop36
280
     0
102
RTVSPost2010PropOp36
 70
     1
102
RTVSPost2010Prop37
 90
       50
102
RTVSPost2010PropOp37
 70
     1
102
RTVSPost2010Prop38
140
0.0
102
RTVSPost2010PropOp38
 70
     1
102
RTVSPost2010Prop39
140
1.0
102
RTVSPost2010PropOp39
 70
     1
102
RTVSPost2010Prop40
 90
        0
102
RTVSPost2010PropOp40
 70
     1
102
RTVSPost2010Prop41ColorIndex
 90
       18
102
RTVSPost2010Prop41ColorRGB
 90
-16777216
102
RTVSPost2010PropOp41
 70
     1
102
RTVSPost2010Prop42
 90
       50
102
RTVSPost2010PropOp42
 70
     1
102
RTVSPost2010Prop43
 90
        3
102
RTVSPost2010PropOp43
 70
     1
102
RTVSPost2010Prop44ColorIndex
 90
        5
102
RTVSPost2010Prop44ColorRGB
 90
      255
102
RTVSPost2010PropOp44
 70
     1
102
RTVSPost2010Prop45
280
     0
102
RTVSPost2010PropOp45
 70
     1
102
RTVSPost2010Prop46
 90
       50
102
RTVSPost2010PropOp46
 70
     1
102
RTVSPost2010Prop47
 90
       50
102
RTVSPost2010PropOp47
 70
     1
102
RTVSPost2010Prop48
 90
       50
102
RTVSPost2010PropOp48
 70
     1
102
RTVSPost2010Prop49
280
     0
102
RTVSPost2010PropOp49
 70
     1
102
RTVSPost2010Prop50
 90
       50
102
RTVSPost2010PropOp50
 70
     1
102
RTVSPost2010Prop51ColorIndex
 90
      256
102
RTVSPost2010Prop51ColorRGB
 90
-16777216
102
RTVSPost2010PropOp51
 70
     0
102
RTVSPost2010Prop52
140
1.0
102
RTVSPost2010PropOp52
 70
     0
102
RTVSPost2010Prop53
 90
        2
102
RTVSPost2010PropOp53
 70
     1
102
RTVSPost2010Prop54
  1
strokes_ogs.tif
102
RTVSPost2010PropOp54
 70
     1
102
RTVSPost2010Prop55
280
     0
102
RTVSPost2010PropOp55
 70
     1
102
RTVSPost2010Prop56
140
1.0
102
RTVSPost2010PropOp56
 70
     1
102
RTVSPost2010Prop57
140
1.0
102
RTVSPost2010PropOp57
 70
     1
102
RTVSPropertyOp0
 70
     1
102
RTVSPropertyOp1
 70
     1
102
RTVSPropertyOp2
 70
     1
102
RTVSPropertyOp3
 70
     1
102
RTVSPropertyOp4
 70
     1
102
RTVSPropertyOp5
 70
     1
102
RTVSPropertyOp6
 70
     1
102
RTVSPropertyOp7
 70
     1
102
RTVSPropertyOp8
 70
     1
102
RTVSPropertyOp9
 70
     1
102
RTVSPropertyOp10
 70
     1
102
RTVSPropertyOp11
 70
     1
102
RTVSPropertyOp12
 70
     1
102
RTVSPropertyOp13
 70
     1
102
RTVSPropertyOp14
 70
     1
102
RTVSPropertyOp15
 70
     1
102
RTVSPropertyOp16
 70
     1
102
RTVSPropertyOp17
 70
     1
102
RTVSPropertyOp18
 70
     1
102
RTVSPropertyOp19
 70
     1
102
RTVSPropertyOp20
 70
     1
102
RTVSPropertyOp21
 70
     1
102
RTVSPropertyOp22
 70
     1
102
RTVSPropertyOp23
 70
     1
102
RTVSPropertyOp24
 70
     1
102
RTVSPropertyOp25
 70
     1
102
RTVSPropertyOp26
 70
     1
102
RTVSPropertyOp27
 70
     1
102
RTVSPropertyOp28
 70
     1
102
RTVSPropertyOp29
 70
     1
102
RTVSPropertyOp30
 70
     1
102
RTVSPropertyOp31
 70
     1
102
RTVSPropertyOp32
 70
     1
102
RTVSPropertyOp33
 70
     1
102
RTVSPropertyOp34
 70
     1
102
RTVSPropertyOp35
 70
     1
102
RTVSPropertyOp36
 70
     1
102
RTVSPropertyOp37
 70
     1
102
RTVSPropertyOp38
 70
     1
102
RTVSPropertyOp39
 70
     1
102
RTVSPropertyOp40
 70
     1
102
RTVSPropertyOp41
 70
     1
102
RTVSPropertyOp42
 70
     1
102
RTVSPropertyOp43
 70
     1
102
RTVSPropertyOp44
 70
     1
102
RTVSPropertyOp45
 70
     1
102
RTVSPropertyOp46
 70
     1
102
RTVSPropertyOp47
 70
     1
102
RTVSPropertyOp48
 70
     1
102
RTVSPropertyOp49
 70
     1
102
RTVSPropertyOp50
 70
     1
102
RTVSPropertyOp51
 70
     0
102
RTVSPropertyOp52
 70
     0
102
RTVSPropertyOp53
 70
     1
102
RTVSPropertyOp54
 70
     1
102
RTVSPropertyOp55
 70
     1
102
RTVSPropertyOp56
 70
     1
102
RTVSPropertyOp57
 70
     1
102
RTVSPropertyOp58
 70
     1
102
RTVSPropertyOp59
 70
     1
102
RTVSPropertyOp60
 70
     1
102
RTVSPropertyOp61
 70
     1
102
RTVSPropertyOp62
 70
     1
  0
XRECORD
  5
D9D
102
{ACAD_REACTORS
330
D9C
102
}
330
D9C
100
AcDbXrecord
280
     1
102
RTVSPost2010Prop28
280
     0
102
RTVSPost2010PropOp28
 70
     0
102
RTVSPost2010Prop29
280
     1
102
RTVSPost2010PropOp29
 70
     0
102
RTVSPost2010Prop30
280
     1
102
RTVSPost2010PropOp30
 70
     0
102
RTVSPost2010Prop31
280
     0
102
RTVSPost2010PropOp31
 70
     0
102
RTVSPost2010Prop32
280
     0
102
RTVSPost2010PropOp32
 70
     0
102
RTVSPost2010Prop33
280
     0
102
RTVSPost2010PropOp33
 70
     0
102
RTVSPost2010Prop34
280
     0
102
RTVSPost2010PropOp34
 70
     0
102
RTVSPost2010Prop35
280
     0
102
RTVSPost2010PropOp35
 70
     0
102
RTVSPost2010Prop36
280
     0
102
RTVSPost2010PropOp36
 70
     0
102
RTVSPost2010Prop37
 90
       50
102
RTVSPost2010PropOp37
 70
     0
102
RTVSPost2010Prop38
140
0.0
102
RTVSPost2010PropOp38
 70
     0
102
RTVSPost2010Prop39
140
1.0
102
RTVSPost2010PropOp39
 70
     0
102
RTVSPost2010Prop40
 90
        0
102
RTVSPost2010PropOp40
 70
     0
102
RTVSPost2010Prop41ColorIndex
 90
       18
102
RTVSPost2010Prop41ColorRGB
 90
-16777216
102
RTVSPost2010PropOp41
 70
     0
102
RTVSPost2010Prop42
 90
       50
102
RTVSPost2010PropOp42
 70
     0
102
RTVSPost2010Prop43
 90
        3
102
RTVSPost2010PropOp43
 70
     0
102
RTVSPost2010Prop44ColorIndex
 90
        5
102
RTVSPost2010Prop44ColorRGB
 90
      255
102
RTVSPost2010PropOp44
 70
     0
102
RTVSPost2010Prop45
280
     0
102
RTVSPost2010PropOp45
 70
     0
102
RTVSPost2010Prop46
 90
       50
102
RTVSPost2010PropOp46
 70
     0
102
RTVSPost2010Prop47
 90
       50
102
RTVSPost2010PropOp47
 70
     0
102
RTVSPost2010Prop48
 90
       50
102
RTVSPost2010PropOp48
 70
     0
102
RTVSPost2010Prop49
280
     0
102
RTVSPost2010PropOp49
 70
     0
102
RTVSPost2010Prop50
 90
       50
102
RTVSPost2010PropOp50
 70
     0
102
RTVSPost2010Prop51ColorIndex
 90
      256
102
RTVSPost2010Prop51ColorRGB
 90
-16777216
102
RTVSPost2010PropOp51
 70
     0
102
RTVSPost2010Prop52
140
1.0
102
RTVSPost2010PropOp52
 70
     0
102
RTVSPost2010Prop53
 90
        2
102
RTVSPost2010PropOp53
 70
     0
102
RTVSPost2010Prop54
  1
strokes_ogs.tif
102
RTVSPost2010PropOp54
 70
     0
102
RTVSPost2010Prop55
280
     0
102
RTVSPost2010PropOp55
 70
     0
102
RTVSPost2010Prop56
140
1.0
102
RTVSPost2010PropOp56
 70
     0
102
RTVSPost2010Prop57
140
1.0
102
RTVSPost2010PropOp57
 70
     0
102
RTVSPropertyOp0
 70
     0
102
RTVSPropertyOp1
 70
     0
102
RTVSPropertyOp2
 70
     0
102
RTVSPropertyOp3
 70
     0
102
RTVSPropertyOp4
 70
     0
102
RTVSPropertyOp5
 70
     0
102
RTVSPropertyOp6
 70
     0
102
RTVSPropertyOp7
 70
     0
102
RTVSPropertyOp8
 70
     0
102
RTVSPropertyOp9
 70
     0
102
RTVSPropertyOp10
 70
     0
102
RTVSPropertyOp11
 70
     0
102
RTVSPropertyOp12
 70
     0
102
RTVSPropertyOp13
 70
     0
102
RTVSPropertyOp14
 70
     2
102
RTVSPropertyOp15
 70
     0
102
RTVSPropertyOp16
 70
     0
102
RTVSPropertyOp17
 70
     0
102
RTVSPropertyOp18
 70
     0
102
RTVSPropertyOp19
 70
     0
102
RTVSPropertyOp20
 70
     0
102
RTVSPropertyOp21
 70
     0
102
RTVSPropertyOp22
 70
     0
102
RTVSPropertyOp23
 70
     0
102
RTVSPropertyOp24
 70
     0
102
RTVSPropertyOp25
 70
     0
102
RTVSPropertyOp26
 70
     0
102
RTVSPropertyOp27
 70
     0
102
RTVSPropertyOp28
 70
     0
102
RTVSPropertyOp29
 70
     0
102
RTVSPropertyOp30
 70
     0
102
RTVSPropertyOp31
 70
     0
102
RTVSPropertyOp32
 70
     0
102
RTVSPropertyOp33
 70
     0
102
RTVSPropertyOp34
 70
     0
102
RTVSPropertyOp35
 70
     0
102
RTVSPropertyOp36
 70
     0
102
RTVSPropertyOp37
 70
     0
102
RTVSPropertyOp38
 70
     0
102
RTVSPropertyOp39
 70
     0
102
RTVSPropertyOp40
 70
     0
102
RTVSPropertyOp41
 70
     0
102
RTVSPropertyOp42
 70
     0
102
RTVSPropertyOp43
 70
     0
102
RTVSPropertyOp44
 70
     0
102
RTVSPropertyOp45
 70
     0
102
RTVSPropertyOp46
 70
     0
102
RTVSPropertyOp47
 70
     0
102
RTVSPropertyOp48
 70
     0
102
RTVSPropertyOp49
 70
     0
102
RTVSPropertyOp50
 70
     0
102
RTVSPropertyOp51
 70
     0
102
RTVSPropertyOp52
 70
     0
102
RTVSPropertyOp53
 70
     0
102
RTVSPropertyOp54
 70
     0
102
RTVSPropertyOp55
 70
     0
102
RTVSPropertyOp56
 70
     0
102
RTVSPropertyOp57
 70
     0
102
RTVSPropertyOp58
 70
     1
102
RTVSPropertyOp59
 70
     1
102
RTVSPropertyOp60
 70
     1
102
RTVSPropertyOp61
 70
     1
102
RTVSPropertyOp62
 70
     1
  0
XRECORD
  5
D8B
102
{ACAD_REACTORS
330
D8A
102
}
330
D8A
100
AcDbXrecord
280
     1
102
RTVSPost2010Prop28
280
     0
102
RTVSPost2010PropOp28
 70
     1
102
RTVSPost2010Prop29
280
     1
102
RTVSPost2010PropOp29
 70
     1
102
RTVSPost2010Prop30
280
     1
102
RTVSPost2010PropOp30
 70
     1
102
RTVSPost2010Prop31
280
     0
102
RTVSPost2010PropOp31
 70
     1
102
RTVSPost2010Prop32
280
     0
102
RTVSPost2010PropOp32
 70
     1
102
RTVSPost2010Prop33
280
     0
102
RTVSPost2010PropOp33
 70
     1
102
RTVSPost2010Prop34
280
     0
102
RTVSPost2010PropOp34
 70
     1
102
RTVSPost2010Prop35
280
     0
102
RTVSPost2010PropOp35
 70
     1
102
RTVSPost2010Prop36
280
     0
102
RTVSPost2010PropOp36
 70
     1
102
RTVSPost2010Prop37
 90
       50
102
RTVSPost2010PropOp37
 70
     1
102
RTVSPost2010Prop38
140
0.0
102
RTVSPost2010PropOp38
 70
     1
102
RTVSPost2010Prop39
140
1.0
102
RTVSPost2010PropOp39
 70
     1
102
RTVSPost2010Prop40
 90
        0
102
RTVSPost2010PropOp40
 70
     1
102
RTVSPost2010Prop41ColorIndex
 90
       18
102
RTVSPost2010Prop41ColorRGB
 90
-16777216
102
RTVSPost2010PropOp41
 70
     1
102
RTVSPost2010Prop42
 90
       50
102
RTVSPost2010PropOp42
 70
     1
102
RTVSPost2010Prop43
 90
        3
102
RTVSPost2010PropOp43
 70
     1
102
RTVSPost2010Prop44ColorIndex
 90
        5
102
RTVSPost2010Prop44ColorRGB
 90
      255
102
RTVSPost2010PropOp44
 70
     1
102
RTVSPost2010Prop45
280
     0
102
RTVSPost2010PropOp45
 70
     1
102
RTVSPost2010Prop46
 90
       50
102
RTVSPost2010PropOp46
 70
     1
102
RTVSPost2010Prop47
 90
       50
102
RTVSPost2010PropOp47
 70
     1
102
RTVSPost2010Prop48
 90
       50
102
RTVSPost2010PropOp48
 70
     1
102
RTVSPost2010Prop49
280
     0
102
RTVSPost2010PropOp49
 70
     1
102
RTVSPost2010Prop50
 90
       50
102
RTVSPost2010PropOp50
 70
     1
102
RTVSPost2010Prop51ColorIndex
 90
      256
102
RTVSPost2010Prop51ColorRGB
 90
-16777216
102
RTVSPost2010PropOp51
 70
     0
102
RTVSPost2010Prop52
140
1.0
102
RTVSPost2010PropOp52
 70
     0
102
RTVSPost2010Prop53
 90
        2
102
RTVSPost2010PropOp53
 70
     1
102
RTVSPost2010Prop54
  1
strokes_ogs.tif
102
RTVSPost2010PropOp54
 70
     1
102
RTVSPost2010Prop55
280
     0
102
RTVSPost2010PropOp55
 70
     1
102
RTVSPost2010Prop56
140
1.0
102
RTVSPost2010PropOp56
 70
     1
102
RTVSPost2010Prop57
140
1.0
102
RTVSPost2010PropOp57
 70
     1
102
RTVSPropertyOp0
 70
     1
102
RTVSPropertyOp1
 70
     1
102
RTVSPropertyOp2
 70
     1
102
RTVSPropertyOp3
 70
     1
102
RTVSPropertyOp4
 70
     1
102
RTVSPropertyOp5
 70
     1
102
RTVSPropertyOp6
 70
     1
102
RTVSPropertyOp7
 70
     1
102
RTVSPropertyOp8
 70
     1
102
RTVSPropertyOp9
 70
     1
102
RTVSPropertyOp10
 70
     1
102
RTVSPropertyOp11
 70
     1
102
RTVSPropertyOp12
 70
     1
102
RTVSPropertyOp13
 70
     1
102
RTVSPropertyOp14
 70
     1
102
RTVSPropertyOp15
 70
     1
102
RTVSPropertyOp16
 70
     1
102
RTVSPropertyOp17
 70
     1
102
RTVSPropertyOp18
 70
     1
102
RTVSPropertyOp19
 70
     1
102
RTVSPropertyOp20
 70
     1
102
RTVSPropertyOp21
 70
     1
102
RTVSPropertyOp22
 70
     1
102
RTVSPropertyOp23
 70
     1
102
RTVSPropertyOp24
 70
     1
102
RTVSPropertyOp25
 70
     1
102
RTVSPropertyOp26
 70
     1
102
RTVSPropertyOp27
 70
     1
102
RTVSPropertyOp28
 70
     1
102
RTVSPropertyOp29
 70
     1
102
RTVSPropertyOp30
 70
     1
102
RTVSPropertyOp31
 70
     1
102
RTVSPropertyOp32
 70
     1
102
RTVSPropertyOp33
 70
     1
102
RTVSPropertyOp34
 70
     1
102
RTVSPropertyOp35
 70
     1
102
RTVSPropertyOp36
 70
     1
102
RTVSPropertyOp37
 70
     1
102
RTVSPropertyOp38
 70
     1
102
RTVSPropertyOp39
 70
     1
102
RTVSPropertyOp40
 70
     1
102
RTVSPropertyOp41
 70
     1
102
RTVSPropertyOp42
 70
     1
102
RTVSPropertyOp43
 70
     1
102
RTVSPropertyOp44
 70
     1
102
RTVSPropertyOp45
 70
     1
102
RTVSPropertyOp46
 70
     1
102
RTVSPropertyOp47
 70
     1
102
RTVSPropertyOp48
 70
     1
102
RTVSPropertyOp49
 70
     1
102
RTVSPropertyOp50
 70
     1
102
RTVSPropertyOp51
 70
     0
102
RTVSPropertyOp52
 70
     0
102
RTVSPropertyOp53
 70
     1
102
RTVSPropertyOp54
 70
     1
102
RTVSPropertyOp55
 70
     1
102
RTVSPropertyOp56
 70
     1
102
RTVSPropertyOp57
 70
     1
102
RTVSPropertyOp58
 70
     1
102
RTVSPropertyOp59
 70
     1
102
RTVSPropertyOp60
 70
     1
102
RTVSPropertyOp61
 70
     1
102
RTVSPropertyOp62
 70
     1
  0
XRECORD
  5
D6F
102
{ACAD_REACTORS
330
D6E
102
}
330
D6E
100
AcDbXrecord
280
     1
102
RTVSPost2010Prop28
280
     0
102
RTVSPost2010PropOp28
 70
     1
102
RTVSPost2010Prop29
280
     1
102
RTVSPost2010PropOp29
 70
     1
102
RTVSPost2010Prop30
280
     1
102
RTVSPost2010PropOp30
 70
     1
102
RTVSPost2010Prop31
280
     0
102
RTVSPost2010PropOp31
 70
     1
102
RTVSPost2010Prop32
280
     0
102
RTVSPost2010PropOp32
 70
     1
102
RTVSPost2010Prop33
280
     0
102
RTVSPost2010PropOp33
 70
     1
102
RTVSPost2010Prop34
280
     0
102
RTVSPost2010PropOp34
 70
     1
102
RTVSPost2010Prop35
280
     0
102
RTVSPost2010PropOp35
 70
     1
102
RTVSPost2010Prop36
280
     0
102
RTVSPost2010PropOp36
 70
     1
102
RTVSPost2010Prop37
 90
       50
102
RTVSPost2010PropOp37
 70
     1
102
RTVSPost2010Prop38
140
0.0
102
RTVSPost2010PropOp38
 70
     1
102
RTVSPost2010Prop39
140
1.0
102
RTVSPost2010PropOp39
 70
     1
102
RTVSPost2010Prop40
 90
        0
102
RTVSPost2010PropOp40
 70
     1
102
RTVSPost2010Prop41ColorIndex
 90
       18
102
RTVSPost2010Prop41ColorRGB
 90
-16777216
102
RTVSPost2010PropOp41
 70
     1
102
RTVSPost2010Prop42
 90
       50
102
RTVSPost2010PropOp42
 70
     1
102
RTVSPost2010Prop43
 90
        3
102
RTVSPost2010PropOp43
 70
     1
102
RTVSPost2010Prop44ColorIndex
 90
        5
102
RTVSPost2010Prop44ColorRGB
 90
      255
102
RTVSPost2010PropOp44
 70
     1
102
RTVSPost2010Prop45
280
     0
102
RTVSPost2010PropOp45
 70
     1
102
RTVSPost2010Prop46
 90
       50
102
RTVSPost2010PropOp46
 70
     1
102
RTVSPost2010Prop47
 90
       50
102
RTVSPost2010PropOp47
 70
     1
102
RTVSPost2010Prop48
 90
       50
102
RTVSPost2010PropOp48
 70
     1
102
RTVSPost2010Prop49
280
     0
102
RTVSPost2010PropOp49
 70
     1
102
RTVSPost2010Prop50
 90
       50
102
RTVSPost2010PropOp50
 70
     1
102
RTVSPost2010Prop51ColorIndex
 90
      256
102
RTVSPost2010Prop51ColorRGB
 90
-16777216
102
RTVSPost2010PropOp51
 70
     0
102
RTVSPost2010Prop52
140
1.0
102
RTVSPost2010PropOp52
 70
     0
102
RTVSPost2010Prop53
 90
        2
102
RTVSPost2010PropOp53
 70
     1
102
RTVSPost2010Prop54
  1
strokes_ogs.tif
102
RTVSPost2010PropOp54
 70
     1
102
RTVSPost2010Prop55
280
     0
102
RTVSPost2010PropOp55
 70
     1
102
RTVSPost2010Prop56
140
1.0
102
RTVSPost2010PropOp56
 70
     1
102
RTVSPost2010Prop57
140
1.0
102
RTVSPost2010PropOp57
 70
     1
102
RTVSPropertyOp0
 70
     1
102
RTVSPropertyOp1
 70
     1
102
RTVSPropertyOp2
 70
     1
102
RTVSPropertyOp3
 70
     1
102
RTVSPropertyOp4
 70
     1
102
RTVSPropertyOp5
 70
     1
102
RTVSPropertyOp6
 70
     1
102
RTVSPropertyOp7
 70
     1
102
RTVSPropertyOp8
 70
     1
102
RTVSPropertyOp9
 70
     1
102
RTVSPropertyOp10
 70
     1
102
RTVSPropertyOp11
 70
     1
102
RTVSPropertyOp12
 70
     1
102
RTVSPropertyOp13
 70
     1
102
RTVSPropertyOp14
 70
     1
102
RTVSPropertyOp15
 70
     1
102
RTVSPropertyOp16
 70
     1
102
RTVSPropertyOp17
 70
     1
102
RTVSPropertyOp18
 70
     1
102
RTVSPropertyOp19
 70
     1
102
RTVSPropertyOp20
 70
     1
102
RTVSPropertyOp21
 70
     1
102
RTVSPropertyOp22
 70
     1
102
RTVSPropertyOp23
 70
     1
102
RTVSPropertyOp24
 70
     1
102
RTVSPropertyOp25
 70
     1
102
RTVSPropertyOp26
 70
     1
102
RTVSPropertyOp27
 70
     1
102
RTVSPropertyOp28
 70
     1
102
RTVSPropertyOp29
 70
     1
102
RTVSPropertyOp30
 70
     1
102
RTVSPropertyOp31
 70
     1
102
RTVSPropertyOp32
 70
     1
102
RTVSPropertyOp33
 70
     1
102
RTVSPropertyOp34
 70
     1
102
RTVSPropertyOp35
 70
     1
102
RTVSPropertyOp36
 70
     1
102
RTVSPropertyOp37
 70
     1
102
RTVSPropertyOp38
 70
     1
102
RTVSPropertyOp39
 70
     1
102
RTVSPropertyOp40
 70
     1
102
RTVSPropertyOp41
 70
     1
102
RTVSPropertyOp42
 70
     1
102
RTVSPropertyOp43
 70
     1
102
RTVSPropertyOp44
 70
     1
102
RTVSPropertyOp45
 70
     1
102
RTVSPropertyOp46
 70
     1
102
RTVSPropertyOp47
 70
     1
102
RTVSPropertyOp48
 70
     1
102
RTVSPropertyOp49
 70
     1
102
RTVSPropertyOp50
 70
     1
102
RTVSPropertyOp51
 70
     0
102
RTVSPropertyOp52
 70
     0
102
RTVSPropertyOp53
 70
     1
102
RTVSPropertyOp54
 70
     1
102
RTVSPropertyOp55
 70
     1
102
RTVSPropertyOp56
 70
     1
102
RTVSPropertyOp57
 70
     1
102
RTVSPropertyOp58
 70
     1
102
RTVSPropertyOp59
 70
     1
102
RTVSPropertyOp60
 70
     1
102
RTVSPropertyOp61
 70
     1
102
RTVSPropertyOp62
 70
     1
  0
XRECORD
  5
D71
102
{ACAD_REACTORS
330
D70
102
}
330
D70
100
AcDbXrecord
280
     1
102
RTVSPost2010Prop28
280
     0
102
RTVSPost2010PropOp28
 70
     1
102
RTVSPost2010Prop29
280
     1
102
RTVSPost2010PropOp29
 70
     1
102
RTVSPost2010Prop30
280
     1
102
RTVSPost2010PropOp30
 70
     1
102
RTVSPost2010Prop31
280
     0
102
RTVSPost2010PropOp31
 70
     1
102
RTVSPost2010Prop32
280
     0
102
RTVSPost2010PropOp32
 70
     1
102
RTVSPost2010Prop33
280
     0
102
RTVSPost2010PropOp33
 70
     1
102
RTVSPost2010Prop34
280
     0
102
RTVSPost2010PropOp34
 70
     1
102
RTVSPost2010Prop35
280
     0
102
RTVSPost2010PropOp35
 70
     1
102
RTVSPost2010Prop36
280
     0
102
RTVSPost2010PropOp36
 70
     1
102
RTVSPost2010Prop37
 90
       50
102
RTVSPost2010PropOp37
 70
     1
102
RTVSPost2010Prop38
140
0.0
102
RTVSPost2010PropOp38
 70
     1
102
RTVSPost2010Prop39
140
1.0
102
RTVSPost2010PropOp39
 70
     1
102
RTVSPost2010Prop40
 90
        0
102
RTVSPost2010PropOp40
 70
     1
102
RTVSPost2010Prop41ColorIndex
 90
       18
102
RTVSPost2010Prop41ColorRGB
 90
-16777216
102
RTVSPost2010PropOp41
 70
     1
102
RTVSPost2010Prop42
 90
       50
102
RTVSPost2010PropOp42
 70
     1
102
RTVSPost2010Prop43
 90
        3
102
RTVSPost2010PropOp43
 70
     1
102
RTVSPost2010Prop44ColorIndex
 90
        5
102
RTVSPost2010Prop44ColorRGB
 90
      255
102
RTVSPost2010PropOp44
 70
     1
102
RTVSPost2010Prop45
280
     0
102
RTVSPost2010PropOp45
 70
     1
102
RTVSPost2010Prop46
 90
       50
102
RTVSPost2010PropOp46
 70
     1
102
RTVSPost2010Prop47
 90
       50
102
RTVSPost2010PropOp47
 70
     1
102
RTVSPost2010Prop48
 90
       50
102
RTVSPost2010PropOp48
 70
     1
102
RTVSPost2010Prop49
280
     0
102
RTVSPost2010PropOp49
 70
     1
102
RTVSPost2010Prop50
 90
       50
102
RTVSPost2010PropOp50
 70
     1
102
RTVSPost2010Prop51ColorIndex
 90
      256
102
RTVSPost2010Prop51ColorRGB
 90
-16777216
102
RTVSPost2010PropOp51
 70
     0
102
RTVSPost2010Prop52
140
1.0
102
RTVSPost2010PropOp52
 70
     0
102
RTVSPost2010Prop53
 90
        2
102
RTVSPost2010PropOp53
 70
     1
102
RTVSPost2010Prop54
  1
strokes_ogs.tif
102
RTVSPost2010PropOp54
 70
     1
102
RTVSPost2010Prop55
280
     0
102
RTVSPost2010PropOp55
 70
     1
102
RTVSPost2010Prop56
140
1.0
102
RTVSPost2010PropOp56
 70
     1
102
RTVSPost2010Prop57
140
1.0
102
RTVSPost2010PropOp57
 70
     1
102
RTVSPropertyOp0
 70
     1
102
RTVSPropertyOp1
 70
     1
102
RTVSPropertyOp2
 70
     1
102
RTVSPropertyOp3
 70
     1
102
RTVSPropertyOp4
 70
     1
102
RTVSPropertyOp5
 70
     1
102
RTVSPropertyOp6
 70
     1
102
RTVSPropertyOp7
 70
     1
102
RTVSPropertyOp8
 70
     1
102
RTVSPropertyOp9
 70
     1
102
RTVSPropertyOp10
 70
     1
102
RTVSPropertyOp11
 70
     1
102
RTVSPropertyOp12
 70
     1
102
RTVSPropertyOp13
 70
     1
102
RTVSPropertyOp14
 70
     1
102
RTVSPropertyOp15
 70
     1
102
RTVSPropertyOp16
 70
     1
102
RTVSPropertyOp17
 70
     1
102
RTVSPropertyOp18
 70
     1
102
RTVSPropertyOp19
 70
     1
102
RTVSPropertyOp20
 70
     1
102
RTVSPropertyOp21
 70
     1
102
RTVSPropertyOp22
 70
     1
102
RTVSPropertyOp23
 70
     1
102
RTVSPropertyOp24
 70
     1
102
RTVSPropertyOp25
 70
     1
102
RTVSPropertyOp26
 70
     1
102
RTVSPropertyOp27
 70
     1
102
RTVSPropertyOp28
 70
     1
102
RTVSPropertyOp29
 70
     1
102
RTVSPropertyOp30
 70
     1
102
RTVSPropertyOp31
 70
     1
102
RTVSPropertyOp32
 70
     1
102
RTVSPropertyOp33
 70
     1
102
RTVSPropertyOp34
 70
     1
102
RTVSPropertyOp35
 70
     1
102
RTVSPropertyOp36
 70
     1
102
RTVSPropertyOp37
 70
     1
102
RTVSPropertyOp38
 70
     1
102
RTVSPropertyOp39
 70
     1
102
RTVSPropertyOp40
 70
     1
102
RTVSPropertyOp41
 70
     1
102
RTVSPropertyOp42
 70
     1
102
RTVSPropertyOp43
 70
     1
102
RTVSPropertyOp44
 70
     1
102
RTVSPropertyOp45
 70
     1
102
RTVSPropertyOp46
 70
     1
102
RTVSPropertyOp47
 70
     1
102
RTVSPropertyOp48
 70
     1
102
RTVSPropertyOp49
 70
     1
102
RTVSPropertyOp50
 70
     1
102
RTVSPropertyOp51
 70
     0
102
RTVSPropertyOp52
 70
     0
102
RTVSPropertyOp53
 70
     1
102
RTVSPropertyOp54
 70
     1
102
RTVSPropertyOp55
 70
     1
102
RTVSPropertyOp56
 70
     1
102
RTVSPropertyOp57
 70
     1
102
RTVSPropertyOp58
 70
     1
102
RTVSPropertyOp59
 70
     1
102
RTVSPropertyOp60
 70
     1
102
RTVSPropertyOp61
 70
     1
102
RTVSPropertyOp62
 70
     1
  0
XRECORD
  5
D73
102
{ACAD_REACTORS
330
D72
102
}
330
D72
100
AcDbXrecord
280
     1
102
RTVSPost2010Prop28
280
     0
102
RTVSPost2010PropOp28
 70
     1
102
RTVSPost2010Prop29
280
     1
102
RTVSPost2010PropOp29
 70
     1
102
RTVSPost2010Prop30
280
     1
102
RTVSPost2010PropOp30
 70
     1
102
RTVSPost2010Prop31
280
     0
102
RTVSPost2010PropOp31
 70
     1
102
RTVSPost2010Prop32
280
     0
102
RTVSPost2010PropOp32
 70
     1
102
RTVSPost2010Prop33
280
     0
102
RTVSPost2010PropOp33
 70
     1
102
RTVSPost2010Prop34
280
     0
102
RTVSPost2010PropOp34
 70
     1
102
RTVSPost2010Prop35
280
     0
102
RTVSPost2010PropOp35
 70
     1
102
RTVSPost2010Prop36
280
     0
102
RTVSPost2010PropOp36
 70
     1
102
RTVSPost2010Prop37
 90
       50
102
RTVSPost2010PropOp37
 70
     1
102
RTVSPost2010Prop38
140
0.0
102
RTVSPost2010PropOp38
 70
     1
102
RTVSPost2010Prop39
140
1.0
102
RTVSPost2010PropOp39
 70
     1
102
RTVSPost2010Prop40
 90
        0
102
RTVSPost2010PropOp40
 70
     1
102
RTVSPost2010Prop41ColorIndex
 90
       18
102
RTVSPost2010Prop41ColorRGB
 90
-16777216
102
RTVSPost2010PropOp41
 70
     1
102
RTVSPost2010Prop42
 90
       50
102
RTVSPost2010PropOp42
 70
     1
102
RTVSPost2010Prop43
 90
        3
102
RTVSPost2010PropOp43
 70
     1
102
RTVSPost2010Prop44ColorIndex
 90
        5
102
RTVSPost2010Prop44ColorRGB
 90
      255
102
RTVSPost2010PropOp44
 70
     1
102
RTVSPost2010Prop45
280
     0
102
RTVSPost2010PropOp45
 70
     1
102
RTVSPost2010Prop46
 90
       50
102
RTVSPost2010PropOp46
 70
     1
102
RTVSPost2010Prop47
 90
       50
102
RTVSPost2010PropOp47
 70
     1
102
RTVSPost2010Prop48
 90
       50
102
RTVSPost2010PropOp48
 70
     1
102
RTVSPost2010Prop49
280
     0
102
RTVSPost2010PropOp49
 70
     1
102
RTVSPost2010Prop50
 90
       50
102
RTVSPost2010PropOp50
 70
     1
102
RTVSPost2010Prop51ColorIndex
 90
      256
102
RTVSPost2010Prop51ColorRGB
 90
-16777216
102
RTVSPost2010PropOp51
 70
     0
102
RTVSPost2010Prop52
140
1.0
102
RTVSPost2010PropOp52
 70
     0
102
RTVSPost2010Prop53
 90
        2
102
RTVSPost2010PropOp53
 70
     1
102
RTVSPost2010Prop54
  1
strokes_ogs.tif
102
RTVSPost2010PropOp54
 70
     1
102
RTVSPost2010Prop55
280
     0
102
RTVSPost2010PropOp55
 70
     1
102
RTVSPost2010Prop56
140
1.0
102
RTVSPost2010PropOp56
 70
     1
102
RTVSPost2010Prop57
140
1.0
102
RTVSPost2010PropOp57
 70
     1
102
RTVSPropertyOp0
 70
     1
102
RTVSPropertyOp1
 70
     1
102
RTVSPropertyOp2
 70
     1
102
RTVSPropertyOp3
 70
     1
102
RTVSPropertyOp4
 70
     1
102
RTVSPropertyOp5
 70
     1
102
RTVSPropertyOp6
 70
     1
102
RTVSPropertyOp7
 70
     1
102
RTVSPropertyOp8
 70
     1
102
RTVSPropertyOp9
 70
     1
102
RTVSPropertyOp10
 70
     1
102
RTVSPropertyOp11
 70
     1
102
RTVSPropertyOp12
 70
     1
102
RTVSPropertyOp13
 70
     1
102
RTVSPropertyOp14
 70
     1
102
RTVSPropertyOp15
 70
     1
102
RTVSPropertyOp16
 70
     1
102
RTVSPropertyOp17
 70
     1
102
RTVSPropertyOp18
 70
     1
102
RTVSPropertyOp19
 70
     1
102
RTVSPropertyOp20
 70
     1
102
RTVSPropertyOp21
 70
     1
102
RTVSPropertyOp22
 70
     1
102
RTVSPropertyOp23
 70
     1
102
RTVSPropertyOp24
 70
     1
102
RTVSPropertyOp25
 70
     1
102
RTVSPropertyOp26
 70
     1
102
RTVSPropertyOp27
 70
     1
102
RTVSPropertyOp28
 70
     1
102
RTVSPropertyOp29
 70
     1
102
RTVSPropertyOp30
 70
     1
102
RTVSPropertyOp31
 70
     1
102
RTVSPropertyOp32
 70
     1
102
RTVSPropertyOp33
 70
     1
102
RTVSPropertyOp34
 70
     1
102
RTVSPropertyOp35
 70
     1
102
RTVSPropertyOp36
 70
     1
102
RTVSPropertyOp37
 70
     1
102
RTVSPropertyOp38
 70
     1
102
RTVSPropertyOp39
 70
     1
102
RTVSPropertyOp40
 70
     1
102
RTVSPropertyOp41
 70
     1
102
RTVSPropertyOp42
 70
     1
102
RTVSPropertyOp43
 70
     1
102
RTVSPropertyOp44
 70
     1
102
RTVSPropertyOp45
 70
     1
102
RTVSPropertyOp46
 70
     1
102
RTVSPropertyOp47
 70
     1
102
RTVSPropertyOp48
 70
     1
102
RTVSPropertyOp49
 70
     1
102
RTVSPropertyOp50
 70
     1
102
RTVSPropertyOp51
 70
     0
102
RTVSPropertyOp52
 70
     0
102
RTVSPropertyOp53
 70
     1
102
RTVSPropertyOp54
 70
     1
102
RTVSPropertyOp55
 70
     1
102
RTVSPropertyOp56
 70
     1
102
RTVSPropertyOp57
 70
     1
102
RTVSPropertyOp58
 70
     1
102
RTVSPropertyOp59
 70
     1
102
RTVSPropertyOp60
 70
     1
102
RTVSPropertyOp61
 70
     1
102
RTVSPropertyOp62
 70
     1
  0
XRECORD
  5
D75
102
{ACAD_REACTORS
330
D74
102
}
330
D74
100
AcDbXrecord
280
     1
102
RTVSPost2010Prop28
280
     0
102
RTVSPost2010PropOp28
 70
     1
102
RTVSPost2010Prop29
280
     1
102
RTVSPost2010PropOp29
 70
     1
102
RTVSPost2010Prop30
280
     1
102
RTVSPost2010PropOp30
 70
     1
102
RTVSPost2010Prop31
280
     0
102
RTVSPost2010PropOp31
 70
     1
102
RTVSPost2010Prop32
280
     0
102
RTVSPost2010PropOp32
 70
     1
102
RTVSPost2010Prop33
280
     0
102
RTVSPost2010PropOp33
 70
     1
102
RTVSPost2010Prop34
280
     0
102
RTVSPost2010PropOp34
 70
     1
102
RTVSPost2010Prop35
280
     0
102
RTVSPost2010PropOp35
 70
     1
102
RTVSPost2010Prop36
280
     0
102
RTVSPost2010PropOp36
 70
     1
102
RTVSPost2010Prop37
 90
       50
102
RTVSPost2010PropOp37
 70
     1
102
RTVSPost2010Prop38
140
0.0
102
RTVSPost2010PropOp38
 70
     1
102
RTVSPost2010Prop39
140
1.0
102
RTVSPost2010PropOp39
 70
     1
102
RTVSPost2010Prop40
 90
        0
102
RTVSPost2010PropOp40
 70
     1
102
RTVSPost2010Prop41ColorIndex
 90
       18
102
RTVSPost2010Prop41ColorRGB
 90
-16777216
102
RTVSPost2010PropOp41
 70
     1
102
RTVSPost2010Prop42
 90
       50
102
RTVSPost2010PropOp42
 70
     1
102
RTVSPost2010Prop43
 90
        3
102
RTVSPost2010PropOp43
 70
     1
102
RTVSPost2010Prop44ColorIndex
 90
        5
102
RTVSPost2010Prop44ColorRGB
 90
      255
102
RTVSPost2010PropOp44
 70
     1
102
RTVSPost2010Prop45
280
     0
102
RTVSPost2010PropOp45
 70
     1
102
RTVSPost2010Prop46
 90
       50
102
RTVSPost2010PropOp46
 70
     1
102
RTVSPost2010Prop47
 90
       50
102
RTVSPost2010PropOp47
 70
     1
102
RTVSPost2010Prop48
 90
       50
102
RTVSPost2010PropOp48
 70
     1
102
RTVSPost2010Prop49
280
     0
102
RTVSPost2010PropOp49
 70
     1
102
RTVSPost2010Prop50
 90
       50
102
RTVSPost2010PropOp50
 70
     1
102
RTVSPost2010Prop51ColorIndex
 90
      256
102
RTVSPost2010Prop51ColorRGB
 90
-16777216
102
RTVSPost2010PropOp51
 70
     0
102
RTVSPost2010Prop52
140
1.0
102
RTVSPost2010PropOp52
 70
     0
102
RTVSPost2010Prop53
 90
        2
102
RTVSPost2010PropOp53
 70
     1
102
RTVSPost2010Prop54
  1
strokes_ogs.tif
102
RTVSPost2010PropOp54
 70
     1
102
RTVSPost2010Prop55
280
     0
102
RTVSPost2010PropOp55
 70
     1
102
RTVSPost2010Prop56
140
1.0
102
RTVSPost2010PropOp56
 70
     1
102
RTVSPost2010Prop57
140
1.0
102
RTVSPost2010PropOp57
 70
     1
102
RTVSPropertyOp0
 70
     1
102
RTVSPropertyOp1
 70
     1
102
RTVSPropertyOp2
 70
     1
102
RTVSPropertyOp3
 70
     1
102
RTVSPropertyOp4
 70
     1
102
RTVSPropertyOp5
 70
     1
102
RTVSPropertyOp6
 70
     1
102
RTVSPropertyOp7
 70
     1
102
RTVSPropertyOp8
 70
     1
102
RTVSPropertyOp9
 70
     1
102
RTVSPropertyOp10
 70
     1
102
RTVSPropertyOp11
 70
     1
102
RTVSPropertyOp12
 70
     1
102
RTVSPropertyOp13
 70
     1
102
RTVSPropertyOp14
 70
     1
102
RTVSPropertyOp15
 70
     1
102
RTVSPropertyOp16
 70
     1
102
RTVSPropertyOp17
 70
     1
102
RTVSPropertyOp18
 70
     1
102
RTVSPropertyOp19
 70
     1
102
RTVSPropertyOp20
 70
     1
102
RTVSPropertyOp21
 70
     1
102
RTVSPropertyOp22
 70
     1
102
RTVSPropertyOp23
 70
     1
102
RTVSPropertyOp24
 70
     1
102
RTVSPropertyOp25
 70
     1
102
RTVSPropertyOp26
 70
     1
102
RTVSPropertyOp27
 70
     1
102
RTVSPropertyOp28
 70
     1
102
RTVSPropertyOp29
 70
     1
102
RTVSPropertyOp30
 70
     1
102
RTVSPropertyOp31
 70
     1
102
RTVSPropertyOp32
 70
     1
102
RTVSPropertyOp33
 70
     1
102
RTVSPropertyOp34
 70
     1
102
RTVSPropertyOp35
 70
     1
102
RTVSPropertyOp36
 70
     1
102
RTVSPropertyOp37
 70
     1
102
RTVSPropertyOp38
 70
     1
102
RTVSPropertyOp39
 70
     1
102
RTVSPropertyOp40
 70
     1
102
RTVSPropertyOp41
 70
     1
102
RTVSPropertyOp42
 70
     1
102
RTVSPropertyOp43
 70
     1
102
RTVSPropertyOp44
 70
     1
102
RTVSPropertyOp45
 70
     1
102
RTVSPropertyOp46
 70
     1
102
RTVSPropertyOp47
 70
     1
102
RTVSPropertyOp48
 70
     1
102
RTVSPropertyOp49
 70
     1
102
RTVSPropertyOp50
 70
     1
102
RTVSPropertyOp51
 70
     0
102
RTVSPropertyOp52
 70
     0
102
RTVSPropertyOp53
 70
     1
102
RTVSPropertyOp54
 70
     1
102
RTVSPropertyOp55
 70
     1
102
RTVSPropertyOp56
 70
     1
102
RTVSPropertyOp57
 70
     1
102
RTVSPropertyOp58
 70
     1
102
RTVSPropertyOp59
 70
     1
102
RTVSPropertyOp60
 70
     1
102
RTVSPropertyOp61
 70
     1
102
RTVSPropertyOp62
 70
     1
  0
XRECORD
  5
D7D
102
{ACAD_REACTORS
330
D7C
102
}
330
D7C
100
AcDbXrecord
280
     1
102
RTVSPost2010Prop28
280
     0
102
RTVSPost2010PropOp28
 70
     1
102
RTVSPost2010Prop29
280
     1
102
RTVSPost2010PropOp29
 70
     1
102
RTVSPost2010Prop30
280
     1
102
RTVSPost2010PropOp30
 70
     1
102
RTVSPost2010Prop31
280
     0
102
RTVSPost2010PropOp31
 70
     1
102
RTVSPost2010Prop32
280
     0
102
RTVSPost2010PropOp32
 70
     1
102
RTVSPost2010Prop33
280
     0
102
RTVSPost2010PropOp33
 70
     1
102
RTVSPost2010Prop34
280
     0
102
RTVSPost2010PropOp34
 70
     1
102
RTVSPost2010Prop35
280
     0
102
RTVSPost2010PropOp35
 70
     1
102
RTVSPost2010Prop36
280
     0
102
RTVSPost2010PropOp36
 70
     1
102
RTVSPost2010Prop37
 90
       50
102
RTVSPost2010PropOp37
 70
     1
102
RTVSPost2010Prop38
140
0.0
102
RTVSPost2010PropOp38
 70
     1
102
RTVSPost2010Prop39
140
1.0
102
RTVSPost2010PropOp39
 70
     1
102
RTVSPost2010Prop40
 90
        0
102
RTVSPost2010PropOp40
 70
     1
102
RTVSPost2010Prop41ColorIndex
 90
       18
102
RTVSPost2010Prop41ColorRGB
 90
-16777216
102
RTVSPost2010PropOp41
 70
     1
102
RTVSPost2010Prop42
 90
       50
102
RTVSPost2010PropOp42
 70
     1
102
RTVSPost2010Prop43
 90
        3
102
RTVSPost2010PropOp43
 70
     1
102
RTVSPost2010Prop44ColorIndex
 90
        5
102
RTVSPost2010Prop44ColorRGB
 90
      255
102
RTVSPost2010PropOp44
 70
     1
102
RTVSPost2010Prop45
280
     0
102
RTVSPost2010PropOp45
 70
     1
102
RTVSPost2010Prop46
 90
       50
102
RTVSPost2010PropOp46
 70
     1
102
RTVSPost2010Prop47
 90
       50
102
RTVSPost2010PropOp47
 70
     1
102
RTVSPost2010Prop48
 90
       50
102
RTVSPost2010PropOp48
 70
     1
102
RTVSPost2010Prop49
280
     0
102
RTVSPost2010PropOp49
 70
     1
102
RTVSPost2010Prop50
 90
       50
102
RTVSPost2010PropOp50
 70
     1
102
RTVSPost2010Prop51ColorIndex
 90
      256
102
RTVSPost2010Prop51ColorRGB
 90
-16777216
102
RTVSPost2010PropOp51
 70
     0
102
RTVSPost2010Prop52
140
1.0
102
RTVSPost2010PropOp52
 70
     0
102
RTVSPost2010Prop53
 90
        2
102
RTVSPost2010PropOp53
 70
     1
102
RTVSPost2010Prop54
  1
strokes_ogs.tif
102
RTVSPost2010PropOp54
 70
     1
102
RTVSPost2010Prop55
280
     0
102
RTVSPost2010PropOp55
 70
     1
102
RTVSPost2010Prop56
140
1.0
102
RTVSPost2010PropOp56
 70
     1
102
RTVSPost2010Prop57
140
1.0
102
RTVSPost2010PropOp57
 70
     1
102
RTVSPropertyOp0
 70
     1
102
RTVSPropertyOp1
 70
     1
102
RTVSPropertyOp2
 70
     1
102
RTVSPropertyOp3
 70
     1
102
RTVSPropertyOp4
 70
     1
102
RTVSPropertyOp5
 70
     1
102
RTVSPropertyOp6
 70
     1
102
RTVSPropertyOp7
 70
     1
102
RTVSPropertyOp8
 70
     1
102
RTVSPropertyOp9
 70
     1
102
RTVSPropertyOp10
 70
     1
102
RTVSPropertyOp11
 70
     1
102
RTVSPropertyOp12
 70
     1
102
RTVSPropertyOp13
 70
     1
102
RTVSPropertyOp14
 70
     1
102
RTVSPropertyOp15
 70
     1
102
RTVSPropertyOp16
 70
     1
102
RTVSPropertyOp17
 70
     1
102
RTVSPropertyOp18
 70
     1
102
RTVSPropertyOp19
 70
     1
102
RTVSPropertyOp20
 70
     1
102
RTVSPropertyOp21
 70
     1
102
RTVSPropertyOp22
 70
     1
102
RTVSPropertyOp23
 70
     1
102
RTVSPropertyOp24
 70
     1
102
RTVSPropertyOp25
 70
     1
102
RTVSPropertyOp26
 70
     1
102
RTVSPropertyOp27
 70
     1
102
RTVSPropertyOp28
 70
     1
102
RTVSPropertyOp29
 70
     1
102
RTVSPropertyOp30
 70
     1
102
RTVSPropertyOp31
 70
     1
102
RTVSPropertyOp32
 70
     1
102
RTVSPropertyOp33
 70
     1
102
RTVSPropertyOp34
 70
     1
102
RTVSPropertyOp35
 70
     1
102
RTVSPropertyOp36
 70
     1
102
RTVSPropertyOp37
 70
     1
102
RTVSPropertyOp38
 70
     1
102
RTVSPropertyOp39
 70
     1
102
RTVSPropertyOp40
 70
     1
102
RTVSPropertyOp41
 70
     1
102
RTVSPropertyOp42
 70
     1
102
RTVSPropertyOp43
 70
     1
102
RTVSPropertyOp44
 70
     1
102
RTVSPropertyOp45
 70
     1
102
RTVSPropertyOp46
 70
     1
102
RTVSPropertyOp47
 70
     1
102
RTVSPropertyOp48
 70
     1
102
RTVSPropertyOp49
 70
     1
102
RTVSPropertyOp50
 70
     1
102
RTVSPropertyOp51
 70
     0
102
RTVSPropertyOp52
 70
     0
102
RTVSPropertyOp53
 70
     1
102
RTVSPropertyOp54
 70
     1
102
RTVSPropertyOp55
 70
     1
102
RTVSPropertyOp56
 70
     1
102
RTVSPropertyOp57
 70
     1
102
RTVSPropertyOp58
 70
     1
102
RTVSPropertyOp59
 70
     1
102
RTVSPropertyOp60
 70
     1
102
RTVSPropertyOp61
 70
     1
102
RTVSPropertyOp62
 70
     1
  0
XRECORD
  5
D99
102
{ACAD_REACTORS
330
D98
102
}
330
D98
100
AcDbXrecord
280
     1
102
RTVSPost2010Prop28
280
     0
102
RTVSPost2010PropOp28
 70
     0
102
RTVSPost2010Prop29
280
     1
102
RTVSPost2010PropOp29
 70
     0
102
RTVSPost2010Prop30
280
     1
102
RTVSPost2010PropOp30
 70
     0
102
RTVSPost2010Prop31
280
     0
102
RTVSPost2010PropOp31
 70
     0
102
RTVSPost2010Prop32
280
     0
102
RTVSPost2010PropOp32
 70
     0
102
RTVSPost2010Prop33
280
     0
102
RTVSPost2010PropOp33
 70
     0
102
RTVSPost2010Prop34
280
     0
102
RTVSPost2010PropOp34
 70
     0
102
RTVSPost2010Prop35
280
     0
102
RTVSPost2010PropOp35
 70
     0
102
RTVSPost2010Prop36
280
     0
102
RTVSPost2010PropOp36
 70
     0
102
RTVSPost2010Prop37
 90
       50
102
RTVSPost2010PropOp37
 70
     0
102
RTVSPost2010Prop38
140
0.0
102
RTVSPost2010PropOp38
 70
     0
102
RTVSPost2010Prop39
140
1.0
102
RTVSPost2010PropOp39
 70
     0
102
RTVSPost2010Prop40
 90
        0
102
RTVSPost2010PropOp40
 70
     0
102
RTVSPost2010Prop41ColorIndex
 90
       18
102
RTVSPost2010Prop41ColorRGB
 90
-16777216
102
RTVSPost2010PropOp41
 70
     0
102
RTVSPost2010Prop42
 90
       50
102
RTVSPost2010PropOp42
 70
     0
102
RTVSPost2010Prop43
 90
        3
102
RTVSPost2010PropOp43
 70
     0
102
RTVSPost2010Prop44ColorIndex
 90
        5
102
RTVSPost2010Prop44ColorRGB
 90
      255
102
RTVSPost2010PropOp44
 70
     0
102
RTVSPost2010Prop45
280
     0
102
RTVSPost2010PropOp45
 70
     0
102
RTVSPost2010Prop46
 90
       50
102
RTVSPost2010PropOp46
 70
     0
102
RTVSPost2010Prop47
 90
       50
102
RTVSPost2010PropOp47
 70
     0
102
RTVSPost2010Prop48
 90
       50
102
RTVSPost2010PropOp48
 70
     0
102
RTVSPost2010Prop49
280
     0
102
RTVSPost2010PropOp49
 70
     0
102
RTVSPost2010Prop50
 90
       50
102
RTVSPost2010PropOp50
 70
     0
102
RTVSPost2010Prop51ColorIndex
 90
      256
102
RTVSPost2010Prop51ColorRGB
 90
-16777216
102
RTVSPost2010PropOp51
 70
     0
102
RTVSPost2010Prop52
140
1.0
102
RTVSPost2010PropOp52
 70
     0
102
RTVSPost2010Prop53
 90
        2
102
RTVSPost2010PropOp53
 70
     0
102
RTVSPost2010Prop54
  1
strokes_ogs.tif
102
RTVSPost2010PropOp54
 70
     0
102
RTVSPost2010Prop55
280
     0
102
RTVSPost2010PropOp55
 70
     0
102
RTVSPost2010Prop56
140
1.0
102
RTVSPost2010PropOp56
 70
     0
102
RTVSPost2010Prop57
140
1.0
102
RTVSPost2010PropOp57
 70
     0
102
RTVSPropertyOp0
 70
     0
102
RTVSPropertyOp1
 70
     0
102
RTVSPropertyOp2
 70
     0
102
RTVSPropertyOp3
 70
     0
102
RTVSPropertyOp4
 70
     0
102
RTVSPropertyOp5
 70
     0
102
RTVSPropertyOp6
 70
     0
102
RTVSPropertyOp7
 70
     0
102
RTVSPropertyOp8
 70
     0
102
RTVSPropertyOp9
 70
     0
102
RTVSPropertyOp10
 70
     0
102
RTVSPropertyOp11
 70
     0
102
RTVSPropertyOp12
 70
     0
102
RTVSPropertyOp13
 70
     0
102
RTVSPropertyOp14
 70
     2
102
RTVSPropertyOp15
 70
     0
102
RTVSPropertyOp16
 70
     0
102
RTVSPropertyOp17
 70
     0
102
RTVSPropertyOp18
 70
     0
102
RTVSPropertyOp19
 70
     0
102
RTVSPropertyOp20
 70
     0
102
RTVSPropertyOp21
 70
     0
102
RTVSPropertyOp22
 70
     0
102
RTVSPropertyOp23
 70
     0
102
RTVSPropertyOp24
 70
     0
102
RTVSPropertyOp25
 70
     0
102
RTVSPropertyOp26
 70
     0
102
RTVSPropertyOp27
 70
     0
102
RTVSPropertyOp28
 70
     0
102
RTVSPropertyOp29
 70
     0
102
RTVSPropertyOp30
 70
     0
102
RTVSPropertyOp31
 70
     0
102
RTVSPropertyOp32
 70
     0
102
RTVSPropertyOp33
 70
     0
102
RTVSPropertyOp34
 70
     0
102
RTVSPropertyOp35
 70
     0
102
RTVSPropertyOp36
 70
     0
102
RTVSPropertyOp37
 70
     0
102
RTVSPropertyOp38
 70
     0
102
RTVSPropertyOp39
 70
     0
102
RTVSPropertyOp40
 70
     0
102
RTVSPropertyOp41
 70
     0
102
RTVSPropertyOp42
 70
     0
102
RTVSPropertyOp43
 70
     0
102
RTVSPropertyOp44
 70
     0
102
RTVSPropertyOp45
 70
     0
102
RTVSPropertyOp46
 70
     0
102
RTVSPropertyOp47
 70
     0
102
RTVSPropertyOp48
 70
     0
102
RTVSPropertyOp49
 70
     0
102
RTVSPropertyOp50
 70
     0
102
RTVSPropertyOp51
 70
     0
102
RTVSPropertyOp52
 70
     0
102
RTVSPropertyOp53
 70
     0
102
RTVSPropertyOp54
 70
     0
102
RTVSPropertyOp55
 70
     0
102
RTVSPropertyOp56
 70
     0
102
RTVSPropertyOp57
 70
     0
102
RTVSPropertyOp58
 70
     1
102
RTVSPropertyOp59
 70
     1
102
RTVSPropertyOp60
 70
     1
102
RTVSPropertyOp61
 70
     1
102
RTVSPropertyOp62
 70
     1
  0
XRECORD
  5
D89
102
{ACAD_REACTORS
330
D88
102
}
330
D88
100
AcDbXrecord
280
     1
102
RTVSPost2010Prop28
280
     0
102
RTVSPost2010PropOp28
 70
     1
102
RTVSPost2010Prop29
280
     1
102
RTVSPost2010PropOp29
 70
     1
102
RTVSPost2010Prop30
280
     1
102
RTVSPost2010PropOp30
 70
     1
102
RTVSPost2010Prop31
280
     0
102
RTVSPost2010PropOp31
 70
     1
102
RTVSPost2010Prop32
280
     0
102
RTVSPost2010PropOp32
 70
     1
102
RTVSPost2010Prop33
280
     0
102
RTVSPost2010PropOp33
 70
     1
102
RTVSPost2010Prop34
280
     0
102
RTVSPost2010PropOp34
 70
     1
102
RTVSPost2010Prop35
280
     0
102
RTVSPost2010PropOp35
 70
     1
102
RTVSPost2010Prop36
280
     0
102
RTVSPost2010PropOp36
 70
     1
102
RTVSPost2010Prop37
 90
       50
102
RTVSPost2010PropOp37
 70
     1
102
RTVSPost2010Prop38
140
0.0
102
RTVSPost2010PropOp38
 70
     1
102
RTVSPost2010Prop39
140
1.0
102
RTVSPost2010PropOp39
 70
     1
102
RTVSPost2010Prop40
 90
        0
102
RTVSPost2010PropOp40
 70
     1
102
RTVSPost2010Prop41ColorIndex
 90
       18
102
RTVSPost2010Prop41ColorRGB
 90
-16777216
102
RTVSPost2010PropOp41
 70
     1
102
RTVSPost2010Prop42
 90
       50
102
RTVSPost2010PropOp42
 70
     1
102
RTVSPost2010Prop43
 90
        3
102
RTVSPost2010PropOp43
 70
     1
102
RTVSPost2010Prop44ColorIndex
 90
        5
102
RTVSPost2010Prop44ColorRGB
 90
      255
102
RTVSPost2010PropOp44
 70
     1
102
RTVSPost2010Prop45
280
     0
102
RTVSPost2010PropOp45
 70
     1
102
RTVSPost2010Prop46
 90
       50
102
RTVSPost2010PropOp46
 70
     1
102
RTVSPost2010Prop47
 90
       50
102
RTVSPost2010PropOp47
 70
     1
102
RTVSPost2010Prop48
 90
       50
102
RTVSPost2010PropOp48
 70
     1
102
RTVSPost2010Prop49
280
     0
102
RTVSPost2010PropOp49
 70
     1
102
RTVSPost2010Prop50
 90
       50
102
RTVSPost2010PropOp50
 70
     1
102
RTVSPost2010Prop51ColorIndex
 90
      256
102
RTVSPost2010Prop51ColorRGB
 90
-16777216
102
RTVSPost2010PropOp51
 70
     0
102
RTVSPost2010Prop52
140
1.0
102
RTVSPost2010PropOp52
 70
     0
102
RTVSPost2010Prop53
 90
        2
102
RTVSPost2010PropOp53
 70
     1
102
RTVSPost2010Prop54
  1
strokes_ogs.tif
102
RTVSPost2010PropOp54
 70
     1
102
RTVSPost2010Prop55
280
     0
102
RTVSPost2010PropOp55
 70
     1
102
RTVSPost2010Prop56
140
1.0
102
RTVSPost2010PropOp56
 70
     1
102
RTVSPost2010Prop57
140
1.0
102
RTVSPost2010PropOp57
 70
     1
102
RTVSPropertyOp0
 70
     1
102
RTVSPropertyOp1
 70
     1
102
RTVSPropertyOp2
 70
     1
102
RTVSPropertyOp3
 70
     1
102
RTVSPropertyOp4
 70
     1
102
RTVSPropertyOp5
 70
     1
102
RTVSPropertyOp6
 70
     1
102
RTVSPropertyOp7
 70
     1
102
RTVSPropertyOp8
 70
     1
102
RTVSPropertyOp9
 70
     1
102
RTVSPropertyOp10
 70
     1
102
RTVSPropertyOp11
 70
     1
102
RTVSPropertyOp12
 70
     1
102
RTVSPropertyOp13
 70
     1
102
RTVSPropertyOp14
 70
     1
102
RTVSPropertyOp15
 70
     1
102
RTVSPropertyOp16
 70
     1
102
RTVSPropertyOp17
 70
     1
102
RTVSPropertyOp18
 70
     1
102
RTVSPropertyOp19
 70
     1
102
RTVSPropertyOp20
 70
     1
102
RTVSPropertyOp21
 70
     1
102
RTVSPropertyOp22
 70
     1
102
RTVSPropertyOp23
 70
     1
102
RTVSPropertyOp24
 70
     1
102
RTVSPropertyOp25
 70
     1
102
RTVSPropertyOp26
 70
     1
102
RTVSPropertyOp27
 70
     1
102
RTVSPropertyOp28
 70
     1
102
RTVSPropertyOp29
 70
     1
102
RTVSPropertyOp30
 70
     1
102
RTVSPropertyOp31
 70
     1
102
RTVSPropertyOp32
 70
     1
102
RTVSPropertyOp33
 70
     1
102
RTVSPropertyOp34
 70
     1
102
RTVSPropertyOp35
 70
     1
102
RTVSPropertyOp36
 70
     1
102
RTVSPropertyOp37
 70
     1
102
RTVSPropertyOp38
 70
     1
102
RTVSPropertyOp39
 70
     1
102
RTVSPropertyOp40
 70
     1
102
RTVSPropertyOp41
 70
     1
102
RTVSPropertyOp42
 70
     1
102
RTVSPropertyOp43
 70
     1
102
RTVSPropertyOp44
 70
     1
102
RTVSPropertyOp45
 70
     1
102
RTVSPropertyOp46
 70
     1
102
RTVSPropertyOp47
 70
     1
102
RTVSPropertyOp48
 70
     1
102
RTVSPropertyOp49
 70
     1
102
RTVSPropertyOp50
 70
     1
102
RTVSPropertyOp51
 70
     0
102
RTVSPropertyOp52
 70
     0
102
RTVSPropertyOp53
 70
     1
102
RTVSPropertyOp54
 70
     1
102
RTVSPropertyOp55
 70
     1
102
RTVSPropertyOp56
 70
     1
102
RTVSPropertyOp57
 70
     1
102
RTVSPropertyOp58
 70
     1
102
RTVSPropertyOp59
 70
     1
102
RTVSPropertyOp60
 70
     1
102
RTVSPropertyOp61
 70
     1
102
RTVSPropertyOp62
 70
     1
  0
XRECORD
  5
D9B
102
{ACAD_REACTORS
330
D9A
102
}
330
D9A
100
AcDbXrecord
280
     1
102
RTVSPost2010Prop28
280
     0
102
RTVSPost2010PropOp28
 70
     0
102
RTVSPost2010Prop29
280
     1
102
RTVSPost2010PropOp29
 70
     0
102
RTVSPost2010Prop30
280
     1
102
RTVSPost2010PropOp30
 70
     0
102
RTVSPost2010Prop31
280
     0
102
RTVSPost2010PropOp31
 70
     0
102
RTVSPost2010Prop32
280
     0
102
RTVSPost2010PropOp32
 70
     0
102
RTVSPost2010Prop33
280
     0
102
RTVSPost2010PropOp33
 70
     0
102
RTVSPost2010Prop34
280
     0
102
RTVSPost2010PropOp34
 70
     0
102
RTVSPost2010Prop35
280
     0
102
RTVSPost2010PropOp35
 70
     0
102
RTVSPost2010Prop36
280
     0
102
RTVSPost2010PropOp36
 70
     0
102
RTVSPost2010Prop37
 90
       50
102
RTVSPost2010PropOp37
 70
     0
102
RTVSPost2010Prop38
140
0.0
102
RTVSPost2010PropOp38
 70
     0
102
RTVSPost2010Prop39
140
1.0
102
RTVSPost2010PropOp39
 70
     0
102
RTVSPost2010Prop40
 90
        0
102
RTVSPost2010PropOp40
 70
     0
102
RTVSPost2010Prop41ColorIndex
 90
       18
102
RTVSPost2010Prop41ColorRGB
 90
-16777216
102
RTVSPost2010PropOp41
 70
     0
102
RTVSPost2010Prop42
 90
       50
102
RTVSPost2010PropOp42
 70
     0
102
RTVSPost2010Prop43
 90
        3
102
RTVSPost2010PropOp43
 70
     0
102
RTVSPost2010Prop44ColorIndex
 90
        5
102
RTVSPost2010Prop44ColorRGB
 90
      255
102
RTVSPost2010PropOp44
 70
     0
102
RTVSPost2010Prop45
280
     0
102
RTVSPost2010PropOp45
 70
     0
102
RTVSPost2010Prop46
 90
       50
102
RTVSPost2010PropOp46
 70
     0
102
RTVSPost2010Prop47
 90
       50
102
RTVSPost2010PropOp47
 70
     0
102
RTVSPost2010Prop48
 90
       50
102
RTVSPost2010PropOp48
 70
     0
102
RTVSPost2010Prop49
280
     0
102
RTVSPost2010PropOp49
 70
     0
102
RTVSPost2010Prop50
 90
       50
102
RTVSPost2010PropOp50
 70
     0
102
RTVSPost2010Prop51ColorIndex
 90
      256
102
RTVSPost2010Prop51ColorRGB
 90
-16777216
102
RTVSPost2010PropOp51
 70
     0
102
RTVSPost2010Prop52
140
1.0
102
RTVSPost2010PropOp52
 70
     0
102
RTVSPost2010Prop53
 90
        2
102
RTVSPost2010PropOp53
 70
     0
102
RTVSPost2010Prop54
  1
strokes_ogs.tif
102
RTVSPost2010PropOp54
 70
     0
102
RTVSPost2010Prop55
280
     0
102
RTVSPost2010PropOp55
 70
     0
102
RTVSPost2010Prop56
140
1.0
102
RTVSPost2010PropOp56
 70
     0
102
RTVSPost2010Prop57
140
1.0
102
RTVSPost2010PropOp57
 70
     0
102
RTVSPropertyOp0
 70
     0
102
RTVSPropertyOp1
 70
     0
102
RTVSPropertyOp2
 70
     0
102
RTVSPropertyOp3
 70
     0
102
RTVSPropertyOp4
 70
     0
102
RTVSPropertyOp5
 70
     0
102
RTVSPropertyOp6
 70
     0
102
RTVSPropertyOp7
 70
     0
102
RTVSPropertyOp8
 70
     0
102
RTVSPropertyOp9
 70
     0
102
RTVSPropertyOp10
 70
     0
102
RTVSPropertyOp11
 70
     0
102
RTVSPropertyOp12
 70
     0
102
RTVSPropertyOp13
 70
     0
102
RTVSPropertyOp14
 70
     2
102
RTVSPropertyOp15
 70
     0
102
RTVSPropertyOp16
 70
     0
102
RTVSPropertyOp17
 70
     0
102
RTVSPropertyOp18
 70
     0
102
RTVSPropertyOp19
 70
     0
102
RTVSPropertyOp20
 70
     0
102
RTVSPropertyOp21
 70
     0
102
RTVSPropertyOp22
 70
     0
102
RTVSPropertyOp23
 70
     0
102
RTVSPropertyOp24
 70
     0
102
RTVSPropertyOp25
 70
     0
102
RTVSPropertyOp26
 70
     0
102
RTVSPropertyOp27
 70
     0
102
RTVSPropertyOp28
 70
     0
102
RTVSPropertyOp29
 70
     0
102
RTVSPropertyOp30
 70
     0
102
RTVSPropertyOp31
 70
     0
102
RTVSPropertyOp32
 70
     0
102
RTVSPropertyOp33
 70
     0
102
RTVSPropertyOp34
 70
     0
102
RTVSPropertyOp35
 70
     0
102
RTVSPropertyOp36
 70
     0
102
RTVSPropertyOp37
 70
     0
102
RTVSPropertyOp38
 70
     0
102
RTVSPropertyOp39
 70
     0
102
RTVSPropertyOp40
 70
     0
102
RTVSPropertyOp41
 70
     0
102
RTVSPropertyOp42
 70
     0
102
RTVSPropertyOp43
 70
     0
102
RTVSPropertyOp44
 70
     0
102
RTVSPropertyOp45
 70
     0
102
RTVSPropertyOp46
 70
     0
102
RTVSPropertyOp47
 70
     0
102
RTVSPropertyOp48
 70
     0
102
RTVSPropertyOp49
 70
     0
102
RTVSPropertyOp50
 70
     0
102
RTVSPropertyOp51
 70
     0
102
RTVSPropertyOp52
 70
     0
102
RTVSPropertyOp53
 70
     0
102
RTVSPropertyOp54
 70
     0
102
RTVSPropertyOp55
 70
     0
102
RTVSPropertyOp56
 70
     0
102
RTVSPropertyOp57
 70
     0
102
RTVSPropertyOp58
 70
     1
102
RTVSPropertyOp59
 70
     1
102
RTVSPropertyOp60
 70
     1
102
RTVSPropertyOp61
 70
     1
102
RTVSPropertyOp62
 70
     1
  0
XRECORD
  5
D81
102
{ACAD_REACTORS
330
D80
102
}
330
D80
100
AcDbXrecord
280
     1
102
RTVSPost2010Prop28
280
     0
102
RTVSPost2010PropOp28
 70
     1
102
RTVSPost2010Prop29
280
     1
102
RTVSPost2010PropOp29
 70
     1
102
RTVSPost2010Prop30
280
     1
102
RTVSPost2010PropOp30
 70
     1
102
RTVSPost2010Prop31
280
     0
102
RTVSPost2010PropOp31
 70
     1
102
RTVSPost2010Prop32
280
     0
102
RTVSPost2010PropOp32
 70
     1
102
RTVSPost2010Prop33
280
     0
102
RTVSPost2010PropOp33
 70
     1
102
RTVSPost2010Prop34
280
     0
102
RTVSPost2010PropOp34
 70
     1
102
RTVSPost2010Prop35
280
     0
102
RTVSPost2010PropOp35
 70
     1
102
RTVSPost2010Prop36
280
     0
102
RTVSPost2010PropOp36
 70
     1
102
RTVSPost2010Prop37
 90
       50
102
RTVSPost2010PropOp37
 70
     1
102
RTVSPost2010Prop38
140
0.0
102
RTVSPost2010PropOp38
 70
     1
102
RTVSPost2010Prop39
140
1.0
102
RTVSPost2010PropOp39
 70
     1
102
RTVSPost2010Prop40
 90
        0
102
RTVSPost2010PropOp40
 70
     1
102
RTVSPost2010Prop41ColorIndex
 90
       18
102
RTVSPost2010Prop41ColorRGB
 90
-16777216
102
RTVSPost2010PropOp41
 70
     1
102
RTVSPost2010Prop42
 90
       50
102
RTVSPost2010PropOp42
 70
     1
102
RTVSPost2010Prop43
 90
        3
102
RTVSPost2010PropOp43
 70
     1
102
RTVSPost2010Prop44ColorIndex
 90
        5
102
RTVSPost2010Prop44ColorRGB
 90
      255
102
RTVSPost2010PropOp44
 70
     1
102
RTVSPost2010Prop45
280
     0
102
RTVSPost2010PropOp45
 70
     1
102
RTVSPost2010Prop46
 90
       50
102
RTVSPost2010PropOp46
 70
     1
102
RTVSPost2010Prop47
 90
       50
102
RTVSPost2010PropOp47
 70
     1
102
RTVSPost2010Prop48
 90
       50
102
RTVSPost2010PropOp48
 70
     1
102
RTVSPost2010Prop49
280
     0
102
RTVSPost2010PropOp49
 70
     1
102
RTVSPost2010Prop50
 90
       50
102
RTVSPost2010PropOp50
 70
     1
102
RTVSPost2010Prop51ColorIndex
 90
      256
102
RTVSPost2010Prop51ColorRGB
 90
-16777216
102
RTVSPost2010PropOp51
 70
     0
102
RTVSPost2010Prop52
140
1.0
102
RTVSPost2010PropOp52
 70
     0
102
RTVSPost2010Prop53
 90
        2
102
RTVSPost2010PropOp53
 70
     1
102
RTVSPost2010Prop54
  1
strokes_ogs.tif
102
RTVSPost2010PropOp54
 70
     1
102
RTVSPost2010Prop55
280
     0
102
RTVSPost2010PropOp55
 70
     1
102
RTVSPost2010Prop56
140
1.0
102
RTVSPost2010PropOp56
 70
     1
102
RTVSPost2010Prop57
140
1.0
102
RTVSPost2010PropOp57
 70
     1
102
RTVSPropertyOp0
 70
     1
102
RTVSPropertyOp1
 70
     1
102
RTVSPropertyOp2
 70
     1
102
RTVSPropertyOp3
 70
     1
102
RTVSPropertyOp4
 70
     1
102
RTVSPropertyOp5
 70
     1
102
RTVSPropertyOp6
 70
     1
102
RTVSPropertyOp7
 70
     1
102
RTVSPropertyOp8
 70
     1
102
RTVSPropertyOp9
 70
     1
102
RTVSPropertyOp10
 70
     1
102
RTVSPropertyOp11
 70
     1
102
RTVSPropertyOp12
 70
     1
102
RTVSPropertyOp13
 70
     1
102
RTVSPropertyOp14
 70
     1
102
RTVSPropertyOp15
 70
     1
102
RTVSPropertyOp16
 70
     1
102
RTVSPropertyOp17
 70
     1
102
RTVSPropertyOp18
 70
     1
102
RTVSPropertyOp19
 70
     1
102
RTVSPropertyOp20
 70
     1
102
RTVSPropertyOp21
 70
     1
102
RTVSPropertyOp22
 70
     1
102
RTVSPropertyOp23
 70
     1
102
RTVSPropertyOp24
 70
     1
102
RTVSPropertyOp25
 70
     1
102
RTVSPropertyOp26
 70
     1
102
RTVSPropertyOp27
 70
     1
102
RTVSPropertyOp28
 70
     1
102
RTVSPropertyOp29
 70
     1
102
RTVSPropertyOp30
 70
     1
102
RTVSPropertyOp31
 70
     1
102
RTVSPropertyOp32
 70
     1
102
RTVSPropertyOp33
 70
     1
102
RTVSPropertyOp34
 70
     1
102
RTVSPropertyOp35
 70
     1
102
RTVSPropertyOp36
 70
     1
102
RTVSPropertyOp37
 70
     1
102
RTVSPropertyOp38
 70
     1
102
RTVSPropertyOp39
 70
     1
102
RTVSPropertyOp40
 70
     1
102
RTVSPropertyOp41
 70
     1
102
RTVSPropertyOp42
 70
     1
102
RTVSPropertyOp43
 70
     1
102
RTVSPropertyOp44
 70
     1
102
RTVSPropertyOp45
 70
     1
102
RTVSPropertyOp46
 70
     1
102
RTVSPropertyOp47
 70
     1
102
RTVSPropertyOp48
 70
     1
102
RTVSPropertyOp49
 70
     1
102
RTVSPropertyOp50
 70
     1
102
RTVSPropertyOp51
 70
     0
102
RTVSPropertyOp52
 70
     0
102
RTVSPropertyOp53
 70
     1
102
RTVSPropertyOp54
 70
     1
102
RTVSPropertyOp55
 70
     1
102
RTVSPropertyOp56
 70
     1
102
RTVSPropertyOp57
 70
     1
102
RTVSPropertyOp58
 70
     1
102
RTVSPropertyOp59
 70
     1
102
RTVSPropertyOp60
 70
     1
102
RTVSPropertyOp61
 70
     1
102
RTVSPropertyOp62
 70
     1
  0
XRECORD
  5
D97
102
{ACAD_REACTORS
330
D96
102
}
330
D96
100
AcDbXrecord
280
     1
102
RTVSPost2010Prop28
280
     0
102
RTVSPost2010PropOp28
 70
     1
102
RTVSPost2010Prop29
280
     1
102
RTVSPost2010PropOp29
 70
     1
102
RTVSPost2010Prop30
280
     1
102
RTVSPost2010PropOp30
 70
     1
102
RTVSPost2010Prop31
280
     0
102
RTVSPost2010PropOp31
 70
     1
102
RTVSPost2010Prop32
280
     0
102
RTVSPost2010PropOp32
 70
     1
102
RTVSPost2010Prop33
280
     0
102
RTVSPost2010PropOp33
 70
     1
102
RTVSPost2010Prop34
280
     0
102
RTVSPost2010PropOp34
 70
     1
102
RTVSPost2010Prop35
280
     0
102
RTVSPost2010PropOp35
 70
     1
102
RTVSPost2010Prop36
280
     0
102
RTVSPost2010PropOp36
 70
     1
102
RTVSPost2010Prop37
 90
       50
102
RTVSPost2010PropOp37
 70
     1
102
RTVSPost2010Prop38
140
0.0
102
RTVSPost2010PropOp38
 70
     1
102
RTVSPost2010Prop39
140
1.0
102
RTVSPost2010PropOp39
 70
     1
102
RTVSPost2010Prop40
 90
        0
102
RTVSPost2010PropOp40
 70
     1
102
RTVSPost2010Prop41ColorIndex
 90
       18
102
RTVSPost2010Prop41ColorRGB
 90
-16777216
102
RTVSPost2010PropOp41
 70
     1
102
RTVSPost2010Prop42
 90
       50
102
RTVSPost2010PropOp42
 70
     1
102
RTVSPost2010Prop43
 90
        3
102
RTVSPost2010PropOp43
 70
     1
102
RTVSPost2010Prop44ColorIndex
 90
        5
102
RTVSPost2010Prop44ColorRGB
 90
      255
102
RTVSPost2010PropOp44
 70
     1
102
RTVSPost2010Prop45
280
     0
102
RTVSPost2010PropOp45
 70
     1
102
RTVSPost2010Prop46
 90
       50
102
RTVSPost2010PropOp46
 70
     1
102
RTVSPost2010Prop47
 90
       50
102
RTVSPost2010PropOp47
 70
     1
102
RTVSPost2010Prop48
 90
       50
102
RTVSPost2010PropOp48
 70
     1
102
RTVSPost2010Prop49
280
     0
102
RTVSPost2010PropOp49
 70
     1
102
RTVSPost2010Prop50
 90
       50
102
RTVSPost2010PropOp50
 70
     1
102
RTVSPost2010Prop51ColorIndex
 90
      256
102
RTVSPost2010Prop51ColorRGB
 90
-16777216
102
RTVSPost2010PropOp51
 70
     0
102
RTVSPost2010Prop52
140
1.0
102
RTVSPost2010PropOp52
 70
     0
102
RTVSPost2010Prop53
 90
        2
102
RTVSPost2010PropOp53
 70
     1
102
RTVSPost2010Prop54
  1
strokes_ogs.tif
102
RTVSPost2010PropOp54
 70
     1
102
RTVSPost2010Prop55
280
     0
102
RTVSPost2010PropOp55
 70
     1
102
RTVSPost2010Prop56
140
1.0
102
RTVSPost2010PropOp56
 70
     1
102
RTVSPost2010Prop57
140
1.0
102
RTVSPost2010PropOp57
 70
     1
102
RTVSPropertyOp0
 70
     1
102
RTVSPropertyOp1
 70
     1
102
RTVSPropertyOp2
 70
     1
102
RTVSPropertyOp3
 70
     1
102
RTVSPropertyOp4
 70
     1
102
RTVSPropertyOp5
 70
     1
102
RTVSPropertyOp6
 70
     1
102
RTVSPropertyOp7
 70
     1
102
RTVSPropertyOp8
 70
     1
102
RTVSPropertyOp9
 70
     1
102
RTVSPropertyOp10
 70
     1
102
RTVSPropertyOp11
 70
     1
102
RTVSPropertyOp12
 70
     1
102
RTVSPropertyOp13
 70
     1
102
RTVSPropertyOp14
 70
     1
102
RTVSPropertyOp15
 70
     1
102
RTVSPropertyOp16
 70
     1
102
RTVSPropertyOp17
 70
     1
102
RTVSPropertyOp18
 70
     1
102
RTVSPropertyOp19
 70
     1
102
RTVSPropertyOp20
 70
     1
102
RTVSPropertyOp21
 70
     1
102
RTVSPropertyOp22
 70
     1
102
RTVSPropertyOp23
 70
     1
102
RTVSPropertyOp24
 70
     1
102
RTVSPropertyOp25
 70
     1
102
RTVSPropertyOp26
 70
     1
102
RTVSPropertyOp27
 70
     1
102
RTVSPropertyOp28
 70
     1
102
RTVSPropertyOp29
 70
     1
102
RTVSPropertyOp30
 70
     1
102
RTVSPropertyOp31
 70
     1
102
RTVSPropertyOp32
 70
     1
102
RTVSPropertyOp33
 70
     1
102
RTVSPropertyOp34
 70
     1
102
RTVSPropertyOp35
 70
     1
102
RTVSPropertyOp36
 70
     1
102
RTVSPropertyOp37
 70
     1
102
RTVSPropertyOp38
 70
     1
102
RTVSPropertyOp39
 70
     1
102
RTVSPropertyOp40
 70
     1
102
RTVSPropertyOp41
 70
     1
102
RTVSPropertyOp42
 70
     1
102
RTVSPropertyOp43
 70
     1
102
RTVSPropertyOp44
 70
     1
102
RTVSPropertyOp45
 70
     1
102
RTVSPropertyOp46
 70
     1
102
RTVSPropertyOp47
 70
     1
102
RTVSPropertyOp48
 70
     1
102
RTVSPropertyOp49
 70
     1
102
RTVSPropertyOp50
 70
     1
102
RTVSPropertyOp51
 70
     0
102
RTVSPropertyOp52
 70
     0
102
RTVSPropertyOp53
 70
     1
102
RTVSPropertyOp54
 70
     1
102
RTVSPropertyOp55
 70
     1
102
RTVSPropertyOp56
 70
     1
102
RTVSPropertyOp57
 70
     1
102
RTVSPropertyOp58
 70
     1
102
RTVSPropertyOp59
 70
     1
102
RTVSPropertyOp60
 70
     1
102
RTVSPropertyOp61
 70
     1
102
RTVSPropertyOp62
 70
     1
  0
XRECORD
  5
D95
102
{ACAD_REACTORS
330
D94
102
}
330
D94
100
AcDbXrecord
280
     1
102
RTVSPost2010Prop28
280
     0
102
RTVSPost2010PropOp28
 70
     1
102
RTVSPost2010Prop29
280
     1
102
RTVSPost2010PropOp29
 70
     1
102
RTVSPost2010Prop30
280
     1
102
RTVSPost2010PropOp30
 70
     1
102
RTVSPost2010Prop31
280
     0
102
RTVSPost2010PropOp31
 70
     1
102
RTVSPost2010Prop32
280
     0
102
RTVSPost2010PropOp32
 70
     1
102
RTVSPost2010Prop33
280
     0
102
RTVSPost2010PropOp33
 70
     1
102
RTVSPost2010Prop34
280
     0
102
RTVSPost2010PropOp34
 70
     1
102
RTVSPost2010Prop35
280
     0
102
RTVSPost2010PropOp35
 70
     1
102
RTVSPost2010Prop36
280
     0
102
RTVSPost2010PropOp36
 70
     1
102
RTVSPost2010Prop37
 90
       50
102
RTVSPost2010PropOp37
 70
     1
102
RTVSPost2010Prop38
140
0.0
102
RTVSPost2010PropOp38
 70
     1
102
RTVSPost2010Prop39
140
1.0
102
RTVSPost2010PropOp39
 70
     1
102
RTVSPost2010Prop40
 90
        0
102
RTVSPost2010PropOp40
 70
     1
102
RTVSPost2010Prop41ColorIndex
 90
       18
102
RTVSPost2010Prop41ColorRGB
 90
-16777216
102
RTVSPost2010PropOp41
 70
     1
102
RTVSPost2010Prop42
 90
       50
102
RTVSPost2010PropOp42
 70
     1
102
RTVSPost2010Prop43
 90
        3
102
RTVSPost2010PropOp43
 70
     1
102
RTVSPost2010Prop44ColorIndex
 90
        5
102
RTVSPost2010Prop44ColorRGB
 90
      255
102
RTVSPost2010PropOp44
 70
     1
102
RTVSPost2010Prop45
280
     0
102
RTVSPost2010PropOp45
 70
     1
102
RTVSPost2010Prop46
 90
       50
102
RTVSPost2010PropOp46
 70
     1
102
RTVSPost2010Prop47
 90
       50
102
RTVSPost2010PropOp47
 70
     1
102
RTVSPost2010Prop48
 90
       50
102
RTVSPost2010PropOp48
 70
     1
102
RTVSPost2010Prop49
280
     0
102
RTVSPost2010PropOp49
 70
     1
102
RTVSPost2010Prop50
 90
       50
102
RTVSPost2010PropOp50
 70
     1
102
RTVSPost2010Prop51ColorIndex
 90
      256
102
RTVSPost2010Prop51ColorRGB
 90
-16777216
102
RTVSPost2010PropOp51
 70
     0
102
RTVSPost2010Prop52
140
1.0
102
RTVSPost2010PropOp52
 70
     0
102
RTVSPost2010Prop53
 90
        2
102
RTVSPost2010PropOp53
 70
     1
102
RTVSPost2010Prop54
  1
strokes_ogs.tif
102
RTVSPost2010PropOp54
 70
     1
102
RTVSPost2010Prop55
280
     0
102
RTVSPost2010PropOp55
 70
     1
102
RTVSPost2010Prop56
140
1.0
102
RTVSPost2010PropOp56
 70
     1
102
RTVSPost2010Prop57
140
1.0
102
RTVSPost2010PropOp57
 70
     1
102
RTVSPropertyOp0
 70
     1
102
RTVSPropertyOp1
 70
     1
102
RTVSPropertyOp2
 70
     1
102
RTVSPropertyOp3
 70
     1
102
RTVSPropertyOp4
 70
     1
102
RTVSPropertyOp5
 70
     1
102
RTVSPropertyOp6
 70
     1
102
RTVSPropertyOp7
 70
     1
102
RTVSPropertyOp8
 70
     1
102
RTVSPropertyOp9
 70
     1
102
RTVSPropertyOp10
 70
     1
102
RTVSPropertyOp11
 70
     1
102
RTVSPropertyOp12
 70
     1
102
RTVSPropertyOp13
 70
     1
102
RTVSPropertyOp14
 70
     1
102
RTVSPropertyOp15
 70
     1
102
RTVSPropertyOp16
 70
     1
102
RTVSPropertyOp17
 70
     1
102
RTVSPropertyOp18
 70
     1
102
RTVSPropertyOp19
 70
     1
102
RTVSPropertyOp20
 70
     1
102
RTVSPropertyOp21
 70
     1
102
RTVSPropertyOp22
 70
     1
102
RTVSPropertyOp23
 70
     1
102
RTVSPropertyOp24
 70
     1
102
RTVSPropertyOp25
 70
     1
102
RTVSPropertyOp26
 70
     1
102
RTVSPropertyOp27
 70
     1
102
RTVSPropertyOp28
 70
     1
102
RTVSPropertyOp29
 70
     1
102
RTVSPropertyOp30
 70
     1
102
RTVSPropertyOp31
 70
     1
102
RTVSPropertyOp32
 70
     1
102
RTVSPropertyOp33
 70
     1
102
RTVSPropertyOp34
 70
     1
102
RTVSPropertyOp35
 70
     1
102
RTVSPropertyOp36
 70
     1
102
RTVSPropertyOp37
 70
     1
102
RTVSPropertyOp38
 70
     1
102
RTVSPropertyOp39
 70
     1
102
RTVSPropertyOp40
 70
     1
102
RTVSPropertyOp41
 70
     1
102
RTVSPropertyOp42
 70
     1
102
RTVSPropertyOp43
 70
     1
102
RTVSPropertyOp44
 70
     1
102
RTVSPropertyOp45
 70
     1
102
RTVSPropertyOp46
 70
     1
102
RTVSPropertyOp47
 70
     1
102
RTVSPropertyOp48
 70
     1
102
RTVSPropertyOp49
 70
     1
102
RTVSPropertyOp50
 70
     1
102
RTVSPropertyOp51
 70
     0
102
RTVSPropertyOp52
 70
     0
102
RTVSPropertyOp53
 70
     1
102
RTVSPropertyOp54
 70
     1
102
RTVSPropertyOp55
 70
     1
102
RTVSPropertyOp56
 70
     1
102
RTVSPropertyOp57
 70
     1
102
RTVSPropertyOp58
 70
     1
102
RTVSPropertyOp59
 70
     1
102
RTVSPropertyOp60
 70
     1
102
RTVSPropertyOp61
 70
     1
102
RTVSPropertyOp62
 70
     1
  0
XRECORD
  5
D8F
102
{ACAD_REACTORS
330
D8E
102
}
330
D8E
100
AcDbXrecord
280
     1
102
RTVSPost2010Prop28
280
     0
102
RTVSPost2010PropOp28
 70
     1
102
RTVSPost2010Prop29
280
     1
102
RTVSPost2010PropOp29
 70
     1
102
RTVSPost2010Prop30
280
     1
102
RTVSPost2010PropOp30
 70
     1
102
RTVSPost2010Prop31
280
     0
102
RTVSPost2010PropOp31
 70
     1
102
RTVSPost2010Prop32
280
     0
102
RTVSPost2010PropOp32
 70
     1
102
RTVSPost2010Prop33
280
     0
102
RTVSPost2010PropOp33
 70
     1
102
RTVSPost2010Prop34
280
     0
102
RTVSPost2010PropOp34
 70
     1
102
RTVSPost2010Prop35
280
     0
102
RTVSPost2010PropOp35
 70
     1
102
RTVSPost2010Prop36
280
     0
102
RTVSPost2010PropOp36
 70
     1
102
RTVSPost2010Prop37
 90
       50
102
RTVSPost2010PropOp37
 70
     1
102
RTVSPost2010Prop38
140
0.0
102
RTVSPost2010PropOp38
 70
     1
102
RTVSPost2010Prop39
140
1.0
102
RTVSPost2010PropOp39
 70
     1
102
RTVSPost2010Prop40
 90
        0
102
RTVSPost2010PropOp40
 70
     1
102
RTVSPost2010Prop41ColorIndex
 90
       18
102
RTVSPost2010Prop41ColorRGB
 90
-16777216
102
RTVSPost2010PropOp41
 70
     1
102
RTVSPost2010Prop42
 90
       50
102
RTVSPost2010PropOp42
 70
     1
102
RTVSPost2010Prop43
 90
        3
102
RTVSPost2010PropOp43
 70
     1
102
RTVSPost2010Prop44ColorIndex
 90
        5
102
RTVSPost2010Prop44ColorRGB
 90
      255
102
RTVSPost2010PropOp44
 70
     1
102
RTVSPost2010Prop45
280
     0
102
RTVSPost2010PropOp45
 70
     1
102
RTVSPost2010Prop46
 90
       50
102
RTVSPost2010PropOp46
 70
     1
102
RTVSPost2010Prop47
 90
       50
102
RTVSPost2010PropOp47
 70
     1
102
RTVSPost2010Prop48
 90
       50
102
RTVSPost2010PropOp48
 70
     1
102
RTVSPost2010Prop49
280
     0
102
RTVSPost2010PropOp49
 70
     1
102
RTVSPost2010Prop50
 90
       50
102
RTVSPost2010PropOp50
 70
     1
102
RTVSPost2010Prop51ColorIndex
 90
      256
102
RTVSPost2010Prop51ColorRGB
 90
-16777216
102
RTVSPost2010PropOp51
 70
     0
102
RTVSPost2010Prop52
140
1.0
102
RTVSPost2010PropOp52
 70
     0
102
RTVSPost2010Prop53
 90
        2
102
RTVSPost2010PropOp53
 70
     1
102
RTVSPost2010Prop54
  1
strokes_ogs.tif
102
RTVSPost2010PropOp54
 70
     1
102
RTVSPost2010Prop55
280
     0
102
RTVSPost2010PropOp55
 70
     1
102
RTVSPost2010Prop56
140
1.0
102
RTVSPost2010PropOp56
 70
     1
102
RTVSPost2010Prop57
140
1.0
102
RTVSPost2010PropOp57
 70
     1
102
RTVSPropertyOp0
 70
     1
102
RTVSPropertyOp1
 70
     1
102
RTVSPropertyOp2
 70
     1
102
RTVSPropertyOp3
 70
     1
102
RTVSPropertyOp4
 70
     1
102
RTVSPropertyOp5
 70
     1
102
RTVSPropertyOp6
 70
     1
102
RTVSPropertyOp7
 70
     1
102
RTVSPropertyOp8
 70
     1
102
RTVSPropertyOp9
 70
     1
102
RTVSPropertyOp10
 70
     1
102
RTVSPropertyOp11
 70
     1
102
RTVSPropertyOp12
 70
     1
102
RTVSPropertyOp13
 70
     1
102
RTVSPropertyOp14
 70
     1
102
RTVSPropertyOp15
 70
     1
102
RTVSPropertyOp16
 70
     1
102
RTVSPropertyOp17
 70
     1
102
RTVSPropertyOp18
 70
     1
102
RTVSPropertyOp19
 70
     1
102
RTVSPropertyOp20
 70
     1
102
RTVSPropertyOp21
 70
     1
102
RTVSPropertyOp22
 70
     1
102
RTVSPropertyOp23
 70
     1
102
RTVSPropertyOp24
 70
     1
102
RTVSPropertyOp25
 70
     1
102
RTVSPropertyOp26
 70
     1
102
RTVSPropertyOp27
 70
     1
102
RTVSPropertyOp28
 70
     1
102
RTVSPropertyOp29
 70
     1
102
RTVSPropertyOp30
 70
     1
102
RTVSPropertyOp31
 70
     1
102
RTVSPropertyOp32
 70
     1
102
RTVSPropertyOp33
 70
     1
102
RTVSPropertyOp34
 70
     1
102
RTVSPropertyOp35
 70
     1
102
RTVSPropertyOp36
 70
     1
102
RTVSPropertyOp37
 70
     1
102
RTVSPropertyOp38
 70
     1
102
RTVSPropertyOp39
 70
     1
102
RTVSPropertyOp40
 70
     1
102
RTVSPropertyOp41
 70
     1
102
RTVSPropertyOp42
 70
     1
102
RTVSPropertyOp43
 70
     1
102
RTVSPropertyOp44
 70
     1
102
RTVSPropertyOp45
 70
     1
102
RTVSPropertyOp46
 70
     1
102
RTVSPropertyOp47
 70
     1
102
RTVSPropertyOp48
 70
     1
102
RTVSPropertyOp49
 70
     1
102
RTVSPropertyOp50
 70
     1
102
RTVSPropertyOp51
 70
     0
102
RTVSPropertyOp52
 70
     0
102
RTVSPropertyOp53
 70
     1
102
RTVSPropertyOp54
 70
     1
102
RTVSPropertyOp55
 70
     1
102
RTVSPropertyOp56
 70
     1
102
RTVSPropertyOp57
 70
     1
102
RTVSPropertyOp58
 70
     1
102
RTVSPropertyOp59
 70
     1
102
RTVSPropertyOp60
 70
     1
102
RTVSPropertyOp61
 70
     1
102
RTVSPropertyOp62
 70
     1
  0
XRECORD
  5
D91
102
{ACAD_REACTORS
330
D90
102
}
330
D90
100
AcDbXrecord
280
     1
102
RTVSPost2010Prop28
280
     0
102
RTVSPost2010PropOp28
 70
     1
102
RTVSPost2010Prop29
280
     1
102
RTVSPost2010PropOp29
 70
     1
102
RTVSPost2010Prop30
280
     1
102
RTVSPost2010PropOp30
 70
     1
102
RTVSPost2010Prop31
280
     0
102
RTVSPost2010PropOp31
 70
     1
102
RTVSPost2010Prop32
280
     0
102
RTVSPost2010PropOp32
 70
     1
102
RTVSPost2010Prop33
280
     0
102
RTVSPost2010PropOp33
 70
     1
102
RTVSPost2010Prop34
280
     0
102
RTVSPost2010PropOp34
 70
     1
102
RTVSPost2010Prop35
280
     0
102
RTVSPost2010PropOp35
 70
     1
102
RTVSPost2010Prop36
280
     0
102
RTVSPost2010PropOp36
 70
     1
102
RTVSPost2010Prop37
 90
       50
102
RTVSPost2010PropOp37
 70
     1
102
RTVSPost2010Prop38
140
0.0
102
RTVSPost2010PropOp38
 70
     1
102
RTVSPost2010Prop39
140
1.0
102
RTVSPost2010PropOp39
 70
     1
102
RTVSPost2010Prop40
 90
        0
102
RTVSPost2010PropOp40
 70
     1
102
RTVSPost2010Prop41ColorIndex
 90
       18
102
RTVSPost2010Prop41ColorRGB
 90
-16777216
102
RTVSPost2010PropOp41
 70
     1
102
RTVSPost2010Prop42
 90
       50
102
RTVSPost2010PropOp42
 70
     1
102
RTVSPost2010Prop43
 90
        3
102
RTVSPost2010PropOp43
 70
     1
102
RTVSPost2010Prop44ColorIndex
 90
        5
102
RTVSPost2010Prop44ColorRGB
 90
      255
102
RTVSPost2010PropOp44
 70
     1
102
RTVSPost2010Prop45
280
     0
102
RTVSPost2010PropOp45
 70
     1
102
RTVSPost2010Prop46
 90
       50
102
RTVSPost2010PropOp46
 70
     1
102
RTVSPost2010Prop47
 90
       50
102
RTVSPost2010PropOp47
 70
     1
102
RTVSPost2010Prop48
 90
       50
102
RTVSPost2010PropOp48
 70
     1
102
RTVSPost2010Prop49
280
     0
102
RTVSPost2010PropOp49
 70
     1
102
RTVSPost2010Prop50
 90
       50
102
RTVSPost2010PropOp50
 70
     1
102
RTVSPost2010Prop51ColorIndex
 90
      256
102
RTVSPost2010Prop51ColorRGB
 90
-16777216
102
RTVSPost2010PropOp51
 70
     0
102
RTVSPost2010Prop52
140
1.0
102
RTVSPost2010PropOp52
 70
     0
102
RTVSPost2010Prop53
 90
        2
102
RTVSPost2010PropOp53
 70
     1
102
RTVSPost2010Prop54
  1
strokes_ogs.tif
102
RTVSPost2010PropOp54
 70
     1
102
RTVSPost2010Prop55
280
     0
102
RTVSPost2010PropOp55
 70
     1
102
RTVSPost2010Prop56
140
1.0
102
RTVSPost2010PropOp56
 70
     1
102
RTVSPost2010Prop57
140
1.0
102
RTVSPost2010PropOp57
 70
     1
102
RTVSPropertyOp0
 70
     1
102
RTVSPropertyOp1
 70
     1
102
RTVSPropertyOp2
 70
     1
102
RTVSPropertyOp3
 70
     1
102
RTVSPropertyOp4
 70
     1
102
RTVSPropertyOp5
 70
     1
102
RTVSPropertyOp6
 70
     1
102
RTVSPropertyOp7
 70
     1
102
RTVSPropertyOp8
 70
     1
102
RTVSPropertyOp9
 70
     1
102
RTVSPropertyOp10
 70
     1
102
RTVSPropertyOp11
 70
     1
102
RTVSPropertyOp12
 70
     1
102
RTVSPropertyOp13
 70
     1
102
RTVSPropertyOp14
 70
     1
102
RTVSPropertyOp15
 70
     1
102
RTVSPropertyOp16
 70
     1
102
RTVSPropertyOp17
 70
     1
102
RTVSPropertyOp18
 70
     1
102
RTVSPropertyOp19
 70
     1
102
RTVSPropertyOp20
 70
     1
102
RTVSPropertyOp21
 70
     1
102
RTVSPropertyOp22
 70
     1
102
RTVSPropertyOp23
 70
     1
102
RTVSPropertyOp24
 70
     1
102
RTVSPropertyOp25
 70
     1
102
RTVSPropertyOp26
 70
     1
102
RTVSPropertyOp27
 70
     1
102
RTVSPropertyOp28
 70
     1
102
RTVSPropertyOp29
 70
     1
102
RTVSPropertyOp30
 70
     1
102
RTVSPropertyOp31
 70
     1
102
RTVSPropertyOp32
 70
     1
102
RTVSPropertyOp33
 70
     1
102
RTVSPropertyOp34
 70
     1
102
RTVSPropertyOp35
 70
     1
102
RTVSPropertyOp36
 70
     1
102
RTVSPropertyOp37
 70
     1
102
RTVSPropertyOp38
 70
     1
102
RTVSPropertyOp39
 70
     1
102
RTVSPropertyOp40
 70
     1
102
RTVSPropertyOp41
 70
     1
102
RTVSPropertyOp42
 70
     1
102
RTVSPropertyOp43
 70
     1
102
RTVSPropertyOp44
 70
     1
102
RTVSPropertyOp45
 70
     1
102
RTVSPropertyOp46
 70
     1
102
RTVSPropertyOp47
 70
     1
102
RTVSPropertyOp48
 70
     1
102
RTVSPropertyOp49
 70
     1
102
RTVSPropertyOp50
 70
     1
102
RTVSPropertyOp51
 70
     0
102
RTVSPropertyOp52
 70
     0
102
RTVSPropertyOp53
 70
     1
102
RTVSPropertyOp54
 70
     1
102
RTVSPropertyOp55
 70
     1
102
RTVSPropertyOp56
 70
     1
102
RTVSPropertyOp57
 70
     1
102
RTVSPropertyOp58
 70
     1
102
RTVSPropertyOp59
 70
     1
102
RTVSPropertyOp60
 70
     1
102
RTVSPropertyOp61
 70
     1
102
RTVSPropertyOp62
 70
     1
  0
XRECORD
  5
D87
102
{ACAD_REACTORS
330
D86
102
}
330
D86
100
AcDbXrecord
280
     1
102
RTVSPost2010Prop28
280
     0
102
RTVSPost2010PropOp28
 70
     1
102
RTVSPost2010Prop29
280
     1
102
RTVSPost2010PropOp29
 70
     1
102
RTVSPost2010Prop30
280
     1
102
RTVSPost2010PropOp30
 70
     1
102
RTVSPost2010Prop31
280
     0
102
RTVSPost2010PropOp31
 70
     1
102
RTVSPost2010Prop32
280
     0
102
RTVSPost2010PropOp32
 70
     1
102
RTVSPost2010Prop33
280
     0
102
RTVSPost2010PropOp33
 70
     1
102
RTVSPost2010Prop34
280
     0
102
RTVSPost2010PropOp34
 70
     1
102
RTVSPost2010Prop35
280
     0
102
RTVSPost2010PropOp35
 70
     1
102
RTVSPost2010Prop36
280
     0
102
RTVSPost2010PropOp36
 70
     1
102
RTVSPost2010Prop37
 90
       50
102
RTVSPost2010PropOp37
 70
     1
102
RTVSPost2010Prop38
140
0.0
102
RTVSPost2010PropOp38
 70
     1
102
RTVSPost2010Prop39
140
1.0
102
RTVSPost2010PropOp39
 70
     1
102
RTVSPost2010Prop40
 90
        0
102
RTVSPost2010PropOp40
 70
     1
102
RTVSPost2010Prop41ColorIndex
 90
       18
102
RTVSPost2010Prop41ColorRGB
 90
-16777216
102
RTVSPost2010PropOp41
 70
     1
102
RTVSPost2010Prop42
 90
       50
102
RTVSPost2010PropOp42
 70
     1
102
RTVSPost2010Prop43
 90
        3
102
RTVSPost2010PropOp43
 70
     1
102
RTVSPost2010Prop44ColorIndex
 90
        5
102
RTVSPost2010Prop44ColorRGB
 90
      255
102
RTVSPost2010PropOp44
 70
     1
102
RTVSPost2010Prop45
280
     0
102
RTVSPost2010PropOp45
 70
     1
102
RTVSPost2010Prop46
 90
       50
102
RTVSPost2010PropOp46
 70
     1
102
RTVSPost2010Prop47
 90
       50
102
RTVSPost2010PropOp47
 70
     1
102
RTVSPost2010Prop48
 90
       50
102
RTVSPost2010PropOp48
 70
     1
102
RTVSPost2010Prop49
280
     0
102
RTVSPost2010PropOp49
 70
     1
102
RTVSPost2010Prop50
 90
       50
102
RTVSPost2010PropOp50
 70
     1
102
RTVSPost2010Prop51ColorIndex
 90
      256
102
RTVSPost2010Prop51ColorRGB
 90
-16777216
102
RTVSPost2010PropOp51
 70
     0
102
RTVSPost2010Prop52
140
1.0
102
RTVSPost2010PropOp52
 70
     0
102
RTVSPost2010Prop53
 90
        2
102
RTVSPost2010PropOp53
 70
     1
102
RTVSPost2010Prop54
  1
strokes_ogs.tif
102
RTVSPost2010PropOp54
 70
     1
102
RTVSPost2010Prop55
280
     0
102
RTVSPost2010PropOp55
 70
     1
102
RTVSPost2010Prop56
140
1.0
102
RTVSPost2010PropOp56
 70
     1
102
RTVSPost2010Prop57
140
1.0
102
RTVSPost2010PropOp57
 70
     1
102
RTVSPropertyOp0
 70
     1
102
RTVSPropertyOp1
 70
     1
102
RTVSPropertyOp2
 70
     1
102
RTVSPropertyOp3
 70
     1
102
RTVSPropertyOp4
 70
     1
102
RTVSPropertyOp5
 70
     1
102
RTVSPropertyOp6
 70
     1
102
RTVSPropertyOp7
 70
     1
102
RTVSPropertyOp8
 70
     1
102
RTVSPropertyOp9
 70
     1
102
RTVSPropertyOp10
 70
     1
102
RTVSPropertyOp11
 70
     1
102
RTVSPropertyOp12
 70
     1
102
RTVSPropertyOp13
 70
     1
102
RTVSPropertyOp14
 70
     1
102
RTVSPropertyOp15
 70
     1
102
RTVSPropertyOp16
 70
     1
102
RTVSPropertyOp17
 70
     1
102
RTVSPropertyOp18
 70
     1
102
RTVSPropertyOp19
 70
     1
102
RTVSPropertyOp20
 70
     1
102
RTVSPropertyOp21
 70
     1
102
RTVSPropertyOp22
 70
     1
102
RTVSPropertyOp23
 70
     1
102
RTVSPropertyOp24
 70
     1
102
RTVSPropertyOp25
 70
     1
102
RTVSPropertyOp26
 70
     1
102
RTVSPropertyOp27
 70
     1
102
RTVSPropertyOp28
 70
     1
102
RTVSPropertyOp29
 70
     1
102
RTVSPropertyOp30
 70
     1
102
RTVSPropertyOp31
 70
     1
102
RTVSPropertyOp32
 70
     1
102
RTVSPropertyOp33
 70
     1
102
RTVSPropertyOp34
 70
     1
102
RTVSPropertyOp35
 70
     1
102
RTVSPropertyOp36
 70
     1
102
RTVSPropertyOp37
 70
     1
102
RTVSPropertyOp38
 70
     1
102
RTVSPropertyOp39
 70
     1
102
RTVSPropertyOp40
 70
     1
102
RTVSPropertyOp41
 70
     1
102
RTVSPropertyOp42
 70
     1
102
RTVSPropertyOp43
 70
     1
102
RTVSPropertyOp44
 70
     1
102
RTVSPropertyOp45
 70
     1
102
RTVSPropertyOp46
 70
     1
102
RTVSPropertyOp47
 70
     1
102
RTVSPropertyOp48
 70
     1
102
RTVSPropertyOp49
 70
     1
102
RTVSPropertyOp50
 70
     1
102
RTVSPropertyOp51
 70
     0
102
RTVSPropertyOp52
 70
     0
102
RTVSPropertyOp53
 70
     1
102
RTVSPropertyOp54
 70
     1
102
RTVSPropertyOp55
 70
     1
102
RTVSPropertyOp56
 70
     1
102
RTVSPropertyOp57
 70
     1
102
RTVSPropertyOp58
 70
     1
102
RTVSPropertyOp59
 70
     1
102
RTVSPropertyOp60
 70
     1
102
RTVSPropertyOp61
 70
     1
102
RTVSPropertyOp62
 70
     1
  0
XRECORD
  5
D7B
102
{ACAD_REACTORS
330
D7A
102
}
330
D7A
100
AcDbXrecord
280
     1
102
RTVSPost2010Prop28
280
     0
102
RTVSPost2010PropOp28
 70
     1
102
RTVSPost2010Prop29
280
     1
102
RTVSPost2010PropOp29
 70
     1
102
RTVSPost2010Prop30
280
     1
102
RTVSPost2010PropOp30
 70
     1
102
RTVSPost2010Prop31
280
     0
102
RTVSPost2010PropOp31
 70
     1
102
RTVSPost2010Prop32
280
     0
102
RTVSPost2010PropOp32
 70
     1
102
RTVSPost2010Prop33
280
     0
102
RTVSPost2010PropOp33
 70
     1
102
RTVSPost2010Prop34
280
     0
102
RTVSPost2010PropOp34
 70
     1
102
RTVSPost2010Prop35
280
     0
102
RTVSPost2010PropOp35
 70
     1
102
RTVSPost2010Prop36
280
     0
102
RTVSPost2010PropOp36
 70
     1
102
RTVSPost2010Prop37
 90
       50
102
RTVSPost2010PropOp37
 70
     1
102
RTVSPost2010Prop38
140
0.0
102
RTVSPost2010PropOp38
 70
     1
102
RTVSPost2010Prop39
140
1.0
102
RTVSPost2010PropOp39
 70
     1
102
RTVSPost2010Prop40
 90
        0
102
RTVSPost2010PropOp40
 70
     1
102
RTVSPost2010Prop41ColorIndex
 90
       18
102
RTVSPost2010Prop41ColorRGB
 90
-16777216
102
RTVSPost2010PropOp41
 70
     1
102
RTVSPost2010Prop42
 90
       50
102
RTVSPost2010PropOp42
 70
     1
102
RTVSPost2010Prop43
 90
        3
102
RTVSPost2010PropOp43
 70
     1
102
RTVSPost2010Prop44ColorIndex
 90
        5
102
RTVSPost2010Prop44ColorRGB
 90
      255
102
RTVSPost2010PropOp44
 70
     1
102
RTVSPost2010Prop45
280
     0
102
RTVSPost2010PropOp45
 70
     1
102
RTVSPost2010Prop46
 90
       50
102
RTVSPost2010PropOp46
 70
     1
102
RTVSPost2010Prop47
 90
       50
102
RTVSPost2010PropOp47
 70
     1
102
RTVSPost2010Prop48
 90
       50
102
RTVSPost2010PropOp48
 70
     1
102
RTVSPost2010Prop49
280
     0
102
RTVSPost2010PropOp49
 70
     1
102
RTVSPost2010Prop50
 90
       50
102
RTVSPost2010PropOp50
 70
     1
102
RTVSPost2010Prop51ColorIndex
 90
      256
102
RTVSPost2010Prop51ColorRGB
 90
-16777216
102
RTVSPost2010PropOp51
 70
     0
102
RTVSPost2010Prop52
140
1.0
102
RTVSPost2010PropOp52
 70
     0
102
RTVSPost2010Prop53
 90
        2
102
RTVSPost2010PropOp53
 70
     1
102
RTVSPost2010Prop54
  1
strokes_ogs.tif
102
RTVSPost2010PropOp54
 70
     1
102
RTVSPost2010Prop55
280
     0
102
RTVSPost2010PropOp55
 70
     1
102
RTVSPost2010Prop56
140
1.0
102
RTVSPost2010PropOp56
 70
     1
102
RTVSPost2010Prop57
140
1.0
102
RTVSPost2010PropOp57
 70
     1
102
RTVSPropertyOp0
 70
     1
102
RTVSPropertyOp1
 70
     1
102
RTVSPropertyOp2
 70
     1
102
RTVSPropertyOp3
 70
     1
102
RTVSPropertyOp4
 70
     1
102
RTVSPropertyOp5
 70
     1
102
RTVSPropertyOp6
 70
     1
102
RTVSPropertyOp7
 70
     1
102
RTVSPropertyOp8
 70
     1
102
RTVSPropertyOp9
 70
     1
102
RTVSPropertyOp10
 70
     1
102
RTVSPropertyOp11
 70
     1
102
RTVSPropertyOp12
 70
     1
102
RTVSPropertyOp13
 70
     1
102
RTVSPropertyOp14
 70
     1
102
RTVSPropertyOp15
 70
     1
102
RTVSPropertyOp16
 70
     1
102
RTVSPropertyOp17
 70
     1
102
RTVSPropertyOp18
 70
     1
102
RTVSPropertyOp19
 70
     1
102
RTVSPropertyOp20
 70
     1
102
RTVSPropertyOp21
 70
     1
102
RTVSPropertyOp22
 70
     1
102
RTVSPropertyOp23
 70
     1
102
RTVSPropertyOp24
 70
     1
102
RTVSPropertyOp25
 70
     1
102
RTVSPropertyOp26
 70
     1
102
RTVSPropertyOp27
 70
     1
102
RTVSPropertyOp28
 70
     1
102
RTVSPropertyOp29
 70
     1
102
RTVSPropertyOp30
 70
     1
102
RTVSPropertyOp31
 70
     1
102
RTVSPropertyOp32
 70
     1
102
RTVSPropertyOp33
 70
     1
102
RTVSPropertyOp34
 70
     1
102
RTVSPropertyOp35
 70
     1
102
RTVSPropertyOp36
 70
     1
102
RTVSPropertyOp37
 70
     1
102
RTVSPropertyOp38
 70
     1
102
RTVSPropertyOp39
 70
     1
102
RTVSPropertyOp40
 70
     1
102
RTVSPropertyOp41
 70
     1
102
RTVSPropertyOp42
 70
     1
102
RTVSPropertyOp43
 70
     1
102
RTVSPropertyOp44
 70
     1
102
RTVSPropertyOp45
 70
     1
102
RTVSPropertyOp46
 70
     1
102
RTVSPropertyOp47
 70
     1
102
RTVSPropertyOp48
 70
     1
102
RTVSPropertyOp49
 70
     1
102
RTVSPropertyOp50
 70
     1
102
RTVSPropertyOp51
 70
     0
102
RTVSPropertyOp52
 70
     0
102
RTVSPropertyOp53
 70
     1
102
RTVSPropertyOp54
 70
     1
102
RTVSPropertyOp55
 70
     1
102
RTVSPropertyOp56
 70
     1
102
RTVSPropertyOp57
 70
     1
102
RTVSPropertyOp58
 70
     1
102
RTVSPropertyOp59
 70
     1
102
RTVSPropertyOp60
 70
     1
102
RTVSPropertyOp61
 70
     1
102
RTVSPropertyOp62
 70
     1
  0
XRECORD
  5
D93
102
{ACAD_REACTORS
330
D92
102
}
330
D92
100
AcDbXrecord
280
     1
102
RTVSPost2010Prop28
280
     0
102
RTVSPost2010PropOp28
 70
     1
102
RTVSPost2010Prop29
280
     1
102
RTVSPost2010PropOp29
 70
     1
102
RTVSPost2010Prop30
280
     1
102
RTVSPost2010PropOp30
 70
     1
102
RTVSPost2010Prop31
280
     0
102
RTVSPost2010PropOp31
 70
     1
102
RTVSPost2010Prop32
280
     0
102
RTVSPost2010PropOp32
 70
     1
102
RTVSPost2010Prop33
280
     0
102
RTVSPost2010PropOp33
 70
     1
102
RTVSPost2010Prop34
280
     0
102
RTVSPost2010PropOp34
 70
     1
102
RTVSPost2010Prop35
280
     0
102
RTVSPost2010PropOp35
 70
     1
102
RTVSPost2010Prop36
280
     0
102
RTVSPost2010PropOp36
 70
     1
102
RTVSPost2010Prop37
 90
       50
102
RTVSPost2010PropOp37
 70
     1
102
RTVSPost2010Prop38
140
0.0
102
RTVSPost2010PropOp38
 70
     1
102
RTVSPost2010Prop39
140
1.0
102
RTVSPost2010PropOp39
 70
     1
102
RTVSPost2010Prop40
 90
        0
102
RTVSPost2010PropOp40
 70
     1
102
RTVSPost2010Prop41ColorIndex
 90
       18
102
RTVSPost2010Prop41ColorRGB
 90
-16777216
102
RTVSPost2010PropOp41
 70
     1
102
RTVSPost2010Prop42
 90
       50
102
RTVSPost2010PropOp42
 70
     1
102
RTVSPost2010Prop43
 90
        3
102
RTVSPost2010PropOp43
 70
     1
102
RTVSPost2010Prop44ColorIndex
 90
        5
102
RTVSPost2010Prop44ColorRGB
 90
      255
102
RTVSPost2010PropOp44
 70
     1
102
RTVSPost2010Prop45
280
     0
102
RTVSPost2010PropOp45
 70
     1
102
RTVSPost2010Prop46
 90
       50
102
RTVSPost2010PropOp46
 70
     1
102
RTVSPost2010Prop47
 90
       50
102
RTVSPost2010PropOp47
 70
     1
102
RTVSPost2010Prop48
 90
       50
102
RTVSPost2010PropOp48
 70
     1
102
RTVSPost2010Prop49
280
     0
102
RTVSPost2010PropOp49
 70
     1
102
RTVSPost2010Prop50
 90
       50
102
RTVSPost2010PropOp50
 70
     1
102
RTVSPost2010Prop51ColorIndex
 90
      256
102
RTVSPost2010Prop51ColorRGB
 90
-16777216
102
RTVSPost2010PropOp51
 70
     0
102
RTVSPost2010Prop52
140
1.0
102
RTVSPost2010PropOp52
 70
     0
102
RTVSPost2010Prop53
 90
        2
102
RTVSPost2010PropOp53
 70
     1
102
RTVSPost2010Prop54
  1
strokes_ogs.tif
102
RTVSPost2010PropOp54
 70
     1
102
RTVSPost2010Prop55
280
     0
102
RTVSPost2010PropOp55
 70
     1
102
RTVSPost2010Prop56
140
1.0
102
RTVSPost2010PropOp56
 70
     1
102
RTVSPost2010Prop57
140
1.0
102
RTVSPost2010PropOp57
 70
     1
102
RTVSPropertyOp0
 70
     1
102
RTVSPropertyOp1
 70
     1
102
RTVSPropertyOp2
 70
     1
102
RTVSPropertyOp3
 70
     1
102
RTVSPropertyOp4
 70
     1
102
RTVSPropertyOp5
 70
     1
102
RTVSPropertyOp6
 70
     1
102
RTVSPropertyOp7
 70
     1
102
RTVSPropertyOp8
 70
     1
102
RTVSPropertyOp9
 70
     1
102
RTVSPropertyOp10
 70
     1
102
RTVSPropertyOp11
 70
     1
102
RTVSPropertyOp12
 70
     1
102
RTVSPropertyOp13
 70
     1
102
RTVSPropertyOp14
 70
     1
102
RTVSPropertyOp15
 70
     1
102
RTVSPropertyOp16
 70
     1
102
RTVSPropertyOp17
 70
     1
102
RTVSPropertyOp18
 70
     1
102
RTVSPropertyOp19
 70
     1
102
RTVSPropertyOp20
 70
     1
102
RTVSPropertyOp21
 70
     1
102
RTVSPropertyOp22
 70
     1
102
RTVSPropertyOp23
 70
     1
102
RTVSPropertyOp24
 70
     1
102
RTVSPropertyOp25
 70
     1
102
RTVSPropertyOp26
 70
     1
102
RTVSPropertyOp27
 70
     1
102
RTVSPropertyOp28
 70
     1
102
RTVSPropertyOp29
 70
     1
102
RTVSPropertyOp30
 70
     1
102
RTVSPropertyOp31
 70
     1
102
RTVSPropertyOp32
 70
     1
102
RTVSPropertyOp33
 70
     1
102
RTVSPropertyOp34
 70
     1
102
RTVSPropertyOp35
 70
     1
102
RTVSPropertyOp36
 70
     1
102
RTVSPropertyOp37
 70
     1
102
RTVSPropertyOp38
 70
     1
102
RTVSPropertyOp39
 70
     1
102
RTVSPropertyOp40
 70
     1
102
RTVSPropertyOp41
 70
     1
102
RTVSPropertyOp42
 70
     1
102
RTVSPropertyOp43
 70
     1
102
RTVSPropertyOp44
 70
     1
102
RTVSPropertyOp45
 70
     1
102
RTVSPropertyOp46
 70
     1
102
RTVSPropertyOp47
 70
     1
102
RTVSPropertyOp48
 70
     1
102
RTVSPropertyOp49
 70
     1
102
RTVSPropertyOp50
 70
     1
102
RTVSPropertyOp51
 70
     0
102
RTVSPropertyOp52
 70
     0
102
RTVSPropertyOp53
 70
     1
102
RTVSPropertyOp54
 70
     1
102
RTVSPropertyOp55
 70
     1
102
RTVSPropertyOp56
 70
     1
102
RTVSPropertyOp57
 70
     1
102
RTVSPropertyOp58
 70
     1
102
RTVSPropertyOp59
 70
     1
102
RTVSPropertyOp60
 70
     1
102
RTVSPropertyOp61
 70
     1
102
RTVSPropertyOp62
 70
     1
  0
ENDSEC
  0
EOF
