  0
SECTION
  2
HEADER
  9
$ACADVER
  1
AC1015
  9
$ACADMAINTVER
 70
    20
  9
$DWGCODEPAGE
  3
ANSI_1252
  9
$INSBASE
 10
0.0
 20
0.0
 30
0.0
  9
$EXTMIN
 10
-13.01679221912513
 20
-39.3732957283386
 30
0.0
  9
$EXTMAX
 10
20.98320778087487
 20
-17.37329572833858
 30
0.0
  9
$LIMMIN
 10
0.0
 20
0.0
  9
$LIMMAX
 10
12.0
 20
9.0
  9
$ORTHOMODE
 70
     0
  9
$REGENMODE
 70
     1
  9
$FILLMODE
 70
     1
  9
$QTEXTMODE
 70
     0
  9
$MIRRTEXT
 70
     1
  9
$LTSCALE
 40
0.5
  9
$ATTMODE
 70
     1
  9
$TEXTSIZE
 40
0.078
  9
$TRACEWID
 40
0.05
  9
$TEXTSTYLE
  7
SIMPLEX
  9
$CLAYER
  8
3
  9
$CELTYPE
  6
BYLAYER
  9
$CECOLOR
 62
   256
  9
$CELTSCALE
 40
1.0
  9
$DISPSILH
 70
     0
  9
$DIMSCALE
 40
2.0
  9
$DIMASZ
 40
0.125
  9
$DIMEXO
 40
0.0625
  9
$DIMDLI
 40
0.375
  9
$DIMRND
 40
0.0
  9
$DIMDLE
 40
0.0
  9
$DIMEXE
 40
0.0625
  9
$DIMTP
 40
0.0
  9
$DIMTM
 40
0.0
  9
$DIMTXT
 40
0.125
  9
$DIMCEN
 40
-0.125
  9
$DIMTSZ
 40
0.0
  9
$DIMTOL
 70
     0
  9
$DIMLIM
 70
     0
  9
$DIMTIH
 70
     1
  9
$DIMTOH
 70
     1
  9
$DIMSE1
 70
     0
  9
$DIMSE2
 70
     0
  9
$DIMTAD
 70
     0
  9
$DIMZIN
 70
     4
  9
$DIMBLK
  1

  9
$DIMASO
 70
     1
  9
$DIMSHO
 70
     0
  9
$DIMPOST
  1

  9
$DIMAPOST
  1

  9
$DIMALT
 70
     0
  9
$DIMALTD
 70
     2
  9
$DIMALTF
 40
25.4
  9
$DIMLFAC
 40
1.0
  9
$DIMTOFL
 70
     0
  9
$DIMTVP
 40
0.0
  9
$DIMTIX
 70
     0
  9
$DIMSOXD
 70
     0
  9
$DIMSAH
 70
     0
  9
$DIMBLK1
  1

  9
$DIMBLK2
  1

  9
$DIMSTYLE
  2
STANDARD
  9
$DIMCLRD
 70
     0
  9
$DIMCLRE
 70
     0
  9
$DIMCLRT
 70
     0
  9
$DIMTFAC
 40
1.0
  9
$DIMGAP
 40
0.09375
  9
$DIMJUST
 70
     0
  9
$DIMSD1
 70
     0
  9
$DIMSD2
 70
     0
  9
$DIMTOLJ
 70
     1
  9
$DIMTZIN
 70
     4
  9
$DIMALTZ
 70
     4
  9
$DIMALTTZ
 70
     4
  9
$DIMUPT
 70
     0
  9
$DIMDEC
 70
     6
  9
$DIMTDEC
 70
     6
  9
$DIMALTU
 70
     5
  9
$DIMALTTD
 70
     2
  9
$DIMTXSTY
  7
SIMPLEX
  9
$DIMAUNIT
 70
     0
  9
$DIMADEC
 70
     0
  9
$DIMALTRND
 40
0.0
  9
$DIMAZIN
 70
     0
  9
$DIMDSEP
 70
    46
  9
$DIMATFIT
 70
     3
  9
$DIMFRAC
 70
     0
  9
$DIMLDRBLK
  1

  9
$DIMLUNIT
 70
     5
  9
$DIMLWD
 70
    -2
  9
$DIMLWE
 70
    -2
  9
$DIMTMOVE
 70
     2
  9
$LUNITS
 70
     5
  9
$LUPREC
 70
     6
  9
$SKETCHINC
 40
0.1
  9
$FILLETRAD
 40
0.0
  9
$AUNITS
 70
     0
  9
$AUPREC
 70
     0
  9
$MENU
  1
ACAD
  9
$ELEVATION
 40
0.0
  9
$PELEVATION
 40
0.0
  9
$THICKNESS
 40
0.0
  9
$LIMCHECK
 70
     0
  9
$CHAMFERA
 40
0.0078
  9
$CHAMFERB
 40
0.0078
  9
$CHAMFERC
 40
0.0
  9
$CHAMFERD
 40
0.0
  9
$SKPOLY
 70
     0
  9
$TDCREATE
 40
2449051.580961806
  9
$TDUCREATE
 40
2449051.747628473
  9
$TDUPDATE
 40
2457155.485226285
  9
$TDUUPDATE
 40
2457155.651892951
  9
$TDINDWG
 40
0.6411124537
  9
$TDUSRTIMER
 40
0.6411124306
  9
$USRTIMER
 70
     1
  9
$ANGBASE
 50
0.0
  9
$ANGDIR
 70
     0
  9
$PDMODE
 70
     0
  9
$PDSIZE
 40
0.0
  9
$PLINEWID
 40
0.0
  9
$SPLFRAME
 70
     0
  9
$SPLINETYPE
 70
     6
  9
$SPLINESEGS
 70
     8
  9
$HANDSEED
  5
D8F
  9
$SURFTAB1
 70
     6
  9
$SURFTAB2
 70
     6
  9
$SURFTYPE
 70
     6
  9
$SURFU
 70
     6
  9
$SURFV
 70
     6
  9
$UCSBASE
  2

  9
$UCSNAME
  2

  9
$UCSORG
 10
0.0
 20
0.0
 30
0.0
  9
$UCSXDIR
 10
1.0
 20
0.0
 30
0.0
  9
$UCSYDIR
 10
0.0
 20
1.0
 30
0.0
  9
$UCSORTHOREF
  2

  9
$UCSORTHOVIEW
 70
     0
  9
$UCSORGTOP
 10
0.0
 20
0.0
 30
0.0
  9
$UCSORGBOTTOM
 10
0.0
 20
0.0
 30
0.0
  9
$UCSORGLEFT
 10
0.0
 20
0.0
 30
0.0
  9
$UCSORGRIGHT
 10
0.0
 20
0.0
 30
0.0
  9
$UCSORGFRONT
 10
0.0
 20
0.0
 30
0.0
  9
$UCSORGBACK
 10
0.0
 20
0.0
 30
0.0
  9
$PUCSBASE
  2

  9
$PUCSNAME
  2

  9
$PUCSORG
 10
0.0
 20
0.0
 30
0.0
  9
$PUCSXDIR
 10
1.0
 20
0.0
 30
0.0
  9
$PUCSYDIR
 10
0.0
 20
1.0
 30
0.0
  9
$PUCSORTHOREF
  2

  9
$PUCSORTHOVIEW
 70
     0
  9
$PUCSORGTOP
 10
0.0
 20
0.0
 30
0.0
  9
$PUCSORGBOTTOM
 10
0.0
 20
0.0
 30
0.0
  9
$PUCSORGLEFT
 10
0.0
 20
0.0
 30
0.0
  9
$PUCSORGRIGHT
 10
0.0
 20
0.0
 30
0.0
  9
$PUCSORGFRONT
 10
0.0
 20
0.0
 30
0.0
  9
$PUCSORGBACK
 10
0.0
 20
0.0
 30
0.0
  9
$USERI1
 70
     0
  9
$USERI2
 70
     0
  9
$USERI3
 70
     0
  9
$USERI4
 70
     0
  9
$USERI5
 70
     0
  9
$USERR1
 40
0.0
  9
$USERR2
 40
0.0
  9
$USERR3
 40
0.0
  9
$USERR4
 40
0.0
  9
$USERR5
 40
0.0
  9
$WORLDVIEW
 70
     1
  9
$SHADEDGE
 70
     3
  9
$SHADEDIF
 70
    70
  9
$TILEMODE
 70
     1
  9
$MAXACTVP
 70
    16
  9
$PINSBASE
 10
0.0
 20
0.0
 30
0.0
  9
$PLIMCHECK
 70
     0
  9
$PEXTMIN
 10
1.000000000000000E+20
 20
1.000000000000000E+20
 30
1.000000000000000E+20
  9
$PEXTMAX
 10
-1.000000000000000E+20
 20
-1.000000000000000E+20
 30
-1.000000000000000E+20
  9
$PLIMMIN
 10
0.0
 20
0.0
  9
$PLIMMAX
 10
12.0
 20
9.0
  9
$UNITMODE
 70
     0
  9
$VISRETAIN
 70
     0
  9
$PLINEGEN
 70
     0
  9
$PSLTSCALE
 70
     0
  9
$TREEDEPTH
 70
  3020
  9
$CMLSTYLE
  2
STANDARD
  9
$CMLJUST
 70
     0
  9
$CMLSCALE
 40
1.0
  9
$PROXYGRAPHICS
 70
     1
  9
$MEASUREMENT
 70
     0
  9
$CELWEIGHT
370
    -1
  9
$ENDCAPS
280
     0
  9
$JOINSTYLE
280
     0
  9
$LWDISPLAY
290
     0
  9
$INSUNITS
 70
     0
  9
$HYPERLINKBASE
  1

  9
$STYLESHEET
  1
BLACK.CTB
  9
$XEDIT
290
     1
  9
$CEPSNTYPE
380
     0
  9
$PSTYLEMODE
290
     1
  9
$FINGERPRINTGUID
  2
{57B5A186-7EE9-40B8-93CE-32341477D7A7}
  9
$VERSIONGUID
  2
{8439F464-CCEB-4422-97E7-43186744049A}
  9
$EXTNAMES
290
     1
  9
$PSVPSCALE
 40
0.0
  9
$OLESTARTUP
290
     0
  0
ENDSEC
  0
SECTION
  2
CLASSES
  0
CLASS
  1
DICTIONARYVAR
  2
AcDbDictionaryVar
  3
ObjectDBX Classes
 90
        0
280
     0
281
     0
  0
CLASS
  1
ACDBDICTIONARYWDFLT
  2
AcDbDictionaryWithDefault
  3
ObjectDBX Classes
 90
        0
280
     0
281
     0
  0
CLASS
  1
MATERIAL
  2
AcDbMaterial
  3
ObjectDBX Classes
 90
     1153
280
     0
281
     0
  0
CLASS
  1
VISUALSTYLE
  2
AcDbVisualStyle
  3
ObjectDBX Classes
 90
     4095
280
     0
281
     0
  0
CLASS
  1
TABLESTYLE
  2
AcDbTableStyle
  3
ObjectDBX Classes
 90
     4095
280
     0
281
     0
  0
CLASS
  1
SCALE
  2
AcDbScale
  3
ObjectDBX Classes
 90
     1153
280
     0
281
     0
  0
CLASS
  1
MLEADERSTYLE
  2
AcDbMLeaderStyle
  3
ACDB_MLEADERSTYLE_CLASS
 90
     4095
280
     0
281
     0
  0
CLASS
  1
ACDBSECTIONVIEWSTYLE
  2
AcDbSectionViewStyle
  3
ObjectDBX Classes
 90
     1025
280
     0
281
     0
  0
CLASS
  1
ACDBDETAILVIEWSTYLE
  2
AcDbDetailViewStyle
  3
ObjectDBX Classes
 90
     1025
280
     0
281
     0
  0
CLASS
  1
CELLSTYLEMAP
  2
AcDbCellStyleMap
  3
ObjectDBX Classes
 90
     1152
280
     0
281
     0
  0
CLASS
  1
ACDBPLACEHOLDER
  2
AcDbPlaceHolder
  3
ObjectDBX Classes
 90
        0
280
     0
281
     0
  0
CLASS
  1
LAYOUT
  2
AcDbLayout
  3
ObjectDBX Classes
 90
        0
280
     0
281
     0
  0
ENDSEC
  0
SECTION
  2
TABLES
  0
TABLE
  2
VPORT
  5
8
330
0
100
AcDbSymbolTable
 70
     1
  0
VPORT
  5
C0A
330
8
100
AcDbSymbolTableRecord
100
AcDbViewportTableRecord
  2
*Active
 70
     0
 10
0.0
 20
0.0
 11
1.0
 21
1.0
 12
3.9832080183766
 22
-27.56245552455657
 13
0.0
 23
0.0
 14
1.0
 24
1.0
 15
0.0
 25
0.0
 16
0.0
 26
0.0
 36
1.0
 17
0.0
 27
0.0
 37
0.0
 40
22.9680456684133
 41
2.080545229244113
 42
50.0
 43
0.0
 44
0.0
 50
0.0
 51
0.0
 71
     0
 72
   250
 73
     1
 74
     0
 75
     0
 76
     0
 77
     0
 78
     0
281
     0
 65
     1
110
0.0
120
0.0
130
0.0
111
1.0
121
0.0
131
0.0
112
0.0
122
1.0
132
0.0
 79
     0
146
0.0
1001
ACAD_NAV_VCDISPLAY
1070
     3
  0
ENDTAB
  0
TABLE
  2
LTYPE
  5
5
330
0
100
AcDbSymbolTable
 70
     5
  0
LTYPE
  5
11
330
5
100
AcDbSymbolTableRecord
100
AcDbLinetypeTableRecord
  2
BYBLOCK
 70
     0
  3

 72
    65
 73
     0
 40
0.0
  0
LTYPE
  5
12
330
5
100
AcDbSymbolTableRecord
100
AcDbLinetypeTableRecord
  2
BYLAYER
 70
     0
  3

 72
    65
 73
     0
 40
0.0
  0
LTYPE
  5
13
330
5
100
AcDbSymbolTableRecord
100
AcDbLinetypeTableRecord
  2
CONTINUOUS
 70
     0
  3
Solid line
 72
    65
 73
     0
 40
0.0
  0
LTYPE
  5
2A
330
5
100
AcDbSymbolTableRecord
100
AcDbLinetypeTableRecord
  2
CENTER
 70
     0
  3
____ _ ____ _ ____ _ ____ _ ____ _ ____ _ ____ 
 72
    65
 73
     4
 40
2.0
 49
1.25
 74
     0
 49
-0.25
 74
     0
 49
0.25
 74
     0
 49
-0.25
 74
     0
  0
LTYPE
  5
2B
330
5
100
AcDbSymbolTableRecord
100
AcDbLinetypeTableRecord
  2
HIDDEN
 70
     0
  3
__ __ __ __ __ __ __ __ __ __ __ __ __ __ __ __
 72
    65
 73
     2
 40
0.375
 49
0.25
 74
     0
 49
-0.125
 74
     0
  0
LTYPE
  5
2C
330
5
100
AcDbSymbolTableRecord
100
AcDbLinetypeTableRecord
  2
DASHED
 70
     0
  3
__ __ __ __ __ __ __ __ __ __ __ __ __ __ __
 72
    65
 73
     2
 40
0.75
 49
0.5
 74
     0
 49
-0.25
 74
     0
  0
LTYPE
  5
2D
330
5
100
AcDbSymbolTableRecord
100
AcDbLinetypeTableRecord
  2
PHANTOM
 70
     0
  3
______  __  __  ______  __  __  ______  __  __ 
 72
    65
 73
     6
 40
2.5
 49
1.25
 74
     0
 49
-0.25
 74
     0
 49
0.25
 74
     0
 49
-0.25
 74
     0
 49
0.25
 74
     0
 49
-0.25
 74
     0
  0
ENDTAB
  0
TABLE
  2
LAYER
  5
2
102
{ACAD_XDICTIONARY
360
C79
102
}
330
0
100
AcDbSymbolTable
 70
     6
  0
LAYER
  5
E
102
{ACAD_XDICTIONARY
360
C6C
102
}
330
2
100
AcDbSymbolTableRecord
100
AcDbLayerTableRecord
  2
0
 70
     0
 62
     7
  6
CONTINUOUS
370
    -3
390
BD7
  0
LAYER
  5
30
102
{ACAD_XDICTIONARY
360
C6E
102
}
330
2
100
AcDbSymbolTableRecord
100
AcDbLayerTableRecord
  2
2
 70
     0
 62
     2
  6
CONTINUOUS
370
    -3
390
BD7
  0
LAYER
  5
31
102
{ACAD_XDICTIONARY
360
C70
102
}
330
2
100
AcDbSymbolTableRecord
100
AcDbLayerTableRecord
  2
3
 70
     0
 62
     3
  6
CONTINUOUS
370
    -3
390
BD7
  0
LAYER
  5
32
102
{ACAD_XDICTIONARY
360
C72
102
}
330
2
100
AcDbSymbolTableRecord
100
AcDbLayerTableRecord
  2
4
 70
     0
 62
     4
  6
CONTINUOUS
370
    -3
390
BD7
  0
LAYER
  5
33
330
2
100
AcDbSymbolTableRecord
100
AcDbLayerTableRecord
  2
DEFPOINTS
 70
     0
 62
    -7
  6
CONTINUOUS
290
     0
370
    -3
390
BD7
  0
LAYER
  5
34
102
{ACAD_XDICTIONARY
360
C74
102
}
330
2
100
AcDbSymbolTableRecord
100
AcDbLayerTableRecord
  2
5
 70
     0
 62
     1
  6
CONTINUOUS
370
    -3
390
BD7
  0
ENDTAB
  0
TABLE
  2
STYLE
  5
3
330
0
100
AcDbSymbolTable
 70
     6
  0
STYLE
  5
F
330
3
100
AcDbSymbolTableRecord
100
AcDbTextStyleTableRecord
  2
STANDARD
 70
     0
 40
0.0
 41
1.0
 50
0.0
 71
     0
 42
0.2
  3
txt
  4

  0
STYLE
  5
23
330
3
100
AcDbSymbolTableRecord
100
AcDbTextStyleTableRecord
  2
SIMPLEX
 70
     0
 40
0.0
 41
1.0
 50
0.0
 71
     0
 42
0.078
  3
SIMPLEX.shx
  4

  0
STYLE
  5
24
330
3
100
AcDbSymbolTableRecord
100
AcDbTextStyleTableRecord
  2
T
 70
     0
 40
0.0
 41
1.0
 50
0.0
 71
     0
 42
1.0
  3
ROMI____.PFB
  4

  0
STYLE
  5
25
330
3
100
AcDbSymbolTableRecord
100
AcDbTextStyleTableRecord
  2
XSMALL
 70
     0
 40
0.062
 41
1.0
 50
0.0
 71
     0
 42
0.062
  3
ROMANS
  4

  0
STYLE
  5
26
330
3
100
AcDbSymbolTableRecord
100
AcDbTextStyleTableRecord
  2
ROMANS
 70
     0
 40
0.0
 41
1.0
 50
0.0
 71
     0
 42
0.125
  3
romans
  4

  0
STYLE
  5
29
330
3
100
AcDbSymbolTableRecord
100
AcDbTextStyleTableRecord
  2
MED
 70
     0
 40
0.25
 41
1.0
 50
0.0
 71
     0
 42
0.25
  3
ROMANS
  4

  0
ENDTAB
  0
TABLE
  2
VIEW
  5
6
330
0
100
AcDbSymbolTable
 70
     0
  0
ENDTAB
  0
TABLE
  2
UCS
  5
7
330
0
100
AcDbSymbolTable
 70
     0
  0
ENDTAB
  0
TABLE
  2
APPID
  5
9
330
0
100
AcDbSymbolTable
 70
     3
  0
APPID
  5
10
330
9
100
AcDbSymbolTableRecord
100
AcDbRegAppTableRecord
  2
ACAD
 70
     0
  0
APPID
  5
C7F
330
9
100
AcDbSymbolTableRecord
100
AcDbRegAppTableRecord
  2
ACAD_NAV_VCDISPLAY
 70
     0
  0
APPID
  5
D8A
330
9
100
AcDbSymbolTableRecord
100
AcDbRegAppTableRecord
  2
ACAD_MLEADERVER
 70
     0
  0
ENDTAB
  0
TABLE
  2
DIMSTYLE
  5
A
330
0
100
AcDbSymbolTable
 70
     1
100
AcDbDimStyleTable
 71
     1
340
BD2
  0
DIMSTYLE
105
BD2
102
{ACAD_REACTORS
330
C5E
102
}
330
A
100
AcDbSymbolTableRecord
100
AcDbDimStyleTableRecord
  2
STANDARD
 70
     0
340
F
  0
ENDTAB
  0
TABLE
  2
BLOCK_RECORD
  5
1
330
0
100
AcDbSymbolTable
 70
     5
  0
BLOCK_RECORD
  5
17
330
1
100
AcDbSymbolTableRecord
100
AcDbBlockTableRecord
  2
*MODEL_SPACE
340
BDA
  0
BLOCK_RECORD
  5
14
330
1
100
AcDbSymbolTableRecord
100
AcDbBlockTableRecord
  2
*PAPER_SPACE
340
BDB
  0
BLOCK_RECORD
  5
1F
330
1
100
AcDbSymbolTableRecord
100
AcDbBlockTableRecord
  2
*D0
340
0
  0
BLOCK_RECORD
  5
20
330
1
100
AcDbSymbolTableRecord
100
AcDbBlockTableRecord
  2
*D1
340
0
  0
BLOCK_RECORD
  5
22
330
1
100
AcDbSymbolTableRecord
100
AcDbBlockTableRecord
  2
*D2
340
0
  0
BLOCK_RECORD
  5
BF0
330
1
100
AcDbSymbolTableRecord
100
AcDbBlockTableRecord
  2
*D3
340
0
  0
BLOCK_RECORD
  5
C5F
330
1
100
AcDbSymbolTableRecord
100
AcDbBlockTableRecord
  2
*D4
340
0
  0
ENDTAB
  0
ENDSEC
  0
SECTION
  2
BLOCKS
  0
BLOCK
  5
37
330
17
100
AcDbEntity
  8
0
100
AcDbBlockBegin
  2
*MODEL_SPACE
 70
     0
 10
0.0
 20
0.0
 30
0.0
  3
*MODEL_SPACE
  1

  0
ENDBLK
  5
38
330
17
100
AcDbEntity
  8
0
100
AcDbBlockEnd
  0
BLOCK
  5
35
330
14
100
AcDbEntity
 67
     1
  8
0
100
AcDbBlockBegin
  2
*PAPER_SPACE
 70
     0
 10
0.0
 20
0.0
 30
0.0
  3
*PAPER_SPACE
  1

  0
ENDBLK
  5
36
330
14
100
AcDbEntity
 67
     1
  8
0
100
AcDbBlockEnd
  0
BLOCK
  5
60
330
1F
100
AcDbEntity
  8
0
100
AcDbBlockBegin
  2
*D0
 70
     1
 10
0.0
 20
0.0
 30
0.0
  3
*D0
  1

  0
LINE
  5
61
330
1F
100
AcDbEntity
  8
0
  6
ByBlock
 62
     0
100
AcDbLine
 10
-5.726011093457113
 20
-30.62319146229516
 30
0.0
 11
-5.726011093457113
 21
-29.65249100639143
 31
0.0
  0
LINE
  5
62
330
1F
100
AcDbEntity
  8
0
  6
ByBlock
 62
     0
100
AcDbLine
 10
6.742738906542887
 20
-30.62319146229516
 30
0.0
 11
6.742738906542887
 21
-29.65249100639143
 31
0.0
  0
LINE
  5
63
330
1F
100
AcDbEntity
  8
0
  6
ByBlock
 62
     0
100
AcDbLine
 10
-5.476011093457113
 20
-29.77749100639143
 30
0.0
 11
-0.5541360934571129
 21
-29.77749100639143
 31
0.0
  0
LINE
  5
64
330
1F
100
AcDbEntity
  8
0
  6
ByBlock
 62
     0
100
AcDbLine
 10
6.492738906542887
 20
-29.77749100639143
 30
0.0
 11
1.570863906542887
 21
-29.77749100639143
 31
0.0
  0
SOLID
  5
65
330
1F
100
AcDbEntity
  8
0
  6
ByBlock
 62
     0
100
AcDbTrace
 10
-5.476011093457113
 20
-29.73582433972477
 30
0.0
 11
-5.476011093457113
 21
-29.8191576730581
 31
0.0
 12
-5.726011093457113
 22
-29.77749100639143
 32
0.0
 13
-5.726011093457113
 23
-29.77749100639143
 33
0.0
  0
SOLID
  5
66
330
1F
100
AcDbEntity
  8
0
  6
ByBlock
 62
     0
100
AcDbTrace
 10
6.492738906542887
 20
-29.73582433972477
 30
0.0
 11
6.492738906542887
 21
-29.8191576730581
 31
0.0
 12
6.742738906542887
 22
-29.77749100639143
 32
0.0
 13
6.742738906542887
 23
-29.77749100639143
 33
0.0
  0
TEXT
  5
67
330
1F
100
AcDbEntity
  8
0
  6
ByBlock
 62
     0
100
AcDbText
 10
-0.3666360934571128
 20
-29.90249100639143
 30
0.0
 40
0.25
  1
12 15/32
  7
SIMPLEX
 72
     1
 11
0.5083639065428871
 21
-29.77749100639143
 31
0.0
100
AcDbText
 73
     2
  0
POINT
  5
68
330
1F
100
AcDbEntity
  8
DEFPOINTS
  6
ByBlock
 62
     0
100
AcDbPoint
 10
-5.726011093457113
 20
-30.74819146229516
 30
0.0
  0
POINT
  5
69
330
1F
100
AcDbEntity
  8
DEFPOINTS
  6
ByBlock
 62
     0
100
AcDbPoint
 10
6.742738906542887
 20
-30.74819146229516
 30
0.0
  0
POINT
  5
6A
330
1F
100
AcDbEntity
  8
DEFPOINTS
  6
ByBlock
 62
     0
100
AcDbPoint
 10
6.742738906542887
 20
-29.77749100639143
 30
0.0
  0
ENDBLK
  5
6B
330
1F
100
AcDbEntity
  8
0
100
AcDbBlockEnd
  0
BLOCK
  5
6C
330
20
100
AcDbEntity
  8
0
100
AcDbBlockBegin
  2
*D1
 70
     1
 10
0.0
 20
0.0
 30
0.0
  3
*D1
  1

  0
LINE
  5
6D
330
20
100
AcDbEntity
  8
0
  6
ByBlock
 62
     0
100
AcDbLine
 10
8.924774493945703
 20
-30.62319146229516
 30
0.0
 11
8.924774493945703
 21
-29.65551229900679
 31
0.0
  0
LINE
  5
6E
330
20
100
AcDbEntity
  8
0
  6
ByBlock
 62
     0
100
AcDbLine
 10
14.36227449394571
 20
-30.62319146229516
 30
0.0
 11
14.36227449394571
 21
-29.65551229900679
 31
0.0
  0
LINE
  5
6F
330
20
100
AcDbEntity
  8
0
  6
ByBlock
 62
     0
100
AcDbLine
 10
9.174774493945703
 20
-29.78051229900679
 30
0.0
 11
10.8012625891838
 21
-29.78051229900679
 31
0.0
  0
LINE
  5
70
330
20
100
AcDbEntity
  8
0
  6
ByBlock
 62
     0
100
AcDbLine
 10
14.11227449394571
 20
-29.78051229900679
 30
0.0
 11
12.48578639870761
 21
-29.78051229900679
 31
0.0
  0
SOLID
  5
71
330
20
100
AcDbEntity
  8
0
  6
ByBlock
 62
     0
100
AcDbTrace
 10
9.174774493945703
 20
-29.73884563234012
 30
0.0
 11
9.174774493945703
 21
-29.82217896567346
 31
0.0
 12
8.924774493945703
 22
-29.78051229900679
 32
0.0
 13
8.924774493945703
 23
-29.78051229900679
 33
0.0
  0
SOLID
  5
72
330
20
100
AcDbEntity
  8
0
  6
ByBlock
 62
     0
100
AcDbTrace
 10
14.11227449394571
 20
-29.73884563234012
 30
0.0
 11
14.11227449394571
 21
-29.82217896567346
 31
0.0
 12
14.36227449394571
 22
-29.78051229900679
 32
0.0
 13
14.36227449394571
 23
-29.78051229900679
 33
0.0
  0
TEXT
  5
73
330
20
100
AcDbEntity
  8
0
  6
ByBlock
 62
     0
100
AcDbText
 10
10.9887625891838
 20
-29.90551229900679
 30
0.0
 40
0.25
  1
5 7/16
  7
SIMPLEX
 72
     1
 11
11.64352449394571
 21
-29.78051229900679
 31
0.0
100
AcDbText
 73
     2
  0
POINT
  5
74
330
20
100
AcDbEntity
  8
DEFPOINTS
  6
ByBlock
 62
     0
100
AcDbPoint
 10
8.924774493945703
 20
-30.74819146229516
 30
0.0
  0
POINT
  5
75
330
20
100
AcDbEntity
  8
DEFPOINTS
  6
ByBlock
 62
     0
100
AcDbPoint
 10
14.36227449394571
 20
-30.74819146229516
 30
0.0
  0
POINT
  5
76
330
20
100
AcDbEntity
  8
DEFPOINTS
  6
ByBlock
 62
     0
100
AcDbPoint
 10
14.36227449394571
 20
-29.78051229900679
 30
0.0
  0
ENDBLK
  5
77
330
20
100
AcDbEntity
  8
0
100
AcDbBlockEnd
  0
BLOCK
  5
84
330
22
100
AcDbEntity
  8
0
100
AcDbBlockBegin
  2
*D2
 70
     1
 10
0.0
 20
0.0
 30
0.0
  3
*D2
  1

  0
LINE
  5
85
330
22
100
AcDbEntity
  8
0
  6
ByBlock
 62
     0
100
AcDbLine
 10
6.867738906542887
 20
-30.74819146229516
 30
0.0
 11
8.075283269318317
 21
-30.74819146229516
 31
0.0
  0
LINE
  5
86
330
22
100
AcDbEntity
  8
0
  6
ByBlock
 62
     0
100
AcDbLine
 10
6.867738906542882
 20
-32.37319146229516
 30
0.0
 11
8.075283269318317
 21
-32.37319146229516
 31
0.0
  0
LINE
  5
87
330
22
100
AcDbEntity
  8
0
  6
ByBlock
 62
     0
100
AcDbLine
 10
7.950283269318315
 20
-30.99819146229516
 30
0.0
 11
7.950283269318315
 21
-31.24819146229516
 31
0.0
  0
LINE
  5
88
330
22
100
AcDbEntity
  8
0
  6
ByBlock
 62
     0
100
AcDbLine
 10
7.950283269318315
 20
-32.12319146229516
 30
0.0
 11
7.950283269318315
 21
-31.87319146229516
 31
0.0
  0
SOLID
  5
89
330
22
100
AcDbEntity
  8
0
  6
ByBlock
 62
     0
100
AcDbTrace
 10
7.90861660265165
 20
-30.99819146229516
 30
0.0
 11
7.991949935984981
 21
-30.99819146229516
 31
0.0
 12
7.950283269318315
 22
-30.74819146229516
 32
0.0
 13
7.950283269318315
 23
-30.74819146229516
 33
0.0
  0
SOLID
  5
8A
330
22
100
AcDbEntity
  8
0
  6
ByBlock
 62
     0
100
AcDbTrace
 10
7.90861660265165
 20
-32.12319146229516
 30
0.0
 11
7.991949935984981
 21
-32.12319146229516
 31
0.0
 12
7.950283269318315
 22
-32.37319146229516
 32
0.0
 13
7.950283269318315
 23
-32.37319146229516
 33
0.0
  0
TEXT
  5
8B
330
22
100
AcDbEntity
  8
0
  6
ByBlock
 62
     0
100
AcDbText
 10
7.408616602651648
 20
-31.68569146229516
 30
0.0
 40
0.25
  1
1 5/8
  7
SIMPLEX
 72
     1
 11
7.950283269318315
 21
-31.56069146229516
 31
0.0
100
AcDbText
 73
     2
  0
POINT
  5
8C
330
22
100
AcDbEntity
  8
DEFPOINTS
  6
ByBlock
 62
     0
100
AcDbPoint
 10
6.742738906542887
 20
-30.74819146229516
 30
0.0
  0
POINT
  5
8D
330
22
100
AcDbEntity
  8
DEFPOINTS
  6
ByBlock
 62
     0
100
AcDbPoint
 10
6.742738906542882
 20
-32.37319146229516
 30
0.0
  0
POINT
  5
8E
330
22
100
AcDbEntity
  8
DEFPOINTS
  6
ByBlock
 62
     0
100
AcDbPoint
 10
7.950283269318315
 20
-32.37319146229516
 30
0.0
  0
ENDBLK
  5
8F
330
22
100
AcDbEntity
  8
0
100
AcDbBlockEnd
  0
BLOCK
  5
BFB
330
BF0
100
AcDbEntity
  8
0
100
AcDbBlockBegin
  2
*D3
 70
     1
 10
0.0
 20
0.0
 30
0.0
  3
*D3
  1

  0
LINE
  5
BF1
330
BF0
100
AcDbEntity
  8
3
 62
     0
370
    -2
100
AcDbLine
 10
0.4927389065428838
 20
-26.13583001325458
 30
0.0
 11
0.4927389065428838
 21
-26.38697387324829
 31
0.0
  0
LINE
  5
BF2
330
BF0
100
AcDbEntity
  8
3
 62
     0
370
    -2
100
AcDbLine
 10
6.492738906542886
 20
-26.13583001325458
 30
0.0
 11
6.492738906542886
 21
-26.38697387324829
 31
0.0
  0
LINE
  5
BF3
330
BF0
100
AcDbEntity
  8
3
 62
     0
370
    -2
100
AcDbLine
 10
0.7427389065428836
 20
-26.26197387324829
 30
0.0
 11
3.227857954161931
 21
-26.26197387324829
 31
0.0
  0
LINE
  5
BF4
330
BF0
100
AcDbEntity
  8
3
 62
     0
370
    -2
100
AcDbLine
 10
6.242738906542886
 20
-26.26197387324829
 30
0.0
 11
3.757619858923836
 21
-26.26197387324829
 31
0.0
  0
SOLID
  5
BF5
330
BF0
100
AcDbEntity
  8
3
 62
     0
100
AcDbTrace
 10
0.7427389065428836
 20
-26.22030720658162
 30
0.0
 11
0.7427389065428836
 21
-26.30364053991496
 31
0.0
 12
0.4927389065428838
 22
-26.26197387324829
 32
0.0
 13
0.4927389065428838
 23
-26.26197387324829
 33
0.0
  0
SOLID
  5
BF6
330
BF0
100
AcDbEntity
  8
3
 62
     0
100
AcDbTrace
 10
6.242738906542886
 20
-26.22030720658162
 30
0.0
 11
6.242738906542886
 21
-26.30364053991496
 31
0.0
 12
6.492738906542886
 22
-26.26197387324829
 32
0.0
 13
6.492738906542886
 23
-26.26197387324829
 33
0.0
  0
MTEXT
  5
BF7
330
BF0
100
AcDbEntity
  8
3
 62
     0
100
AcDbMText
 10
3.492738906542883
 20
-26.26197387324829
 30
0.0
 40
0.25
 41
0.0
 71
     5
 72
     1
  1
\A1;6
  7
SIMPLEX
 73
     1
 44
1.0
1001
ACAD
1000
MTEXTBEGIN
1070
    73
1070
     1
1070
    44
1040
1.0
1070
    74
1070
     0
1000
MTEXTEND
  0
POINT
  5
BF8
330
BF0
100
AcDbEntity
  8
DEFPOINTS
 62
     0
100
AcDbPoint
 10
0.4927389065428838
 20
-26.01083001325458
 30
0.0
  0
POINT
  5
BF9
330
BF0
100
AcDbEntity
  8
DEFPOINTS
 62
     0
100
AcDbPoint
 10
6.492738906542886
 20
-26.01083001325458
 30
0.0
  0
POINT
  5
BFA
330
BF0
100
AcDbEntity
  8
DEFPOINTS
 62
     0
100
AcDbPoint
 10
6.492738906542886
 20
-26.26197387324829
 30
0.0
  0
ENDBLK
  5
BFC
330
BF0
100
AcDbEntity
  8
0
100
AcDbBlockEnd
  0
BLOCK
  5
C60
330
C5F
100
AcDbEntity
  8
0
100
AcDbBlockBegin
  2
*D4
 70
     1
 10
0.0
 20
0.0
 30
0.0
  3
*D4
  1

  0
LINE
  5
C62
330
C5F
100
AcDbEntity
  8
3
 62
     0
370
    -2
100
AcDbLine
 10
6.617738906542887
 20
-27.97889590614455
 30
0.0
 11
8.172705926856451
 21
-27.97889590614455
 31
0.0
  0
LINE
  5
C63
330
C5F
100
AcDbEntity
  8
3
 62
     0
370
    -2
100
AcDbLine
 10
6.617738906542886
 20
-22.54139590614455
 30
0.0
 11
8.172705926856451
 21
-22.54139590614455
 31
0.0
  0
LINE
  5
C64
330
C5F
100
AcDbEntity
  8
3
 62
     0
370
    -2
100
AcDbLine
 10
8.047705926856451
 20
-27.72889590614455
 30
0.0
 11
8.047705926856451
 21
-25.73931257281122
 31
0.0
  0
LINE
  5
C65
330
C5F
100
AcDbEntity
  8
3
 62
     0
370
    -2
100
AcDbLine
 10
8.047705926856451
 20
-22.79139590614455
 30
0.0
 11
8.047705926856451
 21
-24.78097923947788
 31
0.0
  0
SOLID
  5
C66
330
C5F
100
AcDbEntity
  8
3
 62
     0
100
AcDbTrace
 10
8.006039260189785
 20
-27.72889590614455
 30
0.0
 11
8.089372593523117
 21
-27.72889590614455
 31
0.0
 12
8.047705926856451
 22
-27.97889590614455
 32
0.0
 13
8.047705926856451
 23
-27.97889590614455
 33
0.0
  0
SOLID
  5
C67
330
C5F
100
AcDbEntity
  8
3
 62
     0
100
AcDbTrace
 10
8.006039260189785
 20
-22.79139590614455
 30
0.0
 11
8.089372593523117
 21
-22.79139590614455
 31
0.0
 12
8.047705926856451
 22
-22.54139590614455
 32
0.0
 13
8.047705926856451
 23
-22.54139590614455
 33
0.0
  0
MTEXT
  5
C68
330
C5F
100
AcDbEntity
  8
3
 62
     0
100
AcDbMText
 10
8.047705926856455
 20
-25.26014590614455
 30
0.0
 40
0.25
 41
0.0
 71
     5
 72
     1
  1
\A1;5{\H1.000000x;\S7/16;}
  7
SIMPLEX
 73
     1
 44
1.0
1001
ACAD
1000
MTEXTBEGIN
1070
    73
1070
     1
1070
    44
1040
1.0
1070
    74
1070
     0
1000
MTEXTEND
  0
POINT
  5
C69
330
C5F
100
AcDbEntity
  8
DEFPOINTS
 62
     0
100
AcDbPoint
 10
6.492738906542887
 20
-27.97889590614455
 30
0.0
  0
POINT
  5
C6A
330
C5F
100
AcDbEntity
  8
DEFPOINTS
 62
     0
100
AcDbPoint
 10
6.492738906542886
 20
-22.54139590614455
 30
0.0
  0
POINT
  5
C6B
330
C5F
100
AcDbEntity
  8
DEFPOINTS
 62
     0
100
AcDbPoint
 10
8.047705926856451
 20
-22.54139590614455
 30
0.0
  0
ENDBLK
  5
C61
330
C5F
100
AcDbEntity
  8
0
100
AcDbBlockEnd
  0
ENDSEC
  0
SECTION
  2
ENTITIES
  0
CIRCLE
  5
90
330
17
100
AcDbEntity
  8
0
100
AcDbCircle
 10
0.4927389065428838
 20
-25.26014590614455
 30
0.0
 40
0.5
  0
LINE
  5
91
330
17
100
AcDbEntity
  8
0
100
AcDbLine
 10
6.523988906542887
 20
-22.76014590614455
 30
0.0
 11
6.523988906542887
 21
-27.76014590614455
 31
0.0
  0
LINE
  5
92
330
17
100
AcDbEntity
  8
0
100
AcDbLine
 10
-5.319761093457115
 20
-22.76014590614455
 30
0.0
 11
6.305238906542886
 21
-22.76014590614455
 31
0.0
  0
LINE
  5
93
330
17
100
AcDbEntity
  8
0
100
AcDbLine
 10
6.492738906542886
 20
-22.94764590614454
 30
0.0
 11
6.492738906542886
 21
-27.57264590614455
 31
0.0
  0
ARC
  5
94
330
17
100
AcDbEntity
  8
0
100
AcDbCircle
 10
6.305238906542886
 20
-22.94764590614454
 30
0.0
 40
0.1875
100
AcDbArc
 50
0.0
 51
90.0
  0
ARC
  5
95
330
17
100
AcDbEntity
  8
0
100
AcDbCircle
 10
6.336488906542886
 20
-22.91639590614455
 30
0.0
 40
0.1875
100
AcDbArc
 50
0.0
 51
90.0
  0
ARC
  5
96
330
17
100
AcDbEntity
  8
0
100
AcDbCircle
 10
6.305238906542886
 20
-27.57264590614455
 30
0.0
 40
0.1875
100
AcDbArc
 50
270.0
 51
0.000000000000017
  0
ARC
  5
97
330
17
100
AcDbEntity
  8
0
100
AcDbCircle
 10
6.336488906542887
 20
-27.60389590614455
 30
0.0
 40
0.1875
100
AcDbArc
 50
270.0
 51
0.0000000000000127
  0
LINE
  5
98
330
17
100
AcDbEntity
  8
0
100
AcDbLine
 10
-5.319761093457115
 20
-27.76014590614455
 30
0.0
 11
6.305238906542886
 21
-27.76014590614455
 31
0.0
  0
LINE
  5
99
330
17
100
AcDbEntity
  8
0
100
AcDbLine
 10
6.492738906542886
 20
-22.54139590614455
 30
0.0
 11
6.492738906542887
 21
-22.72889590614454
 31
0.0
  0
LINE
  5
9A
330
17
100
AcDbEntity
  8
0
100
AcDbLine
 10
6.523988906542887
 20
-27.76014590614455
 30
0.0
 11
6.711488906542886
 21
-27.76014590614455
 31
0.0
  0
LINE
  5
9B
330
17
100
AcDbEntity
  8
0
100
AcDbLine
 10
6.492738906542887
 20
-27.79139590614455
 30
0.0
 11
6.492738906542887
 21
-27.97889590614455
 31
0.0
  0
LINE
  5
9C
330
17
100
AcDbEntity
  8
0
100
AcDbLine
 10
6.492738906542887
 20
-22.94764590614454
 30
0.0
 11
6.492738906542887
 21
-27.57264590614455
 31
0.0
  0
LINE
  5
9D
330
17
100
AcDbEntity
  8
0
100
AcDbLine
 10
6.523988906542887
 20
-22.76014590614455
 30
0.0
 11
6.711488906542886
 21
-22.76014590614455
 31
0.0
  0
LINE
  5
9E
330
17
100
AcDbEntity
  8
0
100
AcDbLine
 10
-5.507261093457113
 20
-22.94764590614454
 30
0.0
 11
-5.507261093457113
 21
-27.57264590614455
 31
0.0
  0
ARC
  5
9F
330
17
100
AcDbEntity
  8
0
100
AcDbCircle
 10
-5.319761093457115
 20
-22.94764590614454
 30
0.0
 40
0.1875
100
AcDbArc
 50
89.99999999999998
 51
180.0
  0
LINE
  5
A0
330
17
100
AcDbEntity
  8
0
100
AcDbLine
 10
-5.507261093457113
 20
-22.72889590614454
 30
0.0
 11
6.492738906542887
 21
-22.72889590614454
 31
0.0
  0
LINE
  5
A1
330
17
100
AcDbEntity
  8
0
100
AcDbLine
 10
-5.538511093457113
 20
-22.76014590614455
 30
0.0
 11
-5.538511093457113
 21
-27.76014590614455
 31
0.0
  0
ARC
  5
A2
330
17
100
AcDbEntity
  8
0
100
AcDbCircle
 10
-5.319761093457115
 20
-22.94764590614454
 30
0.0
 40
0.21875
100
AcDbArc
 50
89.99999999999998
 51
180.0
  0
LINE
  5
A3
330
17
100
AcDbEntity
  8
0
100
AcDbLine
 10
-5.726011093457113
 20
-22.76014590614455
 30
0.0
 11
-5.538511093457113
 21
-22.76014590614455
 31
0.0
  0
LINE
  5
A4
330
17
100
AcDbEntity
  8
0
100
AcDbLine
 10
-5.507261093457113
 20
-22.54139590614455
 30
0.0
 11
-5.507261093457113
 21
-22.72889590614454
 31
0.0
  0
ARC
  5
A5
330
17
100
AcDbEntity
  8
0
100
AcDbCircle
 10
-5.319761093457115
 20
-27.57264590614455
 30
0.0
 40
0.1875
100
AcDbArc
 50
180.0
 51
270.0
  0
ARC
  5
A6
330
17
100
AcDbEntity
  8
0
100
AcDbCircle
 10
-5.319761093457115
 20
-27.57264590614455
 30
0.0
 40
0.21875
100
AcDbArc
 50
180.0
 51
270.0
  0
LINE
  5
A7
330
17
100
AcDbEntity
  8
0
100
AcDbLine
 10
-5.507261093457113
 20
-27.79139590614455
 30
0.0
 11
6.492738906542887
 21
-27.79139590614455
 31
0.0
  0
LINE
  5
A8
330
17
100
AcDbEntity
  8
0
100
AcDbLine
 10
-5.726011093457113
 20
-27.76014590614455
 30
0.0
 11
-5.538511093457113
 21
-27.76014590614455
 31
0.0
  0
LINE
  5
A9
330
17
100
AcDbEntity
  8
0
100
AcDbLine
 10
-5.507261093457113
 20
-27.79139590614455
 30
0.0
 11
-5.507261093457113
 21
-27.97889590614455
 31
0.0
  0
LINE
  5
AA
330
17
100
AcDbEntity
  8
0
100
AcDbLine
 10
-5.726011093457113
 20
-32.37319146229516
 30
0.0
 11
6.742738906542882
 21
-32.37319146229516
 31
0.0
  0
LINE
  5
AB
330
17
100
AcDbEntity
  8
0
100
AcDbLine
 10
6.742738906542886
 20
-31.99819146229516
 30
0.0
 11
6.742738906542882
 21
-32.37319146229516
 31
0.0
  0
LINE
  5
AC
330
17
100
AcDbEntity
  8
0
100
AcDbLine
 10
6.492738906542887
 20
-31.99819146229516
 30
0.0
 11
6.492738906542887
 21
-32.37319146229516
 31
0.0
  0
LINE
  5
AD
330
17
100
AcDbEntity
  8
0
100
AcDbLine
 10
6.523988906542887
 20
-31.87319146229516
 30
0.0
 11
6.523988906542887
 21
-32.62319146229516
 31
0.0
  0
LINE
  5
AE
330
17
100
AcDbEntity
  8
0
100
AcDbLine
 10
-5.507261093457113
 20
-30.74819146229516
 30
0.0
 11
-5.507261093457113
 21
-31.12319146229516
 31
0.0
  0
LINE
  5
AF
330
17
100
AcDbEntity
  8
0
100
AcDbLine
 10
-5.726011093457113
 20
-31.99819146229516
 30
0.0
 11
6.742738906542886
 21
-31.99819146229516
 31
0.0
  0
LINE
  5
B0
330
17
100
AcDbEntity
  8
0
100
AcDbLine
 10
-5.726011093457113
 20
-31.12319146229516
 30
0.0
 11
6.742738906542886
 21
-31.12319146229516
 31
0.0
  0
LINE
  5
B1
330
17
100
AcDbEntity
  8
0
100
AcDbLine
 10
-5.726011093457113
 20
-30.74819146229516
 30
0.0
 11
6.742738906542887
 21
-30.74819146229516
 31
0.0
  0
LINE
  5
B2
330
17
100
AcDbEntity
  8
0
100
AcDbLine
 10
-5.538511093457113
 20
-30.74819146229516
 30
0.0
 11
-5.538511093457113
 21
-32.37319146229516
 31
0.0
  0
LINE
  5
B3
330
17
100
AcDbEntity
  8
0
100
AcDbLine
 10
6.492738906542887
 20
-30.74819146229516
 30
0.0
 11
6.492738906542892
 21
-31.12319146229516
 31
0.0
  0
LINE
  5
B4
330
17
100
AcDbEntity
  8
0
100
AcDbLine
 10
6.523988906542887
 20
-30.74819146229516
 30
0.0
 11
6.523988906542887
 21
-31.24819146229516
 31
0.0
  0
LINE
  5
B5
330
17
100
AcDbEntity
  8
0
100
AcDbLine
 10
6.742738906542887
 20
-30.74819146229516
 30
0.0
 11
6.742738906542886
 21
-31.12319146229516
 31
0.0
  0
LINE
  5
B6
330
17
100
AcDbEntity
  8
2
  6
HIDDEN
100
AcDbLine
 10
-0.0072610934571156
 20
-30.74819146229516
 30
0.0
 11
-0.0072610934571156
 21
-31.24819146229516
 31
0.0
  0
LINE
  5
B7
330
17
100
AcDbEntity
  8
2
  6
HIDDEN
100
AcDbLine
 10
0.9927389065428844
 20
-30.74819146229516
 30
0.0
 11
0.9927389065428844
 21
-31.24819146229516
 31
0.0
  0
LINE
  5
B8
330
17
100
AcDbEntity
  8
2
  6
HIDDEN
100
AcDbLine
 10
-5.507261093457113
 20
-31.24819146229516
 30
0.0
 11
6.523988906542887
 21
-31.24819146229516
 31
0.0
  0
LINE
  5
B9
330
17
100
AcDbEntity
  8
2
  6
HIDDEN
100
AcDbLine
 10
-5.507261093457113
 20
-31.87319146229516
 30
0.0
 11
6.523988906542887
 21
-31.87319146229516
 31
0.0
  0
LINE
  5
BA
330
17
100
AcDbEntity
  8
0
100
AcDbLine
 10
6.523988906542887
 20
-31.24819146229516
 30
0.0
 11
5.742738906542886
 21
-31.56069146229516
 31
0.0
  0
LINE
  5
BB
330
17
100
AcDbEntity
  8
0
100
AcDbLine
 10
5.742738906542886
 20
-31.56069146229516
 30
0.0
 11
6.523988906542887
 21
-31.87319146229516
 31
0.0
  0
LINE
  5
BC
330
17
100
AcDbEntity
  8
0
100
AcDbLine
 10
5.898988906542887
 20
-32.62319146229516
 30
0.0
 11
6.523988906542887
 21
-32.62319146229516
 31
0.0
  0
LINE
  5
BD
330
17
100
AcDbEntity
  8
0
100
AcDbLine
 10
5.898988906542887
 20
-32.37319146229516
 30
0.0
 11
5.898988906542887
 21
-32.62319146229516
 31
0.0
  0
LINE
  5
BE
330
17
100
AcDbEntity
  8
2
  6
HIDDEN
100
AcDbLine
 10
-5.507261093457113
 20
-31.12319146229516
 30
0.0
 11
-5.507261093457113
 21
-31.99819146229516
 31
0.0
  0
LINE
  5
BF
330
17
100
AcDbEntity
  8
0
100
AcDbLine
 10
-5.507261093457113
 20
-31.99819146229516
 30
0.0
 11
-5.507261093457113
 21
-32.37319146229516
 31
0.0
  0
LINE
  5
C0
330
17
100
AcDbEntity
  8
0
100
AcDbLine
 10
10.52407764412206
 20
-30.74819146229516
 30
0.0
 11
15.96157764412207
 21
-30.74819146229516
 31
0.0
  0
LINE
  5
C1
330
17
100
AcDbEntity
  8
0
100
AcDbLine
 10
10.52407764412206
 20
-31.12319146229516
 30
0.0
 11
15.96157764412207
 21
-31.12319146229516
 31
0.0
  0
LINE
  5
C2
330
17
100
AcDbEntity
  8
0
100
AcDbLine
 10
10.52407764412206
 20
-31.99819146229516
 30
0.0
 11
15.96157764412207
 21
-31.99819146229516
 31
0.0
  0
LINE
  5
C3
330
17
100
AcDbEntity
  8
0
100
AcDbLine
 10
10.52407764412206
 20
-32.37319146229516
 30
0.0
 11
15.96157764412206
 21
-32.37319146229516
 31
0.0
  0
LINE
  5
C4
330
17
100
AcDbEntity
  8
0
100
AcDbLine
 10
10.71157764412206
 20
-30.74819146229516
 30
0.0
 11
10.71157764412206
 21
-31.24819146229516
 31
0.0
  0
LINE
  5
C5
330
17
100
AcDbEntity
  8
0
100
AcDbLine
 10
10.74282764412206
 20
-30.74819146229516
 30
0.0
 11
10.74282764412206
 21
-31.12319146229516
 31
0.0
  0
LINE
  5
C6
330
17
100
AcDbEntity
  8
2
  6
HIDDEN
100
AcDbLine
 10
10.74282764412206
 20
-31.24819146229516
 30
0.0
 11
15.74282764412206
 21
-31.24819146229516
 31
0.0
  0
LINE
  5
C7
330
17
100
AcDbEntity
  8
2
  6
HIDDEN
100
AcDbLine
 10
10.74282764412206
 20
-31.87319146229516
 30
0.0
 11
15.74282764412206
 21
-31.87319146229516
 31
0.0
  0
LINE
  5
C8
330
17
100
AcDbEntity
  8
0
100
AcDbLine
 10
-5.726011093457113
 20
-22.76014590614455
 30
0.0
 11
-5.726011093457113
 21
-27.76014590614455
 31
0.0
  0
LINE
  5
C9
330
17
100
AcDbEntity
  8
0
100
AcDbLine
 10
-5.507261093457113
 20
-22.54139590614455
 30
0.0
 11
6.492738906542886
 21
-22.54139590614455
 31
0.0
  0
LINE
  5
CA
330
17
100
AcDbEntity
  8
0
100
AcDbLine
 10
-5.507261093457113
 20
-27.97889590614455
 30
0.0
 11
6.492738906542887
 21
-27.97889590614455
 31
0.0
  0
LINE
  5
CB
330
17
100
AcDbEntity
  8
0
100
AcDbLine
 10
6.711488906542886
 20
-22.76014590614455
 30
0.0
 11
6.711488906542886
 21
-27.76014590614455
 31
0.0
  0
LINE
  5
CC
330
17
100
AcDbEntity
  8
0
100
AcDbLine
 10
-5.726011093457113
 20
-30.74819146229516
 30
0.0
 11
-5.726011093457113
 21
-31.12319146229516
 31
0.0
  0
LINE
  5
CD
330
17
100
AcDbEntity
  8
0
100
AcDbLine
 10
-5.726011093457113
 20
-31.99819146229516
 30
0.0
 11
-5.726011093457113
 21
-32.37319146229516
 31
0.0
  0
LINE
  5
CE
330
17
100
AcDbEntity
  8
3
  6
CENTER
100
AcDbLine
 10
-0.2579452005671516
 20
-25.26014590614455
 30
0.0
 11
1.243423013652915
 21
-25.26014590614455
 31
0.0
  0
LINE
  5
CF
330
17
100
AcDbEntity
  8
3
  6
CENTER
100
AcDbLine
 10
0.4927389065428838
 20
-26.01083001325458
 30
0.0
 11
0.4927389065428838
 21
-24.50946179903451
 31
0.0
  0
LINE
  5
D0
330
17
100
AcDbEntity
  8
0
100
AcDbLine
 10
10.99282764412206
 20
-31.56069146229516
 30
0.0
 11
15.49282764412206
 21
-31.56069146229516
 31
0.0
  0
LINE
  5
D1
330
17
100
AcDbEntity
  8
2
  6
HIDDEN
100
AcDbLine
 10
10.74282764412206
 20
-31.87319146229516
 30
0.0
 11
10.74282764412206
 21
-31.99819146229516
 31
0.0
  0
LINE
  5
D2
330
17
100
AcDbEntity
  8
0
100
AcDbLine
 10
10.71157764412206
 20
-31.87319146229516
 30
0.0
 11
10.71157764412206
 21
-32.37319146229516
 31
0.0
  0
LINE
  5
D3
330
17
100
AcDbEntity
  8
0
100
AcDbLine
 10
10.71157764412206
 20
-31.24819146229516
 30
0.0
 11
10.99282764412206
 21
-31.56069146229516
 31
0.0
  0
LINE
  5
D4
330
17
100
AcDbEntity
  8
0
100
AcDbLine
 10
10.99282764412206
 20
-31.56069146229516
 30
0.0
 11
10.71157764412206
 21
-31.87319146229516
 31
0.0
  0
LINE
  5
D5
330
17
100
AcDbEntity
  8
0
100
AcDbLine
 10
10.52407764412206
 20
-30.74819146229516
 30
0.0
 11
10.52407764412206
 21
-31.12319146229516
 31
0.0
  0
LINE
  5
D6
330
17
100
AcDbEntity
  8
0
100
AcDbLine
 10
10.52407764412206
 20
-31.99819146229516
 30
0.0
 11
10.52407764412206
 21
-32.37319146229516
 31
0.0
  0
LINE
  5
D7
330
17
100
AcDbEntity
  8
2
  6
HIDDEN
100
AcDbLine
 10
10.74282764412206
 20
-31.12319146229516
 30
0.0
 11
10.74282764412206
 21
-31.24819146229516
 31
0.0
  0
LINE
  5
D8
330
17
100
AcDbEntity
  8
0
100
AcDbLine
 10
10.74282764412206
 20
-31.99819146229516
 30
0.0
 11
10.74282764412207
 21
-32.62319146229516
 31
0.0
  0
LINE
  5
D9
330
17
100
AcDbEntity
  8
0
100
AcDbLine
 10
15.96157764412207
 20
-30.74819146229516
 30
0.0
 11
15.96157764412207
 21
-31.12319146229516
 31
0.0
  0
LINE
  5
DA
330
17
100
AcDbEntity
  8
0
100
AcDbLine
 10
15.74282764412206
 20
-30.74819146229516
 30
0.0
 11
15.74282764412206
 21
-31.12319146229516
 31
0.0
  0
LINE
  5
DB
330
17
100
AcDbEntity
  8
0
100
AcDbLine
 10
15.77407764412206
 20
-30.74819146229516
 30
0.0
 11
15.77407764412207
 21
-31.24819146229516
 31
0.0
  0
LINE
  5
DC
330
17
100
AcDbEntity
  8
0
100
AcDbLine
 10
15.49282764412206
 20
-31.56069146229516
 30
0.0
 11
15.77407764412206
 21
-31.87319146229516
 31
0.0
  0
LINE
  5
DD
330
17
100
AcDbEntity
  8
0
100
AcDbLine
 10
15.74282764412207
 20
-31.99819146229516
 30
0.0
 11
15.74282764412206
 21
-32.62319146229516
 31
0.0
  0
LINE
  5
DE
330
17
100
AcDbEntity
  8
0
100
AcDbLine
 10
15.77407764412206
 20
-31.87319146229516
 30
0.0
 11
15.77407764412206
 21
-32.37319146229516
 31
0.0
  0
LINE
  5
DF
330
17
100
AcDbEntity
  8
0
100
AcDbLine
 10
15.96157764412207
 20
-31.99819146229516
 30
0.0
 11
15.96157764412206
 21
-32.37319146229516
 31
0.0
  0
LINE
  5
E0
330
17
100
AcDbEntity
  8
2
  6
HIDDEN
100
AcDbLine
 10
15.74282764412206
 20
-31.87319146229516
 30
0.0
 11
15.74282764412207
 21
-31.99819146229516
 31
0.0
  0
LINE
  5
E1
330
17
100
AcDbEntity
  8
0
100
AcDbLine
 10
15.77407764412207
 20
-31.24819146229516
 30
0.0
 11
15.49282764412206
 21
-31.56069146229516
 31
0.0
  0
LINE
  5
E2
330
17
100
AcDbEntity
  8
2
  6
HIDDEN
100
AcDbLine
 10
15.74282764412206
 20
-31.12319146229516
 30
0.0
 11
15.74282764412206
 21
-31.24819146229516
 31
0.0
  0
LINE
  5
E3
330
17
100
AcDbEntity
  8
3
  6
CENTER
100
AcDbLine
 10
13.24282764412206
 20
-30.340862122731
 30
0.0
 11
13.24282764412206
 21
-31.53227213415707
 31
0.0
  0
LINE
  5
E4
330
17
100
AcDbEntity
  8
2
  6
HIDDEN
100
AcDbLine
 10
12.74282764412206
 20
-30.74819146229516
 30
0.0
 11
12.74282764412207
 21
-31.24819146229516
 31
0.0
  0
LINE
  5
E5
330
17
100
AcDbEntity
  8
2
  6
HIDDEN
100
AcDbLine
 10
13.74282764412206
 20
-30.74819146229516
 30
0.0
 11
13.74282764412206
 21
-31.24819146229516
 31
0.0
  0
LINE
  5
E6
330
17
100
AcDbEntity
  8
3
  6
CENTER
100
AcDbLine
 10
0.4927389065428863
 20
-30.340862122731
 30
0.0
 11
0.4927389065428863
 21
-31.53227213415707
 31
0.0
  0
LINE
  5
E7
330
17
100
AcDbEntity
  8
0
100
AcDbLine
 10
5.742738906542886
 20
-31.56069146229516
 30
0.0
 11
-5.507261093457113
 21
-31.56069146229516
 31
0.0
  0
LINE
  5
E8
330
17
100
AcDbEntity
  8
0
100
AcDbLine
 10
10.74282764412207
 20
-32.62319146229516
 30
0.0
 11
15.74282764412206
 21
-32.62319146229516
 31
0.0
  0
LINE
  5
E9
330
17
100
AcDbEntity
  8
2
  6
HIDDEN
100
AcDbLine
 10
5.898988906542887
 20
-22.76014590614455
 30
0.0
 11
5.898988906542887
 21
-27.76014590614455
 31
0.0
  0
DIMENSION
  5
EA
330
17
100
AcDbEntity
  8
3
100
AcDbDimension
  2
*D0
 10
6.742738906542887
 20
-29.77749100639143
 30
0.0
 11
0.5083639065428871
 21
-29.77749100639143
 31
0.0
 71
     5
 42
-1.0
100
AcDbAlignedDimension
 13
-5.726011093457113
 23
-30.74819146229516
 33
0.0
 14
6.742738906542887
 24
-30.74819146229516
 34
0.0
100
AcDbRotatedDimension
  0
DIMENSION
  5
EB
330
17
100
AcDbEntity
  8
3
100
AcDbDimension
  2
*D2
 10
7.950283269318315
 20
-32.37319146229516
 30
0.0
 11
7.950283269318315
 21
-31.56069146229516
 31
0.0
 71
     5
 42
-1.0
100
AcDbAlignedDimension
 13
6.742738906542887
 23
-30.74819146229516
 33
0.0
 14
6.742738906542882
 24
-32.37319146229516
 34
0.0
 50
90.0
100
AcDbRotatedDimension
  0
DIMENSION
  5
EC
330
17
100
AcDbEntity
  8
3
100
AcDbDimension
  2
*D1
 10
15.96157764412207
 20
-29.78051229900679
 30
0.0
 11
13.24282764412206
 21
-29.78051229900679
 31
0.0
 12
1.599303150176357
 22
0.0
 32
0.0
 71
     5
 42
-1.0
100
AcDbAlignedDimension
 13
10.52407764412206
 23
-30.74819146229516
 33
0.0
 14
15.96157764412207
 24
-30.74819146229516
 34
0.0
100
AcDbRotatedDimension
  0
TEXT
  5
ED
330
17
100
AcDbEntity
  8
2
100
AcDbText
 10
-8.905166933724942
 20
-19.19424578196288
 30
0.0
 40
0.156
  1
A
  7
SIMPLEX
 72
     1
 11
-8.845738362296371
 21
-19.19424578196288
 31
0.0
100
AcDbText
  0
TEXT
  5
EE
330
17
100
AcDbEntity
  8
2
100
AcDbText
 10
-11.2097252239296
 20
-21.75146671268032
 30
0.0
 40
0.156
  1
1
  7
SIMPLEX
 72
     1
 11
-11.19115379535818
 21
-21.75146671268032
 31
0.0
100
AcDbText
  0
LINE
  5
FB
330
17
100
AcDbEntity
  8
4
100
AcDbLine
 10
-11.31679221912513
 20
-37.77329572833858
 30
0.0
 11
-11.31679221912513
 21
-18.97329572833857
 31
0.0
  0
LINE
  5
FC
330
17
100
AcDbEntity
  8
4
100
AcDbLine
 10
19.28320778087486
 20
-18.97329572833857
 30
0.0
 11
-11.31679221912513
 21
-18.97329572833857
 31
0.0
  0
LINE
  5
FD
330
17
100
AcDbEntity
  8
4
100
AcDbLine
 10
19.28320778087486
 20
-18.97329572833857
 30
0.0
 11
19.28320778087487
 21
-37.77329572833858
 31
0.0
  0
LINE
  5
FF
330
17
100
AcDbEntity
  8
4
100
AcDbLine
 10
19.28320778087486
 20
-37.7732957283386
 30
0.0
 11
-11.31679221912513
 21
-37.77329572833858
 31
0.0
  0
LINE
  5
100
330
17
100
AcDbEntity
  8
3
100
AcDbLine
 10
-6.519494433274172
 20
-19.24840087782537
 30
0.0
 11
-6.519494433274172
 21
-18.97329572833857
 31
0.0
  0
LINE
  5
101
330
17
100
AcDbEntity
  8
3
100
AcDbLine
 10
-11.09209280229901
 20
-23.13417984792802
 30
0.0
 11
-11.34209275622185
 21
-23.13417984792802
 31
0.0
  0
LINE
  5
102
330
17
100
AcDbEntity
  8
3
100
AcDbLine
 10
-2.243722024589308
 20
-19.24840087782537
 30
0.0
 11
-2.243722024589304
 21
-18.97329572833857
 31
0.0
  0
LINE
  5
103
330
17
100
AcDbEntity
  8
3
100
AcDbLine
 10
2.081406304775503
 20
-19.24840087782537
 30
0.0
 11
2.081406304775503
 21
-18.97329572833857
 31
0.0
  0
LINE
  5
104
330
17
100
AcDbEntity
  8
3
100
AcDbLine
 10
6.381856673800343
 20
-19.24840087782537
 30
0.0
 11
6.381856673800347
 21
-18.97329572833857
 31
0.0
  0
LINE
  5
105
330
17
100
AcDbEntity
  8
3
100
AcDbLine
 10
10.68230704282518
 20
-19.24840087782537
 30
0.0
 11
10.68230704282518
 21
-18.97329572833857
 31
0.0
  0
LINE
  5
106
330
17
100
AcDbEntity
  8
3
100
AcDbLine
 10
14.98275741185002
 20
-19.24840087782537
 30
0.0
 11
14.98275741185002
 21
-18.97329572833857
 31
0.0
  0
LINE
  5
107
330
17
100
AcDbEntity
  8
3
100
AcDbLine
 10
-11.09209280229901
 20
-26.79395881803066
 30
0.0
 11
-11.34209275622185
 21
-26.79395881803066
 31
0.0
  0
LINE
  5
108
330
17
100
AcDbEntity
  8
3
100
AcDbLine
 10
-11.09209280229901
 20
-30.4537377881333
 30
0.0
 11
-11.34209275622185
 21
-30.4537377881333
 31
0.0
  0
LINE
  5
109
330
17
100
AcDbEntity
  8
3
100
AcDbLine
 10
-11.09209280229901
 20
-34.11351675823594
 30
0.0
 11
-11.34209275622185
 21
-34.11351675823594
 31
0.0
  0
TEXT
  5
10A
330
17
100
AcDbEntity
  8
2
100
AcDbText
 10
-11.24315379535818
 20
-25.11353567819757
 30
0.0
 40
0.156
  1
2
  7
SIMPLEX
 72
     1
 11
-11.19115379535818
 21
-25.11353567819757
 31
0.0
100
AcDbText
  0
TEXT
  5
10B
330
17
100
AcDbEntity
  8
2
100
AcDbText
 10
-11.24315379535818
 20
-28.81181154026653
 30
0.0
 40
0.156
  1
3
  7
SIMPLEX
 72
     1
 11
-11.19115379535818
 21
-28.81181154026653
 31
0.0
100
AcDbText
  0
TEXT
  5
10C
330
17
100
AcDbEntity
  8
2
100
AcDbText
 10
-11.24686808107246
 20
-32.5100874023355
 30
0.0
 40
0.156
  1
4
  7
SIMPLEX
 72
     1
 11
-11.19115379535818
 21
-32.5100874023355
 31
0.0
100
AcDbText
  0
TEXT
  5
10D
330
17
100
AcDbEntity
  8
2
100
AcDbText
 10
-11.24315379535818
 20
-36.20836326440447
 30
0.0
 40
0.156
  1
5
  7
SIMPLEX
 72
     1
 11
-11.19115379535818
 21
-36.20836326440447
 31
0.0
100
AcDbText
  0
TEXT
  5
10E
330
17
100
AcDbEntity
  8
2
100
AcDbText
 10
-4.358945258848093
 20
-19.19424578196288
 30
0.0
 40
0.156
  1
B
  7
SIMPLEX
 72
     1
 11
-4.306945258848093
 21
-19.19424578196288
 31
0.0
100
AcDbText
  0
TEXT
  5
10F
330
17
100
AcDbEntity
  8
2
100
AcDbText
 10
-0.048004372148586
 20
-19.19424578196288
 30
0.0
 40
0.156
  1
C
  7
SIMPLEX
 72
     1
 11
0.0077099135656997
 21
-19.19424578196288
 31
0.0
100
AcDbText
  0
TEXT
  5
110
330
17
100
AcDbEntity
  8
2
100
AcDbText
 10
4.214330603220865
 20
-19.19424578196288
 30
0.0
 40
0.156
  1
D
  7
SIMPLEX
 72
     1
 11
4.266330603220865
 21
-19.19424578196288
 31
0.0
100
AcDbText
  0
TEXT
  5
111
330
17
100
AcDbEntity
  8
2
100
AcDbText
 10
8.588734544107561
 20
-19.19424578196288
 30
0.0
 40
0.156
  1
E
  7
SIMPLEX
 72
     1
 11
8.637020258393276
 21
-19.19424578196288
 31
0.0
100
AcDbText
  0
TEXT
  5
112
330
17
100
AcDbEntity
  8
2
100
AcDbText
 10
12.79132075100412
 20
-19.19424578196288
 30
0.0
 40
0.156
  1
F
  7
SIMPLEX
 72
     1
 11
12.83960646528983
 21
-19.19424578196288
 31
0.0
100
AcDbText
  0
TEXT
  5
113
330
17
100
AcDbEntity
  8
2
100
AcDbText
 10
17.04251286923071
 20
-19.19424578196288
 30
0.0
 40
0.156
  1
G
  7
SIMPLEX
 72
     1
 11
17.098227154945
 21
-19.19424578196288
 31
0.0
100
AcDbText
  0
LINE
  5
119
330
17
100
AcDbEntity
  8
4
100
AcDbLine
 10
20.98320778087487
 20
-17.37329572833858
 30
0.0
 11
20.98320778087487
 21
-39.3732957283386
 31
0.0
  0
LINE
  5
11A
330
17
100
AcDbEntity
  8
4
100
AcDbLine
 10
-13.01679221912513
 20
-39.3732957283386
 30
0.0
 11
-13.01679221912513
 21
-17.37329572833858
 31
0.0
  0
LINE
  5
11B
330
17
100
AcDbEntity
  8
4
100
AcDbLine
 10
20.98320778087487
 20
-39.3732957283386
 30
0.0
 11
-13.01679221912513
 21
-39.3732957283386
 31
0.0
  0
LINE
  5
11C
330
17
100
AcDbEntity
  8
4
100
AcDbLine
 10
20.98320778087487
 20
-17.37329572833858
 30
0.0
 11
-13.01679221912513
 21
-17.37329572833858
 31
0.0
  0
LINE
  5
126
330
17
100
AcDbEntity
  8
0
100
AcDbLine
 10
8.995062861865541
 20
-35.74129432833867
 30
0.0
 11
19.28320778087487
 21
-35.74129432833867
 31
0.0
  0
LWPOLYLINE
  5
127
330
17
100
AcDbEntity
  8
4
  6
Continuous
100
AcDbPolyline
 90
       18
 70
     0
 43
0.0
 10
11.30037442563951
 20
-36.16978739203065
 10
11.3002558710838
 20
-36.17168426492257
 10
11.30001876197232
 20
-36.17358113781452
 10
11.29942598919356
 20
-36.17524090159498
 10
11.29871466185903
 20
-36.17678211081965
 10
11.29752911630162
 20
-36.17820476548855
 10
11.29610646163265
 20
-36.17927175649035
 10
11.29444669785217
 20
-36.1799830838248
 10
11.29231271584876
 20
-36.18033874749206
 10
11.29029728840111
 20
-36.18022019293628
 10
11.28840041550918
 20
-36.17962742015752
 10
11.28697776084019
 20
-36.17856042915582
 10
11.28579221528269
 20
-36.17713777448685
 10
11.28484377883676
 20
-36.17547801070646
 10
11.28413245150232
 20
-36.17369969237021
 10
11.28365823327927
 20
-36.17180281947828
 10
11.28353967872357
 20
-36.16978739203065
 10
11.30037442563951
 20
-36.16978739203065
  0
LWPOLYLINE
  5
13B
330
17
100
AcDbEntity
  8
4
  6
Continuous
100
AcDbPolyline
 90
       18
 70
     0
 43
0.0
 10
11.28342112416788
 20
-36.16279267324161
 10
11.28330256961208
 20
-36.15769482734452
 10
11.28330256961208
 20
-36.15212276322448
 10
11.28330256961208
 20
-36.14607648088139
 10
11.28377678783506
 20
-36.1395559803154
 10
11.28460666972528
 20
-36.13267981608208
 10
11.28614787895005
 20
-36.12532943362587
 10
11.28851897006488
 20
-36.11762338750232
 10
11.29195705218158
 20
-36.10956167771158
 10
11.29480236151945
 20
-36.11714916927935
 10
11.29705489807858
 20
-36.12461810629135
 10
11.29871466185903
 20
-36.13184993419185
 10
11.29990020741653
 20
-36.13884465298087
 10
11.30061153475106
 20
-36.14560226265842
 10
11.30084864386247
 20
-36.15176709955721
 10
11.30084864386247
 20
-36.15757627278874
 10
11.30061153475106
 20
-36.16279267324161
 10
11.28342112416788
 20
-36.16279267324161
  0
TEXT
  5
14F
330
17
100
AcDbEntity
  8
3
100
AcDbText
 10
11.11041911792822
 20
-36.52285895691699
 30
0.0
 40
0.0781522982138528
  1
NAME:
  7
SIMPLEX
100
AcDbText
  0
LWPOLYLINE
  5
150
330
17
100
AcDbEntity
  8
4
  6
Continuous
100
AcDbPolyline
 90
       21
 70
     0
 43
0.0
 10
11.27737484182477
 20
-35.85808496595039
 10
11.27737484182477
 20
-36.16955028291915
 10
11.2906529520683
 20
-36.30126439435303
 10
11.30642070798259
 20
-36.16955028291915
 10
11.30642070798259
 20
-35.85867773872914
 10
11.30606504431532
 20
-35.85381700194354
 10
11.30511660786931
 20
-35.84954903793669
 10
11.30369395320041
 20
-35.84599240126428
 10
11.30191563486416
 20
-35.84302853737064
 10
11.29966309830504
 20
-35.84077600081143
 10
11.29717345263436
 20
-35.83911623703096
 10
11.29456525240797
 20
-35.83816780058504
 10
11.29195705218158
 20
-35.83781213691775
 10
11.2892302973994
 20
-35.83804924602925
 10
11.28662209717301
 20
-35.83899768247526
 10
11.28413245150232
 20
-35.84065744625572
 10
11.2818799149432
 20
-35.84279142825915
 10
11.28010159660695
 20
-35.84563673759702
 10
11.27867894193797
 20
-35.84919337426943
 10
11.27773050549196
 20
-35.85334278372049
 10
11.27737484182477
 20
-35.85808496595039
  0
TEXT
  5
167
330
17
100
AcDbEntity
  8
3
100
AcDbText
 10
11.09375763726543
 20
-37.27531830722921
 30
0.0
 40
0.0781522982138528
  1
MAT'L DESCRIPTION:
  7
SIMPLEX
100
AcDbText
  0
TEXT
  5
168
330
17
100
AcDbEntity
  8
3
100
AcDbText
 10
11.10621981399335
 20
-37.00114160165559
 30
0.0
 40
0.0781522982138528
  1
FILE PATH:
  7
SIMPLEX
100
AcDbText
  0
LINE
  5
169
330
17
100
AcDbEntity
  8
0
100
AcDbLine
 10
11.02702261542582
 20
-37.1034508060411
 30
0.0
 11
16.48017717138267
 21
-37.1034508060411
 31
0.0
  0
LINE
  5
16A
330
17
100
AcDbEntity
  8
0
100
AcDbLine
 10
11.02702261542574
 20
-36.83546814977243
 30
0.0
 11
19.28320778087487
 21
-36.83546814977243
 31
0.0
  0
LINE
  5
16B
330
17
100
AcDbEntity
  8
0
100
AcDbLine
 10
11.02702261542574
 20
-36.35959363355681
 30
0.0
 11
19.28320778087487
 21
-36.35959363355681
 31
0.0
  0
LINE
  5
16C
330
17
100
AcDbEntity
  8
0
100
AcDbLine
 10
11.02702261542582
 20
-37.77329572833867
 30
0.0
 11
11.02702261542582
 21
-35.74133597477846
 31
0.0
  0
LINE
  5
16D
330
17
100
AcDbEntity
  8
4
100
AcDbLine
 10
8.995062861865541
 20
-35.74129432833867
 30
0.0
 11
8.995062861865541
 21
-37.77329572833867
 31
0.0
  0
TEXT
  5
16E
330
17
100
AcDbEntity
  8
3
100
AcDbText
 10
9.112284352692608
 20
-37.01422806061837
 30
0.0
 40
0.1236393780336343
  1
FRACTIONS %%P 1/32
  7
SIMPLEX
 72
     1
 11
10.01897312493926
 21
-37.01422806061837
 31
0.0
100
AcDbText
  0
TEXT
  5
16F
330
17
100
AcDbEntity
  8
3
100
AcDbText
 10
9.457045465146094
 20
-37.73705148044321
 30
0.0
 40
0.0840747770628713
  1
READ ALL NOTES
  7
SIMPLEX
 72
     1
 11
10.0015297356485
 21
-37.73705148044321
 31
0.0
100
AcDbText
  0
TEXT
  5
170
330
17
100
AcDbEntity
  8
3
100
AcDbText
 10
9.529109559771413
 20
-37.61726571119105
 30
0.0
 40
0.0840747770628713
  1
DO NOT SCALE
  7
SIMPLEX
 72
     1
 11
10.0015297356485
 21
-37.61726571119105
 31
0.0
100
AcDbText
  0
TEXT
  5
171
330
17
100
AcDbEntity
  8
3
100
AcDbText
 10
9.34778792989953
 20
-37.4381344995909
 30
0.0
 40
0.1236393780336343
  1
HOLES %%P .005
  7
SIMPLEX
 72
     1
 11
10.01897312493926
 21
-37.4381344995909
 31
0.0
100
AcDbText
  0
TEXT
  5
172
330
17
100
AcDbEntity
  8
3
100
AcDbText
 10
9.291855830312886
 20
-37.22618128010463
 30
0.0
 40
0.1236393780336343
  1
ANGLES %%P 1/2%%D
  7
SIMPLEX
 72
     1
 11
10.01897312493926
 21
-37.22618128010463
 31
0.0
100
AcDbText
  0
LINE
  5
173
330
17
100
AcDbEntity
  8
0
100
AcDbLine
 10
8.995062861865541
 20
-37.49183487042563
 30
0.0
 11
11.02702261542582
 21
-37.49183487042563
 31
0.0
  0
TEXT
  5
174
330
17
100
AcDbEntity
  8
3
100
AcDbText
 10
9.05620416005906
 20
-35.8988063058427
 30
0.0
 40
0.0990742219853884
  1
UNLESS OTHERWISE SPECIFIED
 41
0.8436671689696847
  7
SIMPLEX
 72
     5
 11
10.96275345311417
 21
-35.8988063058427
 31
0.0
100
AcDbText
  0
TEXT
  5
175
330
17
100
AcDbEntity
  8
3
100
AcDbText
 10
9.05620416005906
 20
-36.13927420536904
 30
0.0
 40
0.0990742219853884
  1
DIMENSIONS ARE IN INCHES
 41
0.9163641132346459
  7
SIMPLEX
 72
     5
 11
10.96275345311417
 21
-36.13927420536904
 31
0.0
100
AcDbText
  0
TEXT
  5
176
330
17
100
AcDbEntity
  8
3
100
AcDbText
 10
9.362506903474963
 20
-36.80227484113219
 30
0.0
 40
0.1236393780336343
  1
.XXX %%P .005 
  7
SIMPLEX
 72
     1
 11
10.01897312493926
 21
-36.80227484113219
 31
0.0
100
AcDbText
  0
TEXT
  5
177
330
17
100
AcDbEntity
  8
3
100
AcDbText
 10
9.506752844514203
 20
-36.59032162164593
 30
0.0
 40
0.1236393780336343
  1
.XX %%P .010
  7
SIMPLEX
 72
     1
 11
10.01897312493926
 21
-36.59032162164593
 31
0.0
100
AcDbText
  0
TEXT
  5
178
330
17
100
AcDbEntity
  8
3
100
AcDbText
 10
9.444933155497386
 20
-36.39820132982694
 30
0.0
 40
0.1236393780336343
  1
TOLERANCES
  7
SIMPLEX
 72
     1
 11
10.01897312493926
 21
-36.39820132982694
 31
0.0
100
AcDbText
  0
LINE
  5
179
330
17
100
AcDbEntity
  8
0
100
AcDbLine
 10
8.995062861865541
 20
-35.97579286942
 30
0.0
 11
11.02702261542582
 21
-35.97579286942
 31
0.0
  0
LINE
  5
17A
330
17
100
AcDbEntity
  8
0
100
AcDbLine
 10
8.995062861865541
 20
-36.21024976406154
 30
0.0
 11
11.02702261542582
 21
-36.21024976406154
 31
0.0
  0
LWPOLYLINE
  5
17B
330
17
100
AcDbEntity
  8
4
  6
Continuous
100
AcDbPolyline
 90
       21
 70
     0
 43
0.0
 10
11.1800323079752
 20
-35.8784437711132
 10
11.1800323079752
 20
-36.16943172836336
 10
11.19461451833191
 20
-36.30126439435303
 10
11.20967094691168
 20
-36.17002450114211
 10
11.20967094691168
 20
-35.8773767801115
 10
11.20931528324441
 20
-35.87263459788167
 10
11.20836684679849
 20
-35.8686037429863
 10
11.20694419212949
 20
-35.86516566086969
 10
11.20504731923755
 20
-35.86232035153172
 10
11.20279478267834
 20
-35.86030492408408
 10
11.20030513700774
 20
-35.85876371485941
 10
11.19757838222556
 20
-35.85793383296917
 10
11.19485162744339
 20
-35.85769672385769
 10
11.19212487266121
 20
-35.85817094208066
 10
11.18939811787904
 20
-35.85923793308237
 10
11.18690847220843
 20
-35.86089769686284
 10
11.18465593564924
 20
-35.86315023342196
 10
11.18275906275737
 20
-35.86611409731562
 10
11.18133640808832
 20
-35.86955217943232
 10
11.18038797164239
 20
-35.87370158888339
 10
11.1800323079752
 20
-35.8784437711132
  0
LWPOLYLINE
  5
192
330
17
100
AcDbEntity
  8
4
  6
Continuous
100
AcDbPolyline
 90
       21
 70
     0
 43
0.0
 10
11.22935562495654
 20
-35.82989236228885
 10
11.22935562495654
 20
-36.16955028291915
 10
11.24263373520014
 20
-36.30126439435303
 10
11.25840149111436
 20
-36.16955028291915
 10
11.25840149111436
 20
-35.83048513506759
 10
11.25804582744717
 20
-35.82562439828198
 10
11.25709739100116
 20
-35.82135643427513
 10
11.25567473633219
 20
-35.81779979760272
 10
11.25389641799602
 20
-35.81483593370907
 10
11.25164388143681
 20
-35.81258339714987
 10
11.24915423576612
 20
-35.81092363336948
 10
11.24654603553973
 20
-35.80997519692348
 10
11.24393783531334
 20
-35.8096195332563
 10
11.24121108053116
 20
-35.80985664236778
 10
11.23860288030477
 20
-35.81080507881371
 10
11.23611323463409
 20
-35.81246484259417
 10
11.23386069807497
 20
-35.8145988245976
 10
11.23208237973872
 20
-35.81744413393546
 10
11.23065972506983
 20
-35.82100077060787
 10
11.22971128862381
 20
-35.82515018005903
 10
11.22935562495654
 20
-35.82989236228885
  0
LWPOLYLINE
  5
1A9
330
17
100
AcDbEntity
  8
4
  6
Continuous
100
AcDbPolyline
 90
       18
 70
     0
 43
0.0
 10
11.20457310101459
 20
-36.16978739203065
 10
11.20457310101459
 20
-36.17168426492257
 10
11.20433599190311
 20
-36.17358113781452
 10
11.20374321912437
 20
-36.17535945615067
 10
11.20279478267834
 20
-36.17713777448685
 10
11.20160923712093
 20
-36.1786789837116
 10
11.19994947334049
 20
-36.17986452926901
 10
11.19805260044854
 20
-36.18069441115924
 10
11.19568150933363
 20
-36.18093152027072
 10
11.19331041821872
 20
-36.18057585660354
 10
11.19129499077107
 20
-36.17986452926901
 10
11.18951667243484
 20
-36.1787975382673
 10
11.18797546321016
 20
-36.17725632904261
 10
11.18690847220843
 20
-36.17559656526216
 10
11.18596003576251
 20
-36.173818246926
 10
11.18548581753946
 20
-36.17180281947828
 10
11.18524870842798
 20
-36.16978739203065
 10
11.20457310101459
 20
-36.16978739203065
  0
LWPOLYLINE
  5
1BD
330
17
100
AcDbEntity
  8
4
  6
Continuous
100
AcDbPolyline
 90
       18
 70
     0
 43
0.0
 10
11.1850115993165
 20
-36.16326689146458
 10
11.1848930447608
 20
-36.15639072723133
 10
11.18536726298376
 20
-36.14927745388654
 10
11.18619714487391
 20
-36.14216418054179
 10
11.1873826904314
 20
-36.13516946175277
 10
11.18892389965608
 20
-36.12853040663101
 10
11.19070221799233
 20
-36.12260267884372
 10
11.19271764543998
 20
-36.11738627839083
 10
11.19497018199919
 20
-36.11335542349547
 10
11.19686705489103
 20
-36.11726772383514
 10
11.19876392778308
 20
-36.12224701517643
 10
11.20054224611923
 20
-36.12829329751953
 10
11.2020834553439
 20
-36.13505090719698
 10
11.2033875554571
 20
-36.14216418054179
 10
11.20433599190311
 20
-36.1493960084423
 10
11.20481021012607
 20
-36.15650928178702
 10
11.20481021012607
 20
-36.16326689146458
 10
11.1850115993165
 20
-36.16326689146458
  0
LWPOLYLINE
  5
1D1
330
17
100
AcDbEntity
  8
4
  6
Continuous
100
AcDbPolyline
 90
       18
 70
     0
 43
0.0
 10
11.23540190729965
 20
-36.16279267324161
 10
11.23528335274385
 20
-36.15769482734452
 10
11.23528335274385
 20
-36.15212276322448
 10
11.23528335274385
 20
-36.14607648088139
 10
11.23575757096682
 20
-36.1395559803154
 10
11.23658745285714
 20
-36.13267981608208
 10
11.23812866208181
 20
-36.12532943362587
 10
11.24049975319672
 20
-36.11762338750232
 10
11.24393783531334
 20
-36.10956167771158
 10
11.24678314465131
 20
-36.11714916927935
 10
11.24903568121043
 20
-36.12461810629135
 10
11.2506954449908
 20
-36.13184993419185
 10
11.25188099054831
 20
-36.13884465298087
 10
11.25259231788283
 20
-36.14560226265842
 10
11.25282942699431
 20
-36.15176709955721
 10
11.25282942699431
 20
-36.15757627278874
 10
11.25259231788283
 20
-36.16279267324161
 10
11.23540190729965
 20
-36.16279267324161
  0
LWPOLYLINE
  5
1E5
330
17
100
AcDbEntity
  8
4
  6
Continuous
100
AcDbPolyline
 90
       18
 70
     0
 43
0.0
 10
11.25235520877125
 20
-36.16978739203065
 10
11.25223665421557
 20
-36.17168426492257
 10
11.25199954510409
 20
-36.17358113781452
 10
11.25140677232533
 20
-36.17524090159498
 10
11.2506954449908
 20
-36.17678211081965
 10
11.2495098994334
 20
-36.17820476548855
 10
11.24808724476443
 20
-36.17927175649035
 10
11.24642748098394
 20
-36.1799830838248
 10
11.24429349898053
 20
-36.18033874749206
 10
11.24227807153288
 20
-36.18022019293628
 10
11.24038119864094
 20
-36.17962742015752
 10
11.23895854397197
 20
-36.17856042915582
 10
11.23777299841455
 20
-36.17713777448685
 10
11.23682456196854
 20
-36.17547801070646
 10
11.23611323463409
 20
-36.17369969237021
 10
11.23563901641112
 20
-36.17180281947828
 10
11.23552046185542
 20
-36.16978739203065
 10
11.25235520877125
 20
-36.16978739203065
  0
LINE
  5
1F9
330
17
100
AcDbEntity
  8
0
100
AcDbLine
 10
11.24364381684572
 20
-35.80964510007952
 30
0.0
 11
11.24364381684572
 21
-35.80964510007952
 31
0.0
  0
LWPOLYLINE
  5
1FA
330
17
100
AcDbEntity
  8
4
  6
Continuous
100
AcDbPolyline
 90
       88
 70
     0
 43
0.0
 10
17.23176288993986
 20
-35.91454922929428
 10
17.04229797626035
 20
-35.91454922929428
 10
17.04750464564389
 20
-35.91859886103704
 10
17.05271131502743
 20
-35.92322701160021
 10
17.05733946559061
 20
-35.92843368098375
 10
17.06167835674353
 20
-35.93364035036739
 10
17.06514946966592
 20
-35.93971479798153
 10
17.06775280435769
 20
-35.94578924559569
 10
17.06948836081891
 20
-35.95273147144038
 10
17.07035613904946
 20
-35.95967369728516
 10
17.07035613904946
 20
-36.16070898737265
 10
17.02147129872602
 20
-36.21422197825928
 10
17.19589472307536
 20
-36.21422197825928
 10
17.19936583599774
 20
-36.21422197825928
 10
17.20283694892006
 20
-36.21364345943892
 10
17.20630806184253
 20
-36.21335420002875
 10
17.20948991535464
 20
-36.21248642179812
 10
17.21296102827704
 20
-36.2116186435675
 10
17.21643214119942
 20
-36.2104616059267
 10
17.21961399471156
 20
-36.2093045682859
 10
17.22308510763394
 20
-36.20756901182475
 10
17.22626696114616
 20
-36.20612271477379
 10
17.22944881465827
 20
-36.20438715831254
 10
17.23234140876031
 20
-36.20236234244122
 10
17.23523400286235
 20
-36.20033752656982
 10
17.23812659696428
 20
-36.19802345128821
 10
17.24101919106623
 20
-36.19570937600662
 10
17.24333326634782
 20
-36.19339530072503
 10
17.24593660103959
 20
-36.19079196603326
 10
17.25287882688437
 20
-36.18211418372733
 10
17.2583747556781
 20
-36.17199010437043
 10
17.26242438742093
 20
-36.16128750619309
 10
17.26473846270252
 20
-36.15029564860556
 10
17.2650277221127
 20
-36.13901453160786
 10
17.26329216565146
 20
-36.12860119284071
 10
17.25895327449844
 20
-36.11876637289398
 10
17.25230030806403
 20
-36.11008859058804
 10
17.18924175664084
 20
-36.13727897514664
 10
17.19242361015298
 20
-36.14190712570982
 10
17.19502694484475
 20
-36.14711379509336
 10
17.19705176071616
 20
-36.15232046447698
 10
17.19849805776714
 20
-36.1578163932707
 10
17.19936583599774
 20
-36.1633123220645
 10
17.19936583599774
 20
-36.16880825085822
 10
17.19849805776714
 20
-36.17430417965203
 10
17.19676250130597
 20
-36.17951084903557
 10
17.19444842602438
 20
-36.18327122136812
 10
17.19184509133262
 20
-36.18674233429052
 10
17.18837397841024
 20
-36.18992418780264
 10
17.18490286548785
 20
-36.19223826308423
 10
17.18085323374502
 20
-36.19426307895564
 10
17.17680360200236
 20
-36.1959986354168
 10
17.17246471084935
 20
-36.19686641364741
 10
17.16812581969633
 20
-36.19715567305759
 10
17.06948836081891
 20
-36.19715567305759
 10
17.1348609875236
 20
-36.12946897107132
 10
17.1348609875236
 20
-36.0635178255462
 10
17.21180399063625
 20
-36.0635178255462
 10
17.21180399063625
 20
-36.04037707273036
 10
17.13601802516439
 20
-36.04037707273036
 10
17.13601802516439
 20
-35.95244221203021
 10
17.12242283288511
 20
-35.93132627508578
 10
17.16610100382492
 20
-35.93132627508578
 10
17.17593582377164
 20
-35.93190479390614
 10
17.18403508725731
 20
-35.93421886918772
 10
17.19039879428155
 20
-35.9379792415203
 10
17.19502694484475
 20
-35.94318591090384
 10
17.19763027953652
 20
-35.949260358518
 10
17.19849805776714
 20
-35.95620258436277
 10
17.19734102012633
 20
-35.96401258843807
 10
17.1941591666142
 20
-35.97182259251348
 10
17.26184586860048
 20
-35.99236001063754
 10
17.26647401916366
 20
-35.98744260066418
 10
17.26994513208605
 20
-35.98194667187037
 10
17.27254846677783
 20
-35.97587222425622
 10
17.2739947638288
 20
-35.96979777664206
 10
17.27457328264923
 20
-35.96343406961773
 10
17.2739947638288
 20
-35.95678110318321
 10
17.27283772618801
 20
-35.95041739615879
 10
17.2708129103166
 20
-35.94405368913446
 10
17.26820957562481
 20
-35.93826850093048
 10
17.26473846270252
 20
-35.93248331272658
 10
17.2606888309597
 20
-35.92756590275322
 10
17.25577142098632
 20
-35.92322701160021
 10
17.25056475160279
 20
-35.91946663926764
 10
17.2447795633988
 20
-35.91686330457589
 10
17.23841585637446
 20
-35.91512774811464
 10
17.23176288993986
 20
-35.91454922929428
  0
TEXT
  5
254
330
17
100
AcDbEntity
  8
3
100
AcDbText
 10
17.39725612463692
 20
-37.0497928840239
 30
0.0
 40
0.077527079828142
  1
OF
  7
SIMPLEX
100
AcDbText
  0
LINE
  5
255
330
17
100
AcDbEntity
  8
0
100
AcDbLine
 10
16.48017717138267
 20
-37.19562145535885
 30
0.0
 11
19.28320778087487
 21
-37.19562145535885
 31
0.0
  0
TEXT
  5
256
330
17
100
AcDbEntity
  8
3
100
AcDbText
 10
17.07463992100983
 20
-37.65539104846958
 30
0.0
 40
0.1750611479990302
  1
2620.51
  7
SIMPLEX
 72
     1
 11
17.55397401672146
 21
-37.65539104846958
 31
0.0
100
AcDbText
  0
TEXT
  5
257
330
17
100
AcDbEntity
  8
3
100
AcDbText
 10
14.18805457044374
 20
-36.75099744296249
 30
0.0
 40
0.1563045964277055
  1
BELLOW (SMALL)
  7
SIMPLEX
 72
     1
 11
15.15565445309144
 21
-36.75099744296249
 31
0.0
100
AcDbText
  0
LWPOLYLINE
  5
258
330
17
100
AcDbEntity
  8
4
  6
Continuous
100
AcDbPolyline
 90
       46
 70
     0
 43
0.0
 10
14.11852154642478
 20
-35.91021033814128
 10
13.96145368668737
 20
-35.91021033814128
 10
13.96492479960968
 20
-35.91483848870446
 10
13.96839591253208
 20
-35.9200451580881
 10
13.9712885066341
 20
-35.92525182747163
 10
13.97389184132587
 20
-35.93074775626535
 10
13.97620591660746
 20
-35.93653294446932
 10
13.97794147306853
 20
-35.9423181326733
 10
13.97909851070941
 20
-35.94781406146702
 10
13.97938777011958
 20
-35.953599249671
 10
13.97938777011958
 20
-36.22058568528361
 10
14.04938854738746
 20
-36.15318824270751
 10
14.04938854738746
 20
-36.0334348468856
 10
14.14368711511195
 20
-36.0334348468856
 10
14.1497615627262
 20
-36.0331455874754
 10
14.15612526975044
 20
-36.03285632806523
 10
14.16191045795451
 20
-36.03198854983462
 10
14.16798490556858
 20
-36.03083151219382
 10
14.1734808343623
 20
-36.02909595573267
 10
14.17897676315609
 20
-36.02678188045107
 10
14.18418343253972
 20
-36.02417854575931
 10
14.18910084251308
 20
-36.0209966922471
 10
14.19343973366602
 20
-36.01723631991453
 10
14.19720010599857
 20
-36.01260816935135
 10
14.20067121892097
 20
-36.00769075937797
 10
14.203563813023
 20
-36.001905571174
 10
14.20558862889432
 20
-35.99525260473948
 10
14.20732418535548
 20
-35.98802111948454
 10
14.20819196358609
 20
-35.97992185599896
 10
14.20819196358609
 20
-35.97095481428286
 10
14.20732418535548
 20
-35.96140925374631
 10
14.20558862889432
 20
-35.95273147144038
 10
14.20269603479229
 20
-35.94521072677525
 10
14.19922492186999
 20
-35.93855776034074
 10
14.1945967713068
 20
-35.93277257213678
 10
14.18967936133345
 20
-35.9278551621634
 10
14.18389417312947
 20
-35.92380553042064
 10
14.17781972551531
 20
-35.92033441749826
 10
14.17087749967053
 20
-35.91744182339623
 10
14.16393527382583
 20
-35.91512774811464
 10
14.15670378857089
 20
-35.91339219165349
 10
14.14918304390576
 20
-35.91223515401269
 10
14.14137303983036
 20
-35.9110781163719
 10
14.13356303575505
 20
-35.91049959755153
 10
14.12604229108992
 20
-35.91021033814128
 10
14.11852154642478
 20
-35.91021033814128
  0
TEXT
  5
288
330
17
100
AcDbEntity
  8
3
100
AcDbText
 10
11.8564590384092
 20
-37.59014222248055
 30
0.0
 40
0.156
  1
MATERIAL:  1/2 THK. PLYWOOD
  7
SIMPLEX
 72
     1
 11
13.7544590384092
 21
-37.59014222248055
 31
0.0
100
AcDbText
  0
TEXT
  5
289
330
17
100
AcDbEntity
  8
3
100
AcDbText
 10
12.70937786859384
 20
-37.0278523260497
 30
0.0
 40
0.1162906197422129
  1
DWG/PART NO./2620.51
  7
SIMPLEX
 72
     1
 11
13.76153109483291
 21
-37.0278523260497
 31
0.0
100
AcDbText
  0
LWPOLYLINE
  5
28A
330
17
100
AcDbEntity
  8
4
  6
Continuous
 62
     4
100
AcDbPolyline
 90
       96
 70
     0
 43
0.0
 10
12.89927214361662
 20
-36.21624679413069
 10
12.89464399305344
 20
-36.21335420002875
 10
12.88972658308007
 20
-36.20988308710635
 10
12.88451991369653
 20
-36.20554419595335
 10
12.87989176313335
 20
-36.20062678597999
 10
12.87555287198034
 20
-36.19513085718626
 10
12.87208175905802
 20
-36.18847789075167
 10
12.86976768377644
 20
-36.18124640549672
 10
12.86889990554575
 20
-36.17285788260096
 10
12.86889990554575
 20
-35.98107889363975
 10
12.86832138672539
 20
-35.97297963015427
 10
12.86716434908458
 20
-35.96545888548914
 10
12.86485027380308
 20
-35.95822740023419
 10
12.86195767970105
 20
-35.95157443379959
 10
12.85848656677867
 20
-35.94492146736507
 10
12.85414767562565
 20
-35.9391362791611
 10
12.84923026565229
 20
-35.93364035036739
 10
12.84373433685858
 20
-35.92843368098375
 10
12.83794914865469
 20
-35.92380553042064
 10
12.83158544163026
 20
-35.91975589867782
 10
12.82493247519566
 20
-35.91628478575543
 10
12.81827950876123
 20
-35.91310293224331
 10
12.81104802350628
 20
-35.91078885696172
 10
12.80381653825133
 20
-35.90905330050048
 10
12.79629579358619
 20
-35.90760700344951
 10
12.78877504892097
 20
-35.90702848462915
 10
12.78356837953735
 20
-35.90702848462915
 10
12.77836171015381
 20
-35.90702848462915
 10
12.77344430018045
 20
-35.90760700344951
 10
12.76823763079689
 20
-35.90818552226995
 10
12.76332022082355
 20
-35.90905330050048
 10
12.75811355144001
 20
-35.91049959755153
 10
12.75319614146665
 20
-35.91194589460251
 10
12.74827873149328
 20
-35.91339219165349
 10
12.74336132151992
 20
-35.9154170075249
 10
12.73873317095674
 20
-35.91744182339623
 10
12.73410502039356
 20
-35.91975589867782
 10
12.72947686983037
 20
-35.92206997395943
 10
12.72484871926718
 20
-35.92496256806136
 10
12.72050982811435
 20
-35.92756590275322
 10
12.71617093696135
 20
-35.93045849685517
 10
12.71212130521851
 20
-35.93364035036739
 10
12.71038574875737
 20
-35.92959071862455
 10
12.70807167347578
 20
-35.92525182747163
 10
12.70488981996356
 20
-35.9212021957288
 10
12.70141870704125
 20
-35.91744182339623
 10
12.69794759411879
 20
-35.91425996988411
 10
12.69447648119648
 20
-35.91165663519234
 10
12.69129462768435
 20
-35.90992107873109
 10
12.68898055240276
 20
-35.90934255991074
 10
12.61811199690428
 20
-35.90934255991074
 10
12.62245088805721
 20
-35.91339219165349
 10
12.62736829803057
 20
-35.91802034221667
 10
12.63286422682437
 20
-35.92351627101038
 10
12.63807089620791
 20
-35.92987997803472
 10
12.64298830618127
 20
-35.93711146328967
 10
12.64674867851382
 20
-35.9446322079549
 10
12.64964127261586
 20
-35.95302073085056
 10
12.6505090508464
 20
-35.96169851315657
 10
12.6505090508464
 20
-36.21595753472051
 10
12.71559241814099
 20
-36.1633123220645
 10
12.71559241814099
 20
-35.97934333717861
 10
12.71588167755117
 20
-35.97471518661543
 10
12.7167494557817
 20
-35.9703762954625
 10
12.71848501224294
 20
-35.96632666371967
 10
12.72050982811435
 20
-35.96227703197693
 10
12.72282390339585
 20
-35.95822740023419
 10
12.72571649749789
 20
-35.95475628731179
 10
12.72918761042019
 20
-35.9512851743894
 10
12.73265872334257
 20
-35.9481033208772
 10
12.73670835508532
 20
-35.94549998618543
 10
12.74075798682815
 20
-35.94318591090384
 10
12.74509687798116
 20
-35.94087183562225
 10
12.74943576913409
 20
-35.93942553857127
 10
12.75406391969718
 20
-35.9379792415203
 10
12.75869207026036
 20
-35.93740072269994
 10
12.76303096141337
 20
-35.9368222038795
 10
12.76765911197656
 20
-35.93711146328967
 10
12.77489059723151
 20
-35.93826850093048
 10
12.78183282307628
 20
-35.94058257621207
 10
12.78848578951081
 20
-35.94376442972428
 10
12.79427097771477
 20
-35.9481033208772
 10
12.79918838768814
 20
-35.95330999026082
 10
12.80294876002062
 20
-35.95938443787498
 10
12.80526283530221
 20
-35.96661592312994
 10
12.80613061353292
 20
-35.97471518661543
 10
12.80613061353292
 20
-36.18008936785591
 10
12.80699839176345
 20
-36.18761011252105
 10
12.80931246704505
 20
-36.19455233836582
 10
12.81278357996742
 20
-36.20062678597999
 10
12.81770098994069
 20
-36.20583345536353
 10
12.82348617814477
 20
-36.21017234651654
 10
12.8301391445793
 20
-36.21364345943892
 10
12.83737062983425
 20
-36.21566827531025
 10
12.84518063390956
 20
-36.21624679413069
 10
12.89927214361662
 20
-36.21624679413069
  0
LWPOLYLINE
  5
2EC
330
17
100
AcDbEntity
  8
4
  6
Continuous
100
AcDbPolyline
 90
      271
 70
     0
 43
0.0
 10
12.24096583795261
 20
-36.0322778092448
 10
12.23691620620985
 20
-36.0299637339632
 10
12.23286657446703
 20
-36.02793891809187
 10
12.2285276833141
 20
-36.02620336163063
 10
12.22447805157136
 20
-36.02446780516949
 10
12.22013916041836
 20
-36.02273224870833
 10
12.21580026926535
 20
-36.02157521106754
 10
12.21146137811242
 20
-36.02012891401648
 10
12.20712248695951
 20
-36.01897187637568
 10
12.20249433639633
 20
-36.01810409814515
 10
12.19815544524331
 20
-36.01752557932471
 10
12.19323803526995
 20
-36.01694706050435
 10
12.18860988470677
 20
-36.01636854168391
 10
12.18369247473341
 20
-36.01607928227373
 10
12.17877506476004
 20
-36.01607928227373
 10
12.17385765478668
 20
-36.01607928227373
 10
12.16865098540314
 20
-36.01636854168391
 10
12.10038576459643
 20
-36.0771130178255
 10
12.10559243397997
 20
-36.0759559801847
 10
12.11079910336351
 20
-36.0747989425439
 10
12.11600577274714
 20
-36.07364190490311
 10
12.12121244213076
 20
-36.07277412667249
 10
12.1264191115143
 20
-36.07190634844196
 10
12.13162578089784
 20
-36.0713278296215
 10
12.13683245028138
 20
-36.07074931080116
 10
12.1423283790751
 20
-36.07046005139098
 10
12.14753504845864
 20
-36.07017079198072
 10
12.15274171784227
 20
-36.07017079198072
 10
12.15794838722589
 20
-36.07017079198072
 10
12.16315505660943
 20
-36.07046005139098
 10
12.16836172599297
 20
-36.07103857021134
 10
12.17356839537651
 20
-36.07190634844196
 10
12.17877506476004
 20
-36.07277412667249
 10
12.18398173414358
 20
-36.07393116431329
 10
12.18745284706606
 20
-36.07508820195408
 10
12.19121321939854
 20
-36.0759559801847
 10
12.19468433232092
 20
-36.07740227723567
 10
12.19815544524331
 20
-36.07855931487647
 10
12.20162655816571
 20
-36.08000561192744
 10
12.20509767108809
 20
-36.08145190897849
 10
12.20827952460021
 20
-36.08318746543965
 10
12.21175063752269
 20
-36.0849230219008
 10
12.21493249103482
 20
-36.08694783777222
 10
12.21782508513677
 20
-36.08897265364363
 10
12.22071767923871
 20
-36.09099746951496
 10
12.22361027334073
 20
-36.09331154479655
 10
12.22621360803251
 20
-36.09591487948832
 10
12.22881694272427
 20
-36.0985182141801
 10
12.23113101800587
 20
-36.10141080828213
 10
12.23344509328746
 20
-36.10430340238407
 10
12.23691620620985
 20
-36.10951007176769
 10
12.2398088003118
 20
-36.1152952599716
 10
12.24183361618322
 20
-36.12108044817557
 10
12.24327991323419
 20
-36.12744415519991
 10
12.24414769146481
 20
-36.13351860281407
 10
12.24385843205464
 20
-36.1398823098384
 10
12.24241213500357
 20
-36.14595675745257
 10
12.24009805972198
 20
-36.15174194565654
 10
12.23662694679967
 20
-36.15694861504008
 10
12.23257731505685
 20
-36.16128750619309
 10
12.22794916449367
 20
-36.16504787852565
 10
12.22245323569995
 20
-36.16822973203787
 10
12.21666804749605
 20
-36.17083306672963
 10
12.21088285929199
 20
-36.17285788260096
 10
12.20451915226774
 20
-36.17459343906221
 10
12.19844470465349
 20
-36.175750476703
 10
12.19555211055155
 20
-36.17603973611317
 10
12.19237025703942
 20
-36.17661825493353
 10
12.18947766293738
 20
-36.17690751434379
 10
12.18629580942518
 20
-36.17690751434379
 10
12.18311395591305
 20
-36.17719677375397
 10
12.1802213618111
 20
-36.17719677375397
 10
12.17703950829881
 20
-36.17719677375397
 10
12.17385765478668
 20
-36.17719677375397
 10
12.17096506068474
 20
-36.17719677375397
 10
12.16778320717261
 20
-36.17690751434379
 10
12.16460135366031
 20
-36.17690751434379
 10
12.16141950014819
 20
-36.17632899552336
 10
12.15852690604622
 20
-36.17603973611317
 10
12.15534505253404
 20
-36.17546121729273
 10
12.152452458432
 20
-36.17488269847238
 10
12.14927060491987
 20
-36.17430417965203
 10
12.14579949199757
 20
-36.17343640142141
 10
12.1423283790751
 20
-36.17256862319079
 10
12.13914652556297
 20
-36.17141158555
 10
12.13567541264057
 20
-36.17025454790919
 10
12.13249355912837
 20
-36.16880825085822
 10
12.12931170561625
 20
-36.16736195380724
 10
12.12612985210403
 20
-36.165626397346
 10
12.12294799859182
 20
-36.16389084088485
 10
12.12005540448987
 20
-36.16215528442371
 10
12.11687355097775
 20
-36.16013046855229
 10
12.11398095687573
 20
-36.15810565268088
 10
12.11108836277369
 20
-36.15608083680954
 10
12.10819576867174
 20
-36.15405602093814
 10
12.10559243397997
 20
-36.15174194565654
 10
12.10269983987802
 20
-36.14942787037495
 10
12.10009650518625
 20
-36.14711379509336
 10
12.09575761403325
 20
-36.14277490394044
 10
12.09170798229049
 20
-36.13814675337725
 10
12.08765835054776
 20
-36.13351860281407
 10
12.08360871880493
 20
-36.12889045225088
 10
12.07984834647245
 20
-36.12426230168778
 10
12.07637723354997
 20
-36.11934489171442
 10
12.07261686121749
 20
-36.1141382223308
 10
12.0694350077052
 20
-36.10922081235744
 10
12.06625315419307
 20
-36.10401414297391
 10
12.06336056009112
 20
-36.0985182141801
 10
12.06075722539935
 20
-36.09331154479655
 10
12.05815389070758
 20
-36.08781561600284
 10
12.05583981542599
 20
-36.08203042779886
 10
12.05410425896476
 20
-36.07653449900514
 10
12.05236870250361
 20
-36.07046005139098
 10
12.05092240545263
 20
-36.06467486318699
 10
12.04889758958122
 20
-36.05136893031789
 10
12.04802981135068
 20
-36.03748447862841
 10
12.04889758958122
 20
-36.02360002693887
 10
12.05121166486281
 20
-36.01029409406975
 10
12.05526129660556
 20
-35.99756668002108
 10
12.06133574421971
 20
-35.98599630361312
 10
12.06914574829502
 20
-35.97558296484604
 10
12.07898056824174
 20
-35.96719444195029
 10
12.08245168116422
 20
-35.96516962607888
 10
12.08592279408652
 20
-35.96343406961773
 10
12.08968316641917
 20
-35.96169851315657
 10
12.09315427934148
 20
-35.96025221610553
 10
12.09691465167413
 20
-35.95909517846472
 10
12.10096428341678
 20
-35.95793814082392
 10
12.10472465574943
 20
-35.95707036259339
 10
12.10877428749219
 20
-35.95649184377295
 10
12.11253465982474
 20
-35.95591332495259
 10
12.11658429156758
 20
-35.95562406554242
 10
12.12063392331023
 20
-35.95562406554242
 10
12.12468355505306
 20
-35.95562406554242
 10
12.12873318679589
 20
-35.95562406554242
 10
12.13278281853855
 20
-35.95591332495259
 10
12.1365431908712
 20
-35.95649184377295
 10
12.14059282261394
 20
-35.95707036259339
 10
12.14579949199757
 20
-35.95793814082392
 10
12.15100616138111
 20
-35.95909517846472
 10
12.15621283076465
 20
-35.96025221610553
 10
12.16113024073801
 20
-35.96198777256675
 10
12.16604765071137
 20
-35.9637233290279
 10
12.17096506068474
 20
-35.96574814489932
 10
12.1758824706581
 20
-35.96777296077064
 10
12.18079988063146
 20
-35.97008703605224
 10
12.18542803119464
 20
-35.9726903707441
 10
12.18976692234765
 20
-35.97529370543586
 10
12.19439507291076
 20
-35.97847555894798
 10
12.19873396406367
 20
-35.98136815305002
 10
12.20307285521667
 20
-35.98483926597233
 10
12.20712248695951
 20
-35.98802111948454
 10
12.21117211870224
 20
-35.9917814918171
 10
12.21493249103482
 20
-35.99554186414966
 10
12.26844548192144
 20
-35.96661592312994
 10
12.26497436899897
 20
-35.96025221610553
 10
12.26092473725631
 20
-35.95446702790161
 10
12.25629658669313
 20
-35.94897109910782
 10
12.25108991730959
 20
-35.94405368913446
 10
12.24559398851578
 20
-35.93942553857127
 10
12.23951954090162
 20
-35.93537590682853
 10
12.23344509328746
 20
-35.93161553449596
 10
12.22708138626313
 20
-35.92814442157357
 10
12.22216397628977
 20
-35.92583034629198
 10
12.21695730690623
 20
-35.92351627101038
 10
12.21203989693287
 20
-35.92149145513906
 10
12.20683322754933
 20
-35.91975589867782
 10
12.20133729875544
 20
-35.91802034221667
 10
12.1961306293719
 20
-35.91686330457589
 10
12.19063470057818
 20
-35.91570626693508
 10
12.18513877178446
 20
-35.91483848870446
 10
12.17964284299065
 20
-35.91425996988411
 10
12.17414691419686
 20
-35.91397071047384
 10
12.16836172599297
 20
-35.91368145106367
 10
12.16286579719925
 20
-35.91368145106367
 10
12.15736986840536
 20
-35.91397071047384
 10
12.15187393961164
 20
-35.91454922929428
 10
12.14637801081792
 20
-35.9154170075249
 10
12.14088208202411
 20
-35.91657404516571
 10
12.13567541264057
 20
-35.91773108280649
 10
12.13075800266721
 20
-35.91946663926764
 10
12.1255513332836
 20
-35.9212021957288
 10
12.12063392331023
 20
-35.92293775219003
 10
12.11600577274714
 20
-35.92525182747163
 10
12.11108836277369
 20
-35.92756590275322
 10
12.10646021221058
 20
-35.93016923744499
 10
12.10183206164748
 20
-35.93277257213678
 10
12.0972039110843
 20
-35.93566516623872
 10
12.0928650199313
 20
-35.93855776034074
 10
12.0885261287783
 20
-35.94173961385286
 10
12.08418723762536
 20
-35.94492146736507
 10
12.07984834647245
 20
-35.94839258028746
 10
12.07579871472962
 20
-35.95186369320977
 10
12.07145982357661
 20
-35.95533480613215
 10
12.06741019183388
 20
-35.95880591905454
 10
12.06162500362989
 20
-35.96401258843807
 10
12.05612907483617
 20
-35.96921925782171
 10
12.05063314604245
 20
-35.97471518661543
 10
12.04542647665882
 20
-35.9805003748194
 10
12.04021980727528
 20
-35.98628556302338
 10
12.03530239730193
 20
-35.99207075122728
 10
12.03067424673875
 20
-35.99814519884144
 10
12.02604609617564
 20
-36.00450890586586
 10
12.02199646443281
 20
-36.0108726128902
 10
12.01794683268999
 20
-36.01752557932471
 10
12.0141864603575
 20
-36.02417854575931
 10
12.01100460684521
 20
-36.031120771604
 10
12.00811201274325
 20
-36.03806299744878
 10
12.00550867805149
 20
-36.04529448270373
 10
12.0031946027699
 20
-36.05252596795868
 10
12.00145904630874
 20
-36.06004671262382
 10
11.9997234898476
 20
-36.07017079198072
 10
11.99885571161697
 20
-36.08058413074788
 10
11.99856645220671
 20
-36.09070821010478
 10
11.99885571161697
 20
-36.10112154887195
 10
12.00001274925778
 20
-36.11124562822885
 10
12.00203756512919
 20
-36.12136970758575
 10
12.00464089982096
 20
-36.13149378694265
 10
12.00811201274325
 20
-36.14103934747921
 10
12.01042608802486
 20
-36.14624601686283
 10
12.01302942271663
 20
-36.15145268624637
 10
12.01563275740839
 20
-36.15637009621972
 10
12.01881461092069
 20
-36.16099824678291
 10
12.02199646443281
 20
-36.165626397346
 10
12.02546757735512
 20
-36.17025454790919
 10
12.02922794968776
 20
-36.17459343906221
 10
12.03298832202033
 20
-36.17864307080495
 10
12.03703795376308
 20
-36.18269270254768
 10
12.04137684491608
 20
-36.18645307488026
 10
12.04571573606909
 20
-36.19021344721291
 10
12.05005462722192
 20
-36.1936845601352
 10
12.05468277778511
 20
-36.19686641364741
 10
12.05960018775847
 20
-36.19975900774937
 10
12.06451759773184
 20
-36.2026516018514
 10
12.0694350077052
 20
-36.20525493654316
 10
12.08100538411316
 20
-36.21017234651654
 10
12.0928650199313
 20
-36.21422197825928
 10
12.10501391515961
 20
-36.21711457236131
 10
12.11745206979811
 20
-36.21942864764282
 10
12.12989022443661
 20
-36.22058568528361
 10
12.1423283790751
 20
-36.22116420410405
 10
12.15476653371359
 20
-36.22058568528361
 10
12.16749394776234
 20
-36.21913938823264
 10
12.17964284299065
 20
-36.21682531295105
 10
12.19150247880872
 20
-36.21364345943892
 10
12.20336211462685
 20
-36.2093045682859
 10
12.21464323162464
 20
-36.20438715831254
 10
12.22534582980189
 20
-36.19831271069839
 10
12.2354699091588
 20
-36.19137048485362
 10
12.24501546969534
 20
-36.1835604807783
 10
12.25398251141153
 20
-36.17488269847238
 10
12.26063547784613
 20
-36.16707269439706
 10
12.26670992546021
 20
-36.15868417150132
 10
12.27220585425392
 20
-36.15029564860556
 10
12.27683400481711
 20
-36.14103934747921
 10
12.28088363655993
 20
-36.13178304635292
 10
12.28406549007206
 20
-36.12223748581637
 10
12.28609030594348
 20
-36.11240266586964
 10
12.28753660299454
 20
-36.10227858651274
 10
12.28782586240471
 20
-36.09417932302717
 10
12.28724734358427
 20
-36.08636931895186
 10
12.28580104653328
 20
-36.07855931487647
 10
12.28319771184153
 20
-36.07074931080116
 10
12.27972659891914
 20
-36.06438560377682
 10
12.27567696717638
 20
-36.05860041557284
 10
12.27075955720303
 20
-36.05310448677903
 10
12.2655528878194
 20
-36.04818707680568
 10
12.25976769961542
 20
-36.04384818565275
 10
12.25369325200136
 20
-36.03950929449974
 10
12.24732954497693
 20
-36.03574892216718
 10
12.24096583795261
 20
-36.0322778092448
  0
LWPOLYLINE
  5
3FD
330
17
100
AcDbEntity
  8
4
  6
Continuous
100
AcDbPolyline
 90
       83
 70
     0
 43
0.0
 10
11.60285364030442
 20
-35.9481033208772
 10
11.59822548974124
 20
-35.94376442972428
 10
11.59359733917805
 20
-35.93942553857127
 10
11.58896918861494
 20
-35.93537590682853
 10
11.58405177864159
 20
-35.93161553449596
 10
11.57884510925796
 20
-35.92843368098375
 10
11.57305992105407
 20
-35.9255410868818
 10
11.56669621402965
 20
-35.92293775219003
 10
11.5594647287747
 20
-35.9212021957288
 10
11.42466984362251
 20
-35.99583112355985
 10
11.42409132480215
 20
-36.18818863134149
 10
11.42438058421233
 20
-36.19137048485362
 10
11.42495910303268
 20
-36.19484159777601
 10
11.42611614067356
 20
-36.19773419187803
 10
11.42756243772447
 20
-36.20062678597999
 10
11.42929799418569
 20
-36.20323012067176
 10
11.4313228100571
 20
-36.20583345536353
 10
11.4336368853387
 20
-36.20785827123493
 10
11.43624022003046
 20
-36.20988308710635
 10
11.44057911118349
 20
-36.21248642179812
 10
11.44520726174658
 20
-36.21480049707971
 10
11.44983541230976
 20
-36.21682531295105
 10
11.45475282228312
 20
-36.21856086941228
 10
11.45967023225648
 20
-36.21971790705308
 10
11.46458764222983
 20
-36.22087494469387
 10
11.46979431161339
 20
-36.2217427229244
 10
11.47500098099701
 20
-36.22261050115503
 10
11.48020765038054
 20
-36.22289976056521
 10
11.48541431976408
 20
-36.22318901997547
 10
11.49062098914762
 20
-36.22318901997547
 10
11.49611691794134
 20
-36.22289976056521
 10
11.50132358732497
 20
-36.22261050115503
 10
11.50653025670859
 20
-36.22203198233467
 10
11.51173692609213
 20
-36.22145346351422
 10
11.51694359547567
 20
-36.22058568528361
 10
11.52301804308984
 20
-36.21971790705308
 10
11.52909249070399
 20
-36.21827161000211
 10
11.53487767890788
 20
-36.21682531295105
 10
11.54066286711195
 20
-36.21508975648989
 10
11.54644805531585
 20
-36.21306494061848
 10
11.55223324351974
 20
-36.21075086533688
 10
11.55772917231362
 20
-36.20814753064511
 10
11.56322510110735
 20
-36.20554419595335
 10
11.56843177049088
 20
-36.2026516018514
 10
11.5739276992846
 20
-36.19946974833919
 10
11.57884510925796
 20
-36.1959986354168
 10
11.58405177864159
 20
-36.19252752249441
 10
11.58896918861494
 20
-36.18876715016185
 10
11.59359733917805
 20
-36.18500677782928
 10
11.59822548974124
 20
-36.18095714608653
 10
11.60285364030442
 20
-36.17690751434379
 10
11.61008512555937
 20
-36.16938676967865
 10
11.61673809199397
 20
-36.16157676560328
 10
11.6231017990183
 20
-36.15347750211777
 10
11.62859772781211
 20
-36.14479971981177
 10
11.63380439719565
 20
-36.13554341868547
 10
11.63843254775883
 20
-36.12628711755911
 10
11.64219292009132
 20
-36.11674155702257
 10
11.64566403301381
 20
-36.10690673707586
 10
11.64826736770555
 20
-36.09707191712911
 10
11.6502921835769
 20
-36.08665857836204
 10
11.65173848062786
 20
-36.07653449900514
 10
11.65260625885849
 20
-36.06612116023797
 10
11.65289551826865
 20
-36.05599708088107
 10
11.65231699944822
 20
-36.04558374211391
 10
11.6511599618075
 20
-36.03517040334683
 10
11.64942440534627
 20
-36.02504632398984
 10
11.64797810829531
 20
-36.01955039519612
 10
11.64653181124432
 20
-36.01405446640232
 10
11.64479625478309
 20
-36.0085585376086
 10
11.64277143891177
 20
-36.00335186822507
 10
11.64045736363017
 20
-35.99814519884144
 10
11.6378540289384
 20
-35.9929385294579
 10
11.63525069424654
 20
-35.98802111948454
 10
11.63235810014459
 20
-35.98310370951117
 10
11.62917624663247
 20
-35.97818629953781
 10
11.62570513371008
 20
-35.97355814897464
 10
11.62223402078769
 20
-35.96892999841144
 10
11.61876290786531
 20
-35.96459110725853
 10
11.61500253553273
 20
-35.96025221610553
 10
11.61095290379
 20
-35.95620258436277
 10
11.60690327204724
 20
-35.95215295262003
 10
11.60285364030442
 20
-35.9481033208772
  0
LWPOLYLINE
  5
452
330
17
100
AcDbEntity
  8
4
  6
Continuous
100
AcDbPolyline
 90
       61
 70
     0
 43
0.0
 10
11.8851308227942
 20
-36.04529448270373
 10
11.89351934568986
 20
-36.04471596388329
 10
11.90161860917543
 20
-36.04355892624249
 10
11.9088500944303
 20
-36.04182336978134
 10
11.91550306086491
 20
-36.03950929449974
 10
11.9212882490689
 20
-36.03661670039779
 10
11.92678417786269
 20
-36.0334348468856
 10
11.93170158783605
 20
-36.02967447455302
 10
11.93604047898898
 20
-36.0253355834001
 10
11.93980085132153
 20
-36.02070743283692
 10
11.94298270483366
 20
-36.01579002286356
 10
11.94558603952551
 20
-36.01058335348002
 10
11.94761085539685
 20
-36.00479816527605
 10
11.94934641185808
 20
-35.99901297707206
 10
11.95050344949879
 20
-35.9929385294579
 10
11.95108196831932
 20
-35.98657482243356
 10
11.9513712277295
 20
-35.97992185599896
 10
11.95108196831932
 20
-35.97384740838482
 10
11.94992493067844
 20
-35.96777296077064
 10
11.94847863362746
 20
-35.96198777256675
 10
11.94616455834587
 20
-35.95620258436277
 10
11.94356122365411
 20
-35.95070665556905
 10
11.94037937014189
 20
-35.94549998618543
 10
11.93661899780942
 20
-35.94058257621207
 10
11.93256936606658
 20
-35.93595442564889
 10
11.9279412155034
 20
-35.93190479390614
 10
11.92302380553003
 20
-35.92814442157357
 10
11.91810639555668
 20
-35.92496256806136
 10
11.91261046676296
 20
-35.92206997395943
 10
11.90682527855897
 20
-35.91975589867782
 10
11.901040090355
 20
-35.91830960162685
 10
11.89496564274092
 20
-35.91715256398605
 10
11.88889119512668
 20
-35.91686330457589
 10
11.68640960798813
 20
-35.91686330457589
 10
11.68930220209017
 20
-35.91917737985747
 10
11.69190553678194
 20
-35.92149145513906
 10
11.69450887147379
 20
-35.92409478983082
 10
11.69682294675538
 20
-35.92640886511242
 10
11.69913702203688
 20
-35.92872294039401
 10
11.70145109731849
 20
-35.93161553449596
 10
11.70347591318981
 20
-35.93450812859791
 10
11.70550072906123
 20
-35.9379792415203
 10
11.70839332316318
 20
-35.94434294854463
 10
11.71070739844477
 20
-35.95186369320977
 10
11.71215369549583
 20
-35.95909517846472
 10
11.71273221431618
 20
-35.96488036666869
 10
11.71302147372636
 20
-36.22492457643661
 10
11.78273299158413
 20
-36.16389084088485
 10
11.78273299158413
 20
-36.04326966683232
 10
11.81339448906501
 20
-36.04298040742214
 10
11.9178171361465
 20
-36.21595753472051
 10
12.00777681271807
 20
-36.21653605354087
 10
12.00228088392426
 20
-36.21335420002875
 10
11.99678495513055
 20
-36.2095938276961
 10
11.99157828574691
 20
-36.20583345536353
 10
11.98637161636338
 20
-36.2014945642106
 10
11.98145420639003
 20
-36.19744493246785
 10
11.97682605582684
 20
-36.19281678190468
 10
11.97219790526366
 20
-36.18818863134149
 10
11.96756975470048
 20
-36.18327122136812
 10
11.8851308227942
 20
-36.04529448270373
  0
LWPOLYLINE
  5
491
330
17
100
AcDbEntity
  8
4
  6
Continuous
100
AcDbPolyline
 90
       59
 70
     0
 43
0.0
 10
11.48541431976408
 20
-35.99785593943126
 10
11.51491877960426
 20
-35.97529370543586
 10
11.51954693016744
 20
-35.97558296484604
 10
11.52388582132044
 20
-35.9761614836664
 10
11.52822471247338
 20
-35.97731852130719
 10
11.53227434421611
 20
-35.97847555894798
 10
11.53661323536912
 20
-35.98021111540923
 10
11.54066286711195
 20
-35.98223593128056
 10
11.54442323944443
 20
-35.98455000656215
 10
11.54818361177708
 20
-35.98715334125393
 10
11.55165472469939
 20
-35.98975667594577
 10
11.55512583762178
 20
-35.99264927004771
 10
11.55859695054416
 20
-35.99554186414966
 10
11.56177880405629
 20
-35.99872371766188
 10
11.56467139815833
 20
-36.001905571174
 10
11.56756399226037
 20
-36.00508742468621
 10
11.57016732695212
 20
-36.00798001878815
 10
11.57248140223364
 20
-36.01116187230037
 10
11.5805806657192
 20
-36.02388928634904
 10
11.58694437274354
 20
-36.03719521921816
 10
11.59157252330673
 20
-36.05136893031789
 10
11.59475437681892
 20
-36.0658319008278
 10
11.59677919269027
 20
-36.08058413074788
 10
11.59764697092088
 20
-36.09562562007815
 10
11.59822548974124
 20
-36.1106671094084
 10
11.59793623033106
 20
-36.12570859873875
 10
11.5973577115107
 20
-36.13351860281407
 10
11.59591141445964
 20
-36.14103934747921
 10
11.59359733917805
 20
-36.14827083273415
 10
11.5907047450761
 20
-36.15521305857893
 10
11.58723363215372
 20
-36.16186602501344
 10
11.5828947410008
 20
-36.16822973203787
 10
11.57826659043761
 20
-36.17401492024176
 10
11.57305992105407
 20
-36.17951084903557
 10
11.5672747328501
 20
-36.18442825900892
 10
11.56148954464611
 20
-36.18905640957211
 10
11.55512583762178
 20
-36.19310604131485
 10
11.54876213059744
 20
-36.19686641364741
 10
11.54239842357301
 20
-36.20004826715963
 10
11.53574545713859
 20
-36.20236234244122
 10
11.52909249070399
 20
-36.20438715831254
 10
11.52272878367957
 20
-36.20583345536353
 10
11.51896841134708
 20
-36.20554419595335
 10
11.51520803901444
 20
-36.20525493654316
 10
11.51144766668196
 20
-36.20438715831254
 10
11.5079765537595
 20
-36.20323012067176
 10
11.50450544083718
 20
-36.20178382362078
 10
11.50132358732497
 20
-36.20004826715963
 10
11.49814173381276
 20
-36.19773419187803
 10
11.49553839912099
 20
-36.19542011659645
 10
11.49264580501904
 20
-36.19252752249441
 10
11.49062098914762
 20
-36.18934566898229
 10
11.48888543268648
 20
-36.1858745560599
 10
11.4874391356355
 20
-36.18211418372733
 10
11.48657135740489
 20
-36.17835381139477
 10
11.48599283858444
 20
-36.17430417965203
 10
11.48541431976408
 20
-36.17025454790919
 10
11.48541431976408
 20
-36.16620491616645
 10
11.48541431976408
 20
-35.99785593943126
  0
LWPOLYLINE
  5
4CE
330
17
100
AcDbEntity
  8
4
  6
Continuous
100
AcDbPolyline
 90
      114
 70
     0
 43
0.0
 10
12.58736263824712
 20
-36.21653605354087
 10
12.58418078473499
 20
-36.2139327188491
 10
12.58099893122277
 20
-36.21017234651654
 10
12.57781707771058
 20
-36.20496567713299
 10
12.57463522419845
 20
-36.19860197010857
 10
12.5717426300965
 20
-36.19108122544343
 10
12.56942855481491
 20
-36.18182492431716
 10
12.56769299835368
 20
-36.17112232613981
 10
12.56653596071296
 20
-36.1589734309115
 10
12.56653596071296
 20
-35.96748370136046
 10
12.56624670130278
 20
-35.96227703197693
 10
12.5650896636619
 20
-35.95678110318313
 10
12.56306484779049
 20
-35.9512851743894
 10
12.56017225368854
 20
-35.94607850500587
 10
12.55641188135597
 20
-35.94087183562225
 10
12.5517837307928
 20
-35.93566516623872
 10
12.54657706140926
 20
-35.93074775626535
 10
12.54050261379509
 20
-35.92583034629198
 10
12.5338496473605
 20
-35.92149145513906
 10
12.52632890269536
 20
-35.91744182339623
 10
12.5179403797997
 20
-35.91397071047384
 10
12.50926259749368
 20
-35.91078885696172
 10
12.49942777754696
 20
-35.90847478168012
 10
12.48930369819006
 20
-35.90644996580871
 10
12.47831184060254
 20
-35.9052929281679
 10
12.46674146419466
 20
-35.90471440934756
 10
12.45430330955617
 20
-35.9052929281679
 10
12.44215441432785
 20
-35.90702848462915
 10
12.43029477850972
 20
-35.91049959755153
 10
12.41901366151193
 20
-35.91483848870446
 10
12.40831106333467
 20
-35.92062367690843
 10
12.39789772456759
 20
-35.92727664334296
 10
12.38835216403105
 20
-35.93508664741835
 10
12.37938512231485
 20
-35.94376442972428
 10
12.37128585882939
 20
-35.95330999026082
 10
12.36376511416424
 20
-35.96343406961773
 10
12.35740140713982
 20
-35.97413666779508
 10
12.35219473775628
 20
-35.98541778479277
 10
12.34785584660327
 20
-35.99727742061091
 10
12.34467399309115
 20
-36.00942631583922
 10
12.34264917721973
 20
-36.02186447047771
 10
12.34207065839938
 20
-36.03459188452639
 10
12.34207065839938
 20
-36.175750476703
 10
12.34149213957894
 20
-36.18471751841911
 10
12.33946732370762
 20
-36.19223826308423
 10
12.33686398901584
 20
-36.19860197010857
 10
12.33339287609336
 20
-36.2038086394922
 10
12.32992176317106
 20
-36.20785827123493
 10
12.32645065024868
 20
-36.21132938415732
 10
12.32297953732628
 20
-36.2139327188491
 10
12.32037620263451
 20
-36.21624679413069
 10
12.38169919759645
 20
-36.21624679413069
 10
12.38979846108193
 20
-36.21508975648989
 10
12.39674068692673
 20
-36.21219716238794
 10
12.40281513454095
 20
-36.20785827123493
 10
12.40802180392449
 20
-36.20207308303096
 10
12.41236069507742
 20
-36.19570937600662
 10
12.41554254858963
 20
-36.18876715016185
 10
12.41756736446103
 20
-36.1815356649069
 10
12.41872440210175
 20
-36.17430417965203
 10
12.41930292092211
 20
-36.16389084088485
 10
12.41785662387122
 20
-36.15318824270751
 10
12.4158318079998
 20
-36.14277490394044
 10
12.41322847330803
 20
-36.13265082458346
 10
12.40975736038566
 20
-36.11818785407364
 10
12.40657550687344
 20
-36.10372488356372
 10
12.40368291277149
 20
-36.08926191305381
 10
12.40079031866954
 20
-36.0747989425439
 10
12.39818698397777
 20
-36.06033597203399
 10
12.39616216810636
 20
-36.04558374211391
 10
12.39442661164512
 20
-36.031120771604
 10
12.39326957400441
 20
-36.01636854168391
 10
12.39298031459423
 20
-36.00421964645561
 10
12.39384809282477
 20
-35.9917814918171
 10
12.39587290869618
 20
-35.97963259658879
 10
12.39905476220831
 20
-35.96777296077064
 10
12.40368291277149
 20
-35.95678110318313
 10
12.40975736038566
 20
-35.94665702382622
 10
12.41727810505079
 20
-35.9379792415203
 10
12.42682366558733
 20
-35.93074775626535
 10
12.43231959438113
 20
-35.9278551621634
 10
12.43810478258503
 20
-35.92583034629198
 10
12.44417923019919
 20
-35.92438404924101
 10
12.45025367781334
 20
-35.92351627101038
 10
12.45661738483776
 20
-35.92351627101038
 10
12.46298109186201
 20
-35.92438404924101
 10
12.46905553947626
 20
-35.92583034629198
 10
12.47512998709033
 20
-35.9278551621634
 10
12.48062591588414
 20
-35.93074775626535
 10
12.48583258526775
 20
-35.93421886918772
 10
12.49074999524104
 20
-35.93855776034074
 10
12.49479962698378
 20
-35.9434751703141
 10
12.49827073990625
 20
-35.94897109910782
 10
12.50116333400819
 20
-35.95533480613215
 10
12.50318814987961
 20
-35.96227703197693
 10
12.50405592811014
 20
-35.96979777664206
 10
12.50405592811014
 20
-36.17517195788256
 10
12.50434518752032
 20
-36.18008936785591
 10
12.50521296575095
 20
-36.18442825900892
 10
12.50665926280191
 20
-36.18876715016185
 10
12.50839481926315
 20
-36.19281678190468
 10
12.51070889454475
 20
-36.19628789482706
 10
12.51331222923652
 20
-36.19975900774937
 10
12.51620482333846
 20
-36.20294086126158
 10
12.51967593626085
 20
-36.20583345536353
 10
12.52343630859341
 20
-36.20814753064511
 10
12.52719668092597
 20
-36.2104616059267
 10
12.53124631266873
 20
-36.21219716238794
 10
12.53558520382173
 20
-36.21364345943892
 10
12.53992409497474
 20
-36.21508975648989
 10
12.54455224553793
 20
-36.21595753472051
 10
12.54889113669085
 20
-36.21624679413069
 10
12.55351928725394
 20
-36.21653605354087
 10
12.58736263824712
 20
-36.21653605354087
  0
LWPOLYLINE
  5
542
330
17
100
AcDbEntity
  8
4
  6
Continuous
100
AcDbPolyline
 90
        5
 70
     0
 43
0.0
 10
12.49566740521448
 20
-36.06438560377682
 10
12.41091439802644
 20
-36.01029409406975
 10
12.41091439802644
 20
-36.06322856613604
 10
12.49595666462465
 20
-36.10893155294725
 10
12.49566740521448
 20
-36.06438560377682
  0
LWPOLYLINE
  5
549
330
17
100
AcDbEntity
  8
4
  6
Continuous
100
AcDbPolyline
 90
       21
 70
     0
 43
0.0
 10
11.88397378515332
 20
-35.97992185599896
 10
11.88310600692278
 20
-35.98888889771515
 10
11.88050267223101
 20
-35.99727742061091
 10
11.87645304048819
 20
-36.00450890586586
 10
11.87095711169447
 20
-36.0108726128902
 10
11.86430414525988
 20
-36.01607928227373
 10
11.85678340059474
 20
-36.01983965460629
 10
11.84839487769908
 20
-36.02215372988789
 10
11.83971709539306
 20
-36.0230215081185
 10
11.78157595394324
 20
-36.0230215081185
 10
11.78157595394324
 20
-35.94868183969764
 10
11.77579076573936
 20
-35.93450812859791
 10
11.84087413303384
 20
-35.93450812859791
 10
11.84955191533978
 20
-35.93537590682853
 10
11.85794043823554
 20
-35.9379792415203
 10
11.86517192349048
 20
-35.94202887326304
 10
11.87153563051483
 20
-35.94752480205684
 10
11.87674229989836
 20
-35.95446702790161
 10
11.88050267223101
 20
-35.96198777256675
 10
11.88310600692278
 20
-35.97066555487268
 10
11.88397378515332
 20
-35.97992185599896
  0
LWPOLYLINE
  5
560
330
17
100
AcDbEntity
  8
4
  6
Continuous
100
AcDbPolyline
 90
      213
 70
     0
 43
0.0
 10
13.32333649601642
 20
-35.92727664334296
 10
13.31668352958197
 20
-35.92467330865119
 10
13.31003056314738
 20
-35.92235923336959
 10
13.30337759671277
 20
-35.92033441749826
 10
13.29643537086809
 20
-35.91859886103704
 10
13.28949314502332
 20
-35.91744182339623
 10
13.28255091917862
 20
-35.91628478575543
 10
13.27560869333384
 20
-35.9154170075249
 10
13.26866646748907
 20
-35.91483848870446
 10
13.26143498223411
 20
-35.91454922929428
 10
13.25449275638933
 20
-35.91454922929428
 10
13.24726127113438
 20
-35.91483848870446
 10
13.2403190452897
 20
-35.9154170075249
 10
13.23308756003474
 20
-35.91628478575543
 10
13.22614533418996
 20
-35.91715256398605
 10
13.21920310834527
 20
-35.91859886103704
 10
13.21226088250049
 20
-35.9200451580881
 10
13.20011198727217
 20
-35.92380553042064
 10
13.18825235145405
 20
-35.92930145921437
 10
13.17697123445634
 20
-35.93566516623872
 10
13.16597937686882
 20
-35.9434751703141
 10
13.15585529751192
 20
-35.95215295262003
 10
13.14630973697537
 20
-35.96198777256675
 10
13.13792121407962
 20
-35.97240111133383
 10
13.13040046941449
 20
-35.98339296892135
 10
13.12432602180033
 20
-35.99496334532931
 10
13.11969787123714
 20
-36.00711224055763
 10
13.11622675831476
 20
-36.01926113578596
 10
13.11478046126378
 20
-36.03169929042444
 10
13.11506972067396
 20
-36.04413744506293
 10
13.11709453654537
 20
-36.05657559970143
 10
13.12114416828822
 20
-36.06872449492974
 10
13.12750787531245
 20
-36.08029487133771
 10
13.12895417236353
 20
-36.08203042779886
 10
13.13068972882467
 20
-36.08347672484983
 10
13.13242528528582
 20
-36.08463376249062
 10
13.13445010115723
 20
-36.08579080013142
 10
13.13647491702865
 20
-36.08636931895186
 10
13.13849973290006
 20
-36.08665857836204
 10
13.14081380818165
 20
-36.08665857836204
 10
13.14312788346324
 20
-36.0860800595416
 10
13.22527755595934
 20
-36.07046005139098
 10
13.22990570652254
 20
-36.06959227316036
 10
13.23453385708571
 20
-36.06901375433993
 10
13.23945126705907
 20
-36.06814597610938
 10
13.24407941762225
 20
-36.06785671669913
 10
13.24899682759561
 20
-36.06727819787876
 10
13.2536249781588
 20
-36.0669889384686
 10
13.25825312872199
 20
-36.0669889384686
 10
13.26317053869535
 20
-36.0669889384686
 10
13.26779868925853
 20
-36.06727819787876
 10
13.27242683982162
 20
-36.06756745728894
 10
13.27705499038482
 20
-36.06814597610938
 10
13.28168314094792
 20
-36.06901375433993
 10
13.28602203210092
 20
-36.07017079198072
 10
13.2906501826641
 20
-36.0713278296215
 10
13.29498907381713
 20
-36.07306338608275
 10
13.29932796497004
 20
-36.0747989425439
 10
13.30916278491676
 20
-36.08087339015805
 10
13.3163942701717
 20
-36.08955117246399
 10
13.32131168014508
 20
-36.09967525182097
 10
13.3242042742471
 20
-36.11124562822885
 10
13.32449353365728
 20
-36.12339452345717
 10
13.32246871778587
 20
-36.13583267809565
 10
13.31841908604313
 20
-36.14740305450362
 10
13.31234463842897
 20
-36.15810565268088
 10
13.30800574727598
 20
-36.16302306265424
 10
13.30366685612295
 20
-36.1679404726276
 10
13.29846018673941
 20
-36.17199010437043
 10
13.29325351735587
 20
-36.175750476703
 10
13.28775758856216
 20
-36.17922158962539
 10
13.28168314094792
 20
-36.18211418372733
 10
13.27560869333384
 20
-36.18413899959874
 10
13.26924498630944
 20
-36.1858745560599
 10
13.26172424164429
 20
-36.18674233429052
 10
13.25420349697915
 20
-36.18674233429052
 10
13.2469720117242
 20
-36.18616381547008
 10
13.23945126705907
 20
-36.18442825900892
 10
13.23250904121431
 20
-36.18240344313751
 10
13.22527755595934
 20
-36.17951084903557
 10
13.21862458952483
 20
-36.17603973611317
 10
13.21197162309033
 20
-36.17199010437043
 10
13.20560791606589
 20
-36.16736195380724
 10
13.19953346845182
 20
-36.1624445438339
 10
13.19374828024775
 20
-36.15694861504008
 10
13.18825235145405
 20
-36.15116342683619
 10
13.18333494148067
 20
-36.14508897922203
 10
13.17841753150731
 20
-36.1387252721976
 10
13.1740786403543
 20
-36.13207230576309
 10
13.17031826802182
 20
-36.12541933932858
 10
13.10349934426609
 20
-36.15579157739928
 10
13.10697045718847
 20
-36.16446935970521
 10
13.1113093483414
 20
-36.17285788260096
 10
13.11709453654537
 20
-36.18037862726618
 10
13.12374750297997
 20
-36.18761011252105
 10
13.13126824764512
 20
-36.19426307895564
 10
13.13965677054077
 20
-36.20033752656982
 10
13.14862381225696
 20
-36.20583345536353
 10
13.15816937279352
 20
-36.21075086533688
 10
13.16829345215041
 20
-36.21480049707971
 10
13.17870679091749
 20
-36.21827161000211
 10
13.18969864850509
 20
-36.22116420410405
 10
13.20040124668235
 20
-36.22289976056521
 10
13.21139310426988
 20
-36.22434605761617
 10
13.22238496185739
 20
-36.22463531702643
 10
13.23308756003474
 20
-36.22405679820599
 10
13.24379015821207
 20
-36.22289976056521
 10
13.25188942169756
 20
-36.22116420410405
 10
13.25969942577287
 20
-36.21885012882245
 10
13.26750942984828
 20
-36.21624679413069
 10
13.27503017451348
 20
-36.21306494061848
 10
13.28226165976836
 20
-36.2093045682859
 10
13.28949314502332
 20
-36.20496567713299
 10
13.29614611145782
 20
-36.20062678597999
 10
13.30279907789242
 20
-36.19542011659645
 10
13.30887352550657
 20
-36.19021344721291
 10
13.31494797312074
 20
-36.18442825900892
 10
13.32044390191446
 20
-36.17835381139477
 10
13.325650571298
 20
-36.17170084496017
 10
13.33027872186118
 20
-36.16504787852565
 10
13.33461761301418
 20
-36.15810565268088
 10
13.33837798534676
 20
-36.15087416742593
 10
13.34184909826914
 20
-36.14335342276079
 10
13.34503095178127
 20
-36.13496489986504
 10
13.34734502706286
 20
-36.12657637696929
 10
13.34908058352409
 20
-36.11818785407364
 10
13.35052688057507
 20
-36.10922081235744
 10
13.35110539939551
 20
-36.10054303005151
 10
13.35110539939551
 20
-36.09186524774557
 10
13.35052688057507
 20
-36.08318746543965
 10
13.34908058352409
 20
-36.07450968313372
 10
13.34734502706286
 20
-36.0669889384686
 10
13.34503095178127
 20
-36.05975745321365
 10
13.34213835767932
 20
-36.05281522736886
 10
13.33866724475702
 20
-36.04587300152408
 10
13.334328353604
 20
-36.03979855390992
 10
13.32941094363064
 20
-36.03401336570603
 10
13.32362575542667
 20
-36.02880669632241
 10
13.31755130781251
 20
-36.02446780516949
 10
13.31494797312074
 20
-36.02273224870833
 10
13.31205537901879
 20
-36.0209966922471
 10
13.30916278491676
 20
-36.01955039519612
 10
13.30627019081472
 20
-36.01810409814515
 10
13.30337759671277
 20
-36.01665780109409
 10
13.30019574320065
 20
-36.01550076345338
 10
13.29730314909872
 20
-36.01463298522276
 10
13.2941212955865
 20
-36.01376520699214
 10
13.29093944207428
 20
-36.01289742876153
 10
13.28775758856216
 20
-36.01202965053099
 10
13.28457573504995
 20
-36.01145113171055
 10
13.28139388153774
 20
-36.0108726128902
 10
13.27821202802561
 20
-36.01029409406975
 10
13.27503017451348
 20
-36.01000483465958
 10
13.27155906159101
 20
-36.00942631583922
 10
13.26837720807889
 20
-36.00913705642895
 10
13.26519535456676
 20
-36.00913705642895
 10
13.26201350105446
 20
-36.00913705642895
 10
13.25883164754234
 20
-36.00884779701878
 10
13.25564979403021
 20
-36.00884779701878
 10
13.25246794051801
 20
-36.00884779701878
 10
13.24928608700579
 20
-36.0085585376086
 10
13.24581497408341
 20
-36.0085585376086
 10
13.24234386116102
 20
-36.0085585376086
 10
13.23887274823871
 20
-36.0085585376086
 10
13.23540163531633
 20
-36.00884779701878
 10
13.23135200357358
 20
-36.00913705642895
 10
13.22759163124093
 20
-36.00942631583922
 10
13.22354199949819
 20
-36.00971557524939
 10
13.21920310834527
 20
-36.01029409406975
 10
13.21486421719226
 20
-36.01116187230037
 10
13.21023606662907
 20
-36.01202965053099
 10
13.14399566169379
 20
-36.02417854575931
 10
13.14226010523256
 20
-36.01810409814515
 10
13.14139232700201
 20
-36.01231890994117
 10
13.14168158641218
 20
-36.00624446232701
 10
13.14254936464279
 20
-36.00045927412303
 10
13.14457418051413
 20
-35.99467408591915
 10
13.14688825579574
 20
-35.98917815712533
 10
13.15035936871812
 20
-35.98368222833161
 10
13.15411974105068
 20
-35.97876481835825
 10
13.15845863220368
 20
-35.97413666779508
 10
13.16337604217705
 20
-35.96950851723189
 10
13.16858271156059
 20
-35.96574814489932
 10
13.17436789976457
 20
-35.96227703197693
 10
13.18044234737874
 20
-35.95938443787498
 10
13.18651679499289
 20
-35.95678110318313
 10
13.19288050201722
 20
-35.95504554672198
 10
13.19953346845182
 20
-35.95388850908117
 10
13.20531865665571
 20
-35.953599249671
 10
13.21139310426988
 20
-35.953599249671
 10
13.21717829247385
 20
-35.95417776849135
 10
13.22296348067775
 20
-35.95504554672198
 10
13.22874866888181
 20
-35.95620258436277
 10
13.23453385708571
 20
-35.95793814082392
 10
13.24002978587943
 20
-35.95996295669535
 10
13.24552571467323
 20
-35.96227703197693
 10
13.25102164346703
 20
-35.96488036666869
 10
13.25651757226075
 20
-35.96777296077072
 10
13.26172424164429
 20
-35.97066555487268
 10
13.26693091102783
 20
-35.97413666779508
 10
13.27184832100119
 20
-35.97760778071746
 10
13.27676573097455
 20
-35.98107889363975
 10
13.28168314094792
 20
-35.98483926597233
 10
13.2863112915111
 20
-35.98859963830498
 10
13.36122947875241
 20
-35.95330999026082
 10
13.35717984700958
 20
-35.949260358518
 10
13.35284095585665
 20
-35.94521072677525
 10
13.34850206470374
 20
-35.94145035444269
 10
13.34358465473038
 20
-35.93826850093048
 10
13.33866724475702
 20
-35.93508664741835
 10
13.33374983478365
 20
-35.93219405331633
 10
13.32854316540004
 20
-35.92959071862455
 10
13.32333649601642
 20
-35.92727664334296
  0
LWPOLYLINE
  5
637
330
17
100
AcDbEntity
  8
4
  6
Continuous
100
AcDbPolyline
 90
      104
 70
     0
 43
0.0
 10
13.5494629354261
 20
-35.90963181932092
 10
13.55756219891159
 20
-35.91830960162685
 10
13.56103331183397
 20
-35.92322701160021
 10
13.56392590593591
 20
-35.92814442157357
 10
13.56652924062776
 20
-35.93277257213678
 10
13.5685540564991
 20
-35.93711146328967
 10
13.57028961296026
 20
-35.94173961385286
 10
13.57144665060114
 20
-35.94636776441605
 10
13.57202516942148
 20
-35.95099591497922
 10
13.57231442883167
 20
-35.95591332495259
 10
13.57231442883167
 20
-36.18066788667635
 10
13.56508294357672
 20
-36.17980010844575
 10
13.55785145832177
 20
-36.17835381139477
 10
13.55090923247697
 20
-36.17661825493353
 10
13.54396700663229
 20
-36.17430417965203
 10
13.53731404019778
 20
-36.17141158555
 10
13.53066107376317
 20
-36.16851899144804
 10
13.52400810732859
 20
-36.16504787852565
 10
13.51793365971451
 20
-36.16128750619309
 10
13.51185921210027
 20
-36.15694861504008
 10
13.50607402389637
 20
-36.15260972388716
 10
13.50057809510266
 20
-36.1476923139138
 10
13.49537142571903
 20
-36.14248564453026
 10
13.49016475633549
 20
-36.13727897514664
 10
13.48553660577232
 20
-36.13149378694274
 10
13.48119771461937
 20
-36.12541933932858
 10
13.47714808287656
 20
-36.11934489171442
 10
13.47078437585222
 20
-36.10777451530646
 10
13.46557770646867
 20
-36.09562562007815
 10
13.46152807472594
 20
-36.08289820602947
 10
13.45892474003417
 20
-36.06988153257054
 10
13.45776770239329
 20
-36.05657559970143
 10
13.45834622121372
 20
-36.04355892624258
 10
13.46094955590549
 20
-36.03025299337347
 10
13.46528844705842
 20
-36.01752557932471
 10
13.46760252234001
 20
-36.01202965053099
 10
13.47020585703178
 20
-36.00682298114745
 10
13.47309845113381
 20
-36.00161631176383
 10
13.47599104523584
 20
-35.99669890179046
 10
13.47917289874797
 20
-35.99149223240692
 10
13.48264401167037
 20
-35.98657482243356
 10
13.48611512459275
 20
-35.98194667187037
 10
13.48958623751505
 20
-35.97702926189703
 10
13.49334660984771
 20
-35.97240111133383
 10
13.49710698218018
 20
-35.9680622201809
 10
13.50115661392302
 20
-35.96343406961773
 10
13.50520624566575
 20
-35.95909517846472
 10
13.5092558774085
 20
-35.95475628731179
 10
13.51359476856151
 20
-35.95070665556905
 10
13.51764440030434
 20
-35.94665702382622
 10
13.52198329145725
 20
-35.94260739208348
 10
13.52545440437963
 20
-35.93855776034074
 10
13.52776847966124
 20
-35.93392960977754
 10
13.5292147767122
 20
-35.92930145921437
 10
13.5292147767122
 20
-35.92438404924101
 10
13.52863625789177
 20
-35.9200451580881
 10
13.52690070143061
 20
-35.91570626693508
 10
13.52487588555929
 20
-35.91223515401269
 10
13.52198329145725
 20
-35.90963181932092
 10
13.41842842260639
 20
-35.90963181932092
 10
13.42334583257976
 20
-35.91425996988411
 10
13.42884176137345
 20
-35.9200451580881
 10
13.43404843075709
 20
-35.92698738393278
 10
13.43838732191002
 20
-35.93450812859791
 10
13.44156917542222
 20
-35.94289665149366
 10
13.4430154724732
 20
-35.95157443379959
 10
13.44185843483249
 20
-35.96025221610553
 10
13.43780880308966
 20
-35.96864073900127
 10
13.40599026796789
 20
-36.02417854575931
 10
13.39818026389258
 20
-36.04037707273036
 10
13.39326285391922
 20
-36.05744337793205
 10
13.39094877863763
 20
-36.07508820195408
 10
13.39123803804781
 20
-36.09302228538638
 10
13.39413063214976
 20
-36.11095636881868
 10
13.39991582035373
 20
-36.12802267402035
 10
13.40801508383931
 20
-36.14422120099141
 10
13.41871768201657
 20
-36.15868417150132
 10
13.42392435140011
 20
-36.16446935970521
 10
13.42942028019391
 20
-36.16996528849901
 10
13.43520546839789
 20
-36.17546121729282
 10
13.44127991601206
 20
-36.18066788667635
 10
13.4473543636262
 20
-36.18529603723954
 10
13.45400733006081
 20
-36.18992418780264
 10
13.46066029649523
 20
-36.19426307895564
 10
13.46760252234001
 20
-36.19802345128821
 10
13.47454474818479
 20
-36.20178382362078
 10
13.48177623343974
 20
-36.20496567713299
 10
13.48900771869468
 20
-36.20756901182475
 10
13.49652846335983
 20
-36.20988308710635
 10
13.50404920802496
 20
-36.21190790297768
 10
13.51185921210027
 20
-36.21306494061848
 10
13.5193799567655
 20
-36.2139327188491
 10
13.52718996084089
 20
-36.21422197825928
 10
13.63797631494662
 20
-36.21422197825928
 10
13.63797631494662
 20
-35.95302073085056
 10
13.6382655743568
 20
-35.94723554264668
 10
13.63855483376695
 20
-35.94145035444269
 10
13.63942261199758
 20
-35.93595442564897
 10
13.64057964963839
 20
-35.93016923744499
 10
13.64231520609962
 20
-35.92467330865119
 10
13.64434002197094
 20
-35.91946663926764
 10
13.64665409725254
 20
-35.91454922929428
 10
13.64925743194431
 20
-35.90963181932092
 10
13.5494629354261
 20
-35.90963181932092
  0
LWPOLYLINE
  5
6A1
330
17
100
AcDbEntity
  8
4
  6
Continuous
100
AcDbPolyline
 90
       46
 70
     0
 43
0.0
 10
13.8384865164956
 20
-35.90934255991074
 10
13.68141865675817
 20
-35.90934255991074
 10
13.68488976968049
 20
-35.91397071047384
 10
13.68807162319262
 20
-35.91917737985747
 10
13.69125347670491
 20
-35.92438404924101
 10
13.69385681139669
 20
-35.92987997803472
 10
13.69588162726801
 20
-35.93566516623872
 10
13.69761718372916
 20
-35.94145035444269
 10
13.69877422137004
 20
-35.9469462832364
 10
13.69906348078023
 20
-35.95273147144038
 10
13.69906348078023
 20
-36.21971790705308
 10
13.76935351745835
 20
-36.15232046447698
 10
13.76935351745835
 20
-36.03256706865507
 10
13.86365208518276
 20
-36.03256706865507
 10
13.87001579220719
 20
-36.0322778092448
 10
13.87609023982124
 20
-36.03198854983462
 10
13.8821646874355
 20
-36.031120771604
 10
13.88794987563938
 20
-36.0299637339632
 10
13.89373506384337
 20
-36.02822817750205
 10
13.89923099263716
 20
-36.02591410222045
 10
13.9044376620207
 20
-36.02331076752868
 10
13.9090658125839
 20
-36.02012891401648
 10
13.91369396314709
 20
-36.01636854168391
 10
13.91745433547955
 20
-36.01174039112073
 10
13.92092544840204
 20
-36.00682298114745
 10
13.92381804250399
 20
-36.00103779294347
 10
13.92584285837539
 20
-35.99438482650886
 10
13.92757841483655
 20
-35.98715334125393
 10
13.92844619306717
 20
-35.97905407776843
 10
13.92844619306717
 20
-35.97008703605224
 10
13.92757841483655
 20
-35.96054147551579
 10
13.92584285837539
 20
-35.95215295262003
 10
13.92295026427336
 20
-35.9446322079549
 10
13.91947915135097
 20
-35.9379792415203
 10
13.9148510007878
 20
-35.93219405331633
 10
13.90993359081442
 20
-35.92727664334296
 10
13.90414840261054
 20
-35.92293775219003
 10
13.89778469558612
 20
-35.91946663926764
 10
13.8911317291516
 20
-35.91657404516571
 10
13.88390024389664
 20
-35.91425996988411
 10
13.87666875864169
 20
-35.91252441342287
 10
13.86914801397656
 20
-35.91136737578207
 10
13.86133800990117
 20
-35.91021033814128
 10
13.85352800582586
 20
-35.90963181932092
 10
13.84600726116073
 20
-35.90934255991074
 10
13.8384865164956
 20
-35.90934255991074
  0
LWPOLYLINE
  5
6D1
330
17
100
AcDbEntity
  8
4
  6
Continuous
100
AcDbPolyline
 90
       21
 70
     0
 43
0.0
 10
13.75662610340959
 20
-35.92525182747163
 10
13.82749465890807
 20
-35.92525182747163
 10
13.83646170062419
 20
-35.92611960570216
 10
13.8451394829301
 20
-35.92872294039401
 10
13.85266022759531
 20
-35.93277257213678
 10
13.85960245344001
 20
-35.93826850093048
 10
13.86509838223382
 20
-35.94492146736507
 10
13.86943727338674
 20
-35.95244221203021
 10
13.8720406080786
 20
-35.96083073492597
 10
13.87290838630913
 20
-35.97008703605224
 10
13.87232986748878
 20
-35.97760778071746
 10
13.87059431102754
 20
-35.98512852538259
 10
13.86799097633575
 20
-35.99207075122728
 10
13.8642306040032
 20
-35.99814519884144
 10
13.85931319402984
 20
-36.00335186822507
 10
13.85352800582586
 20
-36.00740149996781
 10
13.84687503939125
 20
-36.01000483465958
 10
13.83906503531594
 20
-36.0108726128902
 10
13.7699320362787
 20
-36.0108726128902
 10
13.7699320362787
 20
-35.94058257621207
 10
13.75662610340959
 20
-35.92525182747163
  0
LWPOLYLINE
  5
6E8
330
17
100
AcDbEntity
  8
4
  6
Continuous
100
AcDbPolyline
 90
       21
 70
     0
 43
0.0
 10
14.03666113333876
 20
-35.92583034629198
 10
14.10752968883727
 20
-35.92583034629198
 10
14.11678598996354
 20
-35.9266981245226
 10
14.12517451285929
 20
-35.92930145921437
 10
14.13298451693469
 20
-35.93335109095711
 10
14.13992674277946
 20
-35.93884701975092
 10
14.14542267157318
 20
-35.94549998618543
 10
14.1497615627262
 20
-35.95330999026082
 10
14.15236489741796
 20
-35.96169851315657
 10
14.15323267564849
 20
-35.97095481428286
 10
14.15265415682813
 20
-35.97847555894798
 10
14.1509186003669
 20
-35.98599630361312
 10
14.14802600626495
 20
-35.99264927004771
 10
14.1442656339324
 20
-35.99901297707206
 10
14.13934822395902
 20
-36.00421964645561
 10
14.13356303575505
 20
-36.00826927819843
 10
14.12691006932045
 20
-36.0108726128902
 10
14.11910006524514
 20
-36.01174039112073
 10
14.04996706620789
 20
-36.01174039112073
 10
14.04996706620789
 20
-35.94145035444269
 10
14.03666113333876
 20
-35.92583034629198
  0
TEXT
  5
6FF
330
17
100
AcDbEntity
  8
3
100
AcDbText
 10
17.12502215327867
 20
-37.09189703913545
 30
0.0
 40
0.1563045964277055
  1
1
  7
SIMPLEX
100
AcDbText
  0
LINE
  5
700
330
17
100
AcDbEntity
  8
0
100
AcDbLine
 10
16.48017717138267
 20
-37.77329572833867
 30
0.0
 11
16.48017717138267
 21
-36.83546814977243
 31
0.0
  0
TEXT
  5
701
330
17
100
AcDbEntity
  8
3
100
AcDbText
 10
16.59468775919737
 20
-37.04912868549045
 30
0.0
 40
0.077527079828142
  1
SHEET
  7
SIMPLEX
100
AcDbText
  0
TEXT
  5
702
330
17
100
AcDbEntity
  8
3
100
AcDbText
 10
16.55438742098078
 20
-37.34211881648543
 30
0.0
 40
0.0781522982138528
  1
PART/DWG. NO.
  7
SIMPLEX
100
AcDbText
  0
LWPOLYLINE
  5
703
330
17
100
AcDbEntity
  8
4
  6
Continuous
100
AcDbPolyline
 90
       44
 70
     0
 43
0.0
 10
15.50771610106826
 20
-35.91339219165349
 10
15.37957418235057
 20
-35.91339219165349
 10
15.38362381409332
 20
-35.91570626693508
 10
15.3882519646565
 20
-35.91888812044729
 10
15.39259085580951
 20
-35.92351627101038
 10
15.39692974696252
 20
-35.92872294039401
 10
15.400690119295
 20
-35.93479738800817
 10
15.4038719728072
 20
-35.94173961385286
 10
15.40560752926836
 20
-35.94897109910782
 10
15.40647530749907
 20
-35.95678110318321
 10
15.40647530749907
 20
-36.21422197825928
 10
15.50250943168471
 20
-36.21422197825928
 10
15.51870795865576
 20
-36.21335420002875
 10
15.53432796680646
 20
-36.21104012474714
 10
15.54936945613674
 20
-36.20727975241458
 10
15.56354316723647
 20
-36.20207308303096
 10
15.5768491001055
 20
-36.19542011659645
 10
15.58957651415425
 20
-36.18732085311087
 10
15.60114689056211
 20
-36.17835381139477
 10
15.61184948873956
 20
-36.1679404726276
 10
15.62139504927602
 20
-36.1566593556299
 10
15.63007283158195
 20
-36.14422120099141
 10
15.63759357624707
 20
-36.1309152681223
 10
15.64366802386131
 20
-36.11674155702257
 10
15.64858543383467
 20
-36.1017000676923
 10
15.65234580616717
 20
-36.0860800595416
 10
15.65437062203858
 20
-36.06959227316036
 10
15.65523840026919
 20
-36.05252596795868
 10
15.65465988144875
 20
-36.03806299744878
 10
15.65234580616717
 20
-36.02417854575931
 10
15.64858543383467
 20
-36.0108726128902
 10
15.64337876445105
 20
-35.99814519884144
 10
15.63701505742671
 20
-35.98570704420294
 10
15.62949431276158
 20
-35.97442592720525
 10
15.62081653045558
 20
-35.9637233290279
 10
15.61098171050886
 20
-35.95388850908117
 10
15.60056837174176
 20
-35.94492146736507
 10
15.5889979953338
 20
-35.9368222038795
 10
15.5768491001055
 20
-35.92987997803472
 10
15.56383242664665
 20
-35.92409478983082
 10
15.55052649377753
 20
-35.91946663926764
 10
15.53664204208807
 20
-35.91599552634526
 10
15.52217907157816
 20
-35.91397071047384
 10
15.50771610106826
 20
-35.91339219165349
  0
LWPOLYLINE
  5
731
330
17
100
AcDbEntity
  8
4
  6
Continuous
100
AcDbPolyline
 90
       34
 70
     0
 43
0.0
 10
15.47502978771595
 20
-35.93740072269994
 10
15.48631090471357
 20
-35.93855776034074
 10
15.49730276230117
 20
-35.94087183562233
 10
15.50771610106826
 20
-35.94492146736507
 10
15.51784018042514
 20
-35.95041739615879
 10
15.52709648155152
 20
-35.95678110318321
 10
15.53606352326769
 20
-35.96459110725853
 10
15.5441627867532
 20
-35.97326888956445
 10
15.55168353141833
 20
-35.982814450101
 10
15.55862575726311
 20
-35.99351704827835
 10
15.56441094546701
 20
-36.00450890586586
 10
15.56961761485055
 20
-36.01636854168391
 10
15.57395650600355
 20
-36.02851743691223
 10
15.57742761892593
 20
-36.04124485096099
 10
15.57974169420753
 20
-36.05426152441984
 10
15.58147725066868
 20
-36.06727819787876
 10
15.58176651007886
 20
-36.08058413074788
 10
15.58089873184833
 20
-36.0927330259762
 10
15.57858465656672
 20
-36.10430340238407
 10
15.57511354364434
 20
-36.11558451938186
 10
15.57048539308123
 20
-36.12599785814893
 10
15.56470020487727
 20
-36.13612193750583
 10
15.55804723844274
 20
-36.14537823863221
 10
15.55052649377753
 20
-36.15376676152795
 10
15.54271648970213
 20
-36.16157676560328
 10
15.53432796680646
 20
-36.16880825085822
 10
15.52565018450054
 20
-36.17517195788256
 10
15.51668314278443
 20
-36.18066788667635
 10
15.50800536047843
 20
-36.18529603723954
 10
15.49903831876232
 20
-36.18876715016185
 10
15.49064979586656
 20
-36.19165974426387
 10
15.48255053238107
 20
-36.19339530072503
 10
15.47502978771595
 20
-36.19426307895564
 10
15.47502978771595
 20
-35.93740072269994
  0
LWPOLYLINE
  5
755
330
17
100
AcDbEntity
  8
4
  6
Continuous
100
AcDbPolyline
 90
       96
 70
     0
 43
0.0
 10
15.34757143790683
 20
-36.21422197825928
 10
15.34294328734364
 20
-36.21104012474714
 10
15.33831513678046
 20
-36.20785827123493
 10
15.33426550503771
 20
-36.20409789890237
 10
15.33079439211533
 20
-36.20033752656982
 10
15.32790179801338
 20
-36.1959986354168
 10
15.32558772273179
 20
-36.19108122544343
 10
15.32414142568081
 20
-36.1858745560599
 10
15.32356290686038
 20
-36.18037862726618
 10
15.32356290686038
 20
-35.99264927004771
 10
15.32356290686038
 20
-35.98483926597233
 10
15.32298438803993
 20
-35.97702926189703
 10
15.32182735039922
 20
-35.96864073900127
 10
15.31951327511762
 20
-35.96054147551579
 10
15.31604216219525
 20
-35.95215295262003
 10
15.31054623340144
 20
-35.94434294854463
 10
15.30331474814648
 20
-35.93653294446932
 10
15.29347992819976
 20
-35.92901219980419
 10
15.2874054805857
 20
-35.92525182747163
 10
15.28104177356126
 20
-35.92206997395943
 10
15.27467806653694
 20
-35.91946663926764
 10
15.26773584069224
 20
-35.91715256398605
 10
15.26079361484746
 20
-35.91570626693508
 10
15.25385138900268
 20
-35.91483848870446
 10
15.24690916315791
 20
-35.91425996988411
 10
15.23967767790295
 20
-35.91425996988411
 10
15.23273545205827
 20
-35.91483848870446
 10
15.22579322621349
 20
-35.91570626693508
 10
15.21914025977897
 20
-35.91686330457589
 10
15.21248729334439
 20
-35.91859886103704
 10
15.2064128457303
 20
-35.92062367690843
 10
15.20033839811605
 20
-35.92322701160021
 10
15.19455320991218
 20
-35.92583034629198
 10
15.18934654052864
 20
-35.92901219980419
 10
15.1864539464266
 20
-35.93045849685517
 10
15.18385061173482
 20
-35.93190479390614
 10
15.18095801763279
 20
-35.93335109095711
 10
15.17835468294103
 20
-35.93508664741835
 10
15.17575134824926
 20
-35.93711146328967
 10
15.1728587541473
 20
-35.9391362791611
 10
15.17025541945553
 20
-35.94173961385286
 10
15.16707356594332
 20
-35.94434294854463
 10
15.16562726889234
 20
-35.93884701975092
 10
15.16331319361075
 20
-35.93392960977754
 10
15.160709858919
 20
-35.92959071862455
 10
15.15752800540687
 20
-35.9255410868818
 10
15.15405689248438
 20
-35.92206997395943
 10
15.1502965201519
 20
-35.91917737985747
 10
15.14653614781925
 20
-35.91657404516571
 10
15.14248651607651
 20
-35.91454922929428
 10
15.07624611114121
 20
-35.91454922929428
 10
15.08232055875537
 20
-35.91888812044729
 10
15.08752722813891
 20
-35.92380553042064
 10
15.09186611929191
 20
-35.92901219980419
 10
15.09562649162441
 20
-35.93508664741835
 10
15.09851908572644
 20
-35.94145035444269
 10
15.10054390159776
 20
-35.94868183969764
 10
15.10199019864881
 20
-35.95620258436277
 10
15.10227945805899
 20
-35.96459110725853
 10
15.10227945805899
 20
-36.22145346351422
 10
15.16967690063517
 20
-36.16938676967865
 10
15.16967690063517
 20
-35.99149223240692
 10
15.17083393827588
 20
-35.98194667187037
 10
15.17372653237783
 20
-35.97355814897464
 10
15.17806542353084
 20
-35.96632666371967
 10
15.18385061173482
 20
-35.96025221610553
 10
15.19050357816933
 20
-35.95533480613215
 10
15.1977350634243
 20
-35.95186369320977
 10
15.20554506749959
 20
-35.94954961792826
 10
15.213355071575
 20
-35.94868183969764
 10
15.21798322213818
 20
-35.94868183969764
 10
15.22261137270129
 20
-35.949260358518
 10
15.22695026385428
 20
-35.95012813674861
 10
15.23128915500728
 20
-35.9512851743894
 10
15.23533878675004
 20
-35.95273147144038
 10
15.23938841849277
 20
-35.95475628731179
 10
15.24314879082544
 20
-35.95678110318321
 10
15.24661990374772
 20
-35.95938443787498
 10
15.25009101667012
 20
-35.96198777256675
 10
15.25298361077215
 20
-35.96488036666869
 10
15.25529768605374
 20
-35.96835147959108
 10
15.25761176133524
 20
-35.9715333331033
 10
15.25934731779642
 20
-35.97529370543586
 10
15.26050435543728
 20
-35.97905407776843
 10
15.26137213366783
 20
-35.98310370951117
 10
15.261661393078
 20
-35.98744260066418
 10
15.261661393078
 20
-36.1858745560599
 10
15.26195065248817
 20
-36.19050270662308
 10
15.2625291713086
 20
-36.19542011659645
 10
15.2639754683596
 20
-36.20004826715963
 10
15.266000284231
 20
-36.20467641772272
 10
15.26918213774314
 20
-36.2084367900553
 10
15.27323176948595
 20
-36.2116186435675
 10
15.27872769827967
 20
-36.21364345943892
 10
15.28566992412445
 20
-36.21422197825928
 10
15.34757143790683
 20
-36.21422197825928
  0
LWPOLYLINE
  5
7B7
330
17
100
AcDbEntity
  8
4
  6
Continuous
100
AcDbPolyline
 90
      133
 70
     0
 43
0.0
 10
14.72540567980441
 20
-35.90934255991074
 10
14.66379342543229
 20
-35.90934255991074
 10
14.6681323165853
 20
-35.91397071047384
 10
14.67189268891777
 20
-35.91859886103704
 10
14.67478528301981
 20
-35.92322701160021
 10
14.67738861771158
 20
-35.92756590275322
 10
14.67941343358301
 20
-35.93190479390614
 10
14.68085973063397
 20
-35.93624368505915
 10
14.68201676827477
 20
-35.94087183562225
 10
14.68230602768494
 20
-35.94549998618543
 10
14.68230602768494
 20
-36.10343562415354
 10
14.67709935830141
 20
-36.1028571053331
 10
14.67160342950761
 20
-36.10198932710247
 10
14.66639676012408
 20
-36.10112154887195
 10
14.66090083133034
 20
-36.09996451123115
 10
14.65569416194682
 20
-36.0985182141801
 10
14.65019823315301
 20
-36.09707191712911
 10
14.64499156376939
 20
-36.09533636066796
 10
14.63978489438584
 20
-36.09360080420682
 10
14.63486748441249
 20
-36.0915759883354
 10
14.62966081502895
 20
-36.08926191305381
 10
14.62503266446575
 20
-36.08694783777222
 10
14.6201152544924
 20
-36.08434450308044
 10
14.6154871039292
 20
-36.08145190897849
 10
14.61085895336603
 20
-36.07855931487647
 10
14.60652006221311
 20
-36.07508820195408
 10
14.60247043047035
 20
-36.07161708903177
 10
14.59494968580522
 20
-36.06409634436655
 10
14.58829671937064
 20
-36.05570782147081
 10
14.58251153116673
 20
-36.04674077975471
 10
14.57730486178311
 20
-36.03690595980797
 10
14.57325523004036
 20
-36.02707113986125
 10
14.56978411711798
 20
-36.01636854168391
 10
14.56747004183639
 20
-36.00566594350666
 10
14.5660237447854
 20
-35.99467408591915
 10
14.56515596655487
 20
-35.98368222833161
 10
14.56515596655487
 20
-35.97240111133383
 10
14.56631300419558
 20
-35.96140925374631
 10
14.56804856065683
 20
-35.95041739615879
 10
14.5706518953486
 20
-35.93942553857127
 10
14.57441226768116
 20
-35.92901219980419
 10
14.57875115883409
 20
-35.9188881204472
 10
14.58395782821761
 20
-35.90934255991074
 10
14.50499000923366
 20
-35.90934255991074
 10
14.49920482102976
 20
-35.9278551621634
 10
14.49515518928692
 20
-35.94578924559569
 10
14.49313037341552
 20
-35.9637233290279
 10
14.49284111400533
 20
-35.98078963422958
 10
14.49399815164613
 20
-35.99756668002108
 10
14.49718000515835
 20
-36.01347594758196
 10
14.50180815572152
 20
-36.02880669632241
 10
14.50788260333561
 20
-36.04355892624258
 10
14.51569260741092
 20
-36.05715411852187
 10
14.52465964912709
 20
-36.07017079198072
 10
14.53507298789417
 20
-36.08203042779886
 10
14.54664336430215
 20
-36.09302228538638
 10
14.559660037761
 20
-36.10256784592292
 10
14.57383374886071
 20
-36.11124562822885
 10
14.58887523819099
 20
-36.1184771134838
 10
14.60507376516212
 20
-36.12455156109796
 10
14.60970191572531
 20
-36.12599785814893
 10
14.61461932569867
 20
-36.12715489578973
 10
14.61953673567203
 20
-36.12831193343053
 10
14.62474340505557
 20
-36.12946897107132
 10
14.62966081502895
 20
-36.13033674930194
 10
14.63486748441249
 20
-36.1309152681223
 10
14.63978489438584
 20
-36.13178304635292
 10
14.64499156376939
 20
-36.13207230576309
 10
14.64990897374274
 20
-36.13265082458346
 10
14.6548263837161
 20
-36.13294008399371
 10
14.65974379368946
 20
-36.13322934340389
 10
14.66437194425266
 20
-36.13322934340389
 10
14.66900009481583
 20
-36.13322934340389
 10
14.67333898596885
 20
-36.13322934340389
 10
14.67767787712184
 20
-36.13294008399371
 10
14.68172750886452
 20
-36.13265082458346
 10
14.68172750886452
 20
-36.1633123220645
 10
14.65019823315301
 20
-36.18095714608653
 10
14.64383452612866
 20
-36.18240344313751
 10
14.63747081910424
 20
-36.18327122136812
 10
14.63110711207991
 20
-36.18327122136812
 10
14.62532192387594
 20
-36.18240344313751
 10
14.61924747626185
 20
-36.18124640549672
 10
14.61375154746806
 20
-36.17922158962539
 10
14.60854487808452
 20
-36.17661825493353
 10
14.6033382087009
 20
-36.17372566083158
 10
14.59842079872754
 20
-36.17025454790919
 10
14.59379264816434
 20
-36.16649417557662
 10
14.58945375701142
 20
-36.16215528442371
 10
14.58540412526869
 20
-36.1578163932707
 10
14.58164375293602
 20
-36.15289898329733
 10
14.57817264001374
 20
-36.14798157332398
 10
14.57499078650161
 20
-36.14306416335061
 10
14.57238745180984
 20
-36.13785749396708
 10
14.51684964505178
 20
-36.16360158147468
 10
14.51945297974355
 20
-36.16851899144804
 10
14.52263483325569
 20
-36.17343640142141
 10
14.52581668676789
 20
-36.17864307080495
 10
14.52928779969027
 20
-36.1835604807783
 10
14.53333743143303
 20
-36.18847789075167
 10
14.53738706317576
 20
-36.19339530072503
 10
14.54201521373895
 20
-36.19773419187803
 10
14.54664336430215
 20
-36.20236234244122
 10
14.55156077427551
 20
-36.20641197418397
 10
14.55705670306923
 20
-36.21017234651654
 10
14.56284189127329
 20
-36.21335420002875
 10
14.56862707947717
 20
-36.21653605354087
 10
14.57499078650161
 20
-36.21885012882245
 10
14.58135449352584
 20
-36.22087494469387
 10
14.58829671937064
 20
-36.22232124174484
 10
14.59552820462558
 20
-36.22289976056521
 10
14.59784227990718
 20
-36.22289976056521
 10
14.60015635518876
 20
-36.22261050115503
 10
14.60275968988053
 20
-36.22232124174484
 10
14.6053630245723
 20
-36.22203198233467
 10
14.60767709985389
 20
-36.22145346351422
 10
14.61028043454566
 20
-36.22058568528361
 10
14.61259450982725
 20
-36.21971790705308
 10
14.61490858510886
 20
-36.21885012882245
 10
14.74015790972449
 20
-36.14508897922203
 10
14.74305050382653
 20
-36.14277490394044
 10
14.74507531969785
 20
-36.13959305042822
 10
14.74594309792857
 20
-36.13583267809565
 10
14.74623235733875
 20
-36.13178304635292
 10
14.74623235733875
 20
-35.9379792415203
 10
14.7456538385183
 20
-35.93132627508578
 10
14.7444968008775
 20
-35.92525182747163
 10
14.74247198500608
 20
-35.92033441749826
 10
14.73986865031431
 20
-35.91628478575543
 10
14.73668679680219
 20
-35.91339219165349
 10
14.73292642446955
 20
-35.9110781163719
 10
14.72916605213707
 20
-35.90992107873109
 10
14.72540567980441
 20
-35.90934255991074
  0
LWPOLYLINE
  5
83E
330
17
100
AcDbEntity
  8
4
  6
Continuous
100
AcDbPolyline
 90
       21
 70
     0
 43
0.0
 10
15.0271444489809
 20
-35.91483848870446
 10
14.95077996468861
 20
-35.91483848870446
 10
14.95454033702125
 20
-35.91744182339623
 10
14.95830070935374
 20
-35.92091293631862
 10
14.96206108168639
 20
-35.92438404924101
 10
14.96524293519852
 20
-35.92843368098375
 10
14.96813552930055
 20
-35.93248331272658
 10
14.97044960458205
 20
-35.93711146328967
 10
14.97189590163312
 20
-35.94173961385286
 10
14.97247442045348
 20
-35.94665702382622
 10
14.97247442045348
 20
-36.21306494061848
 10
15.04450001359284
 20
-36.21306494061848
 10
15.04450001359284
 20
-35.93219405331633
 10
15.04421075418258
 20
-35.92814442157357
 10
15.04334297595196
 20
-35.92467330865119
 10
15.04160741949081
 20
-35.92178071454924
 10
15.03958260361948
 20
-35.91917737985747
 10
15.03697926892763
 20
-35.91744182339623
 10
15.03408667482568
 20
-35.91599552634526
 10
15.03090482131346
 20
-35.91512774811464
 10
15.0271444489809
 20
-35.91483848870446
  0
LWPOLYLINE
  5
855
330
17
100
AcDbEntity
  8
4
  6
Continuous
100
AcDbPolyline
 90
       73
 70
     0
 43
0.0
 10
14.37683122597297
 20
-36.13930379101804
 10
14.38174863594633
 20
-36.14219638512
 10
14.38579826768917
 20
-36.14595675745257
 10
14.38926938061146
 20
-36.15058490801575
 10
14.39187271530324
 20
-36.15579157739928
 10
14.3933190123543
 20
-36.16157676560328
 10
14.39360827176448
 20
-36.16736195380724
 10
14.39274049353394
 20
-36.17285788260096
 10
14.39042641825235
 20
-36.17835381139477
 10
14.38782308356058
 20
-36.1815356649069
 10
14.38521974886873
 20
-36.18442825900892
 10
14.38203789535651
 20
-36.18703159370069
 10
14.37856678243421
 20
-36.18934566898229
 10
14.37480641010156
 20
-36.19108122544343
 10
14.3707567783589
 20
-36.19252752249441
 10
14.36641788720589
 20
-36.19339530072503
 10
14.36207899605289
 20
-36.1936845601352
 10
14.25649931133069
 20
-36.1936845601352
 10
14.31348341513962
 20
-36.14537823863221
 10
14.31695452806209
 20
-36.14219638512
 10
14.31955786275387
 20
-36.13901453160786
 10
14.32187193803538
 20
-36.13612193750583
 10
14.32331823508635
 20
-36.13322934340389
 10
14.32447527272722
 20
-36.13033674930194
 10
14.32505379154758
 20
-36.12715489578973
 10
14.32563231036794
 20
-36.12426230168778
 10
14.32563231036794
 20
-36.12108044817557
 10
14.32563231036794
 20
-35.92930145921437
 10
14.32505379154758
 20
-35.92525182747163
 10
14.32389675390679
 20
-35.9212021957288
 10
14.32187193803538
 20
-35.91802034221667
 10
14.31926860334361
 20
-35.91512774811464
 10
14.3160867498314
 20
-35.91281367283313
 10
14.31261563690909
 20
-35.9110781163719
 10
14.30856600516626
 20
-35.90992107873109
 10
14.30451637342352
 20
-35.90963181932092
 10
14.24203634082078
 20
-35.90963181932092
 10
14.24637523197379
 20
-35.91397071047384
 10
14.25013560430627
 20
-35.91802034221667
 10
14.25331745781849
 20
-35.92264849277987
 10
14.25592079251034
 20
-35.92727664334296
 10
14.25823486779185
 20
-35.93248331272658
 10
14.25968116484282
 20
-35.9379792415203
 10
14.26054894307344
 20
-35.94434294854463
 10
14.2608382024837
 20
-35.95157443379959
 10
14.2608382024837
 20
-36.15174194565654
 10
14.20935002746841
 20
-36.21422197825928
 10
14.40402161053156
 20
-36.21422197825928
 10
14.40720346404377
 20
-36.2139327188491
 10
14.41067457696615
 20
-36.21364345943892
 10
14.41385643047828
 20
-36.21306494061848
 10
14.41732754340075
 20
-36.21190790297768
 10
14.42079865632305
 20
-36.21075086533688
 10
14.42398050983527
 20
-36.2093045682859
 10
14.42716236334748
 20
-36.20785827123493
 10
14.4303442168596
 20
-36.20612271477379
 10
14.43352607037173
 20
-36.20409789890237
 10
14.43641866447375
 20
-36.20207308303096
 10
14.43931125857579
 20
-36.19975900774937
 10
14.44220385267774
 20
-36.19744493246785
 10
14.44451792795933
 20
-36.19513085718626
 10
14.4471212626511
 20
-36.19252752249441
 10
14.44914607852251
 20
-36.18992418780264
 10
14.45117089439384
 20
-36.18732085311087
 10
14.45579904495702
 20
-36.17806455198458
 10
14.45869163905906
 20
-36.16765121321742
 10
14.46013793610995
 20
-36.15608083680954
 10
14.45984867669977
 20
-36.14422120099141
 10
14.45782386082836
 20
-36.13294008399371
 10
14.45435274790605
 20
-36.12252674522654
 10
14.44943533793269
 20
-36.11384896292062
 10
14.44278237149809
 20
-36.10719599648611
 10
14.37683122597297
 20
-36.13930379101804
  0
LWPOLYLINE
  5
8A0
330
17
100
AcDbEntity
  8
4
  6
Continuous
100
AcDbPolyline
 90
       21
 70
     0
 43
0.0
 10
16.89371483455465
 20
-35.91425996988411
 10
16.89921076334836
 20
-35.91715256398605
 10
16.90383891391155
 20
-35.92062367690843
 10
16.90788854565428
 20
-35.92467330865119
 10
16.91078113975631
 20
-35.92930145921437
 10
16.9130952150379
 20
-35.93450812859791
 10
16.91483077149906
 20
-35.94000405739171
 10
16.91569854972967
 20
-35.94607850500587
 10
16.91598780913986
 20
-35.95244221203021
 10
16.91598780913986
 20
-36.21422197825928
 10
16.98714562404853
 20
-36.21422197825928
 10
16.98714562404853
 20
-35.95157443379959
 10
16.98743488345868
 20
-35.94549998618543
 10
16.98888118050976
 20
-35.94029331680189
 10
16.9906167369709
 20
-35.93508664741835
 10
16.99350933107285
 20
-35.93045849685517
 10
16.99669118458507
 20
-35.92611960570216
 10
17.00074081632781
 20
-35.92178071454924
 10
17.00507970748072
 20
-35.91802034221667
 10
17.01028637686436
 20
-35.91425996988411
 10
16.89371483455465
 20
-35.91425996988411
  0
LWPOLYLINE
  5
8B7
330
17
100
AcDbEntity
  8
4
  6
Continuous
100
AcDbPolyline
 90
      138
 70
     0
 43
0.0
 10
15.85080234551258
 20
-35.91425996988411
 10
15.85687679312672
 20
-35.91859886103704
 10
15.86179420310008
 20
-35.92351627101038
 10
15.86584383484284
 20
-35.92901219980419
 10
15.86873642894478
 20
-35.93479738800817
 10
15.87105050422638
 20
-35.94087183562233
 10
15.87249680127744
 20
-35.94723554264668
 10
15.87336457950797
 20
-35.95417776849135
 10
15.87365383891815
 20
-35.96140925374631
 10
15.87365383891815
 20
-36.17864307080495
 10
15.86844716953461
 20
-36.17864307080495
 10
15.86324050015107
 20
-36.17835381139477
 10
15.85803383076753
 20
-36.17777529257433
 10
15.85311642079417
 20
-36.17690751434379
 10
15.84790975141063
 20
-36.175750476703
 10
15.84299234143727
 20
-36.17430417965203
 10
15.8380749314639
 20
-36.17256862319079
 10
15.83344678090071
 20
-36.17083306672963
 10
15.82852937092735
 20
-36.16851899144804
 10
15.82390122036417
 20
-36.16620491616645
 10
15.81956232921117
 20
-36.16360158147468
 10
15.81522343805823
 20
-36.16070898737265
 10
15.81088454690523
 20
-36.15752713386052
 10
15.80654565575231
 20
-36.15434528034831
 10
15.80249602400949
 20
-36.15087416742593
 10
15.79873565167701
 20
-36.14740305450362
 10
15.79208268524241
 20
-36.14075008806903
 10
15.78600823762826
 20
-36.13351860281407
 10
15.78051230883445
 20
-36.12599785814893
 10
15.77559489886109
 20
-36.11789859466336
 10
15.77125600770815
 20
-36.10951007176769
 10
15.76778489478577
 20
-36.10112154887195
 10
15.76489230068383
 20
-36.09215450715576
 10
15.76286748481241
 20
-36.08318746543965
 10
15.76171044717161
 20
-36.0747989425439
 10
15.760842668941
 20
-36.06641041964814
 10
15.760842668941
 20
-36.05773263734222
 10
15.76142118776135
 20
-36.04934411444647
 10
15.76257822540224
 20
-36.04095559155072
 10
15.76431378186338
 20
-36.03256706865507
 10
15.76691711655524
 20
-36.02446780516949
 10
15.77038822947755
 20
-36.01665780109409
 10
15.77299156416932
 20
-36.01174039112073
 10
15.77559489886109
 20
-36.00682298114745
 10
15.77819823355286
 20
-36.00219483058427
 10
15.78109082765488
 20
-35.99756668002108
 10
15.78369416234667
 20
-35.9929385294579
 10
15.78658675644869
 20
-35.98859963830498
 10
15.78976860996081
 20
-35.98426074715197
 10
15.79295046347294
 20
-35.98021111540923
 10
15.79613231698524
 20
-35.97587222425622
 10
15.79931417049736
 20
-35.97182259251348
 10
15.80278528341966
 20
-35.96777296077072
 10
15.80625639634214
 20
-35.9637233290279
 10
15.81001676867462
 20
-35.95996295669535
 10
15.81377714100726
 20
-35.95591332495259
 10
15.81753751333975
 20
-35.95215295262003
 10
15.82158714508258
 20
-35.9481033208772
 10
15.82505825800496
 20
-35.94405368913446
 10
15.82737233328648
 20
-35.93971479798153
 10
15.82881863033753
 20
-35.93537590682853
 10
15.82910788974771
 20
-35.93103701567553
 10
15.82881863033753
 20
-35.9266981245226
 10
15.827950852107
 20
-35.92235923336959
 10
15.82650455505594
 20
-35.91830960162685
 10
15.82447973918453
 20
-35.91425996988411
 10
15.72063561092357
 20
-35.91425996988411
 10
15.72294968620516
 20
-35.91628478575543
 10
15.72526376148675
 20
-35.91830960162685
 10
15.72757783676825
 20
-35.92033441749826
 10
15.72989191204985
 20
-35.92264849277987
 10
15.73191672792118
 20
-35.92496256806136
 10
15.7339415437926
 20
-35.92756590275322
 10
15.73567710025383
 20
-35.93016923744499
 10
15.73741265671499
 20
-35.93277257213678
 10
15.74088376963737
 20
-35.94058257621207
 10
15.74261932609861
 20
-35.94897109910782
 10
15.74261932609861
 20
-35.95764888141375
 10
15.74146228845773
 20
-35.96632666371967
 10
15.73914821317614
 20
-35.97558296484604
 10
15.73538784084365
 20
-35.98455000656215
 10
15.73104894969065
 20
-35.9929385294579
 10
15.72613153971729
 20
-36.00103779294347
 10
15.72092487033375
 20
-36.00913705642895
 10
15.71542894153995
 20
-36.01694706050435
 10
15.70993301274614
 20
-36.02504632398984
 10
15.70501560277278
 20
-36.0331455874754
 10
15.70096597103012
 20
-36.04124485096099
 10
15.69749485810765
 20
-36.04934411444647
 10
15.69489152341588
 20
-36.0580218967524
 10
15.69286670754447
 20
-36.0666996790584
 10
15.69170966990375
 20
-36.07537746136435
 10
15.69113115108339
 20
-36.08434450308044
 10
15.69113115108339
 20
-36.09331154479655
 10
15.69199892931393
 20
-36.10227858651274
 10
15.69315596695473
 20
-36.10806377471664
 10
15.69431300459552
 20
-36.11384896292062
 10
15.69604856105676
 20
-36.1196341511246
 10
15.6980733769281
 20
-36.12513007991831
 10
15.70038745220969
 20
-36.13062600871212
 10
15.70299078690144
 20
-36.13583267809565
 10
15.70559412159323
 20
-36.14132860688946
 10
15.70877597510543
 20
-36.14624601686283
 10
15.71195782861755
 20
-36.15116342683619
 10
15.71542894153995
 20
-36.15608083680954
 10
15.71918931387251
 20
-36.16070898737265
 10
15.72323894561534
 20
-36.16533713793583
 10
15.72728857735807
 20
-36.16967602908883
 10
15.73133820910082
 20
-36.17401492024176
 10
15.73567710025383
 20
-36.17806455198458
 10
15.74030525081701
 20
-36.18182492431716
 10
15.74551192020055
 20
-36.1858745560599
 10
15.75129710840444
 20
-36.18963492839247
 10
15.75708229660852
 20
-36.19310604131485
 10
15.76315674422259
 20
-36.19628789482706
 10
15.76952045124701
 20
-36.19918048892901
 10
15.77588415827126
 20
-36.20178382362078
 10
15.78253712470585
 20
-36.20438715831254
 10
15.78919009114046
 20
-36.20641197418397
 10
15.79584305757498
 20
-36.20814753064511
 10
15.80249602400949
 20
-36.20988308710635
 10
15.80943824985426
 20
-36.21132938415732
 10
15.81638047569904
 20
-36.21219716238794
 10
15.82303344213354
 20
-36.21306494061848
 10
15.82997566797834
 20
-36.21364345943892
 10
15.83662863441284
 20
-36.21422197825928
 10
15.84328160084744
 20
-36.21422197825928
 10
15.9401835032637
 20
-36.21422197825928
 10
15.9401835032637
 20
-35.95070665556905
 10
15.9401835032637
 20
-35.94607850500587
 10
15.9401835032637
 20
-35.94145035444269
 10
15.94076202208415
 20
-35.93653294446932
 10
15.94162980031468
 20
-35.93161553449596
 10
15.94336535677592
 20
-35.92698738393278
 10
15.94567943205751
 20
-35.92264849277987
 10
15.94915054497981
 20
-35.91830960162685
 10
15.953778695543
 20
-35.91425996988411
 10
15.85080234551258
 20
-35.91425996988411
  0
LWPOLYLINE
  5
943
330
17
100
AcDbEntity
  8
4
  6
Continuous
100
AcDbPolyline
 90
      133
 70
     0
 43
0.0
 10
16.3020305412651
 20
-35.92814442157357
 10
16.29711313129174
 20
-35.93335109095711
 10
16.29248498072855
 20
-35.93942553857127
 10
16.28843534898581
 20
-35.94578924559569
 10
16.28409645783289
 20
-35.95244221203021
 10
16.27975756667988
 20
-35.95880591905454
 10
16.27512941611669
 20
-35.96516962607888
 10
16.27050126555351
 20
-35.97095481428286
 10
16.26500533675979
 20
-35.97587222425622
 10
16.26298052088838
 20
-35.97731852130719
 10
16.26095570501697
 20
-35.97876481835825
 10
16.25893088914555
 20
-35.98021111540923
 10
16.25690607327421
 20
-35.9816574124602
 10
16.25488125740289
 20
-35.98310370951117
 10
16.2525671821213
 20
-35.98455000656215
 10
16.25025310683971
 20
-35.98599630361312
 10
16.24736051273768
 20
-35.98744260066418
 10
16.3523616786396
 20
-35.98744260066418
 10
16.34773352807641
 20
-35.99120297299676
 10
16.34339463692341
 20
-35.99496334532931
 10
16.33934500518058
 20
-35.99872371766188
 10
16.33529537343792
 20
-36.00277334940461
 10
16.33153500110527
 20
-36.00711224055763
 10
16.32777462877271
 20
-36.01145113171055
 10
16.32430351585031
 20
-36.01579002286356
 10
16.32112166233818
 20
-36.02041817342674
 10
16.31765054941572
 20
-36.0253355834001
 10
16.31475795531377
 20
-36.03054225278364
 10
16.31186536121182
 20
-36.03603818157736
 10
16.30897276710987
 20
-36.04153411037116
 10
16.30608017300793
 20
-36.04760855798532
 10
16.30347683831606
 20
-36.05368300559947
 10
16.30087350362429
 20
-36.06033597203399
 10
16.2985594283427
 20
-36.06727819787876
 10
16.29450979659997
 20
-36.0826089466193
 10
16.29219572131837
 20
-36.09793969535973
 10
16.2919064619082
 20
-36.11355970351044
 10
16.29335275895908
 20
-36.12917971166115
 10
16.29653461247138
 20
-36.14422120099141
 10
16.30174128185492
 20
-36.1589734309115
 10
16.30839424828951
 20
-36.17285788260096
 10
16.31707203059536
 20
-36.18558529664972
 10
16.32141092174837
 20
-36.19079196603326
 10
16.32632833172173
 20
-36.19570937600662
 10
16.33182426051545
 20
-36.20062678597999
 10
16.33789870812969
 20
-36.20496567713299
 10
16.34397315574376
 20
-36.2093045682859
 10
16.35062612217836
 20
-36.21335420002875
 10
16.35756834802314
 20
-36.21682531295105
 10
16.3647998332781
 20
-36.22000716646326
 10
16.37203131853305
 20
-36.22289976056521
 10
16.37955206319818
 20
-36.22550309525697
 10
16.38678354845313
 20
-36.22752791112838
 10
16.39430429311826
 20
-36.22897420817936
 10
16.4018250377834
 20
-36.23013124582016
 10
16.40905652303835
 20
-36.23042050523042
 10
16.41628800829331
 20
-36.23042050523042
 10
16.42323023413799
 20
-36.22984198640998
 10
16.43190801644393
 20
-36.228395689359
 10
16.44058579874994
 20
-36.22666013289776
 10
16.4489743216456
 20
-36.22434605761617
 10
16.45707358513109
 20
-36.22145346351422
 10
16.46517284861675
 20
-36.21827161000211
 10
16.47269359328188
 20
-36.21451123766953
 10
16.48021433794701
 20
-36.21017234651654
 10
16.48686730438152
 20
-36.20525493654316
 10
16.49352027081604
 20
-36.19975900774937
 10
16.49930545902011
 20
-36.19397381954547
 10
16.50480138781383
 20
-36.18761011252105
 10
16.50971879778719
 20
-36.18066788667635
 10
16.51405768894019
 20
-36.17314714201123
 10
16.5175288018625
 20
-36.16533713793583
 10
16.52042139596444
 20
-36.1566593556299
 10
16.52273547124604
 20
-36.1476923139138
 10
16.51637176422178
 20
-36.15318824270751
 10
16.50971879778719
 20
-36.15810565268088
 10
16.50248731253222
 20
-36.16273380324406
 10
16.49525582727728
 20
-36.16649417557662
 10
16.48773508261214
 20
-36.16996528849901
 10
16.47992507853683
 20
-36.17285788260096
 10
16.47182581505127
 20
-36.17517195788256
 10
16.46372655156569
 20
-36.17690751434379
 10
16.4556272880802
 20
-36.17806455198458
 10
16.44723876518446
 20
-36.17835381139477
 10
16.43913950169888
 20
-36.17835381139477
 10
16.43104023821339
 20
-36.17748603316414
 10
16.42294097472781
 20
-36.17603973611317
 10
16.41513097065242
 20
-36.17372566083158
 10
16.40732096657711
 20
-36.17083306672963
 10
16.39980022191198
 20
-36.16736195380724
 10
16.39256873665703
 20
-36.16273380324406
 10
16.38591577022243
 20
-36.1578163932707
 10
16.37984132260836
 20
-36.15203120506672
 10
16.37405613440438
 20
-36.14595675745257
 10
16.36913872443102
 20
-36.13901453160786
 10
16.36451057386784
 20
-36.13207230576309
 10
16.36075020153526
 20
-36.12455156109796
 10
16.35727908861287
 20
-36.11674155702257
 10
16.35438649451085
 20
-36.10864229353708
 10
16.3523616786396
 20
-36.10054303005151
 10
16.35062612217836
 20
-36.09215450715576
 10
16.34946908453749
 20
-36.08347672484983
 10
16.34889056571713
 20
-36.07508820195408
 10
16.34889056571713
 20
-36.06641041964814
 10
16.34946908453749
 20
-36.05773263734222
 10
16.35062612217836
 20
-36.04934411444647
 10
16.35380797569049
 20
-36.03950929449974
 10
16.35727908861287
 20
-36.03083151219382
 10
16.36103946094544
 20
-36.02273224870833
 10
16.36537835209845
 20
-36.01521150404312
 10
16.37000650266164
 20
-36.00798001878815
 10
16.37550243145535
 20
-36.00132705235365
 10
16.38186613847977
 20
-35.99438482650886
 10
16.38909762373472
 20
-35.98773186007436
 10
16.44405691167223
 20
-35.98773186007436
 10
16.44723876518446
 20
-35.98773186007436
 10
16.45099913751702
 20
-35.98715334125393
 10
16.45504876925977
 20
-35.98657482243356
 10
16.4590984010025
 20
-35.98541778479277
 10
16.46314803274533
 20
-35.98426074715197
 10
16.46661914566764
 20
-35.98252519069081
 10
16.46980099917993
 20
-35.98078963422958
 10
16.47211507446143
 20
-35.97847555894798
 10
16.52476028711745
 20
-35.91425996988411
 10
16.33500611402765
 20
-35.91425996988411
 10
16.32951018523386
 20
-35.91454922929428
 10
16.32488203467067
 20
-35.91483848870446
 10
16.32054314351776
 20
-35.91570626693508
 10
16.31678277118518
 20
-35.91715256398605
 10
16.31302239885263
 20
-35.91888812044729
 10
16.30955128593023
 20
-35.9212021957288
 10
16.30579091359767
 20
-35.92438404924101
 10
16.3020305412651
 20
-35.92814442157357
  0
LWPOLYLINE
  5
9CA
330
17
100
AcDbEntity
  8
4
  6
Continuous
100
AcDbPolyline
 90
      205
 70
     0
 43
0.0
 10
16.23612046384574
 20
-35.94839258028746
 10
16.22831045977043
 20
-35.94029331680189
 10
16.21992193687467
 20
-35.93277257213678
 10
16.21037637633811
 20
-35.92640886511242
 10
16.20025229698122
 20
-35.92091293631862
 10
16.18954969880389
 20
-35.91628478575543
 10
16.17855784121638
 20
-35.91252441342287
 10
16.16669820539831
 20
-35.90963181932092
 10
16.15483856958018
 20
-35.90760700344951
 10
16.14297893376203
 20
-35.90644996580871
 10
16.13083003853372
 20
-35.90616070639853
 10
16.11839188389523
 20
-35.90702848462915
 10
16.10653224807709
 20
-35.90847478168012
 10
16.09467261225895
 20
-35.9110781163719
 10
16.08310223585108
 20
-35.91454922929428
 10
16.07211037826356
 20
-35.91917737985747
 10
16.0614077800863
 20
-35.92438404924101
 10
16.05330851660064
 20
-35.92930145921437
 10
16.04578777193551
 20
-35.93450812859791
 10
16.03855628668056
 20
-35.94058257621207
 10
16.03190332024604
 20
-35.9469462832364
 10
16.02553961322171
 20
-35.95388850908117
 10
16.01975442501781
 20
-35.96111999433613
 10
16.01454775563419
 20
-35.96892999841144
 10
16.00963034566083
 20
-35.97702926189703
 10
16.00558071391807
 20
-35.98512852538259
 10
16.00182034158543
 20
-35.99380630768852
 10
15.99892774748348
 20
-36.00277334940461
 10
15.99661367220189
 20
-36.01174039112073
 10
15.99487811574074
 20
-36.02070743283692
 10
15.99401033751012
 20
-36.0299637339632
 10
15.99343181868976
 20
-36.03950929449974
 10
15.99401033751012
 20
-36.04876559562612
 10
15.9942995969203
 20
-36.0533937461893
 10
15.99487811574074
 20
-36.05831115616266
 10
15.99545663456117
 20
-36.06293930672576
 10
15.99661367220189
 20
-36.06756745728894
 10
15.99805996925296
 20
-36.07190634844196
 10
16.00037404453454
 20
-36.0759559801847
 10
16.0032666386365
 20
-36.07913783369691
 10
16.00702701096906
 20
-36.08145190897849
 10
16.0087625674302
 20
-36.08231968720903
 10
16.01049812389144
 20
-36.08289820602947
 10
16.01252293976286
 20
-36.08318746543965
 10
16.01425849622392
 20
-36.08318746543965
 10
16.01628331209535
 20
-36.08289820602947
 10
16.01830812796675
 20
-36.08289820602947
 10
16.02033294383818
 20
-36.08231968720903
 10
16.02293627852995
 20
-36.08203042779886
 10
16.10884632335868
 20
-36.0669889384686
 10
16.11260669569133
 20
-36.06641041964814
 10
16.11665632743401
 20
-36.0658319008278
 10
16.12041669976664
 20
-36.06554264141762
 10
16.1244663315094
 20
-36.06525338200736
 10
16.12822670384195
 20
-36.06525338200736
 10
16.13227633558478
 20
-36.06525338200736
 10
16.13603670791726
 20
-36.06525338200736
 10
16.14008633966009
 20
-36.06554264141762
 10
16.14384671199257
 20
-36.0658319008278
 10
16.14789634373542
 20
-36.06641041964814
 10
16.15165671606797
 20
-36.0669889384686
 10
16.15541708840053
 20
-36.06785671669913
 10
16.15946672014336
 20
-36.06872449492974
 10
16.16322709247593
 20
-36.06988153257054
 10
16.16669820539831
 20
-36.07103857021134
 10
16.1704585777308
 20
-36.07248486726231
 10
16.17913636003681
 20
-36.0771130178255
 10
16.18607858588159
 20
-36.08347672484983
 10
16.1915745146753
 20
-36.09099746951496
 10
16.19504562759761
 20
-36.09938599241071
 10
16.19707044346904
 20
-36.10864229353708
 10
16.19764896228947
 20
-36.11818785407364
 10
16.19649192464867
 20
-36.1277334146101
 10
16.19359933054672
 20
-36.13698971573646
 10
16.19070673644477
 20
-36.14306416335061
 10
16.18752488293247
 20
-36.14884935155461
 10
16.18347525118982
 20
-36.15405602093814
 10
16.17913636003681
 20
-36.1589734309115
 10
16.17421895006345
 20
-36.16360158147468
 10
16.16901228067991
 20
-36.16765121321742
 10
16.16351635188611
 20
-36.17112232613981
 10
16.15773116368213
 20
-36.17430417965203
 10
16.15165671606797
 20
-36.17690751434379
 10
16.14529300904363
 20
-36.17893233021512
 10
16.1389293020193
 20
-36.18037862726618
 10
16.13256559499496
 20
-36.18095714608653
 10
16.12591262856036
 20
-36.18124640549672
 10
16.11925966212576
 20
-36.18066788667635
 10
16.11289595510151
 20
-36.17951084903557
 10
16.10653224807709
 20
-36.17777529257433
 10
16.10132557869357
 20
-36.175750476703
 10
16.09640816872019
 20
-36.17343640142141
 10
16.091780018157
 20
-36.17112232613981
 10
16.08715186759382
 20
-36.16822973203787
 10
16.08252371703073
 20
-36.16533713793583
 10
16.07818482587772
 20
-36.16186602501344
 10
16.07384593472479
 20
-36.15868417150132
 10
16.06979630298198
 20
-36.15492379916875
 10
16.0660359306494
 20
-36.15116342683619
 10
16.06198629890666
 20
-36.14711379509336
 10
16.05851518598427
 20
-36.14306416335061
 10
16.05504407306188
 20
-36.13901453160786
 10
16.05157296013959
 20
-36.13467564045489
 10
16.04839110662737
 20
-36.13004748989168
 10
16.04520925311515
 20
-36.12570859873875
 10
16.0423166590132
 20
-36.12108044817557
 10
15.97376217879631
 20
-36.15492379916875
 10
15.97925810759005
 20
-36.16389084088485
 10
15.98562181461445
 20
-36.17199010437043
 10
15.99256404045913
 20
-36.17980010844575
 10
16.00008478512428
 20
-36.18703159370069
 10
16.00818404860985
 20
-36.19339530072503
 10
16.01686183091578
 20
-36.19918048892901
 10
16.02582887263188
 20
-36.20438715831254
 10
16.03537443316843
 20
-36.20872604946555
 10
16.04520925311515
 20
-36.21248642179812
 10
16.05504407306188
 20
-36.21566827531025
 10
16.06545741182895
 20
-36.21798235059185
 10
16.07587075059611
 20
-36.21971790705308
 10
16.08628408936328
 20
-36.22058568528361
 10
16.09669742813036
 20
-36.22058568528361
 10
16.10711076689752
 20
-36.21971790705308
 10
16.11752410566461
 20
-36.21827161000211
 10
16.12793744443177
 20
-36.21566827531025
 10
16.13806152378867
 20
-36.21248642179812
 10
16.14760708432522
 20
-36.2084367900553
 10
16.15715264486177
 20
-36.20323012067176
 10
16.16611968657788
 20
-36.19773419187803
 10
16.17450820947363
 20
-36.1913704848537
 10
16.18260747295911
 20
-36.18442825900892
 10
16.19012821762434
 20
-36.17661825493353
 10
16.19678118405884
 20
-36.16851899144804
 10
16.20314489108326
 20
-36.16013046855229
 10
16.20864081987698
 20
-36.15087416742593
 10
16.21326897044016
 20
-36.14132860688946
 10
16.21731860218292
 20
-36.13178304635292
 10
16.22050045569512
 20
-36.12165896699592
 10
16.22281453097671
 20
-36.11124562822885
 10
16.22397156861742
 20
-36.10054303005151
 10
16.2242608280276
 20
-36.09244376656601
 10
16.22397156861742
 20
-36.08434450308044
 10
16.22310379038689
 20
-36.07653449900514
 10
16.22165749333583
 20
-36.06843523551957
 10
16.21934341805433
 20
-36.06091449085443
 10
16.21674008336247
 20
-36.0533937461893
 10
16.21326897044016
 20
-36.04616226093436
 10
16.20893007928716
 20
-36.03922003508957
 10
16.20545896636486
 20
-36.03459188452639
 10
16.20169859403221
 20
-36.03054225278364
 10
16.19764896228947
 20
-36.02678188045107
 10
16.19302081172628
 20
-36.02331076752868
 10
16.18839266116318
 20
-36.02012891401648
 10
16.18347525118982
 20
-36.01752557932471
 10
16.1782685818062
 20
-36.01492224463294
 10
16.17277265301239
 20
-36.01289742876153
 10
16.16727672421867
 20
-36.0108726128902
 10
16.16178079542495
 20
-36.00942631583922
 10
16.15599560722098
 20
-36.00798001878815
 10
16.15049967842717
 20
-36.00682298114745
 10
16.14471449022328
 20
-36.00595520291683
 10
16.1389293020193
 20
-36.00537668409639
 10
16.13314411381533
 20
-36.00479816527605
 10
16.12764818502158
 20
-36.00450890586586
 10
16.12417707209921
 20
-36.00421964645561
 10
16.12041669976664
 20
-36.00421964645561
 10
16.11694558684426
 20
-36.00450890586586
 10
16.11347447392187
 20
-36.00450890586586
 10
16.11000336099948
 20
-36.00479816527605
 10
16.10624298866691
 20
-36.00508742468621
 10
16.1027718757446
 20
-36.00566594350666
 10
16.09930076282214
 20
-36.00595520291683
 10
16.09582964989983
 20
-36.00653372173719
 10
16.09235853697736
 20
-36.00711224055763
 10
16.08859816464488
 20
-36.00769075937797
 10
16.0851270517225
 20
-36.00826927819843
 10
16.0816559388001
 20
-36.00884779701878
 10
16.07818482587772
 20
-36.00942631583922
 10
16.07442445354515
 20
-36.01000483465958
 10
16.07095334062277
 20
-36.01058335348002
 10
16.01946516560755
 20
-36.0230215081185
 10
16.01830812796675
 20
-36.01810409814515
 10
16.0188866467871
 20
-36.01058335348002
 10
16.02091146265852
 20
-36.00132705235365
 10
16.02409331617073
 20
-35.99091371358648
 10
16.02872146673383
 20
-35.9805003748194
 10
16.03450665493791
 20
-35.97066555487268
 10
16.04115962137242
 20
-35.96256629138711
 10
16.04896962544773
 20
-35.95649184377295
 10
16.0559118512925
 20
-35.95330999026082
 10
16.06314333654736
 20
-35.95099591497922
 10
16.07066408121258
 20
-35.949260358518
 10
16.07847408528798
 20
-35.94839258028746
 10
16.08628408936328
 20
-35.9481033208772
 10
16.09438335284877
 20
-35.94839258028746
 10
16.10219335692408
 20
-35.94954961792826
 10
16.11000336099948
 20
-35.9512851743894
 10
16.11781336507487
 20
-35.953599249671
 10
16.12504485032983
 20
-35.95649184377295
 10
16.13227633558478
 20
-35.95967369728516
 10
16.1389293020193
 20
-35.96343406961773
 10
16.14500374963347
 20
-35.96777296077072
 10
16.15049967842717
 20
-35.9726903707441
 10
16.15541708840053
 20
-35.97789704012764
 10
16.15975597955354
 20
-35.98339296892135
 10
16.23612046384574
 20
-35.94839258028746
  0
LWPOLYLINE
  5
A99
330
17
100
AcDbEntity
  8
4
  6
Continuous
100
AcDbPolyline
 90
       61
 70
     0
 43
0.0
 10
16.76222494528348
 20
-36.04298040742214
 10
16.77061346817932
 20
-36.04240188860178
 10
16.77871273166482
 20
-36.04124485096099
 10
16.78594421691976
 20
-36.03950929449974
 10
16.79259718335426
 20
-36.03719521921816
 10
16.79838237155825
 20
-36.03430262511621
 10
16.80387830035197
 20
-36.031120771604
 10
16.80879571032533
 20
-36.02736039927143
 10
16.81313460147834
 20
-36.0230215081185
 10
16.81689497381099
 20
-36.01839335755533
 10
16.82007682732313
 20
-36.01347594758196
 10
16.8226801620149
 20
-36.00826927819843
 10
16.8247049778863
 20
-36.00248408999443
 10
16.82644053434745
 20
-35.99669890179046
 10
16.82759757198826
 20
-35.99062445417632
 10
16.8281760908086
 20
-35.98426074715197
 10
16.82846535021885
 20
-35.97760778071746
 10
16.8281760908086
 20
-35.9715333331033
 10
16.82701905316789
 20
-35.96545888548914
 10
16.82557275611683
 20
-35.95967369728516
 10
16.82325868083526
 20
-35.95388850908117
 10
16.82065534614347
 20
-35.94839258028746
 10
16.81718423322118
 20
-35.94318591090384
 10
16.81371312029869
 20
-35.93826850093048
 10
16.80937422914578
 20
-35.93364035036739
 10
16.80503533799285
 20
-35.92959071862455
 10
16.80011792801948
 20
-35.92583034629198
 10
16.79491125863595
 20
-35.92264849277987
 10
16.78941532984215
 20
-35.91975589867782
 10
16.78391940104836
 20
-35.91744182339623
 10
16.77813421284445
 20
-35.91599552634526
 10
16.7720597652302
 20
-35.91483848870446
 10
16.76598531761615
 20
-35.91454922929428
 10
16.56321447106742
 20
-35.91454922929428
 10
16.56610706516937
 20
-35.91686330457589
 10
16.56871039986114
 20
-35.91917737985747
 10
16.57131373455291
 20
-35.92178071454924
 10
16.5736278098345
 20
-35.92409478983082
 10
16.57594188511609
 20
-35.92640886511242
 10
16.57825596039767
 20
-35.92930145921437
 10
16.58028077626908
 20
-35.93219405331633
 10
16.58230559214042
 20
-35.93566516623872
 10
16.58519818624244
 20
-35.94202887326304
 10
16.58751226152405
 20
-35.94954961792826
 10
16.58895855857493
 20
-35.95678110318321
 10
16.58953707739538
 20
-35.96256629138711
 10
16.58982633680563
 20
-36.22261050115503
 10
16.65953785466325
 20
-36.16157676560328
 10
16.65953785466325
 20
-36.04095559155072
 10
16.6901993521443
 20
-36.04066633214055
 10
16.79462199922569
 20
-36.21364345943892
 10
16.88458167579718
 20
-36.21422197825928
 10
16.87908574700346
 20
-36.21104012474714
 10
16.87358981820974
 20
-36.20727975241458
 10
16.8683831488262
 20
-36.20351938008193
 10
16.86346573885284
 20
-36.19918048892901
 10
16.85854832887948
 20
-36.19513085718626
 10
16.85392017831631
 20
-36.19050270662308
 10
16.84929202775311
 20
-36.1858745560599
 10
16.84466387718992
 20
-36.18095714608653
 10
16.76222494528348
 20
-36.04298040742214
  0
LWPOLYLINE
  5
AD8
330
17
100
AcDbEntity
  8
4
  6
Continuous
100
AcDbPolyline
 90
       21
 70
     0
 43
0.0
 10
16.76077864823261
 20
-35.97760778071746
 10
16.75991087000189
 20
-35.98657482243356
 10
16.75730753531012
 20
-35.99496334532931
 10
16.75325790356738
 20
-36.00219483058427
 10
16.74776197477357
 20
-36.0085585376086
 10
16.74110900833914
 20
-36.01376520699214
 10
16.73358826367393
 20
-36.01752557932471
 10
16.72548900018835
 20
-36.01983965460629
 10
16.71681121788251
 20
-36.02070743283692
 10
16.6586700764327
 20
-36.02070743283692
 10
16.6586700764327
 20
-35.94636776441605
 10
16.65259562881846
 20
-35.93219405331633
 10
16.71767899611303
 20
-35.93219405331633
 10
16.72664603782925
 20
-35.93306183154694
 10
16.73474530131474
 20
-35.93566516623872
 10
16.74197678656969
 20
-35.93971479798153
 10
16.7483404935941
 20
-35.94521072677525
 10
16.75354716297764
 20
-35.95215295262003
 10
16.75730753531012
 20
-35.95967369728516
 10
16.75991087000189
 20
-35.96835147959108
 10
16.76077864823261
 20
-35.97760778071746
  0
LINE
  5
AEF
330
17
100
AcDbEntity
  8
0
100
AcDbLine
 10
17.93321508930111
 20
-37.19562145535885
 30
0.0
 11
17.93321508930111
 21
-36.83546814977243
 31
0.0
  0
TEXT
  5
AF0
330
17
100
AcDbEntity
  8
3
100
AcDbText
 10
17.73405995306532
 20
-37.09189703913545
 30
0.0
 40
0.1563045964277055
  1
1
  7
SIMPLEX
100
AcDbText
  0
TEXT
  5
AF1
330
17
100
AcDbEntity
  8
3
100
AcDbText
 10
18.66027663125803
 20
-37.0768116239023
 30
0.0
 40
0.1071624313108349
  1
.50=1
  7
SIMPLEX
 72
     1
 11
18.86694703450035
 21
-37.0768116239023
 31
0.0
100
AcDbText
  0
TEXT
  5
AF2
330
17
100
AcDbEntity
  8
3
100
AcDbText
 10
18.14309597467143
 20
-37.06101684053353
 30
0.0
 40
0.0781522982138528
  1
SCALE:
  7
SIMPLEX
100
AcDbText
  0
LINE
  5
AF3
330
17
100
AcDbEntity
  8
0
100
AcDbLine
 10
18.61271736369159
 20
-37.7732957283386
 30
0.0
 11
18.61271736369159
 21
-37.19562145535885
 31
0.0
  0
TEXT
  5
AF4
330
17
100
AcDbEntity
  8
3
100
AcDbText
 10
18.89058265212592
 20
-37.65539104846958
 30
0.0
 40
0.1750611479990302
  1
A
  7
SIMPLEX
 72
     1
 11
18.95727261326841
 21
-37.65539104846958
 31
0.0
100
AcDbText
  0
TEXT
  5
AF5
330
17
100
AcDbEntity
  8
3
100
AcDbText
 10
18.84908368488579
 20
-37.34260205561192
 30
0.0
 40
0.0781522982138528
  1
REV.
  7
SIMPLEX
100
AcDbText
  0
TEXT
  5
AF6
330
17
100
AcDbEntity
  8
4
100
AcDbText
 10
17.70478161915245
 20
-36.21855587235905
 30
0.0
 40
0.1875
  1
inc., erie, pa.
  7
T
100
AcDbText
  0
LWPOLYLINE
  5
AF8
330
17
100
AcDbEntity
  8
4
  6
Continuous
 62
     4
100
AcDbPolyline
 90
      205
 70
     0
 43
0.0
 10
17.56036733961417
 20
-35.95041739615879
 10
17.55255733553886
 20
-35.9423181326733
 10
17.54416881264301
 20
-35.93508664741835
 10
17.53462325210656
 20
-35.92872294039401
 10
17.52449917274958
 20
-35.92293775219003
 10
17.51379657457231
 20
-35.91830960162685
 10
17.5028047169847
 20
-35.91454922929428
 10
17.49123434057684
 20
-35.91165663519234
 10
17.47937470475877
 20
-35.90963181932092
 10
17.46722580953047
 20
-35.9087640410903
 10
17.45507691430215
 20
-35.90847478168012
 10
17.44292801907384
 20
-35.90905330050048
 10
17.43077912384552
 20
-35.91078885696172
 10
17.41891948802738
 20
-35.91339219165349
 10
17.40734911161942
 20
-35.91686330457589
 10
17.39635725403197
 20
-35.9212021957288
 10
17.38565465585456
 20
-35.92640886511242
 10
17.37755539236907
 20
-35.93132627508578
 10
17.37003464770395
 20
-35.9368222038795
 10
17.36280316244897
 20
-35.94260739208348
 10
17.35615019601439
 20
-35.94897109910782
 10
17.34978648899014
 20
-35.95591332495259
 10
17.34400130078607
 20
-35.96343406961773
 10
17.33850537199236
 20
-35.97095481428286
 10
17.33387722142917
 20
-35.97905407776843
 10
17.32953833027624
 20
-35.98744260066418
 10
17.32577795794368
 20
-35.9961203829701
 10
17.32288536384174
 20
-36.00479816527605
 10
17.32057128856014
 20
-36.01376520699214
 10
17.3188357320989
 20
-36.0230215081185
 10
17.3176786944581
 20
-36.0322778092448
 10
17.31738943504793
 20
-36.04153411037116
 10
17.31796795386838
 20
-36.05079041149745
 10
17.31825721327853
 20
-36.05570782147081
 10
17.3188357320989
 20
-36.06033597203399
 10
17.31941425091926
 20
-36.06525338200736
 10
17.32057128856014
 20
-36.06988153257054
 10
17.32230684502129
 20
-36.07422042372355
 10
17.32433166089261
 20
-36.07827005546628
 10
17.32751351440483
 20
-36.08145190897849
 10
17.3312738867374
 20
-36.08376598426001
 10
17.33300944319864
 20
-36.08463376249062
 10
17.33474499965978
 20
-36.08521228131106
 10
17.3367698155312
 20
-36.08521228131106
 10
17.33850537199236
 20
-36.08521228131106
 10
17.34053018786377
 20
-36.08521228131106
 10
17.34255500373518
 20
-36.0849230219008
 10
17.34486907901677
 20
-36.08434450308044
 10
17.34747241370854
 20
-36.08405524367027
 10
17.43338245853729
 20
-36.06901375433993
 10
17.43714283086986
 20
-36.06843523551957
 10
17.44119246261259
 20
-36.06814597610938
 10
17.44495283494525
 20
-36.06756745728894
 10
17.44900246668791
 20
-36.06756745728894
 10
17.45276283902056
 20
-36.06727819787876
 10
17.4568124707633
 20
-36.06727819787876
 10
17.46057284309588
 20
-36.06756745728894
 10
17.4646224748387
 20
-36.06785671669913
 10
17.46838284717117
 20
-36.06814597610938
 10
17.47243247891401
 20
-36.06872449492974
 10
17.47619285124657
 20
-36.06930301375018
 10
17.47995322357914
 20
-36.07017079198072
 10
17.48371359591171
 20
-36.07103857021134
 10
17.48747396824426
 20
-36.07190634844196
 10
17.49123434057684
 20
-36.07306338608275
 10
17.49470545349923
 20
-36.07450968313372
 10
17.50338323580524
 20
-36.07913783369691
 10
17.5106147210601
 20
-36.08550154072124
 10
17.51582139044372
 20
-36.09302228538638
 10
17.51958176277622
 20
-36.1017000676923
 10
17.52160657864763
 20
-36.1106671094084
 10
17.52189583805781
 20
-36.12021266994496
 10
17.52073880041708
 20
-36.1297582304815
 10
17.51784620631506
 20
-36.13930379101804
 10
17.51495361221303
 20
-36.14537823863221
 10
17.51177175870091
 20
-36.15116342683619
 10
17.50772212695808
 20
-36.15637009621972
 10
17.50338323580524
 20
-36.16128750619309
 10
17.49875508524206
 20
-36.16591565675627
 10
17.49354841585843
 20
-36.16996528849901
 10
17.48776322765445
 20
-36.17343640142141
 10
17.48197803945054
 20
-36.17661825493353
 10
17.47590359183639
 20
-36.17922158962539
 10
17.46982914422224
 20
-36.18095714608653
 10
17.46317617778764
 20
-36.18240344313751
 10
17.4568124707633
 20
-36.18327122136812
 10
17.45044876373897
 20
-36.1835604807783
 10
17.44379579730437
 20
-36.18298196195796
 10
17.43743209028003
 20
-36.18182492431716
 10
17.4310683832557
 20
-36.17980010844575
 10
17.42586171387216
 20
-36.17777529257433
 10
17.4209443038988
 20
-36.17546121729282
 10
17.41602689392544
 20
-36.17314714201123
 10
17.41139874336225
 20
-36.17025454790919
 10
17.40677059279905
 20
-36.16736195380724
 10
17.40243170164606
 20
-36.16418010029504
 10
17.3983820699034
 20
-36.16070898737265
 10
17.39404317875038
 20
-36.15694861504008
 10
17.39028280641774
 20
-36.15318824270751
 10
17.38652243408526
 20
-36.14942787037495
 10
17.3827620617526
 20
-36.14537823863221
 10
17.37929094883031
 20
-36.14103934747921
 10
17.37581983590782
 20
-36.13670045632627
 10
17.37263798239571
 20
-36.13236156517328
 10
17.36945612888359
 20
-36.12802267402035
 10
17.36656353478155
 20
-36.12339452345717
 10
17.29771979515448
 20
-36.15694861504008
 10
17.30321572394819
 20
-36.16591565675627
 10
17.30957943097253
 20
-36.17430417965203
 10
17.31652165681731
 20
-36.18211418372733
 10
17.32404240148244
 20
-36.18905640957211
 10
17.33214166496801
 20
-36.19570937600662
 10
17.34081944727394
 20
-36.2014945642106
 10
17.35007574840031
 20
-36.20670123359414
 10
17.35933204952659
 20
-36.21104012474714
 10
17.36916686947341
 20
-36.21480049707971
 10
17.37929094883031
 20
-36.21798235059185
 10
17.38970428759739
 20
-36.22029642587343
 10
17.40011762636447
 20
-36.2217427229244
 10
17.41053096513163
 20
-36.22261050115503
 10
17.4209443038988
 20
-36.22261050115503
 10
17.43135764266588
 20
-36.22203198233467
 10
17.44177098143296
 20
-36.22029642587343
 10
17.45218432020021
 20
-36.21798235059185
 10
17.46230839955711
 20
-36.21451123766953
 10
17.47185396009365
 20
-36.2104616059267
 10
17.48139952063011
 20
-36.20554419595335
 10
17.49036656234622
 20
-36.19975900774937
 10
17.49904434465224
 20
-36.19339530072503
 10
17.50685434872753
 20
-36.18645307488034
 10
17.51437509339268
 20
-36.17893233021512
 10
17.52131731923745
 20
-36.17083306672963
 10
17.5273917668516
 20
-36.16215528442371
 10
17.53288769564542
 20
-36.15318824270751
 10
17.53780510561869
 20
-36.14364268217097
 10
17.54156547795124
 20
-36.13380786222425
 10
17.54474733146346
 20
-36.12368378286735
 10
17.54706140674505
 20
-36.11327044410026
 10
17.54821844438586
 20
-36.1028571053331
 10
17.54879696320621
 20
-36.09475784184752
 10
17.54850770379603
 20
-36.08665857836204
 10
17.5476399255655
 20
-36.07855931487647
 10
17.54619362851444
 20
-36.07074931080116
 10
17.54387955323285
 20
-36.06293930672576
 10
17.54098695913089
 20
-36.05541856206063
 10
17.53751584620851
 20
-36.04818707680568
 10
17.53317695505559
 20
-36.04124485096099
 10
17.52970584213312
 20
-36.03690595980797
 10
17.52594546980062
 20
-36.03256706865507
 10
17.52189583805781
 20
-36.02880669632241
 10
17.5175569469049
 20
-36.02562484281028
 10
17.51263953693143
 20
-36.02244298929807
 10
17.50772212695808
 20
-36.01955039519612
 10
17.50251545757454
 20
-36.01723631991453
 10
17.49730878819098
 20
-36.01492224463294
 10
17.49181285939728
 20
-36.01318668817178
 10
17.48631693060347
 20
-36.01145113171055
 10
17.4805317423995
 20
-36.01000483465958
 10
17.4747465541956
 20
-36.00884779701878
 10
17.46896136599161
 20
-36.00798001878815
 10
17.46317617778764
 20
-36.00740149996781
 10
17.45739098958375
 20
-36.00682298114745
 10
17.45189506078994
 20
-36.00653372173719
 10
17.44842394786754
 20
-36.00653372173719
 10
17.44466357553499
 20
-36.00653372173719
 10
17.44119246261259
 20
-36.00653372173719
 10
17.4377213496903
 20
-36.00682298114745
 10
17.43425023676783
 20
-36.00711224055763
 10
17.43077912384552
 20
-36.00740149996781
 10
17.42730801092313
 20
-36.00769075937797
 10
17.42383689800075
 20
-36.00826927819843
 10
17.42007652566817
 20
-36.00884779701878
 10
17.41660541274579
 20
-36.00942631583922
 10
17.4131342998234
 20
-36.01000483465958
 10
17.40966318690101
 20
-36.01029409406975
 10
17.40619207397871
 20
-36.0108726128902
 10
17.40272096105632
 20
-36.01145113171055
 10
17.39896058872376
 20
-36.01202965053099
 10
17.39548947580138
 20
-36.01260816935135
 10
17.34371204137589
 20
-36.0253355834001
 10
17.34284426314536
 20
-36.02041817342674
 10
17.34342278196572
 20
-36.01289742876153
 10
17.34515833842695
 20
-36.00364112763524
 10
17.34862945134926
 20
-35.99322778886808
 10
17.35296834250226
 20
-35.982814450101
 10
17.35875353070624
 20
-35.97297963015427
 10
17.36569575655092
 20
-35.96488036666869
 10
17.37350576062632
 20
-35.95880591905454
 10
17.38044798647102
 20
-35.95562406554242
 10
17.38767947172598
 20
-35.95302073085056
 10
17.39520021639111
 20
-35.95157443379959
 10
17.4030102204665
 20
-35.95041739615879
 10
17.4108202245419
 20
-35.95012813674861
 10
17.41891948802738
 20
-35.95070665556905
 10
17.4267294921027
 20
-35.95157443379959
 10
17.43453949617808
 20
-35.95330999026082
 10
17.4423495002534
 20
-35.95562406554242
 10
17.44958098550835
 20
-35.95851665964436
 10
17.45652321135304
 20
-35.96198777256675
 10
17.46317617778764
 20
-35.96574814489932
 10
17.46925062540179
 20
-35.97008703605224
 10
17.47503581360578
 20
-35.9750044460256
 10
17.47995322357914
 20
-35.98021111540923
 10
17.48400285532194
 20
-35.98570704420294
 10
17.56036733961417
 20
-35.95041739615879
  0
DIMENSION
  5
C5E
330
17
100
AcDbEntity
  8
3
100
AcDbDimension
  2
*D4
 10
8.047705926856451
 20
-22.54139590614455
 30
0.0
 11
8.047705926856455
 21
-25.26014590614455
 31
0.0
 70
    32
 71
     5
 42
5.437500000000002
  3
STANDARD
100
AcDbAlignedDimension
 13
6.492738906542887
 23
-27.97889590614455
 33
0.0
 14
6.492738906542886
 24
-22.54139590614455
 34
0.0
 50
90.0
100
AcDbRotatedDimension
1001
ACAD
1000
DSTYLE
1002
{
1070
    40
1040
2.0
1070
    41
1040
0.125
1070
    43
1040
0.375
1070
    44
1040
0.0625
1070
    78
1070
     4
1070
   140
1040
0.125
1070
   141
1040
-0.125
1070
   147
1040
0.09375
1070
   271
1070
     6
1070
   272
1070
     6
1070
   273
1070
     5
1070
   277
1070
     5
1070
   279
1070
     2
1070
   284
1070
     4
1070
   285
1070
     4
1070
   286
1070
     4
1070
   340
1005
23
1002
}
  0
ENDSEC
  0
SECTION
  2
OBJECTS
  0
DICTIONARY
  5
C
330
0
100
AcDbDictionary
281
     1
  3
ACAD_CIP_PREVIOUS_PRODUCT_INFO
350
C5D
  3
ACAD_COLOR
350
C3E
  3
ACAD_DETAILVIEWSTYLE
350
C57
  3
ACAD_GROUP
350
D
  3
ACAD_LAYOUT
350
BD8
  3
ACAD_MATERIAL
350
C0C
  3
ACAD_MLEADERSTYLE
350
C53
  3
ACAD_MLINESTYLE
350
1A
  3
ACAD_PLOTSETTINGS
350
BD9
  3
ACAD_PLOTSTYLENAME
350
BD6
  3
ACAD_SCALELIST
350
C41
  3
ACAD_SECTIONVIEWSTYLE
350
C55
  3
ACAD_TABLESTYLE
350
C3F
  3
ACAD_VISUALSTYLE
350
C25
  3
ACDB_RECOMPOSE_DATA
350
D48
  3
ACDBVARIABLEDICTIONARY
350
39
  3
AcDsDecomposeData
350
D4F
  3
DWGPROPS
350
D49
  0
DICTIONARY
  5
C79
330
2
100
AcDbDictionary
280
     1
281
     1
  3
ACAD_LAYERSTATES
360
C7A
  0
DICTIONARY
  5
C6C
330
E
100
AcDbDictionary
280
     1
281
     1
  3
ADSK_XREC_LAYER_RECONCILED
360
C6D
  0
DICTIONARY
  5
C6E
330
30
100
AcDbDictionary
280
     1
281
     1
  3
ADSK_XREC_LAYER_RECONCILED
360
C6F
  0
DICTIONARY
  5
C70
330
31
100
AcDbDictionary
280
     1
281
     1
  3
ADSK_XREC_LAYER_RECONCILED
360
C71
  0
DICTIONARY
  5
C72
330
32
100
AcDbDictionary
280
     1
281
     1
  3
ADSK_XREC_LAYER_RECONCILED
360
C73
  0
DICTIONARY
  5
C74
330
34
100
AcDbDictionary
280
     1
281
     1
  3
ADSK_XREC_LAYER_RECONCILED
360
C75
  0
XRECORD
  5
C5D
102
{ACAD_REACTORS
330
C
102
}
330
C
100
AcDbXrecord
280
     1
300
AMECH_PP
300
2015
300
PDSU_F_S
  0
DICTIONARY
  5
C3E
102
{ACAD_REACTORS
330
C
102
}
330
C
100
AcDbDictionary
281
     1
  0
DICTIONARY
  5
C57
102
{ACAD_REACTORS
330
C
102
}
330
C
100
AcDbDictionary
281
     1
  3
Imperial24
350
C58
  0
DICTIONARY
  5
D
102
{ACAD_REACTORS
330
C
102
}
330
C
100
AcDbDictionary
281
     1
  0
DICTIONARY
  5
BD8
102
{ACAD_REACTORS
330
C
102
}
330
C
100
AcDbDictionary
281
     1
  3
Layout1
350
BDB
  3
Model
350
BDA
  0
DICTIONARY
  5
C0C
102
{ACAD_REACTORS
330
C
102
}
330
C
100
AcDbDictionary
281
     1
  3
ByBlock
350
C15
  3
ByLayer
350
C0D
  3
Global
350
C1D
  0
DICTIONARY
  5
C53
102
{ACAD_REACTORS
330
C
102
}
330
C
100
AcDbDictionary
281
     1
  3
Standard
350
C54
  0
DICTIONARY
  5
1A
102
{ACAD_REACTORS
330
C
102
}
330
C
100
AcDbDictionary
281
     1
  3
STANDARD
350
1B
  0
DICTIONARY
  5
BD9
102
{ACAD_REACTORS
330
C
102
}
330
C
100
AcDbDictionary
281
     1
  0
ACDBDICTIONARYWDFLT
  5
BD6
102
{ACAD_REACTORS
330
C
102
}
330
C
100
AcDbDictionary
281
     1
  3
Normal
350
BD7
100
AcDbDictionaryWithDefault
340
BD7
  0
DICTIONARY
  5
C41
102
{ACAD_REACTORS
330
C
102
}
330
C
100
AcDbDictionary
281
     1
  3
A0
350
C42
  3
A1
350
C43
  3
A2
350
C44
  3
A3
350
C45
  3
A4
350
C46
  3
A5
350
C47
  3
A6
350
C48
  3
A7
350
C49
  3
A8
350
C4A
  3
A9
350
C4B
  3
B0
350
C4C
  3
B1
350
C4D
  3
B2
350
C4E
  3
B3
350
C4F
  3
B4
350
C50
  3
B5
350
C51
  3
B6
350
C52
  0
DICTIONARY
  5
C55
102
{ACAD_REACTORS
330
C
102
}
330
C
100
AcDbDictionary
281
     1
  3
Imperial24
350
C56
  0
DICTIONARY
  5
C3F
102
{ACAD_REACTORS
330
C
102
}
330
C
100
AcDbDictionary
281
     1
  3
Standard
350
C40
  0
DICTIONARY
  5
C25
102
{ACAD_REACTORS
330
C
102
}
330
C
100
AcDbDictionary
281
     1
  3
2dWireframe
350
C2B
  3
Basic
350
C2A
  3
Brighten
350
C31
  3
ColorChange
350
C35
  3
Conceptual
350
C2E
  3
Dim
350
C30
  3
EdgeColorOff
350
C3D
  3
Facepattern
350
C34
  3
Flat
350
C26
  3
FlatWithEdges
350
C27
  3
Gouraud
350
C28
  3
GouraudWithEdges
350
C29
  3
Hidden
350
C2D
  3
JitterOff
350
C3B
  3
Linepattern
350
C33
  3
OverhangOff
350
C3C
  3
Realistic
350
C2F
  3
Shaded
350
C3A
  3
Shaded with edges
350
C39
  3
Shades of Gray
350
C36
  3
Sketchy
350
C37
  3
Thicken
350
C32
  3
Wireframe
350
C2C
  3
X-Ray
350
C38
  0
XRECORD
  5
D48
102
{ACAD_REACTORS
330
C
102
}
330
C
100
AcDbXrecord
280
     1
 90
        1
330
C40
  0
DICTIONARY
  5
39
102
{ACAD_REACTORS
330
C
102
}
330
C
100
AcDbDictionary
281
     1
  3
CANNOSCALE
350
CD5
  3
CMLEADERSTYLE
350
CD1
  3
CTABLESTYLE
350
CD0
  3
CVIEWDETAILSTYLE
350
CD2
  3
CVIEWSECTIONSTYLE
350
CD3
  3
DIMADEC
350
3A
  3
DIMASSOC
350
BE6
  3
INDEXCTL
350
D42
  3
LAYEREVAL
350
CD7
  3
LAYERNOTIFY
350
CD8
  3
LIGHTINGUNITS
350
CD6
  3
LOFTANG1
350
D43
  3
LOFTANG2
350
D44
  3
LONGITUDE
350
D45
  3
MSLTSCALE
350
CD4
  3
SORTENTS
350
D41
  3
XCLIPFRAME
350
D46
  0
DICTIONARY
  5
D4F
102
{ACAD_REACTORS
330
C
102
}
330
C
100
AcDbDictionary
281
     1
  3
AcDsRecords
350
D51
  3
AcDsSchemas
350
D50
1001
ACAD
1070
     2
  0
XRECORD
  5
D49
102
{ACAD_REACTORS
330
C
102
}
330
C
100
AcDbXrecord
280
     1
  1
DWGPROPS COOKIE
  2

  3

  4

  6

  7

  8
jmilewski
  9

300
=
301
=
302
=
303
=
304
=
305
=
306
=
307
=
308
=
309
=
 40
0.6411111574074075
 41
2449051.580961806
 42
2457155.485226285
  1

 90
        0
  0
DICTIONARY
  5
C7A
102
{ACAD_REACTORS
330
C79
102
}
330
C79
100
AcDbDictionary
281
     1
  0
XRECORD
  5
C6D
102
{ACAD_REACTORS
330
C6C
102
}
330
C6C
100
AcDbXrecord
280
     1
290
     1
  0
XRECORD
  5
C6F
102
{ACAD_REACTORS
330
C6E
102
}
330
C6E
100
AcDbXrecord
280
     1
290
     1
  0
XRECORD
  5
C71
102
{ACAD_REACTORS
330
C70
102
}
330
C70
100
AcDbXrecord
280
     1
290
     1
  0
XRECORD
  5
C73
102
{ACAD_REACTORS
330
C72
102
}
330
C72
100
AcDbXrecord
280
     1
290
     1
  0
XRECORD
  5
C75
102
{ACAD_REACTORS
330
C74
102
}
330
C74
100
AcDbXrecord
280
     1
290
     1
  0
ACDBDETAILVIEWSTYLE
  5
C58
102
{ACAD_XDICTIONARY
360
CDD
102
}
102
{ACAD_REACTORS
330
C57
102
}
330
C57
100
AcDbModelDocViewStyle
 70
     0
  3
Imperial24
290
     0
100
AcDbDetailViewStyle
 70
     0
 71
     0
 90
        3
 71
     1
340
F
 40
0.24
340
0
 40
0.24
300

 40
0.36
280
     3
 71
     2
340
13
 90
       25
 71
     3
340
F
 40
0.24
 90
        1
 40
0.75
 90
        1
300
%<\AcVar ViewType \f "%tc1">% %<\AcVar ViewDetailId>%\PSCALE %<\AcVar ViewScale \f "%sn">%
 71
     4
340
13
 90
       25
340
13
 90
       25
280
     0
  0
LAYOUT
  5
BDB
102
{ACAD_XDICTIONARY
360
D54
102
}
102
{ACAD_REACTORS
330
BD8
102
}
330
BD8
100
AcDbPlotSettings
  1

  2
Epson Stylus Photo 1200 ESC/P 2
  4

  6

 40
0.0
 41
0.0
 42
0.0
 43
0.0
 44
0.0
 45
0.0
 46
0.0
 47
0.0
 48
0.0
 49
0.0
140
0.0
141
0.0
142
1.0
143
1.0
 70
   688
 72
     0
 73
     0
 74
     5
  7

 75
    16
147
1.0
148
0.0
149
0.0
100
AcDbLayout
  1
Layout1
 70
     0
 71
     1
 10
0.0
 20
0.0
 11
12.0
 21
9.0
 12
0.0
 22
0.0
 32
0.0
 14
1.000000000000000E+20
 24
1.000000000000000E+20
 34
1.000000000000000E+20
 15
-1.000000000000000E+20
 25
-1.000000000000000E+20
 35
-1.000000000000000E+20
146
0.0
 13
0.0
 23
0.0
 33
0.0
 16
1.0
 26
0.0
 36
0.0
 17
0.0
 27
1.0
 37
0.0
 76
     0
330
14
  0
LAYOUT
  5
BDA
102
{ACAD_XDICTIONARY
360
D52
102
}
102
{ACAD_REACTORS
330
BD8
102
}
330
BD8
100
AcDbPlotSettings
  1

  2
Epson Stylus Photo 1200 ESC/P 2
  4
Letter
  6

 40
3.757083177566528
 41
3.757076978683471
 42
3.757080078125
 43
3.757080078125
 44
215.8999938964844
 45
279.3999938964844
 46
0.0
 47
0.0
 48
0.0
 49
0.0
140
0.0
141
0.0
142
1.0
143
1.0
 70
 11952
 72
     0
 73
     1
 74
     0
  7

 75
     0
147
1.0
148
260.1002864420264
149
1363.059653397749
100
AcDbLayout
  1
Model
 70
     1
 71
     0
 10
0.0
 20
0.0
 11
12.0
 21
9.0
 12
0.0
 22
0.0
 32
0.0
 14
0.0
 24
0.0
 34
0.0
 15
0.0
 25
0.0
 35
0.0
146
0.0
 13
0.0
 23
0.0
 33
0.0
 16
1.0
 26
0.0
 36
0.0
 17
0.0
 27
1.0
 37
0.0
 76
     0
330
17
331
C0A
  0
MATERIAL
  5
C15
102
{ACAD_XDICTIONARY
360
C16
102
}
102
{ACAD_REACTORS
330
C0C
102
}
330
C0C
100
AcDbMaterial
  1
ByBlock
 72
     0
 43
0.0208333333333333
 43
0.0
 43
0.0
 43
0.0
 43
0.0
 43
0.0208333333333333
 43
0.0
 43
0.0
 43
0.0
 43
0.0
 43
1.0
 43
0.0
 43
0.0
 43
0.0
 43
0.0
 43
1.0
 77
     0
 47
0.0208333333333333
 47
0.0
 47
0.0
 47
0.0
 47
0.0
 47
0.0208333333333333
 47
0.0
 47
0.0
 47
0.0
 47
0.0
 47
1.0
 47
0.0
 47
0.0
 47
0.0
 47
0.0
 47
1.0
171
     0
 49
0.0208333333333333
 49
0.0
 49
0.0
 49
0.0
 49
0.0
 49
0.0208333333333333
 49
0.0
 49
0.0
 49
0.0
 49
0.0
 49
1.0
 49
0.0
 49
0.0
 49
0.0
 49
0.0
 49
1.0
175
     0
142
0.0208333333333333
142
0.0
142
0.0
142
0.0
142
0.0
142
0.0208333333333333
142
0.0
142
0.0
142
0.0
142
0.0
142
1.0
142
0.0
142
0.0
142
0.0
142
0.0
142
1.0
179
     0
144
0.0208333333333333
144
0.0
144
0.0
144
0.0
144
0.0
144
0.0208333333333333
144
0.0
144
0.0
144
0.0
144
0.0
144
1.0
144
0.0
144
0.0
144
0.0
144
0.0
144
1.0
147
0.0208333333333333
147
0.0
147
0.0
147
0.0
147
0.0
147
0.0208333333333333
147
0.0
147
0.0
147
0.0
147
0.0
147
1.0
147
0.0
147
0.0
147
0.0
147
0.0
147
1.0
  0
MATERIAL
  5
C0D
102
{ACAD_XDICTIONARY
360
C0E
102
}
102
{ACAD_REACTORS
330
C0C
102
}
330
C0C
100
AcDbMaterial
  1
ByLayer
 72
     0
 43
0.0208333333333333
 43
0.0
 43
0.0
 43
0.0
 43
0.0
 43
0.0208333333333333
 43
0.0
 43
0.0
 43
0.0
 43
0.0
 43
1.0
 43
0.0
 43
0.0
 43
0.0
 43
0.0
 43
1.0
 77
     0
 47
0.0208333333333333
 47
0.0
 47
0.0
 47
0.0
 47
0.0
 47
0.0208333333333333
 47
0.0
 47
0.0
 47
0.0
 47
0.0
 47
1.0
 47
0.0
 47
0.0
 47
0.0
 47
0.0
 47
1.0
171
     0
 49
0.0208333333333333
 49
0.0
 49
0.0
 49
0.0
 49
0.0
 49
0.0208333333333333
 49
0.0
 49
0.0
 49
0.0
 49
0.0
 49
1.0
 49
0.0
 49
0.0
 49
0.0
 49
0.0
 49
1.0
175
     0
142
0.0208333333333333
142
0.0
142
0.0
142
0.0
142
0.0
142
0.0208333333333333
142
0.0
142
0.0
142
0.0
142
0.0
142
1.0
142
0.0
142
0.0
142
0.0
142
0.0
142
1.0
179
     0
144
0.0208333333333333
144
0.0
144
0.0
144
0.0
144
0.0
144
0.0208333333333333
144
0.0
144
0.0
144
0.0
144
0.0
144
1.0
144
0.0
144
0.0
144
0.0
144
0.0
144
1.0
147
0.0208333333333333
147
0.0
147
0.0
147
0.0
147
0.0
147
0.0208333333333333
147
0.0
147
0.0
147
0.0
147
0.0
147
1.0
147
0.0
147
0.0
147
0.0
147
0.0
147
1.0
  0
MATERIAL
  5
C1D
102
{ACAD_XDICTIONARY
360
C1E
102
}
102
{ACAD_REACTORS
330
C0C
102
}
330
C0C
100
AcDbMaterial
  1
Global
 72
     0
 43
0.0208333333333333
 43
0.0
 43
0.0
 43
0.0
 43
0.0
 43
0.0208333333333333
 43
0.0
 43
0.0
 43
0.0
 43
0.0
 43
1.0
 43
0.0
 43
0.0
 43
0.0
 43
0.0
 43
1.0
 77
     0
 47
0.0208333333333333
 47
0.0
 47
0.0
 47
0.0
 47
0.0
 47
0.0208333333333333
 47
0.0
 47
0.0
 47
0.0
 47
0.0
 47
1.0
 47
0.0
 47
0.0
 47
0.0
 47
0.0
 47
1.0
171
     0
 49
0.0208333333333333
 49
0.0
 49
0.0
 49
0.0
 49
0.0
 49
0.0208333333333333
 49
0.0
 49
0.0
 49
0.0
 49
0.0
 49
1.0
 49
0.0
 49
0.0
 49
0.0
 49
0.0
 49
1.0
175
     0
142
0.0208333333333333
142
0.0
142
0.0
142
0.0
142
0.0
142
0.0208333333333333
142
0.0
142
0.0
142
0.0
142
0.0
142
1.0
142
0.0
142
0.0
142
0.0
142
0.0
142
1.0
179
     0
144
0.0208333333333333
144
0.0
144
0.0
144
0.0
144
0.0
144
0.0208333333333333
144
0.0
144
0.0
144
0.0
144
0.0
144
1.0
144
0.0
144
0.0
144
0.0
144
0.0
144
1.0
147
0.0208333333333333
147
0.0
147
0.0
147
0.0
147
0.0
147
0.0208333333333333
147
0.0
147
0.0
147
0.0
147
0.0
147
1.0
147
0.0
147
0.0
147
0.0
147
0.0
147
1.0
  0
MLEADERSTYLE
  5
C54
102
{ACAD_XDICTIONARY
360
D8B
102
}
102
{ACAD_REACTORS
330
C53
102
}
330
C53
100
AcDbMLeaderStyle
170
     2
171
     1
172
     0
 90
        2
 40
0.0
 41
0.0
173
     1
 91
-1056964608
340
11
 92
       -2
290
     1
 42
0.09
291
     1
 43
0.36
  3
Standard
 44
0.18
300

342
F
174
     1
178
     6
175
     1
176
     0
 93
-1056964608
 45
0.18
292
     0
297
     0
 46
0.18
 94
-1056964608
 47
1.0
 49
1.0
140
1.0
293
     1
141
0.0
294
     1
177
     0
142
1.0
295
     0
296
     0
143
0.125
1001
ACAD_MLEADERVER
1070
     2
  0
MLINESTYLE
  5
1B
102
{ACAD_REACTORS
330
1A
102
}
330
1A
100
AcDbMlineStyle
  2
STANDARD
 70
     0
  3

 62
   256
 51
90.0
 52
90.0
 71
     2
 49
0.5
 62
   256
  6
BYLAYER
 49
-0.5
 62
   256
  6
BYLAYER
  0
ACDBPLACEHOLDER
  5
BD7
102
{ACAD_REACTORS
330
BD6
102
}
330
BD6
  0
SCALE
  5
C42
102
{ACAD_REACTORS
330
C41
102
}
330
C41
100
AcDbScale
 70
     0
300
1:1
140
1.0
141
1.0
290
     1
  0
SCALE
  5
C43
102
{ACAD_REACTORS
330
C41
102
}
330
C41
100
AcDbScale
 70
     0
300
1/128" = 1'-0"
140
0.0078125
141
12.0
290
     0
  0
SCALE
  5
C44
102
{ACAD_REACTORS
330
C41
102
}
330
C41
100
AcDbScale
 70
     0
300
1/64" = 1'-0"
140
0.015625
141
12.0
290
     0
  0
SCALE
  5
C45
102
{ACAD_REACTORS
330
C41
102
}
330
C41
100
AcDbScale
 70
     0
300
1/32" = 1'-0"
140
0.03125
141
12.0
290
     0
  0
SCALE
  5
C46
102
{ACAD_REACTORS
330
C41
102
}
330
C41
100
AcDbScale
 70
     0
300
1/16" = 1'-0"
140
0.0625
141
12.0
290
     0
  0
SCALE
  5
C47
102
{ACAD_REACTORS
330
C41
102
}
330
C41
100
AcDbScale
 70
     0
300
3/32" = 1'-0"
140
0.09375
141
12.0
290
     0
  0
SCALE
  5
C48
102
{ACAD_REACTORS
330
C41
102
}
330
C41
100
AcDbScale
 70
     0
300
1/8" = 1'-0"
140
0.125
141
12.0
290
     0
  0
SCALE
  5
C49
102
{ACAD_REACTORS
330
C41
102
}
330
C41
100
AcDbScale
 70
     0
300
3/16" = 1'-0"
140
0.1875
141
12.0
290
     0
  0
SCALE
  5
C4A
102
{ACAD_REACTORS
330
C41
102
}
330
C41
100
AcDbScale
 70
     0
300
1/4" = 1'-0"
140
0.25
141
12.0
290
     0
  0
SCALE
  5
C4B
102
{ACAD_REACTORS
330
C41
102
}
330
C41
100
AcDbScale
 70
     0
300
3/8" = 1'-0"
140
0.375
141
12.0
290
     0
  0
SCALE
  5
C4C
102
{ACAD_REACTORS
330
C41
102
}
330
C41
100
AcDbScale
 70
     0
300
1/2" = 1'-0"
140
0.5
141
12.0
290
     0
  0
SCALE
  5
C4D
102
{ACAD_REACTORS
330
C41
102
}
330
C41
100
AcDbScale
 70
     0
300
3/4" = 1'-0"
140
0.75
141
12.0
290
     0
  0
SCALE
  5
C4E
102
{ACAD_REACTORS
330
C41
102
}
330
C41
100
AcDbScale
 70
     0
300
1" = 1'-0"
140
1.0
141
12.0
290
     0
  0
SCALE
  5
C4F
102
{ACAD_REACTORS
330
C41
102
}
330
C41
100
AcDbScale
 70
     0
300
1-1/2" = 1'-0"
140
1.5
141
12.0
290
     0
  0
SCALE
  5
C50
102
{ACAD_REACTORS
330
C41
102
}
330
C41
100
AcDbScale
 70
     0
300
3" = 1'-0"
140
3.0
141
12.0
290
     0
  0
SCALE
  5
C51
102
{ACAD_REACTORS
330
C41
102
}
330
C41
100
AcDbScale
 70
     0
300
6" = 1'-0"
140
6.0
141
12.0
290
     0
  0
SCALE
  5
C52
102
{ACAD_REACTORS
330
C41
102
}
330
C41
100
AcDbScale
 70
     0
300
1'-0" = 1'-0"
140
12.0
141
12.0
290
     0
  0
ACDBSECTIONVIEWSTYLE
  5
C56
102
{ACAD_XDICTIONARY
360
CDB
102
}
102
{ACAD_REACTORS
330
C55
102
}
330
C55
100
AcDbModelDocViewStyle
 70
     0
  3
Imperial24
290
     0
100
AcDbSectionViewStyle
 70
     0
 71
     0
 90
       78
 71
     1
340
F
 40
0.24
340
0
340
0
 40
0.24
300
I, O, Q, S, X, Z
 40
0.48
 90
        3
 40
0.18
 90
        1
 71
     2
340
13
 90
       25
340
13
 90
       50
 40
0.24
 40
0.0
 40
0.24
 71
     3
340
F
 40
0.24
 90
        1
 40
0.75
 90
        1
300
%<\AcVar ViewType \f "%tc1">% %<\AcVar ViewSectionStartId>%-%<\AcVar ViewSectionEndId>%\PSCALE %<\AcVar ViewScale \f "%sn">%
 71
     4
300
ANSI31
 40
1.0
 90
        0
290
     0
290
     0
 90
        6
 40
0.0
 40
1.570796326794896
 40
0.2617993877991494
 40
1.308996938995747
 40
-0.2617993877991494
 40
1.832595714594044
  0
TABLESTYLE
  5
C40
102
{ACAD_XDICTIONARY
360
CD9
102
}
102
{ACAD_REACTORS
330
C3F
102
}
330
C3F
100
AcDbTableStyle
  3
Standard
 70
     0
 71
     0
 40
0.06
 41
0.06
280
     0
281
     0
  7
STANDARD
140
0.18
170
     2
 62
     0
 63
     7
283
     0
274
    -2
284
     1
 64
     0
275
    -2
285
     1
 65
     0
276
    -2
286
     1
 66
     0
277
    -2
287
     1
 67
     0
278
    -2
288
     1
 68
     0
279
    -2
289
     1
 69
     0
  7
STANDARD
140
0.25
170
     5
 62
     0
 63
     7
283
     0
274
    -2
284
     1
 64
     0
275
    -2
285
     1
 65
     0
276
    -2
286
     1
 66
     0
277
    -2
287
     1
 67
     0
278
    -2
288
     1
 68
     0
279
    -2
289
     1
 69
     0
  7
STANDARD
140
0.18
170
     5
 62
     0
 63
     7
283
     0
274
    -2
284
     1
 64
     0
275
    -2
285
     1
 65
     0
276
    -2
286
     1
 66
     0
277
    -2
287
     1
 67
     0
278
    -2
288
     1
 68
     0
279
    -2
289
     1
 69
     0
  0
VISUALSTYLE
  5
C2B
102
{ACAD_XDICTIONARY
360
D63
102
}
102
{ACAD_REACTORS
330
C25
102
}
330
C25
100
AcDbVisualStyle
  2
2dWireframe
 70
     4
 71
     0
 72
     2
 73
     0
 90
        0
 40
-0.6
 41
-30.0
 62
     5
 63
     7
 74
     1
 91
        4
 64
     7
 65
   257
 75
     1
175
     1
 42
1.0
 92
        0
 66
   257
 43
1.0
 76
     1
 77
     6
 78
     2
 67
     7
 79
     5
170
     0
171
     0
290
     0
174
     0
 93
        1
 44
0.0
173
     0
291
     0
 45
0.0
1001
ACAD
1000
AcDbSavedByObjectVersion
1070
     0
  0
VISUALSTYLE
  5
C2A
102
{ACAD_XDICTIONARY
360
D61
102
}
102
{ACAD_REACTORS
330
C25
102
}
330
C25
100
AcDbVisualStyle
  2
Basic
 70
     7
 71
     1
 72
     0
 73
     1
 90
        0
 40
-0.6
 41
-30.0
 62
     5
 63
     7
 74
     0
 91
        4
 64
     7
 65
   257
 75
     1
175
     1
 42
1.0
 92
        8
 66
     7
 43
1.0
 76
     1
 77
     6
 78
     2
 67
     7
 79
     5
170
     0
171
     0
290
     0
174
     0
 93
        1
 44
0.0
173
     0
291
     1
 45
0.0
1001
ACAD
1000
AcDbSavedByObjectVersion
1070
     0
  0
VISUALSTYLE
  5
C31
102
{ACAD_XDICTIONARY
360
D6F
102
}
102
{ACAD_REACTORS
330
C25
102
}
330
C25
100
AcDbVisualStyle
  2
Brighten
 70
    12
 71
     2
 72
     2
 73
     0
 90
        0
 40
-0.6
 41
-30.0
 62
     5
 63
     7
 74
     1
 91
        4
 64
     7
 65
   257
 75
     1
175
     1
 42
1.0
 92
        8
 66
     7
 43
1.0
 76
     1
 77
     6
 78
     2
 67
     7
 79
     5
170
     0
171
     0
290
     0
174
     0
 93
        1
 44
50.0
173
     0
291
     1
 45
0.0
1001
ACAD
1000
AcDbSavedByObjectVersion
1070
     0
  0
VISUALSTYLE
  5
C35
102
{ACAD_XDICTIONARY
360
D77
102
}
102
{ACAD_REACTORS
330
C25
102
}
330
C25
100
AcDbVisualStyle
  2
ColorChange
 70
    16
 71
     2
 72
     2
 73
     3
 90
        0
 40
-0.6
 41
-30.0
 62
     5
 63
     8
 74
     1
 91
        4
 64
     7
 65
   257
 75
     1
175
     1
 42
1.0
 92
        8
 66
     8
 43
1.0
 76
     1
 77
     6
 78
     2
 67
     7
 79
     5
170
     0
171
     0
290
     0
174
     0
 93
        1
 44
0.0
173
     0
291
     1
 45
0.0
1001
ACAD
1000
AcDbSavedByObjectVersion
1070
     0
  0
VISUALSTYLE
  5
C2E
102
{ACAD_XDICTIONARY
360
D69
102
}
102
{ACAD_REACTORS
330
C25
102
}
330
C25
100
AcDbVisualStyle
  2
Conceptual
 70
     9
 71
     3
 72
     2
 73
     0
 90
        0
 40
-0.6
 41
-30.0
 62
     5
 63
     7
 74
     2
 91
        2
 64
     7
 65
   257
 75
     1
175
     1
 42
179.0
 92
        8
 66
     7
 43
1.0
 76
     1
 77
     6
 78
     2
 67
     7
 79
     3
170
     0
171
     0
290
     0
174
     0
 93
        1
 44
0.0
173
     0
291
     0
 45
0.0
1001
ACAD
1000
AcDbSavedByObjectVersion
1070
     0
  0
VISUALSTYLE
  5
C30
102
{ACAD_XDICTIONARY
360
D6D
102
}
102
{ACAD_REACTORS
330
C25
102
}
330
C25
100
AcDbVisualStyle
  2
Dim
 70
    11
 71
     2
 72
     2
 73
     0
 90
        0
 40
-0.6
 41
-30.0
 62
     5
 63
     7
 74
     1
 91
        4
 64
     7
 65
   257
 75
     1
175
     1
 42
1.0
 92
        8
 66
     7
 43
1.0
 76
     1
 77
     6
 78
     2
 67
     7
 79
     5
170
     0
171
     0
290
     0
174
     0
 93
        1
 44
-50.0
173
     0
291
     1
 45
0.0
1001
ACAD
1000
AcDbSavedByObjectVersion
1070
     0
  0
VISUALSTYLE
  5
C3D
102
{ACAD_XDICTIONARY
360
D87
102
}
102
{ACAD_REACTORS
330
C25
102
}
330
C25
100
AcDbVisualStyle
  2
EdgeColorOff
 70
    22
 71
     2
 72
     2
 73
     0
 90
        0
 40
-0.6
 41
-30.0
 62
     5
 63
     7
 74
     1
 91
        4
 64
     7
 65
   257
 75
     1
175
     1
 42
1.0
 92
        8
 66
     7
 43
1.0
 76
     1
 77
     6
 78
     2
 67
     7
 79
     5
170
     0
171
     0
290
     0
174
     0
 93
        1
 44
0.0
173
     0
291
     1
 45
0.0
1001
ACAD
1000
AcDbSavedByObjectVersion
1070
     0
  0
VISUALSTYLE
  5
C34
102
{ACAD_XDICTIONARY
360
D75
102
}
102
{ACAD_REACTORS
330
C25
102
}
330
C25
100
AcDbVisualStyle
  2
Facepattern
 70
    15
 71
     2
 72
     2
 73
     0
 90
        0
 40
-0.6
 41
-30.0
 62
     5
 63
     7
 74
     1
 91
        4
 64
     7
 65
   257
 75
     1
175
     1
 42
1.0
 92
        8
 66
     7
 43
1.0
 76
     1
 77
     6
 78
     2
 67
     7
 79
     5
170
     0
171
     0
290
     0
174
     0
 93
        1
 44
0.0
173
     0
291
     1
 45
0.0
1001
ACAD
1000
AcDbSavedByObjectVersion
1070
     0
  0
VISUALSTYLE
  5
C26
102
{ACAD_XDICTIONARY
360
D59
102
}
102
{ACAD_REACTORS
330
C25
102
}
330
C25
100
AcDbVisualStyle
  2
Flat
 70
     0
 71
     2
 72
     1
 73
     1
 90
        2
 40
-0.6
 41
30.0
 62
     5
 63
     7
 74
     0
 91
        0
 64
     7
 65
   257
 75
     1
175
     1
 42
1.0
 92
        8
 66
     7
 43
1.0
 76
     1
 77
     6
 78
     2
 67
     7
 79
     5
170
     0
171
     0
290
     0
174
     0
 93
       13
 44
0.0
173
     0
291
     1
 45
0.0
1001
ACAD
1000
AcDbSavedByObjectVersion
1070
     0
  0
VISUALSTYLE
  5
C27
102
{ACAD_XDICTIONARY
360
D5B
102
}
102
{ACAD_REACTORS
330
C25
102
}
330
C25
100
AcDbVisualStyle
  2
FlatWithEdges
 70
     1
 71
     2
 72
     1
 73
     1
 90
        2
 40
-0.6
 41
30.0
 62
     5
 63
     7
 74
     1
 91
        0
 64
     7
 65
   257
 75
     1
175
     1
 42
1.0
 92
        0
 66
   257
 43
1.0
 76
     1
 77
     6
 78
     2
 67
     7
 79
     5
170
     0
171
     0
290
     0
174
     0
 93
       13
 44
0.0
173
     0
291
     1
 45
0.0
1001
ACAD
1000
AcDbSavedByObjectVersion
1070
     0
  0
VISUALSTYLE
  5
C28
102
{ACAD_XDICTIONARY
360
D5D
102
}
102
{ACAD_REACTORS
330
C25
102
}
330
C25
100
AcDbVisualStyle
  2
Gouraud
 70
     2
 71
     2
 72
     2
 73
     1
 90
        2
 40
-0.6
 41
30.0
 62
     5
 63
     7
 74
     0
 91
        0
 64
     7
 65
   257
 75
     1
175
     1
 42
1.0
 92
        0
 66
     7
 43
1.0
 76
     1
 77
     6
 78
     2
 67
     7
 79
     5
170
     0
171
     0
290
     0
174
     0
 93
       13
 44
0.0
173
     0
291
     1
 45
0.0
1001
ACAD
1000
AcDbSavedByObjectVersion
1070
     0
  0
VISUALSTYLE
  5
C29
102
{ACAD_XDICTIONARY
360
D5F
102
}
102
{ACAD_REACTORS
330
C25
102
}
330
C25
100
AcDbVisualStyle
  2
GouraudWithEdges
 70
     3
 71
     2
 72
     2
 73
     1
 90
        2
 40
-0.6
 41
30.0
 62
     5
 63
     7
 74
     1
 91
        0
 64
     7
 65
   257
 75
     1
175
     1
 42
1.0
 92
        0
 66
   257
 43
1.0
 76
     1
 77
     6
 78
     2
 67
     7
 79
     5
170
     0
171
     0
290
     0
174
     0
 93
       13
 44
0.0
173
     0
291
     1
 45
0.0
1001
ACAD
1000
AcDbSavedByObjectVersion
1070
     0
  0
VISUALSTYLE
  5
C2D
102
{ACAD_XDICTIONARY
360
D67
102
}
102
{ACAD_REACTORS
330
C25
102
}
330
C25
100
AcDbVisualStyle
  2
Hidden
 70
     6
 71
     1
 72
     2
 73
     2
 90
        0
 40
-0.6
 41
-30.0
 62
     5
 63
     7
 74
     2
 91
        2
 64
     7
 65
   257
 75
     2
175
     1
 42
40.0
 92
        0
 66
   257
 43
1.0
 76
     1
 77
     6
 78
     2
 67
     7
 79
     3
170
     0
171
     0
290
     0
174
     0
 93
        1
 44
0.0
173
     0
291
     0
 45
0.0
1001
ACAD
1000
AcDbSavedByObjectVersion
1070
     0
  0
VISUALSTYLE
  5
C3B
102
{ACAD_XDICTIONARY
360
D83
102
}
102
{ACAD_REACTORS
330
C25
102
}
330
C25
100
AcDbVisualStyle
  2
JitterOff
 70
    20
 71
     2
 72
     2
 73
     0
 90
        0
 40
-0.6
 41
-30.0
 62
     5
 63
     7
 74
     1
 91
        4
 64
     7
 65
   257
 75
     1
175
     1
 42
1.0
 92
       10
 66
     7
 43
1.0
 76
     1
 77
     6
 78
     2
 67
     7
 79
     5
170
     0
171
     0
290
     0
174
     0
 93
        1
 44
0.0
173
     0
291
     1
 45
0.0
1001
ACAD
1000
AcDbSavedByObjectVersion
1070
     0
  0
VISUALSTYLE
  5
C33
102
{ACAD_XDICTIONARY
360
D73
102
}
102
{ACAD_REACTORS
330
C25
102
}
330
C25
100
AcDbVisualStyle
  2
Linepattern
 70
    14
 71
     2
 72
     2
 73
     0
 90
        0
 40
-0.6
 41
-30.0
 62
     5
 63
     7
 74
     1
 91
        4
 64
     7
 65
   257
 75
     7
175
     7
 42
1.0
 92
        8
 66
     7
 43
1.0
 76
     1
 77
     6
 78
     2
 67
     7
 79
     5
170
     0
171
     0
290
     0
174
     0
 93
        1
 44
0.0
173
     0
291
     1
 45
0.0
1001
ACAD
1000
AcDbSavedByObjectVersion
1070
     0
  0
VISUALSTYLE
  5
C3C
102
{ACAD_XDICTIONARY
360
D85
102
}
102
{ACAD_REACTORS
330
C25
102
}
330
C25
100
AcDbVisualStyle
  2
OverhangOff
 70
    21
 71
     2
 72
     2
 73
     0
 90
        0
 40
-0.6
 41
-30.0
 62
     5
 63
     7
 74
     1
 91
        4
 64
     7
 65
   257
 75
     1
175
     1
 42
1.0
 92
        9
 66
     7
 43
1.0
 76
     1
 77
     6
 78
     2
 67
     7
 79
     5
170
     0
171
     0
290
     0
174
     0
 93
        1
 44
0.0
173
     0
291
     1
 45
0.0
1001
ACAD
1000
AcDbSavedByObjectVersion
1070
     0
  0
VISUALSTYLE
  5
C2F
102
{ACAD_XDICTIONARY
360
D6B
102
}
102
{ACAD_REACTORS
330
C25
102
}
330
C25
100
AcDbVisualStyle
  2
Realistic
 70
     8
 71
     2
 72
     3
 73
     0
 90
        2
 40
-0.6
 41
30.0
 62
     5
 63
     7
 74
     0
 91
        0
 64
     7
 65
   257
 75
     1
175
     1
 42
1.0
 92
        8
 66
   257
 43
1.0
 76
     1
 77
     6
 78
     2
 67
     7
 79
     3
170
     0
171
     0
290
     0
174
     0
 93
       13
 44
0.0
173
     0
291
     0
 45
0.0
1001
ACAD
1000
AcDbSavedByObjectVersion
1070
     0
  0
VISUALSTYLE
  5
C3A
102
{ACAD_XDICTIONARY
360
D81
102
}
102
{ACAD_REACTORS
330
C25
102
}
330
C25
100
AcDbVisualStyle
  2
Shaded
 70
    27
 71
     2
 72
     2
 73
     1
 90
        2
 40
-0.6
 41
30.0
 62
     5
 63
     7
 74
     0
 91
        4
 64
     7
 65
   257
 75
     1
175
     1
 42
1.0
 92
        8
 66
   257
 43
1.0
 76
     1
 77
     6
 78
     2
 67
     8
 79
     3
170
     0
171
     0
290
     0
174
     0
 93
        5
 44
0.0
173
     0
291
     0
 45
0.0
1001
ACAD
1000
AcDbSavedByObjectVersion
1070
     0
  0
VISUALSTYLE
  5
C39
102
{ACAD_XDICTIONARY
360
D7F
102
}
102
{ACAD_REACTORS
330
C25
102
}
330
C25
100
AcDbVisualStyle
  2
Shaded with edges
 70
    26
 71
     2
 72
     2
 73
     1
 90
        2
 40
-0.6
 41
30.0
 62
     5
 63
     7
 74
     1
 91
       10
 64
     7
 65
   257
 75
     2
175
     1
 42
1.0
 92
        8
 66
   257
 43
1.0
 76
     1
 77
     6
 78
     2
 67
     7
 79
     3
170
     0
171
     0
290
     0
174
     0
 93
        5
 44
0.0
173
     0
291
     0
 45
0.0
1001
ACAD
1000
AcDbSavedByObjectVersion
1070
     0
  0
VISUALSTYLE
  5
C36
102
{ACAD_XDICTIONARY
360
D79
102
}
102
{ACAD_REACTORS
330
C25
102
}
330
C25
100
AcDbVisualStyle
  2
Shades of Gray
 70
    23
 71
     2
 72
     2
 73
     3
 90
        0
 40
-0.6
 41
-30.0
 62
     5
 63
     7
 74
     2
 91
        2
 64
     7
 65
     7
 75
     1
175
     1
 42
40.0
 92
        8
 66
     7
 43
1.0
 76
     1
 77
     6
 78
     2
 67
     7
 79
     3
170
     0
171
     0
290
     0
174
     0
 93
        1
 44
0.0
173
     0
291
     0
 45
0.0
1001
ACAD
1000
AcDbSavedByObjectVersion
1070
     0
  0
VISUALSTYLE
  5
C37
102
{ACAD_XDICTIONARY
360
D7B
102
}
102
{ACAD_REACTORS
330
C25
102
}
330
C25
100
AcDbVisualStyle
  2
Sketchy
 70
    24
 71
     1
 72
     2
 73
     2
 90
        0
 40
-0.6
 41
-30.0
 62
     5
 63
     7
 74
     2
 91
        2
 64
     7
 65
     7
 75
     1
175
     1
 42
40.0
 92
       11
 66
     7
 43
1.0
 76
     1
 77
     6
 78
     2
 67
     7
 79
     6
170
     0
171
     0
290
     0
174
     0
 93
        1
 44
0.0
173
     0
291
     0
 45
0.0
1001
ACAD
1000
AcDbSavedByObjectVersion
1070
     0
  0
VISUALSTYLE
  5
C32
102
{ACAD_XDICTIONARY
360
D71
102
}
102
{ACAD_REACTORS
330
C25
102
}
330
C25
100
AcDbVisualStyle
  2
Thicken
 70
    13
 71
     2
 72
     2
 73
     0
 90
        0
 40
-0.6
 41
-30.0
 62
     5
 63
     7
 74
     1
 91
        4
 64
     7
 65
   257
 75
     1
175
     1
 42
1.0
 92
       12
 66
     7
 43
1.0
 76
     1
 77
     6
 78
     2
 67
     7
 79
     5
170
     0
171
     0
290
     0
174
     0
 93
        1
 44
0.0
173
     0
291
     1
 45
0.0
1001
ACAD
1000
AcDbSavedByObjectVersion
1070
     0
  0
VISUALSTYLE
  5
C2C
102
{ACAD_XDICTIONARY
360
D65
102
}
102
{ACAD_REACTORS
330
C25
102
}
330
C25
100
AcDbVisualStyle
  2
Wireframe
 70
     5
 71
     0
 72
     2
 73
     0
 90
        0
 40
-0.6
 41
-30.0
 62
     5
 63
     7
 74
     1
 91
        4
 64
     7
 65
   257
 75
     1
175
     1
 42
1.0
 92
        0
 66
   257
 43
1.0
 76
     1
 77
     6
 78
     2
 67
     7
 79
     3
170
     0
171
     0
290
     0
174
     0
 93
        1
 44
0.0
173
     0
291
     0
 45
0.0
1001
ACAD
1000
AcDbSavedByObjectVersion
1070
     0
  0
VISUALSTYLE
  5
C38
102
{ACAD_XDICTIONARY
360
D7D
102
}
102
{ACAD_REACTORS
330
C25
102
}
330
C25
100
AcDbVisualStyle
  2
X-Ray
 70
    25
 71
     2
 72
     2
 73
     1
 90
        1
 40
0.5
 41
-30.0
 62
     5
 63
     7
 74
     1
 91
        0
 64
     7
 65
   257
 75
     1
175
     1
 42
1.0
 92
        8
 66
     7
 43
1.0
 76
     1
 77
     6
 78
     2
 67
     7
 79
     3
170
     0
171
     0
290
     0
174
     0
 93
       13
 44
0.0
173
     0
291
     0
 45
0.0
1001
ACAD
1000
AcDbSavedByObjectVersion
1070
     0
  0
DICTIONARYVAR
  5
CD5
102
{ACAD_REACTORS
330
39
102
}
330
39
100
DictionaryVariables
280
     0
  1
1:1
  0
DICTIONARYVAR
  5
CD1
102
{ACAD_REACTORS
330
39
102
}
330
39
100
DictionaryVariables
280
     0
  1
STANDARD
  0
DICTIONARYVAR
  5
CD0
102
{ACAD_REACTORS
330
39
102
}
330
39
100
DictionaryVariables
280
     0
  1
STANDARD
  0
DICTIONARYVAR
  5
CD2
102
{ACAD_REACTORS
330
39
102
}
330
39
100
DictionaryVariables
280
     0
  1
Imperial24
  0
DICTIONARYVAR
  5
CD3
102
{ACAD_REACTORS
330
39
102
}
330
39
100
DictionaryVariables
280
     0
  1
Imperial24
  0
DICTIONARYVAR
  5
3A
102
{ACAD_REACTORS
330
39
102
}
330
39
100
DictionaryVariables
280
     0
  1
0
  0
DICTIONARYVAR
  5
BE6
102
{ACAD_REACTORS
330
39
102
}
330
39
100
DictionaryVariables
280
     0
  1
1
  0
DICTIONARYVAR
  5
D42
102
{ACAD_REACTORS
330
39
102
}
330
39
100
DictionaryVariables
280
     0
  1
0
  0
DICTIONARYVAR
  5
CD7
102
{ACAD_REACTORS
330
39
102
}
330
39
100
DictionaryVariables
280
     0
  1
1
  0
DICTIONARYVAR
  5
CD8
102
{ACAD_REACTORS
330
39
102
}
330
39
100
DictionaryVariables
280
     0
  1
15
  0
DICTIONARYVAR
  5
CD6
102
{ACAD_REACTORS
330
39
102
}
330
39
100
DictionaryVariables
280
     0
  1
0
  0
DICTIONARYVAR
  5
D43
102
{ACAD_REACTORS
330
39
102
}
330
39
100
DictionaryVariables
280
     0
  1
1.570796
  0
DICTIONARYVAR
  5
D44
102
{ACAD_REACTORS
330
39
102
}
330
39
100
DictionaryVariables
280
     0
  1
1.570796
  0
DICTIONARYVAR
  5
D45
102
{ACAD_REACTORS
330
39
102
}
330
39
100
DictionaryVariables
280
     0
  1
-122.394000
  0
DICTIONARYVAR
  5
CD4
102
{ACAD_REACTORS
330
39
102
}
330
39
100
DictionaryVariables
280
     0
  1
0
  0
DICTIONARYVAR
  5
D41
102
{ACAD_REACTORS
330
39
102
}
330
39
100
DictionaryVariables
280
     0
  1
127
  0
DICTIONARYVAR
  5
D46
102
{ACAD_REACTORS
330
39
102
}
330
39
100
DictionaryVariables
280
     0
  1
2
  0
DICTIONARY
  5
D51
102
{ACAD_REACTORS
330
D4F
102
}
330
D4F
100
AcDbDictionary
281
     1
  0
DICTIONARY
  5
D50
102
{ACAD_REACTORS
330
D4F
102
}
330
D4F
100
AcDbDictionary
281
     1
  3
8796088048160
350
D4A
  3
8796088048176
350
D4B
  3
8796088048192
350
D4C
  3
8796088048208
350
D4D
  3
8796088048224
350
D4E
  0
DICTIONARY
  5
CDD
330
C58
100
AcDbDictionary
280
     1
281
     1
  3
ACAD_XREC_ROUNDTRIP
360
D8E
  0
DICTIONARY
  5
D54
330
BDB
100
AcDbDictionary
280
     1
281
     1
  3
ACAD_XREC_ROUNDTRIP
360
D55
  0
DICTIONARY
  5
D52
330
BDA
100
AcDbDictionary
280
     1
281
     1
  3
ACAD_XREC_ROUNDTRIP
360
D53
  0
DICTIONARY
  5
C16
330
C15
100
AcDbDictionary
280
     1
281
     1
  3
ACAD_XREC_ROUNDTRIP
360
D57
  3
BUMPTILE
360
C18
  3
DIFFUSETILE
360
C17
  3
OPACITYTILE
360
C1B
  3
REFLECTIONTILE
360
C1A
  3
REFRACTIONTILE
360
C1C
  3
SPECULARTILE
360
C19
  0
DICTIONARY
  5
C0E
330
C0D
100
AcDbDictionary
280
     1
281
     1
  3
ACAD_XREC_ROUNDTRIP
360
D56
  3
BUMPTILE
360
C10
  3
DIFFUSETILE
360
C0F
  3
OPACITYTILE
360
C13
  3
REFLECTIONTILE
360
C12
  3
REFRACTIONTILE
360
C14
  3
SPECULARTILE
360
C11
  0
DICTIONARY
  5
C1E
330
C1D
100
AcDbDictionary
280
     1
281
     1
  3
ACAD_XREC_ROUNDTRIP
360
D58
  3
BUMPTILE
360
C20
  3
DIFFUSETILE
360
C1F
  3
OPACITYTILE
360
C23
  3
REFLECTIONTILE
360
C22
  3
REFRACTIONTILE
360
C24
  3
SPECULARTILE
360
C21
  0
DICTIONARY
  5
D8B
330
C54
100
AcDbDictionary
280
     1
281
     1
  3
ACAD_XREC_ROUNDTRIP
360
D8C
  0
DICTIONARY
  5
CDB
330
C56
100
AcDbDictionary
280
     1
281
     1
  3
ACAD_XREC_ROUNDTRIP
360
D8D
  0
DICTIONARY
  5
CD9
330
C40
100
AcDbDictionary
280
     1
281
     1
  3
ACAD_ROUNDTRIP_2008_TABLESTYLE_CELLSTYLEMAP
360
D47
  3
ACAD_XREC_ROUNDTRIP
360
D89
  0
DICTIONARY
  5
D63
330
C2B
100
AcDbDictionary
280
     1
281
     1
  3
ACAD_XREC_ROUNDTRIP
360
D64
  0
DICTIONARY
  5
D61
330
C2A
100
AcDbDictionary
280
     1
281
     1
  3
ACAD_XREC_ROUNDTRIP
360
D62
  0
DICTIONARY
  5
D6F
330
C31
100
AcDbDictionary
280
     1
281
     1
  3
ACAD_XREC_ROUNDTRIP
360
D70
  0
DICTIONARY
  5
D77
330
C35
100
AcDbDictionary
280
     1
281
     1
  3
ACAD_XREC_ROUNDTRIP
360
D78
  0
DICTIONARY
  5
D69
330
C2E
100
AcDbDictionary
280
     1
281
     1
  3
ACAD_XREC_ROUNDTRIP
360
D6A
  0
DICTIONARY
  5
D6D
330
C30
100
AcDbDictionary
280
     1
281
     1
  3
ACAD_XREC_ROUNDTRIP
360
D6E
  0
DICTIONARY
  5
D87
330
C3D
100
AcDbDictionary
280
     1
281
     1
  3
ACAD_XREC_ROUNDTRIP
360
D88
  0
DICTIONARY
  5
D75
330
C34
100
AcDbDictionary
280
     1
281
     1
  3
ACAD_XREC_ROUNDTRIP
360
D76
  0
DICTIONARY
  5
D59
330
C26
100
AcDbDictionary
280
     1
281
     1
  3
ACAD_XREC_ROUNDTRIP
360
D5A
  0
DICTIONARY
  5
D5B
330
C27
100
AcDbDictionary
280
     1
281
     1
  3
ACAD_XREC_ROUNDTRIP
360
D5C
  0
DICTIONARY
  5
D5D
330
C28
100
AcDbDictionary
280
     1
281
     1
  3
ACAD_XREC_ROUNDTRIP
360
D5E
  0
DICTIONARY
  5
D5F
330
C29
100
AcDbDictionary
280
     1
281
     1
  3
ACAD_XREC_ROUNDTRIP
360
D60
  0
DICTIONARY
  5
D67
330
C2D
100
AcDbDictionary
280
     1
281
     1
  3
ACAD_XREC_ROUNDTRIP
360
D68
  0
DICTIONARY
  5
D83
330
C3B
100
AcDbDictionary
280
     1
281
     1
  3
ACAD_XREC_ROUNDTRIP
360
D84
  0
DICTIONARY
  5
D73
330
C33
100
AcDbDictionary
280
     1
281
     1
  3
ACAD_XREC_ROUNDTRIP
360
D74
  0
DICTIONARY
  5
D85
330
C3C
100
AcDbDictionary
280
     1
281
     1
  3
ACAD_XREC_ROUNDTRIP
360
D86
  0
DICTIONARY
  5
D6B
330
C2F
100
AcDbDictionary
280
     1
281
     1
  3
ACAD_XREC_ROUNDTRIP
360
D6C
  0
DICTIONARY
  5
D81
330
C3A
100
AcDbDictionary
280
     1
281
     1
  3
ACAD_XREC_ROUNDTRIP
360
D82
  0
DICTIONARY
  5
D7F
330
C39
100
AcDbDictionary
280
     1
281
     1
  3
ACAD_XREC_ROUNDTRIP
360
D80
  0
DICTIONARY
  5
D79
330
C36
100
AcDbDictionary
280
     1
281
     1
  3
ACAD_XREC_ROUNDTRIP
360
D7A
  0
DICTIONARY
  5
D7B
330
C37
100
AcDbDictionary
280
     1
281
     1
  3
ACAD_XREC_ROUNDTRIP
360
D7C
  0
DICTIONARY
  5
D71
330
C32
100
AcDbDictionary
280
     1
281
     1
  3
ACAD_XREC_ROUNDTRIP
360
D72
  0
DICTIONARY
  5
D65
330
C2C
100
AcDbDictionary
280
     1
281
     1
  3
ACAD_XREC_ROUNDTRIP
360
D66
  0
DICTIONARY
  5
D7D
330
C38
100
AcDbDictionary
280
     1
281
     1
  3
ACAD_XREC_ROUNDTRIP
360
D7E
  0
XRECORD
  5
D4A
102
{ACAD_REACTORS
330
D50
102
}
330
D50
100
AcDbXrecord
280
     1
  1
AcDb_Thumbnail_Schema
102
{ATTRRECORD
341
D4B
  2
AcDbDs::TreatedAsObjectData
280
     1
291
     1
102
ATTRRECORD}
102
{ATTRRECORD
341
D4C
  2
AcDbDs::Legacy
280
     1
291
     1
102
ATTRRECORD}
  2
AcDbDs::ID
280
    10
 91
        8
102
{ATTRRECORD
341
D4D
  2
AcDs:Indexable
280
     1
291
     1
102
ATTRRECORD}
102
{ATTRRECORD
341
D4E
  2
AcDbDs::HandleAttribute
280
     7
282
     1
102
ATTRRECORD}
  2
Thumbnail_Data
280
    15
 91
        0
  0
XRECORD
  5
D4B
102
{ACAD_REACTORS
330
D50
102
}
330
D50
100
AcDbXrecord
280
     1
  1
AcDbDs::TreatedAsObjectDataSchema
  2
AcDbDs::TreatedAsObjectData
280
     1
 91
        0
  0
XRECORD
  5
D4C
102
{ACAD_REACTORS
330
D50
102
}
330
D50
100
AcDbXrecord
280
     1
  1
AcDbDs::LegacySchema
  2
AcDbDs::Legacy
280
     1
 91
        0
  0
XRECORD
  5
D4D
102
{ACAD_REACTORS
330
D50
102
}
330
D50
100
AcDbXrecord
280
     1
  1
AcDbDs::IndexedPropertySchema
  2
AcDs:Indexable
280
     1
 91
        0
  0
XRECORD
  5
D4E
102
{ACAD_REACTORS
330
D50
102
}
330
D50
100
AcDbXrecord
280
     1
  1
AcDbDs::HandleAttributeSchema
  2
AcDbDs::HandleAttribute
280
     7
 91
        1
284
     1
  0
XRECORD
  5
D8E
102
{ACAD_REACTORS
330
CDD
102
}
330
CDD
100
AcDbXrecord
280
     1
102
DISPLAYNAME
  1
Imperial24
102
FLAGS
 90
        0
  0
XRECORD
  5
D55
102
{ACAD_REACTORS
330
D54
102
}
330
D54
100
AcDbXrecord
280
     1
102
SHADEPLOT
 70
     0
102
SHADEPLOTRESLEVEL
 70
     2
102
SHADEPLOTCUSTOMDPI
 70
   300
  0
XRECORD
  5
D53
102
{ACAD_REACTORS
330
D52
102
}
330
D52
100
AcDbXrecord
280
     1
102
SHADEPLOT
 70
     0
102
SHADEPLOTRESLEVEL
 70
     2
102
SHADEPLOTCUSTOMDPI
 70
   300
  0
XRECORD
  5
D57
102
{ACAD_REACTORS
330
C16
102
}
330
C16
100
AcDbXrecord
280
     1
102
MATERIAL
148
0.0
149
0.0
149
0.0
 93
        0
 94
      127
282
     0
 72
     0
 77
     0
171
     0
175
     0
179
     0
273
     0
  0
XRECORD
  5
C18
102
{ACAD_REACTORS
330
C16
102
}
330
C16
100
AcDbXrecord
280
     1
270
     1
271
     1
  0
XRECORD
  5
C17
102
{ACAD_REACTORS
330
C16
102
}
330
C16
100
AcDbXrecord
280
     1
270
     1
271
     1
  0
XRECORD
  5
C1B
102
{ACAD_REACTORS
330
C16
102
}
330
C16
100
AcDbXrecord
280
     1
270
     1
271
     1
  0
XRECORD
  5
C1A
102
{ACAD_REACTORS
330
C16
102
}
330
C16
100
AcDbXrecord
280
     1
270
     1
271
     1
  0
XRECORD
  5
C1C
102
{ACAD_REACTORS
330
C16
102
}
330
C16
100
AcDbXrecord
280
     1
270
     1
271
     1
  0
XRECORD
  5
C19
102
{ACAD_REACTORS
330
C16
102
}
330
C16
100
AcDbXrecord
280
     1
270
     1
271
     1
  0
XRECORD
  5
D56
102
{ACAD_REACTORS
330
C0E
102
}
330
C0E
100
AcDbXrecord
280
     1
102
MATERIAL
148
0.0
149
0.0
149
0.0
 93
        0
 94
      127
282
     0
 72
     0
 77
     0
171
     0
175
     0
179
     0
273
     0
  0
XRECORD
  5
C10
102
{ACAD_REACTORS
330
C0E
102
}
330
C0E
100
AcDbXrecord
280
     1
270
     1
271
     1
  0
XRECORD
  5
C0F
102
{ACAD_REACTORS
330
C0E
102
}
330
C0E
100
AcDbXrecord
280
     1
270
     1
271
     1
  0
XRECORD
  5
C13
102
{ACAD_REACTORS
330
C0E
102
}
330
C0E
100
AcDbXrecord
280
     1
270
     1
271
     1
  0
XRECORD
  5
C12
102
{ACAD_REACTORS
330
C0E
102
}
330
C0E
100
AcDbXrecord
280
     1
270
     1
271
     1
  0
XRECORD
  5
C14
102
{ACAD_REACTORS
330
C0E
102
}
330
C0E
100
AcDbXrecord
280
     1
270
     1
271
     1
  0
XRECORD
  5
C11
102
{ACAD_REACTORS
330
C0E
102
}
330
C0E
100
AcDbXrecord
280
     1
270
     1
271
     1
  0
XRECORD
  5
D58
102
{ACAD_REACTORS
330
C1E
102
}
330
C1E
100
AcDbXrecord
280
     1
102
MATERIAL
148
0.0
149
0.0
149
0.0
 93
        0
 94
      127
282
     0
 72
     0
 77
     0
171
     0
175
     0
179
     0
273
     0
  0
XRECORD
  5
C20
102
{ACAD_REACTORS
330
C1E
102
}
330
C1E
100
AcDbXrecord
280
     1
270
     1
271
     1
  0
XRECORD
  5
C1F
102
{ACAD_REACTORS
330
C1E
102
}
330
C1E
100
AcDbXrecord
280
     1
270
     1
271
     1
  0
XRECORD
  5
C23
102
{ACAD_REACTORS
330
C1E
102
}
330
C1E
100
AcDbXrecord
280
     1
270
     1
271
     1
  0
XRECORD
  5
C22
102
{ACAD_REACTORS
330
C1E
102
}
330
C1E
100
AcDbXrecord
280
     1
270
     1
271
     1
  0
XRECORD
  5
C24
102
{ACAD_REACTORS
330
C1E
102
}
330
C1E
100
AcDbXrecord
280
     1
270
     1
271
     1
  0
XRECORD
  5
C21
102
{ACAD_REACTORS
330
C1E
102
}
330
C1E
100
AcDbXrecord
280
     1
270
     1
271
     1
  0
XRECORD
  5
D8C
102
{ACAD_REACTORS
330
D8B
102
}
330
D8B
100
AcDbXrecord
280
     1
102
ACAD_ROUNDTRIP_2012_MLEADER_STYLE
298
     1
  0
XRECORD
  5
D8D
102
{ACAD_REACTORS
330
CDB
102
}
330
CDB
100
AcDbXrecord
280
     1
102
DISPLAYNAME
  1
Imperial24
102
FLAGS
 90
        0
  0
CELLSTYLEMAP
  5
D47
102
{ACAD_REACTORS
330
CD9
102
}
330
CD9
100
AcDbCellStyleMap
 90
        3
300
CELLSTYLE
  1
TABLEFORMAT_BEGIN
 90
        5
170
     1
 91
        0
 92
    32768
 62
   257
 93
        1
300
CONTENTFORMAT
  1
CONTENTFORMAT_BEGIN
 90
        0
 91
        0
 92
      512
 93
        0
300

 40
0.0
140
1.0
 94
        5
 62
     0
340
F
144
0.25
309
CONTENTFORMAT_END
171
     1
301
MARGIN
  1
CELLMARGIN_BEGIN
 40
0.06
 40
0.06
 40
0.06
 40
0.06
 40
0.18
 40
0.18
309
CELLMARGIN_END
 94
        6
 95
        1
302
GRIDFORMAT
  1
GRIDFORMAT_BEGIN
 90
        0
 91
        1
 62
     0
 92
       -2
340
0
 93
        0
 40
0.045
309
GRIDFORMAT_END
 95
        2
302
GRIDFORMAT
  1
GRIDFORMAT_BEGIN
 90
        0
 91
        1
 62
     0
 92
       -2
340
0
 93
        0
 40
0.045
309
GRIDFORMAT_END
 95
        4
302
GRIDFORMAT
  1
GRIDFORMAT_BEGIN
 90
        0
 91
        1
 62
     0
 92
       -2
340
0
 93
        0
 40
0.045
309
GRIDFORMAT_END
 95
        8
302
GRIDFORMAT
  1
GRIDFORMAT_BEGIN
 90
        0
 91
        1
 62
     0
 92
       -2
340
0
 93
        0
 40
0.045
309
GRIDFORMAT_END
 95
       16
302
GRIDFORMAT
  1
GRIDFORMAT_BEGIN
 90
        0
 91
        1
 62
     0
 92
       -2
340
0
 93
        0
 40
0.045
309
GRIDFORMAT_END
 95
       32
302
GRIDFORMAT
  1
GRIDFORMAT_BEGIN
 90
        0
 91
        1
 62
     0
 92
       -2
340
0
 93
        0
 40
0.045
309
GRIDFORMAT_END
309
TABLEFORMAT_END
  1
CELLSTYLE_BEGIN
 90
        1
 91
        1
300
_TITLE
309
CELLSTYLE_END
300
CELLSTYLE
  1
TABLEFORMAT_BEGIN
 90
        5
170
     1
 91
        0
 92
        0
 62
   257
 93
        1
300
CONTENTFORMAT
  1
CONTENTFORMAT_BEGIN
 90
        0
 91
        0
 92
      512
 93
        0
300

 40
0.0
140
1.0
 94
        5
 62
     0
340
F
144
0.18
309
CONTENTFORMAT_END
171
     1
301
MARGIN
  1
CELLMARGIN_BEGIN
 40
0.06
 40
0.06
 40
0.06
 40
0.06
 40
0.18
 40
0.18
309
CELLMARGIN_END
 94
        6
 95
        1
302
GRIDFORMAT
  1
GRIDFORMAT_BEGIN
 90
        0
 91
        1
 62
     0
 92
       -2
340
0
 93
        0
 40
0.045
309
GRIDFORMAT_END
 95
        2
302
GRIDFORMAT
  1
GRIDFORMAT_BEGIN
 90
        0
 91
        1
 62
     0
 92
       -2
340
0
 93
        0
 40
0.045
309
GRIDFORMAT_END
 95
        4
302
GRIDFORMAT
  1
GRIDFORMAT_BEGIN
 90
        0
 91
        1
 62
     0
 92
       -2
340
0
 93
        0
 40
0.045
309
GRIDFORMAT_END
 95
        8
302
GRIDFORMAT
  1
GRIDFORMAT_BEGIN
 90
        0
 91
        1
 62
     0
 92
       -2
340
0
 93
        0
 40
0.045
309
GRIDFORMAT_END
 95
       16
302
GRIDFORMAT
  1
GRIDFORMAT_BEGIN
 90
        0
 91
        1
 62
     0
 92
       -2
340
0
 93
        0
 40
0.045
309
GRIDFORMAT_END
 95
       32
302
GRIDFORMAT
  1
GRIDFORMAT_BEGIN
 90
        0
 91
        1
 62
     0
 92
       -2
340
0
 93
        0
 40
0.045
309
GRIDFORMAT_END
309
TABLEFORMAT_END
  1
CELLSTYLE_BEGIN
 90
        2
 91
        1
300
_HEADER
309
CELLSTYLE_END
300
CELLSTYLE
  1
TABLEFORMAT_BEGIN
 90
        5
170
     1
 91
        0
 92
        0
 62
   257
 93
        1
300
CONTENTFORMAT
  1
CONTENTFORMAT_BEGIN
 90
        0
 91
        0
 92
      512
 93
        0
300

 40
0.0
140
1.0
 94
        2
 62
     0
340
F
144
0.18
309
CONTENTFORMAT_END
171
     1
301
MARGIN
  1
CELLMARGIN_BEGIN
 40
0.06
 40
0.06
 40
0.06
 40
0.06
 40
0.18
 40
0.18
309
CELLMARGIN_END
 94
        6
 95
        1
302
GRIDFORMAT
  1
GRIDFORMAT_BEGIN
 90
        0
 91
        1
 62
     0
 92
       -2
340
0
 93
        0
 40
0.045
309
GRIDFORMAT_END
 95
        2
302
GRIDFORMAT
  1
GRIDFORMAT_BEGIN
 90
        0
 91
        1
 62
     0
 92
       -2
340
0
 93
        0
 40
0.045
309
GRIDFORMAT_END
 95
        4
302
GRIDFORMAT
  1
GRIDFORMAT_BEGIN
 90
        0
 91
        1
 62
     0
 92
       -2
340
0
 93
        0
 40
0.045
309
GRIDFORMAT_END
 95
        8
302
GRIDFORMAT
  1
GRIDFORMAT_BEGIN
 90
        0
 91
        1
 62
     0
 92
       -2
340
0
 93
        0
 40
0.045
309
GRIDFORMAT_END
 95
       16
302
GRIDFORMAT
  1
GRIDFORMAT_BEGIN
 90
        0
 91
        1
 62
     0
 92
       -2
340
0
 93
        0
 40
0.045
309
GRIDFORMAT_END
 95
       32
302
GRIDFORMAT
  1
GRIDFORMAT_BEGIN
 90
        0
 91
        1
 62
     0
 92
       -2
340
0
 93
        0
 40
0.045
309
GRIDFORMAT_END
309
TABLEFORMAT_END
  1
CELLSTYLE_BEGIN
 90
        3
 91
        2
300
_DATA
309
CELLSTYLE_END
  0
XRECORD
  5
D89
102
{ACAD_REACTORS
330
CD9
102
}
330
CD9
100
AcDbXrecord
280
     1
102
ACAD_ROUNDTRIP_PRE2007_TABLESTYLE
 90
      512
 91
        0
  1

 92
      512
 93
        0
  2

 94
      512
 95
        0
  3

  0
XRECORD
  5
D64
102
{ACAD_REACTORS
330
D63
102
}
330
D63
100
AcDbXrecord
280
     1
102
RTVSPost2010Prop28
280
     1
102
RTVSPost2010PropOp28
 70
     1
102
RTVSPost2010Prop29
280
     1
102
RTVSPost2010PropOp29
 70
     1
102
RTVSPost2010Prop30
280
     0
102
RTVSPost2010PropOp30
 70
     1
102
RTVSPost2010Prop31
280
     0
102
RTVSPost2010PropOp31
 70
     1
102
RTVSPost2010Prop32
280
     0
102
RTVSPost2010PropOp32
 70
     1
102
RTVSPost2010Prop33
280
     0
102
RTVSPost2010PropOp33
 70
     1
102
RTVSPost2010Prop34
280
     0
102
RTVSPost2010PropOp34
 70
     1
102
RTVSPost2010Prop35
280
     0
102
RTVSPost2010PropOp35
 70
     1
102
RTVSPost2010Prop36
280
     0
102
RTVSPost2010PropOp36
 70
     1
102
RTVSPost2010Prop37
 90
       50
102
RTVSPost2010PropOp37
 70
     1
102
RTVSPost2010Prop38
140
0.0
102
RTVSPost2010PropOp38
 70
     1
102
RTVSPost2010Prop39
140
1.0
102
RTVSPost2010PropOp39
 70
     1
102
RTVSPost2010Prop40
 90
        0
102
RTVSPost2010PropOp40
 70
     1
102
RTVSPost2010Prop41ColorIndex
 90
       18
102
RTVSPost2010Prop41ColorRGB
 90
-16777216
102
RTVSPost2010PropOp41
 70
     1
102
RTVSPost2010Prop42
 90
       50
102
RTVSPost2010PropOp42
 70
     1
102
RTVSPost2010Prop43
 90
        3
102
RTVSPost2010PropOp43
 70
     1
102
RTVSPost2010Prop44ColorIndex
 90
        5
102
RTVSPost2010Prop44ColorRGB
 90
      255
102
RTVSPost2010PropOp44
 70
     1
102
RTVSPost2010Prop45
280
     0
102
RTVSPost2010PropOp45
 70
     1
102
RTVSPost2010Prop46
 90
       50
102
RTVSPost2010PropOp46
 70
     1
102
RTVSPost2010Prop47
 90
       50
102
RTVSPost2010PropOp47
 70
     1
102
RTVSPost2010Prop48
 90
       50
102
RTVSPost2010PropOp48
 70
     1
102
RTVSPost2010Prop49
280
     0
102
RTVSPost2010PropOp49
 70
     1
102
RTVSPost2010Prop50
 90
       50
102
RTVSPost2010PropOp50
 70
     1
102
RTVSPost2010Prop51ColorIndex
 90
      256
102
RTVSPost2010Prop51ColorRGB
 90
-16777216
102
RTVSPost2010PropOp51
 70
     0
102
RTVSPost2010Prop52
140
1.0
102
RTVSPost2010PropOp52
 70
     0
102
RTVSPost2010Prop53
 90
        2
102
RTVSPost2010PropOp53
 70
     1
102
RTVSPost2010Prop54
  1
strokes_ogs.tif
102
RTVSPost2010PropOp54
 70
     1
102
RTVSPost2010Prop55
280
     0
102
RTVSPost2010PropOp55
 70
     1
102
RTVSPost2010Prop56
140
1.0
102
RTVSPost2010PropOp56
 70
     1
102
RTVSPost2010Prop57
140
1.0
102
RTVSPost2010PropOp57
 70
     1
102
RTVSPropertyOp0
 70
     1
102
RTVSPropertyOp1
 70
     1
102
RTVSPropertyOp2
 70
     1
102
RTVSPropertyOp3
 70
     1
102
RTVSPropertyOp4
 70
     1
102
RTVSPropertyOp5
 70
     1
102
RTVSPropertyOp6
 70
     1
102
RTVSPropertyOp7
 70
     1
102
RTVSPropertyOp8
 70
     1
102
RTVSPropertyOp9
 70
     1
102
RTVSPropertyOp10
 70
     1
102
RTVSPropertyOp11
 70
     1
102
RTVSPropertyOp12
 70
     1
102
RTVSPropertyOp13
 70
     1
102
RTVSPropertyOp14
 70
     1
102
RTVSPropertyOp15
 70
     1
102
RTVSPropertyOp16
 70
     1
102
RTVSPropertyOp17
 70
     1
102
RTVSPropertyOp18
 70
     1
102
RTVSPropertyOp19
 70
     1
102
RTVSPropertyOp20
 70
     1
102
RTVSPropertyOp21
 70
     1
102
RTVSPropertyOp22
 70
     1
102
RTVSPropertyOp23
 70
     1
102
RTVSPropertyOp24
 70
     1
102
RTVSPropertyOp25
 70
     1
102
RTVSPropertyOp26
 70
     1
102
RTVSPropertyOp27
 70
     1
102
RTVSPropertyOp28
 70
     1
102
RTVSPropertyOp29
 70
     1
102
RTVSPropertyOp30
 70
     1
102
RTVSPropertyOp31
 70
     1
102
RTVSPropertyOp32
 70
     1
102
RTVSPropertyOp33
 70
     1
102
RTVSPropertyOp34
 70
     1
102
RTVSPropertyOp35
 70
     1
102
RTVSPropertyOp36
 70
     1
102
RTVSPropertyOp37
 70
     1
102
RTVSPropertyOp38
 70
     1
102
RTVSPropertyOp39
 70
     1
102
RTVSPropertyOp40
 70
     1
102
RTVSPropertyOp41
 70
     1
102
RTVSPropertyOp42
 70
     1
102
RTVSPropertyOp43
 70
     1
102
RTVSPropertyOp44
 70
     1
102
RTVSPropertyOp45
 70
     1
102
RTVSPropertyOp46
 70
     1
102
RTVSPropertyOp47
 70
     1
102
RTVSPropertyOp48
 70
     1
102
RTVSPropertyOp49
 70
     1
102
RTVSPropertyOp50
 70
     1
102
RTVSPropertyOp51
 70
     0
102
RTVSPropertyOp52
 70
     0
102
RTVSPropertyOp53
 70
     1
102
RTVSPropertyOp54
 70
     1
102
RTVSPropertyOp55
 70
     1
102
RTVSPropertyOp56
 70
     1
102
RTVSPropertyOp57
 70
     1
102
RTVSPropertyOp58
 70
     1
102
RTVSPropertyOp59
 70
     1
102
RTVSPropertyOp60
 70
     1
102
RTVSPropertyOp61
 70
     1
102
RTVSPropertyOp62
 70
     1
  0
XRECORD
  5
D62
102
{ACAD_REACTORS
330
D61
102
}
330
D61
100
AcDbXrecord
280
     1
102
RTVSPost2010Prop28
280
     0
102
RTVSPost2010PropOp28
 70
     1
102
RTVSPost2010Prop29
280
     1
102
RTVSPost2010PropOp29
 70
     1
102
RTVSPost2010Prop30
280
     1
102
RTVSPost2010PropOp30
 70
     1
102
RTVSPost2010Prop31
280
     0
102
RTVSPost2010PropOp31
 70
     1
102
RTVSPost2010Prop32
280
     0
102
RTVSPost2010PropOp32
 70
     1
102
RTVSPost2010Prop33
280
     0
102
RTVSPost2010PropOp33
 70
     1
102
RTVSPost2010Prop34
280
     0
102
RTVSPost2010PropOp34
 70
     1
102
RTVSPost2010Prop35
280
     0
102
RTVSPost2010PropOp35
 70
     1
102
RTVSPost2010Prop36
280
     0
102
RTVSPost2010PropOp36
 70
     1
102
RTVSPost2010Prop37
 90
       50
102
RTVSPost2010PropOp37
 70
     1
102
RTVSPost2010Prop38
140
0.0
102
RTVSPost2010PropOp38
 70
     1
102
RTVSPost2010Prop39
140
1.0
102
RTVSPost2010PropOp39
 70
     1
102
RTVSPost2010Prop40
 90
        0
102
RTVSPost2010PropOp40
 70
     1
102
RTVSPost2010Prop41ColorIndex
 90
       18
102
RTVSPost2010Prop41ColorRGB
 90
-16777216
102
RTVSPost2010PropOp41
 70
     1
102
RTVSPost2010Prop42
 90
       50
102
RTVSPost2010PropOp42
 70
     1
102
RTVSPost2010Prop43
 90
        3
102
RTVSPost2010PropOp43
 70
     1
102
RTVSPost2010Prop44ColorIndex
 90
        5
102
RTVSPost2010Prop44ColorRGB
 90
      255
102
RTVSPost2010PropOp44
 70
     1
102
RTVSPost2010Prop45
280
     0
102
RTVSPost2010PropOp45
 70
     1
102
RTVSPost2010Prop46
 90
       50
102
RTVSPost2010PropOp46
 70
     1
102
RTVSPost2010Prop47
 90
       50
102
RTVSPost2010PropOp47
 70
     1
102
RTVSPost2010Prop48
 90
       50
102
RTVSPost2010PropOp48
 70
     1
102
RTVSPost2010Prop49
280
     0
102
RTVSPost2010PropOp49
 70
     1
102
RTVSPost2010Prop50
 90
       50
102
RTVSPost2010PropOp50
 70
     1
102
RTVSPost2010Prop51ColorIndex
 90
      256
102
RTVSPost2010Prop51ColorRGB
 90
-16777216
102
RTVSPost2010PropOp51
 70
     0
102
RTVSPost2010Prop52
140
1.0
102
RTVSPost2010PropOp52
 70
     0
102
RTVSPost2010Prop53
 90
        2
102
RTVSPost2010PropOp53
 70
     1
102
RTVSPost2010Prop54
  1
strokes_ogs.tif
102
RTVSPost2010PropOp54
 70
     1
102
RTVSPost2010Prop55
280
     0
102
RTVSPost2010PropOp55
 70
     1
102
RTVSPost2010Prop56
140
1.0
102
RTVSPost2010PropOp56
 70
     1
102
RTVSPost2010Prop57
140
1.0
102
RTVSPost2010PropOp57
 70
     1
102
RTVSPropertyOp0
 70
     1
102
RTVSPropertyOp1
 70
     1
102
RTVSPropertyOp2
 70
     1
102
RTVSPropertyOp3
 70
     1
102
RTVSPropertyOp4
 70
     1
102
RTVSPropertyOp5
 70
     1
102
RTVSPropertyOp6
 70
     1
102
RTVSPropertyOp7
 70
     1
102
RTVSPropertyOp8
 70
     1
102
RTVSPropertyOp9
 70
     1
102
RTVSPropertyOp10
 70
     1
102
RTVSPropertyOp11
 70
     1
102
RTVSPropertyOp12
 70
     1
102
RTVSPropertyOp13
 70
     1
102
RTVSPropertyOp14
 70
     1
102
RTVSPropertyOp15
 70
     1
102
RTVSPropertyOp16
 70
     1
102
RTVSPropertyOp17
 70
     1
102
RTVSPropertyOp18
 70
     1
102
RTVSPropertyOp19
 70
     1
102
RTVSPropertyOp20
 70
     1
102
RTVSPropertyOp21
 70
     1
102
RTVSPropertyOp22
 70
     1
102
RTVSPropertyOp23
 70
     1
102
RTVSPropertyOp24
 70
     1
102
RTVSPropertyOp25
 70
     1
102
RTVSPropertyOp26
 70
     1
102
RTVSPropertyOp27
 70
     1
102
RTVSPropertyOp28
 70
     1
102
RTVSPropertyOp29
 70
     1
102
RTVSPropertyOp30
 70
     1
102
RTVSPropertyOp31
 70
     1
102
RTVSPropertyOp32
 70
     1
102
RTVSPropertyOp33
 70
     1
102
RTVSPropertyOp34
 70
     1
102
RTVSPropertyOp35
 70
     1
102
RTVSPropertyOp36
 70
     1
102
RTVSPropertyOp37
 70
     1
102
RTVSPropertyOp38
 70
     1
102
RTVSPropertyOp39
 70
     1
102
RTVSPropertyOp40
 70
     1
102
RTVSPropertyOp41
 70
     1
102
RTVSPropertyOp42
 70
     1
102
RTVSPropertyOp43
 70
     1
102
RTVSPropertyOp44
 70
     1
102
RTVSPropertyOp45
 70
     1
102
RTVSPropertyOp46
 70
     1
102
RTVSPropertyOp47
 70
     1
102
RTVSPropertyOp48
 70
     1
102
RTVSPropertyOp49
 70
     1
102
RTVSPropertyOp50
 70
     1
102
RTVSPropertyOp51
 70
     0
102
RTVSPropertyOp52
 70
     0
102
RTVSPropertyOp53
 70
     1
102
RTVSPropertyOp54
 70
     1
102
RTVSPropertyOp55
 70
     1
102
RTVSPropertyOp56
 70
     1
102
RTVSPropertyOp57
 70
     1
102
RTVSPropertyOp58
 70
     1
102
RTVSPropertyOp59
 70
     1
102
RTVSPropertyOp60
 70
     1
102
RTVSPropertyOp61
 70
     1
102
RTVSPropertyOp62
 70
     1
  0
XRECORD
  5
D70
102
{ACAD_REACTORS
330
D6F
102
}
330
D6F
100
AcDbXrecord
280
     1
102
RTVSPost2010Prop28
280
     0
102
RTVSPost2010PropOp28
 70
     1
102
RTVSPost2010Prop29
280
     1
102
RTVSPost2010PropOp29
 70
     1
102
RTVSPost2010Prop30
280
     1
102
RTVSPost2010PropOp30
 70
     1
102
RTVSPost2010Prop31
280
     0
102
RTVSPost2010PropOp31
 70
     1
102
RTVSPost2010Prop32
280
     0
102
RTVSPost2010PropOp32
 70
     1
102
RTVSPost2010Prop33
280
     0
102
RTVSPost2010PropOp33
 70
     1
102
RTVSPost2010Prop34
280
     0
102
RTVSPost2010PropOp34
 70
     1
102
RTVSPost2010Prop35
280
     0
102
RTVSPost2010PropOp35
 70
     1
102
RTVSPost2010Prop36
280
     0
102
RTVSPost2010PropOp36
 70
     1
102
RTVSPost2010Prop37
 90
       50
102
RTVSPost2010PropOp37
 70
     1
102
RTVSPost2010Prop38
140
0.0
102
RTVSPost2010PropOp38
 70
     1
102
RTVSPost2010Prop39
140
1.0
102
RTVSPost2010PropOp39
 70
     1
102
RTVSPost2010Prop40
 90
        0
102
RTVSPost2010PropOp40
 70
     1
102
RTVSPost2010Prop41ColorIndex
 90
       18
102
RTVSPost2010Prop41ColorRGB
 90
-16777216
102
RTVSPost2010PropOp41
 70
     1
102
RTVSPost2010Prop42
 90
       50
102
RTVSPost2010PropOp42
 70
     1
102
RTVSPost2010Prop43
 90
        3
102
RTVSPost2010PropOp43
 70
     1
102
RTVSPost2010Prop44ColorIndex
 90
        5
102
RTVSPost2010Prop44ColorRGB
 90
      255
102
RTVSPost2010PropOp44
 70
     1
102
RTVSPost2010Prop45
280
     0
102
RTVSPost2010PropOp45
 70
     1
102
RTVSPost2010Prop46
 90
       50
102
RTVSPost2010PropOp46
 70
     1
102
RTVSPost2010Prop47
 90
       50
102
RTVSPost2010PropOp47
 70
     1
102
RTVSPost2010Prop48
 90
       50
102
RTVSPost2010PropOp48
 70
     1
102
RTVSPost2010Prop49
280
     0
102
RTVSPost2010PropOp49
 70
     1
102
RTVSPost2010Prop50
 90
       50
102
RTVSPost2010PropOp50
 70
     1
102
RTVSPost2010Prop51ColorIndex
 90
      256
102
RTVSPost2010Prop51ColorRGB
 90
-16777216
102
RTVSPost2010PropOp51
 70
     0
102
RTVSPost2010Prop52
140
1.0
102
RTVSPost2010PropOp52
 70
     0
102
RTVSPost2010Prop53
 90
        2
102
RTVSPost2010PropOp53
 70
     1
102
RTVSPost2010Prop54
  1
strokes_ogs.tif
102
RTVSPost2010PropOp54
 70
     1
102
RTVSPost2010Prop55
280
     0
102
RTVSPost2010PropOp55
 70
     1
102
RTVSPost2010Prop56
140
1.0
102
RTVSPost2010PropOp56
 70
     1
102
RTVSPost2010Prop57
140
1.0
102
RTVSPost2010PropOp57
 70
     1
102
RTVSPropertyOp0
 70
     1
102
RTVSPropertyOp1
 70
     1
102
RTVSPropertyOp2
 70
     1
102
RTVSPropertyOp3
 70
     1
102
RTVSPropertyOp4
 70
     1
102
RTVSPropertyOp5
 70
     1
102
RTVSPropertyOp6
 70
     1
102
RTVSPropertyOp7
 70
     1
102
RTVSPropertyOp8
 70
     1
102
RTVSPropertyOp9
 70
     1
102
RTVSPropertyOp10
 70
     1
102
RTVSPropertyOp11
 70
     1
102
RTVSPropertyOp12
 70
     1
102
RTVSPropertyOp13
 70
     1
102
RTVSPropertyOp14
 70
     1
102
RTVSPropertyOp15
 70
     1
102
RTVSPropertyOp16
 70
     1
102
RTVSPropertyOp17
 70
     1
102
RTVSPropertyOp18
 70
     1
102
RTVSPropertyOp19
 70
     1
102
RTVSPropertyOp20
 70
     1
102
RTVSPropertyOp21
 70
     1
102
RTVSPropertyOp22
 70
     1
102
RTVSPropertyOp23
 70
     1
102
RTVSPropertyOp24
 70
     1
102
RTVSPropertyOp25
 70
     1
102
RTVSPropertyOp26
 70
     1
102
RTVSPropertyOp27
 70
     1
102
RTVSPropertyOp28
 70
     1
102
RTVSPropertyOp29
 70
     1
102
RTVSPropertyOp30
 70
     1
102
RTVSPropertyOp31
 70
     1
102
RTVSPropertyOp32
 70
     1
102
RTVSPropertyOp33
 70
     1
102
RTVSPropertyOp34
 70
     1
102
RTVSPropertyOp35
 70
     1
102
RTVSPropertyOp36
 70
     1
102
RTVSPropertyOp37
 70
     1
102
RTVSPropertyOp38
 70
     1
102
RTVSPropertyOp39
 70
     1
102
RTVSPropertyOp40
 70
     1
102
RTVSPropertyOp41
 70
     1
102
RTVSPropertyOp42
 70
     1
102
RTVSPropertyOp43
 70
     1
102
RTVSPropertyOp44
 70
     1
102
RTVSPropertyOp45
 70
     1
102
RTVSPropertyOp46
 70
     1
102
RTVSPropertyOp47
 70
     1
102
RTVSPropertyOp48
 70
     1
102
RTVSPropertyOp49
 70
     1
102
RTVSPropertyOp50
 70
     1
102
RTVSPropertyOp51
 70
     0
102
RTVSPropertyOp52
 70
     0
102
RTVSPropertyOp53
 70
     1
102
RTVSPropertyOp54
 70
     1
102
RTVSPropertyOp55
 70
     1
102
RTVSPropertyOp56
 70
     1
102
RTVSPropertyOp57
 70
     1
102
RTVSPropertyOp58
 70
     1
102
RTVSPropertyOp59
 70
     1
102
RTVSPropertyOp60
 70
     1
102
RTVSPropertyOp61
 70
     1
102
RTVSPropertyOp62
 70
     1
  0
XRECORD
  5
D78
102
{ACAD_REACTORS
330
D77
102
}
330
D77
100
AcDbXrecord
280
     1
102
RTVSPost2010Prop28
280
     0
102
RTVSPost2010PropOp28
 70
     1
102
RTVSPost2010Prop29
280
     1
102
RTVSPost2010PropOp29
 70
     1
102
RTVSPost2010Prop30
280
     1
102
RTVSPost2010PropOp30
 70
     1
102
RTVSPost2010Prop31
280
     0
102
RTVSPost2010PropOp31
 70
     1
102
RTVSPost2010Prop32
280
     0
102
RTVSPost2010PropOp32
 70
     1
102
RTVSPost2010Prop33
280
     0
102
RTVSPost2010PropOp33
 70
     1
102
RTVSPost2010Prop34
280
     0
102
RTVSPost2010PropOp34
 70
     1
102
RTVSPost2010Prop35
280
     0
102
RTVSPost2010PropOp35
 70
     1
102
RTVSPost2010Prop36
280
     0
102
RTVSPost2010PropOp36
 70
     1
102
RTVSPost2010Prop37
 90
       50
102
RTVSPost2010PropOp37
 70
     1
102
RTVSPost2010Prop38
140
0.0
102
RTVSPost2010PropOp38
 70
     1
102
RTVSPost2010Prop39
140
1.0
102
RTVSPost2010PropOp39
 70
     1
102
RTVSPost2010Prop40
 90
        0
102
RTVSPost2010PropOp40
 70
     1
102
RTVSPost2010Prop41ColorIndex
 90
       18
102
RTVSPost2010Prop41ColorRGB
 90
-16777216
102
RTVSPost2010PropOp41
 70
     1
102
RTVSPost2010Prop42
 90
       50
102
RTVSPost2010PropOp42
 70
     1
102
RTVSPost2010Prop43
 90
        3
102
RTVSPost2010PropOp43
 70
     1
102
RTVSPost2010Prop44ColorIndex
 90
        5
102
RTVSPost2010Prop44ColorRGB
 90
      255
102
RTVSPost2010PropOp44
 70
     1
102
RTVSPost2010Prop45
280
     0
102
RTVSPost2010PropOp45
 70
     1
102
RTVSPost2010Prop46
 90
       50
102
RTVSPost2010PropOp46
 70
     1
102
RTVSPost2010Prop47
 90
       50
102
RTVSPost2010PropOp47
 70
     1
102
RTVSPost2010Prop48
 90
       50
102
RTVSPost2010PropOp48
 70
     1
102
RTVSPost2010Prop49
280
     0
102
RTVSPost2010PropOp49
 70
     1
102
RTVSPost2010Prop50
 90
       50
102
RTVSPost2010PropOp50
 70
     1
102
RTVSPost2010Prop51ColorIndex
 90
      256
102
RTVSPost2010Prop51ColorRGB
 90
-16777216
102
RTVSPost2010PropOp51
 70
     0
102
RTVSPost2010Prop52
140
1.0
102
RTVSPost2010PropOp52
 70
     0
102
RTVSPost2010Prop53
 90
        2
102
RTVSPost2010PropOp53
 70
     1
102
RTVSPost2010Prop54
  1
strokes_ogs.tif
102
RTVSPost2010PropOp54
 70
     1
102
RTVSPost2010Prop55
280
     0
102
RTVSPost2010PropOp55
 70
     1
102
RTVSPost2010Prop56
140
1.0
102
RTVSPost2010PropOp56
 70
     1
102
RTVSPost2010Prop57
140
1.0
102
RTVSPost2010PropOp57
 70
     1
102
RTVSPropertyOp0
 70
     1
102
RTVSPropertyOp1
 70
     1
102
RTVSPropertyOp2
 70
     1
102
RTVSPropertyOp3
 70
     1
102
RTVSPropertyOp4
 70
     1
102
RTVSPropertyOp5
 70
     1
102
RTVSPropertyOp6
 70
     1
102
RTVSPropertyOp7
 70
     1
102
RTVSPropertyOp8
 70
     1
102
RTVSPropertyOp9
 70
     1
102
RTVSPropertyOp10
 70
     1
102
RTVSPropertyOp11
 70
     1
102
RTVSPropertyOp12
 70
     1
102
RTVSPropertyOp13
 70
     1
102
RTVSPropertyOp14
 70
     1
102
RTVSPropertyOp15
 70
     1
102
RTVSPropertyOp16
 70
     1
102
RTVSPropertyOp17
 70
     1
102
RTVSPropertyOp18
 70
     1
102
RTVSPropertyOp19
 70
     1
102
RTVSPropertyOp20
 70
     1
102
RTVSPropertyOp21
 70
     1
102
RTVSPropertyOp22
 70
     1
102
RTVSPropertyOp23
 70
     1
102
RTVSPropertyOp24
 70
     1
102
RTVSPropertyOp25
 70
     1
102
RTVSPropertyOp26
 70
     1
102
RTVSPropertyOp27
 70
     1
102
RTVSPropertyOp28
 70
     1
102
RTVSPropertyOp29
 70
     1
102
RTVSPropertyOp30
 70
     1
102
RTVSPropertyOp31
 70
     1
102
RTVSPropertyOp32
 70
     1
102
RTVSPropertyOp33
 70
     1
102
RTVSPropertyOp34
 70
     1
102
RTVSPropertyOp35
 70
     1
102
RTVSPropertyOp36
 70
     1
102
RTVSPropertyOp37
 70
     1
102
RTVSPropertyOp38
 70
     1
102
RTVSPropertyOp39
 70
     1
102
RTVSPropertyOp40
 70
     1
102
RTVSPropertyOp41
 70
     1
102
RTVSPropertyOp42
 70
     1
102
RTVSPropertyOp43
 70
     1
102
RTVSPropertyOp44
 70
     1
102
RTVSPropertyOp45
 70
     1
102
RTVSPropertyOp46
 70
     1
102
RTVSPropertyOp47
 70
     1
102
RTVSPropertyOp48
 70
     1
102
RTVSPropertyOp49
 70
     1
102
RTVSPropertyOp50
 70
     1
102
RTVSPropertyOp51
 70
     0
102
RTVSPropertyOp52
 70
     0
102
RTVSPropertyOp53
 70
     1
102
RTVSPropertyOp54
 70
     1
102
RTVSPropertyOp55
 70
     1
102
RTVSPropertyOp56
 70
     1
102
RTVSPropertyOp57
 70
     1
102
RTVSPropertyOp58
 70
     1
102
RTVSPropertyOp59
 70
     1
102
RTVSPropertyOp60
 70
     1
102
RTVSPropertyOp61
 70
     1
102
RTVSPropertyOp62
 70
     1
  0
XRECORD
  5
D6A
102
{ACAD_REACTORS
330
D69
102
}
330
D69
100
AcDbXrecord
280
     1
102
RTVSPost2010Prop28
280
     0
102
RTVSPost2010PropOp28
 70
     1
102
RTVSPost2010Prop29
280
     1
102
RTVSPost2010PropOp29
 70
     1
102
RTVSPost2010Prop30
280
     1
102
RTVSPost2010PropOp30
 70
     1
102
RTVSPost2010Prop31
280
     0
102
RTVSPost2010PropOp31
 70
     1
102
RTVSPost2010Prop32
280
     0
102
RTVSPost2010PropOp32
 70
     1
102
RTVSPost2010Prop33
280
     0
102
RTVSPost2010PropOp33
 70
     1
102
RTVSPost2010Prop34
280
     0
102
RTVSPost2010PropOp34
 70
     1
102
RTVSPost2010Prop35
280
     0
102
RTVSPost2010PropOp35
 70
     1
102
RTVSPost2010Prop36
280
     0
102
RTVSPost2010PropOp36
 70
     1
102
RTVSPost2010Prop37
 90
       50
102
RTVSPost2010PropOp37
 70
     1
102
RTVSPost2010Prop38
140
0.0
102
RTVSPost2010PropOp38
 70
     1
102
RTVSPost2010Prop39
140
1.0
102
RTVSPost2010PropOp39
 70
     1
102
RTVSPost2010Prop40
 90
        0
102
RTVSPost2010PropOp40
 70
     1
102
RTVSPost2010Prop41ColorIndex
 90
       18
102
RTVSPost2010Prop41ColorRGB
 90
-16777216
102
RTVSPost2010PropOp41
 70
     1
102
RTVSPost2010Prop42
 90
       50
102
RTVSPost2010PropOp42
 70
     1
102
RTVSPost2010Prop43
 90
        3
102
RTVSPost2010PropOp43
 70
     1
102
RTVSPost2010Prop44ColorIndex
 90
        5
102
RTVSPost2010Prop44ColorRGB
 90
      255
102
RTVSPost2010PropOp44
 70
     1
102
RTVSPost2010Prop45
280
     0
102
RTVSPost2010PropOp45
 70
     1
102
RTVSPost2010Prop46
 90
       50
102
RTVSPost2010PropOp46
 70
     1
102
RTVSPost2010Prop47
 90
       50
102
RTVSPost2010PropOp47
 70
     1
102
RTVSPost2010Prop48
 90
       50
102
RTVSPost2010PropOp48
 70
     1
102
RTVSPost2010Prop49
280
     0
102
RTVSPost2010PropOp49
 70
     1
102
RTVSPost2010Prop50
 90
       50
102
RTVSPost2010PropOp50
 70
     1
102
RTVSPost2010Prop51ColorIndex
 90
      256
102
RTVSPost2010Prop51ColorRGB
 90
-16777216
102
RTVSPost2010PropOp51
 70
     0
102
RTVSPost2010Prop52
140
1.0
102
RTVSPost2010PropOp52
 70
     0
102
RTVSPost2010Prop53
 90
        2
102
RTVSPost2010PropOp53
 70
     1
102
RTVSPost2010Prop54
  1
strokes_ogs.tif
102
RTVSPost2010PropOp54
 70
     1
102
RTVSPost2010Prop55
280
     0
102
RTVSPost2010PropOp55
 70
     1
102
RTVSPost2010Prop56
140
1.0
102
RTVSPost2010PropOp56
 70
     1
102
RTVSPost2010Prop57
140
1.0
102
RTVSPost2010PropOp57
 70
     1
102
RTVSPropertyOp0
 70
     1
102
RTVSPropertyOp1
 70
     1
102
RTVSPropertyOp2
 70
     1
102
RTVSPropertyOp3
 70
     1
102
RTVSPropertyOp4
 70
     1
102
RTVSPropertyOp5
 70
     1
102
RTVSPropertyOp6
 70
     1
102
RTVSPropertyOp7
 70
     1
102
RTVSPropertyOp8
 70
     1
102
RTVSPropertyOp9
 70
     1
102
RTVSPropertyOp10
 70
     1
102
RTVSPropertyOp11
 70
     1
102
RTVSPropertyOp12
 70
     1
102
RTVSPropertyOp13
 70
     1
102
RTVSPropertyOp14
 70
     1
102
RTVSPropertyOp15
 70
     1
102
RTVSPropertyOp16
 70
     1
102
RTVSPropertyOp17
 70
     1
102
RTVSPropertyOp18
 70
     1
102
RTVSPropertyOp19
 70
     1
102
RTVSPropertyOp20
 70
     1
102
RTVSPropertyOp21
 70
     1
102
RTVSPropertyOp22
 70
     1
102
RTVSPropertyOp23
 70
     1
102
RTVSPropertyOp24
 70
     1
102
RTVSPropertyOp25
 70
     1
102
RTVSPropertyOp26
 70
     1
102
RTVSPropertyOp27
 70
     1
102
RTVSPropertyOp28
 70
     1
102
RTVSPropertyOp29
 70
     1
102
RTVSPropertyOp30
 70
     1
102
RTVSPropertyOp31
 70
     1
102
RTVSPropertyOp32
 70
     1
102
RTVSPropertyOp33
 70
     1
102
RTVSPropertyOp34
 70
     1
102
RTVSPropertyOp35
 70
     1
102
RTVSPropertyOp36
 70
     1
102
RTVSPropertyOp37
 70
     1
102
RTVSPropertyOp38
 70
     1
102
RTVSPropertyOp39
 70
     1
102
RTVSPropertyOp40
 70
     1
102
RTVSPropertyOp41
 70
     1
102
RTVSPropertyOp42
 70
     1
102
RTVSPropertyOp43
 70
     1
102
RTVSPropertyOp44
 70
     1
102
RTVSPropertyOp45
 70
     1
102
RTVSPropertyOp46
 70
     1
102
RTVSPropertyOp47
 70
     1
102
RTVSPropertyOp48
 70
     1
102
RTVSPropertyOp49
 70
     1
102
RTVSPropertyOp50
 70
     1
102
RTVSPropertyOp51
 70
     0
102
RTVSPropertyOp52
 70
     0
102
RTVSPropertyOp53
 70
     1
102
RTVSPropertyOp54
 70
     1
102
RTVSPropertyOp55
 70
     1
102
RTVSPropertyOp56
 70
     1
102
RTVSPropertyOp57
 70
     1
102
RTVSPropertyOp58
 70
     1
102
RTVSPropertyOp59
 70
     1
102
RTVSPropertyOp60
 70
     1
102
RTVSPropertyOp61
 70
     1
102
RTVSPropertyOp62
 70
     1
  0
XRECORD
  5
D6E
102
{ACAD_REACTORS
330
D6D
102
}
330
D6D
100
AcDbXrecord
280
     1
102
RTVSPost2010Prop28
280
     0
102
RTVSPost2010PropOp28
 70
     1
102
RTVSPost2010Prop29
280
     1
102
RTVSPost2010PropOp29
 70
     1
102
RTVSPost2010Prop30
280
     1
102
RTVSPost2010PropOp30
 70
     1
102
RTVSPost2010Prop31
280
     0
102
RTVSPost2010PropOp31
 70
     1
102
RTVSPost2010Prop32
280
     0
102
RTVSPost2010PropOp32
 70
     1
102
RTVSPost2010Prop33
280
     0
102
RTVSPost2010PropOp33
 70
     1
102
RTVSPost2010Prop34
280
     0
102
RTVSPost2010PropOp34
 70
     1
102
RTVSPost2010Prop35
280
     0
102
RTVSPost2010PropOp35
 70
     1
102
RTVSPost2010Prop36
280
     0
102
RTVSPost2010PropOp36
 70
     1
102
RTVSPost2010Prop37
 90
       50
102
RTVSPost2010PropOp37
 70
     1
102
RTVSPost2010Prop38
140
0.0
102
RTVSPost2010PropOp38
 70
     1
102
RTVSPost2010Prop39
140
1.0
102
RTVSPost2010PropOp39
 70
     1
102
RTVSPost2010Prop40
 90
        0
102
RTVSPost2010PropOp40
 70
     1
102
RTVSPost2010Prop41ColorIndex
 90
       18
102
RTVSPost2010Prop41ColorRGB
 90
-16777216
102
RTVSPost2010PropOp41
 70
     1
102
RTVSPost2010Prop42
 90
       50
102
RTVSPost2010PropOp42
 70
     1
102
RTVSPost2010Prop43
 90
        3
102
RTVSPost2010PropOp43
 70
     1
102
RTVSPost2010Prop44ColorIndex
 90
        5
102
RTVSPost2010Prop44ColorRGB
 90
      255
102
RTVSPost2010PropOp44
 70
     1
102
RTVSPost2010Prop45
280
     0
102
RTVSPost2010PropOp45
 70
     1
102
RTVSPost2010Prop46
 90
       50
102
RTVSPost2010PropOp46
 70
     1
102
RTVSPost2010Prop47
 90
       50
102
RTVSPost2010PropOp47
 70
     1
102
RTVSPost2010Prop48
 90
       50
102
RTVSPost2010PropOp48
 70
     1
102
RTVSPost2010Prop49
280
     0
102
RTVSPost2010PropOp49
 70
     1
102
RTVSPost2010Prop50
 90
       50
102
RTVSPost2010PropOp50
 70
     1
102
RTVSPost2010Prop51ColorIndex
 90
      256
102
RTVSPost2010Prop51ColorRGB
 90
-16777216
102
RTVSPost2010PropOp51
 70
     0
102
RTVSPost2010Prop52
140
1.0
102
RTVSPost2010PropOp52
 70
     0
102
RTVSPost2010Prop53
 90
        2
102
RTVSPost2010PropOp53
 70
     1
102
RTVSPost2010Prop54
  1
strokes_ogs.tif
102
RTVSPost2010PropOp54
 70
     1
102
RTVSPost2010Prop55
280
     0
102
RTVSPost2010PropOp55
 70
     1
102
RTVSPost2010Prop56
140
1.0
102
RTVSPost2010PropOp56
 70
     1
102
RTVSPost2010Prop57
140
1.0
102
RTVSPost2010PropOp57
 70
     1
102
RTVSPropertyOp0
 70
     1
102
RTVSPropertyOp1
 70
     1
102
RTVSPropertyOp2
 70
     1
102
RTVSPropertyOp3
 70
     1
102
RTVSPropertyOp4
 70
     1
102
RTVSPropertyOp5
 70
     1
102
RTVSPropertyOp6
 70
     1
102
RTVSPropertyOp7
 70
     1
102
RTVSPropertyOp8
 70
     1
102
RTVSPropertyOp9
 70
     1
102
RTVSPropertyOp10
 70
     1
102
RTVSPropertyOp11
 70
     1
102
RTVSPropertyOp12
 70
     1
102
RTVSPropertyOp13
 70
     1
102
RTVSPropertyOp14
 70
     1
102
RTVSPropertyOp15
 70
     1
102
RTVSPropertyOp16
 70
     1
102
RTVSPropertyOp17
 70
     1
102
RTVSPropertyOp18
 70
     1
102
RTVSPropertyOp19
 70
     1
102
RTVSPropertyOp20
 70
     1
102
RTVSPropertyOp21
 70
     1
102
RTVSPropertyOp22
 70
     1
102
RTVSPropertyOp23
 70
     1
102
RTVSPropertyOp24
 70
     1
102
RTVSPropertyOp25
 70
     1
102
RTVSPropertyOp26
 70
     1
102
RTVSPropertyOp27
 70
     1
102
RTVSPropertyOp28
 70
     1
102
RTVSPropertyOp29
 70
     1
102
RTVSPropertyOp30
 70
     1
102
RTVSPropertyOp31
 70
     1
102
RTVSPropertyOp32
 70
     1
102
RTVSPropertyOp33
 70
     1
102
RTVSPropertyOp34
 70
     1
102
RTVSPropertyOp35
 70
     1
102
RTVSPropertyOp36
 70
     1
102
RTVSPropertyOp37
 70
     1
102
RTVSPropertyOp38
 70
     1
102
RTVSPropertyOp39
 70
     1
102
RTVSPropertyOp40
 70
     1
102
RTVSPropertyOp41
 70
     1
102
RTVSPropertyOp42
 70
     1
102
RTVSPropertyOp43
 70
     1
102
RTVSPropertyOp44
 70
     1
102
RTVSPropertyOp45
 70
     1
102
RTVSPropertyOp46
 70
     1
102
RTVSPropertyOp47
 70
     1
102
RTVSPropertyOp48
 70
     1
102
RTVSPropertyOp49
 70
     1
102
RTVSPropertyOp50
 70
     1
102
RTVSPropertyOp51
 70
     0
102
RTVSPropertyOp52
 70
     0
102
RTVSPropertyOp53
 70
     1
102
RTVSPropertyOp54
 70
     1
102
RTVSPropertyOp55
 70
     1
102
RTVSPropertyOp56
 70
     1
102
RTVSPropertyOp57
 70
     1
102
RTVSPropertyOp58
 70
     1
102
RTVSPropertyOp59
 70
     1
102
RTVSPropertyOp60
 70
     1
102
RTVSPropertyOp61
 70
     1
102
RTVSPropertyOp62
 70
     1
  0
XRECORD
  5
D88
102
{ACAD_REACTORS
330
D87
102
}
330
D87
100
AcDbXrecord
280
     1
102
RTVSPost2010Prop28
280
     0
102
RTVSPost2010PropOp28
 70
     0
102
RTVSPost2010Prop29
280
     1
102
RTVSPost2010PropOp29
 70
     0
102
RTVSPost2010Prop30
280
     1
102
RTVSPost2010PropOp30
 70
     0
102
RTVSPost2010Prop31
280
     0
102
RTVSPost2010PropOp31
 70
     0
102
RTVSPost2010Prop32
280
     0
102
RTVSPost2010PropOp32
 70
     0
102
RTVSPost2010Prop33
280
     0
102
RTVSPost2010PropOp33
 70
     0
102
RTVSPost2010Prop34
280
     0
102
RTVSPost2010PropOp34
 70
     0
102
RTVSPost2010Prop35
280
     0
102
RTVSPost2010PropOp35
 70
     0
102
RTVSPost2010Prop36
280
     0
102
RTVSPost2010PropOp36
 70
     0
102
RTVSPost2010Prop37
 90
       50
102
RTVSPost2010PropOp37
 70
     0
102
RTVSPost2010Prop38
140
0.0
102
RTVSPost2010PropOp38
 70
     0
102
RTVSPost2010Prop39
140
1.0
102
RTVSPost2010PropOp39
 70
     0
102
RTVSPost2010Prop40
 90
        0
102
RTVSPost2010PropOp40
 70
     0
102
RTVSPost2010Prop41ColorIndex
 90
       18
102
RTVSPost2010Prop41ColorRGB
 90
-16777216
102
RTVSPost2010PropOp41
 70
     0
102
RTVSPost2010Prop42
 90
       50
102
RTVSPost2010PropOp42
 70
     0
102
RTVSPost2010Prop43
 90
        3
102
RTVSPost2010PropOp43
 70
     0
102
RTVSPost2010Prop44ColorIndex
 90
        5
102
RTVSPost2010Prop44ColorRGB
 90
      255
102
RTVSPost2010PropOp44
 70
     0
102
RTVSPost2010Prop45
280
     0
102
RTVSPost2010PropOp45
 70
     0
102
RTVSPost2010Prop46
 90
       50
102
RTVSPost2010PropOp46
 70
     0
102
RTVSPost2010Prop47
 90
       50
102
RTVSPost2010PropOp47
 70
     0
102
RTVSPost2010Prop48
 90
       50
102
RTVSPost2010PropOp48
 70
     0
102
RTVSPost2010Prop49
280
     0
102
RTVSPost2010PropOp49
 70
     0
102
RTVSPost2010Prop50
 90
       50
102
RTVSPost2010PropOp50
 70
     0
102
RTVSPost2010Prop51ColorIndex
 90
      256
102
RTVSPost2010Prop51ColorRGB
 90
-16777216
102
RTVSPost2010PropOp51
 70
     0
102
RTVSPost2010Prop52
140
1.0
102
RTVSPost2010PropOp52
 70
     0
102
RTVSPost2010Prop53
 90
        2
102
RTVSPost2010PropOp53
 70
     0
102
RTVSPost2010Prop54
  1
strokes_ogs.tif
102
RTVSPost2010PropOp54
 70
     0
102
RTVSPost2010Prop55
280
     0
102
RTVSPost2010PropOp55
 70
     0
102
RTVSPost2010Prop56
140
1.0
102
RTVSPost2010PropOp56
 70
     0
102
RTVSPost2010Prop57
140
1.0
102
RTVSPost2010PropOp57
 70
     0
102
RTVSPropertyOp0
 70
     0
102
RTVSPropertyOp1
 70
     0
102
RTVSPropertyOp2
 70
     0
102
RTVSPropertyOp3
 70
     0
102
RTVSPropertyOp4
 70
     0
102
RTVSPropertyOp5
 70
     0
102
RTVSPropertyOp6
 70
     0
102
RTVSPropertyOp7
 70
     0
102
RTVSPropertyOp8
 70
     0
102
RTVSPropertyOp9
 70
     0
102
RTVSPropertyOp10
 70
     0
102
RTVSPropertyOp11
 70
     0
102
RTVSPropertyOp12
 70
     0
102
RTVSPropertyOp13
 70
     0
102
RTVSPropertyOp14
 70
     2
102
RTVSPropertyOp15
 70
     0
102
RTVSPropertyOp16
 70
     0
102
RTVSPropertyOp17
 70
     0
102
RTVSPropertyOp18
 70
     0
102
RTVSPropertyOp19
 70
     0
102
RTVSPropertyOp20
 70
     0
102
RTVSPropertyOp21
 70
     0
102
RTVSPropertyOp22
 70
     0
102
RTVSPropertyOp23
 70
     0
102
RTVSPropertyOp24
 70
     0
102
RTVSPropertyOp25
 70
     0
102
RTVSPropertyOp26
 70
     0
102
RTVSPropertyOp27
 70
     0
102
RTVSPropertyOp28
 70
     0
102
RTVSPropertyOp29
 70
     0
102
RTVSPropertyOp30
 70
     0
102
RTVSPropertyOp31
 70
     0
102
RTVSPropertyOp32
 70
     0
102
RTVSPropertyOp33
 70
     0
102
RTVSPropertyOp34
 70
     0
102
RTVSPropertyOp35
 70
     0
102
RTVSPropertyOp36
 70
     0
102
RTVSPropertyOp37
 70
     0
102
RTVSPropertyOp38
 70
     0
102
RTVSPropertyOp39
 70
     0
102
RTVSPropertyOp40
 70
     0
102
RTVSPropertyOp41
 70
     0
102
RTVSPropertyOp42
 70
     0
102
RTVSPropertyOp43
 70
     0
102
RTVSPropertyOp44
 70
     0
102
RTVSPropertyOp45
 70
     0
102
RTVSPropertyOp46
 70
     0
102
RTVSPropertyOp47
 70
     0
102
RTVSPropertyOp48
 70
     0
102
RTVSPropertyOp49
 70
     0
102
RTVSPropertyOp50
 70
     0
102
RTVSPropertyOp51
 70
     0
102
RTVSPropertyOp52
 70
     0
102
RTVSPropertyOp53
 70
     0
102
RTVSPropertyOp54
 70
     0
102
RTVSPropertyOp55
 70
     0
102
RTVSPropertyOp56
 70
     0
102
RTVSPropertyOp57
 70
     0
102
RTVSPropertyOp58
 70
     1
102
RTVSPropertyOp59
 70
     1
102
RTVSPropertyOp60
 70
     1
102
RTVSPropertyOp61
 70
     1
102
RTVSPropertyOp62
 70
     1
  0
XRECORD
  5
D76
102
{ACAD_REACTORS
330
D75
102
}
330
D75
100
AcDbXrecord
280
     1
102
RTVSPost2010Prop28
280
     0
102
RTVSPost2010PropOp28
 70
     1
102
RTVSPost2010Prop29
280
     1
102
RTVSPost2010PropOp29
 70
     1
102
RTVSPost2010Prop30
280
     1
102
RTVSPost2010PropOp30
 70
     1
102
RTVSPost2010Prop31
280
     0
102
RTVSPost2010PropOp31
 70
     1
102
RTVSPost2010Prop32
280
     0
102
RTVSPost2010PropOp32
 70
     1
102
RTVSPost2010Prop33
280
     0
102
RTVSPost2010PropOp33
 70
     1
102
RTVSPost2010Prop34
280
     0
102
RTVSPost2010PropOp34
 70
     1
102
RTVSPost2010Prop35
280
     0
102
RTVSPost2010PropOp35
 70
     1
102
RTVSPost2010Prop36
280
     0
102
RTVSPost2010PropOp36
 70
     1
102
RTVSPost2010Prop37
 90
       50
102
RTVSPost2010PropOp37
 70
     1
102
RTVSPost2010Prop38
140
0.0
102
RTVSPost2010PropOp38
 70
     1
102
RTVSPost2010Prop39
140
1.0
102
RTVSPost2010PropOp39
 70
     1
102
RTVSPost2010Prop40
 90
        0
102
RTVSPost2010PropOp40
 70
     1
102
RTVSPost2010Prop41ColorIndex
 90
       18
102
RTVSPost2010Prop41ColorRGB
 90
-16777216
102
RTVSPost2010PropOp41
 70
     1
102
RTVSPost2010Prop42
 90
       50
102
RTVSPost2010PropOp42
 70
     1
102
RTVSPost2010Prop43
 90
        3
102
RTVSPost2010PropOp43
 70
     1
102
RTVSPost2010Prop44ColorIndex
 90
        5
102
RTVSPost2010Prop44ColorRGB
 90
      255
102
RTVSPost2010PropOp44
 70
     1
102
RTVSPost2010Prop45
280
     0
102
RTVSPost2010PropOp45
 70
     1
102
RTVSPost2010Prop46
 90
       50
102
RTVSPost2010PropOp46
 70
     1
102
RTVSPost2010Prop47
 90
       50
102
RTVSPost2010PropOp47
 70
     1
102
RTVSPost2010Prop48
 90
       50
102
RTVSPost2010PropOp48
 70
     1
102
RTVSPost2010Prop49
280
     0
102
RTVSPost2010PropOp49
 70
     1
102
RTVSPost2010Prop50
 90
       50
102
RTVSPost2010PropOp50
 70
     1
102
RTVSPost2010Prop51ColorIndex
 90
      256
102
RTVSPost2010Prop51ColorRGB
 90
-16777216
102
RTVSPost2010PropOp51
 70
     0
102
RTVSPost2010Prop52
140
1.0
102
RTVSPost2010PropOp52
 70
     0
102
RTVSPost2010Prop53
 90
        2
102
RTVSPost2010PropOp53
 70
     1
102
RTVSPost2010Prop54
  1
strokes_ogs.tif
102
RTVSPost2010PropOp54
 70
     1
102
RTVSPost2010Prop55
280
     0
102
RTVSPost2010PropOp55
 70
     1
102
RTVSPost2010Prop56
140
1.0
102
RTVSPost2010PropOp56
 70
     1
102
RTVSPost2010Prop57
140
1.0
102
RTVSPost2010PropOp57
 70
     1
102
RTVSPropertyOp0
 70
     1
102
RTVSPropertyOp1
 70
     1
102
RTVSPropertyOp2
 70
     1
102
RTVSPropertyOp3
 70
     1
102
RTVSPropertyOp4
 70
     1
102
RTVSPropertyOp5
 70
     1
102
RTVSPropertyOp6
 70
     1
102
RTVSPropertyOp7
 70
     1
102
RTVSPropertyOp8
 70
     1
102
RTVSPropertyOp9
 70
     1
102
RTVSPropertyOp10
 70
     1
102
RTVSPropertyOp11
 70
     1
102
RTVSPropertyOp12
 70
     1
102
RTVSPropertyOp13
 70
     1
102
RTVSPropertyOp14
 70
     1
102
RTVSPropertyOp15
 70
     1
102
RTVSPropertyOp16
 70
     1
102
RTVSPropertyOp17
 70
     1
102
RTVSPropertyOp18
 70
     1
102
RTVSPropertyOp19
 70
     1
102
RTVSPropertyOp20
 70
     1
102
RTVSPropertyOp21
 70
     1
102
RTVSPropertyOp22
 70
     1
102
RTVSPropertyOp23
 70
     1
102
RTVSPropertyOp24
 70
     1
102
RTVSPropertyOp25
 70
     1
102
RTVSPropertyOp26
 70
     1
102
RTVSPropertyOp27
 70
     1
102
RTVSPropertyOp28
 70
     1
102
RTVSPropertyOp29
 70
     1
102
RTVSPropertyOp30
 70
     1
102
RTVSPropertyOp31
 70
     1
102
RTVSPropertyOp32
 70
     1
102
RTVSPropertyOp33
 70
     1
102
RTVSPropertyOp34
 70
     1
102
RTVSPropertyOp35
 70
     1
102
RTVSPropertyOp36
 70
     1
102
RTVSPropertyOp37
 70
     1
102
RTVSPropertyOp38
 70
     1
102
RTVSPropertyOp39
 70
     1
102
RTVSPropertyOp40
 70
     1
102
RTVSPropertyOp41
 70
     1
102
RTVSPropertyOp42
 70
     1
102
RTVSPropertyOp43
 70
     1
102
RTVSPropertyOp44
 70
     1
102
RTVSPropertyOp45
 70
     1
102
RTVSPropertyOp46
 70
     1
102
RTVSPropertyOp47
 70
     1
102
RTVSPropertyOp48
 70
     1
102
RTVSPropertyOp49
 70
     1
102
RTVSPropertyOp50
 70
     1
102
RTVSPropertyOp51
 70
     0
102
RTVSPropertyOp52
 70
     0
102
RTVSPropertyOp53
 70
     1
102
RTVSPropertyOp54
 70
     1
102
RTVSPropertyOp55
 70
     1
102
RTVSPropertyOp56
 70
     1
102
RTVSPropertyOp57
 70
     1
102
RTVSPropertyOp58
 70
     1
102
RTVSPropertyOp59
 70
     1
102
RTVSPropertyOp60
 70
     1
102
RTVSPropertyOp61
 70
     1
102
RTVSPropertyOp62
 70
     1
  0
XRECORD
  5
D5A
102
{ACAD_REACTORS
330
D59
102
}
330
D59
100
AcDbXrecord
280
     1
102
RTVSPost2010Prop28
280
     0
102
RTVSPost2010PropOp28
 70
     1
102
RTVSPost2010Prop29
280
     1
102
RTVSPost2010PropOp29
 70
     1
102
RTVSPost2010Prop30
280
     1
102
RTVSPost2010PropOp30
 70
     1
102
RTVSPost2010Prop31
280
     0
102
RTVSPost2010PropOp31
 70
     1
102
RTVSPost2010Prop32
280
     0
102
RTVSPost2010PropOp32
 70
     1
102
RTVSPost2010Prop33
280
     0
102
RTVSPost2010PropOp33
 70
     1
102
RTVSPost2010Prop34
280
     0
102
RTVSPost2010PropOp34
 70
     1
102
RTVSPost2010Prop35
280
     0
102
RTVSPost2010PropOp35
 70
     1
102
RTVSPost2010Prop36
280
     0
102
RTVSPost2010PropOp36
 70
     1
102
RTVSPost2010Prop37
 90
       50
102
RTVSPost2010PropOp37
 70
     1
102
RTVSPost2010Prop38
140
0.0
102
RTVSPost2010PropOp38
 70
     1
102
RTVSPost2010Prop39
140
1.0
102
RTVSPost2010PropOp39
 70
     1
102
RTVSPost2010Prop40
 90
        0
102
RTVSPost2010PropOp40
 70
     1
102
RTVSPost2010Prop41ColorIndex
 90
       18
102
RTVSPost2010Prop41ColorRGB
 90
-16777216
102
RTVSPost2010PropOp41
 70
     1
102
RTVSPost2010Prop42
 90
       50
102
RTVSPost2010PropOp42
 70
     1
102
RTVSPost2010Prop43
 90
        3
102
RTVSPost2010PropOp43
 70
     1
102
RTVSPost2010Prop44ColorIndex
 90
        5
102
RTVSPost2010Prop44ColorRGB
 90
      255
102
RTVSPost2010PropOp44
 70
     1
102
RTVSPost2010Prop45
280
     0
102
RTVSPost2010PropOp45
 70
     1
102
RTVSPost2010Prop46
 90
       50
102
RTVSPost2010PropOp46
 70
     1
102
RTVSPost2010Prop47
 90
       50
102
RTVSPost2010PropOp47
 70
     1
102
RTVSPost2010Prop48
 90
       50
102
RTVSPost2010PropOp48
 70
     1
102
RTVSPost2010Prop49
280
     0
102
RTVSPost2010PropOp49
 70
     1
102
RTVSPost2010Prop50
 90
       50
102
RTVSPost2010PropOp50
 70
     1
102
RTVSPost2010Prop51ColorIndex
 90
      256
102
RTVSPost2010Prop51ColorRGB
 90
-16777216
102
RTVSPost2010PropOp51
 70
     0
102
RTVSPost2010Prop52
140
1.0
102
RTVSPost2010PropOp52
 70
     0
102
RTVSPost2010Prop53
 90
        2
102
RTVSPost2010PropOp53
 70
     1
102
RTVSPost2010Prop54
  1
strokes_ogs.tif
102
RTVSPost2010PropOp54
 70
     1
102
RTVSPost2010Prop55
280
     0
102
RTVSPost2010PropOp55
 70
     1
102
RTVSPost2010Prop56
140
1.0
102
RTVSPost2010PropOp56
 70
     1
102
RTVSPost2010Prop57
140
1.0
102
RTVSPost2010PropOp57
 70
     1
102
RTVSPropertyOp0
 70
     1
102
RTVSPropertyOp1
 70
     1
102
RTVSPropertyOp2
 70
     1
102
RTVSPropertyOp3
 70
     1
102
RTVSPropertyOp4
 70
     1
102
RTVSPropertyOp5
 70
     1
102
RTVSPropertyOp6
 70
     1
102
RTVSPropertyOp7
 70
     1
102
RTVSPropertyOp8
 70
     1
102
RTVSPropertyOp9
 70
     1
102
RTVSPropertyOp10
 70
     1
102
RTVSPropertyOp11
 70
     1
102
RTVSPropertyOp12
 70
     1
102
RTVSPropertyOp13
 70
     1
102
RTVSPropertyOp14
 70
     1
102
RTVSPropertyOp15
 70
     1
102
RTVSPropertyOp16
 70
     1
102
RTVSPropertyOp17
 70
     1
102
RTVSPropertyOp18
 70
     1
102
RTVSPropertyOp19
 70
     1
102
RTVSPropertyOp20
 70
     1
102
RTVSPropertyOp21
 70
     1
102
RTVSPropertyOp22
 70
     1
102
RTVSPropertyOp23
 70
     1
102
RTVSPropertyOp24
 70
     1
102
RTVSPropertyOp25
 70
     1
102
RTVSPropertyOp26
 70
     1
102
RTVSPropertyOp27
 70
     1
102
RTVSPropertyOp28
 70
     1
102
RTVSPropertyOp29
 70
     1
102
RTVSPropertyOp30
 70
     1
102
RTVSPropertyOp31
 70
     1
102
RTVSPropertyOp32
 70
     1
102
RTVSPropertyOp33
 70
     1
102
RTVSPropertyOp34
 70
     1
102
RTVSPropertyOp35
 70
     1
102
RTVSPropertyOp36
 70
     1
102
RTVSPropertyOp37
 70
     1
102
RTVSPropertyOp38
 70
     1
102
RTVSPropertyOp39
 70
     1
102
RTVSPropertyOp40
 70
     1
102
RTVSPropertyOp41
 70
     1
102
RTVSPropertyOp42
 70
     1
102
RTVSPropertyOp43
 70
     1
102
RTVSPropertyOp44
 70
     1
102
RTVSPropertyOp45
 70
     1
102
RTVSPropertyOp46
 70
     1
102
RTVSPropertyOp47
 70
     1
102
RTVSPropertyOp48
 70
     1
102
RTVSPropertyOp49
 70
     1
102
RTVSPropertyOp50
 70
     1
102
RTVSPropertyOp51
 70
     0
102
RTVSPropertyOp52
 70
     0
102
RTVSPropertyOp53
 70
     1
102
RTVSPropertyOp54
 70
     1
102
RTVSPropertyOp55
 70
     1
102
RTVSPropertyOp56
 70
     1
102
RTVSPropertyOp57
 70
     1
102
RTVSPropertyOp58
 70
     1
102
RTVSPropertyOp59
 70
     1
102
RTVSPropertyOp60
 70
     1
102
RTVSPropertyOp61
 70
     1
102
RTVSPropertyOp62
 70
     1
  0
XRECORD
  5
D5C
102
{ACAD_REACTORS
330
D5B
102
}
330
D5B
100
AcDbXrecord
280
     1
102
RTVSPost2010Prop28
280
     0
102
RTVSPost2010PropOp28
 70
     1
102
RTVSPost2010Prop29
280
     1
102
RTVSPost2010PropOp29
 70
     1
102
RTVSPost2010Prop30
280
     1
102
RTVSPost2010PropOp30
 70
     1
102
RTVSPost2010Prop31
280
     0
102
RTVSPost2010PropOp31
 70
     1
102
RTVSPost2010Prop32
280
     0
102
RTVSPost2010PropOp32
 70
     1
102
RTVSPost2010Prop33
280
     0
102
RTVSPost2010PropOp33
 70
     1
102
RTVSPost2010Prop34
280
     0
102
RTVSPost2010PropOp34
 70
     1
102
RTVSPost2010Prop35
280
     0
102
RTVSPost2010PropOp35
 70
     1
102
RTVSPost2010Prop36
280
     0
102
RTVSPost2010PropOp36
 70
     1
102
RTVSPost2010Prop37
 90
       50
102
RTVSPost2010PropOp37
 70
     1
102
RTVSPost2010Prop38
140
0.0
102
RTVSPost2010PropOp38
 70
     1
102
RTVSPost2010Prop39
140
1.0
102
RTVSPost2010PropOp39
 70
     1
102
RTVSPost2010Prop40
 90
        0
102
RTVSPost2010PropOp40
 70
     1
102
RTVSPost2010Prop41ColorIndex
 90
       18
102
RTVSPost2010Prop41ColorRGB
 90
-16777216
102
RTVSPost2010PropOp41
 70
     1
102
RTVSPost2010Prop42
 90
       50
102
RTVSPost2010PropOp42
 70
     1
102
RTVSPost2010Prop43
 90
        3
102
RTVSPost2010PropOp43
 70
     1
102
RTVSPost2010Prop44ColorIndex
 90
        5
102
RTVSPost2010Prop44ColorRGB
 90
      255
102
RTVSPost2010PropOp44
 70
     1
102
RTVSPost2010Prop45
280
     0
102
RTVSPost2010PropOp45
 70
     1
102
RTVSPost2010Prop46
 90
       50
102
RTVSPost2010PropOp46
 70
     1
102
RTVSPost2010Prop47
 90
       50
102
RTVSPost2010PropOp47
 70
     1
102
RTVSPost2010Prop48
 90
       50
102
RTVSPost2010PropOp48
 70
     1
102
RTVSPost2010Prop49
280
     0
102
RTVSPost2010PropOp49
 70
     1
102
RTVSPost2010Prop50
 90
       50
102
RTVSPost2010PropOp50
 70
     1
102
RTVSPost2010Prop51ColorIndex
 90
      256
102
RTVSPost2010Prop51ColorRGB
 90
-16777216
102
RTVSPost2010PropOp51
 70
     0
102
RTVSPost2010Prop52
140
1.0
102
RTVSPost2010PropOp52
 70
     0
102
RTVSPost2010Prop53
 90
        2
102
RTVSPost2010PropOp53
 70
     1
102
RTVSPost2010Prop54
  1
strokes_ogs.tif
102
RTVSPost2010PropOp54
 70
     1
102
RTVSPost2010Prop55
280
     0
102
RTVSPost2010PropOp55
 70
     1
102
RTVSPost2010Prop56
140
1.0
102
RTVSPost2010PropOp56
 70
     1
102
RTVSPost2010Prop57
140
1.0
102
RTVSPost2010PropOp57
 70
     1
102
RTVSPropertyOp0
 70
     1
102
RTVSPropertyOp1
 70
     1
102
RTVSPropertyOp2
 70
     1
102
RTVSPropertyOp3
 70
     1
102
RTVSPropertyOp4
 70
     1
102
RTVSPropertyOp5
 70
     1
102
RTVSPropertyOp6
 70
     1
102
RTVSPropertyOp7
 70
     1
102
RTVSPropertyOp8
 70
     1
102
RTVSPropertyOp9
 70
     1
102
RTVSPropertyOp10
 70
     1
102
RTVSPropertyOp11
 70
     1
102
RTVSPropertyOp12
 70
     1
102
RTVSPropertyOp13
 70
     1
102
RTVSPropertyOp14
 70
     1
102
RTVSPropertyOp15
 70
     1
102
RTVSPropertyOp16
 70
     1
102
RTVSPropertyOp17
 70
     1
102
RTVSPropertyOp18
 70
     1
102
RTVSPropertyOp19
 70
     1
102
RTVSPropertyOp20
 70
     1
102
RTVSPropertyOp21
 70
     1
102
RTVSPropertyOp22
 70
     1
102
RTVSPropertyOp23
 70
     1
102
RTVSPropertyOp24
 70
     1
102
RTVSPropertyOp25
 70
     1
102
RTVSPropertyOp26
 70
     1
102
RTVSPropertyOp27
 70
     1
102
RTVSPropertyOp28
 70
     1
102
RTVSPropertyOp29
 70
     1
102
RTVSPropertyOp30
 70
     1
102
RTVSPropertyOp31
 70
     1
102
RTVSPropertyOp32
 70
     1
102
RTVSPropertyOp33
 70
     1
102
RTVSPropertyOp34
 70
     1
102
RTVSPropertyOp35
 70
     1
102
RTVSPropertyOp36
 70
     1
102
RTVSPropertyOp37
 70
     1
102
RTVSPropertyOp38
 70
     1
102
RTVSPropertyOp39
 70
     1
102
RTVSPropertyOp40
 70
     1
102
RTVSPropertyOp41
 70
     1
102
RTVSPropertyOp42
 70
     1
102
RTVSPropertyOp43
 70
     1
102
RTVSPropertyOp44
 70
     1
102
RTVSPropertyOp45
 70
     1
102
RTVSPropertyOp46
 70
     1
102
RTVSPropertyOp47
 70
     1
102
RTVSPropertyOp48
 70
     1
102
RTVSPropertyOp49
 70
     1
102
RTVSPropertyOp50
 70
     1
102
RTVSPropertyOp51
 70
     0
102
RTVSPropertyOp52
 70
     0
102
RTVSPropertyOp53
 70
     1
102
RTVSPropertyOp54
 70
     1
102
RTVSPropertyOp55
 70
     1
102
RTVSPropertyOp56
 70
     1
102
RTVSPropertyOp57
 70
     1
102
RTVSPropertyOp58
 70
     1
102
RTVSPropertyOp59
 70
     1
102
RTVSPropertyOp60
 70
     1
102
RTVSPropertyOp61
 70
     1
102
RTVSPropertyOp62
 70
     1
  0
XRECORD
  5
D5E
102
{ACAD_REACTORS
330
D5D
102
}
330
D5D
100
AcDbXrecord
280
     1
102
RTVSPost2010Prop28
280
     0
102
RTVSPost2010PropOp28
 70
     1
102
RTVSPost2010Prop29
280
     1
102
RTVSPost2010PropOp29
 70
     1
102
RTVSPost2010Prop30
280
     1
102
RTVSPost2010PropOp30
 70
     1
102
RTVSPost2010Prop31
280
     0
102
RTVSPost2010PropOp31
 70
     1
102
RTVSPost2010Prop32
280
     0
102
RTVSPost2010PropOp32
 70
     1
102
RTVSPost2010Prop33
280
     0
102
RTVSPost2010PropOp33
 70
     1
102
RTVSPost2010Prop34
280
     0
102
RTVSPost2010PropOp34
 70
     1
102
RTVSPost2010Prop35
280
     0
102
RTVSPost2010PropOp35
 70
     1
102
RTVSPost2010Prop36
280
     0
102
RTVSPost2010PropOp36
 70
     1
102
RTVSPost2010Prop37
 90
       50
102
RTVSPost2010PropOp37
 70
     1
102
RTVSPost2010Prop38
140
0.0
102
RTVSPost2010PropOp38
 70
     1
102
RTVSPost2010Prop39
140
1.0
102
RTVSPost2010PropOp39
 70
     1
102
RTVSPost2010Prop40
 90
        0
102
RTVSPost2010PropOp40
 70
     1
102
RTVSPost2010Prop41ColorIndex
 90
       18
102
RTVSPost2010Prop41ColorRGB
 90
-16777216
102
RTVSPost2010PropOp41
 70
     1
102
RTVSPost2010Prop42
 90
       50
102
RTVSPost2010PropOp42
 70
     1
102
RTVSPost2010Prop43
 90
        3
102
RTVSPost2010PropOp43
 70
     1
102
RTVSPost2010Prop44ColorIndex
 90
        5
102
RTVSPost2010Prop44ColorRGB
 90
      255
102
RTVSPost2010PropOp44
 70
     1
102
RTVSPost2010Prop45
280
     0
102
RTVSPost2010PropOp45
 70
     1
102
RTVSPost2010Prop46
 90
       50
102
RTVSPost2010PropOp46
 70
     1
102
RTVSPost2010Prop47
 90
       50
102
RTVSPost2010PropOp47
 70
     1
102
RTVSPost2010Prop48
 90
       50
102
RTVSPost2010PropOp48
 70
     1
102
RTVSPost2010Prop49
280
     0
102
RTVSPost2010PropOp49
 70
     1
102
RTVSPost2010Prop50
 90
       50
102
RTVSPost2010PropOp50
 70
     1
102
RTVSPost2010Prop51ColorIndex
 90
      256
102
RTVSPost2010Prop51ColorRGB
 90
-16777216
102
RTVSPost2010PropOp51
 70
     0
102
RTVSPost2010Prop52
140
1.0
102
RTVSPost2010PropOp52
 70
     0
102
RTVSPost2010Prop53
 90
        2
102
RTVSPost2010PropOp53
 70
     1
102
RTVSPost2010Prop54
  1
strokes_ogs.tif
102
RTVSPost2010PropOp54
 70
     1
102
RTVSPost2010Prop55
280
     0
102
RTVSPost2010PropOp55
 70
     1
102
RTVSPost2010Prop56
140
1.0
102
RTVSPost2010PropOp56
 70
     1
102
RTVSPost2010Prop57
140
1.0
102
RTVSPost2010PropOp57
 70
     1
102
RTVSPropertyOp0
 70
     1
102
RTVSPropertyOp1
 70
     1
102
RTVSPropertyOp2
 70
     1
102
RTVSPropertyOp3
 70
     1
102
RTVSPropertyOp4
 70
     1
102
RTVSPropertyOp5
 70
     1
102
RTVSPropertyOp6
 70
     1
102
RTVSPropertyOp7
 70
     1
102
RTVSPropertyOp8
 70
     1
102
RTVSPropertyOp9
 70
     1
102
RTVSPropertyOp10
 70
     1
102
RTVSPropertyOp11
 70
     1
102
RTVSPropertyOp12
 70
     1
102
RTVSPropertyOp13
 70
     1
102
RTVSPropertyOp14
 70
     1
102
RTVSPropertyOp15
 70
     1
102
RTVSPropertyOp16
 70
     1
102
RTVSPropertyOp17
 70
     1
102
RTVSPropertyOp18
 70
     1
102
RTVSPropertyOp19
 70
     1
102
RTVSPropertyOp20
 70
     1
102
RTVSPropertyOp21
 70
     1
102
RTVSPropertyOp22
 70
     1
102
RTVSPropertyOp23
 70
     1
102
RTVSPropertyOp24
 70
     1
102
RTVSPropertyOp25
 70
     1
102
RTVSPropertyOp26
 70
     1
102
RTVSPropertyOp27
 70
     1
102
RTVSPropertyOp28
 70
     1
102
RTVSPropertyOp29
 70
     1
102
RTVSPropertyOp30
 70
     1
102
RTVSPropertyOp31
 70
     1
102
RTVSPropertyOp32
 70
     1
102
RTVSPropertyOp33
 70
     1
102
RTVSPropertyOp34
 70
     1
102
RTVSPropertyOp35
 70
     1
102
RTVSPropertyOp36
 70
     1
102
RTVSPropertyOp37
 70
     1
102
RTVSPropertyOp38
 70
     1
102
RTVSPropertyOp39
 70
     1
102
RTVSPropertyOp40
 70
     1
102
RTVSPropertyOp41
 70
     1
102
RTVSPropertyOp42
 70
     1
102
RTVSPropertyOp43
 70
     1
102
RTVSPropertyOp44
 70
     1
102
RTVSPropertyOp45
 70
     1
102
RTVSPropertyOp46
 70
     1
102
RTVSPropertyOp47
 70
     1
102
RTVSPropertyOp48
 70
     1
102
RTVSPropertyOp49
 70
     1
102
RTVSPropertyOp50
 70
     1
102
RTVSPropertyOp51
 70
     0
102
RTVSPropertyOp52
 70
     0
102
RTVSPropertyOp53
 70
     1
102
RTVSPropertyOp54
 70
     1
102
RTVSPropertyOp55
 70
     1
102
RTVSPropertyOp56
 70
     1
102
RTVSPropertyOp57
 70
     1
102
RTVSPropertyOp58
 70
     1
102
RTVSPropertyOp59
 70
     1
102
RTVSPropertyOp60
 70
     1
102
RTVSPropertyOp61
 70
     1
102
RTVSPropertyOp62
 70
     1
  0
XRECORD
  5
D60
102
{ACAD_REACTORS
330
D5F
102
}
330
D5F
100
AcDbXrecord
280
     1
102
RTVSPost2010Prop28
280
     0
102
RTVSPost2010PropOp28
 70
     1
102
RTVSPost2010Prop29
280
     1
102
RTVSPost2010PropOp29
 70
     1
102
RTVSPost2010Prop30
280
     1
102
RTVSPost2010PropOp30
 70
     1
102
RTVSPost2010Prop31
280
     0
102
RTVSPost2010PropOp31
 70
     1
102
RTVSPost2010Prop32
280
     0
102
RTVSPost2010PropOp32
 70
     1
102
RTVSPost2010Prop33
280
     0
102
RTVSPost2010PropOp33
 70
     1
102
RTVSPost2010Prop34
280
     0
102
RTVSPost2010PropOp34
 70
     1
102
RTVSPost2010Prop35
280
     0
102
RTVSPost2010PropOp35
 70
     1
102
RTVSPost2010Prop36
280
     0
102
RTVSPost2010PropOp36
 70
     1
102
RTVSPost2010Prop37
 90
       50
102
RTVSPost2010PropOp37
 70
     1
102
RTVSPost2010Prop38
140
0.0
102
RTVSPost2010PropOp38
 70
     1
102
RTVSPost2010Prop39
140
1.0
102
RTVSPost2010PropOp39
 70
     1
102
RTVSPost2010Prop40
 90
        0
102
RTVSPost2010PropOp40
 70
     1
102
RTVSPost2010Prop41ColorIndex
 90
       18
102
RTVSPost2010Prop41ColorRGB
 90
-16777216
102
RTVSPost2010PropOp41
 70
     1
102
RTVSPost2010Prop42
 90
       50
102
RTVSPost2010PropOp42
 70
     1
102
RTVSPost2010Prop43
 90
        3
102
RTVSPost2010PropOp43
 70
     1
102
RTVSPost2010Prop44ColorIndex
 90
        5
102
RTVSPost2010Prop44ColorRGB
 90
      255
102
RTVSPost2010PropOp44
 70
     1
102
RTVSPost2010Prop45
280
     0
102
RTVSPost2010PropOp45
 70
     1
102
RTVSPost2010Prop46
 90
       50
102
RTVSPost2010PropOp46
 70
     1
102
RTVSPost2010Prop47
 90
       50
102
RTVSPost2010PropOp47
 70
     1
102
RTVSPost2010Prop48
 90
       50
102
RTVSPost2010PropOp48
 70
     1
102
RTVSPost2010Prop49
280
     0
102
RTVSPost2010PropOp49
 70
     1
102
RTVSPost2010Prop50
 90
       50
102
RTVSPost2010PropOp50
 70
     1
102
RTVSPost2010Prop51ColorIndex
 90
      256
102
RTVSPost2010Prop51ColorRGB
 90
-16777216
102
RTVSPost2010PropOp51
 70
     0
102
RTVSPost2010Prop52
140
1.0
102
RTVSPost2010PropOp52
 70
     0
102
RTVSPost2010Prop53
 90
        2
102
RTVSPost2010PropOp53
 70
     1
102
RTVSPost2010Prop54
  1
strokes_ogs.tif
102
RTVSPost2010PropOp54
 70
     1
102
RTVSPost2010Prop55
280
     0
102
RTVSPost2010PropOp55
 70
     1
102
RTVSPost2010Prop56
140
1.0
102
RTVSPost2010PropOp56
 70
     1
102
RTVSPost2010Prop57
140
1.0
102
RTVSPost2010PropOp57
 70
     1
102
RTVSPropertyOp0
 70
     1
102
RTVSPropertyOp1
 70
     1
102
RTVSPropertyOp2
 70
     1
102
RTVSPropertyOp3
 70
     1
102
RTVSPropertyOp4
 70
     1
102
RTVSPropertyOp5
 70
     1
102
RTVSPropertyOp6
 70
     1
102
RTVSPropertyOp7
 70
     1
102
RTVSPropertyOp8
 70
     1
102
RTVSPropertyOp9
 70
     1
102
RTVSPropertyOp10
 70
     1
102
RTVSPropertyOp11
 70
     1
102
RTVSPropertyOp12
 70
     1
102
RTVSPropertyOp13
 70
     1
102
RTVSPropertyOp14
 70
     1
102
RTVSPropertyOp15
 70
     1
102
RTVSPropertyOp16
 70
     1
102
RTVSPropertyOp17
 70
     1
102
RTVSPropertyOp18
 70
     1
102
RTVSPropertyOp19
 70
     1
102
RTVSPropertyOp20
 70
     1
102
RTVSPropertyOp21
 70
     1
102
RTVSPropertyOp22
 70
     1
102
RTVSPropertyOp23
 70
     1
102
RTVSPropertyOp24
 70
     1
102
RTVSPropertyOp25
 70
     1
102
RTVSPropertyOp26
 70
     1
102
RTVSPropertyOp27
 70
     1
102
RTVSPropertyOp28
 70
     1
102
RTVSPropertyOp29
 70
     1
102
RTVSPropertyOp30
 70
     1
102
RTVSPropertyOp31
 70
     1
102
RTVSPropertyOp32
 70
     1
102
RTVSPropertyOp33
 70
     1
102
RTVSPropertyOp34
 70
     1
102
RTVSPropertyOp35
 70
     1
102
RTVSPropertyOp36
 70
     1
102
RTVSPropertyOp37
 70
     1
102
RTVSPropertyOp38
 70
     1
102
RTVSPropertyOp39
 70
     1
102
RTVSPropertyOp40
 70
     1
102
RTVSPropertyOp41
 70
     1
102
RTVSPropertyOp42
 70
     1
102
RTVSPropertyOp43
 70
     1
102
RTVSPropertyOp44
 70
     1
102
RTVSPropertyOp45
 70
     1
102
RTVSPropertyOp46
 70
     1
102
RTVSPropertyOp47
 70
     1
102
RTVSPropertyOp48
 70
     1
102
RTVSPropertyOp49
 70
     1
102
RTVSPropertyOp50
 70
     1
102
RTVSPropertyOp51
 70
     0
102
RTVSPropertyOp52
 70
     0
102
RTVSPropertyOp53
 70
     1
102
RTVSPropertyOp54
 70
     1
102
RTVSPropertyOp55
 70
     1
102
RTVSPropertyOp56
 70
     1
102
RTVSPropertyOp57
 70
     1
102
RTVSPropertyOp58
 70
     1
102
RTVSPropertyOp59
 70
     1
102
RTVSPropertyOp60
 70
     1
102
RTVSPropertyOp61
 70
     1
102
RTVSPropertyOp62
 70
     1
  0
XRECORD
  5
D68
102
{ACAD_REACTORS
330
D67
102
}
330
D67
100
AcDbXrecord
280
     1
102
RTVSPost2010Prop28
280
     0
102
RTVSPost2010PropOp28
 70
     1
102
RTVSPost2010Prop29
280
     1
102
RTVSPost2010PropOp29
 70
     1
102
RTVSPost2010Prop30
280
     1
102
RTVSPost2010PropOp30
 70
     1
102
RTVSPost2010Prop31
280
     0
102
RTVSPost2010PropOp31
 70
     1
102
RTVSPost2010Prop32
280
     0
102
RTVSPost2010PropOp32
 70
     1
102
RTVSPost2010Prop33
280
     0
102
RTVSPost2010PropOp33
 70
     1
102
RTVSPost2010Prop34
280
     0
102
RTVSPost2010PropOp34
 70
     1
102
RTVSPost2010Prop35
280
     0
102
RTVSPost2010PropOp35
 70
     1
102
RTVSPost2010Prop36
280
     0
102
RTVSPost2010PropOp36
 70
     1
102
RTVSPost2010Prop37
 90
       50
102
RTVSPost2010PropOp37
 70
     1
102
RTVSPost2010Prop38
140
0.0
102
RTVSPost2010PropOp38
 70
     1
102
RTVSPost2010Prop39
140
1.0
102
RTVSPost2010PropOp39
 70
     1
102
RTVSPost2010Prop40
 90
        0
102
RTVSPost2010PropOp40
 70
     1
102
RTVSPost2010Prop41ColorIndex
 90
       18
102
RTVSPost2010Prop41ColorRGB
 90
-16777216
102
RTVSPost2010PropOp41
 70
     1
102
RTVSPost2010Prop42
 90
       50
102
RTVSPost2010PropOp42
 70
     1
102
RTVSPost2010Prop43
 90
        3
102
RTVSPost2010PropOp43
 70
     1
102
RTVSPost2010Prop44ColorIndex
 90
        5
102
RTVSPost2010Prop44ColorRGB
 90
      255
102
RTVSPost2010PropOp44
 70
     1
102
RTVSPost2010Prop45
280
     0
102
RTVSPost2010PropOp45
 70
     1
102
RTVSPost2010Prop46
 90
       50
102
RTVSPost2010PropOp46
 70
     1
102
RTVSPost2010Prop47
 90
       50
102
RTVSPost2010PropOp47
 70
     1
102
RTVSPost2010Prop48
 90
       50
102
RTVSPost2010PropOp48
 70
     1
102
RTVSPost2010Prop49
280
     0
102
RTVSPost2010PropOp49
 70
     1
102
RTVSPost2010Prop50
 90
       50
102
RTVSPost2010PropOp50
 70
     1
102
RTVSPost2010Prop51ColorIndex
 90
      256
102
RTVSPost2010Prop51ColorRGB
 90
-16777216
102
RTVSPost2010PropOp51
 70
     0
102
RTVSPost2010Prop52
140
1.0
102
RTVSPost2010PropOp52
 70
     0
102
RTVSPost2010Prop53
 90
        2
102
RTVSPost2010PropOp53
 70
     1
102
RTVSPost2010Prop54
  1
strokes_ogs.tif
102
RTVSPost2010PropOp54
 70
     1
102
RTVSPost2010Prop55
280
     0
102
RTVSPost2010PropOp55
 70
     1
102
RTVSPost2010Prop56
140
1.0
102
RTVSPost2010PropOp56
 70
     1
102
RTVSPost2010Prop57
140
1.0
102
RTVSPost2010PropOp57
 70
     1
102
RTVSPropertyOp0
 70
     1
102
RTVSPropertyOp1
 70
     1
102
RTVSPropertyOp2
 70
     1
102
RTVSPropertyOp3
 70
     1
102
RTVSPropertyOp4
 70
     1
102
RTVSPropertyOp5
 70
     1
102
RTVSPropertyOp6
 70
     1
102
RTVSPropertyOp7
 70
     1
102
RTVSPropertyOp8
 70
     1
102
RTVSPropertyOp9
 70
     1
102
RTVSPropertyOp10
 70
     1
102
RTVSPropertyOp11
 70
     1
102
RTVSPropertyOp12
 70
     1
102
RTVSPropertyOp13
 70
     1
102
RTVSPropertyOp14
 70
     1
102
RTVSPropertyOp15
 70
     1
102
RTVSPropertyOp16
 70
     1
102
RTVSPropertyOp17
 70
     1
102
RTVSPropertyOp18
 70
     1
102
RTVSPropertyOp19
 70
     1
102
RTVSPropertyOp20
 70
     1
102
RTVSPropertyOp21
 70
     1
102
RTVSPropertyOp22
 70
     1
102
RTVSPropertyOp23
 70
     1
102
RTVSPropertyOp24
 70
     1
102
RTVSPropertyOp25
 70
     1
102
RTVSPropertyOp26
 70
     1
102
RTVSPropertyOp27
 70
     1
102
RTVSPropertyOp28
 70
     1
102
RTVSPropertyOp29
 70
     1
102
RTVSPropertyOp30
 70
     1
102
RTVSPropertyOp31
 70
     1
102
RTVSPropertyOp32
 70
     1
102
RTVSPropertyOp33
 70
     1
102
RTVSPropertyOp34
 70
     1
102
RTVSPropertyOp35
 70
     1
102
RTVSPropertyOp36
 70
     1
102
RTVSPropertyOp37
 70
     1
102
RTVSPropertyOp38
 70
     1
102
RTVSPropertyOp39
 70
     1
102
RTVSPropertyOp40
 70
     1
102
RTVSPropertyOp41
 70
     1
102
RTVSPropertyOp42
 70
     1
102
RTVSPropertyOp43
 70
     1
102
RTVSPropertyOp44
 70
     1
102
RTVSPropertyOp45
 70
     1
102
RTVSPropertyOp46
 70
     1
102
RTVSPropertyOp47
 70
     1
102
RTVSPropertyOp48
 70
     1
102
RTVSPropertyOp49
 70
     1
102
RTVSPropertyOp50
 70
     1
102
RTVSPropertyOp51
 70
     0
102
RTVSPropertyOp52
 70
     0
102
RTVSPropertyOp53
 70
     1
102
RTVSPropertyOp54
 70
     1
102
RTVSPropertyOp55
 70
     1
102
RTVSPropertyOp56
 70
     1
102
RTVSPropertyOp57
 70
     1
102
RTVSPropertyOp58
 70
     1
102
RTVSPropertyOp59
 70
     1
102
RTVSPropertyOp60
 70
     1
102
RTVSPropertyOp61
 70
     1
102
RTVSPropertyOp62
 70
     1
  0
XRECORD
  5
D84
102
{ACAD_REACTORS
330
D83
102
}
330
D83
100
AcDbXrecord
280
     1
102
RTVSPost2010Prop28
280
     0
102
RTVSPost2010PropOp28
 70
     0
102
RTVSPost2010Prop29
280
     1
102
RTVSPost2010PropOp29
 70
     0
102
RTVSPost2010Prop30
280
     1
102
RTVSPost2010PropOp30
 70
     0
102
RTVSPost2010Prop31
280
     0
102
RTVSPost2010PropOp31
 70
     0
102
RTVSPost2010Prop32
280
     0
102
RTVSPost2010PropOp32
 70
     0
102
RTVSPost2010Prop33
280
     0
102
RTVSPost2010PropOp33
 70
     0
102
RTVSPost2010Prop34
280
     0
102
RTVSPost2010PropOp34
 70
     0
102
RTVSPost2010Prop35
280
     0
102
RTVSPost2010PropOp35
 70
     0
102
RTVSPost2010Prop36
280
     0
102
RTVSPost2010PropOp36
 70
     0
102
RTVSPost2010Prop37
 90
       50
102
RTVSPost2010PropOp37
 70
     0
102
RTVSPost2010Prop38
140
0.0
102
RTVSPost2010PropOp38
 70
     0
102
RTVSPost2010Prop39
140
1.0
102
RTVSPost2010PropOp39
 70
     0
102
RTVSPost2010Prop40
 90
        0
102
RTVSPost2010PropOp40
 70
     0
102
RTVSPost2010Prop41ColorIndex
 90
       18
102
RTVSPost2010Prop41ColorRGB
 90
-16777216
102
RTVSPost2010PropOp41
 70
     0
102
RTVSPost2010Prop42
 90
       50
102
RTVSPost2010PropOp42
 70
     0
102
RTVSPost2010Prop43
 90
        3
102
RTVSPost2010PropOp43
 70
     0
102
RTVSPost2010Prop44ColorIndex
 90
        5
102
RTVSPost2010Prop44ColorRGB
 90
      255
102
RTVSPost2010PropOp44
 70
     0
102
RTVSPost2010Prop45
280
     0
102
RTVSPost2010PropOp45
 70
     0
102
RTVSPost2010Prop46
 90
       50
102
RTVSPost2010PropOp46
 70
     0
102
RTVSPost2010Prop47
 90
       50
102
RTVSPost2010PropOp47
 70
     0
102
RTVSPost2010Prop48
 90
       50
102
RTVSPost2010PropOp48
 70
     0
102
RTVSPost2010Prop49
280
     0
102
RTVSPost2010PropOp49
 70
     0
102
RTVSPost2010Prop50
 90
       50
102
RTVSPost2010PropOp50
 70
     0
102
RTVSPost2010Prop51ColorIndex
 90
      256
102
RTVSPost2010Prop51ColorRGB
 90
-16777216
102
RTVSPost2010PropOp51
 70
     0
102
RTVSPost2010Prop52
140
1.0
102
RTVSPost2010PropOp52
 70
     0
102
RTVSPost2010Prop53
 90
        2
102
RTVSPost2010PropOp53
 70
     0
102
RTVSPost2010Prop54
  1
strokes_ogs.tif
102
RTVSPost2010PropOp54
 70
     0
102
RTVSPost2010Prop55
280
     0
102
RTVSPost2010PropOp55
 70
     0
102
RTVSPost2010Prop56
140
1.0
102
RTVSPost2010PropOp56
 70
     0
102
RTVSPost2010Prop57
140
1.0
102
RTVSPost2010PropOp57
 70
     0
102
RTVSPropertyOp0
 70
     0
102
RTVSPropertyOp1
 70
     0
102
RTVSPropertyOp2
 70
     0
102
RTVSPropertyOp3
 70
     0
102
RTVSPropertyOp4
 70
     0
102
RTVSPropertyOp5
 70
     0
102
RTVSPropertyOp6
 70
     0
102
RTVSPropertyOp7
 70
     0
102
RTVSPropertyOp8
 70
     0
102
RTVSPropertyOp9
 70
     0
102
RTVSPropertyOp10
 70
     0
102
RTVSPropertyOp11
 70
     0
102
RTVSPropertyOp12
 70
     0
102
RTVSPropertyOp13
 70
     0
102
RTVSPropertyOp14
 70
     2
102
RTVSPropertyOp15
 70
     0
102
RTVSPropertyOp16
 70
     0
102
RTVSPropertyOp17
 70
     0
102
RTVSPropertyOp18
 70
     0
102
RTVSPropertyOp19
 70
     0
102
RTVSPropertyOp20
 70
     0
102
RTVSPropertyOp21
 70
     0
102
RTVSPropertyOp22
 70
     0
102
RTVSPropertyOp23
 70
     0
102
RTVSPropertyOp24
 70
     0
102
RTVSPropertyOp25
 70
     0
102
RTVSPropertyOp26
 70
     0
102
RTVSPropertyOp27
 70
     0
102
RTVSPropertyOp28
 70
     0
102
RTVSPropertyOp29
 70
     0
102
RTVSPropertyOp30
 70
     0
102
RTVSPropertyOp31
 70
     0
102
RTVSPropertyOp32
 70
     0
102
RTVSPropertyOp33
 70
     0
102
RTVSPropertyOp34
 70
     0
102
RTVSPropertyOp35
 70
     0
102
RTVSPropertyOp36
 70
     0
102
RTVSPropertyOp37
 70
     0
102
RTVSPropertyOp38
 70
     0
102
RTVSPropertyOp39
 70
     0
102
RTVSPropertyOp40
 70
     0
102
RTVSPropertyOp41
 70
     0
102
RTVSPropertyOp42
 70
     0
102
RTVSPropertyOp43
 70
     0
102
RTVSPropertyOp44
 70
     0
102
RTVSPropertyOp45
 70
     0
102
RTVSPropertyOp46
 70
     0
102
RTVSPropertyOp47
 70
     0
102
RTVSPropertyOp48
 70
     0
102
RTVSPropertyOp49
 70
     0
102
RTVSPropertyOp50
 70
     0
102
RTVSPropertyOp51
 70
     0
102
RTVSPropertyOp52
 70
     0
102
RTVSPropertyOp53
 70
     0
102
RTVSPropertyOp54
 70
     0
102
RTVSPropertyOp55
 70
     0
102
RTVSPropertyOp56
 70
     0
102
RTVSPropertyOp57
 70
     0
102
RTVSPropertyOp58
 70
     1
102
RTVSPropertyOp59
 70
     1
102
RTVSPropertyOp60
 70
     1
102
RTVSPropertyOp61
 70
     1
102
RTVSPropertyOp62
 70
     1
  0
XRECORD
  5
D74
102
{ACAD_REACTORS
330
D73
102
}
330
D73
100
AcDbXrecord
280
     1
102
RTVSPost2010Prop28
280
     0
102
RTVSPost2010PropOp28
 70
     1
102
RTVSPost2010Prop29
280
     1
102
RTVSPost2010PropOp29
 70
     1
102
RTVSPost2010Prop30
280
     1
102
RTVSPost2010PropOp30
 70
     1
102
RTVSPost2010Prop31
280
     0
102
RTVSPost2010PropOp31
 70
     1
102
RTVSPost2010Prop32
280
     0
102
RTVSPost2010PropOp32
 70
     1
102
RTVSPost2010Prop33
280
     0
102
RTVSPost2010PropOp33
 70
     1
102
RTVSPost2010Prop34
280
     0
102
RTVSPost2010PropOp34
 70
     1
102
RTVSPost2010Prop35
280
     0
102
RTVSPost2010PropOp35
 70
     1
102
RTVSPost2010Prop36
280
     0
102
RTVSPost2010PropOp36
 70
     1
102
RTVSPost2010Prop37
 90
       50
102
RTVSPost2010PropOp37
 70
     1
102
RTVSPost2010Prop38
140
0.0
102
RTVSPost2010PropOp38
 70
     1
102
RTVSPost2010Prop39
140
1.0
102
RTVSPost2010PropOp39
 70
     1
102
RTVSPost2010Prop40
 90
        0
102
RTVSPost2010PropOp40
 70
     1
102
RTVSPost2010Prop41ColorIndex
 90
       18
102
RTVSPost2010Prop41ColorRGB
 90
-16777216
102
RTVSPost2010PropOp41
 70
     1
102
RTVSPost2010Prop42
 90
       50
102
RTVSPost2010PropOp42
 70
     1
102
RTVSPost2010Prop43
 90
        3
102
RTVSPost2010PropOp43
 70
     1
102
RTVSPost2010Prop44ColorIndex
 90
        5
102
RTVSPost2010Prop44ColorRGB
 90
      255
102
RTVSPost2010PropOp44
 70
     1
102
RTVSPost2010Prop45
280
     0
102
RTVSPost2010PropOp45
 70
     1
102
RTVSPost2010Prop46
 90
       50
102
RTVSPost2010PropOp46
 70
     1
102
RTVSPost2010Prop47
 90
       50
102
RTVSPost2010PropOp47
 70
     1
102
RTVSPost2010Prop48
 90
       50
102
RTVSPost2010PropOp48
 70
     1
102
RTVSPost2010Prop49
280
     0
102
RTVSPost2010PropOp49
 70
     1
102
RTVSPost2010Prop50
 90
       50
102
RTVSPost2010PropOp50
 70
     1
102
RTVSPost2010Prop51ColorIndex
 90
      256
102
RTVSPost2010Prop51ColorRGB
 90
-16777216
102
RTVSPost2010PropOp51
 70
     0
102
RTVSPost2010Prop52
140
1.0
102
RTVSPost2010PropOp52
 70
     0
102
RTVSPost2010Prop53
 90
        2
102
RTVSPost2010PropOp53
 70
     1
102
RTVSPost2010Prop54
  1
strokes_ogs.tif
102
RTVSPost2010PropOp54
 70
     1
102
RTVSPost2010Prop55
280
     0
102
RTVSPost2010PropOp55
 70
     1
102
RTVSPost2010Prop56
140
1.0
102
RTVSPost2010PropOp56
 70
     1
102
RTVSPost2010Prop57
140
1.0
102
RTVSPost2010PropOp57
 70
     1
102
RTVSPropertyOp0
 70
     1
102
RTVSPropertyOp1
 70
     1
102
RTVSPropertyOp2
 70
     1
102
RTVSPropertyOp3
 70
     1
102
RTVSPropertyOp4
 70
     1
102
RTVSPropertyOp5
 70
     1
102
RTVSPropertyOp6
 70
     1
102
RTVSPropertyOp7
 70
     1
102
RTVSPropertyOp8
 70
     1
102
RTVSPropertyOp9
 70
     1
102
RTVSPropertyOp10
 70
     1
102
RTVSPropertyOp11
 70
     1
102
RTVSPropertyOp12
 70
     1
102
RTVSPropertyOp13
 70
     1
102
RTVSPropertyOp14
 70
     1
102
RTVSPropertyOp15
 70
     1
102
RTVSPropertyOp16
 70
     1
102
RTVSPropertyOp17
 70
     1
102
RTVSPropertyOp18
 70
     1
102
RTVSPropertyOp19
 70
     1
102
RTVSPropertyOp20
 70
     1
102
RTVSPropertyOp21
 70
     1
102
RTVSPropertyOp22
 70
     1
102
RTVSPropertyOp23
 70
     1
102
RTVSPropertyOp24
 70
     1
102
RTVSPropertyOp25
 70
     1
102
RTVSPropertyOp26
 70
     1
102
RTVSPropertyOp27
 70
     1
102
RTVSPropertyOp28
 70
     1
102
RTVSPropertyOp29
 70
     1
102
RTVSPropertyOp30
 70
     1
102
RTVSPropertyOp31
 70
     1
102
RTVSPropertyOp32
 70
     1
102
RTVSPropertyOp33
 70
     1
102
RTVSPropertyOp34
 70
     1
102
RTVSPropertyOp35
 70
     1
102
RTVSPropertyOp36
 70
     1
102
RTVSPropertyOp37
 70
     1
102
RTVSPropertyOp38
 70
     1
102
RTVSPropertyOp39
 70
     1
102
RTVSPropertyOp40
 70
     1
102
RTVSPropertyOp41
 70
     1
102
RTVSPropertyOp42
 70
     1
102
RTVSPropertyOp43
 70
     1
102
RTVSPropertyOp44
 70
     1
102
RTVSPropertyOp45
 70
     1
102
RTVSPropertyOp46
 70
     1
102
RTVSPropertyOp47
 70
     1
102
RTVSPropertyOp48
 70
     1
102
RTVSPropertyOp49
 70
     1
102
RTVSPropertyOp50
 70
     1
102
RTVSPropertyOp51
 70
     0
102
RTVSPropertyOp52
 70
     0
102
RTVSPropertyOp53
 70
     1
102
RTVSPropertyOp54
 70
     1
102
RTVSPropertyOp55
 70
     1
102
RTVSPropertyOp56
 70
     1
102
RTVSPropertyOp57
 70
     1
102
RTVSPropertyOp58
 70
     1
102
RTVSPropertyOp59
 70
     1
102
RTVSPropertyOp60
 70
     1
102
RTVSPropertyOp61
 70
     1
102
RTVSPropertyOp62
 70
     1
  0
XRECORD
  5
D86
102
{ACAD_REACTORS
330
D85
102
}
330
D85
100
AcDbXrecord
280
     1
102
RTVSPost2010Prop28
280
     0
102
RTVSPost2010PropOp28
 70
     0
102
RTVSPost2010Prop29
280
     1
102
RTVSPost2010PropOp29
 70
     0
102
RTVSPost2010Prop30
280
     1
102
RTVSPost2010PropOp30
 70
     0
102
RTVSPost2010Prop31
280
     0
102
RTVSPost2010PropOp31
 70
     0
102
RTVSPost2010Prop32
280
     0
102
RTVSPost2010PropOp32
 70
     0
102
RTVSPost2010Prop33
280
     0
102
RTVSPost2010PropOp33
 70
     0
102
RTVSPost2010Prop34
280
     0
102
RTVSPost2010PropOp34
 70
     0
102
RTVSPost2010Prop35
280
     0
102
RTVSPost2010PropOp35
 70
     0
102
RTVSPost2010Prop36
280
     0
102
RTVSPost2010PropOp36
 70
     0
102
RTVSPost2010Prop37
 90
       50
102
RTVSPost2010PropOp37
 70
     0
102
RTVSPost2010Prop38
140
0.0
102
RTVSPost2010PropOp38
 70
     0
102
RTVSPost2010Prop39
140
1.0
102
RTVSPost2010PropOp39
 70
     0
102
RTVSPost2010Prop40
 90
        0
102
RTVSPost2010PropOp40
 70
     0
102
RTVSPost2010Prop41ColorIndex
 90
       18
102
RTVSPost2010Prop41ColorRGB
 90
-16777216
102
RTVSPost2010PropOp41
 70
     0
102
RTVSPost2010Prop42
 90
       50
102
RTVSPost2010PropOp42
 70
     0
102
RTVSPost2010Prop43
 90
        3
102
RTVSPost2010PropOp43
 70
     0
102
RTVSPost2010Prop44ColorIndex
 90
        5
102
RTVSPost2010Prop44ColorRGB
 90
      255
102
RTVSPost2010PropOp44
 70
     0
102
RTVSPost2010Prop45
280
     0
102
RTVSPost2010PropOp45
 70
     0
102
RTVSPost2010Prop46
 90
       50
102
RTVSPost2010PropOp46
 70
     0
102
RTVSPost2010Prop47
 90
       50
102
RTVSPost2010PropOp47
 70
     0
102
RTVSPost2010Prop48
 90
       50
102
RTVSPost2010PropOp48
 70
     0
102
RTVSPost2010Prop49
280
     0
102
RTVSPost2010PropOp49
 70
     0
102
RTVSPost2010Prop50
 90
       50
102
RTVSPost2010PropOp50
 70
     0
102
RTVSPost2010Prop51ColorIndex
 90
      256
102
RTVSPost2010Prop51ColorRGB
 90
-16777216
102
RTVSPost2010PropOp51
 70
     0
102
RTVSPost2010Prop52
140
1.0
102
RTVSPost2010PropOp52
 70
     0
102
RTVSPost2010Prop53
 90
        2
102
RTVSPost2010PropOp53
 70
     0
102
RTVSPost2010Prop54
  1
strokes_ogs.tif
102
RTVSPost2010PropOp54
 70
     0
102
RTVSPost2010Prop55
280
     0
102
RTVSPost2010PropOp55
 70
     0
102
RTVSPost2010Prop56
140
1.0
102
RTVSPost2010PropOp56
 70
     0
102
RTVSPost2010Prop57
140
1.0
102
RTVSPost2010PropOp57
 70
     0
102
RTVSPropertyOp0
 70
     0
102
RTVSPropertyOp1
 70
     0
102
RTVSPropertyOp2
 70
     0
102
RTVSPropertyOp3
 70
     0
102
RTVSPropertyOp4
 70
     0
102
RTVSPropertyOp5
 70
     0
102
RTVSPropertyOp6
 70
     0
102
RTVSPropertyOp7
 70
     0
102
RTVSPropertyOp8
 70
     0
102
RTVSPropertyOp9
 70
     0
102
RTVSPropertyOp10
 70
     0
102
RTVSPropertyOp11
 70
     0
102
RTVSPropertyOp12
 70
     0
102
RTVSPropertyOp13
 70
     0
102
RTVSPropertyOp14
 70
     2
102
RTVSPropertyOp15
 70
     0
102
RTVSPropertyOp16
 70
     0
102
RTVSPropertyOp17
 70
     0
102
RTVSPropertyOp18
 70
     0
102
RTVSPropertyOp19
 70
     0
102
RTVSPropertyOp20
 70
     0
102
RTVSPropertyOp21
 70
     0
102
RTVSPropertyOp22
 70
     0
102
RTVSPropertyOp23
 70
     0
102
RTVSPropertyOp24
 70
     0
102
RTVSPropertyOp25
 70
     0
102
RTVSPropertyOp26
 70
     0
102
RTVSPropertyOp27
 70
     0
102
RTVSPropertyOp28
 70
     0
102
RTVSPropertyOp29
 70
     0
102
RTVSPropertyOp30
 70
     0
102
RTVSPropertyOp31
 70
     0
102
RTVSPropertyOp32
 70
     0
102
RTVSPropertyOp33
 70
     0
102
RTVSPropertyOp34
 70
     0
102
RTVSPropertyOp35
 70
     0
102
RTVSPropertyOp36
 70
     0
102
RTVSPropertyOp37
 70
     0
102
RTVSPropertyOp38
 70
     0
102
RTVSPropertyOp39
 70
     0
102
RTVSPropertyOp40
 70
     0
102
RTVSPropertyOp41
 70
     0
102
RTVSPropertyOp42
 70
     0
102
RTVSPropertyOp43
 70
     0
102
RTVSPropertyOp44
 70
     0
102
RTVSPropertyOp45
 70
     0
102
RTVSPropertyOp46
 70
     0
102
RTVSPropertyOp47
 70
     0
102
RTVSPropertyOp48
 70
     0
102
RTVSPropertyOp49
 70
     0
102
RTVSPropertyOp50
 70
     0
102
RTVSPropertyOp51
 70
     0
102
RTVSPropertyOp52
 70
     0
102
RTVSPropertyOp53
 70
     0
102
RTVSPropertyOp54
 70
     0
102
RTVSPropertyOp55
 70
     0
102
RTVSPropertyOp56
 70
     0
102
RTVSPropertyOp57
 70
     0
102
RTVSPropertyOp58
 70
     1
102
RTVSPropertyOp59
 70
     1
102
RTVSPropertyOp60
 70
     1
102
RTVSPropertyOp61
 70
     1
102
RTVSPropertyOp62
 70
     1
  0
XRECORD
  5
D6C
102
{ACAD_REACTORS
330
D6B
102
}
330
D6B
100
AcDbXrecord
280
     1
102
RTVSPost2010Prop28
280
     0
102
RTVSPost2010PropOp28
 70
     1
102
RTVSPost2010Prop29
280
     1
102
RTVSPost2010PropOp29
 70
     1
102
RTVSPost2010Prop30
280
     1
102
RTVSPost2010PropOp30
 70
     1
102
RTVSPost2010Prop31
280
     0
102
RTVSPost2010PropOp31
 70
     1
102
RTVSPost2010Prop32
280
     0
102
RTVSPost2010PropOp32
 70
     1
102
RTVSPost2010Prop33
280
     0
102
RTVSPost2010PropOp33
 70
     1
102
RTVSPost2010Prop34
280
     0
102
RTVSPost2010PropOp34
 70
     1
102
RTVSPost2010Prop35
280
     0
102
RTVSPost2010PropOp35
 70
     1
102
RTVSPost2010Prop36
280
     0
102
RTVSPost2010PropOp36
 70
     1
102
RTVSPost2010Prop37
 90
       50
102
RTVSPost2010PropOp37
 70
     1
102
RTVSPost2010Prop38
140
0.0
102
RTVSPost2010PropOp38
 70
     1
102
RTVSPost2010Prop39
140
1.0
102
RTVSPost2010PropOp39
 70
     1
102
RTVSPost2010Prop40
 90
        0
102
RTVSPost2010PropOp40
 70
     1
102
RTVSPost2010Prop41ColorIndex
 90
       18
102
RTVSPost2010Prop41ColorRGB
 90
-16777216
102
RTVSPost2010PropOp41
 70
     1
102
RTVSPost2010Prop42
 90
       50
102
RTVSPost2010PropOp42
 70
     1
102
RTVSPost2010Prop43
 90
        3
102
RTVSPost2010PropOp43
 70
     1
102
RTVSPost2010Prop44ColorIndex
 90
        5
102
RTVSPost2010Prop44ColorRGB
 90
      255
102
RTVSPost2010PropOp44
 70
     1
102
RTVSPost2010Prop45
280
     0
102
RTVSPost2010PropOp45
 70
     1
102
RTVSPost2010Prop46
 90
       50
102
RTVSPost2010PropOp46
 70
     1
102
RTVSPost2010Prop47
 90
       50
102
RTVSPost2010PropOp47
 70
     1
102
RTVSPost2010Prop48
 90
       50
102
RTVSPost2010PropOp48
 70
     1
102
RTVSPost2010Prop49
280
     0
102
RTVSPost2010PropOp49
 70
     1
102
RTVSPost2010Prop50
 90
       50
102
RTVSPost2010PropOp50
 70
     1
102
RTVSPost2010Prop51ColorIndex
 90
      256
102
RTVSPost2010Prop51ColorRGB
 90
-16777216
102
RTVSPost2010PropOp51
 70
     0
102
RTVSPost2010Prop52
140
1.0
102
RTVSPost2010PropOp52
 70
     0
102
RTVSPost2010Prop53
 90
        2
102
RTVSPost2010PropOp53
 70
     1
102
RTVSPost2010Prop54
  1
strokes_ogs.tif
102
RTVSPost2010PropOp54
 70
     1
102
RTVSPost2010Prop55
280
     0
102
RTVSPost2010PropOp55
 70
     1
102
RTVSPost2010Prop56
140
1.0
102
RTVSPost2010PropOp56
 70
     1
102
RTVSPost2010Prop57
140
1.0
102
RTVSPost2010PropOp57
 70
     1
102
RTVSPropertyOp0
 70
     1
102
RTVSPropertyOp1
 70
     1
102
RTVSPropertyOp2
 70
     1
102
RTVSPropertyOp3
 70
     1
102
RTVSPropertyOp4
 70
     1
102
RTVSPropertyOp5
 70
     1
102
RTVSPropertyOp6
 70
     1
102
RTVSPropertyOp7
 70
     1
102
RTVSPropertyOp8
 70
     1
102
RTVSPropertyOp9
 70
     1
102
RTVSPropertyOp10
 70
     1
102
RTVSPropertyOp11
 70
     1
102
RTVSPropertyOp12
 70
     1
102
RTVSPropertyOp13
 70
     1
102
RTVSPropertyOp14
 70
     1
102
RTVSPropertyOp15
 70
     1
102
RTVSPropertyOp16
 70
     1
102
RTVSPropertyOp17
 70
     1
102
RTVSPropertyOp18
 70
     1
102
RTVSPropertyOp19
 70
     1
102
RTVSPropertyOp20
 70
     1
102
RTVSPropertyOp21
 70
     1
102
RTVSPropertyOp22
 70
     1
102
RTVSPropertyOp23
 70
     1
102
RTVSPropertyOp24
 70
     1
102
RTVSPropertyOp25
 70
     1
102
RTVSPropertyOp26
 70
     1
102
RTVSPropertyOp27
 70
     1
102
RTVSPropertyOp28
 70
     1
102
RTVSPropertyOp29
 70
     1
102
RTVSPropertyOp30
 70
     1
102
RTVSPropertyOp31
 70
     1
102
RTVSPropertyOp32
 70
     1
102
RTVSPropertyOp33
 70
     1
102
RTVSPropertyOp34
 70
     1
102
RTVSPropertyOp35
 70
     1
102
RTVSPropertyOp36
 70
     1
102
RTVSPropertyOp37
 70
     1
102
RTVSPropertyOp38
 70
     1
102
RTVSPropertyOp39
 70
     1
102
RTVSPropertyOp40
 70
     1
102
RTVSPropertyOp41
 70
     1
102
RTVSPropertyOp42
 70
     1
102
RTVSPropertyOp43
 70
     1
102
RTVSPropertyOp44
 70
     1
102
RTVSPropertyOp45
 70
     1
102
RTVSPropertyOp46
 70
     1
102
RTVSPropertyOp47
 70
     1
102
RTVSPropertyOp48
 70
     1
102
RTVSPropertyOp49
 70
     1
102
RTVSPropertyOp50
 70
     1
102
RTVSPropertyOp51
 70
     0
102
RTVSPropertyOp52
 70
     0
102
RTVSPropertyOp53
 70
     1
102
RTVSPropertyOp54
 70
     1
102
RTVSPropertyOp55
 70
     1
102
RTVSPropertyOp56
 70
     1
102
RTVSPropertyOp57
 70
     1
102
RTVSPropertyOp58
 70
     1
102
RTVSPropertyOp59
 70
     1
102
RTVSPropertyOp60
 70
     1
102
RTVSPropertyOp61
 70
     1
102
RTVSPropertyOp62
 70
     1
  0
XRECORD
  5
D82
102
{ACAD_REACTORS
330
D81
102
}
330
D81
100
AcDbXrecord
280
     1
102
RTVSPost2010Prop28
280
     0
102
RTVSPost2010PropOp28
 70
     1
102
RTVSPost2010Prop29
280
     1
102
RTVSPost2010PropOp29
 70
     1
102
RTVSPost2010Prop30
280
     1
102
RTVSPost2010PropOp30
 70
     1
102
RTVSPost2010Prop31
280
     0
102
RTVSPost2010PropOp31
 70
     1
102
RTVSPost2010Prop32
280
     0
102
RTVSPost2010PropOp32
 70
     1
102
RTVSPost2010Prop33
280
     0
102
RTVSPost2010PropOp33
 70
     1
102
RTVSPost2010Prop34
280
     0
102
RTVSPost2010PropOp34
 70
     1
102
RTVSPost2010Prop35
280
     0
102
RTVSPost2010PropOp35
 70
     1
102
RTVSPost2010Prop36
280
     0
102
RTVSPost2010PropOp36
 70
     1
102
RTVSPost2010Prop37
 90
       50
102
RTVSPost2010PropOp37
 70
     1
102
RTVSPost2010Prop38
140
0.0
102
RTVSPost2010PropOp38
 70
     1
102
RTVSPost2010Prop39
140
1.0
102
RTVSPost2010PropOp39
 70
     1
102
RTVSPost2010Prop40
 90
        0
102
RTVSPost2010PropOp40
 70
     1
102
RTVSPost2010Prop41ColorIndex
 90
       18
102
RTVSPost2010Prop41ColorRGB
 90
-16777216
102
RTVSPost2010PropOp41
 70
     1
102
RTVSPost2010Prop42
 90
       50
102
RTVSPost2010PropOp42
 70
     1
102
RTVSPost2010Prop43
 90
        3
102
RTVSPost2010PropOp43
 70
     1
102
RTVSPost2010Prop44ColorIndex
 90
        5
102
RTVSPost2010Prop44ColorRGB
 90
      255
102
RTVSPost2010PropOp44
 70
     1
102
RTVSPost2010Prop45
280
     0
102
RTVSPost2010PropOp45
 70
     1
102
RTVSPost2010Prop46
 90
       50
102
RTVSPost2010PropOp46
 70
     1
102
RTVSPost2010Prop47
 90
       50
102
RTVSPost2010PropOp47
 70
     1
102
RTVSPost2010Prop48
 90
       50
102
RTVSPost2010PropOp48
 70
     1
102
RTVSPost2010Prop49
280
     0
102
RTVSPost2010PropOp49
 70
     1
102
RTVSPost2010Prop50
 90
       50
102
RTVSPost2010PropOp50
 70
     1
102
RTVSPost2010Prop51ColorIndex
 90
      256
102
RTVSPost2010Prop51ColorRGB
 90
-16777216
102
RTVSPost2010PropOp51
 70
     0
102
RTVSPost2010Prop52
140
1.0
102
RTVSPost2010PropOp52
 70
     0
102
RTVSPost2010Prop53
 90
        2
102
RTVSPost2010PropOp53
 70
     1
102
RTVSPost2010Prop54
  1
strokes_ogs.tif
102
RTVSPost2010PropOp54
 70
     1
102
RTVSPost2010Prop55
280
     0
102
RTVSPost2010PropOp55
 70
     1
102
RTVSPost2010Prop56
140
1.0
102
RTVSPost2010PropOp56
 70
     1
102
RTVSPost2010Prop57
140
1.0
102
RTVSPost2010PropOp57
 70
     1
102
RTVSPropertyOp0
 70
     1
102
RTVSPropertyOp1
 70
     1
102
RTVSPropertyOp2
 70
     1
102
RTVSPropertyOp3
 70
     1
102
RTVSPropertyOp4
 70
     1
102
RTVSPropertyOp5
 70
     1
102
RTVSPropertyOp6
 70
     1
102
RTVSPropertyOp7
 70
     1
102
RTVSPropertyOp8
 70
     1
102
RTVSPropertyOp9
 70
     1
102
RTVSPropertyOp10
 70
     1
102
RTVSPropertyOp11
 70
     1
102
RTVSPropertyOp12
 70
     1
102
RTVSPropertyOp13
 70
     1
102
RTVSPropertyOp14
 70
     1
102
RTVSPropertyOp15
 70
     1
102
RTVSPropertyOp16
 70
     1
102
RTVSPropertyOp17
 70
     1
102
RTVSPropertyOp18
 70
     1
102
RTVSPropertyOp19
 70
     1
102
RTVSPropertyOp20
 70
     1
102
RTVSPropertyOp21
 70
     1
102
RTVSPropertyOp22
 70
     1
102
RTVSPropertyOp23
 70
     1
102
RTVSPropertyOp24
 70
     1
102
RTVSPropertyOp25
 70
     1
102
RTVSPropertyOp26
 70
     1
102
RTVSPropertyOp27
 70
     1
102
RTVSPropertyOp28
 70
     1
102
RTVSPropertyOp29
 70
     1
102
RTVSPropertyOp30
 70
     1
102
RTVSPropertyOp31
 70
     1
102
RTVSPropertyOp32
 70
     1
102
RTVSPropertyOp33
 70
     1
102
RTVSPropertyOp34
 70
     1
102
RTVSPropertyOp35
 70
     1
102
RTVSPropertyOp36
 70
     1
102
RTVSPropertyOp37
 70
     1
102
RTVSPropertyOp38
 70
     1
102
RTVSPropertyOp39
 70
     1
102
RTVSPropertyOp40
 70
     1
102
RTVSPropertyOp41
 70
     1
102
RTVSPropertyOp42
 70
     1
102
RTVSPropertyOp43
 70
     1
102
RTVSPropertyOp44
 70
     1
102
RTVSPropertyOp45
 70
     1
102
RTVSPropertyOp46
 70
     1
102
RTVSPropertyOp47
 70
     1
102
RTVSPropertyOp48
 70
     1
102
RTVSPropertyOp49
 70
     1
102
RTVSPropertyOp50
 70
     1
102
RTVSPropertyOp51
 70
     0
102
RTVSPropertyOp52
 70
     0
102
RTVSPropertyOp53
 70
     1
102
RTVSPropertyOp54
 70
     1
102
RTVSPropertyOp55
 70
     1
102
RTVSPropertyOp56
 70
     1
102
RTVSPropertyOp57
 70
     1
102
RTVSPropertyOp58
 70
     1
102
RTVSPropertyOp59
 70
     1
102
RTVSPropertyOp60
 70
     1
102
RTVSPropertyOp61
 70
     1
102
RTVSPropertyOp62
 70
     1
  0
XRECORD
  5
D80
102
{ACAD_REACTORS
330
D7F
102
}
330
D7F
100
AcDbXrecord
280
     1
102
RTVSPost2010Prop28
280
     0
102
RTVSPost2010PropOp28
 70
     1
102
RTVSPost2010Prop29
280
     1
102
RTVSPost2010PropOp29
 70
     1
102
RTVSPost2010Prop30
280
     1
102
RTVSPost2010PropOp30
 70
     1
102
RTVSPost2010Prop31
280
     0
102
RTVSPost2010PropOp31
 70
     1
102
RTVSPost2010Prop32
280
     0
102
RTVSPost2010PropOp32
 70
     1
102
RTVSPost2010Prop33
280
     0
102
RTVSPost2010PropOp33
 70
     1
102
RTVSPost2010Prop34
280
     0
102
RTVSPost2010PropOp34
 70
     1
102
RTVSPost2010Prop35
280
     0
102
RTVSPost2010PropOp35
 70
     1
102
RTVSPost2010Prop36
280
     0
102
RTVSPost2010PropOp36
 70
     1
102
RTVSPost2010Prop37
 90
       50
102
RTVSPost2010PropOp37
 70
     1
102
RTVSPost2010Prop38
140
0.0
102
RTVSPost2010PropOp38
 70
     1
102
RTVSPost2010Prop39
140
1.0
102
RTVSPost2010PropOp39
 70
     1
102
RTVSPost2010Prop40
 90
        0
102
RTVSPost2010PropOp40
 70
     1
102
RTVSPost2010Prop41ColorIndex
 90
       18
102
RTVSPost2010Prop41ColorRGB
 90
-16777216
102
RTVSPost2010PropOp41
 70
     1
102
RTVSPost2010Prop42
 90
       50
102
RTVSPost2010PropOp42
 70
     1
102
RTVSPost2010Prop43
 90
        3
102
RTVSPost2010PropOp43
 70
     1
102
RTVSPost2010Prop44ColorIndex
 90
        5
102
RTVSPost2010Prop44ColorRGB
 90
      255
102
RTVSPost2010PropOp44
 70
     1
102
RTVSPost2010Prop45
280
     0
102
RTVSPost2010PropOp45
 70
     1
102
RTVSPost2010Prop46
 90
       50
102
RTVSPost2010PropOp46
 70
     1
102
RTVSPost2010Prop47
 90
       50
102
RTVSPost2010PropOp47
 70
     1
102
RTVSPost2010Prop48
 90
       50
102
RTVSPost2010PropOp48
 70
     1
102
RTVSPost2010Prop49
280
     0
102
RTVSPost2010PropOp49
 70
     1
102
RTVSPost2010Prop50
 90
       50
102
RTVSPost2010PropOp50
 70
     1
102
RTVSPost2010Prop51ColorIndex
 90
      256
102
RTVSPost2010Prop51ColorRGB
 90
-16777216
102
RTVSPost2010PropOp51
 70
     0
102
RTVSPost2010Prop52
140
1.0
102
RTVSPost2010PropOp52
 70
     0
102
RTVSPost2010Prop53
 90
        2
102
RTVSPost2010PropOp53
 70
     1
102
RTVSPost2010Prop54
  1
strokes_ogs.tif
102
RTVSPost2010PropOp54
 70
     1
102
RTVSPost2010Prop55
280
     0
102
RTVSPost2010PropOp55
 70
     1
102
RTVSPost2010Prop56
140
1.0
102
RTVSPost2010PropOp56
 70
     1
102
RTVSPost2010Prop57
140
1.0
102
RTVSPost2010PropOp57
 70
     1
102
RTVSPropertyOp0
 70
     1
102
RTVSPropertyOp1
 70
     1
102
RTVSPropertyOp2
 70
     1
102
RTVSPropertyOp3
 70
     1
102
RTVSPropertyOp4
 70
     1
102
RTVSPropertyOp5
 70
     1
102
RTVSPropertyOp6
 70
     1
102
RTVSPropertyOp7
 70
     1
102
RTVSPropertyOp8
 70
     1
102
RTVSPropertyOp9
 70
     1
102
RTVSPropertyOp10
 70
     1
102
RTVSPropertyOp11
 70
     1
102
RTVSPropertyOp12
 70
     1
102
RTVSPropertyOp13
 70
     1
102
RTVSPropertyOp14
 70
     1
102
RTVSPropertyOp15
 70
     1
102
RTVSPropertyOp16
 70
     1
102
RTVSPropertyOp17
 70
     1
102
RTVSPropertyOp18
 70
     1
102
RTVSPropertyOp19
 70
     1
102
RTVSPropertyOp20
 70
     1
102
RTVSPropertyOp21
 70
     1
102
RTVSPropertyOp22
 70
     1
102
RTVSPropertyOp23
 70
     1
102
RTVSPropertyOp24
 70
     1
102
RTVSPropertyOp25
 70
     1
102
RTVSPropertyOp26
 70
     1
102
RTVSPropertyOp27
 70
     1
102
RTVSPropertyOp28
 70
     1
102
RTVSPropertyOp29
 70
     1
102
RTVSPropertyOp30
 70
     1
102
RTVSPropertyOp31
 70
     1
102
RTVSPropertyOp32
 70
     1
102
RTVSPropertyOp33
 70
     1
102
RTVSPropertyOp34
 70
     1
102
RTVSPropertyOp35
 70
     1
102
RTVSPropertyOp36
 70
     1
102
RTVSPropertyOp37
 70
     1
102
RTVSPropertyOp38
 70
     1
102
RTVSPropertyOp39
 70
     1
102
RTVSPropertyOp40
 70
     1
102
RTVSPropertyOp41
 70
     1
102
RTVSPropertyOp42
 70
     1
102
RTVSPropertyOp43
 70
     1
102
RTVSPropertyOp44
 70
     1
102
RTVSPropertyOp45
 70
     1
102
RTVSPropertyOp46
 70
     1
102
RTVSPropertyOp47
 70
     1
102
RTVSPropertyOp48
 70
     1
102
RTVSPropertyOp49
 70
     1
102
RTVSPropertyOp50
 70
     1
102
RTVSPropertyOp51
 70
     0
102
RTVSPropertyOp52
 70
     0
102
RTVSPropertyOp53
 70
     1
102
RTVSPropertyOp54
 70
     1
102
RTVSPropertyOp55
 70
     1
102
RTVSPropertyOp56
 70
     1
102
RTVSPropertyOp57
 70
     1
102
RTVSPropertyOp58
 70
     1
102
RTVSPropertyOp59
 70
     1
102
RTVSPropertyOp60
 70
     1
102
RTVSPropertyOp61
 70
     1
102
RTVSPropertyOp62
 70
     1
  0
XRECORD
  5
D7A
102
{ACAD_REACTORS
330
D79
102
}
330
D79
100
AcDbXrecord
280
     1
102
RTVSPost2010Prop28
280
     0
102
RTVSPost2010PropOp28
 70
     1
102
RTVSPost2010Prop29
280
     1
102
RTVSPost2010PropOp29
 70
     1
102
RTVSPost2010Prop30
280
     1
102
RTVSPost2010PropOp30
 70
     1
102
RTVSPost2010Prop31
280
     0
102
RTVSPost2010PropOp31
 70
     1
102
RTVSPost2010Prop32
280
     0
102
RTVSPost2010PropOp32
 70
     1
102
RTVSPost2010Prop33
280
     0
102
RTVSPost2010PropOp33
 70
     1
102
RTVSPost2010Prop34
280
     0
102
RTVSPost2010PropOp34
 70
     1
102
RTVSPost2010Prop35
280
     0
102
RTVSPost2010PropOp35
 70
     1
102
RTVSPost2010Prop36
280
     0
102
RTVSPost2010PropOp36
 70
     1
102
RTVSPost2010Prop37
 90
       50
102
RTVSPost2010PropOp37
 70
     1
102
RTVSPost2010Prop38
140
0.0
102
RTVSPost2010PropOp38
 70
     1
102
RTVSPost2010Prop39
140
1.0
102
RTVSPost2010PropOp39
 70
     1
102
RTVSPost2010Prop40
 90
        0
102
RTVSPost2010PropOp40
 70
     1
102
RTVSPost2010Prop41ColorIndex
 90
       18
102
RTVSPost2010Prop41ColorRGB
 90
-16777216
102
RTVSPost2010PropOp41
 70
     1
102
RTVSPost2010Prop42
 90
       50
102
RTVSPost2010PropOp42
 70
     1
102
RTVSPost2010Prop43
 90
        3
102
RTVSPost2010PropOp43
 70
     1
102
RTVSPost2010Prop44ColorIndex
 90
        5
102
RTVSPost2010Prop44ColorRGB
 90
      255
102
RTVSPost2010PropOp44
 70
     1
102
RTVSPost2010Prop45
280
     0
102
RTVSPost2010PropOp45
 70
     1
102
RTVSPost2010Prop46
 90
       50
102
RTVSPost2010PropOp46
 70
     1
102
RTVSPost2010Prop47
 90
       50
102
RTVSPost2010PropOp47
 70
     1
102
RTVSPost2010Prop48
 90
       50
102
RTVSPost2010PropOp48
 70
     1
102
RTVSPost2010Prop49
280
     0
102
RTVSPost2010PropOp49
 70
     1
102
RTVSPost2010Prop50
 90
       50
102
RTVSPost2010PropOp50
 70
     1
102
RTVSPost2010Prop51ColorIndex
 90
      256
102
RTVSPost2010Prop51ColorRGB
 90
-16777216
102
RTVSPost2010PropOp51
 70
     0
102
RTVSPost2010Prop52
140
1.0
102
RTVSPost2010PropOp52
 70
     0
102
RTVSPost2010Prop53
 90
        2
102
RTVSPost2010PropOp53
 70
     1
102
RTVSPost2010Prop54
  1
strokes_ogs.tif
102
RTVSPost2010PropOp54
 70
     1
102
RTVSPost2010Prop55
280
     0
102
RTVSPost2010PropOp55
 70
     1
102
RTVSPost2010Prop56
140
1.0
102
RTVSPost2010PropOp56
 70
     1
102
RTVSPost2010Prop57
140
1.0
102
RTVSPost2010PropOp57
 70
     1
102
RTVSPropertyOp0
 70
     1
102
RTVSPropertyOp1
 70
     1
102
RTVSPropertyOp2
 70
     1
102
RTVSPropertyOp3
 70
     1
102
RTVSPropertyOp4
 70
     1
102
RTVSPropertyOp5
 70
     1
102
RTVSPropertyOp6
 70
     1
102
RTVSPropertyOp7
 70
     1
102
RTVSPropertyOp8
 70
     1
102
RTVSPropertyOp9
 70
     1
102
RTVSPropertyOp10
 70
     1
102
RTVSPropertyOp11
 70
     1
102
RTVSPropertyOp12
 70
     1
102
RTVSPropertyOp13
 70
     1
102
RTVSPropertyOp14
 70
     1
102
RTVSPropertyOp15
 70
     1
102
RTVSPropertyOp16
 70
     1
102
RTVSPropertyOp17
 70
     1
102
RTVSPropertyOp18
 70
     1
102
RTVSPropertyOp19
 70
     1
102
RTVSPropertyOp20
 70
     1
102
RTVSPropertyOp21
 70
     1
102
RTVSPropertyOp22
 70
     1
102
RTVSPropertyOp23
 70
     1
102
RTVSPropertyOp24
 70
     1
102
RTVSPropertyOp25
 70
     1
102
RTVSPropertyOp26
 70
     1
102
RTVSPropertyOp27
 70
     1
102
RTVSPropertyOp28
 70
     1
102
RTVSPropertyOp29
 70
     1
102
RTVSPropertyOp30
 70
     1
102
RTVSPropertyOp31
 70
     1
102
RTVSPropertyOp32
 70
     1
102
RTVSPropertyOp33
 70
     1
102
RTVSPropertyOp34
 70
     1
102
RTVSPropertyOp35
 70
     1
102
RTVSPropertyOp36
 70
     1
102
RTVSPropertyOp37
 70
     1
102
RTVSPropertyOp38
 70
     1
102
RTVSPropertyOp39
 70
     1
102
RTVSPropertyOp40
 70
     1
102
RTVSPropertyOp41
 70
     1
102
RTVSPropertyOp42
 70
     1
102
RTVSPropertyOp43
 70
     1
102
RTVSPropertyOp44
 70
     1
102
RTVSPropertyOp45
 70
     1
102
RTVSPropertyOp46
 70
     1
102
RTVSPropertyOp47
 70
     1
102
RTVSPropertyOp48
 70
     1
102
RTVSPropertyOp49
 70
     1
102
RTVSPropertyOp50
 70
     1
102
RTVSPropertyOp51
 70
     0
102
RTVSPropertyOp52
 70
     0
102
RTVSPropertyOp53
 70
     1
102
RTVSPropertyOp54
 70
     1
102
RTVSPropertyOp55
 70
     1
102
RTVSPropertyOp56
 70
     1
102
RTVSPropertyOp57
 70
     1
102
RTVSPropertyOp58
 70
     1
102
RTVSPropertyOp59
 70
     1
102
RTVSPropertyOp60
 70
     1
102
RTVSPropertyOp61
 70
     1
102
RTVSPropertyOp62
 70
     1
  0
XRECORD
  5
D7C
102
{ACAD_REACTORS
330
D7B
102
}
330
D7B
100
AcDbXrecord
280
     1
102
RTVSPost2010Prop28
280
     0
102
RTVSPost2010PropOp28
 70
     1
102
RTVSPost2010Prop29
280
     1
102
RTVSPost2010PropOp29
 70
     1
102
RTVSPost2010Prop30
280
     1
102
RTVSPost2010PropOp30
 70
     1
102
RTVSPost2010Prop31
280
     0
102
RTVSPost2010PropOp31
 70
     1
102
RTVSPost2010Prop32
280
     0
102
RTVSPost2010PropOp32
 70
     1
102
RTVSPost2010Prop33
280
     0
102
RTVSPost2010PropOp33
 70
     1
102
RTVSPost2010Prop34
280
     0
102
RTVSPost2010PropOp34
 70
     1
102
RTVSPost2010Prop35
280
     0
102
RTVSPost2010PropOp35
 70
     1
102
RTVSPost2010Prop36
280
     0
102
RTVSPost2010PropOp36
 70
     1
102
RTVSPost2010Prop37
 90
       50
102
RTVSPost2010PropOp37
 70
     1
102
RTVSPost2010Prop38
140
0.0
102
RTVSPost2010PropOp38
 70
     1
102
RTVSPost2010Prop39
140
1.0
102
RTVSPost2010PropOp39
 70
     1
102
RTVSPost2010Prop40
 90
        0
102
RTVSPost2010PropOp40
 70
     1
102
RTVSPost2010Prop41ColorIndex
 90
       18
102
RTVSPost2010Prop41ColorRGB
 90
-16777216
102
RTVSPost2010PropOp41
 70
     1
102
RTVSPost2010Prop42
 90
       50
102
RTVSPost2010PropOp42
 70
     1
102
RTVSPost2010Prop43
 90
        3
102
RTVSPost2010PropOp43
 70
     1
102
RTVSPost2010Prop44ColorIndex
 90
        5
102
RTVSPost2010Prop44ColorRGB
 90
      255
102
RTVSPost2010PropOp44
 70
     1
102
RTVSPost2010Prop45
280
     0
102
RTVSPost2010PropOp45
 70
     1
102
RTVSPost2010Prop46
 90
       50
102
RTVSPost2010PropOp46
 70
     1
102
RTVSPost2010Prop47
 90
       50
102
RTVSPost2010PropOp47
 70
     1
102
RTVSPost2010Prop48
 90
       50
102
RTVSPost2010PropOp48
 70
     1
102
RTVSPost2010Prop49
280
     0
102
RTVSPost2010PropOp49
 70
     1
102
RTVSPost2010Prop50
 90
       50
102
RTVSPost2010PropOp50
 70
     1
102
RTVSPost2010Prop51ColorIndex
 90
      256
102
RTVSPost2010Prop51ColorRGB
 90
-16777216
102
RTVSPost2010PropOp51
 70
     0
102
RTVSPost2010Prop52
140
1.0
102
RTVSPost2010PropOp52
 70
     0
102
RTVSPost2010Prop53
 90
        2
102
RTVSPost2010PropOp53
 70
     1
102
RTVSPost2010Prop54
  1
strokes_ogs.tif
102
RTVSPost2010PropOp54
 70
     1
102
RTVSPost2010Prop55
280
     0
102
RTVSPost2010PropOp55
 70
     1
102
RTVSPost2010Prop56
140
1.0
102
RTVSPost2010PropOp56
 70
     1
102
RTVSPost2010Prop57
140
1.0
102
RTVSPost2010PropOp57
 70
     1
102
RTVSPropertyOp0
 70
     1
102
RTVSPropertyOp1
 70
     1
102
RTVSPropertyOp2
 70
     1
102
RTVSPropertyOp3
 70
     1
102
RTVSPropertyOp4
 70
     1
102
RTVSPropertyOp5
 70
     1
102
RTVSPropertyOp6
 70
     1
102
RTVSPropertyOp7
 70
     1
102
RTVSPropertyOp8
 70
     1
102
RTVSPropertyOp9
 70
     1
102
RTVSPropertyOp10
 70
     1
102
RTVSPropertyOp11
 70
     1
102
RTVSPropertyOp12
 70
     1
102
RTVSPropertyOp13
 70
     1
102
RTVSPropertyOp14
 70
     1
102
RTVSPropertyOp15
 70
     1
102
RTVSPropertyOp16
 70
     1
102
RTVSPropertyOp17
 70
     1
102
RTVSPropertyOp18
 70
     1
102
RTVSPropertyOp19
 70
     1
102
RTVSPropertyOp20
 70
     1
102
RTVSPropertyOp21
 70
     1
102
RTVSPropertyOp22
 70
     1
102
RTVSPropertyOp23
 70
     1
102
RTVSPropertyOp24
 70
     1
102
RTVSPropertyOp25
 70
     1
102
RTVSPropertyOp26
 70
     1
102
RTVSPropertyOp27
 70
     1
102
RTVSPropertyOp28
 70
     1
102
RTVSPropertyOp29
 70
     1
102
RTVSPropertyOp30
 70
     1
102
RTVSPropertyOp31
 70
     1
102
RTVSPropertyOp32
 70
     1
102
RTVSPropertyOp33
 70
     1
102
RTVSPropertyOp34
 70
     1
102
RTVSPropertyOp35
 70
     1
102
RTVSPropertyOp36
 70
     1
102
RTVSPropertyOp37
 70
     1
102
RTVSPropertyOp38
 70
     1
102
RTVSPropertyOp39
 70
     1
102
RTVSPropertyOp40
 70
     1
102
RTVSPropertyOp41
 70
     1
102
RTVSPropertyOp42
 70
     1
102
RTVSPropertyOp43
 70
     1
102
RTVSPropertyOp44
 70
     1
102
RTVSPropertyOp45
 70
     1
102
RTVSPropertyOp46
 70
     1
102
RTVSPropertyOp47
 70
     1
102
RTVSPropertyOp48
 70
     1
102
RTVSPropertyOp49
 70
     1
102
RTVSPropertyOp50
 70
     1
102
RTVSPropertyOp51
 70
     0
102
RTVSPropertyOp52
 70
     0
102
RTVSPropertyOp53
 70
     1
102
RTVSPropertyOp54
 70
     1
102
RTVSPropertyOp55
 70
     1
102
RTVSPropertyOp56
 70
     1
102
RTVSPropertyOp57
 70
     1
102
RTVSPropertyOp58
 70
     1
102
RTVSPropertyOp59
 70
     1
102
RTVSPropertyOp60
 70
     1
102
RTVSPropertyOp61
 70
     1
102
RTVSPropertyOp62
 70
     1
  0
XRECORD
  5
D72
102
{ACAD_REACTORS
330
D71
102
}
330
D71
100
AcDbXrecord
280
     1
102
RTVSPost2010Prop28
280
     0
102
RTVSPost2010PropOp28
 70
     1
102
RTVSPost2010Prop29
280
     1
102
RTVSPost2010PropOp29
 70
     1
102
RTVSPost2010Prop30
280
     1
102
RTVSPost2010PropOp30
 70
     1
102
RTVSPost2010Prop31
280
     0
102
RTVSPost2010PropOp31
 70
     1
102
RTVSPost2010Prop32
280
     0
102
RTVSPost2010PropOp32
 70
     1
102
RTVSPost2010Prop33
280
     0
102
RTVSPost2010PropOp33
 70
     1
102
RTVSPost2010Prop34
280
     0
102
RTVSPost2010PropOp34
 70
     1
102
RTVSPost2010Prop35
280
     0
102
RTVSPost2010PropOp35
 70
     1
102
RTVSPost2010Prop36
280
     0
102
RTVSPost2010PropOp36
 70
     1
102
RTVSPost2010Prop37
 90
       50
102
RTVSPost2010PropOp37
 70
     1
102
RTVSPost2010Prop38
140
0.0
102
RTVSPost2010PropOp38
 70
     1
102
RTVSPost2010Prop39
140
1.0
102
RTVSPost2010PropOp39
 70
     1
102
RTVSPost2010Prop40
 90
        0
102
RTVSPost2010PropOp40
 70
     1
102
RTVSPost2010Prop41ColorIndex
 90
       18
102
RTVSPost2010Prop41ColorRGB
 90
-16777216
102
RTVSPost2010PropOp41
 70
     1
102
RTVSPost2010Prop42
 90
       50
102
RTVSPost2010PropOp42
 70
     1
102
RTVSPost2010Prop43
 90
        3
102
RTVSPost2010PropOp43
 70
     1
102
RTVSPost2010Prop44ColorIndex
 90
        5
102
RTVSPost2010Prop44ColorRGB
 90
      255
102
RTVSPost2010PropOp44
 70
     1
102
RTVSPost2010Prop45
280
     0
102
RTVSPost2010PropOp45
 70
     1
102
RTVSPost2010Prop46
 90
       50
102
RTVSPost2010PropOp46
 70
     1
102
RTVSPost2010Prop47
 90
       50
102
RTVSPost2010PropOp47
 70
     1
102
RTVSPost2010Prop48
 90
       50
102
RTVSPost2010PropOp48
 70
     1
102
RTVSPost2010Prop49
280
     0
102
RTVSPost2010PropOp49
 70
     1
102
RTVSPost2010Prop50
 90
       50
102
RTVSPost2010PropOp50
 70
     1
102
RTVSPost2010Prop51ColorIndex
 90
      256
102
RTVSPost2010Prop51ColorRGB
 90
-16777216
102
RTVSPost2010PropOp51
 70
     0
102
RTVSPost2010Prop52
140
1.0
102
RTVSPost2010PropOp52
 70
     0
102
RTVSPost2010Prop53
 90
        2
102
RTVSPost2010PropOp53
 70
     1
102
RTVSPost2010Prop54
  1
strokes_ogs.tif
102
RTVSPost2010PropOp54
 70
     1
102
RTVSPost2010Prop55
280
     0
102
RTVSPost2010PropOp55
 70
     1
102
RTVSPost2010Prop56
140
1.0
102
RTVSPost2010PropOp56
 70
     1
102
RTVSPost2010Prop57
140
1.0
102
RTVSPost2010PropOp57
 70
     1
102
RTVSPropertyOp0
 70
     1
102
RTVSPropertyOp1
 70
     1
102
RTVSPropertyOp2
 70
     1
102
RTVSPropertyOp3
 70
     1
102
RTVSPropertyOp4
 70
     1
102
RTVSPropertyOp5
 70
     1
102
RTVSPropertyOp6
 70
     1
102
RTVSPropertyOp7
 70
     1
102
RTVSPropertyOp8
 70
     1
102
RTVSPropertyOp9
 70
     1
102
RTVSPropertyOp10
 70
     1
102
RTVSPropertyOp11
 70
     1
102
RTVSPropertyOp12
 70
     1
102
RTVSPropertyOp13
 70
     1
102
RTVSPropertyOp14
 70
     1
102
RTVSPropertyOp15
 70
     1
102
RTVSPropertyOp16
 70
     1
102
RTVSPropertyOp17
 70
     1
102
RTVSPropertyOp18
 70
     1
102
RTVSPropertyOp19
 70
     1
102
RTVSPropertyOp20
 70
     1
102
RTVSPropertyOp21
 70
     1
102
RTVSPropertyOp22
 70
     1
102
RTVSPropertyOp23
 70
     1
102
RTVSPropertyOp24
 70
     1
102
RTVSPropertyOp25
 70
     1
102
RTVSPropertyOp26
 70
     1
102
RTVSPropertyOp27
 70
     1
102
RTVSPropertyOp28
 70
     1
102
RTVSPropertyOp29
 70
     1
102
RTVSPropertyOp30
 70
     1
102
RTVSPropertyOp31
 70
     1
102
RTVSPropertyOp32
 70
     1
102
RTVSPropertyOp33
 70
     1
102
RTVSPropertyOp34
 70
     1
102
RTVSPropertyOp35
 70
     1
102
RTVSPropertyOp36
 70
     1
102
RTVSPropertyOp37
 70
     1
102
RTVSPropertyOp38
 70
     1
102
RTVSPropertyOp39
 70
     1
102
RTVSPropertyOp40
 70
     1
102
RTVSPropertyOp41
 70
     1
102
RTVSPropertyOp42
 70
     1
102
RTVSPropertyOp43
 70
     1
102
RTVSPropertyOp44
 70
     1
102
RTVSPropertyOp45
 70
     1
102
RTVSPropertyOp46
 70
     1
102
RTVSPropertyOp47
 70
     1
102
RTVSPropertyOp48
 70
     1
102
RTVSPropertyOp49
 70
     1
102
RTVSPropertyOp50
 70
     1
102
RTVSPropertyOp51
 70
     0
102
RTVSPropertyOp52
 70
     0
102
RTVSPropertyOp53
 70
     1
102
RTVSPropertyOp54
 70
     1
102
RTVSPropertyOp55
 70
     1
102
RTVSPropertyOp56
 70
     1
102
RTVSPropertyOp57
 70
     1
102
RTVSPropertyOp58
 70
     1
102
RTVSPropertyOp59
 70
     1
102
RTVSPropertyOp60
 70
     1
102
RTVSPropertyOp61
 70
     1
102
RTVSPropertyOp62
 70
     1
  0
XRECORD
  5
D66
102
{ACAD_REACTORS
330
D65
102
}
330
D65
100
AcDbXrecord
280
     1
102
RTVSPost2010Prop28
280
     0
102
RTVSPost2010PropOp28
 70
     1
102
RTVSPost2010Prop29
280
     1
102
RTVSPost2010PropOp29
 70
     1
102
RTVSPost2010Prop30
280
     1
102
RTVSPost2010PropOp30
 70
     1
102
RTVSPost2010Prop31
280
     0
102
RTVSPost2010PropOp31
 70
     1
102
RTVSPost2010Prop32
280
     0
102
RTVSPost2010PropOp32
 70
     1
102
RTVSPost2010Prop33
280
     0
102
RTVSPost2010PropOp33
 70
     1
102
RTVSPost2010Prop34
280
     0
102
RTVSPost2010PropOp34
 70
     1
102
RTVSPost2010Prop35
280
     0
102
RTVSPost2010PropOp35
 70
     1
102
RTVSPost2010Prop36
280
     0
102
RTVSPost2010PropOp36
 70
     1
102
RTVSPost2010Prop37
 90
       50
102
RTVSPost2010PropOp37
 70
     1
102
RTVSPost2010Prop38
140
0.0
102
RTVSPost2010PropOp38
 70
     1
102
RTVSPost2010Prop39
140
1.0
102
RTVSPost2010PropOp39
 70
     1
102
RTVSPost2010Prop40
 90
        0
102
RTVSPost2010PropOp40
 70
     1
102
RTVSPost2010Prop41ColorIndex
 90
       18
102
RTVSPost2010Prop41ColorRGB
 90
-16777216
102
RTVSPost2010PropOp41
 70
     1
102
RTVSPost2010Prop42
 90
       50
102
RTVSPost2010PropOp42
 70
     1
102
RTVSPost2010Prop43
 90
        3
102
RTVSPost2010PropOp43
 70
     1
102
RTVSPost2010Prop44ColorIndex
 90
        5
102
RTVSPost2010Prop44ColorRGB
 90
      255
102
RTVSPost2010PropOp44
 70
     1
102
RTVSPost2010Prop45
280
     0
102
RTVSPost2010PropOp45
 70
     1
102
RTVSPost2010Prop46
 90
       50
102
RTVSPost2010PropOp46
 70
     1
102
RTVSPost2010Prop47
 90
       50
102
RTVSPost2010PropOp47
 70
     1
102
RTVSPost2010Prop48
 90
       50
102
RTVSPost2010PropOp48
 70
     1
102
RTVSPost2010Prop49
280
     0
102
RTVSPost2010PropOp49
 70
     1
102
RTVSPost2010Prop50
 90
       50
102
RTVSPost2010PropOp50
 70
     1
102
RTVSPost2010Prop51ColorIndex
 90
      256
102
RTVSPost2010Prop51ColorRGB
 90
-16777216
102
RTVSPost2010PropOp51
 70
     0
102
RTVSPost2010Prop52
140
1.0
102
RTVSPost2010PropOp52
 70
     0
102
RTVSPost2010Prop53
 90
        2
102
RTVSPost2010PropOp53
 70
     1
102
RTVSPost2010Prop54
  1
strokes_ogs.tif
102
RTVSPost2010PropOp54
 70
     1
102
RTVSPost2010Prop55
280
     0
102
RTVSPost2010PropOp55
 70
     1
102
RTVSPost2010Prop56
140
1.0
102
RTVSPost2010PropOp56
 70
     1
102
RTVSPost2010Prop57
140
1.0
102
RTVSPost2010PropOp57
 70
     1
102
RTVSPropertyOp0
 70
     1
102
RTVSPropertyOp1
 70
     1
102
RTVSPropertyOp2
 70
     1
102
RTVSPropertyOp3
 70
     1
102
RTVSPropertyOp4
 70
     1
102
RTVSPropertyOp5
 70
     1
102
RTVSPropertyOp6
 70
     1
102
RTVSPropertyOp7
 70
     1
102
RTVSPropertyOp8
 70
     1
102
RTVSPropertyOp9
 70
     1
102
RTVSPropertyOp10
 70
     1
102
RTVSPropertyOp11
 70
     1
102
RTVSPropertyOp12
 70
     1
102
RTVSPropertyOp13
 70
     1
102
RTVSPropertyOp14
 70
     1
102
RTVSPropertyOp15
 70
     1
102
RTVSPropertyOp16
 70
     1
102
RTVSPropertyOp17
 70
     1
102
RTVSPropertyOp18
 70
     1
102
RTVSPropertyOp19
 70
     1
102
RTVSPropertyOp20
 70
     1
102
RTVSPropertyOp21
 70
     1
102
RTVSPropertyOp22
 70
     1
102
RTVSPropertyOp23
 70
     1
102
RTVSPropertyOp24
 70
     1
102
RTVSPropertyOp25
 70
     1
102
RTVSPropertyOp26
 70
     1
102
RTVSPropertyOp27
 70
     1
102
RTVSPropertyOp28
 70
     1
102
RTVSPropertyOp29
 70
     1
102
RTVSPropertyOp30
 70
     1
102
RTVSPropertyOp31
 70
     1
102
RTVSPropertyOp32
 70
     1
102
RTVSPropertyOp33
 70
     1
102
RTVSPropertyOp34
 70
     1
102
RTVSPropertyOp35
 70
     1
102
RTVSPropertyOp36
 70
     1
102
RTVSPropertyOp37
 70
     1
102
RTVSPropertyOp38
 70
     1
102
RTVSPropertyOp39
 70
     1
102
RTVSPropertyOp40
 70
     1
102
RTVSPropertyOp41
 70
     1
102
RTVSPropertyOp42
 70
     1
102
RTVSPropertyOp43
 70
     1
102
RTVSPropertyOp44
 70
     1
102
RTVSPropertyOp45
 70
     1
102
RTVSPropertyOp46
 70
     1
102
RTVSPropertyOp47
 70
     1
102
RTVSPropertyOp48
 70
     1
102
RTVSPropertyOp49
 70
     1
102
RTVSPropertyOp50
 70
     1
102
RTVSPropertyOp51
 70
     0
102
RTVSPropertyOp52
 70
     0
102
RTVSPropertyOp53
 70
     1
102
RTVSPropertyOp54
 70
     1
102
RTVSPropertyOp55
 70
     1
102
RTVSPropertyOp56
 70
     1
102
RTVSPropertyOp57
 70
     1
102
RTVSPropertyOp58
 70
     1
102
RTVSPropertyOp59
 70
     1
102
RTVSPropertyOp60
 70
     1
102
RTVSPropertyOp61
 70
     1
102
RTVSPropertyOp62
 70
     1
  0
XRECORD
  5
D7E
102
{ACAD_REACTORS
330
D7D
102
}
330
D7D
100
AcDbXrecord
280
     1
102
RTVSPost2010Prop28
280
     0
102
RTVSPost2010PropOp28
 70
     1
102
RTVSPost2010Prop29
280
     1
102
RTVSPost2010PropOp29
 70
     1
102
RTVSPost2010Prop30
280
     1
102
RTVSPost2010PropOp30
 70
     1
102
RTVSPost2010Prop31
280
     0
102
RTVSPost2010PropOp31
 70
     1
102
RTVSPost2010Prop32
280
     0
102
RTVSPost2010PropOp32
 70
     1
102
RTVSPost2010Prop33
280
     0
102
RTVSPost2010PropOp33
 70
     1
102
RTVSPost2010Prop34
280
     0
102
RTVSPost2010PropOp34
 70
     1
102
RTVSPost2010Prop35
280
     0
102
RTVSPost2010PropOp35
 70
     1
102
RTVSPost2010Prop36
280
     0
102
RTVSPost2010PropOp36
 70
     1
102
RTVSPost2010Prop37
 90
       50
102
RTVSPost2010PropOp37
 70
     1
102
RTVSPost2010Prop38
140
0.0
102
RTVSPost2010PropOp38
 70
     1
102
RTVSPost2010Prop39
140
1.0
102
RTVSPost2010PropOp39
 70
     1
102
RTVSPost2010Prop40
 90
        0
102
RTVSPost2010PropOp40
 70
     1
102
RTVSPost2010Prop41ColorIndex
 90
       18
102
RTVSPost2010Prop41ColorRGB
 90
-16777216
102
RTVSPost2010PropOp41
 70
     1
102
RTVSPost2010Prop42
 90
       50
102
RTVSPost2010PropOp42
 70
     1
102
RTVSPost2010Prop43
 90
        3
102
RTVSPost2010PropOp43
 70
     1
102
RTVSPost2010Prop44ColorIndex
 90
        5
102
RTVSPost2010Prop44ColorRGB
 90
      255
102
RTVSPost2010PropOp44
 70
     1
102
RTVSPost2010Prop45
280
     0
102
RTVSPost2010PropOp45
 70
     1
102
RTVSPost2010Prop46
 90
       50
102
RTVSPost2010PropOp46
 70
     1
102
RTVSPost2010Prop47
 90
       50
102
RTVSPost2010PropOp47
 70
     1
102
RTVSPost2010Prop48
 90
       50
102
RTVSPost2010PropOp48
 70
     1
102
RTVSPost2010Prop49
280
     0
102
RTVSPost2010PropOp49
 70
     1
102
RTVSPost2010Prop50
 90
       50
102
RTVSPost2010PropOp50
 70
     1
102
RTVSPost2010Prop51ColorIndex
 90
      256
102
RTVSPost2010Prop51ColorRGB
 90
-16777216
102
RTVSPost2010PropOp51
 70
     0
102
RTVSPost2010Prop52
140
1.0
102
RTVSPost2010PropOp52
 70
     0
102
RTVSPost2010Prop53
 90
        2
102
RTVSPost2010PropOp53
 70
     1
102
RTVSPost2010Prop54
  1
strokes_ogs.tif
102
RTVSPost2010PropOp54
 70
     1
102
RTVSPost2010Prop55
280
     0
102
RTVSPost2010PropOp55
 70
     1
102
RTVSPost2010Prop56
140
1.0
102
RTVSPost2010PropOp56
 70
     1
102
RTVSPost2010Prop57
140
1.0
102
RTVSPost2010PropOp57
 70
     1
102
RTVSPropertyOp0
 70
     1
102
RTVSPropertyOp1
 70
     1
102
RTVSPropertyOp2
 70
     1
102
RTVSPropertyOp3
 70
     1
102
RTVSPropertyOp4
 70
     1
102
RTVSPropertyOp5
 70
     1
102
RTVSPropertyOp6
 70
     1
102
RTVSPropertyOp7
 70
     1
102
RTVSPropertyOp8
 70
     1
102
RTVSPropertyOp9
 70
     1
102
RTVSPropertyOp10
 70
     1
102
RTVSPropertyOp11
 70
     1
102
RTVSPropertyOp12
 70
     1
102
RTVSPropertyOp13
 70
     1
102
RTVSPropertyOp14
 70
     1
102
RTVSPropertyOp15
 70
     1
102
RTVSPropertyOp16
 70
     1
102
RTVSPropertyOp17
 70
     1
102
RTVSPropertyOp18
 70
     1
102
RTVSPropertyOp19
 70
     1
102
RTVSPropertyOp20
 70
     1
102
RTVSPropertyOp21
 70
     1
102
RTVSPropertyOp22
 70
     1
102
RTVSPropertyOp23
 70
     1
102
RTVSPropertyOp24
 70
     1
102
RTVSPropertyOp25
 70
     1
102
RTVSPropertyOp26
 70
     1
102
RTVSPropertyOp27
 70
     1
102
RTVSPropertyOp28
 70
     1
102
RTVSPropertyOp29
 70
     1
102
RTVSPropertyOp30
 70
     1
102
RTVSPropertyOp31
 70
     1
102
RTVSPropertyOp32
 70
     1
102
RTVSPropertyOp33
 70
     1
102
RTVSPropertyOp34
 70
     1
102
RTVSPropertyOp35
 70
     1
102
RTVSPropertyOp36
 70
     1
102
RTVSPropertyOp37
 70
     1
102
RTVSPropertyOp38
 70
     1
102
RTVSPropertyOp39
 70
     1
102
RTVSPropertyOp40
 70
     1
102
RTVSPropertyOp41
 70
     1
102
RTVSPropertyOp42
 70
     1
102
RTVSPropertyOp43
 70
     1
102
RTVSPropertyOp44
 70
     1
102
RTVSPropertyOp45
 70
     1
102
RTVSPropertyOp46
 70
     1
102
RTVSPropertyOp47
 70
     1
102
RTVSPropertyOp48
 70
     1
102
RTVSPropertyOp49
 70
     1
102
RTVSPropertyOp50
 70
     1
102
RTVSPropertyOp51
 70
     0
102
RTVSPropertyOp52
 70
     0
102
RTVSPropertyOp53
 70
     1
102
RTVSPropertyOp54
 70
     1
102
RTVSPropertyOp55
 70
     1
102
RTVSPropertyOp56
 70
     1
102
RTVSPropertyOp57
 70
     1
102
RTVSPropertyOp58
 70
     1
102
RTVSPropertyOp59
 70
     1
102
RTVSPropertyOp60
 70
     1
102
RTVSPropertyOp61
 70
     1
102
RTVSPropertyOp62
 70
     1
  0
ENDSEC
  0
EOF
