  0
SECTION
  2
HEADER
  9
$ACADVER
  1
AC1015
  9
$ACADMAINTVER
 70
    20
  9
$DWGCODEPAGE
  3
ANSI_1252
  9
$INSBASE
 10
0.0
 20
0.0
 30
0.0
  9
$EXTMIN
 10
-34.0
 20
0.0
 30
0.0
  9
$EXTMAX
 10
0.0
 20
22.00000000000001
 30
0.0
  9
$LIMMIN
 10
0.0
 20
0.0
  9
$LIMMAX
 10
12.0
 20
9.0
  9
$ORTHOMODE
 70
     0
  9
$REGENMODE
 70
     1
  9
$FILLMODE
 70
     1
  9
$QTEXTMODE
 70
     0
  9
$MIRRTEXT
 70
     1
  9
$LTSCALE
 40
2.0
  9
$ATTMODE
 70
     1
  9
$TEXTSIZE
 40
0.078
  9
$TRACEWID
 40
0.05
  9
$TEXTSTYLE
  7
SIMPLEX
  9
$CLAYER
  8
0
  9
$CELTYPE
  6
BYLAYER
  9
$CECOLOR
 62
   256
  9
$CELTSCALE
 40
1.0
  9
$DISPSILH
 70
     0
  9
$DIMSCALE
 40
2.0
  9
$DIMASZ
 40
0.125
  9
$DIMEXO
 40
0.0625
  9
$DIMDLI
 40
0.38
  9
$DIMRND
 40
0.0
  9
$DIMDLE
 40
0.0
  9
$DIMEXE
 40
0.0625
  9
$DIMTP
 40
0.0
  9
$DIMTM
 40
0.0
  9
$DIMTXT
 40
0.125
  9
$DIMCEN
 40
-0.125
  9
$DIMTSZ
 40
0.0
  9
$DIMTOL
 70
     0
  9
$DIMLIM
 70
     0
  9
$DIMTIH
 70
     1
  9
$DIMTOH
 70
     1
  9
$DIMSE1
 70
     0
  9
$DIMSE2
 70
     0
  9
$DIMTAD
 70
     0
  9
$DIMZIN
 70
     4
  9
$DIMBLK
  1

  9
$DIMASO
 70
     1
  9
$DIMSHO
 70
     0
  9
$DIMPOST
  1

  9
$DIMAPOST
  1

  9
$DIMALT
 70
     0
  9
$DIMALTD
 70
     2
  9
$DIMALTF
 40
25.4
  9
$DIMLFAC
 40
1.0
  9
$DIMTOFL
 70
     0
  9
$DIMTVP
 40
0.0
  9
$DIMTIX
 70
     0
  9
$DIMSOXD
 70
     0
  9
$DIMSAH
 70
     0
  9
$DIMBLK1
  1

  9
$DIMBLK2
  1

  9
$DIMSTYLE
  2
STANDARD
  9
$DIMCLRD
 70
     0
  9
$DIMCLRE
 70
     0
  9
$DIMCLRT
 70
     0
  9
$DIMTFAC
 40
1.0
  9
$DIMGAP
 40
0.09
  9
$DIMJUST
 70
     0
  9
$DIMSD1
 70
     0
  9
$DIMSD2
 70
     0
  9
$DIMTOLJ
 70
     1
  9
$DIMTZIN
 70
     4
  9
$DIMALTZ
 70
     4
  9
$DIMALTTZ
 70
     4
  9
$DIMUPT
 70
     0
  9
$DIMDEC
 70
     4
  9
$DIMTDEC
 70
     4
  9
$DIMALTU
 70
     2
  9
$DIMALTTD
 70
     2
  9
$DIMTXSTY
  7
SIMPLEX
  9
$DIMAUNIT
 70
     0
  9
$DIMADEC
 70
     0
  9
$DIMALTRND
 40
0.0
  9
$DIMAZIN
 70
     0
  9
$DIMDSEP
 70
    46
  9
$DIMATFIT
 70
     3
  9
$DIMFRAC
 70
     2
  9
$DIMLDRBLK
  1

  9
$DIMLUNIT
 70
     5
  9
$DIMLWD
 70
    -2
  9
$DIMLWE
 70
    -2
  9
$DIMTMOVE
 70
     0
  9
$LUNITS
 70
     2
  9
$LUPREC
 70
     3
  9
$SKETCHINC
 40
0.1
  9
$FILLETRAD
 40
0.125
  9
$AUNITS
 70
     0
  9
$AUPREC
 70
     2
  9
$MENU
  1
ACAD
  9
$ELEVATION
 40
0.0
  9
$PELEVATION
 40
0.0
  9
$THICKNESS
 40
0.0
  9
$LIMCHECK
 70
     0
  9
$CHAMFERA
 40
0.375
  9
$CHAMFERB
 40
0.375
  9
$CHAMFERC
 40
0.0
  9
$CHAMFERD
 40
0.0
  9
$SKPOLY
 70
     0
  9
$TDCREATE
 40
2447600.629998148
  9
$TDUCREATE
 40
2447600.796664815
  9
$TDUPDATE
 40
2457155.481535857
  9
$TDUUPDATE
 40
2457155.648202523
  9
$TDINDWG
 40
0.2959156250
  9
$TDUSRTIMER
 40
0.2959156134
  9
$USRTIMER
 70
     1
  9
$ANGBASE
 50
0.0
  9
$ANGDIR
 70
     0
  9
$PDMODE
 70
     0
  9
$PDSIZE
 40
0.0
  9
$PLINEWID
 40
0.0
  9
$SPLFRAME
 70
     0
  9
$SPLINETYPE
 70
     6
  9
$SPLINESEGS
 70
     8
  9
$HANDSEED
  5
1748
  9
$SURFTAB1
 70
     6
  9
$SURFTAB2
 70
     6
  9
$SURFTYPE
 70
     6
  9
$SURFU
 70
     6
  9
$SURFV
 70
     6
  9
$UCSBASE
  2

  9
$UCSNAME
  2

  9
$UCSORG
 10
0.0
 20
0.0
 30
0.0
  9
$UCSXDIR
 10
1.0
 20
0.0
 30
0.0
  9
$UCSYDIR
 10
0.0
 20
1.0
 30
0.0
  9
$UCSORTHOREF
  2

  9
$UCSORTHOVIEW
 70
     0
  9
$UCSORGTOP
 10
0.0
 20
0.0
 30
0.0
  9
$UCSORGBOTTOM
 10
0.0
 20
0.0
 30
0.0
  9
$UCSORGLEFT
 10
0.0
 20
0.0
 30
0.0
  9
$UCSORGRIGHT
 10
0.0
 20
0.0
 30
0.0
  9
$UCSORGFRONT
 10
0.0
 20
0.0
 30
0.0
  9
$UCSORGBACK
 10
0.0
 20
0.0
 30
0.0
  9
$PUCSBASE
  2

  9
$PUCSNAME
  2

  9
$PUCSORG
 10
0.0
 20
0.0
 30
0.0
  9
$PUCSXDIR
 10
1.0
 20
0.0
 30
0.0
  9
$PUCSYDIR
 10
0.0
 20
1.0
 30
0.0
  9
$PUCSORTHOREF
  2

  9
$PUCSORTHOVIEW
 70
     0
  9
$PUCSORGTOP
 10
0.0
 20
0.0
 30
0.0
  9
$PUCSORGBOTTOM
 10
0.0
 20
0.0
 30
0.0
  9
$PUCSORGLEFT
 10
0.0
 20
0.0
 30
0.0
  9
$PUCSORGRIGHT
 10
0.0
 20
0.0
 30
0.0
  9
$PUCSORGFRONT
 10
0.0
 20
0.0
 30
0.0
  9
$PUCSORGBACK
 10
0.0
 20
0.0
 30
0.0
  9
$USERI1
 70
     0
  9
$USERI2
 70
     0
  9
$USERI3
 70
     0
  9
$USERI4
 70
     0
  9
$USERI5
 70
     0
  9
$USERR1
 40
0.0
  9
$USERR2
 40
0.0
  9
$USERR3
 40
0.0
  9
$USERR4
 40
0.0
  9
$USERR5
 40
0.0
  9
$WORLDVIEW
 70
     1
  9
$SHADEDGE
 70
     3
  9
$SHADEDIF
 70
    70
  9
$TILEMODE
 70
     1
  9
$MAXACTVP
 70
    16
  9
$PINSBASE
 10
0.0
 20
0.0
 30
0.0
  9
$PLIMCHECK
 70
     0
  9
$PEXTMIN
 10
1.000000000000000E+20
 20
1.000000000000000E+20
 30
1.000000000000000E+20
  9
$PEXTMAX
 10
-1.000000000000000E+20
 20
-1.000000000000000E+20
 30
-1.000000000000000E+20
  9
$PLIMMIN
 10
0.0
 20
0.0
  9
$PLIMMAX
 10
12.0
 20
9.0
  9
$UNITMODE
 70
     0
  9
$VISRETAIN
 70
     0
  9
$PLINEGEN
 70
     0
  9
$PSLTSCALE
 70
     0
  9
$TREEDEPTH
 70
  3020
  9
$CMLSTYLE
  2
STANDARD
  9
$CMLJUST
 70
     0
  9
$CMLSCALE
 40
1.0
  9
$PROXYGRAPHICS
 70
     1
  9
$MEASUREMENT
 70
     0
  9
$CELWEIGHT
370
    -1
  9
$ENDCAPS
280
     0
  9
$JOINSTYLE
280
     0
  9
$LWDISPLAY
290
     0
  9
$INSUNITS
 70
     0
  9
$HYPERLINKBASE
  1

  9
$STYLESHEET
  1
BLK1500.CTB
  9
$XEDIT
290
     1
  9
$CEPSNTYPE
380
     0
  9
$PSTYLEMODE
290
     1
  9
$FINGERPRINTGUID
  2
{B02AF7AF-0E65-11D6-8B45-00A0CCD630B6}
  9
$VERSIONGUID
  2
{D1E6B0A9-3E3E-40AB-BDDB-0839902650C8}
  9
$EXTNAMES
290
     1
  9
$PSVPSCALE
 40
0.0
  9
$OLESTARTUP
290
     0
  0
ENDSEC
  0
SECTION
  2
CLASSES
  0
CLASS
  1
DICTIONARYVAR
  2
AcDbDictionaryVar
  3
ObjectDBX Classes
 90
        0
280
     0
281
     0
  0
CLASS
  1
ACDBDICTIONARYWDFLT
  2
AcDbDictionaryWithDefault
  3
ObjectDBX Classes
 90
        0
280
     0
281
     0
  0
CLASS
  1
MATERIAL
  2
AcDbMaterial
  3
ObjectDBX Classes
 90
     1153
280
     0
281
     0
  0
CLASS
  1
VISUALSTYLE
  2
AcDbVisualStyle
  3
ObjectDBX Classes
 90
     4095
280
     0
281
     0
  0
CLASS
  1
TABLESTYLE
  2
AcDbTableStyle
  3
ObjectDBX Classes
 90
     4095
280
     0
281
     0
  0
CLASS
  1
SCALE
  2
AcDbScale
  3
ObjectDBX Classes
 90
     1153
280
     0
281
     0
  0
CLASS
  1
MLEADERSTYLE
  2
AcDbMLeaderStyle
  3
ACDB_MLEADERSTYLE_CLASS
 90
     4095
280
     0
281
     0
  0
CLASS
  1
ACDBSECTIONVIEWSTYLE
  2
AcDbSectionViewStyle
  3
ObjectDBX Classes
 90
     1025
280
     0
281
     0
  0
CLASS
  1
ACDBDETAILVIEWSTYLE
  2
AcDbDetailViewStyle
  3
ObjectDBX Classes
 90
     1025
280
     0
281
     0
  0
CLASS
  1
CELLSTYLEMAP
  2
AcDbCellStyleMap
  3
ObjectDBX Classes
 90
     1152
280
     0
281
     0
  0
CLASS
  1
ACDBPLACEHOLDER
  2
AcDbPlaceHolder
  3
ObjectDBX Classes
 90
        0
280
     0
281
     0
  0
CLASS
  1
LAYOUT
  2
AcDbLayout
  3
ObjectDBX Classes
 90
        0
280
     0
281
     0
  0
ENDSEC
  0
SECTION
  2
TABLES
  0
TABLE
  2
VPORT
  5
8
330
0
100
AcDbSymbolTable
 70
     1
  0
VPORT
  5
1625
330
8
100
AcDbSymbolTableRecord
100
AcDbViewportTableRecord
  2
*Active
 70
     0
 10
0.0
 20
0.0
 11
1.0
 21
1.0
 12
-16.99937522114282
 22
11.81099918050532
 13
0.0
 23
0.0
 14
1.0
 24
1.0
 15
0.0
 25
0.0
 16
0.0
 26
0.0
 36
1.0
 17
0.0
 27
0.0
 37
0.0
 40
22.97018298598857
 41
2.080545229244113
 42
50.0
 43
0.0
 44
0.0
 50
0.0
 51
0.0
 71
     0
 72
   250
 73
     1
 74
     0
 75
     0
 76
     0
 77
     0
 78
     0
281
     0
 65
     1
110
0.0
120
0.0
130
0.0
111
1.0
121
0.0
131
0.0
112
0.0
122
1.0
132
0.0
 79
     0
146
0.0
1001
ACAD_NAV_VCDISPLAY
1070
     3
  0
ENDTAB
  0
TABLE
  2
LTYPE
  5
5
330
0
100
AcDbSymbolTable
 70
     3
  0
LTYPE
  5
11
330
5
100
AcDbSymbolTableRecord
100
AcDbLinetypeTableRecord
  2
BYBLOCK
 70
     0
  3

 72
    65
 73
     0
 40
0.0
  0
LTYPE
  5
12
330
5
100
AcDbSymbolTableRecord
100
AcDbLinetypeTableRecord
  2
BYLAYER
 70
     0
  3

 72
    65
 73
     0
 40
0.0
  0
LTYPE
  5
13
330
5
100
AcDbSymbolTableRecord
100
AcDbLinetypeTableRecord
  2
CONTINUOUS
 70
     0
  3
Solid line
 72
    65
 73
     0
 40
0.0
  0
LTYPE
  5
21
330
5
100
AcDbSymbolTableRecord
100
AcDbLinetypeTableRecord
  2
HIDDEN
 70
     0
  3

 72
    65
 73
     2
 40
0.124
 49
0.062
 74
     0
 49
-0.062
 74
     0
  0
LTYPE
  5
22
330
5
100
AcDbSymbolTableRecord
100
AcDbLinetypeTableRecord
  2
CENTER
 70
     0
  3

 72
    65
 73
     4
 40
1.125
 49
0.75
 74
     0
 49
-0.125
 74
     0
 49
0.125
 74
     0
 49
-0.125
 74
     0
  0
ENDTAB
  0
TABLE
  2
LAYER
  5
2
102
{ACAD_XDICTIONARY
360
168C
102
}
330
0
100
AcDbSymbolTable
 70
     5
  0
LAYER
  5
E
102
{ACAD_XDICTIONARY
360
1681
102
}
330
2
100
AcDbSymbolTableRecord
100
AcDbLayerTableRecord
  2
0
 70
     0
 62
     7
  6
CONTINUOUS
370
    -3
390
F87
  0
LAYER
  5
26
102
{ACAD_XDICTIONARY
360
1683
102
}
330
2
100
AcDbSymbolTableRecord
100
AcDbLayerTableRecord
  2
2
 70
     0
 62
     2
  6
CONTINUOUS
370
    -3
390
F87
  0
LAYER
  5
27
102
{ACAD_XDICTIONARY
360
1685
102
}
330
2
100
AcDbSymbolTableRecord
100
AcDbLayerTableRecord
  2
3
 70
     0
 62
     3
  6
CONTINUOUS
370
    -3
390
F87
  0
LAYER
  5
28
102
{ACAD_XDICTIONARY
360
1687
102
}
330
2
100
AcDbSymbolTableRecord
100
AcDbLayerTableRecord
  2
4
 70
     0
 62
     4
  6
CONTINUOUS
370
    -3
390
F87
  0
LAYER
  5
E28
330
2
100
AcDbSymbolTableRecord
100
AcDbLayerTableRecord
  2
DEFPOINTS
 70
     0
 62
     7
  6
CONTINUOUS
290
     0
370
    -3
390
F87
  0
ENDTAB
  0
TABLE
  2
STYLE
  5
3
330
0
100
AcDbSymbolTable
 70
     5
  0
STYLE
  5
F
330
3
100
AcDbSymbolTableRecord
100
AcDbTextStyleTableRecord
  2
STANDARD
 70
     0
 40
0.0
 41
1.0
 50
0.0
 71
     0
 42
0.2
  3
txt
  4

  0
STYLE
  5
1C
330
3
100
AcDbSymbolTableRecord
100
AcDbTextStyleTableRecord
  2
SIMPLEX
 70
     0
 40
0.0
 41
1.0
 50
0.0
 71
     0
 42
0.078
  3
SIMPLEX.shx
  4

  0
STYLE
  5
1D
330
3
100
AcDbSymbolTableRecord
100
AcDbTextStyleTableRecord
  2
MED
 70
     0
 40
0.25
 41
1.0
 50
0.0
 71
     0
 42
0.25
  3
ROMANS
  4

  0
STYLE
  5
1E
330
3
100
AcDbSymbolTableRecord
100
AcDbTextStyleTableRecord
  2
T
 70
     0
 40
0.0
 41
1.0
 50
0.0
 71
     0
 42
1.0
  3
ROMI____.PFB
  4

  0
STYLE
  5
BA7
330
3
100
AcDbSymbolTableRecord
100
AcDbTextStyleTableRecord
  2
ITALICC
 70
     0
 40
0.125
 41
1.0
 50
0.0
 71
     0
 42
0.125
  3
italicc
  4

  0
ENDTAB
  0
TABLE
  2
VIEW
  5
6
330
0
100
AcDbSymbolTable
 70
     0
  0
ENDTAB
  0
TABLE
  2
UCS
  5
7
330
0
100
AcDbSymbolTable
 70
     0
  0
ENDTAB
  0
TABLE
  2
APPID
  5
9
330
0
100
AcDbSymbolTable
 70
     4
  0
APPID
  5
10
330
9
100
AcDbSymbolTableRecord
100
AcDbRegAppTableRecord
  2
ACAD
 70
     0
  0
APPID
  5
167A
330
9
100
AcDbSymbolTableRecord
100
AcDbRegAppTableRecord
  2
ACAD_EXEMPT_FROM_CAD_STANDARDS
 70
     0
  0
APPID
  5
1692
330
9
100
AcDbSymbolTableRecord
100
AcDbRegAppTableRecord
  2
ACAD_NAV_VCDISPLAY
 70
     0
  0
APPID
  5
1743
330
9
100
AcDbSymbolTableRecord
100
AcDbRegAppTableRecord
  2
ACAD_MLEADERVER
 70
     0
  0
ENDTAB
  0
TABLE
  2
DIMSTYLE
  5
A
330
0
100
AcDbSymbolTable
 70
     1
100
AcDbDimStyleTable
 71
     1
340
B0E
  0
DIMSTYLE
105
B0E
102
{ACAD_REACTORS
330
1560
330
156E
330
157C
102
}
330
A
100
AcDbSymbolTableRecord
100
AcDbDimStyleTableRecord
  2
STANDARD
 70
     0
340
F
  0
ENDTAB
  0
TABLE
  2
BLOCK_RECORD
  5
1
330
0
100
AcDbSymbolTable
 70
     3
  0
BLOCK_RECORD
  5
17
330
1
100
AcDbSymbolTableRecord
100
AcDbBlockTableRecord
  2
*MODEL_SPACE
340
F8A
  0
BLOCK_RECORD
  5
14
330
1
100
AcDbSymbolTableRecord
100
AcDbBlockTableRecord
  2
*PAPER_SPACE
340
F8B
  0
BLOCK_RECORD
  5
1561
330
1
100
AcDbSymbolTableRecord
100
AcDbBlockTableRecord
  2
*D0
340
0
  0
BLOCK_RECORD
  5
156F
330
1
100
AcDbSymbolTableRecord
100
AcDbBlockTableRecord
  2
*D1
340
0
  0
BLOCK_RECORD
  5
157D
330
1
100
AcDbSymbolTableRecord
100
AcDbBlockTableRecord
  2
*D2
340
0
  0
ENDTAB
  0
ENDSEC
  0
SECTION
  2
BLOCKS
  0
BLOCK
  5
2C
330
17
100
AcDbEntity
  8
0
100
AcDbBlockBegin
  2
*MODEL_SPACE
 70
     0
 10
0.0
 20
0.0
 30
0.0
  3
*MODEL_SPACE
  1

  0
ENDBLK
  5
2D
330
17
100
AcDbEntity
  8
0
100
AcDbBlockEnd
  0
BLOCK
  5
2A
330
14
100
AcDbEntity
 67
     1
  8
0
100
AcDbBlockBegin
  2
*PAPER_SPACE
 70
     0
 10
0.0
 20
0.0
 30
0.0
  3
*PAPER_SPACE
  1

  0
ENDBLK
  5
2B
330
14
100
AcDbEntity
 67
     1
  8
0
100
AcDbBlockEnd
  0
BLOCK
  5
156C
330
1561
100
AcDbEntity
  8
0
100
AcDbBlockBegin
  2
*D0
 70
     1
 10
0.0
 20
0.0
 30
0.0
  3
*D0
  1

  0
LINE
  5
160F
330
1561
100
AcDbEntity
  8
0
 62
     0
370
    -2
100
AcDbLine
 10
-26.97472697473076
 20
5.109828707489835
 30
0.0
 11
-28.40492372003753
 21
5.109828707489835
 31
0.0
  0
LINE
  5
1610
330
1561
100
AcDbEntity
  8
0
 62
     0
370
    -2
100
AcDbLine
 10
-26.97472697473076
 20
8.109828707489835
 30
0.0
 11
-28.40492372003753
 21
8.109828707489837
 31
0.0
  0
LINE
  5
1611
330
1561
100
AcDbEntity
  8
0
 62
     0
370
    -2
100
AcDbLine
 10
-28.27992372003753
 20
5.359828707489835
 30
0.0
 11
-28.27992372003753
 21
6.304828707489837
 31
0.0
  0
LINE
  5
1612
330
1561
100
AcDbEntity
  8
0
 62
     0
370
    -2
100
AcDbLine
 10
-28.27992372003753
 20
7.859828707489835
 30
0.0
 11
-28.27992372003753
 21
6.914828707489836
 31
0.0
  0
SOLID
  5
1613
330
1561
100
AcDbEntity
  8
0
 62
     0
100
AcDbTrace
 10
-28.3215903867042
 20
5.359828707489835
 30
0.0
 11
-28.23825705337086
 21
5.359828707489835
 31
0.0
 12
-28.27992372003753
 22
5.109828707489835
 32
0.0
 13
-28.27992372003753
 23
5.109828707489835
 33
0.0
  0
SOLID
  5
1614
330
1561
100
AcDbEntity
  8
0
 62
     0
100
AcDbTrace
 10
-28.3215903867042
 20
7.859828707489835
 30
0.0
 11
-28.23825705337086
 21
7.859828707489835
 31
0.0
 12
-28.27992372003752
 22
8.109828707489837
 32
0.0
 13
-28.27992372003752
 23
8.109828707489837
 33
0.0
  0
MTEXT
  5
1615
330
1561
100
AcDbEntity
  8
0
 62
     0
100
AcDbMText
 10
-28.27992372003753
 20
6.609828707489831
 30
0.0
 40
0.25
 41
0.0
 71
     5
 72
     1
  1
\A1;3
  7
SIMPLEX
 73
     1
 44
1.0
1001
ACAD
1000
MTEXTBEGIN
1070
    73
1070
     1
1070
    44
1040
1.0
1070
    74
1070
     0
1000
MTEXTEND
  0
POINT
  5
1616
330
1561
100
AcDbEntity
  8
DEFPOINTS
 62
     0
100
AcDbPoint
 10
-26.84972697473077
 20
5.109828707489835
 30
0.0
  0
POINT
  5
1617
330
1561
100
AcDbEntity
  8
DEFPOINTS
 62
     0
100
AcDbPoint
 10
-26.84972697473077
 20
8.109828707489835
 30
0.0
  0
POINT
  5
1618
330
1561
100
AcDbEntity
  8
DEFPOINTS
 62
     0
100
AcDbPoint
 10
-28.27992372003752
 20
8.109828707489837
 30
0.0
  0
ENDBLK
  5
156D
330
1561
100
AcDbEntity
  8
0
100
AcDbBlockEnd
  0
BLOCK
  5
157A
330
156F
100
AcDbEntity
  8
0
100
AcDbBlockBegin
  2
*D1
 70
     1
 10
0.0
 20
0.0
 30
0.0
  3
*D1
  1

  0
LINE
  5
15FB
330
156F
100
AcDbEntity
  8
0
 62
     0
370
    -2
100
AcDbLine
 10
-26.84972697473077
 20
11.5998968019121
 30
0.0
 11
-26.84972697473077
 21
9.740080547066677
 31
0.0
  0
LINE
  5
15FC
330
156F
100
AcDbEntity
  8
0
 62
     0
370
    -2
100
AcDbLine
 10
-12.84972697473075
 20
11.5998968019121
 30
0.0
 11
-12.84972697473075
 21
9.740080547066677
 31
0.0
  0
LINE
  5
15FD
330
156F
100
AcDbEntity
  8
0
 62
     0
370
    -2
100
AcDbLine
 10
-26.59972697473076
 20
9.865080547066677
 30
0.0
 11
-20.21425078425457
 21
9.865080547066677
 31
0.0
  0
LINE
  5
15FE
330
156F
100
AcDbEntity
  8
0
 62
     0
370
    -2
100
AcDbLine
 10
-13.09972697473076
 20
9.865080547066677
 30
0.0
 11
-19.48520316520695
 21
9.865080547066677
 31
0.0
  0
SOLID
  5
15FF
330
156F
100
AcDbEntity
  8
0
 62
     0
100
AcDbTrace
 10
-26.59972697473076
 20
9.906747213733343
 30
0.0
 11
-26.59972697473076
 21
9.823413880400011
 31
0.0
 12
-26.84972697473077
 22
9.865080547066677
 32
0.0
 13
-26.84972697473077
 23
9.865080547066677
 33
0.0
  0
SOLID
  5
1600
330
156F
100
AcDbEntity
  8
0
 62
     0
100
AcDbTrace
 10
-13.09972697473076
 20
9.906747213733343
 30
0.0
 11
-13.09972697473076
 21
9.823413880400011
 31
0.0
 12
-12.84972697473075
 22
9.865080547066677
 32
0.0
 13
-12.84972697473075
 23
9.865080547066677
 33
0.0
  0
MTEXT
  5
1601
330
156F
100
AcDbEntity
  8
0
 62
     0
100
AcDbMText
 10
-19.84972697473075
 20
9.865080547066677
 30
0.0
 40
0.25
 41
0.0
 71
     5
 72
     1
  1
\A1;14
  7
SIMPLEX
 73
     1
 44
1.0
1001
ACAD
1000
MTEXTBEGIN
1070
    73
1070
     1
1070
    44
1040
1.0
1070
    74
1070
     0
1000
MTEXTEND
  0
POINT
  5
1602
330
156F
100
AcDbEntity
  8
DEFPOINTS
 62
     0
100
AcDbPoint
 10
-26.84972697473077
 20
11.7248968019121
 30
0.0
  0
POINT
  5
1603
330
156F
100
AcDbEntity
  8
DEFPOINTS
 62
     0
100
AcDbPoint
 10
-12.84972697473075
 20
11.7248968019121
 30
0.0
  0
POINT
  5
1604
330
156F
100
AcDbEntity
  8
DEFPOINTS
 62
     0
100
AcDbPoint
 10
-12.84972697473075
 20
9.865080547066677
 30
0.0
  0
ENDBLK
  5
157B
330
156F
100
AcDbEntity
  8
0
100
AcDbBlockEnd
  0
BLOCK
  5
1588
330
157D
100
AcDbEntity
  8
0
100
AcDbBlockBegin
  2
*D2
 70
     1
 10
0.0
 20
0.0
 30
0.0
  3
*D2
  1

  0
LINE
  5
1605
330
157D
100
AcDbEntity
  8
0
 62
     0
370
    -2
100
AcDbLine
 10
-26.97472697473076
 20
17.7248968019121
 30
0.0
 11
-28.50692326947061
 21
17.7248968019121
 31
0.0
  0
LINE
  5
1606
330
157D
100
AcDbEntity
  8
0
 62
     0
370
    -2
100
AcDbLine
 10
-26.97472697473076
 20
11.7248968019121
 30
0.0
 11
-28.50692326947061
 21
11.7248968019121
 31
0.0
  0
LINE
  5
1607
330
157D
100
AcDbEntity
  8
0
 62
     0
370
    -2
100
AcDbLine
 10
-28.38192326947061
 20
17.4748968019121
 30
0.0
 11
-28.38192326947061
 21
15.0298968019121
 31
0.0
  0
LINE
  5
1608
330
157D
100
AcDbEntity
  8
0
 62
     0
370
    -2
100
AcDbLine
 10
-28.38192326947061
 20
11.9748968019121
 30
0.0
 11
-28.38192326947061
 21
14.4198968019121
 31
0.0
  0
SOLID
  5
1609
330
157D
100
AcDbEntity
  8
0
 62
     0
100
AcDbTrace
 10
-28.42358993613728
 20
17.4748968019121
 30
0.0
 11
-28.34025660280394
 21
17.4748968019121
 31
0.0
 12
-28.38192326947061
 22
17.7248968019121
 32
0.0
 13
-28.38192326947061
 23
17.7248968019121
 33
0.0
  0
SOLID
  5
160A
330
157D
100
AcDbEntity
  8
0
 62
     0
100
AcDbTrace
 10
-28.42358993613728
 20
11.9748968019121
 30
0.0
 11
-28.34025660280394
 21
11.9748968019121
 31
0.0
 12
-28.38192326947061
 22
11.7248968019121
 32
0.0
 13
-28.38192326947061
 23
11.7248968019121
 33
0.0
  0
MTEXT
  5
160B
330
157D
100
AcDbEntity
  8
0
 62
     0
100
AcDbMText
 10
-28.38192326947062
 20
14.72489680191209
 30
0.0
 40
0.25
 41
0.0
 71
     5
 72
     1
  1
\A1;6
  7
SIMPLEX
 73
     1
 44
1.0
1001
ACAD
1000
MTEXTBEGIN
1070
    73
1070
     1
1070
    44
1040
1.0
1070
    74
1070
     0
1000
MTEXTEND
  0
POINT
  5
160C
330
157D
100
AcDbEntity
  8
DEFPOINTS
 62
     0
100
AcDbPoint
 10
-26.84972697473077
 20
17.7248968019121
 30
0.0
  0
POINT
  5
160D
330
157D
100
AcDbEntity
  8
DEFPOINTS
 62
     0
100
AcDbPoint
 10
-26.84972697473077
 20
11.7248968019121
 30
0.0
  0
POINT
  5
160E
330
157D
100
AcDbEntity
  8
DEFPOINTS
 62
     0
100
AcDbPoint
 10
-28.38192326947061
 20
11.7248968019121
 30
0.0
  0
ENDBLK
  5
1589
330
157D
100
AcDbEntity
  8
0
100
AcDbBlockEnd
  0
ENDSEC
  0
SECTION
  2
ENTITIES
  0
TEXT
  5
BA8
330
17
100
AcDbEntity
  8
2
100
AcDbText
 10
-29.88837471459982
 20
20.1790499463757
 30
0.0
 40
0.156
  1
A
  7
SIMPLEX
 72
     1
 11
-29.82894614317125
 21
20.1790499463757
 31
0.0
100
AcDbText
  0
TEXT
  5
BA9
330
17
100
AcDbEntity
  8
2
100
AcDbText
 10
-32.19293300480449
 20
17.62182901565826
 30
0.0
 40
0.156
  1
1
  7
SIMPLEX
 72
     1
 11
-32.17436157623306
 21
17.62182901565826
 31
0.0
100
AcDbText
  0
LINE
  5
BB6
330
17
100
AcDbEntity
  8
4
100
AcDbLine
 10
-32.3
 20
1.600000000000004
 30
0.0
 11
-32.3
 21
20.4
 31
0.0
  0
LINE
  5
BB7
330
17
100
AcDbEntity
  8
4
100
AcDbLine
 10
-1.700000000000002
 20
20.4
 30
0.0
 11
-32.3
 21
20.4
 31
0.0
  0
LINE
  5
BB8
330
17
100
AcDbEntity
  8
4
100
AcDbLine
 10
-1.700000000000002
 20
20.4
 30
0.0
 11
-1.700000000000002
 21
1.600000000000004
 31
0.0
  0
LINE
  5
BBA
330
17
100
AcDbEntity
  8
4
100
AcDbLine
 10
-1.700000000000002
 20
1.6
 30
0.0
 11
-32.3
 21
1.600000000000004
 31
0.0
  0
LINE
  5
BBB
330
17
100
AcDbEntity
  8
3
100
AcDbLine
 10
-27.50270221414905
 20
20.12489485051321
 30
0.0
 11
-27.50270221414905
 21
20.4
 31
0.0
  0
LINE
  5
BBC
330
17
100
AcDbEntity
  8
3
100
AcDbLine
 10
-32.07530058317388
 20
16.23911588041057
 30
0.0
 11
-32.32530053709672
 21
16.23911588041057
 31
0.0
  0
LINE
  5
BBD
330
17
100
AcDbEntity
  8
3
100
AcDbLine
 10
-23.22692980546418
 20
20.12489485051321
 30
0.0
 11
-23.22692980546417
 21
20.4
 31
0.0
  0
LINE
  5
BBE
330
17
100
AcDbEntity
  8
3
100
AcDbLine
 10
-18.90180147609936
 20
20.12489485051321
 30
0.0
 11
-18.90180147609936
 21
20.4
 31
0.0
  0
LINE
  5
BBF
330
17
100
AcDbEntity
  8
3
100
AcDbLine
 10
-14.60135110707453
 20
20.12489485051321
 30
0.0
 11
-14.60135110707452
 21
20.4
 31
0.0
  0
LINE
  5
BC0
330
17
100
AcDbEntity
  8
3
100
AcDbLine
 10
-10.30090073804969
 20
20.12489485051321
 30
0.0
 11
-10.30090073804969
 21
20.4
 31
0.0
  0
LINE
  5
BC1
330
17
100
AcDbEntity
  8
3
100
AcDbLine
 10
-6.000450369024846
 20
20.12489485051321
 30
0.0
 11
-6.000450369024846
 21
20.4
 31
0.0
  0
LINE
  5
BC2
330
17
100
AcDbEntity
  8
3
100
AcDbLine
 10
-32.07530058317388
 20
12.57933691030793
 30
0.0
 11
-32.32530053709672
 21
12.57933691030793
 31
0.0
  0
LINE
  5
BC3
330
17
100
AcDbEntity
  8
3
100
AcDbLine
 10
-32.07530058317388
 20
8.919557940205288
 30
0.0
 11
-32.32530053709672
 21
8.919557940205288
 31
0.0
  0
LINE
  5
BC4
330
17
100
AcDbEntity
  8
3
100
AcDbLine
 10
-32.07530058317388
 20
5.259778970102646
 30
0.0
 11
-32.32530053709672
 21
5.259778970102646
 31
0.0
  0
TEXT
  5
BC5
330
17
100
AcDbEntity
  8
2
100
AcDbText
 10
-32.22636157623306
 20
14.25976005014101
 30
0.0
 40
0.156
  1
2
  7
SIMPLEX
 72
     1
 11
-32.17436157623306
 21
14.25976005014101
 31
0.0
100
AcDbText
  0
TEXT
  5
BC6
330
17
100
AcDbEntity
  8
2
100
AcDbText
 10
-32.22636157623306
 20
10.56148418807205
 30
0.0
 40
0.156
  1
3
  7
SIMPLEX
 72
     1
 11
-32.17436157623306
 21
10.56148418807205
 31
0.0
100
AcDbText
  0
TEXT
  5
BC7
330
17
100
AcDbEntity
  8
2
100
AcDbText
 10
-32.23007586194735
 20
6.863208326003085
 30
0.0
 40
0.156
  1
4
  7
SIMPLEX
 72
     1
 11
-32.17436157623306
 21
6.863208326003085
 31
0.0
100
AcDbText
  0
TEXT
  5
BC8
330
17
100
AcDbEntity
  8
2
100
AcDbText
 10
-32.22636157623306
 20
3.164932463934122
 30
0.0
 40
0.156
  1
5
  7
SIMPLEX
 72
     1
 11
-32.17436157623306
 21
3.164932463934122
 31
0.0
100
AcDbText
  0
TEXT
  5
BC9
330
17
100
AcDbEntity
  8
2
100
AcDbText
 10
-25.34215303972297
 20
20.1790499463757
 30
0.0
 40
0.156
  1
B
  7
SIMPLEX
 72
     1
 11
-25.29015303972297
 21
20.1790499463757
 31
0.0
100
AcDbText
  0
TEXT
  5
BCA
330
17
100
AcDbEntity
  8
2
100
AcDbText
 10
-21.03121215302346
 20
20.1790499463757
 30
0.0
 40
0.156
  1
C
  7
SIMPLEX
 72
     1
 11
-20.97549786730917
 21
20.1790499463757
 31
0.0
100
AcDbText
  0
TEXT
  5
BCB
330
17
100
AcDbEntity
  8
2
100
AcDbText
 10
-16.76887717765399
 20
20.1790499463757
 30
0.0
 40
0.156
  1
D
  7
SIMPLEX
 72
     1
 11
-16.716877177654
 21
20.1790499463757
 31
0.0
100
AcDbText
  0
TEXT
  5
BCC
330
17
100
AcDbEntity
  8
2
100
AcDbText
 10
-12.3944732367673
 20
20.1790499463757
 30
0.0
 40
0.156
  1
E
  7
SIMPLEX
 72
     1
 11
-12.34618752248159
 21
20.1790499463757
 31
0.0
100
AcDbText
  0
TEXT
  5
BCD
330
17
100
AcDbEntity
  8
2
100
AcDbText
 10
-8.191887029870745
 20
20.1790499463757
 30
0.0
 40
0.156
  1
F
  7
SIMPLEX
 72
     1
 11
-8.14360131558503
 21
20.1790499463757
 31
0.0
100
AcDbText
  0
TEXT
  5
BCE
330
17
100
AcDbEntity
  8
2
100
AcDbText
 10
-3.940694911644155
 20
20.1790499463757
 30
0.0
 40
0.156
  1
G
  7
SIMPLEX
 72
     1
 11
-3.884980625929869
 21
20.1790499463757
 31
0.0
100
AcDbText
  0
LINE
  5
BD2
330
17
100
AcDbEntity
  8
4
100
AcDbLine
 10
-0.0000000000000142
 20
22.00000000000001
 30
0.0
 11
0.0
 21
0.0
 31
0.0
  0
LINE
  5
BD3
330
17
100
AcDbEntity
  8
4
100
AcDbLine
 10
-34.0
 20
0.0000000000000044
 30
0.0
 11
-34.0
 21
22.00000000000001
 31
0.0
  0
LINE
  5
BD4
330
17
100
AcDbEntity
  8
4
100
AcDbLine
 10
0.0
 20
0.0
 30
0.0
 11
-34.0
 21
0.0000000000000044
 31
0.0
  0
LINE
  5
BD5
330
17
100
AcDbEntity
  8
4
100
AcDbLine
 10
-0.0000000000000142
 20
22.00000000000001
 30
0.0
 11
-34.0
 21
22.00000000000001
 31
0.0
  0
LINE
  5
BE0
330
17
100
AcDbEntity
  8
0
100
AcDbLine
 10
-11.98814491900933
 20
3.632001399999913
 30
0.0
 11
-1.700000000000002
 21
3.632001399999913
 31
0.0
  0
TEXT
  5
BE1
330
17
100
AcDbEntity
  8
3
100
AcDbText
 10
-9.872788662946646
 20
2.850436771421596
 30
0.0
 40
0.0781522982138528
  1
NAME:
  7
SIMPLEX
100
AcDbText
  0
TEXT
  5
BE2
330
17
100
AcDbEntity
  8
3
100
AcDbText
 10
-9.889450143609435
 20
2.097977421109379
 30
0.0
 40
0.0781522982138528
  1
MAT'L DESCRIPTION:
  7
SIMPLEX
100
AcDbText
  0
TEXT
  5
BE3
330
17
100
AcDbEntity
  8
3
100
AcDbText
 10
-9.876987966881516
 20
2.372154126682999
 30
0.0
 40
0.0781522982138528
  1
MAT'L PART NO.:
  7
SIMPLEX
100
AcDbText
  0
LINE
  5
BE4
330
17
100
AcDbEntity
  8
0
100
AcDbLine
 10
-9.956185165449044
 20
2.269844922297493
 30
0.0
 11
-4.503030609492199
 21
2.269844922297493
 31
0.0
  0
LINE
  5
BE5
330
17
100
AcDbEntity
  8
0
100
AcDbLine
 10
-9.956185165449127
 20
2.537827578566156
 30
0.0
 11
-1.700000000000002
 21
2.537827578566156
 31
0.0
  0
LINE
  5
BE6
330
17
100
AcDbEntity
  8
0
100
AcDbLine
 10
-9.956185165449127
 20
3.013702094781779
 30
0.0
 11
-1.700000000000002
 21
3.013702094781779
 31
0.0
  0
LINE
  5
BE7
330
17
100
AcDbEntity
  8
0
100
AcDbLine
 10
-9.956185165449044
 20
1.599999999999915
 30
0.0
 11
-9.956185165449044
 21
3.631959753560119
 31
0.0
  0
LINE
  5
BE8
330
17
100
AcDbEntity
  8
4
100
AcDbLine
 10
-11.98814491900933
 20
3.632001399999913
 30
0.0
 11
-11.98814491900933
 21
1.599999999999915
 31
0.0
  0
TEXT
  5
BE9
330
17
100
AcDbEntity
  8
3
100
AcDbText
 10
-11.87092342818226
 20
2.359067667720224
 30
0.0
 40
0.1236393780336343
  1
FRACTIONS %%P 1/32
  7
SIMPLEX
 72
     1
 11
-10.96423465593561
 21
2.359067667720224
 31
0.0
100
AcDbText
  0
TEXT
  5
BEA
330
17
100
AcDbEntity
  8
3
100
AcDbText
 10
-11.52616231572877
 20
1.636244247895381
 30
0.0
 40
0.0840747770628713
  1
READ ALL NOTES
  7
SIMPLEX
 72
     1
 11
-10.98167804522637
 21
1.636244247895381
 31
0.0
100
AcDbText
  0
TEXT
  5
BEB
330
17
100
AcDbEntity
  8
3
100
AcDbText
 10
-11.45409822110345
 20
1.75603001714754
 30
0.0
 40
0.0840747770628713
  1
DO NOT SCALE
  7
SIMPLEX
 72
     1
 11
-10.98167804522637
 21
1.75603001714754
 31
0.0
100
AcDbText
  0
TEXT
  5
BEC
330
17
100
AcDbEntity
  8
3
100
AcDbText
 10
-11.63541985097534
 20
1.935161228747701
 30
0.0
 40
0.1236393780336343
  1
HOLES %%P .005
  7
SIMPLEX
 72
     1
 11
-10.96423465593561
 21
1.935161228747701
 31
0.0
100
AcDbText
  0
TEXT
  5
BED
330
17
100
AcDbEntity
  8
3
100
AcDbText
 10
-11.69135195056198
 20
2.147114448233963
 30
0.0
 40
0.1236393780336343
  1
ANGLES %%P 1/2%%D
  7
SIMPLEX
 72
     1
 11
-10.96423465593561
 21
2.147114448233963
 31
0.0
100
AcDbText
  0
LINE
  5
BEE
330
17
100
AcDbEntity
  8
0
100
AcDbLine
 10
-11.98814491900933
 20
1.88146085791295
 30
0.0
 11
-9.956185165449044
 21
1.88146085791295
 31
0.0
  0
TEXT
  5
BEF
330
17
100
AcDbEntity
  8
3
100
AcDbText
 10
-11.92700362081581
 20
3.474489422495888
 30
0.0
 40
0.0990742219853884
  1
UNLESS OTHERWISE SPECIFIED
 41
0.8436671689696851
  7
SIMPLEX
 72
     5
 11
-10.0204543277607
 21
3.474489422495888
 31
0.0
100
AcDbText
  0
TEXT
  5
BF0
330
17
100
AcDbEntity
  8
3
100
AcDbText
 10
-11.92700362081581
 20
3.234021522969547
 30
0.0
 40
0.0990742219853884
  1
DIMENSIONS ARE IN INCHES
 41
0.9163641132346461
  7
SIMPLEX
 72
     5
 11
-10.0204543277607
 21
3.234021522969547
 31
0.0
100
AcDbText
  0
TEXT
  5
BF1
330
17
100
AcDbEntity
  8
3
100
AcDbText
 10
-11.60892569853956
 20
2.5710208872064
 30
0.0
 40
0.1236393780336343
  1
.XXX %%P .010 
  7
SIMPLEX
 72
     1
 11
-10.96423465593561
 21
2.5710208872064
 31
0.0
100
AcDbText
  0
TEXT
  5
BF2
330
17
100
AcDbEntity
  8
3
100
AcDbText
 10
-11.47645493636066
 20
2.782974106692662
 30
0.0
 40
0.1236393780336343
  1
.XX %%P .015
  7
SIMPLEX
 72
     1
 11
-10.96423465593561
 21
2.782974106692662
 31
0.0
100
AcDbText
  0
TEXT
  5
BF3
330
17
100
AcDbEntity
  8
3
100
AcDbText
 10
-11.53827462537748
 20
2.975094398511648
 30
0.0
 40
0.1236393780336343
  1
TOLERANCES
  7
SIMPLEX
 72
     1
 11
-10.96423465593561
 21
2.975094398511648
 31
0.0
100
AcDbText
  0
LINE
  5
BF4
330
17
100
AcDbEntity
  8
0
100
AcDbLine
 10
-11.98814491900933
 20
3.397502858918579
 30
0.0
 11
-9.956185165449044
 21
3.397502858918579
 31
0.0
  0
LINE
  5
BF5
330
17
100
AcDbEntity
  8
0
100
AcDbLine
 10
-11.98814491900933
 20
3.16304596427704
 30
0.0
 11
-9.956185165449044
 21
3.16304596427704
 31
0.0
  0
TEXT
  5
BF6
330
17
100
AcDbEntity
  8
3
100
AcDbText
 10
-3.585951656237951
 20
2.323502844314687
 30
0.0
 40
0.077527079828142
  1
OF
  7
SIMPLEX
100
AcDbText
  0
LINE
  5
BF7
330
17
100
AcDbEntity
  8
0
100
AcDbLine
 10
-4.503030609492199
 20
2.177674272979746
 30
0.0
 11
-1.700000000000002
 21
2.177674272979746
 31
0.0
  0
TEXT
  5
BF8
330
17
100
AcDbEntity
  8
3
100
AcDbText
 10
-3.912735982436444
 20
1.717904679869014
 30
0.0
 40
0.1750611479990302
  1
2110.70
  7
SIMPLEX
 72
     1
 11
-3.429233764153408
 21
1.717904679869014
 31
0.0
100
AcDbText
  0
TEXT
  5
BF9
330
17
100
AcDbEntity
  8
3
100
AcDbText
 10
-6.962622420889389
 20
2.622298285376094
 30
0.0
 40
0.1563045964277055
  1
PNEUMATIC 6 X 14
  7
SIMPLEX
 72
     1
 11
-5.827553327783433
 21
2.622298285376094
 31
0.0
100
AcDbText
  0
TEXT
  5
BFA
330
17
100
AcDbEntity
  8
3
100
AcDbText
 10
-8.394423764167374
 20
1.783153505858034
 30
0.0
 40
0.1162906197422129
  1
MATERIAL: 3/8" PLYWOOD
  7
SIMPLEX
 72
     1
 11
-7.228748742465668
 21
1.783153505858034
 31
0.0
100
AcDbText
  0
TEXT
  5
BFB
330
17
100
AcDbEntity
  8
3
100
AcDbText
 10
-8.248910493764839
 20
2.345443402288884
 30
0.0
 40
0.1162906197422129
  1
DWG/PART NO/2110.70
  7
SIMPLEX
 72
     1
 11
-7.221676686041959
 21
2.345443402288884
 31
0.0
100
AcDbText
  0
TEXT
  5
BFC
330
17
100
AcDbEntity
  8
3
100
AcDbText
 10
-3.858185627596198
 20
2.281398689203142
 30
0.0
 40
0.1563045964277055
  1
1
  7
SIMPLEX
100
AcDbText
  0
LINE
  5
BFD
330
17
100
AcDbEntity
  8
0
100
AcDbLine
 10
-4.503030609492199
 20
1.599999999999915
 30
0.0
 11
-4.503030609492199
 21
2.537827578566156
 31
0.0
  0
TEXT
  5
BFE
330
17
100
AcDbEntity
  8
3
100
AcDbText
 10
-4.388520021677493
 20
2.324167042848136
 30
0.0
 40
0.077527079828142
  1
SHEET
  7
SIMPLEX
100
AcDbText
  0
TEXT
  5
BFF
330
17
100
AcDbEntity
  8
3
100
AcDbText
 10
-4.428820359894088
 20
2.031176911853154
 30
0.0
 40
0.0781522982138528
  1
PART/DWG. NO.
  7
SIMPLEX
100
AcDbText
  0
LINE
  5
C00
330
17
100
AcDbEntity
  8
0
100
AcDbLine
 10
-3.049992691573762
 20
2.177674272979746
 30
0.0
 11
-3.049992691573762
 21
2.537827578566156
 31
0.0
  0
TEXT
  5
C01
330
17
100
AcDbEntity
  8
3
100
AcDbText
 10
-3.249147827809551
 20
2.281398689203142
 30
0.0
 40
0.1563045964277055
  1
1
  7
SIMPLEX
100
AcDbText
  0
TEXT
  5
C02
330
17
100
AcDbEntity
  8
3
100
AcDbText
 10
-2.322931149616845
 20
2.296484104436293
 30
0.0
 40
0.1071624313108349
  1
.50=1
  7
SIMPLEX
 72
     1
 11
-2.11626074637452
 21
2.296484104436293
 31
0.0
100
AcDbText
  0
TEXT
  5
C03
330
17
100
AcDbEntity
  8
3
100
AcDbText
 10
-2.840111806203438
 20
2.312278887805063
 30
0.0
 40
0.0781522982138528
  1
SCALE:
  7
SIMPLEX
100
AcDbText
  0
LINE
  5
C04
330
17
100
AcDbEntity
  8
0
100
AcDbLine
 10
-2.370490417183275
 20
1.6
 30
0.0
 11
-2.370490417183275
 21
2.177674272979746
 31
0.0
  0
TEXT
  5
C05
330
17
100
AcDbEntity
  8
3
100
AcDbText
 10
-2.067616393320516
 20
1.717904679869014
 30
0.0
 40
0.1750611479990302
  1
*
  7
SIMPLEX
 72
     1
 11
-2.025935167606462
 21
1.717904679869014
 31
0.0
100
AcDbText
  0
TEXT
  5
C06
330
17
100
AcDbEntity
  8
3
100
AcDbText
 10
-2.134124095989079
 20
2.030693672726668
 30
0.0
 40
0.0781522982138528
  1
REV.
  7
SIMPLEX
100
AcDbText
  0
TEXT
  5
CB0
330
17
100
AcDbEntity
  8
3
100
AcDbText
 10
64.93769383004416
 20
5.219086099950097
 30
0.0
 40
0.25
  1

  7
ITALICC
100
AcDbText
  0
LWPOLYLINE
  5
CD1
330
17
100
AcDbEntity
  8
4
  6
Continuous
100
AcDbPolyline
 90
      133
 70
     0
 43
0.0
 10
-6.257802101070467
 20
3.463953168427848
 10
-6.319414355442575
 20
3.463953168427848
 10
-6.315075464289562
 20
3.459325017864748
 10
-6.311315091957084
 20
3.454696867301563
 10
-6.308422497855048
 20
3.450068716738377
 10
-6.305819163163292
 20
3.445729825585372
 10
-6.303794347291868
 20
3.441390934432449
 10
-6.302348050240907
 20
3.437052043279442
 10
-6.301191012600098
 20
3.432423892716341
 10
-6.300901753189918
 20
3.427795742153159
 10
-6.300901753189918
 20
3.269860104185048
 10
-6.306108422573457
 20
3.270438623005488
 10
-6.311604351367265
 20
3.271306401236109
 10
-6.316811020750805
 20
3.272174179466643
 10
-6.322306949544524
 20
3.273331217107438
 10
-6.327513618928064
 20
3.274777514158496
 10
-6.333009547721871
 20
3.276223811209471
 10
-6.338216217105497
 20
3.277959367670623
 10
-6.343422886489037
 20
3.279694924131772
 10
-6.348340296462396
 20
3.281719740003188
 10
-6.353546965845936
 20
3.284033815284778
 10
-6.358175116409113
 20
3.286347890566373
 10
-6.363092526382472
 20
3.288951225258143
 10
-6.367720676945651
 20
3.29184381936009
 10
-6.372348827508844
 20
3.294736413462123
 10
-6.376687718661769
 20
3.298207526384511
 10
-6.3807373504045
 20
3.301678639306812
 10
-6.388258095069644
 20
3.309199383972031
 10
-6.394911061504244
 20
3.317587906867781
 10
-6.400696249708132
 20
3.326554948583888
 10
-6.405902919091772
 20
3.336389768530611
 10
-6.409952550834502
 20
3.346224588477336
 10
-6.4134236637569
 20
3.356927186654678
 10
-6.415737739038489
 20
3.367629784831931
 10
-6.417184036089452
 20
3.378621642419451
 10
-6.418051814319994
 20
3.389613500006976
 10
-6.418051814319994
 20
3.400894617004758
 10
-6.416894776679271
 20
3.411886474592278
 10
-6.415159220218042
 20
3.422878332179798
 10
-6.412555885526272
 20
3.433870189767318
 10
-6.408795513193708
 20
3.444283528534398
 10
-6.404456622040782
 20
3.454407607891385
 10
-6.399249952657242
 20
3.463953168427848
 10
-6.478217771641227
 20
3.463953168427848
 10
-6.484002959845112
 20
3.445440566175192
 10
-6.488052591587942
 20
3.427506482742897
 10
-6.490077407459351
 20
3.409572399310688
 10
-6.490366666869531
 20
3.392506094109008
 10
-6.489209629228738
 20
3.375729048317507
 10
-6.486027775716523
 20
3.359819780756626
 10
-6.481399625153342
 20
3.344489032016183
 10
-6.475325177539275
 20
3.329736802096013
 10
-6.467515173463964
 20
3.316141609816723
 10
-6.458548131747774
 20
3.303124936357873
 10
-6.448134792980681
 20
3.291265300539733
 10
-6.436564416572721
 20
3.280273442952212
 10
-6.423547743113886
 20
3.270727882415668
 10
-6.409374032014142
 20
3.262050100109738
 10
-6.394332542683883
 20
3.254818614854786
 10
-6.378134015712745
 20
3.248744167240629
 10
-6.373505865149552
 20
3.247297870189653
 10
-6.368588455176193
 20
3.246140832548859
 10
-6.363671045202834
 20
3.244983794908065
 10
-6.358464375819294
 20
3.243826757267266
 10
-6.353546965845936
 20
3.242958979036648
 10
-6.348340296462396
 20
3.242380460216295
 10
-6.343422886489037
 20
3.241512681985673
 10
-6.338216217105497
 20
3.241223422575497
 10
-6.333298807132122
 20
3.240644903755137
 10
-6.328381397158763
 20
3.240355644344878
 10
-6.323463987185405
 20
3.240066384934698
 10
-6.318835836622213
 20
3.240066384934698
 10
-6.314207686059035
 20
3.240066384934698
 10
-6.309868794906022
 20
3.240066384934698
 10
-6.305529903753011
 20
3.240355644344878
 10
-6.301480272010365
 20
3.240644903755137
 10
-6.301480272010365
 20
3.209983406274089
 10
-6.333009547721871
 20
3.192338582252053
 10
-6.339373254746192
 20
3.190892285201078
 10
-6.345736961770626
 20
3.190024506970462
 10
-6.352100668794946
 20
3.190024506970462
 10
-6.357885856998932
 20
3.190892285201078
 10
-6.363960304613017
 20
3.192049322841873
 10
-6.369456233406807
 20
3.194074138713203
 10
-6.374662902790363
 20
3.196677473405058
 10
-6.379869572173972
 20
3.199570067507009
 10
-6.384786982147346
 20
3.203041180429397
 10
-6.389415132710523
 20
3.206801552761961
 10
-6.393754023863436
 20
3.211140443914883
 10
-6.397803655606195
 20
3.215479335067888
 10
-6.401564027938832
 20
3.220396745041251
 10
-6.405035140861143
 20
3.225314155014614
 10
-6.408216994373276
 20
3.230231564987977
 10
-6.410820329065032
 20
3.235438234371513
 10
-6.46635813582307
 20
3.209694146863908
 10
-6.4637548011313
 20
3.204776736890549
 10
-6.460572947619183
 20
3.199859326917183
 10
-6.457391094106982
 20
3.194652657533644
 10
-6.453919981184581
 20
3.189735247560283
 10
-6.449870349441853
 20
3.184817837586921
 10
-6.445820717699092
 20
3.179900427613558
 10
-6.441192567135914
 20
3.175561536460555
 10
-6.436564416572721
 20
3.170933385897368
 10
-6.431647006599376
 20
3.166883754154623
 10
-6.426151077805656
 20
3.163123381822058
 10
-6.420365889601582
 20
3.159941528309849
 10
-6.414580701397682
 20
3.156759674797724
 10
-6.408216994373276
 20
3.154445599516131
 10
-6.401853287349013
 20
3.152420783644716
 10
-6.394911061504244
 20
3.150974486593745
 10
-6.387679576249297
 20
3.150395967773386
 10
-6.385365500967693
 20
3.150395967773386
 10
-6.383051425686089
 20
3.150685227183563
 10
-6.380448090994335
 20
3.150974486593745
 10
-6.377844756302549
 20
3.151263746003918
 10
-6.37553068102096
 20
3.151842264824361
 10
-6.372927346329205
 20
3.152710043054978
 10
-6.370613271047602
 20
3.153577821285515
 10
-6.368299195766012
 20
3.154445599516131
 10
-6.243049871150374
 20
3.22820674911656
 10
-6.240157277048353
 20
3.230520824398154
 10
-6.238132461177003
 20
3.233702677910363
 10
-6.237264682946316
 20
3.237463050242928
 10
-6.236975423536136
 20
3.241512681985673
 10
-6.236975423536136
 20
3.435316486818292
 10
-6.237553942356568
 20
3.441969453252805
 10
-6.238710979997363
 20
3.448043900866962
 10
-6.240735795868786
 20
3.452961310840325
 10
-6.243339130560543
 20
3.457010942583154
 10
-6.246520984072673
 20
3.459903536685103
 10
-6.250281356405338
 20
3.462217611966691
 10
-6.254041728737802
 20
3.46337464960749
 10
-6.257802101070467
 20
3.463953168427848
  0
LWPOLYLINE
  5
CD2
330
17
100
AcDbEntity
  8
4
  6
Continuous
100
AcDbPolyline
 90
       61
 70
     0
 43
0.0
 10
-9.098076958080667
 20
3.328001245634861
 10
-9.089688435184996
 20
3.328579764455303
 10
-9.08158917169942
 20
3.329736802096098
 10
-9.074357686444557
 20
3.331472358557248
 10
-9.06770472000997
 20
3.333786433838843
 10
-9.061919531805983
 20
3.336679027940788
 10
-9.056423603012175
 20
3.339860881452997
 10
-9.051506193038818
 20
3.343621253785566
 10
-9.047167301885892
 20
3.347960144938488
 10
-9.043406929553327
 20
3.352588295501671
 10
-9.04022507604121
 20
3.357505705475032
 10
-9.037621741349338
 20
3.362712374858573
 10
-9.035596925478015
 20
3.368497563062553
 10
-9.033861369016788
 20
3.374282751266532
 10
-9.032704331376066
 20
3.380357198880693
 10
-9.032125812555547
 20
3.386720905905028
 10
-9.031836553145366
 20
3.393373872339624
 10
-9.032125812555547
 20
3.399448319953783
 10
-9.033282850196428
 20
3.405522767567943
 10
-9.034729147247386
 20
3.411307955771837
 10
-9.037043222528991
 20
3.417093143975818
 10
-9.039646557220764
 20
3.422589072769535
 10
-9.04282841073298
 20
3.427795742153159
 10
-9.046588783065461
 20
3.432713152126522
 10
-9.050638414808275
 20
3.437341302689707
 10
-9.055266565371466
 20
3.441390934432449
 10
-9.060183975344829
 20
3.445151306765017
 10
-9.065101385318198
 20
3.448333160277227
 10
-9.070597314111919
 20
3.451225754379171
 10
-9.076382502315881
 20
3.453539829660767
 10
-9.082167690519867
 20
3.45498612671174
 10
-9.088242138133947
 20
3.456143164352538
 10
-9.094316585748186
 20
3.456432423762711
 10
-9.296798172886724
 20
3.456432423762711
 10
-9.293905578784716
 20
3.454118348481122
 10
-9.291302244092918
 20
3.451804273199529
 10
-9.288698909401075
 20
3.449200938507759
 10
-9.286384834119472
 20
3.446886863226167
 10
-9.28407075883797
 20
3.444572787944577
 10
-9.28175668355638
 20
3.441680193842628
 10
-9.279731867685056
 20
3.43878759974068
 10
-9.277707051813649
 20
3.435316486818292
 10
-9.274814457711697
 20
3.428952779793958
 10
-9.272500382430107
 20
3.421432035128821
 10
-9.271054085379033
 20
3.414200549873871
 10
-9.270475566558671
 20
3.40841536166989
 10
-9.270186307148518
 20
3.148371151901975
 10
-9.200474789290725
 20
3.209404887453731
 10
-9.200474789290725
 20
3.330026061506276
 10
-9.169813291809843
 20
3.330315320916453
 10
-9.065390644728379
 20
3.157338193618078
 10
-8.975430968156787
 20
3.156759674797724
 10
-8.980926896950592
 20
3.159941528309849
 10
-8.986422825744313
 20
3.163701900642498
 10
-8.991629495127938
 20
3.167462272975066
 10
-8.996836164511476
 20
3.17180116412799
 10
-9.001753574484837
 20
3.175850795870732
 10
-9.006381725048015
 20
3.180478946433913
 10
-9.011009875611222
 20
3.185107096997098
 10
-9.0156380261744
 20
3.190024506970462
 10
-9.098076958080667
 20
3.328001245634861
  0
LWPOLYLINE
  5
CD3
330
17
100
AcDbEntity
  8
4
  6
Continuous
100
AcDbPolyline
 90
       59
 70
     0
 43
0.0
 10
-9.497793461110772
 20
3.375439788907326
 10
-9.468289001270619
 20
3.398002022902725
 10
-9.463660850707411
 20
3.397712763492548
 10
-9.459321959554415
 20
3.397134244672193
 10
-9.454983068401487
 20
3.395977207031394
 10
-9.450933436658743
 20
3.3948201693906
 10
-9.446594545505746
 20
3.393084612929363
 10
-9.442544913762915
 20
3.391059797058033
 10
-9.438784541430434
 20
3.388745721776443
 10
-9.435024169097786
 20
3.386142387084673
 10
-9.431553056175488
 20
3.383539052392818
 10
-9.42808194325309
 20
3.380646458290866
 10
-9.424610830330694
 20
3.377753864188923
 10
-9.421428976818575
 20
3.374572010676709
 10
-9.418536382716553
 20
3.371390157164586
 10
-9.415643788614515
 20
3.368208303652376
 10
-9.413040453922748
 20
3.365315709550428
 10
-9.410726378641244
 20
3.362133856038218
 10
-9.402627115155668
 20
3.349406441989546
 10
-9.396263408131318
 20
3.336100509120433
 10
-9.39163525756814
 20
3.321926798020703
 10
-9.388453404055935
 20
3.307463827510793
 10
-9.3864285881846
 20
3.292711597590708
 10
-9.385560809953986
 20
3.277670108260443
 10
-9.384982291133635
 20
3.262628618930182
 10
-9.385271550543821
 20
3.247587129599834
 10
-9.385850069364151
 20
3.239777125524525
 10
-9.387296366415226
 20
3.232256380859388
 10
-9.389610441696817
 20
3.225024895604437
 10
-9.392503035798767
 20
3.218082669759658
 10
-9.395974148721151
 20
3.211429703325146
 10
-9.400313039874076
 20
3.205065996300723
 10
-9.404941190437256
 20
3.199280808096828
 10
-9.410147859820797
 20
3.193784879303029
 10
-9.415933048024783
 20
3.188867469329663
 10
-9.42171823622877
 20
3.184239318766481
 10
-9.42808194325309
 20
3.18018968702374
 10
-9.434445650277439
 20
3.176429314691171
 10
-9.440809357301843
 20
3.173247461178957
 10
-9.447462323736273
 20
3.170933385897368
 10
-9.454115290170877
 20
3.168908570026038
 10
-9.460478997195297
 20
3.167462272975066
 10
-9.464239369527774
 20
3.167751532385244
 10
-9.467999741860424
 20
3.168040791795421
 10
-9.471760114192903
 20
3.168908570026038
 10
-9.475231227115386
 20
3.170065607666833
 10
-9.478702340037683
 20
3.171511904717808
 10
-9.481884193549886
 20
3.173247461178957
 10
-9.485066047062103
 20
3.175561536460555
 10
-9.487669381753876
 20
3.177875611742143
 10
-9.490561975855824
 20
3.180768205844179
 10
-9.492586791727234
 20
3.183950059356305
 10
-9.49432234818839
 20
3.187421172278692
 10
-9.495768645239362
 20
3.191181544611259
 10
-9.496636423469992
 20
3.194941916943823
 10
-9.497214942290424
 20
3.198991548686569
 10
-9.497793461110772
 20
3.203041180429397
 10
-9.497793461110772
 20
3.207090812172138
 10
-9.497793461110772
 20
3.375439788907326
  0
LWPOLYLINE
  5
CD4
330
17
100
AcDbEntity
  8
4
  6
Continuous
100
AcDbPolyline
 90
       83
 70
     0
 43
0.0
 10
-9.380354140570444
 20
3.425192407461389
 10
-9.384982291133635
 20
3.429531298614313
 10
-9.389610441696817
 20
3.433870189767318
 10
-9.39423859225991
 20
3.437919821510063
 10
-9.399156002233267
 20
3.441680193842628
 10
-9.404362671616894
 20
3.444862047354837
 10
-9.410147859820797
 20
3.447754641456788
 10
-9.416511566845215
 20
3.450357976148558
 10
-9.423743052100178
 20
3.452093532609792
 10
-9.558537937252351
 20
3.377464604778743
 10
-9.559116456072699
 20
3.185107096997098
 10
-9.558827196662546
 20
3.181925243484974
 10
-9.558248677842184
 20
3.178454130562583
 10
-9.557091640201292
 20
3.175561536460555
 10
-9.555645343150414
 20
3.172668942358603
 10
-9.553909786689175
 20
3.170065607666833
 10
-9.551884970817752
 20
3.167462272975066
 10
-9.549570895536163
 20
3.165437457103651
 10
-9.546967560844393
 20
3.163412641232236
 10
-9.542628669691396
 20
3.160809306540466
 10
-9.538000519128305
 20
3.158495231258873
 10
-9.53337236856511
 20
3.156470415387544
 10
-9.528454958591751
 20
3.15473485892631
 10
-9.523537548618376
 20
3.153577821285515
 10
-9.518620138645019
 20
3.152420783644716
 10
-9.513413469261481
 20
3.151553005414184
 10
-9.508206799877854
 20
3.150685227183563
 10
-9.503000130494314
 20
3.150395967773386
 10
-9.497793461110772
 20
3.150106708363123
 10
-9.492586791727234
 20
3.150106708363123
 10
-9.487090862933511
 20
3.150395967773386
 10
-9.481884193549886
 20
3.150685227183563
 10
-9.476677524166262
 20
3.151263746003918
 10
-9.471470854782722
 20
3.151842264824361
 10
-9.466264185399195
 20
3.152710043054978
 10
-9.460189737785041
 20
3.153577821285515
 10
-9.454115290170877
 20
3.155024118336486
 10
-9.448330101966972
 20
3.156470415387544
 10
-9.442544913762915
 20
3.158205971848697
 10
-9.436759725559026
 20
3.160230787720111
 10
-9.430974537355126
 20
3.162544863001704
 10
-9.425478608561236
 20
3.165148197693474
 10
-9.419982679767512
 20
3.167751532385244
 10
-9.414776010383974
 20
3.170644126487192
 10
-9.409280081590251
 20
3.173825979999401
 10
-9.404362671616894
 20
3.177297092921788
 10
-9.399156002233267
 20
3.180768205844179
 10
-9.39423859225991
 20
3.184528578176743
 10
-9.389610441696817
 20
3.188288950509308
 10
-9.384982291133635
 20
3.192338582252053
 10
-9.380354140570444
 20
3.196388213994799
 10
-9.373122655315484
 20
3.203908958659928
 10
-9.366469688880895
 20
3.211718962735323
 10
-9.360105981856547
 20
3.219818226220811
 10
-9.35461005306274
 20
3.228496008526823
 10
-9.349403383679202
 20
3.237752309653108
 10
-9.344775233116022
 20
3.247008610779476
 10
-9.341014860783559
 20
3.256554171316023
 10
-9.337543747861076
 20
3.266388991262745
 10
-9.334940413169306
 20
3.276223811209471
 10
-9.332915597297985
 20
3.286637149976548
 10
-9.331469300247007
 20
3.296761229333453
 10
-9.330601522016381
 20
3.307174568100618
 10
-9.330312262606213
 20
3.317298647457517
 10
-9.330890781426646
 20
3.327711986224683
 10
-9.332047819067355
 20
3.338125324991763
 10
-9.333783375528595
 20
3.348249404348748
 10
-9.335229672579572
 20
3.353745333142469
 10
-9.336675969630546
 20
3.359241261936268
 10
-9.338411526091775
 20
3.364737190729989
 10
-9.340436341963114
 20
3.369943860113528
 10
-9.342750417244699
 20
3.375150529497153
 10
-9.345353751936473
 20
3.380357198880693
 10
-9.347957086628326
 20
3.385274608854052
 10
-9.350849680730274
 20
3.390192018827415
 10
-9.354031534242407
 20
3.395109428800778
 10
-9.357502647164777
 20
3.399737579363963
 10
-9.360973760087174
 20
3.404365729927148
 10
-9.36444487300956
 20
3.408704621080068
 10
-9.368205245342123
 20
3.413043512233072
 10
-9.372254877084882
 20
3.417093143975818
 10
-9.376304508827617
 20
3.421142775718563
 10
-9.380354140570444
 20
3.425192407461389
  0
LWPOLYLINE
  5
CD5
330
17
100
AcDbEntity
  8
4
  6
Continuous
100
AcDbPolyline
 90
       21
 70
     0
 43
0.0
 10
-9.753852155918323
 20
3.543403366049751
 10
-9.753852155918323
 20
3.203745445419441
 10
-9.740574045674721
 20
3.072031333985544
 10
-9.724806289760508
 20
3.203745445419441
 10
-9.724806289760508
 20
3.542810593271005
 10
-9.725161953427685
 20
3.547671330056603
 10
-9.726110389873696
 20
3.551939294063457
 10
-9.727533044542679
 20
3.55549593073586
 10
-9.729311362878846
 20
3.558459794629516
 10
-9.731563899438057
 20
3.560712331188723
 10
-9.734053545108736
 20
3.5623720949691
 10
-9.73666174533514
 20
3.563320531415113
 10
-9.739269945561515
 20
3.563676195082293
 10
-9.741996700343689
 20
3.563439085970812
 10
-9.744604900570095
 20
3.562490649524883
 10
-9.747094546240788
 20
3.560830885744421
 10
-9.749347082799914
 20
3.558696903741
 10
-9.75112540113615
 20
3.555851594403125
 10
-9.752548055805052
 20
3.552294957730721
 10
-9.753496492251059
 20
3.548145548279569
 10
-9.753852155918323
 20
3.543403366049751
  0
LWPOLYLINE
  5
CD6
330
17
100
AcDbEntity
  8
4
  6
Continuous
100
AcDbPolyline
 90
       21
 70
     0
 43
0.0
 10
-9.803175472899667
 20
3.494851957225383
 10
-9.803175472899667
 20
3.203863999975225
 10
-9.78859326254296
 20
3.072031333985544
 10
-9.773536833963193
 20
3.203271227196479
 10
-9.773536833963193
 20
3.495918948227098
 10
-9.773892497630455
 20
3.500661130456913
 10
-9.774840934076394
 20
3.504691985352283
 10
-9.776263588745361
 20
3.508130067468902
 10
-9.778160461637297
 20
3.51097537680686
 10
-9.780412998196522
 20
3.512990804254505
 10
-9.782902643867117
 20
3.514532013479181
 10
-9.785629398649293
 20
3.515361895369411
 10
-9.788356153431463
 20
3.515599004480896
 10
-9.791082908213637
 20
3.51512478625793
 10
-9.793809662995826
 20
3.51405779525622
 10
-9.796299308666419
 20
3.512398031475753
 10
-9.798551845225633
 20
3.510145494916629
 10
-9.800448718117491
 20
3.507181631022971
 10
-9.801871372786564
 20
3.50374354890627
 10
-9.802819809232488
 20
3.499594139455203
 10
-9.803175472899667
 20
3.494851957225383
  0
LWPOLYLINE
  5
CD7
330
17
100
AcDbEntity
  8
4
  6
Continuous
100
AcDbPolyline
 90
       21
 70
     0
 43
0.0
 10
-9.705832939050084
 20
3.515210762388198
 10
-9.705832939050084
 20
3.203745445419441
 10
-9.692554828806578
 20
3.072031333985544
 10
-9.676787072892267
 20
3.203745445419441
 10
-9.676787072892267
 20
3.514617989609446
 10
-9.677142736559542
 20
3.519478726395048
 10
-9.678091173005554
 20
3.523746690401899
 10
-9.679513827674457
 20
3.527303327074306
 10
-9.681292146010688
 20
3.530267190967959
 10
-9.683544682569815
 20
3.532519727527172
 10
-9.686034328240507
 20
3.53417949130763
 10
-9.688642528466914
 20
3.535127927753558
 10
-9.691250728693288
 20
3.535483591420827
 10
-9.693977483475462
 20
3.535246482309346
 10
-9.696585683701867
 20
3.534298045863328
 10
-9.699075329372545
 20
3.532638282082869
 10
-9.701327865931672
 20
3.530504300079441
 10
-9.703106184267907
 20
3.527658990741569
 10
-9.704528838936893
 20
3.524102354069163
 10
-9.705477275382918
 20
3.519952944618096
 10
-9.705832939050084
 20
3.515210762388198
  0
LWPOLYLINE
  5
CD8
330
17
100
AcDbEntity
  8
4
  6
Continuous
100
AcDbPolyline
 90
       18
 70
     0
 43
0.0
 10
-9.69978665670699
 20
3.210503055096983
 10
-9.699905211262773
 20
3.215600900994068
 10
-9.699905211262773
 20
3.221172965114113
 10
-9.699905211262773
 20
3.227219247457209
 10
-9.699430993039813
 20
3.233739748023185
 10
-9.698601111149571
 20
3.240615912256511
 10
-9.697059901924831
 20
3.247966294712716
 10
-9.694688810809992
 20
3.255672340836276
 10
-9.691250728693288
 20
3.263734050627013
 10
-9.688405419355431
 20
3.256146559059238
 10
-9.686152882796292
 20
3.248677622047252
 10
-9.68449311901584
 20
3.24144579414674
 10
-9.683307573458336
 20
3.234451075357716
 10
-9.682596246123805
 20
3.227693465680173
 10
-9.682359137012412
 20
3.221528628781376
 10
-9.682359137012412
 20
3.215719455549851
 10
-9.682596246123805
 20
3.210503055096983
 10
-9.69978665670699
 20
3.210503055096983
  0
LWPOLYLINE
  5
CD9
330
17
100
AcDbEntity
  8
4
  6
Continuous
100
AcDbPolyline
 90
       18
 70
     0
 43
0.0
 10
-9.682833355235372
 20
3.203508336307961
 10
-9.682951909791071
 20
3.201611463416017
 10
-9.683189018902552
 20
3.199714590524073
 10
-9.683781791681296
 20
3.198054826743613
 10
-9.68449311901584
 20
3.196513617518933
 10
-9.685678664573243
 20
3.19509096285004
 10
-9.687101319242216
 20
3.194023971848245
 10
-9.688761083022683
 20
3.193312644513794
 10
-9.690895065026113
 20
3.192956980846529
 10
-9.692910492473755
 20
3.193075535402313
 10
-9.694807365365702
 20
3.193668308181061
 10
-9.696230020034676
 20
3.194735299182773
 10
-9.697415565592166
 20
3.196157953851751
 10
-9.69836400203809
 20
3.197817717632129
 10
-9.699075329372545
 20
3.199596035968375
 10
-9.699549547595593
 20
3.201492908860318
 10
-9.699668102151292
 20
3.203508336307961
 10
-9.682833355235372
 20
3.203508336307961
  0
LWPOLYLINE
  5
CDA
330
17
100
AcDbEntity
  8
4
  6
Continuous
100
AcDbPolyline
 90
       18
 70
     0
 43
0.0
 10
-9.730852572103598
 20
3.203508336307961
 10
-9.730971126659312
 20
3.201611463416017
 10
-9.731208235770793
 20
3.199714590524073
 10
-9.731801008549537
 20
3.198054826743613
 10
-9.732512335884068
 20
3.196513617518933
 10
-9.733697881441486
 20
3.19509096285004
 10
-9.735120536110457
 20
3.194023971848245
 10
-9.736780299890924
 20
3.193312644513794
 10
-9.73891428189435
 20
3.192956980846529
 10
-9.740929709341996
 20
3.193075535402313
 10
-9.742826582233931
 20
3.193668308181061
 10
-9.744249236902902
 20
3.194735299182773
 10
-9.745434782460307
 20
3.196157953851751
 10
-9.746383218906332
 20
3.197817717632129
 10
-9.747094546240788
 20
3.199596035968375
 10
-9.74756876446375
 20
3.201492908860318
 10
-9.747687319019432
 20
3.203508336307961
 10
-9.730852572103598
 20
3.203508336307961
  0
LWPOLYLINE
  5
CDB
330
17
100
AcDbEntity
  8
4
  6
Continuous
100
AcDbPolyline
 90
       18
 70
     0
 43
0.0
 10
-9.747805873575231
 20
3.210503055096983
 10
-9.747924428131014
 20
3.215600900994068
 10
-9.747924428131014
 20
3.221172965114113
 10
-9.747924428131014
 20
3.227219247457209
 10
-9.747450209908036
 20
3.233739748023185
 10
-9.746620328017726
 20
3.240615912256511
 10
-9.745079118793057
 20
3.247966294712716
 10
-9.742708027678133
 20
3.255672340836276
 10
-9.739269945561515
 20
3.263734050627013
 10
-9.73642463622356
 20
3.256146559059238
 10
-9.734172099664446
 20
3.248677622047252
 10
-9.732512335884068
 20
3.24144579414674
 10
-9.731326790326562
 20
3.234451075357716
 10
-9.730615462992032
 20
3.227693465680173
 10
-9.730378353880553
 20
3.221528628781376
 10
-9.730378353880553
 20
3.215719455549851
 10
-9.730615462992032
 20
3.210503055096983
 10
-9.747805873575231
 20
3.210503055096983
  0
LWPOLYLINE
  5
CDC
330
17
100
AcDbEntity
  8
4
  6
Continuous
100
AcDbPolyline
 90
       18
 70
     0
 43
0.0
 10
-9.798196181558367
 20
3.210028836874021
 10
-9.798314736114065
 20
3.216905001107262
 10
-9.797840517891103
 20
3.22401827445207
 10
-9.797010636000964
 20
3.231131547796794
 10
-9.795825090443457
 20
3.238126266585821
 10
-9.794283881218772
 20
3.244765321707581
 10
-9.792505562882539
 20
3.25069304949489
 10
-9.790490135434891
 20
3.255909449947757
 10
-9.788237598875696
 20
3.259940304843126
 10
-9.786340725983819
 20
3.256028004503455
 10
-9.784443853091799
 20
3.251048713162158
 10
-9.782665534755636
 20
3.245002430819062
 10
-9.781124325530953
 20
3.238244821141604
 10
-9.779820225417763
 20
3.231131547796794
 10
-9.778871788971756
 20
3.223899719896285
 10
-9.778397570748779
 20
3.216786446551564
 10
-9.778397570748779
 20
3.210028836874021
 10
-9.798196181558367
 20
3.210028836874021
  0
LWPOLYLINE
  5
CDD
330
17
100
AcDbEntity
  8
4
  6
Continuous
100
AcDbPolyline
 90
       18
 70
     0
 43
0.0
 10
-9.778634679860259
 20
3.203508336307961
 10
-9.778634679860259
 20
3.201611463416017
 10
-9.778871788971756
 20
3.199714590524073
 10
-9.779464561750499
 20
3.197936272187911
 10
-9.780412998196522
 20
3.196157953851751
 10
-9.781598543753927
 20
3.194616744626989
 10
-9.783258307534396
 20
3.193431199069578
 10
-9.785155180426327
 20
3.192601317179347
 10
-9.787526271541237
 20
3.192364208067866
 10
-9.789897362656148
 20
3.192719871735048
 10
-9.791912790103793
 20
3.193431199069578
 10
-9.793691108440043
 20
3.194498190071291
 10
-9.795232317664712
 20
3.196039399295968
 10
-9.796299308666419
 20
3.197699163076431
 10
-9.797247745112343
 20
3.199477481412591
 10
-9.797721963335403
 20
3.201492908860318
 10
-9.797959072446886
 20
3.203508336307961
 10
-9.778634679860259
 20
3.203508336307961
  0
LINE
  5
CDE
330
17
100
AcDbEntity
  8
0
100
AcDbLine
 10
-9.739563964029144
 20
3.563650628259066
 30
0.0
 11
-9.739563964029144
 21
3.563650628259066
 31
0.0
  0
LWPOLYLINE
  5
CDF
330
17
100
AcDbEntity
  8
4
  6
Continuous
100
AcDbPolyline
 90
       21
 70
     0
 43
0.0
 10
-9.099233995721546
 20
3.393373872339624
 10
-9.10010177395209
 20
3.384406830623436
 10
-9.102705108643846
 20
3.376018307727681
 10
-9.106754740386692
 20
3.368786822472733
 10
-9.112250669180395
 20
3.362423115448391
 10
-9.118903635614998
 20
3.357216446064856
 10
-9.126424380280127
 20
3.353456073732287
 10
-9.1348129031758
 20
3.351141998450698
 10
-9.143490685481822
 20
3.350274220220078
 10
-9.201631826931617
 20
3.350274220220078
 10
-9.201631826931617
 20
3.424613888640946
 10
-9.207417015135519
 20
3.43878759974068
 10
-9.142333647841011
 20
3.43878759974068
 10
-9.133655865535075
 20
3.437919821510063
 10
-9.125267342639331
 20
3.435316486818292
 10
-9.118035857384382
 20
3.431266855075548
 10
-9.11167215036005
 20
3.425770926281744
 10
-9.10646548097651
 20
3.418828700436967
 10
-9.102705108643846
 20
3.411307955771837
 10
-9.10010177395209
 20
3.402630173465906
 10
-9.099233995721546
 20
3.393373872339624
  0
LWPOLYLINE
  5
CE0
330
17
100
AcDbEntity
  8
4
  6
Continuous
100
AcDbPolyline
 90
      213
 70
     0
 43
0.0
 10
-7.659871284858467
 20
3.446019084995631
 10
-7.666524251292897
 20
3.448622419687401
 10
-7.673177217727499
 20
3.450936494968997
 10
-7.679830184162084
 20
3.452961310840325
 10
-7.686772410006781
 20
3.454696867301563
 10
-7.693714635851562
 20
3.455853904942356
 10
-7.700656861696245
 20
3.457010942583154
 10
-7.707599087541026
 20
3.457878720813686
 10
-7.714541313385807
 20
3.458457239634126
 10
-7.721772798640755
 20
3.458746499044308
 10
-7.728715024485524
 20
3.458746499044308
 10
-7.735946509740486
 20
3.458457239634126
 10
-7.742888735585182
 20
3.457878720813686
 10
-7.75012022084013
 20
3.457010942583154
 10
-7.757062446684896
 20
3.456143164352538
 10
-7.764004672529607
 20
3.454696867301563
 10
-7.770946898374376
 20
3.453250570250502
 10
-7.783095793602682
 20
3.449490197917937
 10
-7.794955429420824
 20
3.443994269124219
 10
-7.806236546418517
 20
3.437630562099881
 10
-7.817228404006043
 20
3.429820558024486
 10
-7.827352483362942
 20
3.421142775718563
 10
-7.836898043899495
 20
3.411307955771837
 10
-7.845286566795237
 20
3.400894617004758
 10
-7.85280731146038
 20
3.389902759417238
 10
-7.858881759074535
 20
3.378332383009277
 10
-7.863509909637713
 20
3.366183487780959
 10
-7.866981022560111
 20
3.354034592552642
 10
-7.868427319611072
 20
3.341596437914151
 10
-7.868138060200905
 20
3.329158283275658
 10
-7.866113244329482
 20
3.316720128637163
 10
-7.862063612586666
 20
3.304571233408848
 10
-7.855699905562417
 20
3.293000857000886
 10
-7.854253608511355
 20
3.291265300539733
 10
-7.8525180520502
 20
3.289819003488761
 10
-7.850782495589044
 20
3.288661965847963
 10
-7.848757679717635
 20
3.287504928207169
 10
-7.846732863846227
 20
3.286926409386728
 10
-7.844708047974804
 20
3.286637149976548
 10
-7.842393972693215
 20
3.286637149976548
 10
-7.840079897411611
 20
3.28721566879699
 10
-7.757930224915526
 20
3.302835676947611
 10
-7.753302074352347
 20
3.303703455178228
 10
-7.748673923789168
 20
3.304281973998668
 10
-7.743756513815796
 20
3.305149752229203
 10
-7.739128363252604
 20
3.305439011639462
 10
-7.734210953279244
 20
3.306017530459821
 10
-7.729582802716066
 20
3.306306789869998
 10
-7.724954652152887
 20
3.306306789869998
 10
-7.720037242179528
 20
3.306306789869998
 10
-7.715409091616336
 20
3.306017530459821
 10
-7.710780941053227
 20
3.305728271049643
 10
-7.70615279049005
 20
3.305149752229203
 10
-7.701524639926956
 20
3.304281973998668
 10
-7.697185748773947
 20
3.303124936357873
 10
-7.692557598210754
 20
3.301967898717078
 10
-7.688218707057757
 20
3.300232342255837
 10
-7.683879815904845
 20
3.298496785794688
 10
-7.674044995958098
 20
3.292422338180531
 10
-7.66681351070315
 20
3.283744555874603
 10
-7.661896100729791
 20
3.273620476517615
 10
-7.659003506627755
 20
3.262050100109738
 10
-7.658714247217574
 20
3.249901204881423
 10
-7.660739063088996
 20
3.237463050242928
 10
-7.664788694831742
 20
3.225892673834968
 10
-7.670863142445909
 20
3.215190075657714
 10
-7.675202033598907
 20
3.210272665684348
 10
-7.679540924751902
 20
3.20535525571099
 10
-7.684747594135442
 20
3.201305623968158
 10
-7.689954263518997
 20
3.197545251635593
 10
-7.695450192312705
 20
3.194074138713203
 10
-7.701524639926956
 20
3.191181544611259
 10
-7.707599087541026
 20
3.189156728739845
 10
-7.713962794565446
 20
3.187421172278692
 10
-7.721483539230575
 20
3.186553394048075
 10
-7.729004283895703
 20
3.186553394048075
 10
-7.736235769150653
 20
3.187131912868513
 10
-7.743756513815796
 20
3.188867469329663
 10
-7.750698739660576
 20
3.190892285201078
 10
-7.757930224915526
 20
3.193784879303029
 10
-7.76458319135004
 20
3.197255992225417
 10
-7.771236157784557
 20
3.201305623968158
 10
-7.777599864808976
 20
3.205933774531343
 10
-7.783674312423044
 20
3.210851184504703
 10
-7.789459500627117
 20
3.216347113298508
 10
-7.794955429420824
 20
3.222132301502403
 10
-7.799872839394197
 20
3.22820674911656
 10
-7.804790249367556
 20
3.234570456140984
 10
-7.809129140520552
 20
3.241223422575497
 10
-7.812889512853048
 20
3.247876389010008
 10
-7.879708436608781
 20
3.217504150939303
 10
-7.876237323686397
 20
3.208826368633376
 10
-7.871898432533469
 20
3.200437845737627
 10
-7.866113244329482
 20
3.192917101072408
 10
-7.859460277894895
 20
3.185685615817538
 10
-7.851939533229766
 20
3.179032649382941
 10
-7.843551010334095
 20
3.172958201768785
 10
-7.834583968617906
 20
3.167462272975066
 10
-7.825038408081353
 20
3.162544863001704
 10
-7.814914328724454
 20
3.158495231258873
 10
-7.804500989957375
 20
3.155024118336486
 10
-7.793509132369762
 20
3.15213152423454
 10
-7.782806534192502
 20
3.150395967773386
 10
-7.771814676605004
 20
3.148949670722414
 10
-7.760822819017477
 20
3.148660411312152
 10
-7.75012022084013
 20
3.149238930132591
 10
-7.739417622662783
 20
3.150395967773386
 10
-7.731318359177308
 20
3.15213152423454
 10
-7.723508355101983
 20
3.154445599516131
 10
-7.715698351026587
 20
3.157048934207901
 10
-7.708177606361373
 20
3.160230787720111
 10
-7.700946121106511
 20
3.16399116005268
 10
-7.693714635851562
 20
3.168330051205598
 10
-7.687061669417031
 20
3.172668942358603
 10
-7.680408702982447
 20
3.177875611742143
 10
-7.674334255368293
 20
3.183082281125683
 10
-7.668259807754125
 20
3.188867469329663
 10
-7.662763878960419
 20
3.194941916943823
 10
-7.657557209576878
 20
3.201594883378424
 10
-7.652929059013673
 20
3.208247849812936
 10
-7.648590167860675
 20
3.215190075657714
 10
-7.644829795528124
 20
3.222421560912666
 10
-7.641358682605726
 20
3.229942305577798
 10
-7.638176829093594
 20
3.238330828473548
 10
-7.635862753812005
 20
3.246719351369298
 10
-7.634127197350777
 20
3.255107874264963
 10
-7.632680900299789
 20
3.264074915981153
 10
-7.632102381479356
 20
3.272752698287084
 10
-7.632102381479356
 20
3.281430480593011
 10
-7.632680900299789
 20
3.290108262898939
 10
-7.634127197350777
 20
3.298786045204865
 10
-7.635862753812005
 20
3.306306789869998
 10
-7.638176829093594
 20
3.313538275124953
 10
-7.641069423195546
 20
3.320480500969728
 10
-7.644540536117857
 20
3.327422726814506
 10
-7.648879427270856
 20
3.333497174428663
 10
-7.653796837244215
 20
3.339282362632558
 10
-7.659582025448202
 20
3.344489032016183
 10
-7.665656473062368
 20
3.348827923169102
 10
-7.668259807754125
 20
3.350563479630258
 10
-7.671152401856076
 20
3.352299036091493
 10
-7.674044995958098
 20
3.353745333142469
 10
-7.676937590060133
 20
3.355191630193443
 10
-7.679830184162084
 20
3.356637927244498
 10
-7.683012037674217
 20
3.357794964885211
 10
-7.685904631776168
 20
3.358662743115828
 10
-7.68908648528837
 20
3.359530521346448
 10
-7.692268338800571
 20
3.360398299577066
 10
-7.695450192312705
 20
3.361266077807598
 10
-7.698632045824922
 20
3.361844596628038
 10
-7.701813899337139
 20
3.362423115448391
 10
-7.704995752849256
 20
3.363001634268836
 10
-7.708177606361373
 20
3.363290893679013
 10
-7.711648719283857
 20
3.363869412499368
 10
-7.714830572795988
 20
3.364158671909633
 10
-7.718012426308106
 20
3.364158671909633
 10
-7.721194279820393
 20
3.364158671909633
 10
-7.724376133332526
 20
3.364447931319808
 10
-7.727557986844657
 20
3.364447931319808
 10
-7.730739840356861
 20
3.364447931319808
 10
-7.733921693869064
 20
3.364737190729989
 10
-7.73739280679146
 20
3.364737190729989
 10
-7.740863919713845
 20
3.364737190729989
 10
-7.744335032636143
 20
3.364737190729989
 10
-7.74780614555854
 20
3.364447931319808
 10
-7.751855777301287
 20
3.364158671909633
 10
-7.755616149633937
 20
3.363869412499368
 10
-7.759665781376682
 20
3.36358015308919
 10
-7.764004672529607
 20
3.363001634268836
 10
-7.768343563682606
 20
3.362133856038218
 10
-7.772971714245784
 20
3.361266077807598
 10
-7.839212119181097
 20
3.349117182579282
 10
-7.840947675642325
 20
3.355191630193443
 10
-7.841815453872853
 20
3.360976818397423
 10
-7.841526194462687
 20
3.367051266011577
 10
-7.840658416232058
 20
3.372836454215556
 10
-7.838633600360736
 20
3.378621642419451
 10
-7.836319525079147
 20
3.384117571213258
 10
-7.832848412156748
 20
3.389613500006976
 10
-7.829088039824184
 20
3.394530909980337
 10
-7.824749148671172
 20
3.399159060543524
 10
-7.819831738697813
 20
3.403787211106704
 10
-7.814625069314273
 20
3.407547583439273
 10
-7.808839881110301
 20
3.411018696361656
 10
-7.802765433496147
 20
3.413911290463607
 10
-7.79669098588198
 20
3.416514625155462
 10
-7.790327278857644
 20
3.418250181616611
 10
-7.783674312423044
 20
3.41940721925741
 10
-7.777889124219142
 20
3.419696478667587
 10
-7.771814676605004
 20
3.419696478667587
 10
-7.766029488401017
 20
3.419117959847232
 10
-7.760244300197115
 20
3.418250181616611
 10
-7.754459111993043
 20
3.417093143975818
 10
-7.748673923789168
 20
3.415357587514668
 10
-7.743177994995447
 20
3.413332771643252
 10
-7.737682066201642
 20
3.411018696361656
 10
-7.732186137407835
 20
3.40841536166989
 10
-7.726690208614115
 20
3.405522767567858
 10
-7.721483539230575
 20
3.402630173465906
 10
-7.716276869847034
 20
3.399159060543524
 10
-7.711359459873675
 20
3.395687947621133
 10
-7.706442049900316
 20
3.39221683469883
 10
-7.701524639926956
 20
3.388456462366263
 10
-7.696896489363767
 20
3.384696090033613
 10
-7.621978302122457
 20
3.419985738077765
 10
-7.626027933865286
 20
3.424035369820591
 10
-7.630366825018199
 20
3.428085001563338
 10
-7.634705716171126
 20
3.431845373895901
 10
-7.639623126144498
 20
3.435027227408111
 10
-7.644540536117857
 20
3.43820908092024
 10
-7.649457946091217
 20
3.441101675022272
 10
-7.654664615474843
 20
3.443705009714042
 10
-7.659871284858467
 20
3.446019084995631
  0
LWPOLYLINE
  5
CE1
330
17
100
AcDbEntity
  8
4
  6
Continuous
100
AcDbPolyline
 90
        5
 70
     0
 43
0.0
 10
-8.487540375660387
 20
3.308910124561768
 10
-8.572293382848414
 20
3.363001634268836
 10
-8.572293382848414
 20
3.310067162202563
 10
-8.487251116250206
 20
3.264364175391333
 10
-8.487540375660387
 20
3.308910124561768
  0
LWPOLYLINE
  5
CE2
330
17
100
AcDbEntity
  8
4
  6
Continuous
100
AcDbPolyline
 90
      114
 70
     0
 43
0.0
 10
-8.395845142627749
 20
3.156759674797724
 10
-8.399026996139866
 20
3.159363009489495
 10
-8.402208849652081
 20
3.163123381822058
 10
-8.405390703164298
 20
3.168330051205598
 10
-8.408572556676418
 20
3.174693758230018
 10
-8.411465150778369
 20
3.182214502895151
 10
-8.413779226059956
 20
3.191470804021433
 10
-8.415514782521199
 20
3.202173402198779
 10
-8.416671820161909
 20
3.214322297427094
 10
-8.416671820161909
 20
3.40581202697812
 10
-8.416961079572075
 20
3.411018696361656
 10
-8.418118117212969
 20
3.416514625155462
 10
-8.420142933084378
 20
3.42201055394918
 10
-8.423035527186327
 20
3.42721722333272
 10
-8.426795899518879
 20
3.432423892716341
 10
-8.431424050082085
 20
3.437630562099881
 10
-8.436630719465625
 20
3.442547972073247
 10
-8.442705167079765
 20
3.447465382046607
 10
-8.44935813351438
 20
3.451804273199529
 10
-8.456878878179509
 20
3.455853904942356
 10
-8.465267401075166
 20
3.459325017864748
 10
-8.473945183381188
 20
3.462506871376873
 10
-8.483780003327908
 20
3.464820946658464
 10
-8.493904082684821
 20
3.466845762529876
 10
-8.504895940272318
 20
3.468002800170674
 10
-8.516466316680206
 20
3.468581318991029
 10
-8.528904471318696
 20
3.468002800170674
 10
-8.541053366547016
 20
3.466267243709437
 10
-8.552913002365157
 20
3.462796130787049
 10
-8.564194119362923
 20
3.458457239634126
 10
-8.574896717540182
 20
3.452672051430146
 10
-8.585310056307262
 20
3.446019084995631
 10
-8.594855616843814
 20
3.43820908092024
 10
-8.603822658560005
 20
3.429531298614313
 10
-8.611921922045494
 20
3.419985738077765
 10
-8.619442666710623
 20
3.409861658720861
 10
-8.625806373735045
 20
3.399159060543524
 10
-8.631013043118585
 20
3.387877943545823
 10
-8.635351934271596
 20
3.376018307727681
 10
-8.638533787783726
 20
3.363869412499368
 10
-8.640558603655136
 20
3.351431257860876
 10
-8.641137122475496
 20
3.338703843812203
 10
-8.641137122475496
 20
3.197545251635593
 10
-8.641715641295931
 20
3.18857820991949
 10
-8.643740457167268
 20
3.181057465254356
 10
-8.646343791859036
 20
3.174693758230018
 10
-8.649814904781507
 20
3.169487088846393
 10
-8.653286017703806
 20
3.165437457103651
 10
-8.656757130626202
 20
3.161966344181265
 10
-8.660228243548587
 20
3.159363009489495
 10
-8.662831578240343
 20
3.157048934207901
 10
-8.601508583278416
 20
3.157048934207901
 10
-8.593409319792925
 20
3.158205971848697
 10
-8.586467093948156
 20
3.161098565950643
 10
-8.580392646333905
 20
3.165437457103651
 10
-8.575185976950365
 20
3.171222645307631
 10
-8.570847085797451
 20
3.17758635233197
 10
-8.567665232285236
 20
3.184528578176743
 10
-8.565640416413826
 20
3.1917600634317
 10
-8.564483378773116
 20
3.198991548686569
 10
-8.563904859952771
 20
3.209404887453731
 10
-8.565351157003647
 20
3.220107485631073
 10
-8.567375972875055
 20
3.230520824398154
 10
-8.569979307566825
 20
3.240644903755137
 10
-8.573450420489223
 20
3.255107874264963
 10
-8.57663227400144
 20
3.269570844774873
 10
-8.579524868103362
 20
3.284033815284778
 10
-8.582417462205311
 20
3.298496785794688
 10
-8.585020796897097
 20
3.312959756304598
 10
-8.587045612768504
 20
3.327711986224683
 10
-8.588781169229747
 20
3.342174956734593
 10
-8.589938206870455
 20
3.356927186654678
 10
-8.590227466280621
 20
3.369076081882993
 10
-8.589359688050107
 20
3.381514236521488
 10
-8.587334872178701
 20
3.393663131749803
 10
-8.584153018666567
 20
3.405522767567943
 10
-8.579524868103362
 20
3.416514625155462
 10
-8.573450420489223
 20
3.426638704512365
 10
-8.565929675824094
 20
3.435316486818292
 10
-8.556384115287544
 20
3.442547972073247
 10
-8.550888186493736
 20
3.445440566175192
 10
-8.545102998289847
 20
3.447465382046607
 10
-8.539028550675681
 20
3.448911679097583
 10
-8.532954103061527
 20
3.4497794573282
 10
-8.526590396037107
 20
3.4497794573282
 10
-8.520226689012844
 20
3.448911679097583
 10
-8.514152241398619
 20
3.447465382046607
 10
-8.508077793784536
 20
3.445440566175192
 10
-8.50258186499073
 20
3.442547972073247
 10
-8.497375195607117
 20
3.439076859150858
 10
-8.492457785633831
 20
3.434737967997853
 10
-8.488408153891086
 20
3.429820558024486
 10
-8.484937040968617
 20
3.424324629230772
 10
-8.482044446866666
 20
3.417960922206435
 10
-8.480019630995258
 20
3.411018696361656
 10
-8.479151852764715
 20
3.403497951696528
 10
-8.479151852764715
 20
3.198123770456033
 10
-8.478862593354534
 20
3.193206360482671
 10
-8.477994815123935
 20
3.188867469329663
 10
-8.476548518072945
 20
3.184528578176743
 10
-8.474812961611718
 20
3.180478946433913
 10
-8.472498886330129
 20
3.177007833511529
 10
-8.469895551638359
 20
3.173536720589225
 10
-8.467002957536408
 20
3.170354867077015
 10
-8.46353184461401
 20
3.167462272975066
 10
-8.45977147228146
 20
3.165148197693474
 10
-8.456011099948881
 20
3.162834122411881
 10
-8.45196146820615
 20
3.161098565950643
 10
-8.447622577053138
 20
3.159652268899672
 10
-8.443283685900127
 20
3.158205971848697
 10
-8.438655535336947
 20
3.157338193618078
 10
-8.434316644184022
 20
3.157048934207901
 10
-8.429688493620915
 20
3.156759674797724
 10
-8.395845142627749
 20
3.156759674797724
  0
LWPOLYLINE
  5
CE3
330
17
100
AcDbEntity
  8
4
  6
Continuous
100
AcDbPolyline
 90
      271
 70
     0
 43
0.0
 10
-8.742241942922277
 20
3.341017919093791
 10
-8.746291574665008
 20
3.343331994375388
 10
-8.750341206407851
 20
3.345356810246718
 10
-8.754680097560765
 20
3.347092366707953
 10
-8.75872972930351
 20
3.348827923169102
 10
-8.763068620456522
 20
3.350563479630258
 10
-8.767407511609517
 20
3.351720517271053
 10
-8.771746402762445
 20
3.353166814322114
 10
-8.776085293915372
 20
3.354323851962908
 10
-8.78071344447855
 20
3.355191630193443
 10
-8.785052335631547
 20
3.355770149013884
 10
-8.789969745604906
 20
3.356348667834239
 10
-8.794597896168099
 20
3.356927186654678
 10
-8.799515306141458
 20
3.357216446064856
 10
-8.804432716114831
 20
3.357216446064856
 10
-8.809350126088189
 20
3.357216446064856
 10
-8.81455679547173
 20
3.356927186654678
 10
-8.882822016278439
 20
3.296182710513096
 10
-8.877615346894899
 20
3.297339748153893
 10
-8.872408677511359
 20
3.298496785794688
 10
-8.867202008127748
 20
3.299653823435483
 10
-8.861995338744106
 20
3.300521601666103
 10
-8.856788669360568
 20
3.301389379896635
 10
-8.851581999977026
 20
3.301967898717078
 10
-8.846375330593488
 20
3.302546417537433
 10
-8.840879401799783
 20
3.302835676947611
 10
-8.835672732416242
 20
3.303124936357873
 10
-8.830466063032616
 20
3.303124936357873
 10
-8.825259393648975
 20
3.303124936357873
 10
-8.820052724265451
 20
3.302835676947611
 10
-8.814846054881911
 20
3.302257158127253
 10
-8.809639385498371
 20
3.301389379896635
 10
-8.804432716114831
 20
3.300521601666103
 10
-8.799226046731289
 20
3.299364564025308
 10
-8.795754933808806
 20
3.298207526384511
 10
-8.791994561476329
 20
3.297339748153893
 10
-8.788523448553945
 20
3.295893451102917
 10
-8.785052335631547
 20
3.294736413462123
 10
-8.781581222709164
 20
3.293290116411147
 10
-8.77811010978678
 20
3.29184381936009
 10
-8.774928256274662
 20
3.290108262898939
 10
-8.771457143352177
 20
3.288372706437788
 10
-8.768275289840062
 20
3.286347890566373
 10
-8.765382695738111
 20
3.284323074694958
 10
-8.76249010163616
 20
3.282298258823629
 10
-8.759597507534124
 20
3.27998418354204
 10
-8.756994172842354
 20
3.27738084885027
 10
-8.754390838150584
 20
3.274777514158496
 10
-8.752076762868995
 20
3.271884920056463
 10
-8.749762687587406
 20
3.268992325954515
 10
-8.746291574665008
 20
3.26378565657089
 10
-8.743398980563071
 20
3.258000468366995
 10
-8.741374164691649
 20
3.252215280163016
 10
-8.739927867640687
 20
3.245851573138681
 10
-8.73906008941006
 20
3.239777125524525
 10
-8.73934934882024
 20
3.233413418500186
 10
-8.740795645871287
 20
3.227338970886028
 10
-8.743109721152874
 20
3.221553782682048
 10
-8.746580834075189
 20
3.216347113298508
 10
-8.750630465818018
 20
3.212008222145501
 10
-8.755258616381212
 20
3.208247849812936
 10
-8.760754545174933
 20
3.205065996300723
 10
-8.766539733378806
 20
3.202462661608953
 10
-8.772324921582876
 20
3.200437845737627
 10
-8.778688628607143
 20
3.198702289276388
 10
-8.784763076221365
 20
3.197545251635593
 10
-8.787655670323317
 20
3.197255992225417
 10
-8.790837523835449
 20
3.196677473405058
 10
-8.793730117937485
 20
3.196388213994799
 10
-8.796911971449702
 20
3.196388213994799
 10
-8.80009382496182
 20
3.196098954584619
 10
-8.802986419063755
 20
3.196098954584619
 10
-8.806168272576059
 20
3.196098954584619
 10
-8.809350126088189
 20
3.196098954584619
 10
-8.812242720190141
 20
3.196098954584619
 10
-8.815424573702257
 20
3.196388213994799
 10
-8.818606427214547
 20
3.196388213994799
 10
-8.821788280726677
 20
3.19696673281524
 10
-8.824680874828629
 20
3.197255992225417
 10
-8.827862728340845
 20
3.197834511045857
 10
-8.830755322442882
 20
3.198413029866212
 10
-8.833937175955
 20
3.198991548686569
 10
-8.837408288877297
 20
3.199859326917183
 10
-8.840879401799783
 20
3.200727105147803
 10
-8.844061255311897
 20
3.201884142788598
 10
-8.847532368234283
 20
3.203041180429397
 10
-8.8507142217465
 20
3.204487477480368
 10
-8.85389607525863
 20
3.205933774531343
 10
-8.857077928770834
 20
3.207669330992578
 10
-8.860259782283037
 20
3.209404887453731
 10
-8.863152376384988
 20
3.211140443914883
 10
-8.866334229897118
 20
3.2131652597863
 10
-8.869226823999156
 20
3.215190075657714
 10
-8.872119418101194
 20
3.217214891529041
 10
-8.875012012203143
 20
3.219239707400457
 10
-8.877615346894899
 20
3.221553782682048
 10
-8.880507940996835
 20
3.223867857963639
 10
-8.883111275688619
 20
3.226181933245231
 10
-8.887450166841631
 20
3.230520824398154
 10
-8.891499798584362
 20
3.235148974961338
 10
-8.895549430327124
 20
3.239777125524525
 10
-8.899599062069937
 20
3.244405276087706
 10
-8.903359434402418
 20
3.249033426650806
 10
-8.906830547324886
 20
3.253950836624168
 10
-8.91059091965738
 20
3.259157506007793
 10
-8.913772773169668
 20
3.264074915981153
 10
-8.916954626681786
 20
3.269281585364693
 10
-8.919847220783752
 20
3.274777514158496
 10
-8.922450555475505
 20
3.27998418354204
 10
-8.925053890167275
 20
3.285480112335752
 10
-8.927367965448882
 20
3.291265300539733
 10
-8.929103521910107
 20
3.296761229333453
 10
-8.930839078371262
 20
3.302835676947611
 10
-8.932285375422225
 20
3.308620865151591
 10
-8.934310191293649
 20
3.321926798020703
 10
-8.935177969524188
 20
3.335811249710171
 10
-8.934310191293649
 20
3.349695701399723
 10
-8.931996116012056
 20
3.363001634268836
 10
-8.927946484269313
 20
3.375729048317507
 10
-8.921872036655157
 20
3.387299424725468
 10
-8.914062032579849
 20
3.397712763492548
 10
-8.904227212633117
 20
3.406101286388298
 10
-8.900756099710662
 20
3.408126102259712
 10
-8.897284986788349
 20
3.409861658720861
 10
-8.893524614455698
 20
3.411597215182015
 10
-8.890053501533399
 20
3.413043512233072
 10
-8.886293129200739
 20
3.414200549873871
 10
-8.882243497458091
 20
3.415357587514668
 10
-8.878483125125427
 20
3.416225365745201
 10
-8.874433493382694
 20
3.41680388456564
 10
-8.870673121050131
 20
3.417382403385995
 10
-8.866623489307301
 20
3.417671662796172
 10
-8.86257385756464
 20
3.417671662796172
 10
-8.85852422582181
 20
3.417671662796172
 10
-8.854474594078977
 20
3.417671662796172
 10
-8.850424962336319
 20
3.417382403385995
 10
-8.846664590003667
 20
3.41680388456564
 10
-8.842614958260924
 20
3.416225365745201
 10
-8.837408288877297
 20
3.415357587514668
 10
-8.832201619493757
 20
3.414200549873871
 10
-8.826994950110217
 20
3.413043512233072
 10
-8.822077540136859
 20
3.411307955771837
 10
-8.8171601301635
 20
3.409572399310688
 10
-8.812242720190141
 20
3.407547583439273
 10
-8.807325310216782
 20
3.405522767567943
 10
-8.802407900243421
 20
3.403208692286351
 10
-8.797779749680231
 20
3.400605357594495
 10
-8.793440858527219
 20
3.398002022902725
 10
-8.788812707964126
 20
3.3948201693906
 10
-8.7844738168112
 20
3.391927575288568
 10
-8.780134925658188
 20
3.388456462366263
 10
-8.776085293915372
 20
3.385274608854052
 10
-8.772035662172626
 20
3.381514236521488
 10
-8.768275289840062
 20
3.377753864188923
 10
-8.714762298953417
 20
3.406679805208653
 10
-8.7182334118759
 20
3.413043512233072
 10
-8.72228304361856
 20
3.418828700436967
 10
-8.726911194181752
 20
3.424324629230772
 10
-8.732117863565292
 20
3.429242039204131
 10
-8.737613792359084
 20
3.433870189767318
 10
-8.743688239973252
 20
3.437919821510063
 10
-8.749762687587406
 20
3.441680193842628
 10
-8.75612639461174
 20
3.445151306765017
 10
-8.761043804585099
 20
3.447465382046607
 10
-8.766250473968637
 20
3.4497794573282
 10
-8.771167883942013
 20
3.451804273199529
 10
-8.776374553325553
 20
3.453539829660767
 10
-8.781870482119428
 20
3.455275386121916
 10
-8.787077151502968
 20
3.456432423762711
 10
-8.792573080296691
 20
3.45758946140351
 10
-8.798069009090397
 20
3.458457239634126
 10
-8.803564937884203
 20
3.459035758454481
 10
-8.809060866678008
 20
3.459325017864748
 10
-8.814846054881911
 20
3.459614277274922
 10
-8.820341983675632
 20
3.459614277274922
 10
-8.825837912469507
 20
3.459325017864748
 10
-8.83133384126323
 20
3.458746499044308
 10
-8.836829770056951
 20
3.457878720813686
 10
-8.842325698850743
 20
3.456721683172892
 10
-8.847532368234283
 20
3.455564645532098
 10
-8.852449778207642
 20
3.453829089070944
 10
-8.857656447591267
 20
3.452093532609792
 10
-8.86257385756464
 20
3.450357976148558
 10
-8.867202008127748
 20
3.448043900866962
 10
-8.872119418101194
 20
3.445729825585372
 10
-8.876747568664285
 20
3.443126490893603
 10
-8.881375719227376
 20
3.440523156201833
 10
-8.88600386979057
 20
3.437630562099881
 10
-8.890342760943582
 20
3.434737967997853
 10
-8.894681652096577
 20
3.431556114485728
 10
-8.899020543249505
 20
3.428374260973515
 10
-8.903359434402418
 20
3.424903148051127
 10
-8.907409066145248
 20
3.421432035128821
 10
-8.91174795729826
 20
3.417960922206435
 10
-8.915797589041005
 20
3.414489809284047
 10
-8.921582777244976
 20
3.409283139900508
 10
-8.927078706038699
 20
3.404076470516883
 10
-8.932574634832404
 20
3.398580541723164
 10
-8.937781304216045
 20
3.392795353519185
 10
-8.942987973599587
 20
3.387010165315206
 10
-8.947905383572942
 20
3.381224977111306
 10
-8.952533534136136
 20
3.375150529497153
 10
-8.957161684699228
 20
3.368786822472733
 10
-8.96121131644206
 20
3.362423115448391
 10
-8.965260948184891
 20
3.355770149013884
 10
-8.969021320517354
 20
3.349117182579282
 10
-8.972203174029658
 20
3.342174956734593
 10
-8.975095768131609
 20
3.335232730889812
 10
-8.977699102823379
 20
3.328001245634861
 10
-8.980013178104966
 20
3.320769760379908
 10
-8.981748734566108
 20
3.313249015714772
 10
-8.983484291027281
 20
3.303124936357873
 10
-8.984352069257894
 20
3.292711597590708
 10
-8.984641328668146
 20
3.282587518233806
 10
-8.984352069257894
 20
3.272174179466643
 10
-8.983195031617098
 20
3.262050100109738
 10
-8.981170215745677
 20
3.251926020752838
 10
-8.978566881053907
 20
3.241801941395936
 10
-8.975095768131609
 20
3.232256380859388
 10
-8.97278169285002
 20
3.227049711475763
 10
-8.97017835815825
 20
3.221843042092223
 10
-8.96757502346648
 20
3.216925632118864
 10
-8.964393169954176
 20
3.212297481555678
 10
-8.96121131644206
 20
3.207669330992578
 10
-8.957740203519747
 20
3.203041180429397
 10
-8.953979831187098
 20
3.198702289276388
 10
-8.950219458854533
 20
3.194652657533644
 10
-8.946169827111786
 20
3.190603025790904
 10
-8.941830935958789
 20
3.186842653458337
 10
-8.937492044805779
 20
3.183082281125683
 10
-8.933153153652938
 20
3.179611168203384
 10
-8.92852500308976
 20
3.176429314691171
 10
-8.9236075931164
 20
3.173536720589225
 10
-8.918690183143041
 20
3.170644126487192
 10
-8.913772773169668
 20
3.168040791795421
 10
-8.902202396761706
 20
3.163123381822058
 10
-8.890342760943582
 20
3.159073750079318
 10
-8.878193865715246
 20
3.156181155977284
 10
-8.865755711076758
 20
3.153867080695774
 10
-8.85331755643827
 20
3.152710043054978
 10
-8.840879401799783
 20
3.15213152423454
 10
-8.828441247161277
 20
3.152710043054978
 10
-8.815713833112525
 20
3.154156340105954
 10
-8.803564937884203
 20
3.156470415387544
 10
-8.79170530206616
 20
3.159652268899672
 10
-8.779845666248007
 20
3.16399116005268
 10
-8.768564549250227
 20
3.168908570026038
 10
-8.757861951072982
 20
3.1749830176402
 10
-8.747737871716081
 20
3.181925243484974
 10
-8.738192311179531
 20
3.189735247560283
 10
-8.729225269463341
 20
3.198413029866212
 10
-8.722572303028726
 20
3.206223033941522
 10
-8.716497855414672
 20
3.214611556837275
 10
-8.71100192662095
 20
3.223000079733021
 10
-8.706373776057771
 20
3.232256380859388
 10
-8.702324144314928
 20
3.241512681985673
 10
-8.699142290802811
 20
3.251058242522218
 10
-8.697117474931387
 20
3.260893062468943
 10
-8.695671177880342
 20
3.271017141825846
 10
-8.695381918470161
 20
3.279116405311418
 10
-8.695960437290592
 20
3.286926409386728
 10
-8.697406734341569
 20
3.294736413462123
 10
-8.700010069033339
 20
3.302546417537433
 10
-8.703481181955737
 20
3.308910124561768
 10
-8.707530813698468
 20
3.314695312765747
 10
-8.712448223671827
 20
3.320191241559551
 10
-8.717654893055451
 20
3.325108651532913
 10
-8.72344008125944
 20
3.329447542685836
 10
-8.729514528873508
 20
3.333786433838843
 10
-8.735878235897926
 20
3.337546806171408
 10
-8.742241942922277
 20
3.341017919093791
  0
LWPOLYLINE
  5
CE4
330
17
100
AcDbEntity
  8
4
  6
Continuous
 62
     4
100
AcDbPolyline
 90
       96
 70
     0
 43
0.0
 10
-8.083935637258264
 20
3.157048934207901
 10
-8.088563787821442
 20
3.159941528309849
 10
-8.093481197794801
 20
3.163412641232236
 10
-8.098687867178341
 20
3.167751532385244
 10
-8.103316017741517
 20
3.172668942358603
 10
-8.107654908894531
 20
3.178164871152325
 10
-8.111126021816829
 20
3.184817837586921
 10
-8.113440097098418
 20
3.192049322841873
 10
-8.114307875329133
 20
3.200437845737627
 10
-8.114307875329133
 20
3.39221683469883
 10
-8.114886394149479
 20
3.400316098184318
 10
-8.116043431790272
 20
3.407836842849446
 10
-8.118357507071777
 20
3.415068328104401
 10
-8.121250101173814
 20
3.421721294539002
 10
-8.124721214096211
 20
3.428374260973515
 10
-8.129060105249209
 20
3.434159449177498
 10
-8.133977515222566
 20
3.439655377971211
 10
-8.139473444016289
 20
3.444862047354837
 10
-8.14525863222019
 20
3.449490197917937
 10
-8.15162233924461
 20
3.453539829660767
 10
-8.158275305679209
 20
3.457010942583154
 10
-8.164928272113641
 20
3.46019279609528
 10
-8.172159757368588
 20
3.462506871376873
 10
-8.179391242623553
 20
3.464242427838106
 10
-8.186911987288681
 20
3.465688724889083
 10
-8.194432731953895
 20
3.466267243709437
 10
-8.199639401337519
 20
3.466267243709437
 10
-8.20484607072106
 20
3.466267243709437
 10
-8.209763480694419
 20
3.465688724889083
 10
-8.214970150077959
 20
3.465110206068643
 10
-8.219887560051319
 20
3.464242427838106
 10
-8.225094229434859
 20
3.462796130787049
 10
-8.230011639408218
 20
3.461349833736078
 10
-8.234929049381591
 20
3.459903536685103
 10
-8.23984645935495
 20
3.457878720813686
 10
-8.244474609918142
 20
3.455853904942356
 10
-8.249102760481321
 20
3.453539829660767
 10
-8.253730911044499
 20
3.451225754379171
 10
-8.258359061607691
 20
3.448333160277227
 10
-8.262697952760531
 20
3.445729825585372
 10
-8.26703684391353
 20
3.442837231483422
 10
-8.271086475656346
 20
3.439655377971211
 10
-8.272822032117517
 20
3.443705009714042
 10
-8.275136107399106
 20
3.448043900866962
 10
-8.278317960911323
 20
3.452093532609792
 10
-8.281789073833619
 20
3.455853904942356
 10
-8.28526018675609
 20
3.459035758454481
 10
-8.288731299678389
 20
3.461639093146251
 10
-8.291913153190504
 20
3.46337464960749
 10
-8.294227228472108
 20
3.463953168427848
 10
-8.365095783970588
 20
3.463953168427848
 10
-8.360756892817676
 20
3.459903536685103
 10
-8.355839482844316
 20
3.455275386121916
 10
-8.350343554050509
 20
3.4497794573282
 10
-8.345136884666969
 20
3.443415750303866
 10
-8.340219474693597
 20
3.436184265048913
 10
-8.336459102361031
 20
3.428663520383691
 10
-8.333566508258995
 20
3.420274997488028
 10
-8.332698730028466
 20
3.411597215182015
 10
-8.332698730028466
 20
3.157338193618078
 10
-8.267615362733877
 20
3.209983406274089
 10
-8.267615362733877
 20
3.393952391159984
 10
-8.267326103323711
 20
3.398580541723164
 10
-8.266458325093168
 20
3.402919432876088
 10
-8.264722768631941
 20
3.406969064618915
 10
-8.262697952760531
 20
3.411018696361656
 10
-8.260383877479013
 20
3.415068328104401
 10
-8.257491283376976
 20
3.418539441026793
 10
-8.25402017045468
 20
3.42201055394918
 10
-8.250549057532282
 20
3.425192407461389
 10
-8.246499425789551
 20
3.427795742153159
 10
-8.242449794046706
 20
3.430109817434753
 10
-8.238110902893707
 20
3.432423892716341
 10
-8.233772011740795
 20
3.433870189767318
 10
-8.229143861177689
 20
3.435316486818292
 10
-8.224515710614497
 20
3.435895005638647
 10
-8.220176819461499
 20
3.436473524459088
 10
-8.215548668898321
 20
3.436184265048913
 10
-8.208317183643359
 20
3.435027227408111
 10
-8.201374957798577
 20
3.432713152126522
 10
-8.194721991364076
 20
3.429531298614313
 10
-8.188936803160089
 20
3.425192407461389
 10
-8.18401939318673
 20
3.419985738077765
 10
-8.180259020854251
 20
3.413911290463607
 10
-8.177944945572647
 20
3.406679805208653
 10
-8.177077167341947
 20
3.398580541723164
 10
-8.177077167341947
 20
3.193206360482671
 10
-8.17620938911142
 20
3.185685615817538
 10
-8.173895313829831
 20
3.178743389972765
 10
-8.170424200907433
 20
3.172668942358603
 10
-8.165506790934159
 20
3.167462272975066
 10
-8.159721602730101
 20
3.163123381822058
 10
-8.153068636295586
 20
3.159652268899672
 10
-8.145837151040622
 20
3.157627453028341
 10
-8.138027146965328
 20
3.157048934207901
 10
-8.083935637258264
 20
3.157048934207901
  0
LWPOLYLINE
  5
CE5
330
17
100
AcDbEntity
  8
4
  6
Continuous
100
AcDbPolyline
 90
       73
 70
     0
 43
0.0
 10
-6.606376554901884
 20
3.233991937320541
 10
-6.601459144928527
 20
3.231099343218593
 10
-6.597409513185708
 20
3.227338970886028
 10
-6.593938400263398
 20
3.222710820322843
 10
-6.591335065571627
 20
3.217504150939303
 10
-6.589888768520566
 20
3.211718962735323
 10
-6.589599509110398
 20
3.205933774531343
 10
-6.590467287340928
 20
3.200437845737627
 10
-6.592781362622517
 20
3.194941916943823
 10
-6.595384697314287
 20
3.1917600634317
 10
-6.597988032006156
 20
3.188867469329663
 10
-6.601169885518344
 20
3.186264134637896
 10
-6.604640998440656
 20
3.183950059356305
 10
-6.608401370773306
 20
3.182214502895151
 10
-6.612451002515967
 20
3.180768205844179
 10
-6.616789893668978
 20
3.179900427613558
 10
-6.621128784821976
 20
3.179611168203384
 10
-6.726708469544178
 20
3.179611168203384
 10
-6.669724365735246
 20
3.227917489706384
 10
-6.666253252812764
 20
3.231099343218593
 10
-6.663649918120994
 20
3.234281196730718
 10
-6.661335842839491
 20
3.237173790832755
 10
-6.659889545788517
 20
3.240066384934698
 10
-6.658732508147636
 20
3.242958979036648
 10
-6.658153989327272
 20
3.246140832548859
 10
-6.657575470506928
 20
3.249033426650806
 10
-6.657575470506928
 20
3.252215280163016
 10
-6.657575470506928
 20
3.443994269124219
 10
-6.658153989327272
 20
3.448043900866962
 10
-6.659311026968081
 20
3.452093532609792
 10
-6.661335842839491
 20
3.455275386121916
 10
-6.663939177531261
 20
3.458167980223949
 10
-6.667121031043476
 20
3.460482055505456
 10
-6.670592143965777
 20
3.462217611966691
 10
-6.674641775708607
 20
3.46337464960749
 10
-6.678691407451339
 20
3.463663909017667
 10
-6.741171440054074
 20
3.463663909017667
 10
-6.736832548901077
 20
3.459325017864748
 10
-6.733072176568597
 20
3.455275386121916
 10
-6.729890323056395
 20
3.450647235558732
 10
-6.727286988364538
 20
3.446019084995631
 10
-6.724972913083021
 20
3.440812415612006
 10
-6.723526616032046
 20
3.435316486818292
 10
-6.722658837801432
 20
3.428952779793958
 10
-6.722369578391165
 20
3.421721294539002
 10
-6.722369578391165
 20
3.221553782682048
 10
-6.773857753406473
 20
3.159073750079318
 10
-6.579186170343318
 20
3.159073750079318
 10
-6.576004316831101
 20
3.159363009489495
 10
-6.572533203908704
 20
3.159652268899672
 10
-6.569351350396587
 20
3.160230787720111
 10
-6.565880237474117
 20
3.16138782536091
 10
-6.562409124551805
 20
3.162544863001704
 10
-6.559227271039603
 20
3.16399116005268
 10
-6.556045417527387
 20
3.165437457103651
 10
-6.552863564015267
 20
3.167173013564805
 10
-6.549681710503136
 20
3.169197829436217
 10
-6.546789116401099
 20
3.171222645307631
 10
-6.543896522299077
 20
3.173536720589225
 10
-6.541003928197143
 20
3.175850795870732
 10
-6.538689852915537
 20
3.178164871152325
 10
-6.536086518223767
 20
3.180768205844179
 10
-6.534061702352346
 20
3.183371540535949
 10
-6.532036886481022
 20
3.185974875227719
 10
-6.527408735917845
 20
3.195231176354001
 10
-6.524516141815809
 20
3.205644515121166
 10
-6.523069844764903
 20
3.217214891529041
 10
-6.523359104175098
 20
3.229074527347178
 10
-6.525383920046508
 20
3.240355644344878
 10
-6.528855032968807
 20
3.250768983112043
 10
-6.533772442942165
 20
3.259446765417968
 10
-6.540425409376779
 20
3.266099731852483
 10
-6.606376554901884
 20
3.233991937320541
  0
LWPOLYLINE
  5
CE6
330
17
100
AcDbEntity
  8
4
  6
Continuous
100
AcDbPolyline
 90
       46
 70
     0
 43
0.0
 10
-7.144721264379285
 20
3.463953168427848
 10
-7.301789124116679
 20
3.463953168427848
 10
-7.298318011194367
 20
3.459325017864748
 10
-7.295136157682249
 20
3.454118348481122
 10
-7.291954304169962
 20
3.448911679097583
 10
-7.289350969478192
 20
3.443415750303866
 10
-7.287326153606868
 20
3.437630562099881
 10
-7.285590597145699
 20
3.431845373895901
 10
-7.284433559504831
 20
3.426349445102188
 10
-7.284144300094651
 20
3.420564256898208
 10
-7.284144300094651
 20
3.153577821285515
 10
-7.213854263416521
 20
3.220975263861609
 10
-7.213854263416521
 20
3.340728659683533
 10
-7.119555695692112
 20
3.340728659683533
 10
-7.113191988667692
 20
3.341017919093791
 10
-7.107117541053611
 20
3.341307178503972
 10
-7.101043093439386
 20
3.342174956734593
 10
-7.095257905235484
 20
3.343331994375388
 10
-7.089472717031497
 20
3.345067550836537
 10
-7.08397678823769
 20
3.347381626118131
 10
-7.07877011885415
 20
3.349984960809903
 10
-7.074141968290972
 20
3.353166814322114
 10
-7.069513817727794
 20
3.356927186654678
 10
-7.0657534453953
 20
3.361555337217863
 10
-7.062282332472832
 20
3.366472747191138
 10
-7.059389738370882
 20
3.372257935395118
 10
-7.057364922499458
 20
3.378910901829718
 10
-7.055629366038317
 20
3.386142387084673
 10
-7.054761587807702
 20
3.394241650570156
 10
-7.054761587807702
 20
3.403208692286351
 10
-7.055629366038317
 20
3.412754252822812
 10
-7.057364922499458
 20
3.421142775718563
 10
-7.060257516601494
 20
3.428663520383691
 10
-7.063728629523892
 20
3.435316486818292
 10
-7.068356780087071
 20
3.441101675022272
 10
-7.073274190060431
 20
3.446019084995631
 10
-7.079059378264331
 20
3.450357976148558
 10
-7.085423085288753
 20
3.453829089070944
 10
-7.092076051723267
 20
3.456721683172892
 10
-7.099307536978216
 20
3.459035758454481
 10
-7.106539022233177
 20
3.46077131491572
 10
-7.114059766898307
 20
3.461928352556518
 10
-7.121869770973702
 20
3.463085390197312
 10
-7.129679775049012
 20
3.463663909017667
 10
-7.137200519714141
 20
3.463953168427848
 10
-7.144721264379285
 20
3.463953168427848
  0
LWPOLYLINE
  5
CE7
330
17
100
AcDbEntity
  8
4
  6
Continuous
100
AcDbPolyline
 90
      104
 70
     0
 43
0.0
 10
-7.433744845448771
 20
3.463663909017667
 10
-7.425645581963293
 20
3.45498612671174
 10
-7.422174469040896
 20
3.450068716738377
 10
-7.419281874938945
 20
3.445151306765017
 10
-7.416678540247089
 20
3.440523156201833
 10
-7.414653724375767
 20
3.436184265048913
 10
-7.412918167914625
 20
3.431556114485728
 10
-7.411761130273731
 20
3.426927963922542
 10
-7.411182611453368
 20
3.422299813359357
 10
-7.410893352043187
 20
3.417382403385995
 10
-7.410893352043187
 20
3.192627841662231
 10
-7.418124837298165
 20
3.193495619892848
 10
-7.425356322553112
 20
3.194941916943823
 10
-7.432298548397881
 20
3.196677473405058
 10
-7.439240774242562
 20
3.198991548686569
 10
-7.445893740677092
 20
3.201884142788598
 10
-7.452546707111678
 20
3.204776736890549
 10
-7.459199673546278
 20
3.208247849812936
 10
-7.465274121160361
 20
3.212008222145501
 10
-7.471348568774601
 20
3.216347113298508
 10
-7.477133756978503
 20
3.220686004451428
 10
-7.482629685772208
 20
3.225603414424794
 10
-7.487836355155848
 20
3.23081008380833
 10
-7.493043024539388
 20
3.236016753191957
 10
-7.497671175102567
 20
3.24180194139585
 10
-7.502010066255478
 20
3.247876389010008
 10
-7.506059697998309
 20
3.253950836624168
 10
-7.512423405022643
 20
3.265521213032128
 10
-7.517630074406183
 20
3.277670108260443
 10
-7.521679706148943
 20
3.290397522309115
 10
-7.524283040840699
 20
3.303414195768051
 10
-7.52544007848158
 20
3.316720128637163
 10
-7.524861559661133
 20
3.329736802096013
 10
-7.522258224969377
 20
3.343042734965123
 10
-7.51791933381645
 20
3.355770149013884
 10
-7.515605258534861
 20
3.361266077807598
 10
-7.51300192384309
 20
3.366472747191138
 10
-7.510109329741054
 20
3.371679416574762
 10
-7.507216735639018
 20
3.376596826548126
 10
-7.504034882126902
 20
3.381803495931666
 10
-7.500563769204517
 20
3.386720905905028
 10
-7.497092656282119
 20
3.39134905646821
 10
-7.493621543359822
 20
3.396266466441573
 10
-7.489861171027173
 20
3.400894617004758
 10
-7.486100798694693
 20
3.405233508157677
 10
-7.482051166951862
 20
3.409861658720861
 10
-7.478001535209116
 20
3.414200549873871
 10
-7.473951903466371
 20
3.418539441026793
 10
-7.469613012313374
 20
3.422589072769535
 10
-7.465563380570528
 20
3.426638704512365
 10
-7.461224489417617
 20
3.430688336255108
 10
-7.457753376495218
 20
3.434737967997853
 10
-7.45543930121363
 20
3.439366118561035
 10
-7.453993004162668
 20
3.443994269124219
 10
-7.453993004162668
 20
3.448911679097583
 10
-7.454571522983101
 20
3.453250570250502
 10
-7.456307079444258
 20
3.45758946140351
 10
-7.458331895315581
 20
3.461060574325897
 10
-7.461224489417617
 20
3.463663909017667
 10
-7.564779358268481
 20
3.463663909017667
 10
-7.559861948295122
 20
3.459035758454481
 10
-7.554366019501401
 20
3.453250570250502
 10
-7.549159350117776
 20
3.446308344405813
 10
-7.544820458964863
 20
3.43878759974068
 10
-7.541638605452646
 20
3.430399076844929
 10
-7.540192308401657
 20
3.421721294539002
 10
-7.541349346042379
 20
3.413043512233072
 10
-7.54539897778521
 20
3.404654989337323
 10
-7.577217512906968
 20
3.349117182579282
 10
-7.585027516982278
 20
3.332918655608223
 10
-7.589944926955637
 20
3.315852350406542
 10
-7.592259002237226
 20
3.298207526384511
 10
-7.591969742827076
 20
3.280273442952212
 10
-7.58907714872511
 20
3.262339359519919
 10
-7.583291960521137
 20
3.245273054318238
 10
-7.575192697035562
 20
3.229074527347178
 10
-7.564490098858299
 20
3.214611556837275
 10
-7.55928342947476
 20
3.208826368633376
 10
-7.553787500680954
 20
3.203330439839573
 10
-7.548002312476981
 20
3.197834511045771
 10
-7.541927864862826
 20
3.192627841662231
 10
-7.535853417248659
 20
3.18799969109905
 10
-7.529200450814071
 20
3.183371540535949
 10
-7.522547484379629
 20
3.179032649382941
 10
-7.515605258534861
 20
3.175272277050373
 10
-7.508663032690093
 20
3.171511904717808
 10
-7.501431547435132
 20
3.168330051205598
 10
-7.494200062180168
 20
3.165726716513828
 10
-7.486679317515039
 20
3.163412641232236
 10
-7.479158572849911
 20
3.16138782536091
 10
-7.471348568774601
 20
3.160230787720111
 10
-7.463827824109387
 20
3.159363009489495
 10
-7.456017820033991
 20
3.159073750079318
 10
-7.34523146592825
 20
3.159073750079318
 10
-7.34523146592825
 20
3.420274997488028
 10
-7.344942206518084
 20
3.426060185691921
 10
-7.344652947107903
 20
3.431845373895901
 10
-7.343785168877275
 20
3.437341302689623
 10
-7.34262813123648
 20
3.443126490893603
 10
-7.340892574775252
 20
3.448622419687401
 10
-7.338867758903916
 20
3.453829089070944
 10
-7.336553683622327
 20
3.458746499044308
 10
-7.333950348930557
 20
3.463663909017667
 10
-7.433744845448771
 20
3.463663909017667
  0
LWPOLYLINE
  5
CE8
330
17
100
AcDbEntity
  8
4
  6
Continuous
100
AcDbPolyline
 90
       46
 70
     0
 43
0.0
 10
-6.86468623445009
 20
3.463085390197312
 10
-7.021754094187484
 20
3.463085390197312
 10
-7.018282981265187
 20
3.458457239634126
 10
-7.014811868342802
 20
3.453250570250502
 10
-7.011919274240767
 20
3.448043900866962
 10
-7.009315939548996
 20
3.442547972073247
 10
-7.007001864267407
 20
3.436762783869265
 10
-7.00526630780635
 20
3.430977595665285
 10
-7.004109270165456
 20
3.425481666871568
 10
-7.003820010755291
 20
3.419696478667587
 10
-7.003820010755291
 20
3.152710043054978
 10
-6.933819233487411
 20
3.220107485631073
 10
-6.933819233487411
 20
3.339860881452997
 10
-6.839520665762932
 20
3.339860881452997
 10
-6.833446218148678
 20
3.340150140863178
 10
-6.827082511124429
 20
3.340439400273356
 10
-6.821297322920372
 20
3.341307178503972
 10
-6.81522287530629
 20
3.342464216144767
 10
-6.809726946512568
 20
3.344199772605921
 10
-6.804231017718762
 20
3.346513847887512
 10
-6.799024348335137
 20
3.349117182579282
 10
-6.794106938361776
 20
3.352299036091493
 10
-6.789768047208865
 20
3.356059408424057
 10
-6.786007674876302
 20
3.360687558987243
 10
-6.782536561953917
 20
3.365604968960606
 10
-6.779643967851883
 20
3.371390157164586
 10
-6.777619151980544
 20
3.378043123599101
 10
-6.775883595519387
 20
3.385274608854052
 10
-6.775015817288775
 20
3.393373872339624
 10
-6.775015817288775
 20
3.402340914055733
 10
-6.775883595519387
 20
3.411886474592278
 10
-6.777619151980544
 20
3.420564256898208
 10
-6.780511746082567
 20
3.428085001563338
 10
-6.783982859004878
 20
3.434737967997853
 10
-6.788611009568056
 20
3.440523156201833
 10
-6.793528419541416
 20
3.445440566175192
 10
-6.799313607745402
 20
3.449490197917937
 10
-6.80538805535957
 20
3.452961310840325
 10
-6.812330281204339
 20
3.455853904942356
 10
-6.819272507049022
 20
3.458167980223949
 10
-6.826503992303996
 20
3.459903536685103
 10
-6.834024736969126
 20
3.461060574325897
 10
-6.841834741044522
 20
3.462217611966691
 10
-6.849644745119831
 20
3.462796130787049
 10
-6.85716548978496
 20
3.463085390197312
 10
-6.86468623445009
 20
3.463085390197312
  0
LWPOLYLINE
  5
CE9
330
17
100
AcDbEntity
  8
4
  6
Continuous
100
AcDbPolyline
 90
       21
 70
     0
 43
0.0
 10
-7.226581677465277
 20
3.448043900866962
 10
-7.155713121966797
 20
3.448043900866962
 10
-7.146746080250692
 20
3.44717612263643
 10
-7.138068297944754
 20
3.444572787944577
 10
-7.13054755327954
 20
3.440523156201833
 10
-7.123605327434858
 20
3.435027227408111
 10
-7.118109398641052
 20
3.428374260973515
 10
-7.113770507488125
 20
3.420853516308381
 10
-7.111167172796272
 20
3.412464993412631
 10
-7.110299394565742
 20
3.403208692286351
 10
-7.110877913386103
 20
3.395687947621133
 10
-7.112613469847332
 20
3.388167202956
 10
-7.115216804539102
 20
3.381224977111306
 10
-7.118977176871665
 20
3.375150529497153
 10
-7.12389458684504
 20
3.369943860113528
 10
-7.129679775049012
 20
3.365894228370783
 10
-7.136332741483611
 20
3.363290893679013
 10
-7.144142745558922
 20
3.362423115448391
 10
-7.213275744596161
 20
3.362423115448391
 10
-7.213275744596161
 20
3.432713152126522
 10
-7.226581677465277
 20
3.448043900866962
  0
LWPOLYLINE
  5
CEA
330
17
100
AcDbEntity
  8
4
  6
Continuous
100
AcDbPolyline
 90
       21
 70
     0
 43
0.0
 10
-6.946546647536081
 20
3.447465382046607
 10
-6.875678092037603
 20
3.447465382046607
 10
-6.866421790911316
 20
3.44659760381599
 10
-6.858033268015559
 20
3.443994269124219
 10
-6.850223263940165
 20
3.439944637381474
 10
-6.843281038095398
 20
3.434448708587672
 10
-6.837785109301678
 20
3.427795742153159
 10
-6.833446218148678
 20
3.419985738077765
 10
-6.830842883456909
 20
3.411597215182015
 10
-6.82997510522638
 20
3.402340914055733
 10
-6.830553624046728
 20
3.3948201693906
 10
-6.832289180507969
 20
3.387299424725468
 10
-6.835181774609906
 20
3.380646458290866
 10
-6.838942146942486
 20
3.374282751266532
 10
-6.843859556915844
 20
3.369076081882993
 10
-6.849644745119831
 20
3.365026450140162
 10
-6.856297711554417
 20
3.362423115448391
 10
-6.864107715629727
 20
3.361555337217863
 10
-6.933240714666978
 20
3.361555337217863
 10
-6.933240714666978
 20
3.431845373895901
 10
-6.946546647536081
 20
3.447465382046607
  0
LWPOLYLINE
  5
CEB
330
17
100
AcDbEntity
  8
4
  6
Continuous
100
AcDbPolyline
 90
       88
 70
     0
 43
0.0
 10
-3.751444890935005
 20
3.458746499044308
 10
-3.940909804614519
 20
3.458746499044308
 10
-3.93570313523098
 20
3.454696867301563
 10
-3.93049646584744
 20
3.450068716738377
 10
-3.925868315284261
 20
3.444862047354837
 10
-3.921529424131334
 20
3.439655377971211
 10
-3.918058311208937
 20
3.433580930357055
 10
-3.915454976517181
 20
3.427506482742897
 10
-3.91371942005594
 20
3.420564256898208
 10
-3.912851641825411
 20
3.413622031053426
 10
-3.912851641825411
 20
3.212586740965944
 10
-3.961736482148863
 20
3.159073750079318
 10
-3.787313057799508
 20
3.159073750079318
 10
-3.783841944877123
 20
3.159073750079318
 10
-3.780370831954811
 20
3.159652268899672
 10
-3.776899719032343
 20
3.159941528309849
 10
-3.773717865520211
 20
3.160809306540466
 10
-3.770246752597826
 20
3.161677084771084
 10
-3.766775639675443
 20
3.162834122411881
 10
-3.763593786163312
 20
3.16399116005268
 10
-3.760122673240927
 20
3.165726716513828
 10
-3.756940819728711
 20
3.167173013564805
 10
-3.753758966216593
 20
3.168908570026038
 10
-3.750866372114558
 20
3.170933385897368
 10
-3.747973778012521
 20
3.172958201768785
 10
-3.745081183910571
 20
3.175272277050373
 10
-3.74218858980862
 20
3.17758635233197
 10
-3.739874514527031
 20
3.179900427613558
 10
-3.737271179835274
 20
3.182503762305328
 10
-3.730328953990493
 20
3.191181544611259
 10
-3.724833025196772
 20
3.201305623968158
 10
-3.720783393453941
 20
3.212008222145501
 10
-3.718469318172352
 20
3.223000079733021
 10
-3.718180058762186
 20
3.234281196730718
 10
-3.719915615223412
 20
3.244694535497883
 10
-3.724254506376411
 20
3.254529355444609
 10
-3.730907472810855
 20
3.263207137750539
 10
-3.793966024234022
 20
3.236016753191957
 10
-3.790784170721892
 20
3.231388602628774
 10
-3.788180836030122
 20
3.226181933245231
 10
-3.786156020158712
 20
3.220975263861609
 10
-3.784709723107738
 20
3.215479335067888
 10
-3.783841944877123
 20
3.209983406274089
 10
-3.783841944877123
 20
3.204487477480368
 10
-3.784709723107738
 20
3.198991548686569
 10
-3.786445279568879
 20
3.193784879303029
 10
-3.788759354850468
 20
3.190024506970462
 10
-3.791362689542238
 20
3.186553394048075
 10
-3.794833802464636
 20
3.183371540535949
 10
-3.798304915387021
 20
3.181057465254356
 10
-3.80235454712985
 20
3.179032649382941
 10
-3.806404178872512
 20
3.177297092921788
 10
-3.810743070025522
 20
3.176429314691171
 10
-3.815081961178519
 20
3.176140055280995
 10
-3.91371942005594
 20
3.176140055280995
 10
-3.848346793351268
 20
3.243826757267266
 10
-3.848346793351268
 20
3.309777902792386
 10
-3.771403790238621
 20
3.309777902792386
 10
-3.771403790238621
 20
3.332918655608223
 10
-3.847189755710473
 20
3.332918655608223
 10
-3.847189755710473
 20
3.420853516308381
 10
-3.860784947989756
 20
3.441969453252805
 10
-3.817106777049943
 20
3.441969453252805
 10
-3.80727195710321
 20
3.441390934432449
 10
-3.799172693617563
 20
3.439076859150858
 10
-3.792808986593313
 20
3.435316486818292
 10
-3.788180836030122
 20
3.430109817434753
 10
-3.785577501338352
 20
3.424035369820591
 10
-3.784709723107738
 20
3.417093143975818
 10
-3.785866760748533
 20
3.409283139900508
 10
-3.789048614260663
 20
3.401473135825113
 10
-3.721361912274375
 20
3.380935717701048
 10
-3.716733761711196
 20
3.385853127674406
 10
-3.713262648788812
 20
3.39134905646821
 10
-3.710659314097042
 20
3.397423504082366
 10
-3.709213017046067
 20
3.403497951696528
 10
-3.708634498225633
 20
3.409861658720861
 10
-3.709213017046067
 20
3.416514625155377
 10
-3.710370054686861
 20
3.422878332179798
 10
-3.712394870558283
 20
3.429242039204131
 10
-3.714998205250053
 20
3.435027227408111
 10
-3.718469318172352
 20
3.440812415612006
 10
-3.722518949915183
 20
3.445729825585372
 10
-3.727436359888541
 20
3.450068716738377
 10
-3.732643029272082
 20
3.453829089070944
 10
-3.738428217476068
 20
3.456432423762711
 10
-3.74479192450039
 20
3.458167980223949
 10
-3.751444890935005
 20
3.458746499044308
  0
LWPOLYLINE
  5
CEC
330
17
100
AcDbEntity
  8
4
  6
Continuous
100
AcDbPolyline
 90
      138
 70
     0
 43
0.0
 10
-5.132405435362301
 20
3.459035758454481
 10
-5.126330987748133
 20
3.454696867301563
 10
-5.121413577774773
 20
3.4497794573282
 10
-5.117363946032043
 20
3.444283528534398
 10
-5.114471351930092
 20
3.438498340330417
 10
-5.112157276648487
 20
3.432423892716256
 10
-5.110710979597428
 20
3.426060185691921
 10
-5.109843201366898
 20
3.419117959847232
 10
-5.109553941956717
 20
3.411886474592278
 10
-5.109553941956717
 20
3.194652657533644
 10
-5.114760611340257
 20
3.194652657533644
 10
-5.119967280723813
 20
3.194941916943823
 10
-5.125173950107351
 20
3.195520435764263
 10
-5.130091360080712
 20
3.196388213994799
 10
-5.135298029464252
 20
3.197545251635593
 10
-5.140215439437611
 20
3.198991548686569
 10
-5.145132849410969
 20
3.200727105147803
 10
-5.149760999974148
 20
3.202462661608953
 10
-5.154678409947506
 20
3.204776736890549
 10
-5.159306560510684
 20
3.207090812172138
 10
-5.16364545166371
 20
3.209694146863908
 10
-5.167984342816622
 20
3.212586740965944
 10
-5.172323233969621
 20
3.215768594478069
 10
-5.176662125122561
 20
3.218950447990278
 10
-5.180711756865377
 20
3.222421560912666
 10
-5.184472129197871
 20
3.225892673834968
 10
-5.191125095632457
 20
3.232545640269568
 10
-5.197199543246624
 20
3.239777125524525
 10
-5.202695472040416
 20
3.247297870189653
 10
-5.207612882013791
 20
3.255397133675225
 10
-5.211951773166703
 20
3.26378565657089
 10
-5.215422886089099
 20
3.272174179466643
 10
-5.21831548019105
 20
3.281141221182833
 10
-5.22034029606246
 20
3.290108262898939
 10
-5.221497333703253
 20
3.298496785794688
 10
-5.222365111933868
 20
3.306885308690438
 10
-5.222365111933868
 20
3.315563090996368
 10
-5.221786593113505
 20
3.323951613892119
 10
-5.22062955547264
 20
3.332340136787868
 10
-5.218893999011482
 20
3.340728659683533
 10
-5.216290664319629
 20
3.348827923169102
 10
-5.21281955139733
 20
3.356637927244498
 10
-5.210216216705561
 20
3.361555337217863
 10
-5.207612882013791
 20
3.366472747191138
 10
-5.205009547322021
 20
3.371100897754323
 10
-5.202116953219984
 20
3.375729048317507
 10
-5.199513618528214
 20
3.380357198880693
 10
-5.196621024426177
 20
3.384696090033613
 10
-5.193439170914047
 20
3.389034981186616
 10
-5.190257317401928
 20
3.393084612929363
 10
-5.187075463889641
 20
3.397423504082366
 10
-5.183893610377508
 20
3.401473135825113
 10
-5.180422497455197
 20
3.405522767567858
 10
-5.176951384532729
 20
3.409572399310688
 10
-5.173191012200248
 20
3.413332771643252
 10
-5.169430639867598
 20
3.417382403385995
 10
-5.165670267535118
 20
3.421142775718563
 10
-5.161620635792289
 20
3.425192407461389
 10
-5.158149522869905
 20
3.429242039204131
 10
-5.155835447588401
 20
3.433580930357055
 10
-5.15438915053734
 20
3.437919821510063
 10
-5.15409989112716
 20
3.442258712663067
 10
-5.15438915053734
 20
3.44659760381599
 10
-5.155256928767868
 20
3.450936494968997
 10
-5.15670322581893
 20
3.45498612671174
 10
-5.158728041690351
 20
3.459035758454481
 10
-5.262572169951311
 20
3.459035758454481
 10
-5.260258094669707
 20
3.457010942583154
 10
-5.257944019388105
 20
3.45498612671174
 10
-5.255629944106601
 20
3.452961310840325
 10
-5.253315868825011
 20
3.450647235558732
 10
-5.251291052953688
 20
3.448333160277227
 10
-5.249266237082281
 20
3.445729825585372
 10
-5.247530680621038
 20
3.443126490893603
 10
-5.245795124159882
 20
3.440523156201833
 10
-5.242324011237498
 20
3.432713152126522
 10
-5.240588454776258
 20
3.424324629230772
 10
-5.240588454776258
 20
3.415646846924841
 10
-5.241745492417138
 20
3.406969064618915
 10
-5.244059567698726
 20
3.397712763492548
 10
-5.247819940031206
 20
3.388745721776443
 10
-5.252158831184218
 20
3.380357198880693
 10
-5.25707624115759
 20
3.372257935395118
 10
-5.262282910541117
 20
3.364158671909633
 10
-5.267778839334923
 20
3.356348667834239
 10
-5.273274768128728
 20
3.348249404348748
 10
-5.278192178102088
 20
3.340150140863178
 10
-5.282241809844747
 20
3.332050877377603
 10
-5.285712922767231
 20
3.323951613892119
 10
-5.288316257459
 20
3.315273831586188
 10
-5.290341073330409
 20
3.306596049280178
 10
-5.291498110971119
 20
3.297918266974248
 10
-5.292076629791465
 20
3.288951225258143
 10
-5.292076629791465
 20
3.27998418354204
 10
-5.291208851560938
 20
3.271017141825846
 10
-5.290051813920143
 20
3.265231953621948
 10
-5.288894776279348
 20
3.259446765417968
 10
-5.287159219818105
 20
3.253661577213988
 10
-5.285134403946783
 20
3.248165648420273
 10
-5.282820328665194
 20
3.242669719626468
 10
-5.280216993973424
 20
3.237463050242928
 10
-5.277613659281655
 20
3.231967121449129
 10
-5.274431805769438
 20
3.227049711475763
 10
-5.271249952257306
 20
3.222132301502403
 10
-5.267778839334923
 20
3.217214891529041
 10
-5.264018467002358
 20
3.212586740965944
 10
-5.259968835259527
 20
3.20795859040276
 10
-5.255919203516782
 20
3.203619699249752
 10
-5.25186957177405
 20
3.199280808096828
 10
-5.247530680621038
 20
3.195231176354001
 10
-5.242902530057847
 20
3.191470804021433
 10
-5.23769586067432
 20
3.187421172278692
 10
-5.231910672470418
 20
3.183660799946123
 10
-5.226125484266346
 20
3.18018968702374
 10
-5.220051036652278
 20
3.177007833511529
 10
-5.213687329627858
 20
3.174115239409578
 10
-5.20732362260361
 20
3.171511904717808
 10
-5.200670656168995
 20
3.168908570026038
 10
-5.194017689734407
 20
3.166883754154623
 10
-5.187364723299907
 20
3.165148197693474
 10
-5.180711756865377
 20
3.163412641232236
 10
-5.17376953102061
 20
3.161966344181265
 10
-5.166827305175829
 20
3.161098565950643
 10
-5.160174338741312
 20
3.160230787720111
 10
-5.153232112896546
 20
3.159652268899672
 10
-5.146579146462016
 20
3.159073750079318
 10
-5.139926180027429
 20
3.159073750079318
 10
-5.043024277611152
 20
3.159073750079318
 10
-5.043024277611152
 20
3.422589072769535
 10
-5.043024277611152
 20
3.42721722333272
 10
-5.043024277611152
 20
3.431845373895901
 10
-5.042445758790718
 20
3.436762783869265
 10
-5.041577980560191
 20
3.441680193842628
 10
-5.039842424098949
 20
3.446308344405813
 10
-5.03752834881736
 20
3.450647235558732
 10
-5.034057235895061
 20
3.45498612671174
 10
-5.029429085331884
 20
3.459035758454481
 10
-5.132405435362301
 20
3.459035758454481
  0
LWPOLYLINE
  5
CED
330
17
100
AcDbEntity
  8
4
  6
Continuous
100
AcDbPolyline
 90
       21
 70
     0
 43
0.0
 10
-5.956063331893972
 20
3.458457239634126
 10
-6.032427816186269
 20
3.458457239634126
 10
-6.028667443853605
 20
3.455853904942356
 10
-6.024907071521128
 20
3.45238279201997
 10
-6.021146699188477
 20
3.448911679097583
 10
-6.017964845676345
 20
3.444862047354837
 10
-6.015072251574324
 20
3.440812415612006
 10
-6.012758176292804
 20
3.436184265048913
 10
-6.011311879241758
 20
3.431556114485728
 10
-6.010733360421397
 20
3.426638704512365
 10
-6.010733360421397
 20
3.160230787720111
 10
-5.938707767282038
 20
3.160230787720111
 10
-5.938707767282038
 20
3.441101675022272
 10
-5.938997026692291
 20
3.445151306765017
 10
-5.939864804922905
 20
3.448622419687401
 10
-5.941600361384074
 20
3.451515013789352
 10
-5.943625177255397
 20
3.454118348481122
 10
-5.946228511947253
 20
3.455853904942356
 10
-5.94912110604919
 20
3.457300201993333
 10
-5.952302959561407
 20
3.458167980223949
 10
-5.956063331893972
 20
3.458457239634126
  0
LWPOLYLINE
  5
CEE
330
17
100
AcDbEntity
  8
4
  6
Continuous
100
AcDbPolyline
 90
       96
 70
     0
 43
0.0
 10
-5.63563634296804
 20
3.159073750079318
 10
-5.640264493531218
 20
3.162255603591442
 10
-5.644892644094412
 20
3.165437457103651
 10
-5.648942275837156
 20
3.169197829436217
 10
-5.652413388759541
 20
3.172958201768785
 10
-5.655305982861476
 20
3.177297092921788
 10
-5.65762005814308
 20
3.182214502895151
 10
-5.659066355194057
 20
3.187421172278692
 10
-5.659644874014502
 20
3.192917101072408
 10
-5.659644874014502
 20
3.380646458290866
 10
-5.659644874014502
 20
3.388456462366263
 10
-5.660223392834936
 20
3.396266466441573
 10
-5.661380430475644
 20
3.404654989337323
 10
-5.663694505757232
 20
3.412754252822812
 10
-5.667165618679633
 20
3.421142775718563
 10
-5.672661547473437
 20
3.428952779793958
 10
-5.679893032728386
 20
3.436762783869265
 10
-5.689727852675105
 20
3.444283528534398
 10
-5.695802300289173
 20
3.448043900866962
 10
-5.702166007313592
 20
3.451225754379171
 10
-5.708529714337942
 20
3.453829089070944
 10
-5.715471940182624
 20
3.456143164352538
 10
-5.722414166027404
 20
3.45758946140351
 10
-5.729356391872188
 20
3.458457239634126
 10
-5.736298617716953
 20
3.459035758454481
 10
-5.743530102971901
 20
3.459035758454481
 10
-5.750472328816599
 20
3.458457239634126
 10
-5.757414554661379
 20
3.45758946140351
 10
-5.764067521095896
 20
3.456432423762711
 10
-5.770720487530495
 20
3.454696867301563
 10
-5.776794935144565
 20
3.452672051430146
 10
-5.782869382758803
 20
3.450068716738377
 10
-5.788654570962705
 20
3.447465382046607
 10
-5.793861240346244
 20
3.444283528534398
 10
-5.796753834448267
 20
3.442837231483422
 10
-5.79935716914005
 20
3.441390934432449
 10
-5.802249763242087
 20
3.439944637381474
 10
-5.804853097933857
 20
3.43820908092024
 10
-5.807456432625611
 20
3.436184265048913
 10
-5.810349026727562
 20
3.434159449177498
 10
-5.812952361419334
 20
3.431556114485728
 10
-5.816134214931536
 20
3.428952779793958
 10
-5.817580511982527
 20
3.434448708587672
 10
-5.819894587264116
 20
3.439366118561035
 10
-5.822497921955887
 20
3.443705009714042
 10
-5.825679775468002
 20
3.447754641456788
 10
-5.829150888390473
 20
3.451225754379171
 10
-5.832911260722966
 20
3.454118348481122
 10
-5.836671633055614
 20
3.456721683172892
 10
-5.840721264798361
 20
3.458746499044308
 10
-5.906961669733647
 20
3.458746499044308
 10
-5.900887222119492
 20
3.454407607891296
 10
-5.895680552735951
 20
3.449490197917937
 10
-5.891341661582941
 20
3.444283528534398
 10
-5.887581289250475
 20
3.43820908092024
 10
-5.88468869514844
 20
3.431845373895901
 10
-5.882663879277102
 20
3.424613888640946
 10
-5.881217582226042
 20
3.417093143975818
 10
-5.880928322815876
 20
3.408704621080068
 10
-5.880928322815876
 20
3.151842264824361
 10
-5.813530880239682
 20
3.203908958659928
 10
-5.813530880239682
 20
3.381803495931666
 10
-5.812373842598987
 20
3.39134905646821
 10
-5.809481248497037
 20
3.399737579363963
 10
-5.805142357344022
 20
3.406969064618915
 10
-5.79935716914005
 20
3.413043512233072
 10
-5.792704202705535
 20
3.417960922206435
 10
-5.785472717450574
 20
3.421432035128821
 10
-5.777662713375263
 20
3.423746110410333
 10
-5.769852709299867
 20
3.424613888640946
 10
-5.76522455873669
 20
3.424613888640946
 10
-5.760596408173597
 20
3.424035369820591
 10
-5.75625751702057
 20
3.423167591589975
 10
-5.751918625867574
 20
3.42201055394918
 10
-5.747868994124843
 20
3.420564256898208
 10
-5.743819362382081
 20
3.418539441026793
 10
-5.740058990049447
 20
3.416514625155377
 10
-5.736587877127134
 20
3.413911290463607
 10
-5.733116764204736
 20
3.411307955771837
 10
-5.730224170102713
 20
3.40841536166989
 10
-5.727910094821112
 20
3.404944248747503
 10
-5.725596019539607
 20
3.40176239523529
 10
-5.723860463078465
 20
3.398002022902725
 10
-5.722703425437586
 20
3.394241650570156
 10
-5.721835647207057
 20
3.390192018827415
 10
-5.721546387796877
 20
3.385853127674406
 10
-5.721546387796877
 20
3.187421172278692
 10
-5.721257128386696
 20
3.18279302171551
 10
-5.720678609566248
 20
3.177875611742143
 10
-5.719232312515272
 20
3.173247461178957
 10
-5.717207496643864
 20
3.168619310615865
 10
-5.714025643131733
 20
3.164858938283293
 10
-5.709976011388902
 20
3.161677084771084
 10
-5.704480082595182
 20
3.159652268899672
 10
-5.697537856750415
 20
3.159073750079318
 10
-5.63563634296804
 20
3.159073750079318
  0
LWPOLYLINE
  5
CEF
330
17
100
AcDbEntity
  8
4
  6
Continuous
100
AcDbPolyline
 90
       34
 70
     0
 43
0.0
 10
-5.508177993158922
 20
3.435895005638647
 10
-5.496896876161315
 20
3.434737967997853
 10
-5.485905018573702
 20
3.432423892716256
 10
-5.475491679806623
 20
3.428374260973515
 10
-5.465367600449724
 20
3.422878332179798
 10
-5.456111299323353
 20
3.416514625155377
 10
-5.447144257607162
 20
3.408704621080068
 10
-5.439044994121672
 20
3.400026838774141
 10
-5.431524249456542
 20
3.390481278237593
 10
-5.424582023611761
 20
3.37977868006025
 10
-5.418796835407874
 20
3.368786822472733
 10
-5.413590166024334
 20
3.356927186654678
 10
-5.409251274871323
 20
3.344778291426361
 10
-5.405780161948938
 20
3.332050877377603
 10
-5.403466086667349
 20
3.319034203918752
 10
-5.401730530206194
 20
3.306017530459821
 10
-5.401441270796012
 20
3.292711597590708
 10
-5.40230904902654
 20
3.280562702362393
 10
-5.404623124308129
 20
3.268992325954515
 10
-5.408094237230528
 20
3.257711208956734
 10
-5.41272238779362
 20
3.247297870189653
 10
-5.418507575997608
 20
3.237173790832755
 10
-5.425160542432124
 20
3.227917489706384
 10
-5.432681287097351
 20
3.219528966810633
 10
-5.440491291172733
 20
3.211718962735323
 10
-5.448879814068391
 20
3.204487477480368
 10
-5.457557596374329
 20
3.198123770456033
 10
-5.466524638090418
 20
3.192627841662231
 10
-5.475202420396441
 20
3.18799969109905
 10
-5.484169462112546
 20
3.184528578176743
 10
-5.492557985008303
 20
3.181635984074711
 10
-5.500657248493779
 20
3.179900427613558
 10
-5.508177993158922
 20
3.179032649382941
 10
-5.508177993158922
 20
3.435895005638647
  0
LWPOLYLINE
  5
CF0
330
17
100
AcDbEntity
  8
4
  6
Continuous
100
AcDbPolyline
 90
       44
 70
     0
 43
0.0
 10
-5.475491679806623
 20
3.459903536685103
 10
-5.603633598524296
 20
3.459903536685103
 10
-5.59958396678155
 20
3.45758946140351
 10
-5.594955816218372
 20
3.454407607891296
 10
-5.590616925065361
 20
3.4497794573282
 10
-5.58627803391235
 20
3.444572787944577
 10
-5.582517661579884
 20
3.438498340330417
 10
-5.579335808067667
 20
3.431556114485728
 10
-5.577600251606511
 20
3.424324629230772
 10
-5.576732473375813
 20
3.416514625155377
 10
-5.576732473375813
 20
3.159073750079318
 10
-5.480698349190163
 20
3.159073750079318
 10
-5.464499822219096
 20
3.159941528309849
 10
-5.448879814068391
 20
3.162255603591442
 10
-5.433838324738132
 20
3.166015975924009
 10
-5.419664613638416
 20
3.171222645307631
 10
-5.406358680769386
 20
3.177875611742143
 10
-5.393631266720618
 20
3.185974875227719
 10
-5.382060890312743
 20
3.194941916943823
 10
-5.371358292135311
 20
3.20535525571099
 10
-5.36181273159886
 20
3.216636372708682
 10
-5.353134949292922
 20
3.229074527347178
 10
-5.345614204627793
 20
3.242380460216295
 10
-5.339539757013554
 20
3.256554171316023
 10
-5.334622347040181
 20
3.27159566064629
 10
-5.330861974707715
 20
3.28721566879699
 10
-5.328837158836293
 20
3.303703455178228
 10
-5.327969380605678
 20
3.320769760379908
 10
-5.328547899426125
 20
3.335232730889812
 10
-5.330861974707715
 20
3.349117182579282
 10
-5.334622347040181
 20
3.362423115448391
 10
-5.33982901642382
 20
3.375150529497153
 10
-5.346192723448153
 20
3.387588684135649
 10
-5.353713468113284
 20
3.398869801133343
 10
-5.362391250419307
 20
3.409572399310688
 10
-5.372226070366025
 20
3.41940721925741
 10
-5.382639409133105
 20
3.428374260973515
 10
-5.394209785541066
 20
3.436473524459088
 10
-5.406358680769386
 20
3.443415750303866
 10
-5.419375354228221
 20
3.449200938507759
 10
-5.432681287097351
 20
3.453829089070944
 10
-5.446565738786802
 20
3.457300201993333
 10
-5.461028709296726
 20
3.459325017864748
 10
-5.475491679806623
 20
3.459903536685103
  0
LWPOLYLINE
  5
CF1
330
17
100
AcDbEntity
  8
4
  6
Continuous
100
AcDbPolyline
 90
       61
 70
     0
 43
0.0
 10
-4.220982835591371
 20
3.330315320916453
 10
-4.212594312695556
 20
3.330893839736807
 10
-4.204495049210065
 20
3.332050877377603
 10
-4.197263563955103
 20
3.333786433838843
 10
-4.190610597520588
 20
3.336100509120433
 10
-4.184825409316601
 20
3.338993103222383
 10
-4.179329480522894
 20
3.342174956734593
 10
-4.174412070549536
 20
3.345935329067158
 10
-4.170073179396523
 20
3.350274220220078
 10
-4.166312807063873
 20
3.354902370783263
 10
-4.163130953551756
 20
3.359819780756626
 10
-4.160527618859973
 20
3.365026450140162
 10
-4.158502802988564
 20
3.370811638344146
 10
-4.156767246527408
 20
3.376596826548126
 10
-4.155610208886614
 20
3.382671274162282
 10
-4.155031690066266
 20
3.389034981186616
 10
-4.154742430655999
 20
3.395687947621133
 10
-4.155031690066266
 20
3.40176239523529
 10
-4.156188727706961
 20
3.407836842849446
 10
-4.157635024758036
 20
3.413622031053426
 10
-4.159949100039625
 20
3.41940721925741
 10
-4.162552434731395
 20
3.424903148051127
 10
-4.166023547653708
 20
3.430109817434753
 10
-4.169494660576162
 20
3.435027227408111
 10
-4.173833551729102
 20
3.439655377971211
 10
-4.178172442882015
 20
3.443705009714042
 10
-4.183089852855373
 20
3.447465382046607
 10
-4.188296522238913
 20
3.450647235558732
 10
-4.193792451032719
 20
3.453539829660767
 10
-4.199288379826526
 20
3.455853904942356
 10
-4.205073568030413
 20
3.457300201993333
 10
-4.211148015644667
 20
3.458457239634126
 10
-4.217222463258734
 20
3.458746499044308
 10
-4.419993309807465
 20
3.458746499044308
 10
-4.417100715705514
 20
3.456432423762711
 10
-4.414497381013744
 20
3.454118348481122
 10
-4.411894046321974
 20
3.451515013789352
 10
-4.409579971040372
 20
3.449200938507759
 10
-4.407265895758768
 20
3.446886863226167
 10
-4.404951820477193
 20
3.443994269124219
 10
-4.40292700460577
 20
3.441101675022272
 10
-4.400902188734447
 20
3.437630562099881
 10
-4.398009594632411
 20
3.431266855075548
 10
-4.395695519350823
 20
3.423746110410333
 10
-4.394249222299932
 20
3.416514625155377
 10
-4.393670703479499
 20
3.410729436951482
 10
-4.393381444069234
 20
3.150685227183563
 10
-4.323669926211636
 20
3.211718962735323
 10
-4.323669926211636
 20
3.332340136787868
 10
-4.293008428730573
 20
3.332629396198043
 10
-4.188585781649179
 20
3.159652268899672
 10
-4.098626105077697
 20
3.159073750079318
 10
-4.104122033871404
 20
3.162255603591442
 10
-4.109617962665126
 20
3.166015975924009
 10
-4.114824632048665
 20
3.16977634825666
 10
-4.119742042022025
 20
3.174115239409578
 10
-4.124659451995383
 20
3.178164871152325
 10
-4.129287602558576
 20
3.18279302171551
 10
-4.133915753121755
 20
3.187421172278692
 10
-4.138543903684933
 20
3.192338582252053
 10
-4.220982835591371
 20
3.330315320916453
  0
LWPOLYLINE
  5
CF2
330
17
100
AcDbEntity
  8
4
  6
Continuous
100
AcDbPolyline
 90
      205
 70
     0
 43
0.0
 10
-4.747087317029127
 20
3.424903148051127
 10
-4.754897321104436
 20
3.433002411536699
 10
-4.763285844000193
 20
3.440523156201833
 10
-4.772831404536731
 20
3.446886863226167
 10
-4.78295548389363
 20
3.45238279201997
 10
-4.793658082070976
 20
3.457010942583154
 10
-4.804649939658502
 20
3.46077131491572
 10
-4.816509575476543
 20
3.463663909017667
 10
-4.828369211294684
 20
3.465688724889083
 10
-4.840228847112824
 20
3.466845762529876
 10
-4.852377742341133
 20
3.467135021940058
 10
-4.864815896979634
 20
3.466267243709437
 10
-4.876675532797776
 20
3.464820946658464
 10
-4.888535168615915
 20
3.462217611966691
 10
-4.900105545023791
 20
3.458746499044308
 10
-4.911097402611304
 20
3.454118348481122
 10
-4.921800000788563
 20
3.448911679097583
 10
-4.929899264274226
 20
3.443994269124219
 10
-4.937420008939355
 20
3.43878759974068
 10
-4.944651494194316
 20
3.432713152126522
 10
-4.951304460628818
 20
3.426349445102188
 10
-4.957668167653166
 20
3.41940721925741
 10
-4.963453355857041
 20
3.412175734002454
 10
-4.968660025240679
 20
3.404365729927148
 10
-4.973577435214052
 20
3.396266466441573
 10
-4.977627066956785
 20
3.388167202956
 10
-4.981387439289433
 20
3.379489420650073
 10
-4.984280033391384
 20
3.370522378933968
 10
-4.986594108672988
 20
3.361555337217863
 10
-4.988329665134131
 20
3.352588295501671
 10
-4.989197443364743
 20
3.343331994375388
 10
-4.989775962185092
 20
3.333786433838843
 10
-4.989197443364743
 20
3.324530132712473
 10
-4.988908183954578
 20
3.319901982149287
 10
-4.988329665134131
 20
3.314984572175926
 10
-4.987751146313683
 20
3.310356421612828
 10
-4.986594108672988
 20
3.305728271049643
 10
-4.985147811621914
 20
3.301389379896635
 10
-4.982833736340325
 20
3.297339748153893
 10
-4.979941142238374
 20
3.294157894641683
 10
-4.976180769905808
 20
3.29184381936009
 10
-4.974445213444653
 20
3.290976041129558
 10
-4.972709656983425
 20
3.290397522309115
 10
-4.970684841112016
 20
3.290108262898939
 10
-4.968949284650946
 20
3.290108262898939
 10
-4.966924468779523
 20
3.290397522309115
 10
-4.964899652908115
 20
3.290397522309115
 10
-4.962874837036693
 20
3.290976041129558
 10
-4.960271502344936
 20
3.291265300539733
 10
-4.874361457516186
 20
3.306306789869998
 10
-4.870601085183523
 20
3.306885308690438
 10
-4.866551453440877
 20
3.307463827510793
 10
-4.862791081108213
 20
3.307753086920973
 10
-4.858741449365481
 20
3.308042346331232
 10
-4.854981077032917
 20
3.308042346331232
 10
-4.850931445290085
 20
3.308042346331232
 10
-4.847171072957592
 20
3.308042346331232
 10
-4.843121441214776
 20
3.307753086920973
 10
-4.839361068882283
 20
3.307463827510793
 10
-4.835311437139465
 20
3.306885308690438
 10
-4.831551064806902
 20
3.306306789869998
 10
-4.827790692474336
 20
3.305439011639462
 10
-4.823741060731491
 20
3.304571233408848
 10
-4.819980688398941
 20
3.303414195768051
 10
-4.816509575476543
 20
3.302257158127253
 10
-4.812749203144078
 20
3.300810861076281
 10
-4.804071420838056
 20
3.296182710513096
 10
-4.797129194993273
 20
3.289819003488761
 10
-4.791633266199568
 20
3.282298258823629
 10
-4.788162153277254
 20
3.273909735927878
 10
-4.786137337405846
 20
3.264653434801508
 10
-4.7855588185854
 20
3.255107874264963
 10
-4.786715856226193
 20
3.245562313728504
 10
-4.789608450328144
 20
3.236306012602133
 10
-4.792501044430096
 20
3.230231564987977
 10
-4.795682897942383
 20
3.224446376783996
 10
-4.799732529685059
 20
3.219239707400457
 10
-4.804071420838056
 20
3.214322297427094
 10
-4.808988830811415
 20
3.209694146863908
 10
-4.814195500194954
 20
3.205644515121166
 10
-4.819691428988761
 20
3.202173402198779
 10
-4.825476617192748
 20
3.198991548686569
 10
-4.831551064806902
 20
3.196388213994799
 10
-4.837914771831236
 20
3.194363398123469
 10
-4.844278478855571
 20
3.192917101072408
 10
-4.850642185879904
 20
3.192338582252053
 10
-4.857295152314505
 20
3.192049322841873
 10
-4.863948118749106
 20
3.192627841662231
 10
-4.870311825773356
 20
3.193784879303029
 10
-4.876675532797776
 20
3.195520435764263
 10
-4.881882202181316
 20
3.197545251635593
 10
-4.886799612154674
 20
3.199859326917183
 10
-4.891427762717853
 20
3.202173402198779
 10
-4.89605591328106
 20
3.205065996300723
 10
-4.900684063844153
 20
3.20795859040276
 10
-4.90502295499715
 20
3.211429703325146
 10
-4.909361846150061
 20
3.214611556837275
 10
-4.913411477892907
 20
3.218371929169839
 10
-4.917171850225471
 20
3.222132301502403
 10
-4.921221481968216
 20
3.226181933245231
 10
-4.924692594890601
 20
3.230231564987977
 10
-4.928163707812982
 20
3.234281196730718
 10
-4.931634820735283
 20
3.238620087883723
 10
-4.9348166742475
 20
3.243248238446907
 10
-4.937998527759702
 20
3.247587129599834
 10
-4.940891121861652
 20
3.252215280163016
 10
-5.009445602078556
 20
3.218371929169839
 10
-5.003949673284835
 20
3.209404887453731
 10
-4.997585966260402
 20
3.201305623968158
 10
-4.990643740415719
 20
3.193495619892848
 10
-4.98312299575059
 20
3.186264134637896
 10
-4.975023732265015
 20
3.179900427613558
 10
-4.966345949959077
 20
3.174115239409578
 10
-4.957378908242985
 20
3.168908570026038
 10
-4.947833347706434
 20
3.164569678873035
 10
-4.937998527759702
 20
3.160809306540466
 10
-4.928163707812982
 20
3.157627453028341
 10
-4.917750369045903
 20
3.155313377746748
 10
-4.907337030278737
 20
3.153577821285515
 10
-4.896923691511574
 20
3.152710043054978
 10
-4.886510352744494
 20
3.152710043054978
 10
-4.876097013977329
 20
3.153577821285515
 10
-4.865683675210249
 20
3.155024118336486
 10
-4.855270336443084
 20
3.157627453028341
 10
-4.845146257086183
 20
3.160809306540466
 10
-4.835600696549645
 20
3.164858938283293
 10
-4.826055136013096
 20
3.170065607666833
 10
-4.817088094296991
 20
3.175561536460555
 10
-4.808699571401233
 20
3.181925243484888
 10
-4.800600307915757
 20
3.188867469329663
 10
-4.793079563250528
 20
3.196677473405058
 10
-4.786426596816028
 20
3.204776736890549
 10
-4.780062889791593
 20
3.2131652597863
 10
-4.774566960997886
 20
3.222421560912666
 10
-4.769938810434695
 20
3.231967121449129
 10
-4.765889178691963
 20
3.241512681985673
 10
-4.762707325179746
 20
3.251636761342661
 10
-4.760393249898156
 20
3.262050100109738
 10
-4.759236212257448
 20
3.272752698287084
 10
-4.758946952847253
 20
3.280851961772571
 10
-4.759236212257448
 20
3.288951225258143
 10
-4.760103990487976
 20
3.296761229333453
 10
-4.761550287539036
 20
3.304860492819023
 10
-4.763864362820554
 20
3.312381237484158
 10
-4.766467697512396
 20
3.319901982149287
 10
-4.769938810434695
 20
3.327133467404244
 10
-4.774277701587691
 20
3.334075693249018
 10
-4.777748814510005
 20
3.338703843812203
 10
-4.781509186842668
 20
3.342753475554948
 10
-4.7855588185854
 20
3.346513847887512
 10
-4.790186969148577
 20
3.349984960809903
 10
-4.794815119711684
 20
3.353166814322114
 10
-4.799732529685059
 20
3.355770149013884
 10
-4.804939199068683
 20
3.35837348370565
 10
-4.810435127862477
 20
3.360398299577066
 10
-4.815931056656197
 20
3.362423115448391
 10
-4.821426985449903
 20
3.363869412499368
 10
-4.827212173653889
 20
3.365315709550428
 10
-4.832708102447695
 20
3.366472747191138
 10
-4.838493290651597
 20
3.367340525421758
 10
-4.844278478855571
 20
3.367919044242198
 10
-4.850063667059544
 20
3.368497563062553
 10
-4.855559595853264
 20
3.368786822472733
 10
-4.859030708775661
 20
3.369076081882993
 10
-4.862791081108213
 20
3.369076081882993
 10
-4.86626219403061
 20
3.368786822472733
 10
-4.869733306952993
 20
3.368786822472733
 10
-4.873204419875378
 20
3.368497563062553
 10
-4.876964792207957
 20
3.368208303652376
 10
-4.880435905130254
 20
3.367629784831931
 10
-4.883907018052723
 20
3.367340525421758
 10
-4.887378130975037
 20
3.366762006601403
 10
-4.890849243897505
 20
3.366183487780959
 10
-4.894609616229985
 20
3.365604968960606
 10
-4.898080729152382
 20
3.365026450140162
 10
-4.901551842074751
 20
3.364447931319808
 10
-4.90502295499715
 20
3.363869412499368
 10
-4.908783327329715
 20
3.363290893679013
 10
-4.912254440252097
 20
3.362712374858573
 10
-4.963742615267306
 20
3.350274220220078
 10
-4.964899652908115
 20
3.355191630193443
 10
-4.964321134087754
 20
3.362712374858573
 10
-4.962296318216345
 20
3.371968675984944
 10
-4.959114464704128
 20
3.382382014752105
 10
-4.954486314141036
 20
3.392795353519185
 10
-4.948701125936962
 20
3.402630173465906
 10
-4.942048159502462
 20
3.410729436951482
 10
-4.934238155427152
 20
3.41680388456564
 10
-4.927295929582371
 20
3.419985738077765
 10
-4.920064444327493
 20
3.422299813359357
 10
-4.912543699662278
 20
3.424035369820591
 10
-4.904733695586884
 20
3.424903148051127
 10
-4.896923691511574
 20
3.425192407461389
 10
-4.888824428026083
 20
3.424903148051127
 10
-4.881014423950773
 20
3.423746110410333
 10
-4.873204419875378
 20
3.42201055394918
 10
-4.865394415799983
 20
3.419696478667587
 10
-4.858162930545034
 20
3.41680388456564
 10
-4.850931445290085
 20
3.413622031053426
 10
-4.844278478855571
 20
3.409861658720861
 10
-4.838204031241416
 20
3.405522767567858
 10
-4.832708102447695
 20
3.400605357594495
 10
-4.827790692474336
 20
3.395398688210955
 10
-4.823451801321326
 20
3.389902759417238
 10
-4.747087317029127
 20
3.424903148051127
  0
LWPOLYLINE
  5
CF3
330
17
100
AcDbEntity
  8
4
  6
Continuous
100
AcDbPolyline
 90
      133
 70
     0
 43
0.0
 10
-4.681177239609779
 20
3.445151306765017
 10
-4.686094649583124
 20
3.439944637381474
 10
-4.690722800146318
 20
3.433870189767318
 10
-4.694772431889048
 20
3.427506482742897
 10
-4.699111323041988
 20
3.420853516308381
 10
-4.703450214194987
 20
3.414489809284047
 10
-4.708078364758164
 20
3.408126102259712
 10
-4.712706515321356
 20
3.402340914055733
 10
-4.718202444115077
 20
3.397423504082366
 10
-4.720227259986501
 20
3.395977207031394
 10
-4.722252075857909
 20
3.394530909980337
 10
-4.724276891729315
 20
3.393084612929363
 10
-4.726301707600639
 20
3.391638315878386
 10
-4.728326523471976
 20
3.390192018827415
 10
-4.730640598753566
 20
3.388745721776443
 10
-4.732954674035156
 20
3.387299424725468
 10
-4.735847268137191
 20
3.385853127674406
 10
-4.630846102235266
 20
3.385853127674406
 10
-4.635474252798445
 20
3.382092755341843
 10
-4.639813143951471
 20
3.378332383009277
 10
-4.643862775694286
 20
3.374572010676709
 10
-4.647912407436933
 20
3.370522378933968
 10
-4.651672779769596
 20
3.366183487780959
 10
-4.655433152102162
 20
3.361844596628038
 10
-4.658904265024546
 20
3.357505705475032
 10
-4.662086118536676
 20
3.352877554911848
 10
-4.66555723145916
 20
3.347960144938488
 10
-4.668449825561096
 20
3.342753475554948
 10
-4.671342419663034
 20
3.337257546761227
 10
-4.674235013764985
 20
3.331761617967428
 10
-4.677127607866934
 20
3.325687170353267
 10
-4.679730942558791
 20
3.319612722739111
 10
-4.682334277250562
 20
3.312959756304598
 10
-4.684648352532163
 20
3.306017530459821
 10
-4.688697984274909
 20
3.290686781719292
 10
-4.691012059556499
 20
3.275356032978853
 10
-4.691301318966665
 20
3.259736024828149
 10
-4.689855021915775
 20
3.244116016677443
 10
-4.686673168403473
 20
3.229074527347178
 10
-4.681466499019947
 20
3.214322297427094
 10
-4.674813532585346
 20
3.200437845737627
 10
-4.666135750279507
 20
3.187710431688868
 10
-4.661796859126495
 20
3.182503762305328
 10
-4.656879449153136
 20
3.17758635233197
 10
-4.651383520359416
 20
3.172668942358603
 10
-4.645309072745178
 20
3.168330051205598
 10
-4.639234625131107
 20
3.16399116005268
 10
-4.632581658696493
 20
3.159941528309849
 10
-4.625639432851726
 20
3.156470415387544
 10
-4.618407947596778
 20
3.153288561875333
 10
-4.61117646234183
 20
3.150395967773386
 10
-4.603655717676686
 20
3.14779263308162
 10
-4.596424232421738
 20
3.145767817210205
 10
-4.588903487756597
 20
3.14432152015923
 10
-4.581382743091467
 20
3.143164482518435
 10
-4.574151257836517
 20
3.142875223108168
 10
-4.566919772581569
 20
3.142875223108168
 10
-4.559977546736874
 20
3.143453741928611
 10
-4.551299764430949
 20
3.144900038979583
 10
-4.542621982124926
 20
3.146635595440821
 10
-4.534233459229269
 20
3.148949670722414
 10
-4.526134195743778
 20
3.151842264824361
 10
-4.518034932258117
 20
3.155024118336486
 10
-4.510514187592987
 20
3.158784490669054
 10
-4.502993442927857
 20
3.163123381822058
 10
-4.496340476493343
 20
3.168040791795421
 10
-4.489687510058828
 20
3.173536720589225
 10
-4.48390232185477
 20
3.179321908793118
 10
-4.478406393061049
 20
3.185685615817538
 10
-4.47348898308769
 20
3.192627841662231
 10
-4.469150091934678
 20
3.200148586327363
 10
-4.46567897901238
 20
3.20795859040276
 10
-4.46278638491043
 20
3.216636372708682
 10
-4.460472309628841
 20
3.225603414424794
 10
-4.466836016653076
 20
3.220107485631073
 10
-4.47348898308769
 20
3.215190075657714
 10
-4.480720468342638
 20
3.21056192509453
 10
-4.487951953597586
 20
3.206801552761961
 10
-4.495472698262715
 20
3.203330439839573
 10
-4.503282702338026
 20
3.200437845737627
 10
-4.511381965823601
 20
3.198123770456033
 10
-4.519481229309177
 20
3.196388213994799
 10
-4.527580492794668
 20
3.195231176354001
 10
-4.535969015690425
 20
3.194941916943823
 10
-4.544068279175988
 20
3.194941916943823
 10
-4.552167542661464
 20
3.195809695174442
 10
-4.560266806147041
 20
3.197255992225417
 10
-4.568076810222449
 20
3.199570067507009
 10
-4.575886814297746
 20
3.202462661608953
 10
-4.583407558962888
 20
3.205933774531343
 10
-4.590639044217836
 20
3.21056192509453
 10
-4.597292010652438
 20
3.215479335067888
 10
-4.603366458266505
 20
3.221264523271868
 10
-4.609151646470478
 20
3.227338970886028
 10
-4.614069056443852
 20
3.234281196730718
 10
-4.618697207007045
 20
3.241223422575497
 10
-4.622457579339594
 20
3.248744167240629
 10
-4.625928692261993
 20
3.256554171316023
 10
-4.628821286364028
 20
3.264653434801508
 10
-4.630846102235266
 20
3.272752698287084
 10
-4.632581658696493
 20
3.281141221182833
 10
-4.633738696337387
 20
3.289819003488761
 10
-4.63431721515775
 20
3.298207526384511
 10
-4.63431721515775
 20
3.306885308690438
 10
-4.633738696337387
 20
3.315563090996368
 10
-4.632581658696493
 20
3.323951613892119
 10
-4.629399805184377
 20
3.333786433838843
 10
-4.625928692261993
 20
3.342464216144767
 10
-4.622168319929429
 20
3.350563479630258
 10
-4.617829428776416
 20
3.358084224295473
 10
-4.613201278213238
 20
3.365315709550428
 10
-4.607705349419518
 20
3.371968675984944
 10
-4.601341642395083
 20
3.378910901829718
 10
-4.594110157140137
 20
3.385563868264234
 10
-4.539150869202628
 20
3.385563868264234
 10
-4.535969015690425
 20
3.385563868264234
 10
-4.532208643357846
 20
3.386142387084673
 10
-4.528159011615115
 20
3.386720905905028
 10
-4.524109379872356
 20
3.387877943545823
 10
-4.52005974812954
 20
3.389034981186616
 10
-4.516588635207225
 20
3.390770537647774
 10
-4.513406781694924
 20
3.392506094109008
 10
-4.51109270641342
 20
3.3948201693906
 10
-4.458447493757417
 20
3.459035758454481
 10
-4.648201666847199
 20
3.459035758454481
 10
-4.653697595641006
 20
3.458746499044308
 10
-4.658325746204197
 20
3.458457239634126
 10
-4.662664637357123
 20
3.45758946140351
 10
-4.666425009689675
 20
3.456143164352538
 10
-4.670185382022252
 20
3.454407607891296
 10
-4.673656494944636
 20
3.452093532609792
 10
-4.677416867277202
 20
3.448911679097583
 10
-4.681177239609779
 20
3.445151306765017
  0
LWPOLYLINE
  5
CF4
330
17
100
AcDbEntity
  8
4
  6
Continuous
100
AcDbPolyline
 90
       21
 70
     0
 43
0.0
 10
-4.089492946320233
 20
3.459035758454481
 10
-4.083997017526513
 20
3.456143164352538
 10
-4.079368866963334
 20
3.452672051430146
 10
-4.075319235220574
 20
3.448622419687401
 10
-4.072426641118553
 20
3.443994269124219
 10
-4.070112565836949
 20
3.43878759974068
 10
-4.068377009375808
 20
3.433291670946878
 10
-4.06750923114518
 20
3.42721722333272
 10
-4.067219971735013
 20
3.420853516308381
 10
-4.067219971735013
 20
3.159073750079318
 10
-3.996062156826353
 20
3.159073750079318
 10
-3.996062156826353
 20
3.421721294539002
 10
-3.995772897416173
 20
3.427795742153159
 10
-3.994326600365113
 20
3.433002411536699
 10
-3.992591043903956
 20
3.43820908092024
 10
-3.98969844980202
 20
3.442837231483422
 10
-3.986516596289803
 20
3.44717612263643
 10
-3.982466964547056
 20
3.451515013789352
 10
-3.978128073394144
 20
3.455275386121916
 10
-3.97292140401052
 20
3.459035758454481
 10
-4.089492946320233
 20
3.459035758454481
  0
LWPOLYLINE
  5
CF5
330
17
100
AcDbEntity
  8
4
  6
Continuous
100
AcDbPolyline
 90
       21
 70
     0
 43
0.0
 10
-4.222429132642274
 20
3.395687947621133
 10
-4.223296910872973
 20
3.386720905905028
 10
-4.225900245564743
 20
3.378332383009277
 10
-4.22994987730749
 20
3.371100897754323
 10
-4.235445806101296
 20
3.364737190729989
 10
-4.242098772535712
 20
3.359530521346448
 10
-4.249619517200926
 20
3.355770149013884
 10
-4.257718780686501
 20
3.353456073732287
 10
-4.266396562992355
 20
3.352588295501671
 10
-4.324537704442163
 20
3.352588295501671
 10
-4.324537704442163
 20
3.426927963922542
 10
-4.330612152056403
 20
3.441101675022272
 10
-4.265528784761811
 20
3.441101675022272
 10
-4.256561743045637
 20
3.440233896791651
 10
-4.248462479560146
 20
3.437630562099881
 10
-4.241230994305198
 20
3.433580930357055
 10
-4.234867287280763
 20
3.428085001563338
 10
-4.229660617897224
 20
3.421142775718563
 10
-4.225900245564743
 20
3.413622031053426
 10
-4.223296910872973
 20
3.404944248747503
 10
-4.222429132642274
 20
3.395687947621133
  0
TEXT
  5
CF6
330
17
100
AcDbEntity
  8
4
100
AcDbText
 10
-3.278426161722421
 20
3.154739855979538
 30
0.0
 40
0.188
  1
inc., erie, pa.
  7
T
100
AcDbText
  0
LWPOLYLINE
  5
CF7
330
17
100
AcDbEntity
  8
4
  6
Continuous
 62
     4
100
AcDbPolyline
 90
      205
 70
     0
 43
0.0
 10
-3.422840441260703
 20
3.422878332179798
 10
-3.430650445336013
 20
3.430977595665285
 10
-3.439038968231841
 20
3.43820908092024
 10
-3.448584528768306
 20
3.444572787944577
 10
-3.458708608125306
 20
3.450357976148558
 10
-3.469411206302551
 20
3.45498612671174
 10
-3.480403063890149
 20
3.458746499044308
 10
-3.491973440298038
 20
3.461639093146251
 10
-3.50383307611608
 20
3.463663909017667
 10
-3.515981971344401
 20
3.464531687248287
 10
-3.528130866572723
 20
3.464820946658464
 10
-3.540279761801031
 20
3.464242427838106
 10
-3.552428657029352
 20
3.462506871376873
 10
-3.564288292847493
 20
3.459903536685103
 10
-3.575858669255453
 20
3.456432423762711
 10
-3.586850526842879
 20
3.452093532609792
 10
-3.59755312502031
 20
3.446886863226167
 10
-3.605652388505801
 20
3.441969453252805
 10
-3.613173133170931
 20
3.436473524459088
 10
-3.62040461842588
 20
3.430688336255108
 10
-3.627057584860479
 20
3.424324629230772
 10
-3.633421291884728
 20
3.417382403385995
 10
-3.639206480088801
 20
3.409861658720861
 10
-3.644702408882523
 20
3.402340914055733
 10
-3.649330559445701
 20
3.394241650570156
 10
-3.653669450598612
 20
3.385853127674406
 10
-3.657429822931192
 20
3.37717534536848
 10
-3.660322417033141
 20
3.368497563062553
 10
-3.662636492314732
 20
3.359530521346448
 10
-3.664372048775973
 20
3.350274220220078
 10
-3.665529086416767
 20
3.341017919093791
 10
-3.665818345826949
 20
3.331761617967428
 10
-3.665239827006502
 20
3.322505316841143
 10
-3.664950567596321
 20
3.317587906867781
 10
-3.664372048775973
 20
3.312959756304598
 10
-3.663793529955611
 20
3.308042346331232
 10
-3.662636492314732
 20
3.303414195768051
 10
-3.660900935853588
 20
3.299075304615042
 10
-3.658876119982238
 20
3.295025672872301
 10
-3.655694266470049
 20
3.29184381936009
 10
-3.651933894137471
 20
3.289529744078583
 10
-3.650198337676243
 20
3.288661965847963
 10
-3.648462781215087
 20
3.288083447027522
 10
-3.646437965343664
 20
3.288083447027522
 10
-3.644702408882523
 20
3.288083447027522
 10
-3.642677593011113
 20
3.288083447027522
 10
-3.640652777139691
 20
3.288372706437788
 10
-3.638338701858089
 20
3.288951225258143
 10
-3.635735367166333
 20
3.289240484668318
 10
-3.549825322337582
 20
3.304281973998668
 10
-3.546064950005018
 20
3.304860492819023
 10
-3.542015318262271
 20
3.305149752229203
 10
-3.538254945929621
 20
3.305728271049643
 10
-3.534205314186961
 20
3.305728271049643
 10
-3.530444941854312
 20
3.306017530459821
 10
-3.526395310111566
 20
3.306017530459821
 10
-3.522634937779002
 20
3.305728271049643
 10
-3.518585306036171
 20
3.305439011639462
 10
-3.514824933703692
 20
3.305149752229203
 10
-3.510775301960861
 20
3.304571233408848
 10
-3.507014929628297
 20
3.303992714588406
 10
-3.503254557295733
 20
3.303124936357873
 10
-3.499494184963167
 20
3.302257158127253
 10
-3.495733812630603
 20
3.301389379896635
 10
-3.491973440298038
 20
3.300232342255837
 10
-3.48850232737564
 20
3.298786045204865
 10
-3.479824545069631
 20
3.294157894641683
 10
-3.472593059814754
 20
3.287794187617345
 10
-3.467386390431129
 20
3.280273442952212
 10
-3.463626018098664
 20
3.27159566064629
 10
-3.461601202227228
 20
3.262628618930182
 10
-3.461311942817062
 20
3.253083058393634
 10
-3.462468980457771
 20
3.243537497857089
 10
-3.465361574559806
 20
3.233991937320541
 10
-3.468254168661843
 20
3.227917489706384
 10
-3.471436022173975
 20
3.222132301502403
 10
-3.47548565391679
 20
3.216925632118864
 10
-3.479824545069631
 20
3.212008222145501
 10
-3.484452695632811
 20
3.207380071582319
 10
-3.489659365016435
 20
3.203330439839573
 10
-3.495444553220408
 20
3.199859326917183
 10
-3.50122974142431
 20
3.196677473405058
 10
-3.507304189038478
 20
3.194074138713203
 10
-3.513378636652631
 20
3.192338582252053
 10
-3.520031603087232
 20
3.190892285201078
 10
-3.526395310111566
 20
3.190024506970462
 10
-3.532759017135902
 20
3.189735247560283
 10
-3.539411983570501
 20
3.190313766380638
 10
-3.545775690594837
 20
3.191470804021433
 10
-3.552139397619185
 20
3.193495619892848
 10
-3.557346067002725
 20
3.195520435764263
 10
-3.562263476976069
 20
3.197834511045771
 10
-3.567180886949443
 20
3.200148586327363
 10
-3.571809037512621
 20
3.203041180429397
 10
-3.5764371880758
 20
3.205933774531343
 10
-3.580776079228797
 20
3.209115628043553
 10
-3.584825710971471
 20
3.212586740965944
 10
-3.589164602124482
 20
3.216347113298508
 10
-3.592924974457133
 20
3.220107485631073
 10
-3.596685346789597
 20
3.223867857963639
 10
-3.600445719122261
 20
3.227917489706384
 10
-3.60391683204456
 20
3.232256380859388
 10
-3.607387944967029
 20
3.236595272012314
 10
-3.610569798479161
 20
3.240934163165318
 10
-3.613751651991278
 20
3.245273054318238
 10
-3.616644246093315
 20
3.249901204881423
 10
-3.685487985720384
 20
3.216347113298508
 10
-3.679992056926663
 20
3.207380071582319
 10
-3.67362834990233
 20
3.198991548686569
 10
-3.666686124057561
 20
3.191181544611259
 10
-3.659165379392419
 20
3.184239318766481
 10
-3.651066115906843
 20
3.17758635233197
 10
-3.642388333600918
 20
3.17180116412799
 10
-3.633132032474548
 20
3.16659449474445
 10
-3.623875731348276
 20
3.162255603591442
 10
-3.614040911401473
 20
3.158495231258873
 10
-3.60391683204456
 20
3.155313377746748
 10
-3.593503493277481
 20
3.152999302465159
 10
-3.583090154510401
 20
3.151553005414184
 10
-3.57267681574325
 20
3.150685227183563
 10
-3.562263476976069
 20
3.150685227183563
 10
-3.551850138208989
 20
3.151263746003918
 10
-3.541436799441924
 20
3.152999302465159
 10
-3.531023460674673
 20
3.155313377746748
 10
-3.52089938131776
 20
3.158784490669054
 10
-3.511353820781208
 20
3.162834122411881
 10
-3.501808260244756
 20
3.167751532385244
 10
-3.492841218528653
 20
3.173536720589225
 10
-3.484163436222643
 20
3.179900427613558
 10
-3.476353432147334
 20
3.186842653458247
 10
-3.468832687482204
 20
3.194363398123469
 10
-3.461890461637423
 20
3.202462661608953
 10
-3.45581601402327
 20
3.211140443914883
 10
-3.450320085229463
 20
3.220107485631073
 10
-3.445402675256189
 20
3.229653046167618
 10
-3.441642302923611
 20
3.239487866114343
 10
-3.438460449411408
 20
3.249611945471246
 10
-3.436146374129804
 20
3.260025284238325
 10
-3.434989336489024
 20
3.270438623005488
 10
-3.434410817668663
 20
3.278537886491063
 10
-3.434700077078843
 20
3.286637149976548
 10
-3.435567855309372
 20
3.294736413462123
 10
-3.437014152360433
 20
3.302546417537433
 10
-3.439328227642021
 20
3.310356421612828
 10
-3.442220821743972
 20
3.317877166277958
 10
-3.445691934666356
 20
3.325108651532913
 10
-3.450030825819283
 20
3.332050877377603
 10
-3.453501938741766
 20
3.336389768530611
 10
-3.457262311074231
 20
3.340728659683533
 10
-3.461311942817062
 20
3.344489032016183
 10
-3.465650833969988
 20
3.347670885528307
 10
-3.470568243943431
 20
3.350852739040517
 10
-3.47548565391679
 20
3.353745333142469
 10
-3.480692323300331
 20
3.356059408424057
 10
-3.485898992683871
 20
3.35837348370565
 10
-3.491394921477592
 20
3.360109040166802
 10
-3.496890850271397
 20
3.361844596628038
 10
-3.502676038475371
 20
3.363290893679013
 10
-3.508461226679272
 20
3.364447931319808
 10
-3.514246414883245
 20
3.365315709550428
 10
-3.520031603087232
 20
3.365894228370783
 10
-3.525816791291133
 20
3.366472747191138
 10
-3.531312720084926
 20
3.366762006601403
 10
-3.53478383300731
 20
3.366762006601403
 10
-3.538544205339889
 20
3.366762006601403
 10
-3.542015318262271
 20
3.366762006601403
 10
-3.545486431184571
 20
3.366472747191138
 10
-3.54895754410704
 20
3.366183487780959
 10
-3.552428657029352
 20
3.365894228370783
 10
-3.555899769951736
 20
3.365604968960606
 10
-3.559370882874133
 20
3.365026450140162
 10
-3.563131255206684
 20
3.364447931319808
 10
-3.566602368129082
 20
3.363869412499368
 10
-3.570073481051466
 20
3.363290893679013
 10
-3.573544593973848
 20
3.363001634268836
 10
-3.577015706896161
 20
3.362423115448391
 10
-3.580486819818559
 20
3.361844596628038
 10
-3.584247192151109
 20
3.361266077807598
 10
-3.587718305073507
 20
3.360687558987243
 10
-3.639495739498983
 20
3.347960144938488
 10
-3.640363517729511
 20
3.352877554911848
 10
-3.639784998909163
 20
3.360398299577066
 10
-3.638049442447907
 20
3.369654600703348
 10
-3.634578329525623
 20
3.380067939470513
 10
-3.630239438372611
 20
3.390481278237593
 10
-3.624454250168638
 20
3.400316098184318
 10
-3.617512024323929
 20
3.40841536166989
 10
-3.609702020248533
 20
3.414489809284047
 10
-3.60275979440385
 20
3.417671662796172
 10
-3.595528309148903
 20
3.420274997488028
 10
-3.588007564483773
 20
3.421721294539002
 10
-3.580197560408365
 20
3.422878332179798
 10
-3.572387556332968
 20
3.423167591589975
 10
-3.564288292847493
 20
3.422589072769535
 10
-3.556478288772182
 20
3.421721294539002
 10
-3.548668284696788
 20
3.419985738077765
 10
-3.540858280621478
 20
3.417671662796172
 10
-3.533626795366528
 20
3.414779068694224
 10
-3.526684569521818
 20
3.411307955771837
 10
-3.520031603087232
 20
3.407547583439273
 10
-3.513957155473078
 20
3.403208692286351
 10
-3.508171967269106
 20
3.398291282312988
 10
-3.503254557295733
 20
3.393084612929363
 10
-3.499204925552901
 20
3.387588684135649
 10
-3.422840441260703
 20
3.422878332179798
  0
LINE
  5
100C
330
17
100
AcDbEntity
  8
0
100
AcDbLine
 10
-12.84972697473075
 20
8.109828707489835
 30
0.0
 11
-26.84972697473077
 21
8.109828707489835
 31
0.0
  0
LINE
  5
100D
330
17
100
AcDbEntity
  8
0
100
AcDbLine
 10
-12.84972697473075
 20
7.734828707489835
 30
0.0
 11
-26.84972697473077
 21
7.734828707489835
 31
0.0
  0
LINE
  5
100E
330
17
100
AcDbEntity
  8
0
100
AcDbLine
 10
-12.84972697473075
 20
5.484828707489835
 30
0.0
 11
-26.84972697473077
 21
5.484828707489835
 31
0.0
  0
LINE
  5
100F
330
17
100
AcDbEntity
  8
0
100
AcDbLine
 10
-26.84972697473077
 20
5.109828707489835
 30
0.0
 11
-12.84972697473075
 21
5.109828707489835
 31
0.0
  0
LINE
  5
1012
330
17
100
AcDbEntity
  8
0
100
AcDbLine
 10
-26.84972697473077
 20
11.7248968019121
 30
0.0
 11
-12.84972697473075
 21
11.7248968019121
 31
0.0
  0
LINE
  5
1013
330
17
100
AcDbEntity
  8
0
100
AcDbLine
 10
-12.84972697473075
 20
17.7248968019121
 30
0.0
 11
-26.84972697473077
 21
17.7248968019121
 31
0.0
  0
LINE
  5
1016
330
17
100
AcDbEntity
  8
0
100
AcDbLine
 10
-26.84972697473077
 20
17.7248968019121
 30
0.0
 11
-26.84972697473077
 21
11.7248968019121
 31
0.0
  0
LINE
  5
1018
330
17
100
AcDbEntity
  8
0
100
AcDbLine
 10
-26.84972697473077
 20
5.484828707489835
 30
0.0
 11
-26.84972697473077
 21
5.109828707489835
 31
0.0
  0
LINE
  5
1019
330
17
100
AcDbEntity
  8
0
100
AcDbLine
 10
-26.84972697473077
 20
8.109828707489835
 30
0.0
 11
-26.84972697473077
 21
7.734828707489835
 31
0.0
  0
LINE
  5
101A
330
17
100
AcDbEntity
  8
3
  6
HIDDEN
100
AcDbLine
 10
-25.59972697473077
 20
8.109828707489835
 30
0.0
 11
-25.59972697473077
 21
7.734828707489835
 31
0.0
  0
LINE
  5
101B
330
17
100
AcDbEntity
  8
3
  6
HIDDEN
100
AcDbLine
 10
-25.09972697473076
 20
8.109828707489835
 30
0.0
 11
-25.09972697473076
 21
7.734828707489835
 31
0.0
  0
LINE
  5
101C
330
17
100
AcDbEntity
  8
3
  6
HIDDEN
100
AcDbLine
 10
-24.09972697473076
 20
8.109828707489835
 30
0.0
 11
-24.09972697473076
 21
7.734828707489835
 31
0.0
  0
LINE
  5
101D
330
17
100
AcDbEntity
  8
3
  6
HIDDEN
100
AcDbLine
 10
-23.09972697473076
 20
8.109828707489835
 30
0.0
 11
-23.09972697473076
 21
7.734828707489835
 31
0.0
  0
CIRCLE
  5
101E
330
17
100
AcDbEntity
  8
0
100
AcDbCircle
 10
-23.59972697473077
 20
14.7248968019121
 30
0.0
 40
0.5
  0
CIRCLE
  5
1020
330
17
100
AcDbEntity
  8
0
100
AcDbCircle
 10
-25.34972697473076
 20
13.0373968019121
 30
0.0
 40
0.25
  0
CIRCLE
  5
1021
330
17
100
AcDbEntity
  8
0
100
AcDbCircle
 10
-25.34972697473076
 20
16.4123968019121
 30
0.0
 40
0.25
  0
LINE
  5
1024
330
17
100
AcDbEntity
  8
0
100
AcDbLine
 10
-12.84972697473075
 20
11.7248968019121
 30
0.0
 11
-12.84972697473075
 21
17.7248968019121
 31
0.0
  0
LINE
  5
1025
330
17
100
AcDbEntity
  8
3
  6
HIDDEN
100
AcDbLine
 10
-19.59972697473076
 20
8.109828707489835
 30
0.0
 11
-19.59972697473076
 21
7.734828707489835
 31
0.0
  0
LINE
  5
1026
330
17
100
AcDbEntity
  8
3
  6
HIDDEN
100
AcDbLine
 10
-20.09972697473076
 20
8.109828707489835
 30
0.0
 11
-20.09972697473076
 21
7.734828707489835
 31
0.0
  0
LINE
  5
1027
330
17
100
AcDbEntity
  8
3
  6
HIDDEN
100
AcDbLine
 10
-14.59972697473076
 20
8.109828707489835
 30
0.0
 11
-14.59972697473076
 21
7.734828707489835
 31
0.0
  0
LINE
  5
1028
330
17
100
AcDbEntity
  8
3
  6
HIDDEN
100
AcDbLine
 10
-14.09972697473075
 20
8.109828707489835
 30
0.0
 11
-14.09972697473075
 21
7.734828707489835
 31
0.0
  0
LINE
  5
102A
330
17
100
AcDbEntity
  8
0
100
AcDbLine
 10
-12.84972697473075
 20
5.109828707489835
 30
0.0
 11
-12.84972697473075
 21
5.484828707489835
 31
0.0
  0
LINE
  5
102B
330
17
100
AcDbEntity
  8
0
100
AcDbLine
 10
-12.84972697473075
 20
7.734828707489835
 30
0.0
 11
-12.84972697473075
 21
8.109828707489835
 31
0.0
  0
CIRCLE
  5
102C
330
17
100
AcDbEntity
  8
0
100
AcDbCircle
 10
-19.84972697473075
 20
13.0373968019121
 30
0.0
 40
0.25
  0
CIRCLE
  5
102D
330
17
100
AcDbEntity
  8
0
100
AcDbCircle
 10
-19.84972697473075
 20
16.4123968019121
 30
0.0
 40
0.25
  0
CIRCLE
  5
102E
330
17
100
AcDbEntity
  8
0
100
AcDbCircle
 10
-14.34972697473076
 20
13.0373968019121
 30
0.0
 40
0.25
  0
CIRCLE
  5
102F
330
17
100
AcDbEntity
  8
0
100
AcDbCircle
 10
-14.34972697473076
 20
16.4123968019121
 30
0.0
 40
0.25
  0
CIRCLE
  5
1040
330
17
100
AcDbEntity
  8
0
100
AcDbCircle
 10
-25.34972697473076
 20
16.4123968019121
 30
0.0
 40
0.0885
  0
CIRCLE
  5
1041
330
17
100
AcDbEntity
  8
0
100
AcDbCircle
 10
-25.34972697473076
 20
13.0373968019121
 30
0.0
 40
0.0885
  0
CIRCLE
  5
1042
330
17
100
AcDbEntity
  8
0
100
AcDbCircle
 10
-19.84972697473075
 20
16.4123968019121
 30
0.0
 40
0.0885
  0
CIRCLE
  5
1043
330
17
100
AcDbEntity
  8
0
100
AcDbCircle
 10
-19.84972697473075
 20
13.0373968019121
 30
0.0
 40
0.0885
  0
CIRCLE
  5
1044
330
17
100
AcDbEntity
  8
0
100
AcDbCircle
 10
-14.34972697473076
 20
13.0373968019121
 30
0.0
 40
0.0885
  0
CIRCLE
  5
1045
330
17
100
AcDbEntity
  8
0
100
AcDbCircle
 10
-14.34972697473076
 20
16.4123968019121
 30
0.0
 40
0.0885
  0
LINE
  5
1046
330
17
100
AcDbEntity
  8
3
  6
HIDDEN
100
AcDbLine
 10
-25.43822697473075
 20
5.484828707489835
 30
0.0
 11
-25.43822697473075
 21
5.109828707489835
 31
0.0
  0
LINE
  5
1047
330
17
100
AcDbEntity
  8
3
  6
HIDDEN
100
AcDbLine
 10
-25.26122697473077
 20
5.484828707489835
 30
0.0
 11
-25.26122697473077
 21
5.109828707489835
 31
0.0
  0
LINE
  5
1048
330
17
100
AcDbEntity
  8
3
  6
HIDDEN
100
AcDbLine
 10
-19.76122697473076
 20
5.484828707489835
 30
0.0
 11
-19.76122697473076
 21
5.109828707489835
 31
0.0
  0
LINE
  5
1049
330
17
100
AcDbEntity
  8
3
  6
HIDDEN
100
AcDbLine
 10
-19.93822697473077
 20
5.484828707489835
 30
0.0
 11
-19.93822697473076
 21
5.109828707489835
 31
0.0
  0
LINE
  5
104A
330
17
100
AcDbEntity
  8
3
  6
HIDDEN
100
AcDbLine
 10
-14.43822697473074
 20
5.484828707489835
 30
0.0
 11
-14.43822697473075
 21
5.109828707489835
 31
0.0
  0
LINE
  5
104B
330
17
100
AcDbEntity
  8
3
  6
HIDDEN
100
AcDbLine
 10
-14.26122697473077
 20
5.484828707489835
 30
0.0
 11
-14.26122697473076
 21
5.109828707489835
 31
0.0
  0
LINE
  5
104C
330
17
100
AcDbEntity
  8
3
  6
CENTER
100
AcDbLine
 10
-14.34972697473076
 20
4.811160043371875
 30
0.0
 11
-14.34972697473076
 21
8.423148525721064
 31
0.0
  0
LINE
  5
104D
330
17
100
AcDbEntity
  8
3
  6
CENTER
100
AcDbLine
 10
-19.84972697473075
 20
8.423148525721064
 30
0.0
 11
-19.84972697473075
 21
4.811160043371875
 31
0.0
  0
LINE
  5
104E
330
17
100
AcDbEntity
  8
3
  6
CENTER
100
AcDbLine
 10
-25.34972697473076
 20
8.423148525721064
 30
0.0
 11
-25.34972697473076
 21
4.811160043371875
 31
0.0
  0
LINE
  5
1050
330
17
100
AcDbEntity
  8
3
  6
CENTER
100
AcDbLine
 10
-23.59972697473077
 20
8.409252379171835
 30
0.0
 11
-23.59972697473077
 21
7.22581318733494
 31
0.0
  0
LINE
  5
1558
330
17
100
AcDbEntity
  8
0
100
AcDbLine
 10
-26.84972697473077
 20
8.109828707489835
 30
0.0
 11
-26.84972697473077
 21
7.734828707489835
 31
0.0
  0
LINE
  5
1559
330
17
100
AcDbEntity
  8
0
100
AcDbLine
 10
-26.84972697473077
 20
7.734828707489835
 30
0.0
 11
-26.78772697473077
 21
6.609828707489835
 31
0.0
  0
LINE
  5
155A
330
17
100
AcDbEntity
  8
0
100
AcDbLine
 10
-26.78772697473077
 20
6.609828707489835
 30
0.0
 11
-26.84972697473077
 21
5.484828707489835
 31
0.0
  0
LINE
  5
155B
330
17
100
AcDbEntity
  8
0
100
AcDbLine
 10
-26.84972697473077
 20
5.484828707489835
 30
0.0
 11
-26.84972697473077
 21
5.109828707489835
 31
0.0
  0
LINE
  5
155C
330
17
100
AcDbEntity
  8
0
100
AcDbLine
 10
-12.84972697473075
 20
8.109828707489835
 30
0.0
 11
-12.84972697473075
 21
7.734828707489835
 31
0.0
  0
LINE
  5
155D
330
17
100
AcDbEntity
  8
0
100
AcDbLine
 10
-12.84972697473075
 20
7.734828707489835
 30
0.0
 11
-12.91172697473075
 21
6.609828707489835
 31
0.0
  0
LINE
  5
155E
330
17
100
AcDbEntity
  8
0
100
AcDbLine
 10
-12.91172697473075
 20
6.609828707489835
 30
0.0
 11
-12.84972697473075
 21
5.484828707489835
 31
0.0
  0
LINE
  5
155F
330
17
100
AcDbEntity
  8
0
100
AcDbLine
 10
-12.84972697473075
 20
5.484828707489835
 30
0.0
 11
-12.84972697473075
 21
5.109828707489835
 31
0.0
  0
DIMENSION
  5
1560
330
17
100
AcDbEntity
  8
0
100
AcDbDimension
  2
*D0
 10
-28.27992372003752
 20
8.109828707489837
 30
0.0
 11
-28.27992372003753
 21
6.609828707489831
 31
0.0
 70
    32
 71
     5
 42
3.0
  3
STANDARD
100
AcDbAlignedDimension
 13
-26.84972697473077
 23
5.109828707489835
 33
0.0
 14
-26.84972697473077
 24
8.109828707489835
 34
0.0
 50
90.0
100
AcDbRotatedDimension
1001
ACAD
1000
DSTYLE
1002
{
1070
    40
1040
2.0
1070
    41
1040
0.125
1070
    44
1040
0.0625
1070
    78
1070
     4
1070
   140
1040
0.125
1070
   141
1040
-0.125
1070
   276
1070
     2
1070
   277
1070
     5
1070
   284
1070
     4
1070
   285
1070
     4
1070
   286
1070
     4
1070
   340
1005
1C
1002
}
  0
DIMENSION
  5
156E
330
17
100
AcDbEntity
  8
0
100
AcDbDimension
  2
*D1
 10
-12.84972697473075
 20
9.865080547066677
 30
0.0
 11
-19.84972697473075
 21
9.865080547066677
 31
0.0
 70
    33
 71
     5
 42
14.0
  3
STANDARD
100
AcDbAlignedDimension
 13
-26.84972697473077
 23
11.7248968019121
 33
0.0
 14
-12.84972697473075
 24
11.7248968019121
 34
0.0
1001
ACAD
1000
DSTYLE
1002
{
1070
    40
1040
2.0
1070
    41
1040
0.125
1070
    44
1040
0.0625
1070
    78
1070
     4
1070
   140
1040
0.125
1070
   141
1040
-0.125
1070
   276
1070
     2
1070
   277
1070
     5
1070
   284
1070
     4
1070
   285
1070
     4
1070
   286
1070
     4
1070
   340
1005
1C
1002
}
  0
DIMENSION
  5
157C
330
17
100
AcDbEntity
  8
0
100
AcDbDimension
  2
*D2
 10
-28.38192326947061
 20
11.7248968019121
 30
0.0
 11
-28.38192326947062
 21
14.72489680191209
 31
0.0
 70
    32
 71
     5
 42
5.999999999999997
  3
STANDARD
100
AcDbAlignedDimension
 13
-26.84972697473077
 23
17.7248968019121
 33
0.0
 14
-26.84972697473077
 24
11.7248968019121
 34
0.0
 50
90.0
100
AcDbRotatedDimension
1001
ACAD
1000
DSTYLE
1002
{
1070
    40
1040
2.0
1070
    41
1040
0.125
1070
    44
1040
0.0625
1070
    78
1070
     4
1070
   140
1040
0.125
1070
   141
1040
-0.125
1070
   276
1070
     2
1070
   277
1070
     5
1070
   284
1070
     4
1070
   285
1070
     4
1070
   286
1070
     4
1070
   340
1005
1C
1002
}
  0
ENDSEC
  0
SECTION
  2
OBJECTS
  0
DICTIONARY
  5
C
330
0
100
AcDbDictionary
281
     1
  3
ACAD_CIP_PREVIOUS_PRODUCT_INFO
350
1679
  3
ACAD_COLOR
350
1659
  3
ACAD_DETAILVIEWSTYLE
350
1672
  3
ACAD_GROUP
350
D
  3
ACAD_LAYOUT
350
F88
  3
ACAD_MATERIAL
350
1627
  3
ACAD_MLEADERSTYLE
350
166E
  3
ACAD_MLINESTYLE
350
1A
  3
ACAD_PLOTSETTINGS
350
F89
  3
ACAD_PLOTSTYLENAME
350
F86
  3
ACAD_SCALELIST
350
165C
  3
ACAD_SECTIONVIEWSTYLE
350
1670
  3
ACAD_TABLESTYLE
350
165A
  3
ACAD_VISUALSTYLE
350
1640
  3
AcadDim
350
154F
  3
ACDB_RECOMPOSE_DATA
350
1701
  3
ACDBVARIABLEDICTIONARY
350
2E
  3
AcDsDecomposeData
350
1708
  3
DWGPROPS
350
1702
  0
DICTIONARY
  5
168C
330
2
100
AcDbDictionary
280
     1
281
     1
  3
ACAD_LAYERSTATES
360
168D
  0
DICTIONARY
  5
1681
330
E
100
AcDbDictionary
280
     1
281
     1
  3
ADSK_XREC_LAYER_RECONCILED
360
1682
  0
DICTIONARY
  5
1683
330
26
100
AcDbDictionary
280
     1
281
     1
  3
ADSK_XREC_LAYER_RECONCILED
360
1684
  0
DICTIONARY
  5
1685
330
27
100
AcDbDictionary
280
     1
281
     1
  3
ADSK_XREC_LAYER_RECONCILED
360
1686
  0
DICTIONARY
  5
1687
330
28
100
AcDbDictionary
280
     1
281
     1
  3
ADSK_XREC_LAYER_RECONCILED
360
1688
  0
XRECORD
  5
1679
102
{ACAD_REACTORS
330
C
102
}
330
C
100
AcDbXrecord
280
     1
300
AMECH_PP
300
2015
300
PDSU_F_S
  0
DICTIONARY
  5
1659
102
{ACAD_REACTORS
330
C
102
}
330
C
100
AcDbDictionary
281
     1
  0
DICTIONARY
  5
1672
102
{ACAD_REACTORS
330
C
102
}
330
C
100
AcDbDictionary
281
     1
  3
Imperial24
350
1673
  0
DICTIONARY
  5
D
102
{ACAD_REACTORS
330
C
102
}
330
C
100
AcDbDictionary
281
     1
  0
DICTIONARY
  5
F88
102
{ACAD_REACTORS
330
C
102
}
330
C
100
AcDbDictionary
281
     1
  3
Layout1
350
F8B
  3
Model
350
F8A
  0
DICTIONARY
  5
1627
102
{ACAD_REACTORS
330
C
102
}
330
C
100
AcDbDictionary
281
     1
  3
ByBlock
350
1630
  3
ByLayer
350
1628
  3
Global
350
1638
  0
DICTIONARY
  5
166E
102
{ACAD_REACTORS
330
C
102
}
330
C
100
AcDbDictionary
281
     1
  3
Standard
350
166F
  0
DICTIONARY
  5
1A
102
{ACAD_REACTORS
330
C
102
}
330
C
100
AcDbDictionary
281
     1
  3
STANDARD
350
1B
  0
DICTIONARY
  5
F89
102
{ACAD_REACTORS
330
C
102
}
330
C
100
AcDbDictionary
281
     1
  0
ACDBDICTIONARYWDFLT
  5
F86
102
{ACAD_REACTORS
330
C
102
}
330
C
100
AcDbDictionary
281
     1
  3
Normal
350
F87
100
AcDbDictionaryWithDefault
340
F87
  0
DICTIONARY
  5
165C
102
{ACAD_REACTORS
330
C
102
}
330
C
100
AcDbDictionary
281
     1
  3
A0
350
165D
  3
A1
350
165E
  3
A2
350
165F
  3
A3
350
1660
  3
A4
350
1661
  3
A5
350
1662
  3
A6
350
1663
  3
A7
350
1664
  3
A8
350
1665
  3
A9
350
1666
  3
B0
350
1667
  3
B1
350
1668
  3
B2
350
1669
  3
B3
350
166A
  3
B4
350
166B
  3
B5
350
166C
  3
B6
350
166D
  0
DICTIONARY
  5
1670
102
{ACAD_REACTORS
330
C
102
}
330
C
100
AcDbDictionary
281
     1
  3
Imperial24
350
1671
  0
DICTIONARY
  5
165A
102
{ACAD_REACTORS
330
C
102
}
330
C
100
AcDbDictionary
281
     1
  3
Standard
350
165B
  0
DICTIONARY
  5
1640
102
{ACAD_REACTORS
330
C
102
}
330
C
100
AcDbDictionary
281
     1
  3
2dWireframe
350
1646
  3
Basic
350
1645
  3
Brighten
350
164C
  3
ColorChange
350
1650
  3
Conceptual
350
1649
  3
Dim
350
164B
  3
EdgeColorOff
350
1658
  3
Facepattern
350
164F
  3
Flat
350
1641
  3
FlatWithEdges
350
1642
  3
Gouraud
350
1643
  3
GouraudWithEdges
350
1644
  3
Hidden
350
1648
  3
JitterOff
350
1656
  3
Linepattern
350
164E
  3
OverhangOff
350
1657
  3
Realistic
350
164A
  3
Shaded
350
1655
  3
Shaded with edges
350
1654
  3
Shades of Gray
350
1651
  3
Sketchy
350
1652
  3
Thicken
350
164D
  3
Wireframe
350
1647
  3
X-Ray
350
1653
  0
XRECORD
  5
154F
102
{ACAD_REACTORS
330
C
102
}
330
C
100
AcDbXrecord
280
     1
 90
   990106
  3

 60
     0
 61
     0
 62
     1
 63
     3
 64
     0
 65
     0
 66
     0
 67
     3
 68
     1
 69
     0
 70
     0
 71
     0
 72
     0
 40
0.0
170
     0
340
15CC
  0
XRECORD
  5
1701
102
{ACAD_REACTORS
330
C
102
}
330
C
100
AcDbXrecord
280
     1
 90
        1
330
165B
  0
DICTIONARY
  5
2E
102
{ACAD_REACTORS
330
C
102
}
330
C
100
AcDbDictionary
281
     1
  3
CANNOSCALE
350
16E8
  3
CMLEADERSTYLE
350
16E4
  3
CTABLESTYLE
350
16E3
  3
CVIEWDETAILSTYLE
350
16E5
  3
CVIEWSECTIONSTYLE
350
16E6
  3
DIMADEC
350
2F
  3
DIMASSOC
350
FDD
  3
INDEXCTL
350
16FB
  3
LAYEREVAL
350
16EA
  3
LAYERNOTIFY
350
16EB
  3
LIGHTINGUNITS
350
16E9
  3
LOFTANG1
350
16FC
  3
LOFTANG2
350
16FD
  3
LONGITUDE
350
16FE
  3
MSLTSCALE
350
16E7
  3
SORTENTS
350
16FA
  3
XCLIPFRAME
350
16FF
  0
DICTIONARY
  5
1708
102
{ACAD_REACTORS
330
C
102
}
330
C
100
AcDbDictionary
281
     1
  3
AcDsRecords
350
170A
  3
AcDsSchemas
350
1709
1001
ACAD
1070
     2
  0
XRECORD
  5
1702
102
{ACAD_REACTORS
330
C
102
}
330
C
100
AcDbXrecord
280
     1
  1
DWGPROPS COOKIE
  2

  3

  4

  6

  7

  8
jmilewski
  9

300
=
301
=
302
=
303
=
304
=
305
=
306
=
307
=
308
=
309
=
 40
0.2959142939814815
 41
2447600.629998148
 42
2457155.481535857
  1

 90
        0
  0
DICTIONARY
  5
168D
102
{ACAD_REACTORS
330
168C
102
}
330
168C
100
AcDbDictionary
281
     1
  0
XRECORD
  5
1682
102
{ACAD_REACTORS
330
1681
102
}
330
1681
100
AcDbXrecord
280
     1
290
     1
  0
XRECORD
  5
1684
102
{ACAD_REACTORS
330
1683
102
}
330
1683
100
AcDbXrecord
280
     1
290
     1
  0
XRECORD
  5
1686
102
{ACAD_REACTORS
330
1685
102
}
330
1685
100
AcDbXrecord
280
     1
290
     1
  0
XRECORD
  5
1688
102
{ACAD_REACTORS
330
1687
102
}
330
1687
100
AcDbXrecord
280
     1
290
     1
  0
ACDBDETAILVIEWSTYLE
  5
1673
102
{ACAD_XDICTIONARY
360
16F0
102
}
102
{ACAD_REACTORS
330
1672
102
}
330
1672
100
AcDbModelDocViewStyle
 70
     0
  3
Imperial24
290
     0
100
AcDbDetailViewStyle
 70
     0
 71
     0
 90
        3
 71
     1
340
F
 40
0.24
340
0
 40
0.24
300

 40
0.36
280
     3
 71
     2
340
13
 90
       25
 71
     3
340
F
 40
0.24
 90
        1
 40
0.75
 90
        1
300
%<\AcVar ViewType \f "%tc1">% %<\AcVar ViewDetailId>%\PSCALE %<\AcVar ViewScale \f "%sn">%
 71
     4
340
13
 90
       25
340
13
 90
       25
280
     0
  0
LAYOUT
  5
F8B
102
{ACAD_XDICTIONARY
360
170D
102
}
102
{ACAD_REACTORS
330
F88
102
}
330
F88
100
AcDbPlotSettings
  1

  2
HP DesignJet 500 42 by HP
  4

  6

 40
0.0
 41
0.0
 42
0.0
 43
0.0
 44
0.0
 45
0.0
 46
0.0
 47
0.0
 48
0.0
 49
0.0
140
0.0
141
0.0
142
1.0
143
1.0
 70
   688
 72
     0
 73
     0
 74
     5
  7
blk1500.ctb
 75
    16
147
1.0
148
0.0
149
0.0
100
AcDbLayout
  1
Layout1
 70
     0
 71
     1
 10
0.0
 20
0.0
 11
12.0
 21
9.0
 12
0.0
 22
0.0
 32
0.0
 14
1.000000000000000E+20
 24
1.000000000000000E+20
 34
1.000000000000000E+20
 15
-1.000000000000000E+20
 25
-1.000000000000000E+20
 35
-1.000000000000000E+20
146
0.0
 13
0.0
 23
0.0
 33
0.0
 16
1.0
 26
0.0
 36
0.0
 17
0.0
 27
1.0
 37
0.0
 76
     0
330
14
  0
LAYOUT
  5
F8A
102
{ACAD_XDICTIONARY
360
170B
102
}
102
{ACAD_REACTORS
330
F88
102
}
330
F88
100
AcDbPlotSettings
  1

  2
HP DesignJet 500 42 by HP
  4
User262
  6

 40
4.995333194732666
 41
16.97567367553711
 42
4.995330810546875
 43
16.97567749023437
 44
215.857666015625
 45
279.3153381347656
 46
0.0
 47
0.0
 48
0.0
 49
0.0
140
0.0
141
0.0
142
1.0
143
1.0
 70
 11952
 72
     0
 73
     1
 74
     0
  7
PHOTO.ctb
 75
     0
147
1.0
148
-254.6197668166456
149
697.70648330233
100
AcDbLayout
  1
Model
 70
     1
 71
     0
 10
0.0
 20
0.0
 11
12.0
 21
9.0
 12
0.0
 22
0.0
 32
0.0
 14
0.0
 24
0.0
 34
0.0
 15
0.0
 25
0.0
 35
0.0
146
0.0
 13
0.0
 23
0.0
 33
0.0
 16
1.0
 26
0.0
 36
0.0
 17
0.0
 27
1.0
 37
0.0
 76
     0
330
17
331
1625
  0
MATERIAL
  5
1630
102
{ACAD_XDICTIONARY
360
1631
102
}
102
{ACAD_REACTORS
330
1627
102
}
330
1627
100
AcDbMaterial
  1
ByBlock
 72
     0
 43
0.0208333333333333
 43
0.0
 43
0.0
 43
0.0
 43
0.0
 43
0.0208333333333333
 43
0.0
 43
0.0
 43
0.0
 43
0.0
 43
1.0
 43
0.0
 43
0.0
 43
0.0
 43
0.0
 43
1.0
 77
     0
 47
0.0208333333333333
 47
0.0
 47
0.0
 47
0.0
 47
0.0
 47
0.0208333333333333
 47
0.0
 47
0.0
 47
0.0
 47
0.0
 47
1.0
 47
0.0
 47
0.0
 47
0.0
 47
0.0
 47
1.0
171
     0
 49
0.0208333333333333
 49
0.0
 49
0.0
 49
0.0
 49
0.0
 49
0.0208333333333333
 49
0.0
 49
0.0
 49
0.0
 49
0.0
 49
1.0
 49
0.0
 49
0.0
 49
0.0
 49
0.0
 49
1.0
175
     0
142
0.0208333333333333
142
0.0
142
0.0
142
0.0
142
0.0
142
0.0208333333333333
142
0.0
142
0.0
142
0.0
142
0.0
142
1.0
142
0.0
142
0.0
142
0.0
142
0.0
142
1.0
179
     0
144
0.0208333333333333
144
0.0
144
0.0
144
0.0
144
0.0
144
0.0208333333333333
144
0.0
144
0.0
144
0.0
144
0.0
144
1.0
144
0.0
144
0.0
144
0.0
144
0.0
144
1.0
147
0.0208333333333333
147
0.0
147
0.0
147
0.0
147
0.0
147
0.0208333333333333
147
0.0
147
0.0
147
0.0
147
0.0
147
1.0
147
0.0
147
0.0
147
0.0
147
0.0
147
1.0
  0
MATERIAL
  5
1628
102
{ACAD_XDICTIONARY
360
1629
102
}
102
{ACAD_REACTORS
330
1627
102
}
330
1627
100
AcDbMaterial
  1
ByLayer
 72
     0
 43
0.0208333333333333
 43
0.0
 43
0.0
 43
0.0
 43
0.0
 43
0.0208333333333333
 43
0.0
 43
0.0
 43
0.0
 43
0.0
 43
1.0
 43
0.0
 43
0.0
 43
0.0
 43
0.0
 43
1.0
 77
     0
 47
0.0208333333333333
 47
0.0
 47
0.0
 47
0.0
 47
0.0
 47
0.0208333333333333
 47
0.0
 47
0.0
 47
0.0
 47
0.0
 47
1.0
 47
0.0
 47
0.0
 47
0.0
 47
0.0
 47
1.0
171
     0
 49
0.0208333333333333
 49
0.0
 49
0.0
 49
0.0
 49
0.0
 49
0.0208333333333333
 49
0.0
 49
0.0
 49
0.0
 49
0.0
 49
1.0
 49
0.0
 49
0.0
 49
0.0
 49
0.0
 49
1.0
175
     0
142
0.0208333333333333
142
0.0
142
0.0
142
0.0
142
0.0
142
0.0208333333333333
142
0.0
142
0.0
142
0.0
142
0.0
142
1.0
142
0.0
142
0.0
142
0.0
142
0.0
142
1.0
179
     0
144
0.0208333333333333
144
0.0
144
0.0
144
0.0
144
0.0
144
0.0208333333333333
144
0.0
144
0.0
144
0.0
144
0.0
144
1.0
144
0.0
144
0.0
144
0.0
144
0.0
144
1.0
147
0.0208333333333333
147
0.0
147
0.0
147
0.0
147
0.0
147
0.0208333333333333
147
0.0
147
0.0
147
0.0
147
0.0
147
1.0
147
0.0
147
0.0
147
0.0
147
0.0
147
1.0
  0
MATERIAL
  5
1638
102
{ACAD_XDICTIONARY
360
1639
102
}
102
{ACAD_REACTORS
330
1627
102
}
330
1627
100
AcDbMaterial
  1
Global
 72
     0
 43
0.0208333333333333
 43
0.0
 43
0.0
 43
0.0
 43
0.0
 43
0.0208333333333333
 43
0.0
 43
0.0
 43
0.0
 43
0.0
 43
1.0
 43
0.0
 43
0.0
 43
0.0
 43
0.0
 43
1.0
 77
     0
 47
0.0208333333333333
 47
0.0
 47
0.0
 47
0.0
 47
0.0
 47
0.0208333333333333
 47
0.0
 47
0.0
 47
0.0
 47
0.0
 47
1.0
 47
0.0
 47
0.0
 47
0.0
 47
0.0
 47
1.0
171
     0
 49
0.0208333333333333
 49
0.0
 49
0.0
 49
0.0
 49
0.0
 49
0.0208333333333333
 49
0.0
 49
0.0
 49
0.0
 49
0.0
 49
1.0
 49
0.0
 49
0.0
 49
0.0
 49
0.0
 49
1.0
175
     0
142
0.0208333333333333
142
0.0
142
0.0
142
0.0
142
0.0
142
0.0208333333333333
142
0.0
142
0.0
142
0.0
142
0.0
142
1.0
142
0.0
142
0.0
142
0.0
142
0.0
142
1.0
179
     0
144
0.0208333333333333
144
0.0
144
0.0
144
0.0
144
0.0
144
0.0208333333333333
144
0.0
144
0.0
144
0.0
144
0.0
144
1.0
144
0.0
144
0.0
144
0.0
144
0.0
144
1.0
147
0.0208333333333333
147
0.0
147
0.0
147
0.0
147
0.0
147
0.0208333333333333
147
0.0
147
0.0
147
0.0
147
0.0
147
1.0
147
0.0
147
0.0
147
0.0
147
0.0
147
1.0
  0
MLEADERSTYLE
  5
166F
102
{ACAD_XDICTIONARY
360
1744
102
}
102
{ACAD_REACTORS
330
166E
102
}
330
166E
100
AcDbMLeaderStyle
170
     2
171
     1
172
     0
 90
        2
 40
0.0
 41
0.0
173
     1
 91
-1056964608
340
11
 92
       -2
290
     1
 42
0.09
291
     1
 43
0.36
  3
Standard
 44
0.18
300

342
F
174
     1
178
     6
175
     1
176
     0
 93
-1056964608
 45
0.18
292
     0
297
     0
 46
0.18
 94
-1056964608
 47
1.0
 49
1.0
140
1.0
293
     1
141
0.0
294
     1
177
     0
142
1.0
295
     0
296
     0
143
0.125
1001
ACAD_MLEADERVER
1070
     2
  0
MLINESTYLE
  5
1B
102
{ACAD_REACTORS
330
1A
102
}
330
1A
100
AcDbMlineStyle
  2
STANDARD
 70
     0
  3

 62
   256
 51
90.0
 52
90.0
 71
     2
 49
0.5
 62
   256
  6
BYLAYER
 49
-0.5
 62
   256
  6
BYLAYER
  0
ACDBPLACEHOLDER
  5
F87
102
{ACAD_REACTORS
330
F86
102
}
330
F86
  0
SCALE
  5
165D
102
{ACAD_REACTORS
330
165C
102
}
330
165C
100
AcDbScale
 70
     0
300
1:1
140
1.0
141
1.0
290
     1
  0
SCALE
  5
165E
102
{ACAD_REACTORS
330
165C
102
}
330
165C
100
AcDbScale
 70
     0
300
1/128" = 1'-0"
140
0.0078125
141
12.0
290
     0
  0
SCALE
  5
165F
102
{ACAD_REACTORS
330
165C
102
}
330
165C
100
AcDbScale
 70
     0
300
1/64" = 1'-0"
140
0.015625
141
12.0
290
     0
  0
SCALE
  5
1660
102
{ACAD_REACTORS
330
165C
102
}
330
165C
100
AcDbScale
 70
     0
300
1/32" = 1'-0"
140
0.03125
141
12.0
290
     0
  0
SCALE
  5
1661
102
{ACAD_REACTORS
330
165C
102
}
330
165C
100
AcDbScale
 70
     0
300
1/16" = 1'-0"
140
0.0625
141
12.0
290
     0
  0
SCALE
  5
1662
102
{ACAD_REACTORS
330
165C
102
}
330
165C
100
AcDbScale
 70
     0
300
3/32" = 1'-0"
140
0.09375
141
12.0
290
     0
  0
SCALE
  5
1663
102
{ACAD_REACTORS
330
165C
102
}
330
165C
100
AcDbScale
 70
     0
300
1/8" = 1'-0"
140
0.125
141
12.0
290
     0
  0
SCALE
  5
1664
102
{ACAD_REACTORS
330
165C
102
}
330
165C
100
AcDbScale
 70
     0
300
3/16" = 1'-0"
140
0.1875
141
12.0
290
     0
  0
SCALE
  5
1665
102
{ACAD_REACTORS
330
165C
102
}
330
165C
100
AcDbScale
 70
     0
300
1/4" = 1'-0"
140
0.25
141
12.0
290
     0
  0
SCALE
  5
1666
102
{ACAD_REACTORS
330
165C
102
}
330
165C
100
AcDbScale
 70
     0
300
3/8" = 1'-0"
140
0.375
141
12.0
290
     0
  0
SCALE
  5
1667
102
{ACAD_REACTORS
330
165C
102
}
330
165C
100
AcDbScale
 70
     0
300
1/2" = 1'-0"
140
0.5
141
12.0
290
     0
  0
SCALE
  5
1668
102
{ACAD_REACTORS
330
165C
102
}
330
165C
100
AcDbScale
 70
     0
300
3/4" = 1'-0"
140
0.75
141
12.0
290
     0
  0
SCALE
  5
1669
102
{ACAD_REACTORS
330
165C
102
}
330
165C
100
AcDbScale
 70
     0
300
1" = 1'-0"
140
1.0
141
12.0
290
     0
  0
SCALE
  5
166A
102
{ACAD_REACTORS
330
165C
102
}
330
165C
100
AcDbScale
 70
     0
300
1-1/2" = 1'-0"
140
1.5
141
12.0
290
     0
  0
SCALE
  5
166B
102
{ACAD_REACTORS
330
165C
102
}
330
165C
100
AcDbScale
 70
     0
300
3" = 1'-0"
140
3.0
141
12.0
290
     0
  0
SCALE
  5
166C
102
{ACAD_REACTORS
330
165C
102
}
330
165C
100
AcDbScale
 70
     0
300
6" = 1'-0"
140
6.0
141
12.0
290
     0
  0
SCALE
  5
166D
102
{ACAD_REACTORS
330
165C
102
}
330
165C
100
AcDbScale
 70
     0
300
1'-0" = 1'-0"
140
12.0
141
12.0
290
     0
  0
ACDBSECTIONVIEWSTYLE
  5
1671
102
{ACAD_XDICTIONARY
360
16EE
102
}
102
{ACAD_REACTORS
330
1670
102
}
330
1670
100
AcDbModelDocViewStyle
 70
     0
  3
Imperial24
290
     0
100
AcDbSectionViewStyle
 70
     0
 71
     0
 90
       78
 71
     1
340
F
 40
0.24
340
0
340
0
 40
0.24
300
I, O, Q, S, X, Z
 40
0.48
 90
        3
 40
0.18
 90
        1
 71
     2
340
13
 90
       25
340
13
 90
       50
 40
0.24
 40
0.0
 40
0.24
 71
     3
340
F
 40
0.24
 90
        1
 40
0.75
 90
        1
300
%<\AcVar ViewType \f "%tc1">% %<\AcVar ViewSectionStartId>%-%<\AcVar ViewSectionEndId>%\PSCALE %<\AcVar ViewScale \f "%sn">%
 71
     4
300
ANSI31
 40
1.0
 90
        0
290
     0
290
     0
 90
        6
 40
0.0
 40
1.570796326794896
 40
0.2617993877991494
 40
1.308996938995747
 40
-0.2617993877991494
 40
1.832595714594045
  0
TABLESTYLE
  5
165B
102
{ACAD_XDICTIONARY
360
16EC
102
}
102
{ACAD_REACTORS
330
165A
102
}
330
165A
100
AcDbTableStyle
  3
Standard
 70
     0
 71
     0
 40
0.06
 41
0.06
280
     0
281
     0
  7
STANDARD
140
0.18
170
     2
 62
     0
 63
     7
283
     0
274
    -2
284
     1
 64
     0
275
    -2
285
     1
 65
     0
276
    -2
286
     1
 66
     0
277
    -2
287
     1
 67
     0
278
    -2
288
     1
 68
     0
279
    -2
289
     1
 69
     0
  7
STANDARD
140
0.25
170
     5
 62
     0
 63
     7
283
     0
274
    -2
284
     1
 64
     0
275
    -2
285
     1
 65
     0
276
    -2
286
     1
 66
     0
277
    -2
287
     1
 67
     0
278
    -2
288
     1
 68
     0
279
    -2
289
     1
 69
     0
  7
STANDARD
140
0.18
170
     5
 62
     0
 63
     7
283
     0
274
    -2
284
     1
 64
     0
275
    -2
285
     1
 65
     0
276
    -2
286
     1
 66
     0
277
    -2
287
     1
 67
     0
278
    -2
288
     1
 68
     0
279
    -2
289
     1
 69
     0
  0
VISUALSTYLE
  5
1646
102
{ACAD_XDICTIONARY
360
171C
102
}
102
{ACAD_REACTORS
330
1640
102
}
330
1640
100
AcDbVisualStyle
  2
2dWireframe
 70
     4
 71
     0
 72
     2
 73
     0
 90
        0
 40
-0.6
 41
-30.0
 62
     5
 63
     7
 74
     1
 91
        4
 64
     7
 65
   257
 75
     1
175
     1
 42
1.0
 92
        0
 66
   257
 43
1.0
 76
     1
 77
     6
 78
     2
 67
     7
 79
     5
170
     0
171
     0
290
     0
174
     0
 93
        1
 44
0.0
173
     0
291
     0
 45
0.0
1001
ACAD
1000
AcDbSavedByObjectVersion
1070
     0
  0
VISUALSTYLE
  5
1645
102
{ACAD_XDICTIONARY
360
171A
102
}
102
{ACAD_REACTORS
330
1640
102
}
330
1640
100
AcDbVisualStyle
  2
Basic
 70
     7
 71
     1
 72
     0
 73
     1
 90
        0
 40
-0.6
 41
-30.0
 62
     5
 63
     7
 74
     0
 91
        4
 64
     7
 65
   257
 75
     1
175
     1
 42
1.0
 92
        8
 66
     7
 43
1.0
 76
     1
 77
     6
 78
     2
 67
     7
 79
     5
170
     0
171
     0
290
     0
174
     0
 93
        1
 44
0.0
173
     0
291
     1
 45
0.0
1001
ACAD
1000
AcDbSavedByObjectVersion
1070
     0
  0
VISUALSTYLE
  5
164C
102
{ACAD_XDICTIONARY
360
1728
102
}
102
{ACAD_REACTORS
330
1640
102
}
330
1640
100
AcDbVisualStyle
  2
Brighten
 70
    12
 71
     2
 72
     2
 73
     0
 90
        0
 40
-0.6
 41
-30.0
 62
     5
 63
     7
 74
     1
 91
        4
 64
     7
 65
   257
 75
     1
175
     1
 42
1.0
 92
        8
 66
     7
 43
1.0
 76
     1
 77
     6
 78
     2
 67
     7
 79
     5
170
     0
171
     0
290
     0
174
     0
 93
        1
 44
50.0
173
     0
291
     1
 45
0.0
1001
ACAD
1000
AcDbSavedByObjectVersion
1070
     0
  0
VISUALSTYLE
  5
1650
102
{ACAD_XDICTIONARY
360
1730
102
}
102
{ACAD_REACTORS
330
1640
102
}
330
1640
100
AcDbVisualStyle
  2
ColorChange
 70
    16
 71
     2
 72
     2
 73
     3
 90
        0
 40
-0.6
 41
-30.0
 62
     5
 63
     8
 74
     1
 91
        4
 64
     7
 65
   257
 75
     1
175
     1
 42
1.0
 92
        8
 66
     8
 43
1.0
 76
     1
 77
     6
 78
     2
 67
     7
 79
     5
170
     0
171
     0
290
     0
174
     0
 93
        1
 44
0.0
173
     0
291
     1
 45
0.0
1001
ACAD
1000
AcDbSavedByObjectVersion
1070
     0
  0
VISUALSTYLE
  5
1649
102
{ACAD_XDICTIONARY
360
1722
102
}
102
{ACAD_REACTORS
330
1640
102
}
330
1640
100
AcDbVisualStyle
  2
Conceptual
 70
     9
 71
     3
 72
     2
 73
     0
 90
        0
 40
-0.6
 41
-30.0
 62
     5
 63
     7
 74
     2
 91
        2
 64
     7
 65
   257
 75
     1
175
     1
 42
179.0
 92
        8
 66
     7
 43
1.0
 76
     1
 77
     6
 78
     2
 67
     7
 79
     3
170
     0
171
     0
290
     0
174
     0
 93
        1
 44
0.0
173
     0
291
     0
 45
0.0
1001
ACAD
1000
AcDbSavedByObjectVersion
1070
     0
  0
VISUALSTYLE
  5
164B
102
{ACAD_XDICTIONARY
360
1726
102
}
102
{ACAD_REACTORS
330
1640
102
}
330
1640
100
AcDbVisualStyle
  2
Dim
 70
    11
 71
     2
 72
     2
 73
     0
 90
        0
 40
-0.6
 41
-30.0
 62
     5
 63
     7
 74
     1
 91
        4
 64
     7
 65
   257
 75
     1
175
     1
 42
1.0
 92
        8
 66
     7
 43
1.0
 76
     1
 77
     6
 78
     2
 67
     7
 79
     5
170
     0
171
     0
290
     0
174
     0
 93
        1
 44
-50.0
173
     0
291
     1
 45
0.0
1001
ACAD
1000
AcDbSavedByObjectVersion
1070
     0
  0
VISUALSTYLE
  5
1658
102
{ACAD_XDICTIONARY
360
1740
102
}
102
{ACAD_REACTORS
330
1640
102
}
330
1640
100
AcDbVisualStyle
  2
EdgeColorOff
 70
    22
 71
     2
 72
     2
 73
     0
 90
        0
 40
-0.6
 41
-30.0
 62
     5
 63
     7
 74
     1
 91
        4
 64
     7
 65
   257
 75
     1
175
     1
 42
1.0
 92
        8
 66
     7
 43
1.0
 76
     1
 77
     6
 78
     2
 67
     7
 79
     5
170
     0
171
     0
290
     0
174
     0
 93
        1
 44
0.0
173
     0
291
     1
 45
0.0
1001
ACAD
1000
AcDbSavedByObjectVersion
1070
     0
  0
VISUALSTYLE
  5
164F
102
{ACAD_XDICTIONARY
360
172E
102
}
102
{ACAD_REACTORS
330
1640
102
}
330
1640
100
AcDbVisualStyle
  2
Facepattern
 70
    15
 71
     2
 72
     2
 73
     0
 90
        0
 40
-0.6
 41
-30.0
 62
     5
 63
     7
 74
     1
 91
        4
 64
     7
 65
   257
 75
     1
175
     1
 42
1.0
 92
        8
 66
     7
 43
1.0
 76
     1
 77
     6
 78
     2
 67
     7
 79
     5
170
     0
171
     0
290
     0
174
     0
 93
        1
 44
0.0
173
     0
291
     1
 45
0.0
1001
ACAD
1000
AcDbSavedByObjectVersion
1070
     0
  0
VISUALSTYLE
  5
1641
102
{ACAD_XDICTIONARY
360
1712
102
}
102
{ACAD_REACTORS
330
1640
102
}
330
1640
100
AcDbVisualStyle
  2
Flat
 70
     0
 71
     2
 72
     1
 73
     1
 90
        2
 40
-0.6
 41
30.0
 62
     5
 63
     7
 74
     0
 91
        0
 64
     7
 65
   257
 75
     1
175
     1
 42
1.0
 92
        8
 66
     7
 43
1.0
 76
     1
 77
     6
 78
     2
 67
     7
 79
     5
170
     0
171
     0
290
     0
174
     0
 93
       13
 44
0.0
173
     0
291
     1
 45
0.0
1001
ACAD
1000
AcDbSavedByObjectVersion
1070
     0
  0
VISUALSTYLE
  5
1642
102
{ACAD_XDICTIONARY
360
1714
102
}
102
{ACAD_REACTORS
330
1640
102
}
330
1640
100
AcDbVisualStyle
  2
FlatWithEdges
 70
     1
 71
     2
 72
     1
 73
     1
 90
        2
 40
-0.6
 41
30.0
 62
     5
 63
     7
 74
     1
 91
        0
 64
     7
 65
   257
 75
     1
175
     1
 42
1.0
 92
        0
 66
   257
 43
1.0
 76
     1
 77
     6
 78
     2
 67
     7
 79
     5
170
     0
171
     0
290
     0
174
     0
 93
       13
 44
0.0
173
     0
291
     1
 45
0.0
1001
ACAD
1000
AcDbSavedByObjectVersion
1070
     0
  0
VISUALSTYLE
  5
1643
102
{ACAD_XDICTIONARY
360
1716
102
}
102
{ACAD_REACTORS
330
1640
102
}
330
1640
100
AcDbVisualStyle
  2
Gouraud
 70
     2
 71
     2
 72
     2
 73
     1
 90
        2
 40
-0.6
 41
30.0
 62
     5
 63
     7
 74
     0
 91
        0
 64
     7
 65
   257
 75
     1
175
     1
 42
1.0
 92
        0
 66
     7
 43
1.0
 76
     1
 77
     6
 78
     2
 67
     7
 79
     5
170
     0
171
     0
290
     0
174
     0
 93
       13
 44
0.0
173
     0
291
     1
 45
0.0
1001
ACAD
1000
AcDbSavedByObjectVersion
1070
     0
  0
VISUALSTYLE
  5
1644
102
{ACAD_XDICTIONARY
360
1718
102
}
102
{ACAD_REACTORS
330
1640
102
}
330
1640
100
AcDbVisualStyle
  2
GouraudWithEdges
 70
     3
 71
     2
 72
     2
 73
     1
 90
        2
 40
-0.6
 41
30.0
 62
     5
 63
     7
 74
     1
 91
        0
 64
     7
 65
   257
 75
     1
175
     1
 42
1.0
 92
        0
 66
   257
 43
1.0
 76
     1
 77
     6
 78
     2
 67
     7
 79
     5
170
     0
171
     0
290
     0
174
     0
 93
       13
 44
0.0
173
     0
291
     1
 45
0.0
1001
ACAD
1000
AcDbSavedByObjectVersion
1070
     0
  0
VISUALSTYLE
  5
1648
102
{ACAD_XDICTIONARY
360
1720
102
}
102
{ACAD_REACTORS
330
1640
102
}
330
1640
100
AcDbVisualStyle
  2
Hidden
 70
     6
 71
     1
 72
     2
 73
     2
 90
        0
 40
-0.6
 41
-30.0
 62
     5
 63
     7
 74
     2
 91
        2
 64
     7
 65
   257
 75
     2
175
     1
 42
40.0
 92
        0
 66
   257
 43
1.0
 76
     1
 77
     6
 78
     2
 67
     7
 79
     3
170
     0
171
     0
290
     0
174
     0
 93
        1
 44
0.0
173
     0
291
     0
 45
0.0
1001
ACAD
1000
AcDbSavedByObjectVersion
1070
     0
  0
VISUALSTYLE
  5
1656
102
{ACAD_XDICTIONARY
360
173C
102
}
102
{ACAD_REACTORS
330
1640
102
}
330
1640
100
AcDbVisualStyle
  2
JitterOff
 70
    20
 71
     2
 72
     2
 73
     0
 90
        0
 40
-0.6
 41
-30.0
 62
     5
 63
     7
 74
     1
 91
        4
 64
     7
 65
   257
 75
     1
175
     1
 42
1.0
 92
       10
 66
     7
 43
1.0
 76
     1
 77
     6
 78
     2
 67
     7
 79
     5
170
     0
171
     0
290
     0
174
     0
 93
        1
 44
0.0
173
     0
291
     1
 45
0.0
1001
ACAD
1000
AcDbSavedByObjectVersion
1070
     0
  0
VISUALSTYLE
  5
164E
102
{ACAD_XDICTIONARY
360
172C
102
}
102
{ACAD_REACTORS
330
1640
102
}
330
1640
100
AcDbVisualStyle
  2
Linepattern
 70
    14
 71
     2
 72
     2
 73
     0
 90
        0
 40
-0.6
 41
-30.0
 62
     5
 63
     7
 74
     1
 91
        4
 64
     7
 65
   257
 75
     7
175
     7
 42
1.0
 92
        8
 66
     7
 43
1.0
 76
     1
 77
     6
 78
     2
 67
     7
 79
     5
170
     0
171
     0
290
     0
174
     0
 93
        1
 44
0.0
173
     0
291
     1
 45
0.0
1001
ACAD
1000
AcDbSavedByObjectVersion
1070
     0
  0
VISUALSTYLE
  5
1657
102
{ACAD_XDICTIONARY
360
173E
102
}
102
{ACAD_REACTORS
330
1640
102
}
330
1640
100
AcDbVisualStyle
  2
OverhangOff
 70
    21
 71
     2
 72
     2
 73
     0
 90
        0
 40
-0.6
 41
-30.0
 62
     5
 63
     7
 74
     1
 91
        4
 64
     7
 65
   257
 75
     1
175
     1
 42
1.0
 92
        9
 66
     7
 43
1.0
 76
     1
 77
     6
 78
     2
 67
     7
 79
     5
170
     0
171
     0
290
     0
174
     0
 93
        1
 44
0.0
173
     0
291
     1
 45
0.0
1001
ACAD
1000
AcDbSavedByObjectVersion
1070
     0
  0
VISUALSTYLE
  5
164A
102
{ACAD_XDICTIONARY
360
1724
102
}
102
{ACAD_REACTORS
330
1640
102
}
330
1640
100
AcDbVisualStyle
  2
Realistic
 70
     8
 71
     2
 72
     3
 73
     0
 90
        2
 40
-0.6
 41
30.0
 62
     5
 63
     7
 74
     0
 91
        0
 64
     7
 65
   257
 75
     1
175
     1
 42
1.0
 92
        8
 66
   257
 43
1.0
 76
     1
 77
     6
 78
     2
 67
     7
 79
     3
170
     0
171
     0
290
     0
174
     0
 93
       13
 44
0.0
173
     0
291
     0
 45
0.0
1001
ACAD
1000
AcDbSavedByObjectVersion
1070
     0
  0
VISUALSTYLE
  5
1655
102
{ACAD_XDICTIONARY
360
173A
102
}
102
{ACAD_REACTORS
330
1640
102
}
330
1640
100
AcDbVisualStyle
  2
Shaded
 70
    27
 71
     2
 72
     2
 73
     1
 90
        2
 40
-0.6
 41
30.0
 62
     5
 63
     7
 74
     0
 91
        4
 64
     7
 65
   257
 75
     1
175
     1
 42
1.0
 92
        8
 66
   257
 43
1.0
 76
     1
 77
     6
 78
     2
 67
     8
 79
     3
170
     0
171
     0
290
     0
174
     0
 93
        5
 44
0.0
173
     0
291
     0
 45
0.0
1001
ACAD
1000
AcDbSavedByObjectVersion
1070
     0
  0
VISUALSTYLE
  5
1654
102
{ACAD_XDICTIONARY
360
1738
102
}
102
{ACAD_REACTORS
330
1640
102
}
330
1640
100
AcDbVisualStyle
  2
Shaded with edges
 70
    26
 71
     2
 72
     2
 73
     1
 90
        2
 40
-0.6
 41
30.0
 62
     5
 63
     7
 74
     1
 91
       10
 64
     7
 65
   257
 75
     2
175
     1
 42
1.0
 92
        8
 66
   257
 43
1.0
 76
     1
 77
     6
 78
     2
 67
     7
 79
     3
170
     0
171
     0
290
     0
174
     0
 93
        5
 44
0.0
173
     0
291
     0
 45
0.0
1001
ACAD
1000
AcDbSavedByObjectVersion
1070
     0
  0
VISUALSTYLE
  5
1651
102
{ACAD_XDICTIONARY
360
1732
102
}
102
{ACAD_REACTORS
330
1640
102
}
330
1640
100
AcDbVisualStyle
  2
Shades of Gray
 70
    23
 71
     2
 72
     2
 73
     3
 90
        0
 40
-0.6
 41
-30.0
 62
     5
 63
     7
 74
     2
 91
        2
 64
     7
 65
     7
 75
     1
175
     1
 42
40.0
 92
        8
 66
     7
 43
1.0
 76
     1
 77
     6
 78
     2
 67
     7
 79
     3
170
     0
171
     0
290
     0
174
     0
 93
        1
 44
0.0
173
     0
291
     0
 45
0.0
1001
ACAD
1000
AcDbSavedByObjectVersion
1070
     0
  0
VISUALSTYLE
  5
1652
102
{ACAD_XDICTIONARY
360
1734
102
}
102
{ACAD_REACTORS
330
1640
102
}
330
1640
100
AcDbVisualStyle
  2
Sketchy
 70
    24
 71
     1
 72
     2
 73
     2
 90
        0
 40
-0.6
 41
-30.0
 62
     5
 63
     7
 74
     2
 91
        2
 64
     7
 65
     7
 75
     1
175
     1
 42
40.0
 92
       11
 66
     7
 43
1.0
 76
     1
 77
     6
 78
     2
 67
     7
 79
     6
170
     0
171
     0
290
     0
174
     0
 93
        1
 44
0.0
173
     0
291
     0
 45
0.0
1001
ACAD
1000
AcDbSavedByObjectVersion
1070
     0
  0
VISUALSTYLE
  5
164D
102
{ACAD_XDICTIONARY
360
172A
102
}
102
{ACAD_REACTORS
330
1640
102
}
330
1640
100
AcDbVisualStyle
  2
Thicken
 70
    13
 71
     2
 72
     2
 73
     0
 90
        0
 40
-0.6
 41
-30.0
 62
     5
 63
     7
 74
     1
 91
        4
 64
     7
 65
   257
 75
     1
175
     1
 42
1.0
 92
       12
 66
     7
 43
1.0
 76
     1
 77
     6
 78
     2
 67
     7
 79
     5
170
     0
171
     0
290
     0
174
     0
 93
        1
 44
0.0
173
     0
291
     1
 45
0.0
1001
ACAD
1000
AcDbSavedByObjectVersion
1070
     0
  0
VISUALSTYLE
  5
1647
102
{ACAD_XDICTIONARY
360
171E
102
}
102
{ACAD_REACTORS
330
1640
102
}
330
1640
100
AcDbVisualStyle
  2
Wireframe
 70
     5
 71
     0
 72
     2
 73
     0
 90
        0
 40
-0.6
 41
-30.0
 62
     5
 63
     7
 74
     1
 91
        4
 64
     7
 65
   257
 75
     1
175
     1
 42
1.0
 92
        0
 66
   257
 43
1.0
 76
     1
 77
     6
 78
     2
 67
     7
 79
     3
170
     0
171
     0
290
     0
174
     0
 93
        1
 44
0.0
173
     0
291
     0
 45
0.0
1001
ACAD
1000
AcDbSavedByObjectVersion
1070
     0
  0
VISUALSTYLE
  5
1653
102
{ACAD_XDICTIONARY
360
1736
102
}
102
{ACAD_REACTORS
330
1640
102
}
330
1640
100
AcDbVisualStyle
  2
X-Ray
 70
    25
 71
     2
 72
     2
 73
     1
 90
        1
 40
0.5
 41
-30.0
 62
     5
 63
     7
 74
     1
 91
        0
 64
     7
 65
   257
 75
     1
175
     1
 42
1.0
 92
        8
 66
     7
 43
1.0
 76
     1
 77
     6
 78
     2
 67
     7
 79
     3
170
     0
171
     0
290
     0
174
     0
 93
       13
 44
0.0
173
     0
291
     0
 45
0.0
1001
ACAD
1000
AcDbSavedByObjectVersion
1070
     0
  0
DICTIONARYVAR
  5
16E8
102
{ACAD_REACTORS
330
2E
102
}
330
2E
100
DictionaryVariables
280
     0
  1
1:1
  0
DICTIONARYVAR
  5
16E4
102
{ACAD_REACTORS
330
2E
102
}
330
2E
100
DictionaryVariables
280
     0
  1
STANDARD
  0
DICTIONARYVAR
  5
16E3
102
{ACAD_REACTORS
330
2E
102
}
330
2E
100
DictionaryVariables
280
     0
  1
STANDARD
  0
DICTIONARYVAR
  5
16E5
102
{ACAD_REACTORS
330
2E
102
}
330
2E
100
DictionaryVariables
280
     0
  1
Imperial24
  0
DICTIONARYVAR
  5
16E6
102
{ACAD_REACTORS
330
2E
102
}
330
2E
100
DictionaryVariables
280
     0
  1
Imperial24
  0
DICTIONARYVAR
  5
2F
102
{ACAD_REACTORS
330
2E
102
}
330
2E
100
DictionaryVariables
280
     0
  1
2
  0
DICTIONARYVAR
  5
FDD
102
{ACAD_REACTORS
330
2E
102
}
330
2E
100
DictionaryVariables
280
     0
  1
1
  0
DICTIONARYVAR
  5
16FB
102
{ACAD_REACTORS
330
2E
102
}
330
2E
100
DictionaryVariables
280
     0
  1
0
  0
DICTIONARYVAR
  5
16EA
102
{ACAD_REACTORS
330
2E
102
}
330
2E
100
DictionaryVariables
280
     0
  1
1
  0
DICTIONARYVAR
  5
16EB
102
{ACAD_REACTORS
330
2E
102
}
330
2E
100
DictionaryVariables
280
     0
  1
15
  0
DICTIONARYVAR
  5
16E9
102
{ACAD_REACTORS
330
2E
102
}
330
2E
100
DictionaryVariables
280
     0
  1
0
  0
DICTIONARYVAR
  5
16FC
102
{ACAD_REACTORS
330
2E
102
}
330
2E
100
DictionaryVariables
280
     0
  1
1.570796
  0
DICTIONARYVAR
  5
16FD
102
{ACAD_REACTORS
330
2E
102
}
330
2E
100
DictionaryVariables
280
     0
  1
1.570796
  0
DICTIONARYVAR
  5
16FE
102
{ACAD_REACTORS
330
2E
102
}
330
2E
100
DictionaryVariables
280
     0
  1
-122.394000
  0
DICTIONARYVAR
  5
16E7
102
{ACAD_REACTORS
330
2E
102
}
330
2E
100
DictionaryVariables
280
     0
  1
0
  0
DICTIONARYVAR
  5
16FA
102
{ACAD_REACTORS
330
2E
102
}
330
2E
100
DictionaryVariables
280
     0
  1
127
  0
DICTIONARYVAR
  5
16FF
102
{ACAD_REACTORS
330
2E
102
}
330
2E
100
DictionaryVariables
280
     0
  1
2
  0
DICTIONARY
  5
170A
102
{ACAD_REACTORS
330
1708
102
}
330
1708
100
AcDbDictionary
281
     1
  0
DICTIONARY
  5
1709
102
{ACAD_REACTORS
330
1708
102
}
330
1708
100
AcDbDictionary
281
     1
  3
8796088527152
350
1703
  3
8796088527168
350
1704
  3
8796088527184
350
1705
  3
8796088527200
350
1706
  3
8796088527216
350
1707
  0
DICTIONARY
  5
16F0
330
1673
100
AcDbDictionary
280
     1
281
     1
  3
ACAD_XREC_ROUNDTRIP
360
1747
  0
DICTIONARY
  5
170D
330
F8B
100
AcDbDictionary
280
     1
281
     1
  3
ACAD_XREC_ROUNDTRIP
360
170E
  0
DICTIONARY
  5
170B
330
F8A
100
AcDbDictionary
280
     1
281
     1
  3
ACAD_XREC_ROUNDTRIP
360
170C
  0
DICTIONARY
  5
1631
330
1630
100
AcDbDictionary
280
     1
281
     1
  3
ACAD_XREC_ROUNDTRIP
360
1710
  3
BUMPTILE
360
1633
  3
DIFFUSETILE
360
1632
  3
OPACITYTILE
360
1636
  3
REFLECTIONTILE
360
1635
  3
REFRACTIONTILE
360
1637
  3
SPECULARTILE
360
1634
  0
DICTIONARY
  5
1629
330
1628
100
AcDbDictionary
280
     1
281
     1
  3
ACAD_XREC_ROUNDTRIP
360
170F
  3
BUMPTILE
360
162B
  3
DIFFUSETILE
360
162A
  3
OPACITYTILE
360
162E
  3
REFLECTIONTILE
360
162D
  3
REFRACTIONTILE
360
162F
  3
SPECULARTILE
360
162C
  0
DICTIONARY
  5
1639
330
1638
100
AcDbDictionary
280
     1
281
     1
  3
ACAD_XREC_ROUNDTRIP
360
1711
  3
BUMPTILE
360
163B
  3
DIFFUSETILE
360
163A
  3
OPACITYTILE
360
163E
  3
REFLECTIONTILE
360
163D
  3
REFRACTIONTILE
360
163F
  3
SPECULARTILE
360
163C
  0
DICTIONARY
  5
1744
330
166F
100
AcDbDictionary
280
     1
281
     1
  3
ACAD_XREC_ROUNDTRIP
360
1745
  0
DICTIONARY
  5
16EE
330
1671
100
AcDbDictionary
280
     1
281
     1
  3
ACAD_XREC_ROUNDTRIP
360
1746
  0
DICTIONARY
  5
16EC
330
165B
100
AcDbDictionary
280
     1
281
     1
  3
ACAD_ROUNDTRIP_2008_TABLESTYLE_CELLSTYLEMAP
360
1700
  3
ACAD_XREC_ROUNDTRIP
360
1742
  0
DICTIONARY
  5
171C
330
1646
100
AcDbDictionary
280
     1
281
     1
  3
ACAD_XREC_ROUNDTRIP
360
171D
  0
DICTIONARY
  5
171A
330
1645
100
AcDbDictionary
280
     1
281
     1
  3
ACAD_XREC_ROUNDTRIP
360
171B
  0
DICTIONARY
  5
1728
330
164C
100
AcDbDictionary
280
     1
281
     1
  3
ACAD_XREC_ROUNDTRIP
360
1729
  0
DICTIONARY
  5
1730
330
1650
100
AcDbDictionary
280
     1
281
     1
  3
ACAD_XREC_ROUNDTRIP
360
1731
  0
DICTIONARY
  5
1722
330
1649
100
AcDbDictionary
280
     1
281
     1
  3
ACAD_XREC_ROUNDTRIP
360
1723
  0
DICTIONARY
  5
1726
330
164B
100
AcDbDictionary
280
     1
281
     1
  3
ACAD_XREC_ROUNDTRIP
360
1727
  0
DICTIONARY
  5
1740
330
1658
100
AcDbDictionary
280
     1
281
     1
  3
ACAD_XREC_ROUNDTRIP
360
1741
  0
DICTIONARY
  5
172E
330
164F
100
AcDbDictionary
280
     1
281
     1
  3
ACAD_XREC_ROUNDTRIP
360
172F
  0
DICTIONARY
  5
1712
330
1641
100
AcDbDictionary
280
     1
281
     1
  3
ACAD_XREC_ROUNDTRIP
360
1713
  0
DICTIONARY
  5
1714
330
1642
100
AcDbDictionary
280
     1
281
     1
  3
ACAD_XREC_ROUNDTRIP
360
1715
  0
DICTIONARY
  5
1716
330
1643
100
AcDbDictionary
280
     1
281
     1
  3
ACAD_XREC_ROUNDTRIP
360
1717
  0
DICTIONARY
  5
1718
330
1644
100
AcDbDictionary
280
     1
281
     1
  3
ACAD_XREC_ROUNDTRIP
360
1719
  0
DICTIONARY
  5
1720
330
1648
100
AcDbDictionary
280
     1
281
     1
  3
ACAD_XREC_ROUNDTRIP
360
1721
  0
DICTIONARY
  5
173C
330
1656
100
AcDbDictionary
280
     1
281
     1
  3
ACAD_XREC_ROUNDTRIP
360
173D
  0
DICTIONARY
  5
172C
330
164E
100
AcDbDictionary
280
     1
281
     1
  3
ACAD_XREC_ROUNDTRIP
360
172D
  0
DICTIONARY
  5
173E
330
1657
100
AcDbDictionary
280
     1
281
     1
  3
ACAD_XREC_ROUNDTRIP
360
173F
  0
DICTIONARY
  5
1724
330
164A
100
AcDbDictionary
280
     1
281
     1
  3
ACAD_XREC_ROUNDTRIP
360
1725
  0
DICTIONARY
  5
173A
330
1655
100
AcDbDictionary
280
     1
281
     1
  3
ACAD_XREC_ROUNDTRIP
360
173B
  0
DICTIONARY
  5
1738
330
1654
100
AcDbDictionary
280
     1
281
     1
  3
ACAD_XREC_ROUNDTRIP
360
1739
  0
DICTIONARY
  5
1732
330
1651
100
AcDbDictionary
280
     1
281
     1
  3
ACAD_XREC_ROUNDTRIP
360
1733
  0
DICTIONARY
  5
1734
330
1652
100
AcDbDictionary
280
     1
281
     1
  3
ACAD_XREC_ROUNDTRIP
360
1735
  0
DICTIONARY
  5
172A
330
164D
100
AcDbDictionary
280
     1
281
     1
  3
ACAD_XREC_ROUNDTRIP
360
172B
  0
DICTIONARY
  5
171E
330
1647
100
AcDbDictionary
280
     1
281
     1
  3
ACAD_XREC_ROUNDTRIP
360
171F
  0
DICTIONARY
  5
1736
330
1653
100
AcDbDictionary
280
     1
281
     1
  3
ACAD_XREC_ROUNDTRIP
360
1737
  0
XRECORD
  5
1703
102
{ACAD_REACTORS
330
1709
102
}
330
1709
100
AcDbXrecord
280
     1
  1
AcDb_Thumbnail_Schema
102
{ATTRRECORD
341
1704
  2
AcDbDs::TreatedAsObjectData
280
     1
291
     1
102
ATTRRECORD}
102
{ATTRRECORD
341
1705
  2
AcDbDs::Legacy
280
     1
291
     1
102
ATTRRECORD}
  2
AcDbDs::ID
280
    10
 91
        8
102
{ATTRRECORD
341
1706
  2
AcDs:Indexable
280
     1
291
     1
102
ATTRRECORD}
102
{ATTRRECORD
341
1707
  2
AcDbDs::HandleAttribute
280
     7
282
     1
102
ATTRRECORD}
  2
Thumbnail_Data
280
    15
 91
        0
  0
XRECORD
  5
1704
102
{ACAD_REACTORS
330
1709
102
}
330
1709
100
AcDbXrecord
280
     1
  1
AcDbDs::TreatedAsObjectDataSchema
  2
AcDbDs::TreatedAsObjectData
280
     1
 91
        0
  0
XRECORD
  5
1705
102
{ACAD_REACTORS
330
1709
102
}
330
1709
100
AcDbXrecord
280
     1
  1
AcDbDs::LegacySchema
  2
AcDbDs::Legacy
280
     1
 91
        0
  0
XRECORD
  5
1706
102
{ACAD_REACTORS
330
1709
102
}
330
1709
100
AcDbXrecord
280
     1
  1
AcDbDs::IndexedPropertySchema
  2
AcDs:Indexable
280
     1
 91
        0
  0
XRECORD
  5
1707
102
{ACAD_REACTORS
330
1709
102
}
330
1709
100
AcDbXrecord
280
     1
  1
AcDbDs::HandleAttributeSchema
  2
AcDbDs::HandleAttribute
280
     7
 91
        1
284
     1
  0
XRECORD
  5
1747
102
{ACAD_REACTORS
330
16F0
102
}
330
16F0
100
AcDbXrecord
280
     1
102
DISPLAYNAME
  1
Imperial24
102
FLAGS
 90
        0
  0
XRECORD
  5
170E
102
{ACAD_REACTORS
330
170D
102
}
330
170D
100
AcDbXrecord
280
     1
102
SHADEPLOT
 70
     0
102
SHADEPLOTRESLEVEL
 70
     2
102
SHADEPLOTCUSTOMDPI
 70
   300
  0
XRECORD
  5
170C
102
{ACAD_REACTORS
330
170B
102
}
330
170B
100
AcDbXrecord
280
     1
102
SHADEPLOT
 70
     0
102
SHADEPLOTRESLEVEL
 70
     2
102
SHADEPLOTCUSTOMDPI
 70
   300
  0
XRECORD
  5
1710
102
{ACAD_REACTORS
330
1631
102
}
330
1631
100
AcDbXrecord
280
     1
102
MATERIAL
148
0.0
149
0.0
149
0.0
 93
        0
 94
      127
282
     0
 72
     0
 77
     0
171
     0
175
     0
179
     0
273
     0
  0
XRECORD
  5
1633
102
{ACAD_REACTORS
330
1631
102
}
330
1631
100
AcDbXrecord
280
     1
270
     1
271
     1
  0
XRECORD
  5
1632
102
{ACAD_REACTORS
330
1631
102
}
330
1631
100
AcDbXrecord
280
     1
270
     1
271
     1
  0
XRECORD
  5
1636
102
{ACAD_REACTORS
330
1631
102
}
330
1631
100
AcDbXrecord
280
     1
270
     1
271
     1
  0
XRECORD
  5
1635
102
{ACAD_REACTORS
330
1631
102
}
330
1631
100
AcDbXrecord
280
     1
270
     1
271
     1
  0
XRECORD
  5
1637
102
{ACAD_REACTORS
330
1631
102
}
330
1631
100
AcDbXrecord
280
     1
270
     1
271
     1
  0
XRECORD
  5
1634
102
{ACAD_REACTORS
330
1631
102
}
330
1631
100
AcDbXrecord
280
     1
270
     1
271
     1
  0
XRECORD
  5
170F
102
{ACAD_REACTORS
330
1629
102
}
330
1629
100
AcDbXrecord
280
     1
102
MATERIAL
148
0.0
149
0.0
149
0.0
 93
        0
 94
      127
282
     0
 72
     0
 77
     0
171
     0
175
     0
179
     0
273
     0
  0
XRECORD
  5
162B
102
{ACAD_REACTORS
330
1629
102
}
330
1629
100
AcDbXrecord
280
     1
270
     1
271
     1
  0
XRECORD
  5
162A
102
{ACAD_REACTORS
330
1629
102
}
330
1629
100
AcDbXrecord
280
     1
270
     1
271
     1
  0
XRECORD
  5
162E
102
{ACAD_REACTORS
330
1629
102
}
330
1629
100
AcDbXrecord
280
     1
270
     1
271
     1
  0
XRECORD
  5
162D
102
{ACAD_REACTORS
330
1629
102
}
330
1629
100
AcDbXrecord
280
     1
270
     1
271
     1
  0
XRECORD
  5
162F
102
{ACAD_REACTORS
330
1629
102
}
330
1629
100
AcDbXrecord
280
     1
270
     1
271
     1
  0
XRECORD
  5
162C
102
{ACAD_REACTORS
330
1629
102
}
330
1629
100
AcDbXrecord
280
     1
270
     1
271
     1
  0
XRECORD
  5
1711
102
{ACAD_REACTORS
330
1639
102
}
330
1639
100
AcDbXrecord
280
     1
102
MATERIAL
148
0.0
149
0.0
149
0.0
 93
        0
 94
      127
282
     0
 72
     0
 77
     0
171
     0
175
     0
179
     0
273
     0
  0
XRECORD
  5
163B
102
{ACAD_REACTORS
330
1639
102
}
330
1639
100
AcDbXrecord
280
     1
270
     1
271
     1
  0
XRECORD
  5
163A
102
{ACAD_REACTORS
330
1639
102
}
330
1639
100
AcDbXrecord
280
     1
270
     1
271
     1
  0
XRECORD
  5
163E
102
{ACAD_REACTORS
330
1639
102
}
330
1639
100
AcDbXrecord
280
     1
270
     1
271
     1
  0
XRECORD
  5
163D
102
{ACAD_REACTORS
330
1639
102
}
330
1639
100
AcDbXrecord
280
     1
270
     1
271
     1
  0
XRECORD
  5
163F
102
{ACAD_REACTORS
330
1639
102
}
330
1639
100
AcDbXrecord
280
     1
270
     1
271
     1
  0
XRECORD
  5
163C
102
{ACAD_REACTORS
330
1639
102
}
330
1639
100
AcDbXrecord
280
     1
270
     1
271
     1
  0
XRECORD
  5
1745
102
{ACAD_REACTORS
330
1744
102
}
330
1744
100
AcDbXrecord
280
     1
102
ACAD_ROUNDTRIP_2012_MLEADER_STYLE
298
     1
  0
XRECORD
  5
1746
102
{ACAD_REACTORS
330
16EE
102
}
330
16EE
100
AcDbXrecord
280
     1
102
DISPLAYNAME
  1
Imperial24
102
FLAGS
 90
        0
  0
CELLSTYLEMAP
  5
1700
102
{ACAD_REACTORS
330
16EC
102
}
330
16EC
100
AcDbCellStyleMap
 90
        3
300
CELLSTYLE
  1
TABLEFORMAT_BEGIN
 90
        5
170
     1
 91
        0
 92
    32768
 62
   257
 93
        1
300
CONTENTFORMAT
  1
CONTENTFORMAT_BEGIN
 90
        0
 91
        0
 92
      512
 93
        0
300

 40
0.0
140
1.0
 94
        5
 62
     0
340
F
144
0.25
309
CONTENTFORMAT_END
171
     1
301
MARGIN
  1
CELLMARGIN_BEGIN
 40
0.06
 40
0.06
 40
0.06
 40
0.06
 40
0.18
 40
0.18
309
CELLMARGIN_END
 94
        6
 95
        1
302
GRIDFORMAT
  1
GRIDFORMAT_BEGIN
 90
        0
 91
        1
 62
     0
 92
       -2
340
0
 93
        0
 40
0.045
309
GRIDFORMAT_END
 95
        2
302
GRIDFORMAT
  1
GRIDFORMAT_BEGIN
 90
        0
 91
        1
 62
     0
 92
       -2
340
0
 93
        0
 40
0.045
309
GRIDFORMAT_END
 95
        4
302
GRIDFORMAT
  1
GRIDFORMAT_BEGIN
 90
        0
 91
        1
 62
     0
 92
       -2
340
0
 93
        0
 40
0.045
309
GRIDFORMAT_END
 95
        8
302
GRIDFORMAT
  1
GRIDFORMAT_BEGIN
 90
        0
 91
        1
 62
     0
 92
       -2
340
0
 93
        0
 40
0.045
309
GRIDFORMAT_END
 95
       16
302
GRIDFORMAT
  1
GRIDFORMAT_BEGIN
 90
        0
 91
        1
 62
     0
 92
       -2
340
0
 93
        0
 40
0.045
309
GRIDFORMAT_END
 95
       32
302
GRIDFORMAT
  1
GRIDFORMAT_BEGIN
 90
        0
 91
        1
 62
     0
 92
       -2
340
0
 93
        0
 40
0.045
309
GRIDFORMAT_END
309
TABLEFORMAT_END
  1
CELLSTYLE_BEGIN
 90
        1
 91
        1
300
_TITLE
309
CELLSTYLE_END
300
CELLSTYLE
  1
TABLEFORMAT_BEGIN
 90
        5
170
     1
 91
        0
 92
        0
 62
   257
 93
        1
300
CONTENTFORMAT
  1
CONTENTFORMAT_BEGIN
 90
        0
 91
        0
 92
      512
 93
        0
300

 40
0.0
140
1.0
 94
        5
 62
     0
340
F
144
0.18
309
CONTENTFORMAT_END
171
     1
301
MARGIN
  1
CELLMARGIN_BEGIN
 40
0.06
 40
0.06
 40
0.06
 40
0.06
 40
0.18
 40
0.18
309
CELLMARGIN_END
 94
        6
 95
        1
302
GRIDFORMAT
  1
GRIDFORMAT_BEGIN
 90
        0
 91
        1
 62
     0
 92
       -2
340
0
 93
        0
 40
0.045
309
GRIDFORMAT_END
 95
        2
302
GRIDFORMAT
  1
GRIDFORMAT_BEGIN
 90
        0
 91
        1
 62
     0
 92
       -2
340
0
 93
        0
 40
0.045
309
GRIDFORMAT_END
 95
        4
302
GRIDFORMAT
  1
GRIDFORMAT_BEGIN
 90
        0
 91
        1
 62
     0
 92
       -2
340
0
 93
        0
 40
0.045
309
GRIDFORMAT_END
 95
        8
302
GRIDFORMAT
  1
GRIDFORMAT_BEGIN
 90
        0
 91
        1
 62
     0
 92
       -2
340
0
 93
        0
 40
0.045
309
GRIDFORMAT_END
 95
       16
302
GRIDFORMAT
  1
GRIDFORMAT_BEGIN
 90
        0
 91
        1
 62
     0
 92
       -2
340
0
 93
        0
 40
0.045
309
GRIDFORMAT_END
 95
       32
302
GRIDFORMAT
  1
GRIDFORMAT_BEGIN
 90
        0
 91
        1
 62
     0
 92
       -2
340
0
 93
        0
 40
0.045
309
GRIDFORMAT_END
309
TABLEFORMAT_END
  1
CELLSTYLE_BEGIN
 90
        2
 91
        1
300
_HEADER
309
CELLSTYLE_END
300
CELLSTYLE
  1
TABLEFORMAT_BEGIN
 90
        5
170
     1
 91
        0
 92
        0
 62
   257
 93
        1
300
CONTENTFORMAT
  1
CONTENTFORMAT_BEGIN
 90
        0
 91
        0
 92
      512
 93
        0
300

 40
0.0
140
1.0
 94
        2
 62
     0
340
F
144
0.18
309
CONTENTFORMAT_END
171
     1
301
MARGIN
  1
CELLMARGIN_BEGIN
 40
0.06
 40
0.06
 40
0.06
 40
0.06
 40
0.18
 40
0.18
309
CELLMARGIN_END
 94
        6
 95
        1
302
GRIDFORMAT
  1
GRIDFORMAT_BEGIN
 90
        0
 91
        1
 62
     0
 92
       -2
340
0
 93
        0
 40
0.045
309
GRIDFORMAT_END
 95
        2
302
GRIDFORMAT
  1
GRIDFORMAT_BEGIN
 90
        0
 91
        1
 62
     0
 92
       -2
340
0
 93
        0
 40
0.045
309
GRIDFORMAT_END
 95
        4
302
GRIDFORMAT
  1
GRIDFORMAT_BEGIN
 90
        0
 91
        1
 62
     0
 92
       -2
340
0
 93
        0
 40
0.045
309
GRIDFORMAT_END
 95
        8
302
GRIDFORMAT
  1
GRIDFORMAT_BEGIN
 90
        0
 91
        1
 62
     0
 92
       -2
340
0
 93
        0
 40
0.045
309
GRIDFORMAT_END
 95
       16
302
GRIDFORMAT
  1
GRIDFORMAT_BEGIN
 90
        0
 91
        1
 62
     0
 92
       -2
340
0
 93
        0
 40
0.045
309
GRIDFORMAT_END
 95
       32
302
GRIDFORMAT
  1
GRIDFORMAT_BEGIN
 90
        0
 91
        1
 62
     0
 92
       -2
340
0
 93
        0
 40
0.045
309
GRIDFORMAT_END
309
TABLEFORMAT_END
  1
CELLSTYLE_BEGIN
 90
        3
 91
        2
300
_DATA
309
CELLSTYLE_END
  0
XRECORD
  5
1742
102
{ACAD_REACTORS
330
16EC
102
}
330
16EC
100
AcDbXrecord
280
     1
102
ACAD_ROUNDTRIP_PRE2007_TABLESTYLE
 90
      512
 91
        0
  1

 92
      512
 93
        0
  2

 94
      512
 95
        0
  3

  0
XRECORD
  5
171D
102
{ACAD_REACTORS
330
171C
102
}
330
171C
100
AcDbXrecord
280
     1
102
RTVSPost2010Prop28
280
     1
102
RTVSPost2010PropOp28
 70
     1
102
RTVSPost2010Prop29
280
     1
102
RTVSPost2010PropOp29
 70
     1
102
RTVSPost2010Prop30
280
     0
102
RTVSPost2010PropOp30
 70
     1
102
RTVSPost2010Prop31
280
     0
102
RTVSPost2010PropOp31
 70
     1
102
RTVSPost2010Prop32
280
     0
102
RTVSPost2010PropOp32
 70
     1
102
RTVSPost2010Prop33
280
     0
102
RTVSPost2010PropOp33
 70
     1
102
RTVSPost2010Prop34
280
     0
102
RTVSPost2010PropOp34
 70
     1
102
RTVSPost2010Prop35
280
     0
102
RTVSPost2010PropOp35
 70
     1
102
RTVSPost2010Prop36
280
     0
102
RTVSPost2010PropOp36
 70
     1
102
RTVSPost2010Prop37
 90
       50
102
RTVSPost2010PropOp37
 70
     1
102
RTVSPost2010Prop38
140
0.0
102
RTVSPost2010PropOp38
 70
     1
102
RTVSPost2010Prop39
140
1.0
102
RTVSPost2010PropOp39
 70
     1
102
RTVSPost2010Prop40
 90
        0
102
RTVSPost2010PropOp40
 70
     1
102
RTVSPost2010Prop41ColorIndex
 90
       18
102
RTVSPost2010Prop41ColorRGB
 90
-16777216
102
RTVSPost2010PropOp41
 70
     1
102
RTVSPost2010Prop42
 90
       50
102
RTVSPost2010PropOp42
 70
     1
102
RTVSPost2010Prop43
 90
        3
102
RTVSPost2010PropOp43
 70
     1
102
RTVSPost2010Prop44ColorIndex
 90
        5
102
RTVSPost2010Prop44ColorRGB
 90
      255
102
RTVSPost2010PropOp44
 70
     1
102
RTVSPost2010Prop45
280
     0
102
RTVSPost2010PropOp45
 70
     1
102
RTVSPost2010Prop46
 90
       50
102
RTVSPost2010PropOp46
 70
     1
102
RTVSPost2010Prop47
 90
       50
102
RTVSPost2010PropOp47
 70
     1
102
RTVSPost2010Prop48
 90
       50
102
RTVSPost2010PropOp48
 70
     1
102
RTVSPost2010Prop49
280
     0
102
RTVSPost2010PropOp49
 70
     1
102
RTVSPost2010Prop50
 90
       50
102
RTVSPost2010PropOp50
 70
     1
102
RTVSPost2010Prop51ColorIndex
 90
      256
102
RTVSPost2010Prop51ColorRGB
 90
-16777216
102
RTVSPost2010PropOp51
 70
     0
102
RTVSPost2010Prop52
140
1.0
102
RTVSPost2010PropOp52
 70
     0
102
RTVSPost2010Prop53
 90
        2
102
RTVSPost2010PropOp53
 70
     1
102
RTVSPost2010Prop54
  1
strokes_ogs.tif
102
RTVSPost2010PropOp54
 70
     1
102
RTVSPost2010Prop55
280
     0
102
RTVSPost2010PropOp55
 70
     1
102
RTVSPost2010Prop56
140
1.0
102
RTVSPost2010PropOp56
 70
     1
102
RTVSPost2010Prop57
140
1.0
102
RTVSPost2010PropOp57
 70
     1
102
RTVSPropertyOp0
 70
     1
102
RTVSPropertyOp1
 70
     1
102
RTVSPropertyOp2
 70
     1
102
RTVSPropertyOp3
 70
     1
102
RTVSPropertyOp4
 70
     1
102
RTVSPropertyOp5
 70
     1
102
RTVSPropertyOp6
 70
     1
102
RTVSPropertyOp7
 70
     1
102
RTVSPropertyOp8
 70
     1
102
RTVSPropertyOp9
 70
     1
102
RTVSPropertyOp10
 70
     1
102
RTVSPropertyOp11
 70
     1
102
RTVSPropertyOp12
 70
     1
102
RTVSPropertyOp13
 70
     1
102
RTVSPropertyOp14
 70
     1
102
RTVSPropertyOp15
 70
     1
102
RTVSPropertyOp16
 70
     1
102
RTVSPropertyOp17
 70
     1
102
RTVSPropertyOp18
 70
     1
102
RTVSPropertyOp19
 70
     1
102
RTVSPropertyOp20
 70
     1
102
RTVSPropertyOp21
 70
     1
102
RTVSPropertyOp22
 70
     1
102
RTVSPropertyOp23
 70
     1
102
RTVSPropertyOp24
 70
     1
102
RTVSPropertyOp25
 70
     1
102
RTVSPropertyOp26
 70
     1
102
RTVSPropertyOp27
 70
     1
102
RTVSPropertyOp28
 70
     1
102
RTVSPropertyOp29
 70
     1
102
RTVSPropertyOp30
 70
     1
102
RTVSPropertyOp31
 70
     1
102
RTVSPropertyOp32
 70
     1
102
RTVSPropertyOp33
 70
     1
102
RTVSPropertyOp34
 70
     1
102
RTVSPropertyOp35
 70
     1
102
RTVSPropertyOp36
 70
     1
102
RTVSPropertyOp37
 70
     1
102
RTVSPropertyOp38
 70
     1
102
RTVSPropertyOp39
 70
     1
102
RTVSPropertyOp40
 70
     1
102
RTVSPropertyOp41
 70
     1
102
RTVSPropertyOp42
 70
     1
102
RTVSPropertyOp43
 70
     1
102
RTVSPropertyOp44
 70
     1
102
RTVSPropertyOp45
 70
     1
102
RTVSPropertyOp46
 70
     1
102
RTVSPropertyOp47
 70
     1
102
RTVSPropertyOp48
 70
     1
102
RTVSPropertyOp49
 70
     1
102
RTVSPropertyOp50
 70
     1
102
RTVSPropertyOp51
 70
     0
102
RTVSPropertyOp52
 70
     0
102
RTVSPropertyOp53
 70
     1
102
RTVSPropertyOp54
 70
     1
102
RTVSPropertyOp55
 70
     1
102
RTVSPropertyOp56
 70
     1
102
RTVSPropertyOp57
 70
     1
102
RTVSPropertyOp58
 70
     1
102
RTVSPropertyOp59
 70
     1
102
RTVSPropertyOp60
 70
     1
102
RTVSPropertyOp61
 70
     1
102
RTVSPropertyOp62
 70
     1
  0
XRECORD
  5
171B
102
{ACAD_REACTORS
330
171A
102
}
330
171A
100
AcDbXrecord
280
     1
102
RTVSPost2010Prop28
280
     0
102
RTVSPost2010PropOp28
 70
     1
102
RTVSPost2010Prop29
280
     1
102
RTVSPost2010PropOp29
 70
     1
102
RTVSPost2010Prop30
280
     1
102
RTVSPost2010PropOp30
 70
     1
102
RTVSPost2010Prop31
280
     0
102
RTVSPost2010PropOp31
 70
     1
102
RTVSPost2010Prop32
280
     0
102
RTVSPost2010PropOp32
 70
     1
102
RTVSPost2010Prop33
280
     0
102
RTVSPost2010PropOp33
 70
     1
102
RTVSPost2010Prop34
280
     0
102
RTVSPost2010PropOp34
 70
     1
102
RTVSPost2010Prop35
280
     0
102
RTVSPost2010PropOp35
 70
     1
102
RTVSPost2010Prop36
280
     0
102
RTVSPost2010PropOp36
 70
     1
102
RTVSPost2010Prop37
 90
       50
102
RTVSPost2010PropOp37
 70
     1
102
RTVSPost2010Prop38
140
0.0
102
RTVSPost2010PropOp38
 70
     1
102
RTVSPost2010Prop39
140
1.0
102
RTVSPost2010PropOp39
 70
     1
102
RTVSPost2010Prop40
 90
        0
102
RTVSPost2010PropOp40
 70
     1
102
RTVSPost2010Prop41ColorIndex
 90
       18
102
RTVSPost2010Prop41ColorRGB
 90
-16777216
102
RTVSPost2010PropOp41
 70
     1
102
RTVSPost2010Prop42
 90
       50
102
RTVSPost2010PropOp42
 70
     1
102
RTVSPost2010Prop43
 90
        3
102
RTVSPost2010PropOp43
 70
     1
102
RTVSPost2010Prop44ColorIndex
 90
        5
102
RTVSPost2010Prop44ColorRGB
 90
      255
102
RTVSPost2010PropOp44
 70
     1
102
RTVSPost2010Prop45
280
     0
102
RTVSPost2010PropOp45
 70
     1
102
RTVSPost2010Prop46
 90
       50
102
RTVSPost2010PropOp46
 70
     1
102
RTVSPost2010Prop47
 90
       50
102
RTVSPost2010PropOp47
 70
     1
102
RTVSPost2010Prop48
 90
       50
102
RTVSPost2010PropOp48
 70
     1
102
RTVSPost2010Prop49
280
     0
102
RTVSPost2010PropOp49
 70
     1
102
RTVSPost2010Prop50
 90
       50
102
RTVSPost2010PropOp50
 70
     1
102
RTVSPost2010Prop51ColorIndex
 90
      256
102
RTVSPost2010Prop51ColorRGB
 90
-16777216
102
RTVSPost2010PropOp51
 70
     0
102
RTVSPost2010Prop52
140
1.0
102
RTVSPost2010PropOp52
 70
     0
102
RTVSPost2010Prop53
 90
        2
102
RTVSPost2010PropOp53
 70
     1
102
RTVSPost2010Prop54
  1
strokes_ogs.tif
102
RTVSPost2010PropOp54
 70
     1
102
RTVSPost2010Prop55
280
     0
102
RTVSPost2010PropOp55
 70
     1
102
RTVSPost2010Prop56
140
1.0
102
RTVSPost2010PropOp56
 70
     1
102
RTVSPost2010Prop57
140
1.0
102
RTVSPost2010PropOp57
 70
     1
102
RTVSPropertyOp0
 70
     1
102
RTVSPropertyOp1
 70
     1
102
RTVSPropertyOp2
 70
     1
102
RTVSPropertyOp3
 70
     1
102
RTVSPropertyOp4
 70
     1
102
RTVSPropertyOp5
 70
     1
102
RTVSPropertyOp6
 70
     1
102
RTVSPropertyOp7
 70
     1
102
RTVSPropertyOp8
 70
     1
102
RTVSPropertyOp9
 70
     1
102
RTVSPropertyOp10
 70
     1
102
RTVSPropertyOp11
 70
     1
102
RTVSPropertyOp12
 70
     1
102
RTVSPropertyOp13
 70
     1
102
RTVSPropertyOp14
 70
     1
102
RTVSPropertyOp15
 70
     1
102
RTVSPropertyOp16
 70
     1
102
RTVSPropertyOp17
 70
     1
102
RTVSPropertyOp18
 70
     1
102
RTVSPropertyOp19
 70
     1
102
RTVSPropertyOp20
 70
     1
102
RTVSPropertyOp21
 70
     1
102
RTVSPropertyOp22
 70
     1
102
RTVSPropertyOp23
 70
     1
102
RTVSPropertyOp24
 70
     1
102
RTVSPropertyOp25
 70
     1
102
RTVSPropertyOp26
 70
     1
102
RTVSPropertyOp27
 70
     1
102
RTVSPropertyOp28
 70
     1
102
RTVSPropertyOp29
 70
     1
102
RTVSPropertyOp30
 70
     1
102
RTVSPropertyOp31
 70
     1
102
RTVSPropertyOp32
 70
     1
102
RTVSPropertyOp33
 70
     1
102
RTVSPropertyOp34
 70
     1
102
RTVSPropertyOp35
 70
     1
102
RTVSPropertyOp36
 70
     1
102
RTVSPropertyOp37
 70
     1
102
RTVSPropertyOp38
 70
     1
102
RTVSPropertyOp39
 70
     1
102
RTVSPropertyOp40
 70
     1
102
RTVSPropertyOp41
 70
     1
102
RTVSPropertyOp42
 70
     1
102
RTVSPropertyOp43
 70
     1
102
RTVSPropertyOp44
 70
     1
102
RTVSPropertyOp45
 70
     1
102
RTVSPropertyOp46
 70
     1
102
RTVSPropertyOp47
 70
     1
102
RTVSPropertyOp48
 70
     1
102
RTVSPropertyOp49
 70
     1
102
RTVSPropertyOp50
 70
     1
102
RTVSPropertyOp51
 70
     0
102
RTVSPropertyOp52
 70
     0
102
RTVSPropertyOp53
 70
     1
102
RTVSPropertyOp54
 70
     1
102
RTVSPropertyOp55
 70
     1
102
RTVSPropertyOp56
 70
     1
102
RTVSPropertyOp57
 70
     1
102
RTVSPropertyOp58
 70
     1
102
RTVSPropertyOp59
 70
     1
102
RTVSPropertyOp60
 70
     1
102
RTVSPropertyOp61
 70
     1
102
RTVSPropertyOp62
 70
     1
  0
XRECORD
  5
1729
102
{ACAD_REACTORS
330
1728
102
}
330
1728
100
AcDbXrecord
280
     1
102
RTVSPost2010Prop28
280
     0
102
RTVSPost2010PropOp28
 70
     1
102
RTVSPost2010Prop29
280
     1
102
RTVSPost2010PropOp29
 70
     1
102
RTVSPost2010Prop30
280
     1
102
RTVSPost2010PropOp30
 70
     1
102
RTVSPost2010Prop31
280
     0
102
RTVSPost2010PropOp31
 70
     1
102
RTVSPost2010Prop32
280
     0
102
RTVSPost2010PropOp32
 70
     1
102
RTVSPost2010Prop33
280
     0
102
RTVSPost2010PropOp33
 70
     1
102
RTVSPost2010Prop34
280
     0
102
RTVSPost2010PropOp34
 70
     1
102
RTVSPost2010Prop35
280
     0
102
RTVSPost2010PropOp35
 70
     1
102
RTVSPost2010Prop36
280
     0
102
RTVSPost2010PropOp36
 70
     1
102
RTVSPost2010Prop37
 90
       50
102
RTVSPost2010PropOp37
 70
     1
102
RTVSPost2010Prop38
140
0.0
102
RTVSPost2010PropOp38
 70
     1
102
RTVSPost2010Prop39
140
1.0
102
RTVSPost2010PropOp39
 70
     1
102
RTVSPost2010Prop40
 90
        0
102
RTVSPost2010PropOp40
 70
     1
102
RTVSPost2010Prop41ColorIndex
 90
       18
102
RTVSPost2010Prop41ColorRGB
 90
-16777216
102
RTVSPost2010PropOp41
 70
     1
102
RTVSPost2010Prop42
 90
       50
102
RTVSPost2010PropOp42
 70
     1
102
RTVSPost2010Prop43
 90
        3
102
RTVSPost2010PropOp43
 70
     1
102
RTVSPost2010Prop44ColorIndex
 90
        5
102
RTVSPost2010Prop44ColorRGB
 90
      255
102
RTVSPost2010PropOp44
 70
     1
102
RTVSPost2010Prop45
280
     0
102
RTVSPost2010PropOp45
 70
     1
102
RTVSPost2010Prop46
 90
       50
102
RTVSPost2010PropOp46
 70
     1
102
RTVSPost2010Prop47
 90
       50
102
RTVSPost2010PropOp47
 70
     1
102
RTVSPost2010Prop48
 90
       50
102
RTVSPost2010PropOp48
 70
     1
102
RTVSPost2010Prop49
280
     0
102
RTVSPost2010PropOp49
 70
     1
102
RTVSPost2010Prop50
 90
       50
102
RTVSPost2010PropOp50
 70
     1
102
RTVSPost2010Prop51ColorIndex
 90
      256
102
RTVSPost2010Prop51ColorRGB
 90
-16777216
102
RTVSPost2010PropOp51
 70
     0
102
RTVSPost2010Prop52
140
1.0
102
RTVSPost2010PropOp52
 70
     0
102
RTVSPost2010Prop53
 90
        2
102
RTVSPost2010PropOp53
 70
     1
102
RTVSPost2010Prop54
  1
strokes_ogs.tif
102
RTVSPost2010PropOp54
 70
     1
102
RTVSPost2010Prop55
280
     0
102
RTVSPost2010PropOp55
 70
     1
102
RTVSPost2010Prop56
140
1.0
102
RTVSPost2010PropOp56
 70
     1
102
RTVSPost2010Prop57
140
1.0
102
RTVSPost2010PropOp57
 70
     1
102
RTVSPropertyOp0
 70
     1
102
RTVSPropertyOp1
 70
     1
102
RTVSPropertyOp2
 70
     1
102
RTVSPropertyOp3
 70
     1
102
RTVSPropertyOp4
 70
     1
102
RTVSPropertyOp5
 70
     1
102
RTVSPropertyOp6
 70
     1
102
RTVSPropertyOp7
 70
     1
102
RTVSPropertyOp8
 70
     1
102
RTVSPropertyOp9
 70
     1
102
RTVSPropertyOp10
 70
     1
102
RTVSPropertyOp11
 70
     1
102
RTVSPropertyOp12
 70
     1
102
RTVSPropertyOp13
 70
     1
102
RTVSPropertyOp14
 70
     1
102
RTVSPropertyOp15
 70
     1
102
RTVSPropertyOp16
 70
     1
102
RTVSPropertyOp17
 70
     1
102
RTVSPropertyOp18
 70
     1
102
RTVSPropertyOp19
 70
     1
102
RTVSPropertyOp20
 70
     1
102
RTVSPropertyOp21
 70
     1
102
RTVSPropertyOp22
 70
     1
102
RTVSPropertyOp23
 70
     1
102
RTVSPropertyOp24
 70
     1
102
RTVSPropertyOp25
 70
     1
102
RTVSPropertyOp26
 70
     1
102
RTVSPropertyOp27
 70
     1
102
RTVSPropertyOp28
 70
     1
102
RTVSPropertyOp29
 70
     1
102
RTVSPropertyOp30
 70
     1
102
RTVSPropertyOp31
 70
     1
102
RTVSPropertyOp32
 70
     1
102
RTVSPropertyOp33
 70
     1
102
RTVSPropertyOp34
 70
     1
102
RTVSPropertyOp35
 70
     1
102
RTVSPropertyOp36
 70
     1
102
RTVSPropertyOp37
 70
     1
102
RTVSPropertyOp38
 70
     1
102
RTVSPropertyOp39
 70
     1
102
RTVSPropertyOp40
 70
     1
102
RTVSPropertyOp41
 70
     1
102
RTVSPropertyOp42
 70
     1
102
RTVSPropertyOp43
 70
     1
102
RTVSPropertyOp44
 70
     1
102
RTVSPropertyOp45
 70
     1
102
RTVSPropertyOp46
 70
     1
102
RTVSPropertyOp47
 70
     1
102
RTVSPropertyOp48
 70
     1
102
RTVSPropertyOp49
 70
     1
102
RTVSPropertyOp50
 70
     1
102
RTVSPropertyOp51
 70
     0
102
RTVSPropertyOp52
 70
     0
102
RTVSPropertyOp53
 70
     1
102
RTVSPropertyOp54
 70
     1
102
RTVSPropertyOp55
 70
     1
102
RTVSPropertyOp56
 70
     1
102
RTVSPropertyOp57
 70
     1
102
RTVSPropertyOp58
 70
     1
102
RTVSPropertyOp59
 70
     1
102
RTVSPropertyOp60
 70
     1
102
RTVSPropertyOp61
 70
     1
102
RTVSPropertyOp62
 70
     1
  0
XRECORD
  5
1731
102
{ACAD_REACTORS
330
1730
102
}
330
1730
100
AcDbXrecord
280
     1
102
RTVSPost2010Prop28
280
     0
102
RTVSPost2010PropOp28
 70
     1
102
RTVSPost2010Prop29
280
     1
102
RTVSPost2010PropOp29
 70
     1
102
RTVSPost2010Prop30
280
     1
102
RTVSPost2010PropOp30
 70
     1
102
RTVSPost2010Prop31
280
     0
102
RTVSPost2010PropOp31
 70
     1
102
RTVSPost2010Prop32
280
     0
102
RTVSPost2010PropOp32
 70
     1
102
RTVSPost2010Prop33
280
     0
102
RTVSPost2010PropOp33
 70
     1
102
RTVSPost2010Prop34
280
     0
102
RTVSPost2010PropOp34
 70
     1
102
RTVSPost2010Prop35
280
     0
102
RTVSPost2010PropOp35
 70
     1
102
RTVSPost2010Prop36
280
     0
102
RTVSPost2010PropOp36
 70
     1
102
RTVSPost2010Prop37
 90
       50
102
RTVSPost2010PropOp37
 70
     1
102
RTVSPost2010Prop38
140
0.0
102
RTVSPost2010PropOp38
 70
     1
102
RTVSPost2010Prop39
140
1.0
102
RTVSPost2010PropOp39
 70
     1
102
RTVSPost2010Prop40
 90
        0
102
RTVSPost2010PropOp40
 70
     1
102
RTVSPost2010Prop41ColorIndex
 90
       18
102
RTVSPost2010Prop41ColorRGB
 90
-16777216
102
RTVSPost2010PropOp41
 70
     1
102
RTVSPost2010Prop42
 90
       50
102
RTVSPost2010PropOp42
 70
     1
102
RTVSPost2010Prop43
 90
        3
102
RTVSPost2010PropOp43
 70
     1
102
RTVSPost2010Prop44ColorIndex
 90
        5
102
RTVSPost2010Prop44ColorRGB
 90
      255
102
RTVSPost2010PropOp44
 70
     1
102
RTVSPost2010Prop45
280
     0
102
RTVSPost2010PropOp45
 70
     1
102
RTVSPost2010Prop46
 90
       50
102
RTVSPost2010PropOp46
 70
     1
102
RTVSPost2010Prop47
 90
       50
102
RTVSPost2010PropOp47
 70
     1
102
RTVSPost2010Prop48
 90
       50
102
RTVSPost2010PropOp48
 70
     1
102
RTVSPost2010Prop49
280
     0
102
RTVSPost2010PropOp49
 70
     1
102
RTVSPost2010Prop50
 90
       50
102
RTVSPost2010PropOp50
 70
     1
102
RTVSPost2010Prop51ColorIndex
 90
      256
102
RTVSPost2010Prop51ColorRGB
 90
-16777216
102
RTVSPost2010PropOp51
 70
     0
102
RTVSPost2010Prop52
140
1.0
102
RTVSPost2010PropOp52
 70
     0
102
RTVSPost2010Prop53
 90
        2
102
RTVSPost2010PropOp53
 70
     1
102
RTVSPost2010Prop54
  1
strokes_ogs.tif
102
RTVSPost2010PropOp54
 70
     1
102
RTVSPost2010Prop55
280
     0
102
RTVSPost2010PropOp55
 70
     1
102
RTVSPost2010Prop56
140
1.0
102
RTVSPost2010PropOp56
 70
     1
102
RTVSPost2010Prop57
140
1.0
102
RTVSPost2010PropOp57
 70
     1
102
RTVSPropertyOp0
 70
     1
102
RTVSPropertyOp1
 70
     1
102
RTVSPropertyOp2
 70
     1
102
RTVSPropertyOp3
 70
     1
102
RTVSPropertyOp4
 70
     1
102
RTVSPropertyOp5
 70
     1
102
RTVSPropertyOp6
 70
     1
102
RTVSPropertyOp7
 70
     1
102
RTVSPropertyOp8
 70
     1
102
RTVSPropertyOp9
 70
     1
102
RTVSPropertyOp10
 70
     1
102
RTVSPropertyOp11
 70
     1
102
RTVSPropertyOp12
 70
     1
102
RTVSPropertyOp13
 70
     1
102
RTVSPropertyOp14
 70
     1
102
RTVSPropertyOp15
 70
     1
102
RTVSPropertyOp16
 70
     1
102
RTVSPropertyOp17
 70
     1
102
RTVSPropertyOp18
 70
     1
102
RTVSPropertyOp19
 70
     1
102
RTVSPropertyOp20
 70
     1
102
RTVSPropertyOp21
 70
     1
102
RTVSPropertyOp22
 70
     1
102
RTVSPropertyOp23
 70
     1
102
RTVSPropertyOp24
 70
     1
102
RTVSPropertyOp25
 70
     1
102
RTVSPropertyOp26
 70
     1
102
RTVSPropertyOp27
 70
     1
102
RTVSPropertyOp28
 70
     1
102
RTVSPropertyOp29
 70
     1
102
RTVSPropertyOp30
 70
     1
102
RTVSPropertyOp31
 70
     1
102
RTVSPropertyOp32
 70
     1
102
RTVSPropertyOp33
 70
     1
102
RTVSPropertyOp34
 70
     1
102
RTVSPropertyOp35
 70
     1
102
RTVSPropertyOp36
 70
     1
102
RTVSPropertyOp37
 70
     1
102
RTVSPropertyOp38
 70
     1
102
RTVSPropertyOp39
 70
     1
102
RTVSPropertyOp40
 70
     1
102
RTVSPropertyOp41
 70
     1
102
RTVSPropertyOp42
 70
     1
102
RTVSPropertyOp43
 70
     1
102
RTVSPropertyOp44
 70
     1
102
RTVSPropertyOp45
 70
     1
102
RTVSPropertyOp46
 70
     1
102
RTVSPropertyOp47
 70
     1
102
RTVSPropertyOp48
 70
     1
102
RTVSPropertyOp49
 70
     1
102
RTVSPropertyOp50
 70
     1
102
RTVSPropertyOp51
 70
     0
102
RTVSPropertyOp52
 70
     0
102
RTVSPropertyOp53
 70
     1
102
RTVSPropertyOp54
 70
     1
102
RTVSPropertyOp55
 70
     1
102
RTVSPropertyOp56
 70
     1
102
RTVSPropertyOp57
 70
     1
102
RTVSPropertyOp58
 70
     1
102
RTVSPropertyOp59
 70
     1
102
RTVSPropertyOp60
 70
     1
102
RTVSPropertyOp61
 70
     1
102
RTVSPropertyOp62
 70
     1
  0
XRECORD
  5
1723
102
{ACAD_REACTORS
330
1722
102
}
330
1722
100
AcDbXrecord
280
     1
102
RTVSPost2010Prop28
280
     0
102
RTVSPost2010PropOp28
 70
     1
102
RTVSPost2010Prop29
280
     1
102
RTVSPost2010PropOp29
 70
     1
102
RTVSPost2010Prop30
280
     1
102
RTVSPost2010PropOp30
 70
     1
102
RTVSPost2010Prop31
280
     0
102
RTVSPost2010PropOp31
 70
     1
102
RTVSPost2010Prop32
280
     0
102
RTVSPost2010PropOp32
 70
     1
102
RTVSPost2010Prop33
280
     0
102
RTVSPost2010PropOp33
 70
     1
102
RTVSPost2010Prop34
280
     0
102
RTVSPost2010PropOp34
 70
     1
102
RTVSPost2010Prop35
280
     0
102
RTVSPost2010PropOp35
 70
     1
102
RTVSPost2010Prop36
280
     0
102
RTVSPost2010PropOp36
 70
     1
102
RTVSPost2010Prop37
 90
       50
102
RTVSPost2010PropOp37
 70
     1
102
RTVSPost2010Prop38
140
0.0
102
RTVSPost2010PropOp38
 70
     1
102
RTVSPost2010Prop39
140
1.0
102
RTVSPost2010PropOp39
 70
     1
102
RTVSPost2010Prop40
 90
        0
102
RTVSPost2010PropOp40
 70
     1
102
RTVSPost2010Prop41ColorIndex
 90
       18
102
RTVSPost2010Prop41ColorRGB
 90
-16777216
102
RTVSPost2010PropOp41
 70
     1
102
RTVSPost2010Prop42
 90
       50
102
RTVSPost2010PropOp42
 70
     1
102
RTVSPost2010Prop43
 90
        3
102
RTVSPost2010PropOp43
 70
     1
102
RTVSPost2010Prop44ColorIndex
 90
        5
102
RTVSPost2010Prop44ColorRGB
 90
      255
102
RTVSPost2010PropOp44
 70
     1
102
RTVSPost2010Prop45
280
     0
102
RTVSPost2010PropOp45
 70
     1
102
RTVSPost2010Prop46
 90
       50
102
RTVSPost2010PropOp46
 70
     1
102
RTVSPost2010Prop47
 90
       50
102
RTVSPost2010PropOp47
 70
     1
102
RTVSPost2010Prop48
 90
       50
102
RTVSPost2010PropOp48
 70
     1
102
RTVSPost2010Prop49
280
     0
102
RTVSPost2010PropOp49
 70
     1
102
RTVSPost2010Prop50
 90
       50
102
RTVSPost2010PropOp50
 70
     1
102
RTVSPost2010Prop51ColorIndex
 90
      256
102
RTVSPost2010Prop51ColorRGB
 90
-16777216
102
RTVSPost2010PropOp51
 70
     0
102
RTVSPost2010Prop52
140
1.0
102
RTVSPost2010PropOp52
 70
     0
102
RTVSPost2010Prop53
 90
        2
102
RTVSPost2010PropOp53
 70
     1
102
RTVSPost2010Prop54
  1
strokes_ogs.tif
102
RTVSPost2010PropOp54
 70
     1
102
RTVSPost2010Prop55
280
     0
102
RTVSPost2010PropOp55
 70
     1
102
RTVSPost2010Prop56
140
1.0
102
RTVSPost2010PropOp56
 70
     1
102
RTVSPost2010Prop57
140
1.0
102
RTVSPost2010PropOp57
 70
     1
102
RTVSPropertyOp0
 70
     1
102
RTVSPropertyOp1
 70
     1
102
RTVSPropertyOp2
 70
     1
102
RTVSPropertyOp3
 70
     1
102
RTVSPropertyOp4
 70
     1
102
RTVSPropertyOp5
 70
     1
102
RTVSPropertyOp6
 70
     1
102
RTVSPropertyOp7
 70
     1
102
RTVSPropertyOp8
 70
     1
102
RTVSPropertyOp9
 70
     1
102
RTVSPropertyOp10
 70
     1
102
RTVSPropertyOp11
 70
     1
102
RTVSPropertyOp12
 70
     1
102
RTVSPropertyOp13
 70
     1
102
RTVSPropertyOp14
 70
     1
102
RTVSPropertyOp15
 70
     1
102
RTVSPropertyOp16
 70
     1
102
RTVSPropertyOp17
 70
     1
102
RTVSPropertyOp18
 70
     1
102
RTVSPropertyOp19
 70
     1
102
RTVSPropertyOp20
 70
     1
102
RTVSPropertyOp21
 70
     1
102
RTVSPropertyOp22
 70
     1
102
RTVSPropertyOp23
 70
     1
102
RTVSPropertyOp24
 70
     1
102
RTVSPropertyOp25
 70
     1
102
RTVSPropertyOp26
 70
     1
102
RTVSPropertyOp27
 70
     1
102
RTVSPropertyOp28
 70
     1
102
RTVSPropertyOp29
 70
     1
102
RTVSPropertyOp30
 70
     1
102
RTVSPropertyOp31
 70
     1
102
RTVSPropertyOp32
 70
     1
102
RTVSPropertyOp33
 70
     1
102
RTVSPropertyOp34
 70
     1
102
RTVSPropertyOp35
 70
     1
102
RTVSPropertyOp36
 70
     1
102
RTVSPropertyOp37
 70
     1
102
RTVSPropertyOp38
 70
     1
102
RTVSPropertyOp39
 70
     1
102
RTVSPropertyOp40
 70
     1
102
RTVSPropertyOp41
 70
     1
102
RTVSPropertyOp42
 70
     1
102
RTVSPropertyOp43
 70
     1
102
RTVSPropertyOp44
 70
     1
102
RTVSPropertyOp45
 70
     1
102
RTVSPropertyOp46
 70
     1
102
RTVSPropertyOp47
 70
     1
102
RTVSPropertyOp48
 70
     1
102
RTVSPropertyOp49
 70
     1
102
RTVSPropertyOp50
 70
     1
102
RTVSPropertyOp51
 70
     0
102
RTVSPropertyOp52
 70
     0
102
RTVSPropertyOp53
 70
     1
102
RTVSPropertyOp54
 70
     1
102
RTVSPropertyOp55
 70
     1
102
RTVSPropertyOp56
 70
     1
102
RTVSPropertyOp57
 70
     1
102
RTVSPropertyOp58
 70
     1
102
RTVSPropertyOp59
 70
     1
102
RTVSPropertyOp60
 70
     1
102
RTVSPropertyOp61
 70
     1
102
RTVSPropertyOp62
 70
     1
  0
XRECORD
  5
1727
102
{ACAD_REACTORS
330
1726
102
}
330
1726
100
AcDbXrecord
280
     1
102
RTVSPost2010Prop28
280
     0
102
RTVSPost2010PropOp28
 70
     1
102
RTVSPost2010Prop29
280
     1
102
RTVSPost2010PropOp29
 70
     1
102
RTVSPost2010Prop30
280
     1
102
RTVSPost2010PropOp30
 70
     1
102
RTVSPost2010Prop31
280
     0
102
RTVSPost2010PropOp31
 70
     1
102
RTVSPost2010Prop32
280
     0
102
RTVSPost2010PropOp32
 70
     1
102
RTVSPost2010Prop33
280
     0
102
RTVSPost2010PropOp33
 70
     1
102
RTVSPost2010Prop34
280
     0
102
RTVSPost2010PropOp34
 70
     1
102
RTVSPost2010Prop35
280
     0
102
RTVSPost2010PropOp35
 70
     1
102
RTVSPost2010Prop36
280
     0
102
RTVSPost2010PropOp36
 70
     1
102
RTVSPost2010Prop37
 90
       50
102
RTVSPost2010PropOp37
 70
     1
102
RTVSPost2010Prop38
140
0.0
102
RTVSPost2010PropOp38
 70
     1
102
RTVSPost2010Prop39
140
1.0
102
RTVSPost2010PropOp39
 70
     1
102
RTVSPost2010Prop40
 90
        0
102
RTVSPost2010PropOp40
 70
     1
102
RTVSPost2010Prop41ColorIndex
 90
       18
102
RTVSPost2010Prop41ColorRGB
 90
-16777216
102
RTVSPost2010PropOp41
 70
     1
102
RTVSPost2010Prop42
 90
       50
102
RTVSPost2010PropOp42
 70
     1
102
RTVSPost2010Prop43
 90
        3
102
RTVSPost2010PropOp43
 70
     1
102
RTVSPost2010Prop44ColorIndex
 90
        5
102
RTVSPost2010Prop44ColorRGB
 90
      255
102
RTVSPost2010PropOp44
 70
     1
102
RTVSPost2010Prop45
280
     0
102
RTVSPost2010PropOp45
 70
     1
102
RTVSPost2010Prop46
 90
       50
102
RTVSPost2010PropOp46
 70
     1
102
RTVSPost2010Prop47
 90
       50
102
RTVSPost2010PropOp47
 70
     1
102
RTVSPost2010Prop48
 90
       50
102
RTVSPost2010PropOp48
 70
     1
102
RTVSPost2010Prop49
280
     0
102
RTVSPost2010PropOp49
 70
     1
102
RTVSPost2010Prop50
 90
       50
102
RTVSPost2010PropOp50
 70
     1
102
RTVSPost2010Prop51ColorIndex
 90
      256
102
RTVSPost2010Prop51ColorRGB
 90
-16777216
102
RTVSPost2010PropOp51
 70
     0
102
RTVSPost2010Prop52
140
1.0
102
RTVSPost2010PropOp52
 70
     0
102
RTVSPost2010Prop53
 90
        2
102
RTVSPost2010PropOp53
 70
     1
102
RTVSPost2010Prop54
  1
strokes_ogs.tif
102
RTVSPost2010PropOp54
 70
     1
102
RTVSPost2010Prop55
280
     0
102
RTVSPost2010PropOp55
 70
     1
102
RTVSPost2010Prop56
140
1.0
102
RTVSPost2010PropOp56
 70
     1
102
RTVSPost2010Prop57
140
1.0
102
RTVSPost2010PropOp57
 70
     1
102
RTVSPropertyOp0
 70
     1
102
RTVSPropertyOp1
 70
     1
102
RTVSPropertyOp2
 70
     1
102
RTVSPropertyOp3
 70
     1
102
RTVSPropertyOp4
 70
     1
102
RTVSPropertyOp5
 70
     1
102
RTVSPropertyOp6
 70
     1
102
RTVSPropertyOp7
 70
     1
102
RTVSPropertyOp8
 70
     1
102
RTVSPropertyOp9
 70
     1
102
RTVSPropertyOp10
 70
     1
102
RTVSPropertyOp11
 70
     1
102
RTVSPropertyOp12
 70
     1
102
RTVSPropertyOp13
 70
     1
102
RTVSPropertyOp14
 70
     1
102
RTVSPropertyOp15
 70
     1
102
RTVSPropertyOp16
 70
     1
102
RTVSPropertyOp17
 70
     1
102
RTVSPropertyOp18
 70
     1
102
RTVSPropertyOp19
 70
     1
102
RTVSPropertyOp20
 70
     1
102
RTVSPropertyOp21
 70
     1
102
RTVSPropertyOp22
 70
     1
102
RTVSPropertyOp23
 70
     1
102
RTVSPropertyOp24
 70
     1
102
RTVSPropertyOp25
 70
     1
102
RTVSPropertyOp26
 70
     1
102
RTVSPropertyOp27
 70
     1
102
RTVSPropertyOp28
 70
     1
102
RTVSPropertyOp29
 70
     1
102
RTVSPropertyOp30
 70
     1
102
RTVSPropertyOp31
 70
     1
102
RTVSPropertyOp32
 70
     1
102
RTVSPropertyOp33
 70
     1
102
RTVSPropertyOp34
 70
     1
102
RTVSPropertyOp35
 70
     1
102
RTVSPropertyOp36
 70
     1
102
RTVSPropertyOp37
 70
     1
102
RTVSPropertyOp38
 70
     1
102
RTVSPropertyOp39
 70
     1
102
RTVSPropertyOp40
 70
     1
102
RTVSPropertyOp41
 70
     1
102
RTVSPropertyOp42
 70
     1
102
RTVSPropertyOp43
 70
     1
102
RTVSPropertyOp44
 70
     1
102
RTVSPropertyOp45
 70
     1
102
RTVSPropertyOp46
 70
     1
102
RTVSPropertyOp47
 70
     1
102
RTVSPropertyOp48
 70
     1
102
RTVSPropertyOp49
 70
     1
102
RTVSPropertyOp50
 70
     1
102
RTVSPropertyOp51
 70
     0
102
RTVSPropertyOp52
 70
     0
102
RTVSPropertyOp53
 70
     1
102
RTVSPropertyOp54
 70
     1
102
RTVSPropertyOp55
 70
     1
102
RTVSPropertyOp56
 70
     1
102
RTVSPropertyOp57
 70
     1
102
RTVSPropertyOp58
 70
     1
102
RTVSPropertyOp59
 70
     1
102
RTVSPropertyOp60
 70
     1
102
RTVSPropertyOp61
 70
     1
102
RTVSPropertyOp62
 70
     1
  0
XRECORD
  5
1741
102
{ACAD_REACTORS
330
1740
102
}
330
1740
100
AcDbXrecord
280
     1
102
RTVSPost2010Prop28
280
     0
102
RTVSPost2010PropOp28
 70
     0
102
RTVSPost2010Prop29
280
     1
102
RTVSPost2010PropOp29
 70
     0
102
RTVSPost2010Prop30
280
     1
102
RTVSPost2010PropOp30
 70
     0
102
RTVSPost2010Prop31
280
     0
102
RTVSPost2010PropOp31
 70
     0
102
RTVSPost2010Prop32
280
     0
102
RTVSPost2010PropOp32
 70
     0
102
RTVSPost2010Prop33
280
     0
102
RTVSPost2010PropOp33
 70
     0
102
RTVSPost2010Prop34
280
     0
102
RTVSPost2010PropOp34
 70
     0
102
RTVSPost2010Prop35
280
     0
102
RTVSPost2010PropOp35
 70
     0
102
RTVSPost2010Prop36
280
     0
102
RTVSPost2010PropOp36
 70
     0
102
RTVSPost2010Prop37
 90
       50
102
RTVSPost2010PropOp37
 70
     0
102
RTVSPost2010Prop38
140
0.0
102
RTVSPost2010PropOp38
 70
     0
102
RTVSPost2010Prop39
140
1.0
102
RTVSPost2010PropOp39
 70
     0
102
RTVSPost2010Prop40
 90
        0
102
RTVSPost2010PropOp40
 70
     0
102
RTVSPost2010Prop41ColorIndex
 90
       18
102
RTVSPost2010Prop41ColorRGB
 90
-16777216
102
RTVSPost2010PropOp41
 70
     0
102
RTVSPost2010Prop42
 90
       50
102
RTVSPost2010PropOp42
 70
     0
102
RTVSPost2010Prop43
 90
        3
102
RTVSPost2010PropOp43
 70
     0
102
RTVSPost2010Prop44ColorIndex
 90
        5
102
RTVSPost2010Prop44ColorRGB
 90
      255
102
RTVSPost2010PropOp44
 70
     0
102
RTVSPost2010Prop45
280
     0
102
RTVSPost2010PropOp45
 70
     0
102
RTVSPost2010Prop46
 90
       50
102
RTVSPost2010PropOp46
 70
     0
102
RTVSPost2010Prop47
 90
       50
102
RTVSPost2010PropOp47
 70
     0
102
RTVSPost2010Prop48
 90
       50
102
RTVSPost2010PropOp48
 70
     0
102
RTVSPost2010Prop49
280
     0
102
RTVSPost2010PropOp49
 70
     0
102
RTVSPost2010Prop50
 90
       50
102
RTVSPost2010PropOp50
 70
     0
102
RTVSPost2010Prop51ColorIndex
 90
      256
102
RTVSPost2010Prop51ColorRGB
 90
-16777216
102
RTVSPost2010PropOp51
 70
     0
102
RTVSPost2010Prop52
140
1.0
102
RTVSPost2010PropOp52
 70
     0
102
RTVSPost2010Prop53
 90
        2
102
RTVSPost2010PropOp53
 70
     0
102
RTVSPost2010Prop54
  1
strokes_ogs.tif
102
RTVSPost2010PropOp54
 70
     0
102
RTVSPost2010Prop55
280
     0
102
RTVSPost2010PropOp55
 70
     0
102
RTVSPost2010Prop56
140
1.0
102
RTVSPost2010PropOp56
 70
     0
102
RTVSPost2010Prop57
140
1.0
102
RTVSPost2010PropOp57
 70
     0
102
RTVSPropertyOp0
 70
     0
102
RTVSPropertyOp1
 70
     0
102
RTVSPropertyOp2
 70
     0
102
RTVSPropertyOp3
 70
     0
102
RTVSPropertyOp4
 70
     0
102
RTVSPropertyOp5
 70
     0
102
RTVSPropertyOp6
 70
     0
102
RTVSPropertyOp7
 70
     0
102
RTVSPropertyOp8
 70
     0
102
RTVSPropertyOp9
 70
     0
102
RTVSPropertyOp10
 70
     0
102
RTVSPropertyOp11
 70
     0
102
RTVSPropertyOp12
 70
     0
102
RTVSPropertyOp13
 70
     0
102
RTVSPropertyOp14
 70
     2
102
RTVSPropertyOp15
 70
     0
102
RTVSPropertyOp16
 70
     0
102
RTVSPropertyOp17
 70
     0
102
RTVSPropertyOp18
 70
     0
102
RTVSPropertyOp19
 70
     0
102
RTVSPropertyOp20
 70
     0
102
RTVSPropertyOp21
 70
     0
102
RTVSPropertyOp22
 70
     0
102
RTVSPropertyOp23
 70
     0
102
RTVSPropertyOp24
 70
     0
102
RTVSPropertyOp25
 70
     0
102
RTVSPropertyOp26
 70
     0
102
RTVSPropertyOp27
 70
     0
102
RTVSPropertyOp28
 70
     0
102
RTVSPropertyOp29
 70
     0
102
RTVSPropertyOp30
 70
     0
102
RTVSPropertyOp31
 70
     0
102
RTVSPropertyOp32
 70
     0
102
RTVSPropertyOp33
 70
     0
102
RTVSPropertyOp34
 70
     0
102
RTVSPropertyOp35
 70
     0
102
RTVSPropertyOp36
 70
     0
102
RTVSPropertyOp37
 70
     0
102
RTVSPropertyOp38
 70
     0
102
RTVSPropertyOp39
 70
     0
102
RTVSPropertyOp40
 70
     0
102
RTVSPropertyOp41
 70
     0
102
RTVSPropertyOp42
 70
     0
102
RTVSPropertyOp43
 70
     0
102
RTVSPropertyOp44
 70
     0
102
RTVSPropertyOp45
 70
     0
102
RTVSPropertyOp46
 70
     0
102
RTVSPropertyOp47
 70
     0
102
RTVSPropertyOp48
 70
     0
102
RTVSPropertyOp49
 70
     0
102
RTVSPropertyOp50
 70
     0
102
RTVSPropertyOp51
 70
     0
102
RTVSPropertyOp52
 70
     0
102
RTVSPropertyOp53
 70
     0
102
RTVSPropertyOp54
 70
     0
102
RTVSPropertyOp55
 70
     0
102
RTVSPropertyOp56
 70
     0
102
RTVSPropertyOp57
 70
     0
102
RTVSPropertyOp58
 70
     1
102
RTVSPropertyOp59
 70
     1
102
RTVSPropertyOp60
 70
     1
102
RTVSPropertyOp61
 70
     1
102
RTVSPropertyOp62
 70
     1
  0
XRECORD
  5
172F
102
{ACAD_REACTORS
330
172E
102
}
330
172E
100
AcDbXrecord
280
     1
102
RTVSPost2010Prop28
280
     0
102
RTVSPost2010PropOp28
 70
     1
102
RTVSPost2010Prop29
280
     1
102
RTVSPost2010PropOp29
 70
     1
102
RTVSPost2010Prop30
280
     1
102
RTVSPost2010PropOp30
 70
     1
102
RTVSPost2010Prop31
280
     0
102
RTVSPost2010PropOp31
 70
     1
102
RTVSPost2010Prop32
280
     0
102
RTVSPost2010PropOp32
 70
     1
102
RTVSPost2010Prop33
280
     0
102
RTVSPost2010PropOp33
 70
     1
102
RTVSPost2010Prop34
280
     0
102
RTVSPost2010PropOp34
 70
     1
102
RTVSPost2010Prop35
280
     0
102
RTVSPost2010PropOp35
 70
     1
102
RTVSPost2010Prop36
280
     0
102
RTVSPost2010PropOp36
 70
     1
102
RTVSPost2010Prop37
 90
       50
102
RTVSPost2010PropOp37
 70
     1
102
RTVSPost2010Prop38
140
0.0
102
RTVSPost2010PropOp38
 70
     1
102
RTVSPost2010Prop39
140
1.0
102
RTVSPost2010PropOp39
 70
     1
102
RTVSPost2010Prop40
 90
        0
102
RTVSPost2010PropOp40
 70
     1
102
RTVSPost2010Prop41ColorIndex
 90
       18
102
RTVSPost2010Prop41ColorRGB
 90
-16777216
102
RTVSPost2010PropOp41
 70
     1
102
RTVSPost2010Prop42
 90
       50
102
RTVSPost2010PropOp42
 70
     1
102
RTVSPost2010Prop43
 90
        3
102
RTVSPost2010PropOp43
 70
     1
102
RTVSPost2010Prop44ColorIndex
 90
        5
102
RTVSPost2010Prop44ColorRGB
 90
      255
102
RTVSPost2010PropOp44
 70
     1
102
RTVSPost2010Prop45
280
     0
102
RTVSPost2010PropOp45
 70
     1
102
RTVSPost2010Prop46
 90
       50
102
RTVSPost2010PropOp46
 70
     1
102
RTVSPost2010Prop47
 90
       50
102
RTVSPost2010PropOp47
 70
     1
102
RTVSPost2010Prop48
 90
       50
102
RTVSPost2010PropOp48
 70
     1
102
RTVSPost2010Prop49
280
     0
102
RTVSPost2010PropOp49
 70
     1
102
RTVSPost2010Prop50
 90
       50
102
RTVSPost2010PropOp50
 70
     1
102
RTVSPost2010Prop51ColorIndex
 90
      256
102
RTVSPost2010Prop51ColorRGB
 90
-16777216
102
RTVSPost2010PropOp51
 70
     0
102
RTVSPost2010Prop52
140
1.0
102
RTVSPost2010PropOp52
 70
     0
102
RTVSPost2010Prop53
 90
        2
102
RTVSPost2010PropOp53
 70
     1
102
RTVSPost2010Prop54
  1
strokes_ogs.tif
102
RTVSPost2010PropOp54
 70
     1
102
RTVSPost2010Prop55
280
     0
102
RTVSPost2010PropOp55
 70
     1
102
RTVSPost2010Prop56
140
1.0
102
RTVSPost2010PropOp56
 70
     1
102
RTVSPost2010Prop57
140
1.0
102
RTVSPost2010PropOp57
 70
     1
102
RTVSPropertyOp0
 70
     1
102
RTVSPropertyOp1
 70
     1
102
RTVSPropertyOp2
 70
     1
102
RTVSPropertyOp3
 70
     1
102
RTVSPropertyOp4
 70
     1
102
RTVSPropertyOp5
 70
     1
102
RTVSPropertyOp6
 70
     1
102
RTVSPropertyOp7
 70
     1
102
RTVSPropertyOp8
 70
     1
102
RTVSPropertyOp9
 70
     1
102
RTVSPropertyOp10
 70
     1
102
RTVSPropertyOp11
 70
     1
102
RTVSPropertyOp12
 70
     1
102
RTVSPropertyOp13
 70
     1
102
RTVSPropertyOp14
 70
     1
102
RTVSPropertyOp15
 70
     1
102
RTVSPropertyOp16
 70
     1
102
RTVSPropertyOp17
 70
     1
102
RTVSPropertyOp18
 70
     1
102
RTVSPropertyOp19
 70
     1
102
RTVSPropertyOp20
 70
     1
102
RTVSPropertyOp21
 70
     1
102
RTVSPropertyOp22
 70
     1
102
RTVSPropertyOp23
 70
     1
102
RTVSPropertyOp24
 70
     1
102
RTVSPropertyOp25
 70
     1
102
RTVSPropertyOp26
 70
     1
102
RTVSPropertyOp27
 70
     1
102
RTVSPropertyOp28
 70
     1
102
RTVSPropertyOp29
 70
     1
102
RTVSPropertyOp30
 70
     1
102
RTVSPropertyOp31
 70
     1
102
RTVSPropertyOp32
 70
     1
102
RTVSPropertyOp33
 70
     1
102
RTVSPropertyOp34
 70
     1
102
RTVSPropertyOp35
 70
     1
102
RTVSPropertyOp36
 70
     1
102
RTVSPropertyOp37
 70
     1
102
RTVSPropertyOp38
 70
     1
102
RTVSPropertyOp39
 70
     1
102
RTVSPropertyOp40
 70
     1
102
RTVSPropertyOp41
 70
     1
102
RTVSPropertyOp42
 70
     1
102
RTVSPropertyOp43
 70
     1
102
RTVSPropertyOp44
 70
     1
102
RTVSPropertyOp45
 70
     1
102
RTVSPropertyOp46
 70
     1
102
RTVSPropertyOp47
 70
     1
102
RTVSPropertyOp48
 70
     1
102
RTVSPropertyOp49
 70
     1
102
RTVSPropertyOp50
 70
     1
102
RTVSPropertyOp51
 70
     0
102
RTVSPropertyOp52
 70
     0
102
RTVSPropertyOp53
 70
     1
102
RTVSPropertyOp54
 70
     1
102
RTVSPropertyOp55
 70
     1
102
RTVSPropertyOp56
 70
     1
102
RTVSPropertyOp57
 70
     1
102
RTVSPropertyOp58
 70
     1
102
RTVSPropertyOp59
 70
     1
102
RTVSPropertyOp60
 70
     1
102
RTVSPropertyOp61
 70
     1
102
RTVSPropertyOp62
 70
     1
  0
XRECORD
  5
1713
102
{ACAD_REACTORS
330
1712
102
}
330
1712
100
AcDbXrecord
280
     1
102
RTVSPost2010Prop28
280
     0
102
RTVSPost2010PropOp28
 70
     1
102
RTVSPost2010Prop29
280
     1
102
RTVSPost2010PropOp29
 70
     1
102
RTVSPost2010Prop30
280
     1
102
RTVSPost2010PropOp30
 70
     1
102
RTVSPost2010Prop31
280
     0
102
RTVSPost2010PropOp31
 70
     1
102
RTVSPost2010Prop32
280
     0
102
RTVSPost2010PropOp32
 70
     1
102
RTVSPost2010Prop33
280
     0
102
RTVSPost2010PropOp33
 70
     1
102
RTVSPost2010Prop34
280
     0
102
RTVSPost2010PropOp34
 70
     1
102
RTVSPost2010Prop35
280
     0
102
RTVSPost2010PropOp35
 70
     1
102
RTVSPost2010Prop36
280
     0
102
RTVSPost2010PropOp36
 70
     1
102
RTVSPost2010Prop37
 90
       50
102
RTVSPost2010PropOp37
 70
     1
102
RTVSPost2010Prop38
140
0.0
102
RTVSPost2010PropOp38
 70
     1
102
RTVSPost2010Prop39
140
1.0
102
RTVSPost2010PropOp39
 70
     1
102
RTVSPost2010Prop40
 90
        0
102
RTVSPost2010PropOp40
 70
     1
102
RTVSPost2010Prop41ColorIndex
 90
       18
102
RTVSPost2010Prop41ColorRGB
 90
-16777216
102
RTVSPost2010PropOp41
 70
     1
102
RTVSPost2010Prop42
 90
       50
102
RTVSPost2010PropOp42
 70
     1
102
RTVSPost2010Prop43
 90
        3
102
RTVSPost2010PropOp43
 70
     1
102
RTVSPost2010Prop44ColorIndex
 90
        5
102
RTVSPost2010Prop44ColorRGB
 90
      255
102
RTVSPost2010PropOp44
 70
     1
102
RTVSPost2010Prop45
280
     0
102
RTVSPost2010PropOp45
 70
     1
102
RTVSPost2010Prop46
 90
       50
102
RTVSPost2010PropOp46
 70
     1
102
RTVSPost2010Prop47
 90
       50
102
RTVSPost2010PropOp47
 70
     1
102
RTVSPost2010Prop48
 90
       50
102
RTVSPost2010PropOp48
 70
     1
102
RTVSPost2010Prop49
280
     0
102
RTVSPost2010PropOp49
 70
     1
102
RTVSPost2010Prop50
 90
       50
102
RTVSPost2010PropOp50
 70
     1
102
RTVSPost2010Prop51ColorIndex
 90
      256
102
RTVSPost2010Prop51ColorRGB
 90
-16777216
102
RTVSPost2010PropOp51
 70
     0
102
RTVSPost2010Prop52
140
1.0
102
RTVSPost2010PropOp52
 70
     0
102
RTVSPost2010Prop53
 90
        2
102
RTVSPost2010PropOp53
 70
     1
102
RTVSPost2010Prop54
  1
strokes_ogs.tif
102
RTVSPost2010PropOp54
 70
     1
102
RTVSPost2010Prop55
280
     0
102
RTVSPost2010PropOp55
 70
     1
102
RTVSPost2010Prop56
140
1.0
102
RTVSPost2010PropOp56
 70
     1
102
RTVSPost2010Prop57
140
1.0
102
RTVSPost2010PropOp57
 70
     1
102
RTVSPropertyOp0
 70
     1
102
RTVSPropertyOp1
 70
     1
102
RTVSPropertyOp2
 70
     1
102
RTVSPropertyOp3
 70
     1
102
RTVSPropertyOp4
 70
     1
102
RTVSPropertyOp5
 70
     1
102
RTVSPropertyOp6
 70
     1
102
RTVSPropertyOp7
 70
     1
102
RTVSPropertyOp8
 70
     1
102
RTVSPropertyOp9
 70
     1
102
RTVSPropertyOp10
 70
     1
102
RTVSPropertyOp11
 70
     1
102
RTVSPropertyOp12
 70
     1
102
RTVSPropertyOp13
 70
     1
102
RTVSPropertyOp14
 70
     1
102
RTVSPropertyOp15
 70
     1
102
RTVSPropertyOp16
 70
     1
102
RTVSPropertyOp17
 70
     1
102
RTVSPropertyOp18
 70
     1
102
RTVSPropertyOp19
 70
     1
102
RTVSPropertyOp20
 70
     1
102
RTVSPropertyOp21
 70
     1
102
RTVSPropertyOp22
 70
     1
102
RTVSPropertyOp23
 70
     1
102
RTVSPropertyOp24
 70
     1
102
RTVSPropertyOp25
 70
     1
102
RTVSPropertyOp26
 70
     1
102
RTVSPropertyOp27
 70
     1
102
RTVSPropertyOp28
 70
     1
102
RTVSPropertyOp29
 70
     1
102
RTVSPropertyOp30
 70
     1
102
RTVSPropertyOp31
 70
     1
102
RTVSPropertyOp32
 70
     1
102
RTVSPropertyOp33
 70
     1
102
RTVSPropertyOp34
 70
     1
102
RTVSPropertyOp35
 70
     1
102
RTVSPropertyOp36
 70
     1
102
RTVSPropertyOp37
 70
     1
102
RTVSPropertyOp38
 70
     1
102
RTVSPropertyOp39
 70
     1
102
RTVSPropertyOp40
 70
     1
102
RTVSPropertyOp41
 70
     1
102
RTVSPropertyOp42
 70
     1
102
RTVSPropertyOp43
 70
     1
102
RTVSPropertyOp44
 70
     1
102
RTVSPropertyOp45
 70
     1
102
RTVSPropertyOp46
 70
     1
102
RTVSPropertyOp47
 70
     1
102
RTVSPropertyOp48
 70
     1
102
RTVSPropertyOp49
 70
     1
102
RTVSPropertyOp50
 70
     1
102
RTVSPropertyOp51
 70
     0
102
RTVSPropertyOp52
 70
     0
102
RTVSPropertyOp53
 70
     1
102
RTVSPropertyOp54
 70
     1
102
RTVSPropertyOp55
 70
     1
102
RTVSPropertyOp56
 70
     1
102
RTVSPropertyOp57
 70
     1
102
RTVSPropertyOp58
 70
     1
102
RTVSPropertyOp59
 70
     1
102
RTVSPropertyOp60
 70
     1
102
RTVSPropertyOp61
 70
     1
102
RTVSPropertyOp62
 70
     1
  0
XRECORD
  5
1715
102
{ACAD_REACTORS
330
1714
102
}
330
1714
100
AcDbXrecord
280
     1
102
RTVSPost2010Prop28
280
     0
102
RTVSPost2010PropOp28
 70
     1
102
RTVSPost2010Prop29
280
     1
102
RTVSPost2010PropOp29
 70
     1
102
RTVSPost2010Prop30
280
     1
102
RTVSPost2010PropOp30
 70
     1
102
RTVSPost2010Prop31
280
     0
102
RTVSPost2010PropOp31
 70
     1
102
RTVSPost2010Prop32
280
     0
102
RTVSPost2010PropOp32
 70
     1
102
RTVSPost2010Prop33
280
     0
102
RTVSPost2010PropOp33
 70
     1
102
RTVSPost2010Prop34
280
     0
102
RTVSPost2010PropOp34
 70
     1
102
RTVSPost2010Prop35
280
     0
102
RTVSPost2010PropOp35
 70
     1
102
RTVSPost2010Prop36
280
     0
102
RTVSPost2010PropOp36
 70
     1
102
RTVSPost2010Prop37
 90
       50
102
RTVSPost2010PropOp37
 70
     1
102
RTVSPost2010Prop38
140
0.0
102
RTVSPost2010PropOp38
 70
     1
102
RTVSPost2010Prop39
140
1.0
102
RTVSPost2010PropOp39
 70
     1
102
RTVSPost2010Prop40
 90
        0
102
RTVSPost2010PropOp40
 70
     1
102
RTVSPost2010Prop41ColorIndex
 90
       18
102
RTVSPost2010Prop41ColorRGB
 90
-16777216
102
RTVSPost2010PropOp41
 70
     1
102
RTVSPost2010Prop42
 90
       50
102
RTVSPost2010PropOp42
 70
     1
102
RTVSPost2010Prop43
 90
        3
102
RTVSPost2010PropOp43
 70
     1
102
RTVSPost2010Prop44ColorIndex
 90
        5
102
RTVSPost2010Prop44ColorRGB
 90
      255
102
RTVSPost2010PropOp44
 70
     1
102
RTVSPost2010Prop45
280
     0
102
RTVSPost2010PropOp45
 70
     1
102
RTVSPost2010Prop46
 90
       50
102
RTVSPost2010PropOp46
 70
     1
102
RTVSPost2010Prop47
 90
       50
102
RTVSPost2010PropOp47
 70
     1
102
RTVSPost2010Prop48
 90
       50
102
RTVSPost2010PropOp48
 70
     1
102
RTVSPost2010Prop49
280
     0
102
RTVSPost2010PropOp49
 70
     1
102
RTVSPost2010Prop50
 90
       50
102
RTVSPost2010PropOp50
 70
     1
102
RTVSPost2010Prop51ColorIndex
 90
      256
102
RTVSPost2010Prop51ColorRGB
 90
-16777216
102
RTVSPost2010PropOp51
 70
     0
102
RTVSPost2010Prop52
140
1.0
102
RTVSPost2010PropOp52
 70
     0
102
RTVSPost2010Prop53
 90
        2
102
RTVSPost2010PropOp53
 70
     1
102
RTVSPost2010Prop54
  1
strokes_ogs.tif
102
RTVSPost2010PropOp54
 70
     1
102
RTVSPost2010Prop55
280
     0
102
RTVSPost2010PropOp55
 70
     1
102
RTVSPost2010Prop56
140
1.0
102
RTVSPost2010PropOp56
 70
     1
102
RTVSPost2010Prop57
140
1.0
102
RTVSPost2010PropOp57
 70
     1
102
RTVSPropertyOp0
 70
     1
102
RTVSPropertyOp1
 70
     1
102
RTVSPropertyOp2
 70
     1
102
RTVSPropertyOp3
 70
     1
102
RTVSPropertyOp4
 70
     1
102
RTVSPropertyOp5
 70
     1
102
RTVSPropertyOp6
 70
     1
102
RTVSPropertyOp7
 70
     1
102
RTVSPropertyOp8
 70
     1
102
RTVSPropertyOp9
 70
     1
102
RTVSPropertyOp10
 70
     1
102
RTVSPropertyOp11
 70
     1
102
RTVSPropertyOp12
 70
     1
102
RTVSPropertyOp13
 70
     1
102
RTVSPropertyOp14
 70
     1
102
RTVSPropertyOp15
 70
     1
102
RTVSPropertyOp16
 70
     1
102
RTVSPropertyOp17
 70
     1
102
RTVSPropertyOp18
 70
     1
102
RTVSPropertyOp19
 70
     1
102
RTVSPropertyOp20
 70
     1
102
RTVSPropertyOp21
 70
     1
102
RTVSPropertyOp22
 70
     1
102
RTVSPropertyOp23
 70
     1
102
RTVSPropertyOp24
 70
     1
102
RTVSPropertyOp25
 70
     1
102
RTVSPropertyOp26
 70
     1
102
RTVSPropertyOp27
 70
     1
102
RTVSPropertyOp28
 70
     1
102
RTVSPropertyOp29
 70
     1
102
RTVSPropertyOp30
 70
     1
102
RTVSPropertyOp31
 70
     1
102
RTVSPropertyOp32
 70
     1
102
RTVSPropertyOp33
 70
     1
102
RTVSPropertyOp34
 70
     1
102
RTVSPropertyOp35
 70
     1
102
RTVSPropertyOp36
 70
     1
102
RTVSPropertyOp37
 70
     1
102
RTVSPropertyOp38
 70
     1
102
RTVSPropertyOp39
 70
     1
102
RTVSPropertyOp40
 70
     1
102
RTVSPropertyOp41
 70
     1
102
RTVSPropertyOp42
 70
     1
102
RTVSPropertyOp43
 70
     1
102
RTVSPropertyOp44
 70
     1
102
RTVSPropertyOp45
 70
     1
102
RTVSPropertyOp46
 70
     1
102
RTVSPropertyOp47
 70
     1
102
RTVSPropertyOp48
 70
     1
102
RTVSPropertyOp49
 70
     1
102
RTVSPropertyOp50
 70
     1
102
RTVSPropertyOp51
 70
     0
102
RTVSPropertyOp52
 70
     0
102
RTVSPropertyOp53
 70
     1
102
RTVSPropertyOp54
 70
     1
102
RTVSPropertyOp55
 70
     1
102
RTVSPropertyOp56
 70
     1
102
RTVSPropertyOp57
 70
     1
102
RTVSPropertyOp58
 70
     1
102
RTVSPropertyOp59
 70
     1
102
RTVSPropertyOp60
 70
     1
102
RTVSPropertyOp61
 70
     1
102
RTVSPropertyOp62
 70
     1
  0
XRECORD
  5
1717
102
{ACAD_REACTORS
330
1716
102
}
330
1716
100
AcDbXrecord
280
     1
102
RTVSPost2010Prop28
280
     0
102
RTVSPost2010PropOp28
 70
     1
102
RTVSPost2010Prop29
280
     1
102
RTVSPost2010PropOp29
 70
     1
102
RTVSPost2010Prop30
280
     1
102
RTVSPost2010PropOp30
 70
     1
102
RTVSPost2010Prop31
280
     0
102
RTVSPost2010PropOp31
 70
     1
102
RTVSPost2010Prop32
280
     0
102
RTVSPost2010PropOp32
 70
     1
102
RTVSPost2010Prop33
280
     0
102
RTVSPost2010PropOp33
 70
     1
102
RTVSPost2010Prop34
280
     0
102
RTVSPost2010PropOp34
 70
     1
102
RTVSPost2010Prop35
280
     0
102
RTVSPost2010PropOp35
 70
     1
102
RTVSPost2010Prop36
280
     0
102
RTVSPost2010PropOp36
 70
     1
102
RTVSPost2010Prop37
 90
       50
102
RTVSPost2010PropOp37
 70
     1
102
RTVSPost2010Prop38
140
0.0
102
RTVSPost2010PropOp38
 70
     1
102
RTVSPost2010Prop39
140
1.0
102
RTVSPost2010PropOp39
 70
     1
102
RTVSPost2010Prop40
 90
        0
102
RTVSPost2010PropOp40
 70
     1
102
RTVSPost2010Prop41ColorIndex
 90
       18
102
RTVSPost2010Prop41ColorRGB
 90
-16777216
102
RTVSPost2010PropOp41
 70
     1
102
RTVSPost2010Prop42
 90
       50
102
RTVSPost2010PropOp42
 70
     1
102
RTVSPost2010Prop43
 90
        3
102
RTVSPost2010PropOp43
 70
     1
102
RTVSPost2010Prop44ColorIndex
 90
        5
102
RTVSPost2010Prop44ColorRGB
 90
      255
102
RTVSPost2010PropOp44
 70
     1
102
RTVSPost2010Prop45
280
     0
102
RTVSPost2010PropOp45
 70
     1
102
RTVSPost2010Prop46
 90
       50
102
RTVSPost2010PropOp46
 70
     1
102
RTVSPost2010Prop47
 90
       50
102
RTVSPost2010PropOp47
 70
     1
102
RTVSPost2010Prop48
 90
       50
102
RTVSPost2010PropOp48
 70
     1
102
RTVSPost2010Prop49
280
     0
102
RTVSPost2010PropOp49
 70
     1
102
RTVSPost2010Prop50
 90
       50
102
RTVSPost2010PropOp50
 70
     1
102
RTVSPost2010Prop51ColorIndex
 90
      256
102
RTVSPost2010Prop51ColorRGB
 90
-16777216
102
RTVSPost2010PropOp51
 70
     0
102
RTVSPost2010Prop52
140
1.0
102
RTVSPost2010PropOp52
 70
     0
102
RTVSPost2010Prop53
 90
        2
102
RTVSPost2010PropOp53
 70
     1
102
RTVSPost2010Prop54
  1
strokes_ogs.tif
102
RTVSPost2010PropOp54
 70
     1
102
RTVSPost2010Prop55
280
     0
102
RTVSPost2010PropOp55
 70
     1
102
RTVSPost2010Prop56
140
1.0
102
RTVSPost2010PropOp56
 70
     1
102
RTVSPost2010Prop57
140
1.0
102
RTVSPost2010PropOp57
 70
     1
102
RTVSPropertyOp0
 70
     1
102
RTVSPropertyOp1
 70
     1
102
RTVSPropertyOp2
 70
     1
102
RTVSPropertyOp3
 70
     1
102
RTVSPropertyOp4
 70
     1
102
RTVSPropertyOp5
 70
     1
102
RTVSPropertyOp6
 70
     1
102
RTVSPropertyOp7
 70
     1
102
RTVSPropertyOp8
 70
     1
102
RTVSPropertyOp9
 70
     1
102
RTVSPropertyOp10
 70
     1
102
RTVSPropertyOp11
 70
     1
102
RTVSPropertyOp12
 70
     1
102
RTVSPropertyOp13
 70
     1
102
RTVSPropertyOp14
 70
     1
102
RTVSPropertyOp15
 70
     1
102
RTVSPropertyOp16
 70
     1
102
RTVSPropertyOp17
 70
     1
102
RTVSPropertyOp18
 70
     1
102
RTVSPropertyOp19
 70
     1
102
RTVSPropertyOp20
 70
     1
102
RTVSPropertyOp21
 70
     1
102
RTVSPropertyOp22
 70
     1
102
RTVSPropertyOp23
 70
     1
102
RTVSPropertyOp24
 70
     1
102
RTVSPropertyOp25
 70
     1
102
RTVSPropertyOp26
 70
     1
102
RTVSPropertyOp27
 70
     1
102
RTVSPropertyOp28
 70
     1
102
RTVSPropertyOp29
 70
     1
102
RTVSPropertyOp30
 70
     1
102
RTVSPropertyOp31
 70
     1
102
RTVSPropertyOp32
 70
     1
102
RTVSPropertyOp33
 70
     1
102
RTVSPropertyOp34
 70
     1
102
RTVSPropertyOp35
 70
     1
102
RTVSPropertyOp36
 70
     1
102
RTVSPropertyOp37
 70
     1
102
RTVSPropertyOp38
 70
     1
102
RTVSPropertyOp39
 70
     1
102
RTVSPropertyOp40
 70
     1
102
RTVSPropertyOp41
 70
     1
102
RTVSPropertyOp42
 70
     1
102
RTVSPropertyOp43
 70
     1
102
RTVSPropertyOp44
 70
     1
102
RTVSPropertyOp45
 70
     1
102
RTVSPropertyOp46
 70
     1
102
RTVSPropertyOp47
 70
     1
102
RTVSPropertyOp48
 70
     1
102
RTVSPropertyOp49
 70
     1
102
RTVSPropertyOp50
 70
     1
102
RTVSPropertyOp51
 70
     0
102
RTVSPropertyOp52
 70
     0
102
RTVSPropertyOp53
 70
     1
102
RTVSPropertyOp54
 70
     1
102
RTVSPropertyOp55
 70
     1
102
RTVSPropertyOp56
 70
     1
102
RTVSPropertyOp57
 70
     1
102
RTVSPropertyOp58
 70
     1
102
RTVSPropertyOp59
 70
     1
102
RTVSPropertyOp60
 70
     1
102
RTVSPropertyOp61
 70
     1
102
RTVSPropertyOp62
 70
     1
  0
XRECORD
  5
1719
102
{ACAD_REACTORS
330
1718
102
}
330
1718
100
AcDbXrecord
280
     1
102
RTVSPost2010Prop28
280
     0
102
RTVSPost2010PropOp28
 70
     1
102
RTVSPost2010Prop29
280
     1
102
RTVSPost2010PropOp29
 70
     1
102
RTVSPost2010Prop30
280
     1
102
RTVSPost2010PropOp30
 70
     1
102
RTVSPost2010Prop31
280
     0
102
RTVSPost2010PropOp31
 70
     1
102
RTVSPost2010Prop32
280
     0
102
RTVSPost2010PropOp32
 70
     1
102
RTVSPost2010Prop33
280
     0
102
RTVSPost2010PropOp33
 70
     1
102
RTVSPost2010Prop34
280
     0
102
RTVSPost2010PropOp34
 70
     1
102
RTVSPost2010Prop35
280
     0
102
RTVSPost2010PropOp35
 70
     1
102
RTVSPost2010Prop36
280
     0
102
RTVSPost2010PropOp36
 70
     1
102
RTVSPost2010Prop37
 90
       50
102
RTVSPost2010PropOp37
 70
     1
102
RTVSPost2010Prop38
140
0.0
102
RTVSPost2010PropOp38
 70
     1
102
RTVSPost2010Prop39
140
1.0
102
RTVSPost2010PropOp39
 70
     1
102
RTVSPost2010Prop40
 90
        0
102
RTVSPost2010PropOp40
 70
     1
102
RTVSPost2010Prop41ColorIndex
 90
       18
102
RTVSPost2010Prop41ColorRGB
 90
-16777216
102
RTVSPost2010PropOp41
 70
     1
102
RTVSPost2010Prop42
 90
       50
102
RTVSPost2010PropOp42
 70
     1
102
RTVSPost2010Prop43
 90
        3
102
RTVSPost2010PropOp43
 70
     1
102
RTVSPost2010Prop44ColorIndex
 90
        5
102
RTVSPost2010Prop44ColorRGB
 90
      255
102
RTVSPost2010PropOp44
 70
     1
102
RTVSPost2010Prop45
280
     0
102
RTVSPost2010PropOp45
 70
     1
102
RTVSPost2010Prop46
 90
       50
102
RTVSPost2010PropOp46
 70
     1
102
RTVSPost2010Prop47
 90
       50
102
RTVSPost2010PropOp47
 70
     1
102
RTVSPost2010Prop48
 90
       50
102
RTVSPost2010PropOp48
 70
     1
102
RTVSPost2010Prop49
280
     0
102
RTVSPost2010PropOp49
 70
     1
102
RTVSPost2010Prop50
 90
       50
102
RTVSPost2010PropOp50
 70
     1
102
RTVSPost2010Prop51ColorIndex
 90
      256
102
RTVSPost2010Prop51ColorRGB
 90
-16777216
102
RTVSPost2010PropOp51
 70
     0
102
RTVSPost2010Prop52
140
1.0
102
RTVSPost2010PropOp52
 70
     0
102
RTVSPost2010Prop53
 90
        2
102
RTVSPost2010PropOp53
 70
     1
102
RTVSPost2010Prop54
  1
strokes_ogs.tif
102
RTVSPost2010PropOp54
 70
     1
102
RTVSPost2010Prop55
280
     0
102
RTVSPost2010PropOp55
 70
     1
102
RTVSPost2010Prop56
140
1.0
102
RTVSPost2010PropOp56
 70
     1
102
RTVSPost2010Prop57
140
1.0
102
RTVSPost2010PropOp57
 70
     1
102
RTVSPropertyOp0
 70
     1
102
RTVSPropertyOp1
 70
     1
102
RTVSPropertyOp2
 70
     1
102
RTVSPropertyOp3
 70
     1
102
RTVSPropertyOp4
 70
     1
102
RTVSPropertyOp5
 70
     1
102
RTVSPropertyOp6
 70
     1
102
RTVSPropertyOp7
 70
     1
102
RTVSPropertyOp8
 70
     1
102
RTVSPropertyOp9
 70
     1
102
RTVSPropertyOp10
 70
     1
102
RTVSPropertyOp11
 70
     1
102
RTVSPropertyOp12
 70
     1
102
RTVSPropertyOp13
 70
     1
102
RTVSPropertyOp14
 70
     1
102
RTVSPropertyOp15
 70
     1
102
RTVSPropertyOp16
 70
     1
102
RTVSPropertyOp17
 70
     1
102
RTVSPropertyOp18
 70
     1
102
RTVSPropertyOp19
 70
     1
102
RTVSPropertyOp20
 70
     1
102
RTVSPropertyOp21
 70
     1
102
RTVSPropertyOp22
 70
     1
102
RTVSPropertyOp23
 70
     1
102
RTVSPropertyOp24
 70
     1
102
RTVSPropertyOp25
 70
     1
102
RTVSPropertyOp26
 70
     1
102
RTVSPropertyOp27
 70
     1
102
RTVSPropertyOp28
 70
     1
102
RTVSPropertyOp29
 70
     1
102
RTVSPropertyOp30
 70
     1
102
RTVSPropertyOp31
 70
     1
102
RTVSPropertyOp32
 70
     1
102
RTVSPropertyOp33
 70
     1
102
RTVSPropertyOp34
 70
     1
102
RTVSPropertyOp35
 70
     1
102
RTVSPropertyOp36
 70
     1
102
RTVSPropertyOp37
 70
     1
102
RTVSPropertyOp38
 70
     1
102
RTVSPropertyOp39
 70
     1
102
RTVSPropertyOp40
 70
     1
102
RTVSPropertyOp41
 70
     1
102
RTVSPropertyOp42
 70
     1
102
RTVSPropertyOp43
 70
     1
102
RTVSPropertyOp44
 70
     1
102
RTVSPropertyOp45
 70
     1
102
RTVSPropertyOp46
 70
     1
102
RTVSPropertyOp47
 70
     1
102
RTVSPropertyOp48
 70
     1
102
RTVSPropertyOp49
 70
     1
102
RTVSPropertyOp50
 70
     1
102
RTVSPropertyOp51
 70
     0
102
RTVSPropertyOp52
 70
     0
102
RTVSPropertyOp53
 70
     1
102
RTVSPropertyOp54
 70
     1
102
RTVSPropertyOp55
 70
     1
102
RTVSPropertyOp56
 70
     1
102
RTVSPropertyOp57
 70
     1
102
RTVSPropertyOp58
 70
     1
102
RTVSPropertyOp59
 70
     1
102
RTVSPropertyOp60
 70
     1
102
RTVSPropertyOp61
 70
     1
102
RTVSPropertyOp62
 70
     1
  0
XRECORD
  5
1721
102
{ACAD_REACTORS
330
1720
102
}
330
1720
100
AcDbXrecord
280
     1
102
RTVSPost2010Prop28
280
     0
102
RTVSPost2010PropOp28
 70
     1
102
RTVSPost2010Prop29
280
     1
102
RTVSPost2010PropOp29
 70
     1
102
RTVSPost2010Prop30
280
     1
102
RTVSPost2010PropOp30
 70
     1
102
RTVSPost2010Prop31
280
     0
102
RTVSPost2010PropOp31
 70
     1
102
RTVSPost2010Prop32
280
     0
102
RTVSPost2010PropOp32
 70
     1
102
RTVSPost2010Prop33
280
     0
102
RTVSPost2010PropOp33
 70
     1
102
RTVSPost2010Prop34
280
     0
102
RTVSPost2010PropOp34
 70
     1
102
RTVSPost2010Prop35
280
     0
102
RTVSPost2010PropOp35
 70
     1
102
RTVSPost2010Prop36
280
     0
102
RTVSPost2010PropOp36
 70
     1
102
RTVSPost2010Prop37
 90
       50
102
RTVSPost2010PropOp37
 70
     1
102
RTVSPost2010Prop38
140
0.0
102
RTVSPost2010PropOp38
 70
     1
102
RTVSPost2010Prop39
140
1.0
102
RTVSPost2010PropOp39
 70
     1
102
RTVSPost2010Prop40
 90
        0
102
RTVSPost2010PropOp40
 70
     1
102
RTVSPost2010Prop41ColorIndex
 90
       18
102
RTVSPost2010Prop41ColorRGB
 90
-16777216
102
RTVSPost2010PropOp41
 70
     1
102
RTVSPost2010Prop42
 90
       50
102
RTVSPost2010PropOp42
 70
     1
102
RTVSPost2010Prop43
 90
        3
102
RTVSPost2010PropOp43
 70
     1
102
RTVSPost2010Prop44ColorIndex
 90
        5
102
RTVSPost2010Prop44ColorRGB
 90
      255
102
RTVSPost2010PropOp44
 70
     1
102
RTVSPost2010Prop45
280
     0
102
RTVSPost2010PropOp45
 70
     1
102
RTVSPost2010Prop46
 90
       50
102
RTVSPost2010PropOp46
 70
     1
102
RTVSPost2010Prop47
 90
       50
102
RTVSPost2010PropOp47
 70
     1
102
RTVSPost2010Prop48
 90
       50
102
RTVSPost2010PropOp48
 70
     1
102
RTVSPost2010Prop49
280
     0
102
RTVSPost2010PropOp49
 70
     1
102
RTVSPost2010Prop50
 90
       50
102
RTVSPost2010PropOp50
 70
     1
102
RTVSPost2010Prop51ColorIndex
 90
      256
102
RTVSPost2010Prop51ColorRGB
 90
-16777216
102
RTVSPost2010PropOp51
 70
     0
102
RTVSPost2010Prop52
140
1.0
102
RTVSPost2010PropOp52
 70
     0
102
RTVSPost2010Prop53
 90
        2
102
RTVSPost2010PropOp53
 70
     1
102
RTVSPost2010Prop54
  1
strokes_ogs.tif
102
RTVSPost2010PropOp54
 70
     1
102
RTVSPost2010Prop55
280
     0
102
RTVSPost2010PropOp55
 70
     1
102
RTVSPost2010Prop56
140
1.0
102
RTVSPost2010PropOp56
 70
     1
102
RTVSPost2010Prop57
140
1.0
102
RTVSPost2010PropOp57
 70
     1
102
RTVSPropertyOp0
 70
     1
102
RTVSPropertyOp1
 70
     1
102
RTVSPropertyOp2
 70
     1
102
RTVSPropertyOp3
 70
     1
102
RTVSPropertyOp4
 70
     1
102
RTVSPropertyOp5
 70
     1
102
RTVSPropertyOp6
 70
     1
102
RTVSPropertyOp7
 70
     1
102
RTVSPropertyOp8
 70
     1
102
RTVSPropertyOp9
 70
     1
102
RTVSPropertyOp10
 70
     1
102
RTVSPropertyOp11
 70
     1
102
RTVSPropertyOp12
 70
     1
102
RTVSPropertyOp13
 70
     1
102
RTVSPropertyOp14
 70
     1
102
RTVSPropertyOp15
 70
     1
102
RTVSPropertyOp16
 70
     1
102
RTVSPropertyOp17
 70
     1
102
RTVSPropertyOp18
 70
     1
102
RTVSPropertyOp19
 70
     1
102
RTVSPropertyOp20
 70
     1
102
RTVSPropertyOp21
 70
     1
102
RTVSPropertyOp22
 70
     1
102
RTVSPropertyOp23
 70
     1
102
RTVSPropertyOp24
 70
     1
102
RTVSPropertyOp25
 70
     1
102
RTVSPropertyOp26
 70
     1
102
RTVSPropertyOp27
 70
     1
102
RTVSPropertyOp28
 70
     1
102
RTVSPropertyOp29
 70
     1
102
RTVSPropertyOp30
 70
     1
102
RTVSPropertyOp31
 70
     1
102
RTVSPropertyOp32
 70
     1
102
RTVSPropertyOp33
 70
     1
102
RTVSPropertyOp34
 70
     1
102
RTVSPropertyOp35
 70
     1
102
RTVSPropertyOp36
 70
     1
102
RTVSPropertyOp37
 70
     1
102
RTVSPropertyOp38
 70
     1
102
RTVSPropertyOp39
 70
     1
102
RTVSPropertyOp40
 70
     1
102
RTVSPropertyOp41
 70
     1
102
RTVSPropertyOp42
 70
     1
102
RTVSPropertyOp43
 70
     1
102
RTVSPropertyOp44
 70
     1
102
RTVSPropertyOp45
 70
     1
102
RTVSPropertyOp46
 70
     1
102
RTVSPropertyOp47
 70
     1
102
RTVSPropertyOp48
 70
     1
102
RTVSPropertyOp49
 70
     1
102
RTVSPropertyOp50
 70
     1
102
RTVSPropertyOp51
 70
     0
102
RTVSPropertyOp52
 70
     0
102
RTVSPropertyOp53
 70
     1
102
RTVSPropertyOp54
 70
     1
102
RTVSPropertyOp55
 70
     1
102
RTVSPropertyOp56
 70
     1
102
RTVSPropertyOp57
 70
     1
102
RTVSPropertyOp58
 70
     1
102
RTVSPropertyOp59
 70
     1
102
RTVSPropertyOp60
 70
     1
102
RTVSPropertyOp61
 70
     1
102
RTVSPropertyOp62
 70
     1
  0
XRECORD
  5
173D
102
{ACAD_REACTORS
330
173C
102
}
330
173C
100
AcDbXrecord
280
     1
102
RTVSPost2010Prop28
280
     0
102
RTVSPost2010PropOp28
 70
     0
102
RTVSPost2010Prop29
280
     1
102
RTVSPost2010PropOp29
 70
     0
102
RTVSPost2010Prop30
280
     1
102
RTVSPost2010PropOp30
 70
     0
102
RTVSPost2010Prop31
280
     0
102
RTVSPost2010PropOp31
 70
     0
102
RTVSPost2010Prop32
280
     0
102
RTVSPost2010PropOp32
 70
     0
102
RTVSPost2010Prop33
280
     0
102
RTVSPost2010PropOp33
 70
     0
102
RTVSPost2010Prop34
280
     0
102
RTVSPost2010PropOp34
 70
     0
102
RTVSPost2010Prop35
280
     0
102
RTVSPost2010PropOp35
 70
     0
102
RTVSPost2010Prop36
280
     0
102
RTVSPost2010PropOp36
 70
     0
102
RTVSPost2010Prop37
 90
       50
102
RTVSPost2010PropOp37
 70
     0
102
RTVSPost2010Prop38
140
0.0
102
RTVSPost2010PropOp38
 70
     0
102
RTVSPost2010Prop39
140
1.0
102
RTVSPost2010PropOp39
 70
     0
102
RTVSPost2010Prop40
 90
        0
102
RTVSPost2010PropOp40
 70
     0
102
RTVSPost2010Prop41ColorIndex
 90
       18
102
RTVSPost2010Prop41ColorRGB
 90
-16777216
102
RTVSPost2010PropOp41
 70
     0
102
RTVSPost2010Prop42
 90
       50
102
RTVSPost2010PropOp42
 70
     0
102
RTVSPost2010Prop43
 90
        3
102
RTVSPost2010PropOp43
 70
     0
102
RTVSPost2010Prop44ColorIndex
 90
        5
102
RTVSPost2010Prop44ColorRGB
 90
      255
102
RTVSPost2010PropOp44
 70
     0
102
RTVSPost2010Prop45
280
     0
102
RTVSPost2010PropOp45
 70
     0
102
RTVSPost2010Prop46
 90
       50
102
RTVSPost2010PropOp46
 70
     0
102
RTVSPost2010Prop47
 90
       50
102
RTVSPost2010PropOp47
 70
     0
102
RTVSPost2010Prop48
 90
       50
102
RTVSPost2010PropOp48
 70
     0
102
RTVSPost2010Prop49
280
     0
102
RTVSPost2010PropOp49
 70
     0
102
RTVSPost2010Prop50
 90
       50
102
RTVSPost2010PropOp50
 70
     0
102
RTVSPost2010Prop51ColorIndex
 90
      256
102
RTVSPost2010Prop51ColorRGB
 90
-16777216
102
RTVSPost2010PropOp51
 70
     0
102
RTVSPost2010Prop52
140
1.0
102
RTVSPost2010PropOp52
 70
     0
102
RTVSPost2010Prop53
 90
        2
102
RTVSPost2010PropOp53
 70
     0
102
RTVSPost2010Prop54
  1
strokes_ogs.tif
102
RTVSPost2010PropOp54
 70
     0
102
RTVSPost2010Prop55
280
     0
102
RTVSPost2010PropOp55
 70
     0
102
RTVSPost2010Prop56
140
1.0
102
RTVSPost2010PropOp56
 70
     0
102
RTVSPost2010Prop57
140
1.0
102
RTVSPost2010PropOp57
 70
     0
102
RTVSPropertyOp0
 70
     0
102
RTVSPropertyOp1
 70
     0
102
RTVSPropertyOp2
 70
     0
102
RTVSPropertyOp3
 70
     0
102
RTVSPropertyOp4
 70
     0
102
RTVSPropertyOp5
 70
     0
102
RTVSPropertyOp6
 70
     0
102
RTVSPropertyOp7
 70
     0
102
RTVSPropertyOp8
 70
     0
102
RTVSPropertyOp9
 70
     0
102
RTVSPropertyOp10
 70
     0
102
RTVSPropertyOp11
 70
     0
102
RTVSPropertyOp12
 70
     0
102
RTVSPropertyOp13
 70
     0
102
RTVSPropertyOp14
 70
     2
102
RTVSPropertyOp15
 70
     0
102
RTVSPropertyOp16
 70
     0
102
RTVSPropertyOp17
 70
     0
102
RTVSPropertyOp18
 70
     0
102
RTVSPropertyOp19
 70
     0
102
RTVSPropertyOp20
 70
     0
102
RTVSPropertyOp21
 70
     0
102
RTVSPropertyOp22
 70
     0
102
RTVSPropertyOp23
 70
     0
102
RTVSPropertyOp24
 70
     0
102
RTVSPropertyOp25
 70
     0
102
RTVSPropertyOp26
 70
     0
102
RTVSPropertyOp27
 70
     0
102
RTVSPropertyOp28
 70
     0
102
RTVSPropertyOp29
 70
     0
102
RTVSPropertyOp30
 70
     0
102
RTVSPropertyOp31
 70
     0
102
RTVSPropertyOp32
 70
     0
102
RTVSPropertyOp33
 70
     0
102
RTVSPropertyOp34
 70
     0
102
RTVSPropertyOp35
 70
     0
102
RTVSPropertyOp36
 70
     0
102
RTVSPropertyOp37
 70
     0
102
RTVSPropertyOp38
 70
     0
102
RTVSPropertyOp39
 70
     0
102
RTVSPropertyOp40
 70
     0
102
RTVSPropertyOp41
 70
     0
102
RTVSPropertyOp42
 70
     0
102
RTVSPropertyOp43
 70
     0
102
RTVSPropertyOp44
 70
     0
102
RTVSPropertyOp45
 70
     0
102
RTVSPropertyOp46
 70
     0
102
RTVSPropertyOp47
 70
     0
102
RTVSPropertyOp48
 70
     0
102
RTVSPropertyOp49
 70
     0
102
RTVSPropertyOp50
 70
     0
102
RTVSPropertyOp51
 70
     0
102
RTVSPropertyOp52
 70
     0
102
RTVSPropertyOp53
 70
     0
102
RTVSPropertyOp54
 70
     0
102
RTVSPropertyOp55
 70
     0
102
RTVSPropertyOp56
 70
     0
102
RTVSPropertyOp57
 70
     0
102
RTVSPropertyOp58
 70
     1
102
RTVSPropertyOp59
 70
     1
102
RTVSPropertyOp60
 70
     1
102
RTVSPropertyOp61
 70
     1
102
RTVSPropertyOp62
 70
     1
  0
XRECORD
  5
172D
102
{ACAD_REACTORS
330
172C
102
}
330
172C
100
AcDbXrecord
280
     1
102
RTVSPost2010Prop28
280
     0
102
RTVSPost2010PropOp28
 70
     1
102
RTVSPost2010Prop29
280
     1
102
RTVSPost2010PropOp29
 70
     1
102
RTVSPost2010Prop30
280
     1
102
RTVSPost2010PropOp30
 70
     1
102
RTVSPost2010Prop31
280
     0
102
RTVSPost2010PropOp31
 70
     1
102
RTVSPost2010Prop32
280
     0
102
RTVSPost2010PropOp32
 70
     1
102
RTVSPost2010Prop33
280
     0
102
RTVSPost2010PropOp33
 70
     1
102
RTVSPost2010Prop34
280
     0
102
RTVSPost2010PropOp34
 70
     1
102
RTVSPost2010Prop35
280
     0
102
RTVSPost2010PropOp35
 70
     1
102
RTVSPost2010Prop36
280
     0
102
RTVSPost2010PropOp36
 70
     1
102
RTVSPost2010Prop37
 90
       50
102
RTVSPost2010PropOp37
 70
     1
102
RTVSPost2010Prop38
140
0.0
102
RTVSPost2010PropOp38
 70
     1
102
RTVSPost2010Prop39
140
1.0
102
RTVSPost2010PropOp39
 70
     1
102
RTVSPost2010Prop40
 90
        0
102
RTVSPost2010PropOp40
 70
     1
102
RTVSPost2010Prop41ColorIndex
 90
       18
102
RTVSPost2010Prop41ColorRGB
 90
-16777216
102
RTVSPost2010PropOp41
 70
     1
102
RTVSPost2010Prop42
 90
       50
102
RTVSPost2010PropOp42
 70
     1
102
RTVSPost2010Prop43
 90
        3
102
RTVSPost2010PropOp43
 70
     1
102
RTVSPost2010Prop44ColorIndex
 90
        5
102
RTVSPost2010Prop44ColorRGB
 90
      255
102
RTVSPost2010PropOp44
 70
     1
102
RTVSPost2010Prop45
280
     0
102
RTVSPost2010PropOp45
 70
     1
102
RTVSPost2010Prop46
 90
       50
102
RTVSPost2010PropOp46
 70
     1
102
RTVSPost2010Prop47
 90
       50
102
RTVSPost2010PropOp47
 70
     1
102
RTVSPost2010Prop48
 90
       50
102
RTVSPost2010PropOp48
 70
     1
102
RTVSPost2010Prop49
280
     0
102
RTVSPost2010PropOp49
 70
     1
102
RTVSPost2010Prop50
 90
       50
102
RTVSPost2010PropOp50
 70
     1
102
RTVSPost2010Prop51ColorIndex
 90
      256
102
RTVSPost2010Prop51ColorRGB
 90
-16777216
102
RTVSPost2010PropOp51
 70
     0
102
RTVSPost2010Prop52
140
1.0
102
RTVSPost2010PropOp52
 70
     0
102
RTVSPost2010Prop53
 90
        2
102
RTVSPost2010PropOp53
 70
     1
102
RTVSPost2010Prop54
  1
strokes_ogs.tif
102
RTVSPost2010PropOp54
 70
     1
102
RTVSPost2010Prop55
280
     0
102
RTVSPost2010PropOp55
 70
     1
102
RTVSPost2010Prop56
140
1.0
102
RTVSPost2010PropOp56
 70
     1
102
RTVSPost2010Prop57
140
1.0
102
RTVSPost2010PropOp57
 70
     1
102
RTVSPropertyOp0
 70
     1
102
RTVSPropertyOp1
 70
     1
102
RTVSPropertyOp2
 70
     1
102
RTVSPropertyOp3
 70
     1
102
RTVSPropertyOp4
 70
     1
102
RTVSPropertyOp5
 70
     1
102
RTVSPropertyOp6
 70
     1
102
RTVSPropertyOp7
 70
     1
102
RTVSPropertyOp8
 70
     1
102
RTVSPropertyOp9
 70
     1
102
RTVSPropertyOp10
 70
     1
102
RTVSPropertyOp11
 70
     1
102
RTVSPropertyOp12
 70
     1
102
RTVSPropertyOp13
 70
     1
102
RTVSPropertyOp14
 70
     1
102
RTVSPropertyOp15
 70
     1
102
RTVSPropertyOp16
 70
     1
102
RTVSPropertyOp17
 70
     1
102
RTVSPropertyOp18
 70
     1
102
RTVSPropertyOp19
 70
     1
102
RTVSPropertyOp20
 70
     1
102
RTVSPropertyOp21
 70
     1
102
RTVSPropertyOp22
 70
     1
102
RTVSPropertyOp23
 70
     1
102
RTVSPropertyOp24
 70
     1
102
RTVSPropertyOp25
 70
     1
102
RTVSPropertyOp26
 70
     1
102
RTVSPropertyOp27
 70
     1
102
RTVSPropertyOp28
 70
     1
102
RTVSPropertyOp29
 70
     1
102
RTVSPropertyOp30
 70
     1
102
RTVSPropertyOp31
 70
     1
102
RTVSPropertyOp32
 70
     1
102
RTVSPropertyOp33
 70
     1
102
RTVSPropertyOp34
 70
     1
102
RTVSPropertyOp35
 70
     1
102
RTVSPropertyOp36
 70
     1
102
RTVSPropertyOp37
 70
     1
102
RTVSPropertyOp38
 70
     1
102
RTVSPropertyOp39
 70
     1
102
RTVSPropertyOp40
 70
     1
102
RTVSPropertyOp41
 70
     1
102
RTVSPropertyOp42
 70
     1
102
RTVSPropertyOp43
 70
     1
102
RTVSPropertyOp44
 70
     1
102
RTVSPropertyOp45
 70
     1
102
RTVSPropertyOp46
 70
     1
102
RTVSPropertyOp47
 70
     1
102
RTVSPropertyOp48
 70
     1
102
RTVSPropertyOp49
 70
     1
102
RTVSPropertyOp50
 70
     1
102
RTVSPropertyOp51
 70
     0
102
RTVSPropertyOp52
 70
     0
102
RTVSPropertyOp53
 70
     1
102
RTVSPropertyOp54
 70
     1
102
RTVSPropertyOp55
 70
     1
102
RTVSPropertyOp56
 70
     1
102
RTVSPropertyOp57
 70
     1
102
RTVSPropertyOp58
 70
     1
102
RTVSPropertyOp59
 70
     1
102
RTVSPropertyOp60
 70
     1
102
RTVSPropertyOp61
 70
     1
102
RTVSPropertyOp62
 70
     1
  0
XRECORD
  5
173F
102
{ACAD_REACTORS
330
173E
102
}
330
173E
100
AcDbXrecord
280
     1
102
RTVSPost2010Prop28
280
     0
102
RTVSPost2010PropOp28
 70
     0
102
RTVSPost2010Prop29
280
     1
102
RTVSPost2010PropOp29
 70
     0
102
RTVSPost2010Prop30
280
     1
102
RTVSPost2010PropOp30
 70
     0
102
RTVSPost2010Prop31
280
     0
102
RTVSPost2010PropOp31
 70
     0
102
RTVSPost2010Prop32
280
     0
102
RTVSPost2010PropOp32
 70
     0
102
RTVSPost2010Prop33
280
     0
102
RTVSPost2010PropOp33
 70
     0
102
RTVSPost2010Prop34
280
     0
102
RTVSPost2010PropOp34
 70
     0
102
RTVSPost2010Prop35
280
     0
102
RTVSPost2010PropOp35
 70
     0
102
RTVSPost2010Prop36
280
     0
102
RTVSPost2010PropOp36
 70
     0
102
RTVSPost2010Prop37
 90
       50
102
RTVSPost2010PropOp37
 70
     0
102
RTVSPost2010Prop38
140
0.0
102
RTVSPost2010PropOp38
 70
     0
102
RTVSPost2010Prop39
140
1.0
102
RTVSPost2010PropOp39
 70
     0
102
RTVSPost2010Prop40
 90
        0
102
RTVSPost2010PropOp40
 70
     0
102
RTVSPost2010Prop41ColorIndex
 90
       18
102
RTVSPost2010Prop41ColorRGB
 90
-16777216
102
RTVSPost2010PropOp41
 70
     0
102
RTVSPost2010Prop42
 90
       50
102
RTVSPost2010PropOp42
 70
     0
102
RTVSPost2010Prop43
 90
        3
102
RTVSPost2010PropOp43
 70
     0
102
RTVSPost2010Prop44ColorIndex
 90
        5
102
RTVSPost2010Prop44ColorRGB
 90
      255
102
RTVSPost2010PropOp44
 70
     0
102
RTVSPost2010Prop45
280
     0
102
RTVSPost2010PropOp45
 70
     0
102
RTVSPost2010Prop46
 90
       50
102
RTVSPost2010PropOp46
 70
     0
102
RTVSPost2010Prop47
 90
       50
102
RTVSPost2010PropOp47
 70
     0
102
RTVSPost2010Prop48
 90
       50
102
RTVSPost2010PropOp48
 70
     0
102
RTVSPost2010Prop49
280
     0
102
RTVSPost2010PropOp49
 70
     0
102
RTVSPost2010Prop50
 90
       50
102
RTVSPost2010PropOp50
 70
     0
102
RTVSPost2010Prop51ColorIndex
 90
      256
102
RTVSPost2010Prop51ColorRGB
 90
-16777216
102
RTVSPost2010PropOp51
 70
     0
102
RTVSPost2010Prop52
140
1.0
102
RTVSPost2010PropOp52
 70
     0
102
RTVSPost2010Prop53
 90
        2
102
RTVSPost2010PropOp53
 70
     0
102
RTVSPost2010Prop54
  1
strokes_ogs.tif
102
RTVSPost2010PropOp54
 70
     0
102
RTVSPost2010Prop55
280
     0
102
RTVSPost2010PropOp55
 70
     0
102
RTVSPost2010Prop56
140
1.0
102
RTVSPost2010PropOp56
 70
     0
102
RTVSPost2010Prop57
140
1.0
102
RTVSPost2010PropOp57
 70
     0
102
RTVSPropertyOp0
 70
     0
102
RTVSPropertyOp1
 70
     0
102
RTVSPropertyOp2
 70
     0
102
RTVSPropertyOp3
 70
     0
102
RTVSPropertyOp4
 70
     0
102
RTVSPropertyOp5
 70
     0
102
RTVSPropertyOp6
 70
     0
102
RTVSPropertyOp7
 70
     0
102
RTVSPropertyOp8
 70
     0
102
RTVSPropertyOp9
 70
     0
102
RTVSPropertyOp10
 70
     0
102
RTVSPropertyOp11
 70
     0
102
RTVSPropertyOp12
 70
     0
102
RTVSPropertyOp13
 70
     0
102
RTVSPropertyOp14
 70
     2
102
RTVSPropertyOp15
 70
     0
102
RTVSPropertyOp16
 70
     0
102
RTVSPropertyOp17
 70
     0
102
RTVSPropertyOp18
 70
     0
102
RTVSPropertyOp19
 70
     0
102
RTVSPropertyOp20
 70
     0
102
RTVSPropertyOp21
 70
     0
102
RTVSPropertyOp22
 70
     0
102
RTVSPropertyOp23
 70
     0
102
RTVSPropertyOp24
 70
     0
102
RTVSPropertyOp25
 70
     0
102
RTVSPropertyOp26
 70
     0
102
RTVSPropertyOp27
 70
     0
102
RTVSPropertyOp28
 70
     0
102
RTVSPropertyOp29
 70
     0
102
RTVSPropertyOp30
 70
     0
102
RTVSPropertyOp31
 70
     0
102
RTVSPropertyOp32
 70
     0
102
RTVSPropertyOp33
 70
     0
102
RTVSPropertyOp34
 70
     0
102
RTVSPropertyOp35
 70
     0
102
RTVSPropertyOp36
 70
     0
102
RTVSPropertyOp37
 70
     0
102
RTVSPropertyOp38
 70
     0
102
RTVSPropertyOp39
 70
     0
102
RTVSPropertyOp40
 70
     0
102
RTVSPropertyOp41
 70
     0
102
RTVSPropertyOp42
 70
     0
102
RTVSPropertyOp43
 70
     0
102
RTVSPropertyOp44
 70
     0
102
RTVSPropertyOp45
 70
     0
102
RTVSPropertyOp46
 70
     0
102
RTVSPropertyOp47
 70
     0
102
RTVSPropertyOp48
 70
     0
102
RTVSPropertyOp49
 70
     0
102
RTVSPropertyOp50
 70
     0
102
RTVSPropertyOp51
 70
     0
102
RTVSPropertyOp52
 70
     0
102
RTVSPropertyOp53
 70
     0
102
RTVSPropertyOp54
 70
     0
102
RTVSPropertyOp55
 70
     0
102
RTVSPropertyOp56
 70
     0
102
RTVSPropertyOp57
 70
     0
102
RTVSPropertyOp58
 70
     1
102
RTVSPropertyOp59
 70
     1
102
RTVSPropertyOp60
 70
     1
102
RTVSPropertyOp61
 70
     1
102
RTVSPropertyOp62
 70
     1
  0
XRECORD
  5
1725
102
{ACAD_REACTORS
330
1724
102
}
330
1724
100
AcDbXrecord
280
     1
102
RTVSPost2010Prop28
280
     0
102
RTVSPost2010PropOp28
 70
     1
102
RTVSPost2010Prop29
280
     1
102
RTVSPost2010PropOp29
 70
     1
102
RTVSPost2010Prop30
280
     1
102
RTVSPost2010PropOp30
 70
     1
102
RTVSPost2010Prop31
280
     0
102
RTVSPost2010PropOp31
 70
     1
102
RTVSPost2010Prop32
280
     0
102
RTVSPost2010PropOp32
 70
     1
102
RTVSPost2010Prop33
280
     0
102
RTVSPost2010PropOp33
 70
     1
102
RTVSPost2010Prop34
280
     0
102
RTVSPost2010PropOp34
 70
     1
102
RTVSPost2010Prop35
280
     0
102
RTVSPost2010PropOp35
 70
     1
102
RTVSPost2010Prop36
280
     0
102
RTVSPost2010PropOp36
 70
     1
102
RTVSPost2010Prop37
 90
       50
102
RTVSPost2010PropOp37
 70
     1
102
RTVSPost2010Prop38
140
0.0
102
RTVSPost2010PropOp38
 70
     1
102
RTVSPost2010Prop39
140
1.0
102
RTVSPost2010PropOp39
 70
     1
102
RTVSPost2010Prop40
 90
        0
102
RTVSPost2010PropOp40
 70
     1
102
RTVSPost2010Prop41ColorIndex
 90
       18
102
RTVSPost2010Prop41ColorRGB
 90
-16777216
102
RTVSPost2010PropOp41
 70
     1
102
RTVSPost2010Prop42
 90
       50
102
RTVSPost2010PropOp42
 70
     1
102
RTVSPost2010Prop43
 90
        3
102
RTVSPost2010PropOp43
 70
     1
102
RTVSPost2010Prop44ColorIndex
 90
        5
102
RTVSPost2010Prop44ColorRGB
 90
      255
102
RTVSPost2010PropOp44
 70
     1
102
RTVSPost2010Prop45
280
     0
102
RTVSPost2010PropOp45
 70
     1
102
RTVSPost2010Prop46
 90
       50
102
RTVSPost2010PropOp46
 70
     1
102
RTVSPost2010Prop47
 90
       50
102
RTVSPost2010PropOp47
 70
     1
102
RTVSPost2010Prop48
 90
       50
102
RTVSPost2010PropOp48
 70
     1
102
RTVSPost2010Prop49
280
     0
102
RTVSPost2010PropOp49
 70
     1
102
RTVSPost2010Prop50
 90
       50
102
RTVSPost2010PropOp50
 70
     1
102
RTVSPost2010Prop51ColorIndex
 90
      256
102
RTVSPost2010Prop51ColorRGB
 90
-16777216
102
RTVSPost2010PropOp51
 70
     0
102
RTVSPost2010Prop52
140
1.0
102
RTVSPost2010PropOp52
 70
     0
102
RTVSPost2010Prop53
 90
        2
102
RTVSPost2010PropOp53
 70
     1
102
RTVSPost2010Prop54
  1
strokes_ogs.tif
102
RTVSPost2010PropOp54
 70
     1
102
RTVSPost2010Prop55
280
     0
102
RTVSPost2010PropOp55
 70
     1
102
RTVSPost2010Prop56
140
1.0
102
RTVSPost2010PropOp56
 70
     1
102
RTVSPost2010Prop57
140
1.0
102
RTVSPost2010PropOp57
 70
     1
102
RTVSPropertyOp0
 70
     1
102
RTVSPropertyOp1
 70
     1
102
RTVSPropertyOp2
 70
     1
102
RTVSPropertyOp3
 70
     1
102
RTVSPropertyOp4
 70
     1
102
RTVSPropertyOp5
 70
     1
102
RTVSPropertyOp6
 70
     1
102
RTVSPropertyOp7
 70
     1
102
RTVSPropertyOp8
 70
     1
102
RTVSPropertyOp9
 70
     1
102
RTVSPropertyOp10
 70
     1
102
RTVSPropertyOp11
 70
     1
102
RTVSPropertyOp12
 70
     1
102
RTVSPropertyOp13
 70
     1
102
RTVSPropertyOp14
 70
     1
102
RTVSPropertyOp15
 70
     1
102
RTVSPropertyOp16
 70
     1
102
RTVSPropertyOp17
 70
     1
102
RTVSPropertyOp18
 70
     1
102
RTVSPropertyOp19
 70
     1
102
RTVSPropertyOp20
 70
     1
102
RTVSPropertyOp21
 70
     1
102
RTVSPropertyOp22
 70
     1
102
RTVSPropertyOp23
 70
     1
102
RTVSPropertyOp24
 70
     1
102
RTVSPropertyOp25
 70
     1
102
RTVSPropertyOp26
 70
     1
102
RTVSPropertyOp27
 70
     1
102
RTVSPropertyOp28
 70
     1
102
RTVSPropertyOp29
 70
     1
102
RTVSPropertyOp30
 70
     1
102
RTVSPropertyOp31
 70
     1
102
RTVSPropertyOp32
 70
     1
102
RTVSPropertyOp33
 70
     1
102
RTVSPropertyOp34
 70
     1
102
RTVSPropertyOp35
 70
     1
102
RTVSPropertyOp36
 70
     1
102
RTVSPropertyOp37
 70
     1
102
RTVSPropertyOp38
 70
     1
102
RTVSPropertyOp39
 70
     1
102
RTVSPropertyOp40
 70
     1
102
RTVSPropertyOp41
 70
     1
102
RTVSPropertyOp42
 70
     1
102
RTVSPropertyOp43
 70
     1
102
RTVSPropertyOp44
 70
     1
102
RTVSPropertyOp45
 70
     1
102
RTVSPropertyOp46
 70
     1
102
RTVSPropertyOp47
 70
     1
102
RTVSPropertyOp48
 70
     1
102
RTVSPropertyOp49
 70
     1
102
RTVSPropertyOp50
 70
     1
102
RTVSPropertyOp51
 70
     0
102
RTVSPropertyOp52
 70
     0
102
RTVSPropertyOp53
 70
     1
102
RTVSPropertyOp54
 70
     1
102
RTVSPropertyOp55
 70
     1
102
RTVSPropertyOp56
 70
     1
102
RTVSPropertyOp57
 70
     1
102
RTVSPropertyOp58
 70
     1
102
RTVSPropertyOp59
 70
     1
102
RTVSPropertyOp60
 70
     1
102
RTVSPropertyOp61
 70
     1
102
RTVSPropertyOp62
 70
     1
  0
XRECORD
  5
173B
102
{ACAD_REACTORS
330
173A
102
}
330
173A
100
AcDbXrecord
280
     1
102
RTVSPost2010Prop28
280
     0
102
RTVSPost2010PropOp28
 70
     1
102
RTVSPost2010Prop29
280
     1
102
RTVSPost2010PropOp29
 70
     1
102
RTVSPost2010Prop30
280
     1
102
RTVSPost2010PropOp30
 70
     1
102
RTVSPost2010Prop31
280
     0
102
RTVSPost2010PropOp31
 70
     1
102
RTVSPost2010Prop32
280
     0
102
RTVSPost2010PropOp32
 70
     1
102
RTVSPost2010Prop33
280
     0
102
RTVSPost2010PropOp33
 70
     1
102
RTVSPost2010Prop34
280
     0
102
RTVSPost2010PropOp34
 70
     1
102
RTVSPost2010Prop35
280
     0
102
RTVSPost2010PropOp35
 70
     1
102
RTVSPost2010Prop36
280
     0
102
RTVSPost2010PropOp36
 70
     1
102
RTVSPost2010Prop37
 90
       50
102
RTVSPost2010PropOp37
 70
     1
102
RTVSPost2010Prop38
140
0.0
102
RTVSPost2010PropOp38
 70
     1
102
RTVSPost2010Prop39
140
1.0
102
RTVSPost2010PropOp39
 70
     1
102
RTVSPost2010Prop40
 90
        0
102
RTVSPost2010PropOp40
 70
     1
102
RTVSPost2010Prop41ColorIndex
 90
       18
102
RTVSPost2010Prop41ColorRGB
 90
-16777216
102
RTVSPost2010PropOp41
 70
     1
102
RTVSPost2010Prop42
 90
       50
102
RTVSPost2010PropOp42
 70
     1
102
RTVSPost2010Prop43
 90
        3
102
RTVSPost2010PropOp43
 70
     1
102
RTVSPost2010Prop44ColorIndex
 90
        5
102
RTVSPost2010Prop44ColorRGB
 90
      255
102
RTVSPost2010PropOp44
 70
     1
102
RTVSPost2010Prop45
280
     0
102
RTVSPost2010PropOp45
 70
     1
102
RTVSPost2010Prop46
 90
       50
102
RTVSPost2010PropOp46
 70
     1
102
RTVSPost2010Prop47
 90
       50
102
RTVSPost2010PropOp47
 70
     1
102
RTVSPost2010Prop48
 90
       50
102
RTVSPost2010PropOp48
 70
     1
102
RTVSPost2010Prop49
280
     0
102
RTVSPost2010PropOp49
 70
     1
102
RTVSPost2010Prop50
 90
       50
102
RTVSPost2010PropOp50
 70
     1
102
RTVSPost2010Prop51ColorIndex
 90
      256
102
RTVSPost2010Prop51ColorRGB
 90
-16777216
102
RTVSPost2010PropOp51
 70
     0
102
RTVSPost2010Prop52
140
1.0
102
RTVSPost2010PropOp52
 70
     0
102
RTVSPost2010Prop53
 90
        2
102
RTVSPost2010PropOp53
 70
     1
102
RTVSPost2010Prop54
  1
strokes_ogs.tif
102
RTVSPost2010PropOp54
 70
     1
102
RTVSPost2010Prop55
280
     0
102
RTVSPost2010PropOp55
 70
     1
102
RTVSPost2010Prop56
140
1.0
102
RTVSPost2010PropOp56
 70
     1
102
RTVSPost2010Prop57
140
1.0
102
RTVSPost2010PropOp57
 70
     1
102
RTVSPropertyOp0
 70
     1
102
RTVSPropertyOp1
 70
     1
102
RTVSPropertyOp2
 70
     1
102
RTVSPropertyOp3
 70
     1
102
RTVSPropertyOp4
 70
     1
102
RTVSPropertyOp5
 70
     1
102
RTVSPropertyOp6
 70
     1
102
RTVSPropertyOp7
 70
     1
102
RTVSPropertyOp8
 70
     1
102
RTVSPropertyOp9
 70
     1
102
RTVSPropertyOp10
 70
     1
102
RTVSPropertyOp11
 70
     1
102
RTVSPropertyOp12
 70
     1
102
RTVSPropertyOp13
 70
     1
102
RTVSPropertyOp14
 70
     1
102
RTVSPropertyOp15
 70
     1
102
RTVSPropertyOp16
 70
     1
102
RTVSPropertyOp17
 70
     1
102
RTVSPropertyOp18
 70
     1
102
RTVSPropertyOp19
 70
     1
102
RTVSPropertyOp20
 70
     1
102
RTVSPropertyOp21
 70
     1
102
RTVSPropertyOp22
 70
     1
102
RTVSPropertyOp23
 70
     1
102
RTVSPropertyOp24
 70
     1
102
RTVSPropertyOp25
 70
     1
102
RTVSPropertyOp26
 70
     1
102
RTVSPropertyOp27
 70
     1
102
RTVSPropertyOp28
 70
     1
102
RTVSPropertyOp29
 70
     1
102
RTVSPropertyOp30
 70
     1
102
RTVSPropertyOp31
 70
     1
102
RTVSPropertyOp32
 70
     1
102
RTVSPropertyOp33
 70
     1
102
RTVSPropertyOp34
 70
     1
102
RTVSPropertyOp35
 70
     1
102
RTVSPropertyOp36
 70
     1
102
RTVSPropertyOp37
 70
     1
102
RTVSPropertyOp38
 70
     1
102
RTVSPropertyOp39
 70
     1
102
RTVSPropertyOp40
 70
     1
102
RTVSPropertyOp41
 70
     1
102
RTVSPropertyOp42
 70
     1
102
RTVSPropertyOp43
 70
     1
102
RTVSPropertyOp44
 70
     1
102
RTVSPropertyOp45
 70
     1
102
RTVSPropertyOp46
 70
     1
102
RTVSPropertyOp47
 70
     1
102
RTVSPropertyOp48
 70
     1
102
RTVSPropertyOp49
 70
     1
102
RTVSPropertyOp50
 70
     1
102
RTVSPropertyOp51
 70
     0
102
RTVSPropertyOp52
 70
     0
102
RTVSPropertyOp53
 70
     1
102
RTVSPropertyOp54
 70
     1
102
RTVSPropertyOp55
 70
     1
102
RTVSPropertyOp56
 70
     1
102
RTVSPropertyOp57
 70
     1
102
RTVSPropertyOp58
 70
     1
102
RTVSPropertyOp59
 70
     1
102
RTVSPropertyOp60
 70
     1
102
RTVSPropertyOp61
 70
     1
102
RTVSPropertyOp62
 70
     1
  0
XRECORD
  5
1739
102
{ACAD_REACTORS
330
1738
102
}
330
1738
100
AcDbXrecord
280
     1
102
RTVSPost2010Prop28
280
     0
102
RTVSPost2010PropOp28
 70
     1
102
RTVSPost2010Prop29
280
     1
102
RTVSPost2010PropOp29
 70
     1
102
RTVSPost2010Prop30
280
     1
102
RTVSPost2010PropOp30
 70
     1
102
RTVSPost2010Prop31
280
     0
102
RTVSPost2010PropOp31
 70
     1
102
RTVSPost2010Prop32
280
     0
102
RTVSPost2010PropOp32
 70
     1
102
RTVSPost2010Prop33
280
     0
102
RTVSPost2010PropOp33
 70
     1
102
RTVSPost2010Prop34
280
     0
102
RTVSPost2010PropOp34
 70
     1
102
RTVSPost2010Prop35
280
     0
102
RTVSPost2010PropOp35
 70
     1
102
RTVSPost2010Prop36
280
     0
102
RTVSPost2010PropOp36
 70
     1
102
RTVSPost2010Prop37
 90
       50
102
RTVSPost2010PropOp37
 70
     1
102
RTVSPost2010Prop38
140
0.0
102
RTVSPost2010PropOp38
 70
     1
102
RTVSPost2010Prop39
140
1.0
102
RTVSPost2010PropOp39
 70
     1
102
RTVSPost2010Prop40
 90
        0
102
RTVSPost2010PropOp40
 70
     1
102
RTVSPost2010Prop41ColorIndex
 90
       18
102
RTVSPost2010Prop41ColorRGB
 90
-16777216
102
RTVSPost2010PropOp41
 70
     1
102
RTVSPost2010Prop42
 90
       50
102
RTVSPost2010PropOp42
 70
     1
102
RTVSPost2010Prop43
 90
        3
102
RTVSPost2010PropOp43
 70
     1
102
RTVSPost2010Prop44ColorIndex
 90
        5
102
RTVSPost2010Prop44ColorRGB
 90
      255
102
RTVSPost2010PropOp44
 70
     1
102
RTVSPost2010Prop45
280
     0
102
RTVSPost2010PropOp45
 70
     1
102
RTVSPost2010Prop46
 90
       50
102
RTVSPost2010PropOp46
 70
     1
102
RTVSPost2010Prop47
 90
       50
102
RTVSPost2010PropOp47
 70
     1
102
RTVSPost2010Prop48
 90
       50
102
RTVSPost2010PropOp48
 70
     1
102
RTVSPost2010Prop49
280
     0
102
RTVSPost2010PropOp49
 70
     1
102
RTVSPost2010Prop50
 90
       50
102
RTVSPost2010PropOp50
 70
     1
102
RTVSPost2010Prop51ColorIndex
 90
      256
102
RTVSPost2010Prop51ColorRGB
 90
-16777216
102
RTVSPost2010PropOp51
 70
     0
102
RTVSPost2010Prop52
140
1.0
102
RTVSPost2010PropOp52
 70
     0
102
RTVSPost2010Prop53
 90
        2
102
RTVSPost2010PropOp53
 70
     1
102
RTVSPost2010Prop54
  1
strokes_ogs.tif
102
RTVSPost2010PropOp54
 70
     1
102
RTVSPost2010Prop55
280
     0
102
RTVSPost2010PropOp55
 70
     1
102
RTVSPost2010Prop56
140
1.0
102
RTVSPost2010PropOp56
 70
     1
102
RTVSPost2010Prop57
140
1.0
102
RTVSPost2010PropOp57
 70
     1
102
RTVSPropertyOp0
 70
     1
102
RTVSPropertyOp1
 70
     1
102
RTVSPropertyOp2
 70
     1
102
RTVSPropertyOp3
 70
     1
102
RTVSPropertyOp4
 70
     1
102
RTVSPropertyOp5
 70
     1
102
RTVSPropertyOp6
 70
     1
102
RTVSPropertyOp7
 70
     1
102
RTVSPropertyOp8
 70
     1
102
RTVSPropertyOp9
 70
     1
102
RTVSPropertyOp10
 70
     1
102
RTVSPropertyOp11
 70
     1
102
RTVSPropertyOp12
 70
     1
102
RTVSPropertyOp13
 70
     1
102
RTVSPropertyOp14
 70
     1
102
RTVSPropertyOp15
 70
     1
102
RTVSPropertyOp16
 70
     1
102
RTVSPropertyOp17
 70
     1
102
RTVSPropertyOp18
 70
     1
102
RTVSPropertyOp19
 70
     1
102
RTVSPropertyOp20
 70
     1
102
RTVSPropertyOp21
 70
     1
102
RTVSPropertyOp22
 70
     1
102
RTVSPropertyOp23
 70
     1
102
RTVSPropertyOp24
 70
     1
102
RTVSPropertyOp25
 70
     1
102
RTVSPropertyOp26
 70
     1
102
RTVSPropertyOp27
 70
     1
102
RTVSPropertyOp28
 70
     1
102
RTVSPropertyOp29
 70
     1
102
RTVSPropertyOp30
 70
     1
102
RTVSPropertyOp31
 70
     1
102
RTVSPropertyOp32
 70
     1
102
RTVSPropertyOp33
 70
     1
102
RTVSPropertyOp34
 70
     1
102
RTVSPropertyOp35
 70
     1
102
RTVSPropertyOp36
 70
     1
102
RTVSPropertyOp37
 70
     1
102
RTVSPropertyOp38
 70
     1
102
RTVSPropertyOp39
 70
     1
102
RTVSPropertyOp40
 70
     1
102
RTVSPropertyOp41
 70
     1
102
RTVSPropertyOp42
 70
     1
102
RTVSPropertyOp43
 70
     1
102
RTVSPropertyOp44
 70
     1
102
RTVSPropertyOp45
 70
     1
102
RTVSPropertyOp46
 70
     1
102
RTVSPropertyOp47
 70
     1
102
RTVSPropertyOp48
 70
     1
102
RTVSPropertyOp49
 70
     1
102
RTVSPropertyOp50
 70
     1
102
RTVSPropertyOp51
 70
     0
102
RTVSPropertyOp52
 70
     0
102
RTVSPropertyOp53
 70
     1
102
RTVSPropertyOp54
 70
     1
102
RTVSPropertyOp55
 70
     1
102
RTVSPropertyOp56
 70
     1
102
RTVSPropertyOp57
 70
     1
102
RTVSPropertyOp58
 70
     1
102
RTVSPropertyOp59
 70
     1
102
RTVSPropertyOp60
 70
     1
102
RTVSPropertyOp61
 70
     1
102
RTVSPropertyOp62
 70
     1
  0
XRECORD
  5
1733
102
{ACAD_REACTORS
330
1732
102
}
330
1732
100
AcDbXrecord
280
     1
102
RTVSPost2010Prop28
280
     0
102
RTVSPost2010PropOp28
 70
     1
102
RTVSPost2010Prop29
280
     1
102
RTVSPost2010PropOp29
 70
     1
102
RTVSPost2010Prop30
280
     1
102
RTVSPost2010PropOp30
 70
     1
102
RTVSPost2010Prop31
280
     0
102
RTVSPost2010PropOp31
 70
     1
102
RTVSPost2010Prop32
280
     0
102
RTVSPost2010PropOp32
 70
     1
102
RTVSPost2010Prop33
280
     0
102
RTVSPost2010PropOp33
 70
     1
102
RTVSPost2010Prop34
280
     0
102
RTVSPost2010PropOp34
 70
     1
102
RTVSPost2010Prop35
280
     0
102
RTVSPost2010PropOp35
 70
     1
102
RTVSPost2010Prop36
280
     0
102
RTVSPost2010PropOp36
 70
     1
102
RTVSPost2010Prop37
 90
       50
102
RTVSPost2010PropOp37
 70
     1
102
RTVSPost2010Prop38
140
0.0
102
RTVSPost2010PropOp38
 70
     1
102
RTVSPost2010Prop39
140
1.0
102
RTVSPost2010PropOp39
 70
     1
102
RTVSPost2010Prop40
 90
        0
102
RTVSPost2010PropOp40
 70
     1
102
RTVSPost2010Prop41ColorIndex
 90
       18
102
RTVSPost2010Prop41ColorRGB
 90
-16777216
102
RTVSPost2010PropOp41
 70
     1
102
RTVSPost2010Prop42
 90
       50
102
RTVSPost2010PropOp42
 70
     1
102
RTVSPost2010Prop43
 90
        3
102
RTVSPost2010PropOp43
 70
     1
102
RTVSPost2010Prop44ColorIndex
 90
        5
102
RTVSPost2010Prop44ColorRGB
 90
      255
102
RTVSPost2010PropOp44
 70
     1
102
RTVSPost2010Prop45
280
     0
102
RTVSPost2010PropOp45
 70
     1
102
RTVSPost2010Prop46
 90
       50
102
RTVSPost2010PropOp46
 70
     1
102
RTVSPost2010Prop47
 90
       50
102
RTVSPost2010PropOp47
 70
     1
102
RTVSPost2010Prop48
 90
       50
102
RTVSPost2010PropOp48
 70
     1
102
RTVSPost2010Prop49
280
     0
102
RTVSPost2010PropOp49
 70
     1
102
RTVSPost2010Prop50
 90
       50
102
RTVSPost2010PropOp50
 70
     1
102
RTVSPost2010Prop51ColorIndex
 90
      256
102
RTVSPost2010Prop51ColorRGB
 90
-16777216
102
RTVSPost2010PropOp51
 70
     0
102
RTVSPost2010Prop52
140
1.0
102
RTVSPost2010PropOp52
 70
     0
102
RTVSPost2010Prop53
 90
        2
102
RTVSPost2010PropOp53
 70
     1
102
RTVSPost2010Prop54
  1
strokes_ogs.tif
102
RTVSPost2010PropOp54
 70
     1
102
RTVSPost2010Prop55
280
     0
102
RTVSPost2010PropOp55
 70
     1
102
RTVSPost2010Prop56
140
1.0
102
RTVSPost2010PropOp56
 70
     1
102
RTVSPost2010Prop57
140
1.0
102
RTVSPost2010PropOp57
 70
     1
102
RTVSPropertyOp0
 70
     1
102
RTVSPropertyOp1
 70
     1
102
RTVSPropertyOp2
 70
     1
102
RTVSPropertyOp3
 70
     1
102
RTVSPropertyOp4
 70
     1
102
RTVSPropertyOp5
 70
     1
102
RTVSPropertyOp6
 70
     1
102
RTVSPropertyOp7
 70
     1
102
RTVSPropertyOp8
 70
     1
102
RTVSPropertyOp9
 70
     1
102
RTVSPropertyOp10
 70
     1
102
RTVSPropertyOp11
 70
     1
102
RTVSPropertyOp12
 70
     1
102
RTVSPropertyOp13
 70
     1
102
RTVSPropertyOp14
 70
     1
102
RTVSPropertyOp15
 70
     1
102
RTVSPropertyOp16
 70
     1
102
RTVSPropertyOp17
 70
     1
102
RTVSPropertyOp18
 70
     1
102
RTVSPropertyOp19
 70
     1
102
RTVSPropertyOp20
 70
     1
102
RTVSPropertyOp21
 70
     1
102
RTVSPropertyOp22
 70
     1
102
RTVSPropertyOp23
 70
     1
102
RTVSPropertyOp24
 70
     1
102
RTVSPropertyOp25
 70
     1
102
RTVSPropertyOp26
 70
     1
102
RTVSPropertyOp27
 70
     1
102
RTVSPropertyOp28
 70
     1
102
RTVSPropertyOp29
 70
     1
102
RTVSPropertyOp30
 70
     1
102
RTVSPropertyOp31
 70
     1
102
RTVSPropertyOp32
 70
     1
102
RTVSPropertyOp33
 70
     1
102
RTVSPropertyOp34
 70
     1
102
RTVSPropertyOp35
 70
     1
102
RTVSPropertyOp36
 70
     1
102
RTVSPropertyOp37
 70
     1
102
RTVSPropertyOp38
 70
     1
102
RTVSPropertyOp39
 70
     1
102
RTVSPropertyOp40
 70
     1
102
RTVSPropertyOp41
 70
     1
102
RTVSPropertyOp42
 70
     1
102
RTVSPropertyOp43
 70
     1
102
RTVSPropertyOp44
 70
     1
102
RTVSPropertyOp45
 70
     1
102
RTVSPropertyOp46
 70
     1
102
RTVSPropertyOp47
 70
     1
102
RTVSPropertyOp48
 70
     1
102
RTVSPropertyOp49
 70
     1
102
RTVSPropertyOp50
 70
     1
102
RTVSPropertyOp51
 70
     0
102
RTVSPropertyOp52
 70
     0
102
RTVSPropertyOp53
 70
     1
102
RTVSPropertyOp54
 70
     1
102
RTVSPropertyOp55
 70
     1
102
RTVSPropertyOp56
 70
     1
102
RTVSPropertyOp57
 70
     1
102
RTVSPropertyOp58
 70
     1
102
RTVSPropertyOp59
 70
     1
102
RTVSPropertyOp60
 70
     1
102
RTVSPropertyOp61
 70
     1
102
RTVSPropertyOp62
 70
     1
  0
XRECORD
  5
1735
102
{ACAD_REACTORS
330
1734
102
}
330
1734
100
AcDbXrecord
280
     1
102
RTVSPost2010Prop28
280
     0
102
RTVSPost2010PropOp28
 70
     1
102
RTVSPost2010Prop29
280
     1
102
RTVSPost2010PropOp29
 70
     1
102
RTVSPost2010Prop30
280
     1
102
RTVSPost2010PropOp30
 70
     1
102
RTVSPost2010Prop31
280
     0
102
RTVSPost2010PropOp31
 70
     1
102
RTVSPost2010Prop32
280
     0
102
RTVSPost2010PropOp32
 70
     1
102
RTVSPost2010Prop33
280
     0
102
RTVSPost2010PropOp33
 70
     1
102
RTVSPost2010Prop34
280
     0
102
RTVSPost2010PropOp34
 70
     1
102
RTVSPost2010Prop35
280
     0
102
RTVSPost2010PropOp35
 70
     1
102
RTVSPost2010Prop36
280
     0
102
RTVSPost2010PropOp36
 70
     1
102
RTVSPost2010Prop37
 90
       50
102
RTVSPost2010PropOp37
 70
     1
102
RTVSPost2010Prop38
140
0.0
102
RTVSPost2010PropOp38
 70
     1
102
RTVSPost2010Prop39
140
1.0
102
RTVSPost2010PropOp39
 70
     1
102
RTVSPost2010Prop40
 90
        0
102
RTVSPost2010PropOp40
 70
     1
102
RTVSPost2010Prop41ColorIndex
 90
       18
102
RTVSPost2010Prop41ColorRGB
 90
-16777216
102
RTVSPost2010PropOp41
 70
     1
102
RTVSPost2010Prop42
 90
       50
102
RTVSPost2010PropOp42
 70
     1
102
RTVSPost2010Prop43
 90
        3
102
RTVSPost2010PropOp43
 70
     1
102
RTVSPost2010Prop44ColorIndex
 90
        5
102
RTVSPost2010Prop44ColorRGB
 90
      255
102
RTVSPost2010PropOp44
 70
     1
102
RTVSPost2010Prop45
280
     0
102
RTVSPost2010PropOp45
 70
     1
102
RTVSPost2010Prop46
 90
       50
102
RTVSPost2010PropOp46
 70
     1
102
RTVSPost2010Prop47
 90
       50
102
RTVSPost2010PropOp47
 70
     1
102
RTVSPost2010Prop48
 90
       50
102
RTVSPost2010PropOp48
 70
     1
102
RTVSPost2010Prop49
280
     0
102
RTVSPost2010PropOp49
 70
     1
102
RTVSPost2010Prop50
 90
       50
102
RTVSPost2010PropOp50
 70
     1
102
RTVSPost2010Prop51ColorIndex
 90
      256
102
RTVSPost2010Prop51ColorRGB
 90
-16777216
102
RTVSPost2010PropOp51
 70
     0
102
RTVSPost2010Prop52
140
1.0
102
RTVSPost2010PropOp52
 70
     0
102
RTVSPost2010Prop53
 90
        2
102
RTVSPost2010PropOp53
 70
     1
102
RTVSPost2010Prop54
  1
strokes_ogs.tif
102
RTVSPost2010PropOp54
 70
     1
102
RTVSPost2010Prop55
280
     0
102
RTVSPost2010PropOp55
 70
     1
102
RTVSPost2010Prop56
140
1.0
102
RTVSPost2010PropOp56
 70
     1
102
RTVSPost2010Prop57
140
1.0
102
RTVSPost2010PropOp57
 70
     1
102
RTVSPropertyOp0
 70
     1
102
RTVSPropertyOp1
 70
     1
102
RTVSPropertyOp2
 70
     1
102
RTVSPropertyOp3
 70
     1
102
RTVSPropertyOp4
 70
     1
102
RTVSPropertyOp5
 70
     1
102
RTVSPropertyOp6
 70
     1
102
RTVSPropertyOp7
 70
     1
102
RTVSPropertyOp8
 70
     1
102
RTVSPropertyOp9
 70
     1
102
RTVSPropertyOp10
 70
     1
102
RTVSPropertyOp11
 70
     1
102
RTVSPropertyOp12
 70
     1
102
RTVSPropertyOp13
 70
     1
102
RTVSPropertyOp14
 70
     1
102
RTVSPropertyOp15
 70
     1
102
RTVSPropertyOp16
 70
     1
102
RTVSPropertyOp17
 70
     1
102
RTVSPropertyOp18
 70
     1
102
RTVSPropertyOp19
 70
     1
102
RTVSPropertyOp20
 70
     1
102
RTVSPropertyOp21
 70
     1
102
RTVSPropertyOp22
 70
     1
102
RTVSPropertyOp23
 70
     1
102
RTVSPropertyOp24
 70
     1
102
RTVSPropertyOp25
 70
     1
102
RTVSPropertyOp26
 70
     1
102
RTVSPropertyOp27
 70
     1
102
RTVSPropertyOp28
 70
     1
102
RTVSPropertyOp29
 70
     1
102
RTVSPropertyOp30
 70
     1
102
RTVSPropertyOp31
 70
     1
102
RTVSPropertyOp32
 70
     1
102
RTVSPropertyOp33
 70
     1
102
RTVSPropertyOp34
 70
     1
102
RTVSPropertyOp35
 70
     1
102
RTVSPropertyOp36
 70
     1
102
RTVSPropertyOp37
 70
     1
102
RTVSPropertyOp38
 70
     1
102
RTVSPropertyOp39
 70
     1
102
RTVSPropertyOp40
 70
     1
102
RTVSPropertyOp41
 70
     1
102
RTVSPropertyOp42
 70
     1
102
RTVSPropertyOp43
 70
     1
102
RTVSPropertyOp44
 70
     1
102
RTVSPropertyOp45
 70
     1
102
RTVSPropertyOp46
 70
     1
102
RTVSPropertyOp47
 70
     1
102
RTVSPropertyOp48
 70
     1
102
RTVSPropertyOp49
 70
     1
102
RTVSPropertyOp50
 70
     1
102
RTVSPropertyOp51
 70
     0
102
RTVSPropertyOp52
 70
     0
102
RTVSPropertyOp53
 70
     1
102
RTVSPropertyOp54
 70
     1
102
RTVSPropertyOp55
 70
     1
102
RTVSPropertyOp56
 70
     1
102
RTVSPropertyOp57
 70
     1
102
RTVSPropertyOp58
 70
     1
102
RTVSPropertyOp59
 70
     1
102
RTVSPropertyOp60
 70
     1
102
RTVSPropertyOp61
 70
     1
102
RTVSPropertyOp62
 70
     1
  0
XRECORD
  5
172B
102
{ACAD_REACTORS
330
172A
102
}
330
172A
100
AcDbXrecord
280
     1
102
RTVSPost2010Prop28
280
     0
102
RTVSPost2010PropOp28
 70
     1
102
RTVSPost2010Prop29
280
     1
102
RTVSPost2010PropOp29
 70
     1
102
RTVSPost2010Prop30
280
     1
102
RTVSPost2010PropOp30
 70
     1
102
RTVSPost2010Prop31
280
     0
102
RTVSPost2010PropOp31
 70
     1
102
RTVSPost2010Prop32
280
     0
102
RTVSPost2010PropOp32
 70
     1
102
RTVSPost2010Prop33
280
     0
102
RTVSPost2010PropOp33
 70
     1
102
RTVSPost2010Prop34
280
     0
102
RTVSPost2010PropOp34
 70
     1
102
RTVSPost2010Prop35
280
     0
102
RTVSPost2010PropOp35
 70
     1
102
RTVSPost2010Prop36
280
     0
102
RTVSPost2010PropOp36
 70
     1
102
RTVSPost2010Prop37
 90
       50
102
RTVSPost2010PropOp37
 70
     1
102
RTVSPost2010Prop38
140
0.0
102
RTVSPost2010PropOp38
 70
     1
102
RTVSPost2010Prop39
140
1.0
102
RTVSPost2010PropOp39
 70
     1
102
RTVSPost2010Prop40
 90
        0
102
RTVSPost2010PropOp40
 70
     1
102
RTVSPost2010Prop41ColorIndex
 90
       18
102
RTVSPost2010Prop41ColorRGB
 90
-16777216
102
RTVSPost2010PropOp41
 70
     1
102
RTVSPost2010Prop42
 90
       50
102
RTVSPost2010PropOp42
 70
     1
102
RTVSPost2010Prop43
 90
        3
102
RTVSPost2010PropOp43
 70
     1
102
RTVSPost2010Prop44ColorIndex
 90
        5
102
RTVSPost2010Prop44ColorRGB
 90
      255
102
RTVSPost2010PropOp44
 70
     1
102
RTVSPost2010Prop45
280
     0
102
RTVSPost2010PropOp45
 70
     1
102
RTVSPost2010Prop46
 90
       50
102
RTVSPost2010PropOp46
 70
     1
102
RTVSPost2010Prop47
 90
       50
102
RTVSPost2010PropOp47
 70
     1
102
RTVSPost2010Prop48
 90
       50
102
RTVSPost2010PropOp48
 70
     1
102
RTVSPost2010Prop49
280
     0
102
RTVSPost2010PropOp49
 70
     1
102
RTVSPost2010Prop50
 90
       50
102
RTVSPost2010PropOp50
 70
     1
102
RTVSPost2010Prop51ColorIndex
 90
      256
102
RTVSPost2010Prop51ColorRGB
 90
-16777216
102
RTVSPost2010PropOp51
 70
     0
102
RTVSPost2010Prop52
140
1.0
102
RTVSPost2010PropOp52
 70
     0
102
RTVSPost2010Prop53
 90
        2
102
RTVSPost2010PropOp53
 70
     1
102
RTVSPost2010Prop54
  1
strokes_ogs.tif
102
RTVSPost2010PropOp54
 70
     1
102
RTVSPost2010Prop55
280
     0
102
RTVSPost2010PropOp55
 70
     1
102
RTVSPost2010Prop56
140
1.0
102
RTVSPost2010PropOp56
 70
     1
102
RTVSPost2010Prop57
140
1.0
102
RTVSPost2010PropOp57
 70
     1
102
RTVSPropertyOp0
 70
     1
102
RTVSPropertyOp1
 70
     1
102
RTVSPropertyOp2
 70
     1
102
RTVSPropertyOp3
 70
     1
102
RTVSPropertyOp4
 70
     1
102
RTVSPropertyOp5
 70
     1
102
RTVSPropertyOp6
 70
     1
102
RTVSPropertyOp7
 70
     1
102
RTVSPropertyOp8
 70
     1
102
RTVSPropertyOp9
 70
     1
102
RTVSPropertyOp10
 70
     1
102
RTVSPropertyOp11
 70
     1
102
RTVSPropertyOp12
 70
     1
102
RTVSPropertyOp13
 70
     1
102
RTVSPropertyOp14
 70
     1
102
RTVSPropertyOp15
 70
     1
102
RTVSPropertyOp16
 70
     1
102
RTVSPropertyOp17
 70
     1
102
RTVSPropertyOp18
 70
     1
102
RTVSPropertyOp19
 70
     1
102
RTVSPropertyOp20
 70
     1
102
RTVSPropertyOp21
 70
     1
102
RTVSPropertyOp22
 70
     1
102
RTVSPropertyOp23
 70
     1
102
RTVSPropertyOp24
 70
     1
102
RTVSPropertyOp25
 70
     1
102
RTVSPropertyOp26
 70
     1
102
RTVSPropertyOp27
 70
     1
102
RTVSPropertyOp28
 70
     1
102
RTVSPropertyOp29
 70
     1
102
RTVSPropertyOp30
 70
     1
102
RTVSPropertyOp31
 70
     1
102
RTVSPropertyOp32
 70
     1
102
RTVSPropertyOp33
 70
     1
102
RTVSPropertyOp34
 70
     1
102
RTVSPropertyOp35
 70
     1
102
RTVSPropertyOp36
 70
     1
102
RTVSPropertyOp37
 70
     1
102
RTVSPropertyOp38
 70
     1
102
RTVSPropertyOp39
 70
     1
102
RTVSPropertyOp40
 70
     1
102
RTVSPropertyOp41
 70
     1
102
RTVSPropertyOp42
 70
     1
102
RTVSPropertyOp43
 70
     1
102
RTVSPropertyOp44
 70
     1
102
RTVSPropertyOp45
 70
     1
102
RTVSPropertyOp46
 70
     1
102
RTVSPropertyOp47
 70
     1
102
RTVSPropertyOp48
 70
     1
102
RTVSPropertyOp49
 70
     1
102
RTVSPropertyOp50
 70
     1
102
RTVSPropertyOp51
 70
     0
102
RTVSPropertyOp52
 70
     0
102
RTVSPropertyOp53
 70
     1
102
RTVSPropertyOp54
 70
     1
102
RTVSPropertyOp55
 70
     1
102
RTVSPropertyOp56
 70
     1
102
RTVSPropertyOp57
 70
     1
102
RTVSPropertyOp58
 70
     1
102
RTVSPropertyOp59
 70
     1
102
RTVSPropertyOp60
 70
     1
102
RTVSPropertyOp61
 70
     1
102
RTVSPropertyOp62
 70
     1
  0
XRECORD
  5
171F
102
{ACAD_REACTORS
330
171E
102
}
330
171E
100
AcDbXrecord
280
     1
102
RTVSPost2010Prop28
280
     0
102
RTVSPost2010PropOp28
 70
     1
102
RTVSPost2010Prop29
280
     1
102
RTVSPost2010PropOp29
 70
     1
102
RTVSPost2010Prop30
280
     1
102
RTVSPost2010PropOp30
 70
     1
102
RTVSPost2010Prop31
280
     0
102
RTVSPost2010PropOp31
 70
     1
102
RTVSPost2010Prop32
280
     0
102
RTVSPost2010PropOp32
 70
     1
102
RTVSPost2010Prop33
280
     0
102
RTVSPost2010PropOp33
 70
     1
102
RTVSPost2010Prop34
280
     0
102
RTVSPost2010PropOp34
 70
     1
102
RTVSPost2010Prop35
280
     0
102
RTVSPost2010PropOp35
 70
     1
102
RTVSPost2010Prop36
280
     0
102
RTVSPost2010PropOp36
 70
     1
102
RTVSPost2010Prop37
 90
       50
102
RTVSPost2010PropOp37
 70
     1
102
RTVSPost2010Prop38
140
0.0
102
RTVSPost2010PropOp38
 70
     1
102
RTVSPost2010Prop39
140
1.0
102
RTVSPost2010PropOp39
 70
     1
102
RTVSPost2010Prop40
 90
        0
102
RTVSPost2010PropOp40
 70
     1
102
RTVSPost2010Prop41ColorIndex
 90
       18
102
RTVSPost2010Prop41ColorRGB
 90
-16777216
102
RTVSPost2010PropOp41
 70
     1
102
RTVSPost2010Prop42
 90
       50
102
RTVSPost2010PropOp42
 70
     1
102
RTVSPost2010Prop43
 90
        3
102
RTVSPost2010PropOp43
 70
     1
102
RTVSPost2010Prop44ColorIndex
 90
        5
102
RTVSPost2010Prop44ColorRGB
 90
      255
102
RTVSPost2010PropOp44
 70
     1
102
RTVSPost2010Prop45
280
     0
102
RTVSPost2010PropOp45
 70
     1
102
RTVSPost2010Prop46
 90
       50
102
RTVSPost2010PropOp46
 70
     1
102
RTVSPost2010Prop47
 90
       50
102
RTVSPost2010PropOp47
 70
     1
102
RTVSPost2010Prop48
 90
       50
102
RTVSPost2010PropOp48
 70
     1
102
RTVSPost2010Prop49
280
     0
102
RTVSPost2010PropOp49
 70
     1
102
RTVSPost2010Prop50
 90
       50
102
RTVSPost2010PropOp50
 70
     1
102
RTVSPost2010Prop51ColorIndex
 90
      256
102
RTVSPost2010Prop51ColorRGB
 90
-16777216
102
RTVSPost2010PropOp51
 70
     0
102
RTVSPost2010Prop52
140
1.0
102
RTVSPost2010PropOp52
 70
     0
102
RTVSPost2010Prop53
 90
        2
102
RTVSPost2010PropOp53
 70
     1
102
RTVSPost2010Prop54
  1
strokes_ogs.tif
102
RTVSPost2010PropOp54
 70
     1
102
RTVSPost2010Prop55
280
     0
102
RTVSPost2010PropOp55
 70
     1
102
RTVSPost2010Prop56
140
1.0
102
RTVSPost2010PropOp56
 70
     1
102
RTVSPost2010Prop57
140
1.0
102
RTVSPost2010PropOp57
 70
     1
102
RTVSPropertyOp0
 70
     1
102
RTVSPropertyOp1
 70
     1
102
RTVSPropertyOp2
 70
     1
102
RTVSPropertyOp3
 70
     1
102
RTVSPropertyOp4
 70
     1
102
RTVSPropertyOp5
 70
     1
102
RTVSPropertyOp6
 70
     1
102
RTVSPropertyOp7
 70
     1
102
RTVSPropertyOp8
 70
     1
102
RTVSPropertyOp9
 70
     1
102
RTVSPropertyOp10
 70
     1
102
RTVSPropertyOp11
 70
     1
102
RTVSPropertyOp12
 70
     1
102
RTVSPropertyOp13
 70
     1
102
RTVSPropertyOp14
 70
     1
102
RTVSPropertyOp15
 70
     1
102
RTVSPropertyOp16
 70
     1
102
RTVSPropertyOp17
 70
     1
102
RTVSPropertyOp18
 70
     1
102
RTVSPropertyOp19
 70
     1
102
RTVSPropertyOp20
 70
     1
102
RTVSPropertyOp21
 70
     1
102
RTVSPropertyOp22
 70
     1
102
RTVSPropertyOp23
 70
     1
102
RTVSPropertyOp24
 70
     1
102
RTVSPropertyOp25
 70
     1
102
RTVSPropertyOp26
 70
     1
102
RTVSPropertyOp27
 70
     1
102
RTVSPropertyOp28
 70
     1
102
RTVSPropertyOp29
 70
     1
102
RTVSPropertyOp30
 70
     1
102
RTVSPropertyOp31
 70
     1
102
RTVSPropertyOp32
 70
     1
102
RTVSPropertyOp33
 70
     1
102
RTVSPropertyOp34
 70
     1
102
RTVSPropertyOp35
 70
     1
102
RTVSPropertyOp36
 70
     1
102
RTVSPropertyOp37
 70
     1
102
RTVSPropertyOp38
 70
     1
102
RTVSPropertyOp39
 70
     1
102
RTVSPropertyOp40
 70
     1
102
RTVSPropertyOp41
 70
     1
102
RTVSPropertyOp42
 70
     1
102
RTVSPropertyOp43
 70
     1
102
RTVSPropertyOp44
 70
     1
102
RTVSPropertyOp45
 70
     1
102
RTVSPropertyOp46
 70
     1
102
RTVSPropertyOp47
 70
     1
102
RTVSPropertyOp48
 70
     1
102
RTVSPropertyOp49
 70
     1
102
RTVSPropertyOp50
 70
     1
102
RTVSPropertyOp51
 70
     0
102
RTVSPropertyOp52
 70
     0
102
RTVSPropertyOp53
 70
     1
102
RTVSPropertyOp54
 70
     1
102
RTVSPropertyOp55
 70
     1
102
RTVSPropertyOp56
 70
     1
102
RTVSPropertyOp57
 70
     1
102
RTVSPropertyOp58
 70
     1
102
RTVSPropertyOp59
 70
     1
102
RTVSPropertyOp60
 70
     1
102
RTVSPropertyOp61
 70
     1
102
RTVSPropertyOp62
 70
     1
  0
XRECORD
  5
1737
102
{ACAD_REACTORS
330
1736
102
}
330
1736
100
AcDbXrecord
280
     1
102
RTVSPost2010Prop28
280
     0
102
RTVSPost2010PropOp28
 70
     1
102
RTVSPost2010Prop29
280
     1
102
RTVSPost2010PropOp29
 70
     1
102
RTVSPost2010Prop30
280
     1
102
RTVSPost2010PropOp30
 70
     1
102
RTVSPost2010Prop31
280
     0
102
RTVSPost2010PropOp31
 70
     1
102
RTVSPost2010Prop32
280
     0
102
RTVSPost2010PropOp32
 70
     1
102
RTVSPost2010Prop33
280
     0
102
RTVSPost2010PropOp33
 70
     1
102
RTVSPost2010Prop34
280
     0
102
RTVSPost2010PropOp34
 70
     1
102
RTVSPost2010Prop35
280
     0
102
RTVSPost2010PropOp35
 70
     1
102
RTVSPost2010Prop36
280
     0
102
RTVSPost2010PropOp36
 70
     1
102
RTVSPost2010Prop37
 90
       50
102
RTVSPost2010PropOp37
 70
     1
102
RTVSPost2010Prop38
140
0.0
102
RTVSPost2010PropOp38
 70
     1
102
RTVSPost2010Prop39
140
1.0
102
RTVSPost2010PropOp39
 70
     1
102
RTVSPost2010Prop40
 90
        0
102
RTVSPost2010PropOp40
 70
     1
102
RTVSPost2010Prop41ColorIndex
 90
       18
102
RTVSPost2010Prop41ColorRGB
 90
-16777216
102
RTVSPost2010PropOp41
 70
     1
102
RTVSPost2010Prop42
 90
       50
102
RTVSPost2010PropOp42
 70
     1
102
RTVSPost2010Prop43
 90
        3
102
RTVSPost2010PropOp43
 70
     1
102
RTVSPost2010Prop44ColorIndex
 90
        5
102
RTVSPost2010Prop44ColorRGB
 90
      255
102
RTVSPost2010PropOp44
 70
     1
102
RTVSPost2010Prop45
280
     0
102
RTVSPost2010PropOp45
 70
     1
102
RTVSPost2010Prop46
 90
       50
102
RTVSPost2010PropOp46
 70
     1
102
RTVSPost2010Prop47
 90
       50
102
RTVSPost2010PropOp47
 70
     1
102
RTVSPost2010Prop48
 90
       50
102
RTVSPost2010PropOp48
 70
     1
102
RTVSPost2010Prop49
280
     0
102
RTVSPost2010PropOp49
 70
     1
102
RTVSPost2010Prop50
 90
       50
102
RTVSPost2010PropOp50
 70
     1
102
RTVSPost2010Prop51ColorIndex
 90
      256
102
RTVSPost2010Prop51ColorRGB
 90
-16777216
102
RTVSPost2010PropOp51
 70
     0
102
RTVSPost2010Prop52
140
1.0
102
RTVSPost2010PropOp52
 70
     0
102
RTVSPost2010Prop53
 90
        2
102
RTVSPost2010PropOp53
 70
     1
102
RTVSPost2010Prop54
  1
strokes_ogs.tif
102
RTVSPost2010PropOp54
 70
     1
102
RTVSPost2010Prop55
280
     0
102
RTVSPost2010PropOp55
 70
     1
102
RTVSPost2010Prop56
140
1.0
102
RTVSPost2010PropOp56
 70
     1
102
RTVSPost2010Prop57
140
1.0
102
RTVSPost2010PropOp57
 70
     1
102
RTVSPropertyOp0
 70
     1
102
RTVSPropertyOp1
 70
     1
102
RTVSPropertyOp2
 70
     1
102
RTVSPropertyOp3
 70
     1
102
RTVSPropertyOp4
 70
     1
102
RTVSPropertyOp5
 70
     1
102
RTVSPropertyOp6
 70
     1
102
RTVSPropertyOp7
 70
     1
102
RTVSPropertyOp8
 70
     1
102
RTVSPropertyOp9
 70
     1
102
RTVSPropertyOp10
 70
     1
102
RTVSPropertyOp11
 70
     1
102
RTVSPropertyOp12
 70
     1
102
RTVSPropertyOp13
 70
     1
102
RTVSPropertyOp14
 70
     1
102
RTVSPropertyOp15
 70
     1
102
RTVSPropertyOp16
 70
     1
102
RTVSPropertyOp17
 70
     1
102
RTVSPropertyOp18
 70
     1
102
RTVSPropertyOp19
 70
     1
102
RTVSPropertyOp20
 70
     1
102
RTVSPropertyOp21
 70
     1
102
RTVSPropertyOp22
 70
     1
102
RTVSPropertyOp23
 70
     1
102
RTVSPropertyOp24
 70
     1
102
RTVSPropertyOp25
 70
     1
102
RTVSPropertyOp26
 70
     1
102
RTVSPropertyOp27
 70
     1
102
RTVSPropertyOp28
 70
     1
102
RTVSPropertyOp29
 70
     1
102
RTVSPropertyOp30
 70
     1
102
RTVSPropertyOp31
 70
     1
102
RTVSPropertyOp32
 70
     1
102
RTVSPropertyOp33
 70
     1
102
RTVSPropertyOp34
 70
     1
102
RTVSPropertyOp35
 70
     1
102
RTVSPropertyOp36
 70
     1
102
RTVSPropertyOp37
 70
     1
102
RTVSPropertyOp38
 70
     1
102
RTVSPropertyOp39
 70
     1
102
RTVSPropertyOp40
 70
     1
102
RTVSPropertyOp41
 70
     1
102
RTVSPropertyOp42
 70
     1
102
RTVSPropertyOp43
 70
     1
102
RTVSPropertyOp44
 70
     1
102
RTVSPropertyOp45
 70
     1
102
RTVSPropertyOp46
 70
     1
102
RTVSPropertyOp47
 70
     1
102
RTVSPropertyOp48
 70
     1
102
RTVSPropertyOp49
 70
     1
102
RTVSPropertyOp50
 70
     1
102
RTVSPropertyOp51
 70
     0
102
RTVSPropertyOp52
 70
     0
102
RTVSPropertyOp53
 70
     1
102
RTVSPropertyOp54
 70
     1
102
RTVSPropertyOp55
 70
     1
102
RTVSPropertyOp56
 70
     1
102
RTVSPropertyOp57
 70
     1
102
RTVSPropertyOp58
 70
     1
102
RTVSPropertyOp59
 70
     1
102
RTVSPropertyOp60
 70
     1
102
RTVSPropertyOp61
 70
     1
102
RTVSPropertyOp62
 70
     1
  0
ENDSEC
  0
EOF
