  0
SECTION
  2
HEADER
  9
$ACADVER
  1
AC1027
  9
$ACADMAINTVER
 70
    82
  9
$DWGCODEPAGE
  3
ANSI_1252
  9
$LASTSAVEDBY
  1
jmilewski
  9
$REQUIREDVERSIONS
160
                 0
  9
$INSBASE
 10
0.0
 20
0.0
 30
0.0
  9
$EXTMIN
 10
0.0
 20
-0.0000000000000018
 30
0.0
  9
$EXTMAX
 10
11.05
 20
8.5
 30
0.0
  9
$LIMMIN
 10
0.0
 20
0.0
  9
$LIMMAX
 10
12.0
 20
9.0
  9
$ORTHOMODE
 70
     0
  9
$REGENMODE
 70
     1
  9
$FILLMODE
 70
     1
  9
$QTEXTMODE
 70
     0
  9
$MIRRTEXT
 70
     1
  9
$LTSCALE
 40
1.0
  9
$ATTMODE
 70
     1
  9
$TEXTSIZE
 40
0.125
  9
$TRACEWID
 40
0.05
  9
$TEXTSTYLE
  7
SIMPLEX
  9
$CLAYER
  8
3
  9
$CELTYPE
  6
BYLAYER
  9
$CECOLOR
 62
   256
  9
$CELTSCALE
 40
1.0
  9
$DISPSILH
 70
     0
  9
$DIMSCALE
 40
1.0
  9
$DIMASZ
 40
0.125
  9
$DIMEXO
 40
0.0625
  9
$DIMDLI
 40
0.375
  9
$DIMRND
 40
0.0
  9
$DIMDLE
 40
0.0
  9
$DIMEXE
 40
0.0625
  9
$DIMTP
 40
0.0
  9
$DIMTM
 40
0.0
  9
$DIMTXT
 40
0.125
  9
$DIMCEN
 40
-0.125
  9
$DIMTSZ
 40
0.0
  9
$DIMTOL
 70
     0
  9
$DIMLIM
 70
     0
  9
$DIMTIH
 70
     1
  9
$DIMTOH
 70
     1
  9
$DIMSE1
 70
     0
  9
$DIMSE2
 70
     0
  9
$DIMTAD
 70
     0
  9
$DIMZIN
 70
     4
  9
$DIMBLK
  1

  9
$DIMASO
 70
     1
  9
$DIMSHO
 70
     0
  9
$DIMPOST
  1

  9
$DIMAPOST
  1

  9
$DIMALT
 70
     0
  9
$DIMALTD
 70
     2
  9
$DIMALTF
 40
25.4
  9
$DIMLFAC
 40
1.0
  9
$DIMTOFL
 70
     0
  9
$DIMTVP
 40
0.0
  9
$DIMTIX
 70
     1
  9
$DIMSOXD
 70
     0
  9
$DIMSAH
 70
     0
  9
$DIMBLK1
  1

  9
$DIMBLK2
  1

  9
$DIMSTYLE
  2
STANDARD
  9
$DIMCLRD
 70
     0
  9
$DIMCLRE
 70
     0
  9
$DIMCLRT
 70
     0
  9
$DIMTFAC
 40
1.0
  9
$DIMGAP
 40
0.09375
  9
$DIMJUST
 70
     0
  9
$DIMSD1
 70
     0
  9
$DIMSD2
 70
     0
  9
$DIMTOLJ
 70
     1
  9
$DIMTZIN
 70
     4
  9
$DIMALTZ
 70
     4
  9
$DIMALTTZ
 70
     4
  9
$DIMUPT
 70
     0
  9
$DIMDEC
 70
     5
  9
$DIMTDEC
 70
     5
  9
$DIMALTU
 70
     5
  9
$DIMALTTD
 70
     2
  9
$DIMTXSTY
  7
SIMPLEX
  9
$DIMAUNIT
 70
     0
  9
$DIMADEC
 70
     0
  9
$DIMALTRND
 40
0.0
  9
$DIMAZIN
 70
     0
  9
$DIMDSEP
 70
    46
  9
$DIMATFIT
 70
     3
  9
$DIMFRAC
 70
     0
  9
$DIMLDRBLK
  1

  9
$DIMLUNIT
 70
     5
  9
$DIMLWD
 70
    -2
  9
$DIMLWE
 70
    -2
  9
$DIMTMOVE
 70
     2
  9
$DIMFXL
 40
1.0
  9
$DIMFXLON
 70
     0
  9
$DIMJOGANG
 40
0.7853981633974483
  9
$DIMTFILL
 70
     0
  9
$DIMTFILLCLR
 70
     0
  9
$DIMARCSYM
 70
     0
  9
$DIMLTYPE
  6

  9
$DIMLTEX1
  6

  9
$DIMLTEX2
  6

  9
$DIMTXTDIRECTION
 70
     0
  9
$LUNITS
 70
     5
  9
$LUPREC
 70
     5
  9
$SKETCHINC
 40
0.1
  9
$FILLETRAD
 40
0.0
  9
$AUNITS
 70
     0
  9
$AUPREC
 70
     2
  9
$MENU
  1
ACAD
  9
$ELEVATION
 40
0.0
  9
$PELEVATION
 40
0.0
  9
$THICKNESS
 40
0.0
  9
$LIMCHECK
 70
     0
  9
$CHAMFERA
 40
0.0
  9
$CHAMFERB
 40
0.0
  9
$CHAMFERC
 40
0.0
  9
$CHAMFERD
 40
0.0
  9
$SKPOLY
 70
     0
  9
$TDCREATE
 40
2447600.596000695
  9
$TDUCREATE
 40
2447600.762667361
  9
$TDUPDATE
 40
2457155.525819016
  9
$TDUUPDATE
 40
2457155.692485683
  9
$TDINDWG
 40
0.3756084491
  9
$TDUSRTIMER
 40
0.3756084375
  9
$USRTIMER
 70
     1
  9
$ANGBASE
 50
0.0
  9
$ANGDIR
 70
     0
  9
$PDMODE
 70
     0
  9
$PDSIZE
 40
0.0
  9
$PLINEWID
 40
0.0
  9
$SPLFRAME
 70
     0
  9
$SPLINETYPE
 70
     6
  9
$SPLINESEGS
 70
     8
  9
$HANDSEED
  5
D87
  9
$SURFTAB1
 70
     6
  9
$SURFTAB2
 70
     6
  9
$SURFTYPE
 70
     6
  9
$SURFU
 70
     6
  9
$SURFV
 70
     6
  9
$UCSBASE
  2

  9
$UCSNAME
  2

  9
$UCSORG
 10
0.0
 20
0.0
 30
0.0
  9
$UCSXDIR
 10
1.0
 20
0.0
 30
0.0
  9
$UCSYDIR
 10
0.0
 20
1.0
 30
0.0
  9
$UCSORTHOREF
  2

  9
$UCSORTHOVIEW
 70
     0
  9
$UCSORGTOP
 10
0.0
 20
0.0
 30
0.0
  9
$UCSORGBOTTOM
 10
0.0
 20
0.0
 30
0.0
  9
$UCSORGLEFT
 10
0.0
 20
0.0
 30
0.0
  9
$UCSORGRIGHT
 10
0.0
 20
0.0
 30
0.0
  9
$UCSORGFRONT
 10
0.0
 20
0.0
 30
0.0
  9
$UCSORGBACK
 10
0.0
 20
0.0
 30
0.0
  9
$PUCSBASE
  2

  9
$PUCSNAME
  2

  9
$PUCSORG
 10
0.0
 20
0.0
 30
0.0
  9
$PUCSXDIR
 10
1.0
 20
0.0
 30
0.0
  9
$PUCSYDIR
 10
0.0
 20
1.0
 30
0.0
  9
$PUCSORTHOREF
  2

  9
$PUCSORTHOVIEW
 70
     0
  9
$PUCSORGTOP
 10
0.0
 20
0.0
 30
0.0
  9
$PUCSORGBOTTOM
 10
0.0
 20
0.0
 30
0.0
  9
$PUCSORGLEFT
 10
0.0
 20
0.0
 30
0.0
  9
$PUCSORGRIGHT
 10
0.0
 20
0.0
 30
0.0
  9
$PUCSORGFRONT
 10
0.0
 20
0.0
 30
0.0
  9
$PUCSORGBACK
 10
0.0
 20
0.0
 30
0.0
  9
$USERI1
 70
     0
  9
$USERI2
 70
     0
  9
$USERI3
 70
     0
  9
$USERI4
 70
     0
  9
$USERI5
 70
     0
  9
$USERR1
 40
0.0
  9
$USERR2
 40
0.0
  9
$USERR3
 40
0.0
  9
$USERR4
 40
0.0
  9
$USERR5
 40
0.0
  9
$WORLDVIEW
 70
     1
  9
$SHADEDGE
 70
     3
  9
$SHADEDIF
 70
    70
  9
$TILEMODE
 70
     1
  9
$MAXACTVP
 70
    16
  9
$PINSBASE
 10
0.0
 20
0.0
 30
0.0
  9
$PLIMCHECK
 70
     0
  9
$PEXTMIN
 10
1.000000000000000E+20
 20
1.000000000000000E+20
 30
1.000000000000000E+20
  9
$PEXTMAX
 10
-1.000000000000000E+20
 20
-1.000000000000000E+20
 30
-1.000000000000000E+20
  9
$PLIMMIN
 10
0.0
 20
0.0
  9
$PLIMMAX
 10
12.0
 20
9.0
  9
$UNITMODE
 70
     0
  9
$VISRETAIN
 70
     0
  9
$PLINEGEN
 70
     0
  9
$PSLTSCALE
 70
     0
  9
$TREEDEPTH
 70
  3020
  9
$CMLSTYLE
  2
STANDARD
  9
$CMLJUST
 70
     0
  9
$CMLSCALE
 40
1.0
  9
$PROXYGRAPHICS
 70
     1
  9
$MEASUREMENT
 70
     0
  9
$CELWEIGHT
370
    -1
  9
$ENDCAPS
280
     0
  9
$JOINSTYLE
280
     0
  9
$LWDISPLAY
290
     0
  9
$INSUNITS
 70
     0
  9
$HYPERLINKBASE
  1

  9
$STYLESHEET
  1

  9
$XEDIT
290
     1
  9
$CEPSNTYPE
380
     0
  9
$PSTYLEMODE
290
     1
  9
$FINGERPRINTGUID
  2
{31C48201-815B-4BD7-826C-ED73FD8EAB44}
  9
$VERSIONGUID
  2
{A091EDAA-829B-498B-8909-2F671BD86F7B}
  9
$EXTNAMES
290
     1
  9
$PSVPSCALE
 40
0.0
  9
$OLESTARTUP
290
     0
  9
$SORTENTS
280
   127
  9
$INDEXCTL
280
     0
  9
$HIDETEXT
280
     0
  9
$XCLIPFRAME
280
     2
  9
$HALOGAP
280
     0
  9
$OBSCOLOR
 70
   257
  9
$OBSLTYPE
280
     0
  9
$INTERSECTIONDISPLAY
280
     0
  9
$INTERSECTIONCOLOR
 70
   257
  9
$DIMASSOC
280
     1
  9
$PROJECTNAME
  1

  9
$CAMERADISPLAY
290
     0
  9
$LENSLENGTH
 40
50.0
  9
$CAMERAHEIGHT
 40
0.0
  9
$STEPSPERSEC
 40
2.0
  9
$STEPSIZE
 40
6.0
  9
$3DDWFPREC
 40
2.0
  9
$PSOLWIDTH
 40
0.25
  9
$PSOLHEIGHT
 40
4.0
  9
$LOFTANG1
 40
1.570796326794896
  9
$LOFTANG2
 40
1.570796326794896
  9
$LOFTMAG1
 40
0.0
  9
$LOFTMAG2
 40
0.0
  9
$LOFTPARAM
 70
     7
  9
$LOFTNORMALS
280
     1
  9
$LATITUDE
 40
37.795
  9
$LONGITUDE
 40
-122.394
  9
$NORTHDIRECTION
 40
0.0
  9
$TIMEZONE
 70
 -8000
  9
$LIGHTGLYPHDISPLAY
280
     1
  9
$TILEMODELIGHTSYNCH
280
     1
  9
$CMATERIAL
347
C5B
  9
$SOLIDHIST
280
     0
  9
$SHOWHIST
280
     1
  9
$DWFFRAME
280
     2
  9
$DGNFRAME
280
     0
  9
$REALWORLDSCALE
290
     1
  9
$INTERFERECOLOR
 62
     1
  9
$INTERFEREOBJVS
345
C7D
  9
$INTERFEREVPVS
346
C7A
  9
$CSHADOW
280
     0
  9
$SHADOWPLANELOCATION
 40
0.0
  0
ENDSEC
  0
SECTION
  2
CLASSES
  0
CLASS
  1
DICTIONARYVAR
  2
AcDbDictionaryVar
  3
ObjectDBX Classes
 90
        0
 91
       10
280
     0
281
     0
  0
CLASS
  1
ACDBDICTIONARYWDFLT
  2
AcDbDictionaryWithDefault
  3
ObjectDBX Classes
 90
        0
 91
        1
280
     0
281
     0
  0
CLASS
  1
MATERIAL
  2
AcDbMaterial
  3
ObjectDBX Classes
 90
     1153
 91
        3
280
     0
281
     0
  0
CLASS
  1
VISUALSTYLE
  2
AcDbVisualStyle
  3
ObjectDBX Classes
 90
     4095
 91
       24
280
     0
281
     0
  0
CLASS
  1
TABLESTYLE
  2
AcDbTableStyle
  3
ObjectDBX Classes
 90
     4095
 91
        1
280
     0
281
     0
  0
CLASS
  1
SCALE
  2
AcDbScale
  3
ObjectDBX Classes
 90
     1153
 91
       17
280
     0
281
     0
  0
CLASS
  1
MLEADERSTYLE
  2
AcDbMLeaderStyle
  3
ACDB_MLEADERSTYLE_CLASS
 90
     4095
 91
        1
280
     0
281
     0
  0
CLASS
  1
ACDBSECTIONVIEWSTYLE
  2
AcDbSectionViewStyle
  3
ObjectDBX Classes
 90
     1025
 91
        1
280
     0
281
     0
  0
CLASS
  1
ACDBDETAILVIEWSTYLE
  2
AcDbDetailViewStyle
  3
ObjectDBX Classes
 90
     1025
 91
        1
280
     0
281
     0
  0
CLASS
  1
CELLSTYLEMAP
  2
AcDbCellStyleMap
  3
ObjectDBX Classes
 90
     1152
 91
        2
280
     0
281
     0
  0
ENDSEC
  0
SECTION
  2
TABLES
  0
TABLE
  2
VPORT
  5
8
330
0
100
AcDbSymbolTable
 70
     1
  0
VPORT
  5
C56
330
8
100
AcDbSymbolTableRecord
100
AcDbViewportTableRecord
  2
*ACTIVE
 70
     0
 10
0.0
 20
0.0
 11
1.0
 21
1.0
 12
4.967699980810319
 22
3.620512695548392
 13
0.0
 23
0.0
 14
1.0
 24
1.0
 15
0.0
 25
0.0
 16
0.0
 26
0.0
 36
1.0
 17
0.0
 27
0.0
 37
0.0
 40
14.5152052591673
 41
2.080545229244113
 42
50.0
 43
0.0
 44
0.0
 50
0.0
 51
0.0
 71
     0
 72
   250
 73
     1
 74
     0
 75
     0
 76
     0
 77
     0
 78
     0
281
     0
 65
     1
110
0.0
120
0.0
130
0.0
111
1.0
121
0.0
131
0.0
112
0.0
122
1.0
132
0.0
 79
     0
146
0.0
348
C79
 60
     3
 61
     5
292
     1
282
     1
141
0.0
142
0.0
 63
   250
421
  3355443
1001
ACAD_NAV_VCDISPLAY
1070
     3
  0
ENDTAB
  0
TABLE
  2
LTYPE
  5
5
330
0
100
AcDbSymbolTable
 70
     4
  0
LTYPE
  5
11
330
5
100
AcDbSymbolTableRecord
100
AcDbLinetypeTableRecord
  2
BYBLOCK
 70
     0
  3

 72
    65
 73
     0
 40
0.0
  0
LTYPE
  5
12
330
5
100
AcDbSymbolTableRecord
100
AcDbLinetypeTableRecord
  2
BYLAYER
 70
     0
  3

 72
    65
 73
     0
 40
0.0
  0
LTYPE
  5
13
330
5
100
AcDbSymbolTableRecord
100
AcDbLinetypeTableRecord
  2
CONTINUOUS
 70
     0
  3
Solid line
 72
    65
 73
     0
 40
0.0
  0
LTYPE
  5
3F
330
5
100
AcDbSymbolTableRecord
100
AcDbLinetypeTableRecord
  2
CENTER
 70
     0
  3

 72
    65
 73
     4
 40
1.125
 49
0.75
 74
     0
 49
-0.125
 74
     0
 49
0.125
 74
     0
 49
-0.125
 74
     0
  0
LTYPE
  5
40
330
5
100
AcDbSymbolTableRecord
100
AcDbLinetypeTableRecord
  2
DASHED
 70
     0
  3
__ __ __ __ __ __ __ __ __ __ __ __ __ __ __
 72
    65
 73
     2
 40
0.75
 49
0.5
 74
     0
 49
-0.25
 74
     0
  0
LTYPE
  5
41
330
5
100
AcDbSymbolTableRecord
100
AcDbLinetypeTableRecord
  2
HIDDEN
 70
     0
  3

 72
    65
 73
     2
 40
0.25
 49
0.125
 74
     0
 49
-0.125
 74
     0
  0
ENDTAB
  0
TABLE
  2
LAYER
  5
2
102
{ACAD_XDICTIONARY
360
D16
102
}
330
0
100
AcDbSymbolTable
 70
     6
  0
LAYER
  5
E
102
{ACAD_XDICTIONARY
360
D09
102
}
330
2
100
AcDbSymbolTableRecord
100
AcDbLayerTableRecord
  2
0
 70
     0
 62
     7
  6
CONTINUOUS
370
    -3
390
C59
347
C6B
348
0
  0
LAYER
  5
44
102
{ACAD_XDICTIONARY
360
D0B
102
}
330
2
100
AcDbSymbolTableRecord
100
AcDbLayerTableRecord
  2
2
 70
     0
 62
     2
  6
CONTINUOUS
370
    -3
390
C59
347
C6B
348
0
  0
LAYER
  5
45
102
{ACAD_XDICTIONARY
360
D0D
102
}
330
2
100
AcDbSymbolTableRecord
100
AcDbLayerTableRecord
  2
3
 70
     0
 62
     3
  6
CONTINUOUS
370
    -3
390
C59
347
C6B
348
0
  0
LAYER
  5
46
102
{ACAD_XDICTIONARY
360
D0F
102
}
330
2
100
AcDbSymbolTableRecord
100
AcDbLayerTableRecord
  2
4
 70
     0
 62
     4
  6
CONTINUOUS
370
    -3
390
C59
347
C6B
348
0
  0
LAYER
  5
47
330
2
100
AcDbSymbolTableRecord
100
AcDbLayerTableRecord
  2
DEFPOINTS
 70
     0
 62
     7
  6
CONTINUOUS
290
     0
370
    -3
390
C59
347
C6B
348
0
  0
LAYER
  5
48
102
{ACAD_XDICTIONARY
360
D11
102
}
330
2
100
AcDbSymbolTableRecord
100
AcDbLayerTableRecord
  2
TEXT
 70
     0
 62
    10
  6
CONTINUOUS
370
    -3
390
C59
347
C6B
348
0
  0
ENDTAB
  0
TABLE
  2
STYLE
  5
3
330
0
100
AcDbSymbolTable
 70
     5
  0
STYLE
  5
F
330
3
100
AcDbSymbolTableRecord
100
AcDbTextStyleTableRecord
  2
STANDARD
 70
     0
 40
0.0
 41
1.0
 50
0.0
 71
     0
 42
0.2
  3
txt
  4

  0
STYLE
  5
3B
330
3
100
AcDbSymbolTableRecord
100
AcDbTextStyleTableRecord
  2
SIMPLEX
 70
     0
 40
0.0
 41
1.0
 50
0.0
 71
     0
 42
0.125
  3
SIMPLEX.shx
  4

  0
STYLE
  5
3C
330
3
100
AcDbSymbolTableRecord
100
AcDbTextStyleTableRecord
  2
T
 70
     0
 40
0.0
 41
1.0
 50
0.0
 71
     0
 42
1.0
  3
ROMI____.PFB
  4

  0
STYLE
  5
3D
330
3
100
AcDbSymbolTableRecord
100
AcDbTextStyleTableRecord
  2
ROMANS
 70
     0
 40
0.0
 41
1.0
 50
0.0
 71
     0
 42
0.125
  3
romans
  4

  0
STYLE
  5
3E
330
3
100
AcDbSymbolTableRecord
100
AcDbTextStyleTableRecord
  2
MED
 70
     0
 40
0.125
 41
1.0
 50
0.0
 71
     0
 42
0.078
  3
ROMANS
  4

  0
ENDTAB
  0
TABLE
  2
VIEW
  5
6
330
0
100
AcDbSymbolTable
 70
     0
  0
ENDTAB
  0
TABLE
  2
UCS
  5
7
330
0
100
AcDbSymbolTable
 70
     0
  0
ENDTAB
  0
TABLE
  2
APPID
  5
9
330
0
100
AcDbSymbolTable
 70
     3
  0
APPID
  5
10
330
9
100
AcDbSymbolTableRecord
100
AcDbRegAppTableRecord
  2
ACAD
 70
     0
  0
APPID
  5
CB0
330
9
100
AcDbSymbolTableRecord
100
AcDbRegAppTableRecord
  2
ACAD_EXEMPT_FROM_CAD_STANDARDS
 70
     0
  0
APPID
  5
D1C
330
9
100
AcDbSymbolTableRecord
100
AcDbRegAppTableRecord
  2
ACAD_NAV_VCDISPLAY
 70
     0
  0
ENDTAB
  0
TABLE
  2
DIMSTYLE
  5
A
330
0
100
AcDbSymbolTable
 70
     1
100
AcDbDimStyleTable
 71
     1
340
C44
  0
DIMSTYLE
105
C44
102
{ACAD_REACTORS
330
CB7
330
CC5
330
CD3
102
}
330
A
100
AcDbSymbolTableRecord
100
AcDbDimStyleTableRecord
  2
STANDARD
 70
     0
340
F
  0
ENDTAB
  0
TABLE
  2
BLOCK_RECORD
  5
1
330
0
100
AcDbSymbolTable
 70
     6
  0
BLOCK_RECORD
  5
17
330
1
100
AcDbSymbolTableRecord
100
AcDbBlockTableRecord
  2
*MODEL_SPACE
340
CA9
 70
     0
280
     1
281
     0
  0
BLOCK_RECORD
  5
14
330
1
100
AcDbSymbolTableRecord
100
AcDbBlockTableRecord
  2
*PAPER_SPACE
340
CAA
 70
     0
280
     1
281
     0
  0
BLOCK_RECORD
  5
38
330
1
100
AcDbSymbolTableRecord
100
AcDbBlockTableRecord
  2
TW3
340
0
 70
     0
280
     1
281
     0
  0
BLOCK_RECORD
  5
39
330
1
100
AcDbSymbolTableRecord
100
AcDbBlockTableRecord
  2
*D1
340
0
 70
     0
280
     1
281
     0
  0
BLOCK_RECORD
  5
3A
330
1
100
AcDbSymbolTableRecord
100
AcDbBlockTableRecord
  2
*D2
340
0
 70
     0
280
     1
281
     0
  0
BLOCK_RECORD
  5
CB8
330
1
100
AcDbSymbolTableRecord
100
AcDbBlockTableRecord
  2
*D3
340
0
 70
     0
280
     1
281
     0
  0
BLOCK_RECORD
  5
CC6
330
1
100
AcDbSymbolTableRecord
100
AcDbBlockTableRecord
  2
*D4
340
0
 70
     0
280
     1
281
     0
  0
BLOCK_RECORD
  5
CD4
330
1
100
AcDbSymbolTableRecord
100
AcDbBlockTableRecord
  2
*D5
340
0
 70
     0
280
     1
281
     0
  0
ENDTAB
  0
ENDSEC
  0
SECTION
  2
BLOCKS
  0
BLOCK
  5
4B
330
17
100
AcDbEntity
  8
0
100
AcDbBlockBegin
  2
*MODEL_SPACE
 70
     0
 10
0.0
 20
0.0
 30
0.0
  3
*MODEL_SPACE
  1

  0
ENDBLK
  5
4C
330
17
100
AcDbEntity
  8
0
100
AcDbBlockEnd
  0
BLOCK
  5
49
330
14
100
AcDbEntity
 67
     1
  8
0
100
AcDbBlockBegin
  2
*PAPER_SPACE
 70
     0
 10
0.0
 20
0.0
 30
0.0
  3
*PAPER_SPACE
  1

  0
ENDBLK
  5
4A
330
14
100
AcDbEntity
 67
     1
  8
0
100
AcDbBlockEnd
  0
BLOCK
  5
B0
330
38
100
AcDbEntity
  8
0
100
AcDbBlockBegin
  2
TW3
 70
     0
 10
0.0
 20
0.0
 30
0.0
  3
TW3
  1

  0
TEXT
  5
B1
330
38
100
AcDbEntity
  8
TEXT
100
AcDbText
 10
-0.3422619047619047
 20
0.1398809523809524
 30
0.0
 40
0.125
  1
TWENTY
  7
ROMANS
 72
     4
 11
0.0
 21
0.2023809523809524
 31
0.0
100
AcDbText
  0
TEXT
  5
B3
330
38
100
AcDbEntity
  8
TEXT
100
AcDbText
 10
-0.3244047619047619
 20
-0.0625
 30
0.0
 40
0.125
  1
NINETH
  7
ROMANS
 72
     4
 11
0.0
 21
0.0
 31
0.0
100
AcDbText
  0
TEXT
  5
B4
330
38
100
AcDbEntity
  8
TEXT
100
AcDbText
 10
-0.2202380952380952
 20
-0.255952380952381
 30
0.0
 40
0.125
  1
1/2'
  7
ROMANS
 72
     4
 11
0.0
 21
-0.2023809523809524
 31
0.0
100
AcDbText
  0
ENDBLK
  5
B5
330
38
100
AcDbEntity
  8
0
100
AcDbBlockEnd
  0
BLOCK
  5
B6
330
39
100
AcDbEntity
  8
0
100
AcDbBlockBegin
  2
*D1
 70
     1
 10
0.0
 20
0.0
 30
0.0
  3
*D1
  1

  0
LINE
  5
B7
330
39
100
AcDbEntity
  8
0
  6
ByBlock
 62
     0
440
 16777216
100
AcDbLine
 10
7.795020032408337
 20
3.761505651079247
 30
0.0
 11
7.795020032408337
 21
3.412910694771886
 31
0.0
  0
LINE
  5
B8
330
39
100
AcDbEntity
  8
0
  6
ByBlock
 62
     0
440
 16777216
100
AcDbLine
 10
8.420020032408338
 20
4.01150565107924
 30
0.0
 11
8.420020032408338
 21
3.412910694771886
 31
0.0
  0
LINE
  5
B9
330
39
100
AcDbEntity
  8
0
  6
ByBlock
 62
     0
440
 16777216
100
AcDbLine
 10
7.670020032408337
 20
3.475410694771886
 30
0.0
 11
7.545020032408337
 21
3.475410694771886
 31
0.0
  0
LINE
  5
BA
330
39
100
AcDbEntity
  8
0
  6
ByBlock
 62
     0
440
 16777216
100
AcDbLine
 10
8.545020032408338
 20
3.475410694771886
 30
0.0
 11
8.670020032408338
 21
3.475410694771886
 31
0.0
  0
SOLID
  5
BB
330
39
100
AcDbEntity
  8
0
  6
ByBlock
 62
     0
440
 16777216
100
AcDbTrace
 10
7.670020032408337
 20
3.49624402810522
 30
0.0
 11
7.670020032408337
 21
3.454577361438553
 31
0.0
 12
7.795020032408337
 22
3.475410694771886
 32
0.0
 13
7.795020032408337
 23
3.475410694771886
 33
0.0
  0
SOLID
  5
BC
330
39
100
AcDbEntity
  8
0
  6
ByBlock
 62
     0
440
 16777216
100
AcDbTrace
 10
8.545020032408338
 20
3.49624402810522
 30
0.0
 11
8.545020032408338
 21
3.454577361438553
 31
0.0
 12
8.420020032408338
 22
3.475410694771886
 32
0.0
 13
8.420020032408338
 23
3.475410694771886
 33
0.0
  0
TEXT
  5
BD
330
39
100
AcDbEntity
  8
0
  6
ByBlock
 62
     0
440
 16777216
100
AcDbText
 10
7.940853365741671
 20
3.412910694771886
 30
0.0
 40
0.125
  1
5/8
  7
SIMPLEX
 72
     1
 11
8.107520032408338
 21
3.475410694771886
 31
0.0
100
AcDbText
 73
     2
  0
POINT
  5
BE
330
39
100
AcDbEntity
  8
DEFPOINTS
  6
ByBlock
 62
     0
440
 16777216
100
AcDbPoint
 10
7.795020032408337
 20
3.824005651079247
 30
0.0
  0
POINT
  5
BF
330
39
100
AcDbEntity
  8
DEFPOINTS
  6
ByBlock
 62
     0
440
 16777216
100
AcDbPoint
 10
8.420020032408338
 20
4.07400565107924
 30
0.0
  0
POINT
  5
C0
330
39
100
AcDbEntity
  8
DEFPOINTS
  6
ByBlock
 62
     0
440
 16777216
100
AcDbPoint
 10
8.420020032408338
 20
3.475410694771886
 30
0.0
  0
ENDBLK
  5
C1
330
39
100
AcDbEntity
  8
0
100
AcDbBlockEnd
  0
BLOCK
  5
C2
330
3A
100
AcDbEntity
  8
0
100
AcDbBlockBegin
  2
*D2
 70
     1
 10
0.0
 20
0.0
 30
0.0
  3
*D2
  1

  0
LINE
  5
C3
330
3A
100
AcDbEntity
  8
0
  6
ByBlock
 62
     0
440
 16777216
100
AcDbLine
 10
5.232520032408337
 20
4.324005651079247
 30
0.0
 11
4.72660462234054
 21
4.324005651079247
 31
0.0
  0
LINE
  5
C4
330
3A
100
AcDbEntity
  8
0
  6
ByBlock
 62
     0
440
 16777216
100
AcDbLine
 10
5.474859152735191
 20
4.693573952315875
 30
0.0
 11
4.72660462234054
 21
4.693573952315875
 31
0.0
  0
LINE
  5
C5
330
3A
100
AcDbEntity
  8
0
  6
ByBlock
 62
     0
440
 16777216
100
AcDbLine
 10
4.78910462234054
 20
4.199005651079247
 30
0.0
 11
4.78910462234054
 21
4.074005651079247
 31
0.0
  0
LINE
  5
C6
330
3A
100
AcDbEntity
  8
0
  6
ByBlock
 62
     0
440
 16777216
100
AcDbLine
 10
4.78910462234054
 20
4.818573952315875
 30
0.0
 11
4.78910462234054
 21
4.943573952315875
 31
0.0
  0
SOLID
  5
C7
330
3A
100
AcDbEntity
  8
0
  6
ByBlock
 62
     0
440
 16777216
100
AcDbTrace
 10
4.768271289007206
 20
4.199005651079247
 30
0.0
 11
4.809937955673873
 21
4.199005651079247
 31
0.0
 12
4.78910462234054
 22
4.324005651079247
 32
0.0
 13
4.78910462234054
 23
4.324005651079247
 33
0.0
  0
SOLID
  5
C8
330
3A
100
AcDbEntity
  8
0
  6
ByBlock
 62
     0
440
 16777216
100
AcDbTrace
 10
4.768271289007206
 20
4.818573952315875
 30
0.0
 11
4.809937955673873
 21
4.818573952315875
 31
0.0
 12
4.78910462234054
 22
4.693573952315875
 32
0.0
 13
4.78910462234054
 23
4.693573952315875
 33
0.0
  0
TEXT
  5
C9
330
3A
100
AcDbEntity
  8
0
  6
ByBlock
 62
     0
440
 16777216
100
AcDbText
 10
4.622437955673873
 20
4.446289801697561
 30
0.0
 40
0.125
  1
3/8
  7
SIMPLEX
 72
     1
 11
4.78910462234054
 21
4.508789801697561
 31
0.0
100
AcDbText
 73
     2
  0
POINT
  5
CA
330
3A
100
AcDbEntity
  8
DEFPOINTS
  6
ByBlock
 62
     0
440
 16777216
100
AcDbPoint
 10
5.295020032408337
 20
4.324005651079247
 30
0.0
  0
POINT
  5
CB
330
3A
100
AcDbEntity
  8
DEFPOINTS
  6
ByBlock
 62
     0
440
 16777216
100
AcDbPoint
 10
5.537359152735191
 20
4.693573952315875
 30
0.0
  0
POINT
  5
CC
330
3A
100
AcDbEntity
  8
DEFPOINTS
  6
ByBlock
 62
     0
440
 16777216
100
AcDbPoint
 10
4.78910462234054
 20
4.693573952315875
 30
0.0
  0
ENDBLK
  5
CD
330
3A
100
AcDbEntity
  8
0
100
AcDbBlockEnd
  0
BLOCK
  5
CB9
330
CB8
100
AcDbEntity
  8
0
100
AcDbBlockBegin
  2
*D3
 70
     1
 10
0.0
 20
0.0
 30
0.0
  3
*D3
  1

  0
LINE
  5
CEB
330
CB8
100
AcDbEntity
  8
3
 62
     0
440
 16777216
370
    -2
100
AcDbLine
 10
4.607038379700861
 20
4.238469078244312
 30
0.0
 11
3.541849149064326
 21
4.238469078244312
 31
0.0
  0
LINE
  5
CEC
330
CB8
100
AcDbEntity
  8
3
 62
     0
440
 16777216
370
    -2
100
AcDbLine
 10
4.458294116008081
 20
3.238469078244314
 30
0.0
 11
3.541849149064326
 21
3.238469078244314
 31
0.0
  0
LINE
  5
CED
330
CB8
100
AcDbEntity
  8
3
 62
     0
440
 16777216
370
    -2
100
AcDbLine
 10
3.604349149064326
 20
4.113469078244312
 30
0.0
 11
3.604349149064326
 21
3.894719078244314
 31
0.0
  0
LINE
  5
CEE
330
CB8
100
AcDbEntity
  8
3
 62
     0
440
 16777216
370
    -2
100
AcDbLine
 10
3.604349149064326
 20
3.363469078244314
 30
0.0
 11
3.604349149064326
 21
3.582219078244313
 31
0.0
  0
SOLID
  5
CEF
330
CB8
100
AcDbEntity
  8
3
 62
     0
440
 16777216
100
AcDbTrace
 10
3.583515815730991
 20
4.113469078244312
 30
0.0
 11
3.625182482397658
 21
4.113469078244312
 31
0.0
 12
3.604349149064326
 22
4.238469078244312
 32
0.0
 13
3.604349149064326
 23
4.238469078244312
 33
0.0
  0
SOLID
  5
CF0
330
CB8
100
AcDbEntity
  8
3
 62
     0
440
 16777216
100
AcDbTrace
 10
3.583515815730991
 20
3.363469078244314
 30
0.0
 11
3.625182482397658
 21
3.363469078244314
 31
0.0
 12
3.604349149064326
 22
3.238469078244314
 32
0.0
 13
3.604349149064326
 23
3.238469078244314
 33
0.0
  0
MTEXT
  5
CF1
330
CB8
100
AcDbEntity
  8
3
 62
     0
440
 16777216
100
AcDbMText
 10
3.604349149064324
 20
3.738469078244314
 30
0.0
 40
0.125
 41
0.0
 46
0.0
 71
     5
 72
     1
  1
\A1;1
  7
SIMPLEX
 73
     1
 44
1.0
  0
POINT
  5
CF2
330
CB8
100
AcDbEntity
  8
DEFPOINTS
 62
     0
440
 16777216
100
AcDbPoint
 10
4.669538379700861
 20
4.238469078244312
 30
0.0
  0
POINT
  5
CF3
330
CB8
100
AcDbEntity
  8
DEFPOINTS
 62
     0
440
 16777216
100
AcDbPoint
 10
4.520794116008081
 20
3.238469078244314
 30
0.0
  0
POINT
  5
CF4
330
CB8
100
AcDbEntity
  8
DEFPOINTS
 62
     0
440
 16777216
100
AcDbPoint
 10
3.604349149064326
 20
3.238469078244314
 30
0.0
  0
ENDBLK
  5
CBA
330
CB8
100
AcDbEntity
  8
0
100
AcDbBlockEnd
  0
BLOCK
  5
CC7
330
CC6
100
AcDbEntity
  8
0
100
AcDbBlockBegin
  2
*D4
 70
     1
 10
0.0
 20
0.0
 30
0.0
  3
*D4
  1

  0
LINE
  5
CF5
330
CC6
100
AcDbEntity
  8
3
 62
     0
440
 16777216
370
    -2
100
AcDbLine
 10
4.333294116008081
 20
5.339931280391358
 30
0.0
 11
3.541849149064326
 21
5.339931280391358
 31
0.0
  0
LINE
  5
CF6
330
CC6
100
AcDbEntity
  8
3
 62
     0
440
 16777216
370
    -2
100
AcDbLine
 10
4.333294116008088
 20
6.839931280391365
 30
0.0
 11
3.541849149064326
 21
6.839931280391365
 31
0.0
  0
LINE
  5
CF7
330
CC6
100
AcDbEntity
  8
3
 62
     0
440
 16777216
370
    -2
100
AcDbLine
 10
3.604349149064326
 20
5.464931280391358
 30
0.0
 11
3.604349149064326
 21
5.850347947058026
 31
0.0
  0
LINE
  5
CF8
330
CC6
100
AcDbEntity
  8
3
 62
     0
440
 16777216
370
    -2
100
AcDbLine
 10
3.604349149064326
 20
6.714931280391365
 30
0.0
 11
3.604349149064326
 21
6.329514613724692
 31
0.0
  0
SOLID
  5
CF9
330
CC6
100
AcDbEntity
  8
3
 62
     0
440
 16777216
100
AcDbTrace
 10
3.583515815730993
 20
5.464931280391358
 30
0.0
 11
3.62518248239766
 21
5.464931280391358
 31
0.0
 12
3.604349149064326
 22
5.339931280391358
 32
0.0
 13
3.604349149064326
 23
5.339931280391358
 33
0.0
  0
SOLID
  5
CFA
330
CC6
100
AcDbEntity
  8
3
 62
     0
440
 16777216
100
AcDbTrace
 10
3.583515815730993
 20
6.714931280391365
 30
0.0
 11
3.62518248239766
 21
6.714931280391365
 31
0.0
 12
3.604349149064326
 22
6.839931280391365
 32
0.0
 13
3.604349149064326
 23
6.839931280391365
 33
0.0
  0
MTEXT
  5
CFB
330
CC6
100
AcDbEntity
  8
3
 62
     0
440
 16777216
100
AcDbMText
 10
3.604349149064326
 20
6.089931280391361
 30
0.0
 40
0.125
 41
0.0
 46
0.0
 71
     5
 72
     1
  1
\A1;1{\H1.000000x;\S1/2;}
  7
SIMPLEX
 73
     1
 44
1.0
  0
POINT
  5
CFC
330
CC6
100
AcDbEntity
  8
DEFPOINTS
 62
     0
440
 16777216
100
AcDbPoint
 10
4.395794116008081
 20
5.339931280391358
 30
0.0
  0
POINT
  5
CFD
330
CC6
100
AcDbEntity
  8
DEFPOINTS
 62
     0
440
 16777216
100
AcDbPoint
 10
4.395794116008088
 20
6.839931280391365
 30
0.0
  0
POINT
  5
CFE
330
CC6
100
AcDbEntity
  8
DEFPOINTS
 62
     0
440
 16777216
100
AcDbPoint
 10
3.604349149064326
 20
6.839931280391365
 30
0.0
  0
ENDBLK
  5
CC8
330
CC6
100
AcDbEntity
  8
0
100
AcDbBlockEnd
  0
BLOCK
  5
CD5
330
CD4
100
AcDbEntity
  8
0
100
AcDbBlockBegin
  2
*D5
 70
     1
 10
0.0
 20
0.0
 30
0.0
  3
*D5
  1

  0
LINE
  5
CFF
330
CD4
100
AcDbEntity
  8
3
 62
     0
440
 16777216
370
    -2
100
AcDbLine
 10
4.395794116008081
 20
5.277431280391358
 30
0.0
 11
4.395794116008081
 21
4.929624300027853
 31
0.0
  0
LINE
  5
D00
330
CD4
100
AcDbEntity
  8
3
 62
     0
440
 16777216
370
    -2
100
AcDbLine
 10
7.520794116008081
 20
5.423431280391358
 30
0.0
 11
7.520794116008081
 21
4.929624300027853
 31
0.0
  0
LINE
  5
D01
330
CD4
100
AcDbEntity
  8
3
 62
     0
440
 16777216
370
    -2
100
AcDbLine
 10
4.520794116008081
 20
4.992124300027853
 30
0.0
 11
5.763353639817607
 21
4.992124300027853
 31
0.0
  0
LINE
  5
D02
330
CD4
100
AcDbEntity
  8
3
 62
     0
440
 16777216
370
    -2
100
AcDbLine
 10
7.395794116008081
 20
4.992124300027853
 30
0.0
 11
6.153234592198558
 21
4.992124300027853
 31
0.0
  0
SOLID
  5
D03
330
CD4
100
AcDbEntity
  8
3
 62
     0
440
 16777216
100
AcDbTrace
 10
4.520794116008081
 20
5.012957633361186
 30
0.0
 11
4.520794116008081
 21
4.971290966694519
 31
0.0
 12
4.395794116008081
 22
4.992124300027853
 32
0.0
 13
4.395794116008081
 23
4.992124300027853
 33
0.0
  0
SOLID
  5
D04
330
CD4
100
AcDbEntity
  8
3
 62
     0
440
 16777216
100
AcDbTrace
 10
7.395794116008081
 20
5.012957633361186
 30
0.0
 11
7.395794116008081
 21
4.971290966694519
 31
0.0
 12
7.520794116008081
 22
4.992124300027853
 32
0.0
 13
7.520794116008081
 23
4.992124300027853
 33
0.0
  0
MTEXT
  5
D05
330
CD4
100
AcDbEntity
  8
3
 62
     0
440
 16777216
100
AcDbMText
 10
5.958294116008081
 20
4.992124300027853
 30
0.0
 40
0.125
 41
0.0
 46
0.0
 71
     5
 72
     1
  1
\A1;3{\H1.000000x;\S1/8;}
  7
SIMPLEX
 73
     1
 44
1.0
  0
POINT
  5
D06
330
CD4
100
AcDbEntity
  8
DEFPOINTS
 62
     0
440
 16777216
100
AcDbPoint
 10
4.395794116008081
 20
5.339931280391358
 30
0.0
  0
POINT
  5
D07
330
CD4
100
AcDbEntity
  8
DEFPOINTS
 62
     0
440
 16777216
100
AcDbPoint
 10
7.520794116008081
 20
5.485931280391358
 30
0.0
  0
POINT
  5
D08
330
CD4
100
AcDbEntity
  8
DEFPOINTS
 62
     0
440
 16777216
100
AcDbPoint
 10
7.520794116008081
 20
4.992124300027853
 30
0.0
  0
ENDBLK
  5
CD6
330
CD4
100
AcDbEntity
  8
0
100
AcDbBlockEnd
  0
ENDSEC
  0
SECTION
  2
ENTITIES
  0
TEXT
  5
D1
330
17
100
AcDbEntity
  8
3
100
AcDbText
 10
14.80145902913199
 20
13.88841741096017
 30
0.0
 40
0.125
  1

  7
SIMPLEX
 72
     1
 11
14.80145902913199
 21
13.88841741096017
 31
0.0
100
AcDbText
  0
LINE
  5
D3
330
17
100
AcDbEntity
  8
4
100
AcDbLine
 10
11.04999999999999
 20
8.5
 30
0.0
 11
0.0
 21
8.5
 31
0.0
  0
LINE
  5
D7
330
17
100
AcDbEntity
  8
4
100
AcDbLine
 10
10.175
 20
7.699999999999998
 30
0.0
 11
0.8749999999999996
 21
7.699999999999998
 31
0.0
  0
LINE
  5
D8
330
17
100
AcDbEntity
  8
4
100
AcDbLine
 10
10.175
 20
0.799999999999999
 30
0.0
 11
0.8749999999999996
 21
0.8000000000000007
 31
0.0
  0
LINE
  5
D9
330
17
100
AcDbEntity
  8
4
100
AcDbLine
 10
11.05
 20
-0.0000000000000018
 30
0.0
 11
0.0
 21
0.0
 31
0.0
  0
LINE
  5
DA
330
17
100
AcDbEntity
  8
4
100
AcDbLine
 10
0.8749999999999996
 20
0.799999999999999
 30
0.0
 11
0.8749999999999996
 21
7.699999999999998
 31
0.0
  0
LINE
  5
DB
330
17
100
AcDbEntity
  8
4
100
AcDbLine
 10
0.0
 20
0.0
 30
0.0
 11
0.0
 21
8.5
 31
0.0
  0
TEXT
  5
DC
330
17
100
AcDbEntity
  8
2
100
AcDbText
 10
0.9049825090618023
 20
4.030574231773566
 30
0.0
 40
0.078
  1
3
  7
SIMPLEX
 72
     1
 11
0.9309825090618023
 21
4.030574231773566
 31
0.0
100
AcDbText
  0
TEXT
  5
DF
330
17
100
AcDbEntity
  8
3
100
AcDbText
 10
0.9950435617734379
 20
0.9483995795303348
 30
0.0
 40
0.05859375
  1
*
  7
SIMPLEX
 72
     1
 11
1.00899445463058
 21
0.9483995795303348
 31
0.0
100
AcDbText
  0
LINE
  5
E0
330
17
100
AcDbEntity
  8
3
100
AcDbLine
 10
0.9995082472621025
 20
1.971875
 30
0.0
 11
0.8749999999999996
 21
1.971875
 31
0.0
  0
TEXT
  5
E1
330
17
100
AcDbEntity
  8
2
100
AcDbText
 10
0.9031253662046594
 20
2.654509031615021
 30
0.0
 40
0.078
  1
4
  7
SIMPLEX
 72
     1
 11
0.9309825090618023
 21
2.654509031615021
 31
0.0
100
AcDbText
  0
LINE
  5
E2
330
17
100
AcDbEntity
  8
3
100
AcDbLine
 10
0.9995082472621025
 20
3.403906249999999
 30
0.0
 11
0.8749999999999996
 21
3.403906249999999
 31
0.0
  0
LINE
  5
E6
330
17
100
AcDbEntity
  8
3
100
AcDbLine
 10
0.9995082472621025
 20
4.8359375
 30
0.0
 11
0.8749999999999996
 21
4.8359375
 31
0.0
  0
TEXT
  5
E7
330
17
100
AcDbEntity
  8
2
100
AcDbText
 10
0.9155696056437491
 20
5.45752131857499
 30
0.0
 40
0.078
  1
2
  7
SIMPLEX
 72
     1
 11
0.9415696056437493
 21
5.45752131857499
 31
0.0
100
AcDbText
  0
LINE
  5
E8
330
17
100
AcDbEntity
  8
3
100
AcDbLine
 10
0.9995082472621025
 20
6.267968750000001
 30
0.0
 11
0.8749999999999996
 21
6.267968750000001
 31
0.0
  0
TEXT
  5
E9
330
17
100
AcDbEntity
  8
2
100
AcDbText
 10
0.9216967947760881
 20
6.8960818739654
 30
0.0
 40
0.078
  1
1
  7
SIMPLEX
 72
     1
 11
0.9309825090618023
 21
6.8960818739654
 31
0.0
100
AcDbText
  0
TEXT
  5
EA
330
17
100
AcDbEntity
  8
2
100
AcDbText
 10
1.84660411949271
 20
7.572559019520411
 30
0.0
 40
0.078
  1
A
  7
SIMPLEX
 72
     1
 11
1.876318405206996
 21
7.572559019520411
 31
0.0
100
AcDbText
  0
LINE
  5
EB
330
17
100
AcDbEntity
  8
3
100
AcDbLine
 10
2.632019757010883
 20
7.57512622460608
 30
0.0
 11
2.632019757010883
 21
7.699999999999998
 31
0.0
  0
TEXT
  5
EC
330
17
100
AcDbEntity
  8
2
100
AcDbText
 10
3.369640262201776
 20
7.572559019520411
 30
0.0
 40
0.078
  1
B
  7
SIMPLEX
 72
     1
 11
3.395640262201776
 21
7.572559019520411
 31
0.0
100
AcDbText
  0
LINE
  5
ED
330
17
100
AcDbEntity
  8
4
100
AcDbLine
 10
10.175
 20
7.699999999999998
 30
0.0
 11
10.175
 21
0.8000000000000007
 31
0.0
  0
LINE
  5
EE
330
17
100
AcDbEntity
  8
4
100
AcDbLine
 10
11.04999999999999
 20
8.5
 30
0.0
 11
11.05
 21
-0.0000000000000018
 31
0.0
  0
LINE
  5
EF
330
17
100
AcDbEntity
  8
0
100
AcDbLine
 10
6.046907417275437
 20
1.268913789283077
 30
0.0
 11
10.175
 21
1.268913789283077
 31
0.0
  0
LINE
  5
F0
330
17
100
AcDbEntity
  8
0
100
AcDbLine
 10
6.046907417275437
 20
1.506851047390887
 30
0.0
 11
10.175
 21
1.506851047390887
 31
0.0
  0
LINE
  5
F1
330
17
100
AcDbEntity
  8
0
100
AcDbLine
 10
8.773484695253902
 20
1.088837136489871
 30
0.0
 11
10.175
 21
1.088837136489871
 31
0.0
  0
TEXT
  5
F2
330
17
100
AcDbEntity
  8
3
100
AcDbText
 10
9.093640744210206
 20
0.8589523399345058
 30
0.0
 40
0.0875305739995151
  1
320.42
  7
SIMPLEX
 72
     1
 11
9.310383117923292
 21
0.8589523399345058
 31
0.0
100
AcDbText
  0
LINE
  5
F4
330
17
100
AcDbEntity
  8
0
100
AcDbLine
 10
5.030927540495336
 20
1.816000699999956
 30
0.0
 11
10.175
 21
1.816000699999956
 31
0.0
  0
LINE
  5
F6
330
17
100
AcDbEntity
  8
0
100
AcDbLine
 10
6.046907417275479
 20
1.134922461148746
 30
0.0
 11
8.773484695253902
 21
1.134922461148746
 31
0.0
  0
LWPOLYLINE
  5
F7
330
17
100
AcDbEntity
  8
4
  6
Continuous
100
AcDbPolyline
 90
      114
 70
     0
 43
0.0
 10
6.827077428686127
 20
1.57837983739886
 10
6.825486501930065
 20
1.579681504744744
 10
6.823895575173955
 20
1.581561690911028
 10
6.822304648417855
 20
1.584165025602798
 10
6.820713721661793
 20
1.587346879115009
 10
6.819267424610817
 20
1.591107251447573
 10
6.818110386970023
 20
1.595735402010716
 10
6.817242608739404
 20
1.601086701099385
 10
6.816664089919047
 20
1.607161148713544
 10
6.816664089919047
 20
1.702906013489059
 10
6.81651946021396
 20
1.705509348180829
 10
6.815940941393517
 20
1.70825731257773
 10
6.814928533457812
 20
1.711005276974589
 10
6.813482236406837
 20
1.713608611666358
 10
6.811602050240557
 20
1.71621194635817
 10
6.809287974958963
 20
1.71881528104994
 10
6.806684640267191
 20
1.72127398603662
 10
6.803647416460115
 20
1.723732691023301
 10
6.800320933242815
 20
1.725902136599763
 10
6.796560560910247
 20
1.727926952471176
 10
6.792366299462418
 20
1.72966250893237
 10
6.788027408309407
 20
1.731253435688435
 10
6.783109998336048
 20
1.73241047332923
 10
6.778047958657595
 20
1.733422881264939
 10
6.772552029863837
 20
1.734001400085335
 10
6.766766841659897
 20
1.734290659495513
 10
6.760547764340651
 20
1.734001400085335
 10
6.754473316726492
 20
1.733133621854716
 10
6.748543498817426
 20
1.731398065393523
 10
6.742902940318535
 20
1.729228619817064
 10
6.737551641229906
 20
1.726336025715071
 10
6.732344971846365
 20
1.723009542497815
 10
6.727572191578094
 20
1.719104540460119
 10
6.723088670719995
 20
1.714765649307153
 10
6.719039038977258
 20
1.70999286903888
 10
6.715278666644688
 20
1.70493082936043
 10
6.712096813132477
 20
1.699579530271758
 10
6.709493478440709
 20
1.69393897177291
 10
6.707324032864201
 20
1.68800915386384
 10
6.705733106108142
 20
1.681934706249682
 10
6.704720698172431
 20
1.675715628930436
 10
6.704431438762256
 20
1.6693519219061
 10
6.704431438762256
 20
1.598772625817793
 10
6.704142179352036
 20
1.594289104959741
 10
6.70312977141637
 20
1.590528732627176
 10
6.701828104070485
 20
1.587346879115009
 10
6.700092547609246
 20
1.584743544423196
 10
6.698356991148099
 20
1.582718728551824
 10
6.696621434686902
 20
1.580983172090629
 10
6.694885878225706
 20
1.579681504744744
 10
6.693584210879826
 20
1.57852446710395
 10
6.724245708360792
 20
1.57852446710395
 10
6.728295340103535
 20
1.579102985924347
 10
6.731766453025926
 20
1.580549282975321
 10
6.734803676833045
 20
1.582718728551824
 10
6.737407011524815
 20
1.585611322653813
 10
6.739576457101275
 20
1.588793176165981
 10
6.741167383857384
 20
1.59226428908837
 10
6.742179791793088
 20
1.595880031715847
 10
6.742758310613442
 20
1.599495774343282
 10
6.74304757002362
 20
1.604702443726864
 10
6.742324421498178
 20
1.610053742815534
 10
6.741312013562469
 20
1.615260412199075
 10
6.740010346216584
 20
1.620322451877568
 10
6.738274789755393
 20
1.627553937132479
 10
6.736683862999285
 20
1.634785422387433
 10
6.735237565948317
 20
1.642016907642389
 10
6.73379126889734
 20
1.649248392897342
 10
6.732489601551451
 20
1.656479878152295
 10
6.731477193615749
 20
1.663855993112339
 10
6.730609415385128
 20
1.671087478367294
 10
6.730030896564771
 20
1.678463593327335
 10
6.729886266859685
 20
1.684538040941494
 10
6.730320155974951
 20
1.690757118260743
 10
6.731332563910655
 20
1.696831565874901
 10
6.732923490666721
 20
1.702761383783968
 10
6.735237565948317
 20
1.70825731257773
 10
6.738274789755393
 20
1.71331935225618
 10
6.742035162087956
 20
1.717658243409143
 10
6.746807942356229
 20
1.72127398603662
 10
6.749555906753132
 20
1.722720283087596
 10
6.752448500855081
 20
1.723732691023301
 10
6.75548572466216
 20
1.724455839548788
 10
6.758522948469237
 20
1.724889728664098
 10
6.761704801981446
 20
1.724889728664098
 10
6.764886655493576
 20
1.724455839548788
 10
6.767923879300695
 20
1.723732691023301
 10
6.770961103107732
 20
1.722720283087596
 10
6.773709067504637
 20
1.72127398603662
 10
6.776312402196442
 20
1.719538429575426
 10
6.778771107183085
 20
1.717368983998922
 10
6.780795923054456
 20
1.714910279012244
 10
6.782531479515691
 20
1.712162314615382
 10
6.783977776566665
 20
1.708980461103215
 10
6.784990184502371
 20
1.705509348180829
 10
6.785424073617639
 20
1.701748975848262
 10
6.785424073617639
 20
1.599061885228015
 10
6.785568703322731
 20
1.596603180241333
 10
6.786002592438037
 20
1.594433734664831
 10
6.786725740963525
 20
1.59226428908837
 10
6.787593519194142
 20
1.590239473216956
 10
6.788750556834941
 20
1.588503916755762
 10
6.790052224180826
 20
1.58676836029461
 10
6.791498521231797
 20
1.585177433538505
 10
6.793234077692992
 20
1.583731136487531
 10
6.795114263859272
 20
1.582574098846736
 10
6.796994450025557
 20
1.581417061205939
 10
6.799019265896929
 20
1.580549282975321
 10
6.801188711473432
 20
1.579826134449833
 10
6.803358157049936
 20
1.579102985924347
 10
6.805672232331531
 20
1.578669096809038
 10
6.807841677907989
 20
1.57852446710395
 10
6.81015575318954
 20
1.57837983739886
 10
6.827077428686127
 20
1.57837983739886
  0
TEXT
  5
16B
330
17
100
AcDbEntity
  8
3
100
AcDbText
 10
5.089538285908865
 20
1.17953383386011
 30
0.0
 40
0.0618196890168171
  1
FRACTIONS %%P 1/32
  7
SIMPLEX
 72
     1
 11
5.542882672032191
 21
1.17953383386011
 31
0.0
100
AcDbText
  0
TEXT
  5
16C
330
17
100
AcDbEntity
  8
3
100
AcDbText
 10
5.179324024719004
 20
1.073557224116979
 30
0.0
 40
0.0618196890168171
  1
ANGLES %%P 1/2%%D
  7
SIMPLEX
 72
     1
 11
5.542882672032191
 21
1.073557224116979
 31
0.0
100
AcDbText
  0
TEXT
  5
16D
330
17
100
AcDbEntity
  8
3
100
AcDbText
 10
5.214649561300043
 20
1.285510443603197
 30
0.0
 40
0.0618196890168171
  1
.XXX %%P .005 
  7
SIMPLEX
 72
     1
 11
5.542882672032191
 21
1.285510443603197
 31
0.0
100
AcDbText
  0
TEXT
  5
16E
330
17
100
AcDbEntity
  8
3
100
AcDbText
 10
5.286772531819663
 20
1.391487053346329
 30
0.0
 40
0.0618196890168171
  1
.XX %%P .010
  7
SIMPLEX
 72
     1
 11
5.542882672032191
 21
1.391487053346329
 31
0.0
100
AcDbText
  0
TEXT
  5
16F
330
17
100
AcDbEntity
  8
3
100
AcDbText
 10
5.255862687311254
 20
1.487547199255823
 30
0.0
 40
0.0618196890168171
  1
TOLERANCES
  7
SIMPLEX
 72
     1
 11
5.542882672032191
 21
1.487547199255823
 31
0.0
100
AcDbText
  0
TEXT
  5
170
330
17
100
AcDbEntity
  8
3
100
AcDbText
 10
5.261918842135609
 20
0.8181221239476901
 30
0.0
 40
0.0420373885314357
  1
READ ALL NOTES
  7
SIMPLEX
 72
     1
 11
5.534160977386812
 21
0.8181221239476901
 31
0.0
100
AcDbText
  0
TEXT
  5
171
330
17
100
AcDbEntity
  8
3
100
AcDbText
 10
5.297950889448268
 20
0.8780150085737686
 30
0.0
 40
0.0420373885314357
  1
DO NOT SCALE
  7
SIMPLEX
 72
     1
 11
5.534160977386812
 21
0.8780150085737686
 31
0.0
100
AcDbText
  0
TEXT
  5
172
330
17
100
AcDbEntity
  8
3
100
AcDbText
 10
5.207290074512327
 20
0.9675806143738492
 30
0.0
 40
0.0618196890168171
  1
HOLES %%P .005
  7
SIMPLEX
 72
     1
 11
5.542882672032191
 21
0.9675806143738492
 31
0.0
100
AcDbText
  0
LINE
  5
173
330
17
100
AcDbEntity
  8
0
100
AcDbLine
 10
5.030927540495336
 20
0.940730428956474
 30
0.0
 11
6.046907417275479
 21
0.940730428956474
 31
0.0
  0
TEXT
  5
174
330
17
100
AcDbEntity
  8
3
100
AcDbText
 10
5.061498189592092
 20
1.737244711247941
 30
0.0
 40
0.0495371109926942
  1
UNLESS OTHERWISE SPECIFIED
 41
0.8436671689696865
  7
SIMPLEX
 72
     5
 11
6.01477283611965
 21
1.737244711247941
 31
0.0
100
AcDbText
  0
TEXT
  5
175
330
17
100
AcDbEntity
  8
3
100
AcDbText
 10
5.061498189592092
 20
1.617010761484773
 30
0.0
 40
0.0495371109926942
  1
DIMENSIONS ARE IN INCHES
 41
0.9163641132346478
  7
SIMPLEX
 72
     5
 11
6.01477283611965
 21
1.617010761484773
 31
0.0
100
AcDbText
  0
LINE
  5
176
330
17
100
AcDbEntity
  8
0
100
AcDbLine
 10
5.030927540495336
 20
1.698751429459288
 30
0.0
 11
6.046907417275479
 21
1.698751429459288
 31
0.0
  0
LINE
  5
177
330
17
100
AcDbEntity
  8
0
100
AcDbLine
 10
5.030927540495336
 20
1.581522982138519
 30
0.0
 11
6.046907417275479
 21
1.581522982138519
 31
0.0
  0
LINE
  5
178
330
17
100
AcDbEntity
  8
4
100
AcDbLine
 10
5.030927540495336
 20
1.816000699999956
 30
0.0
 11
5.030927540495336
 21
0.7999999999999563
 31
0.0
  0
LINE
  5
182
330
17
100
AcDbEntity
  8
0
100
AcDbLine
 10
6.046907417275479
 20
0.7999999999999563
 30
0.0
 11
6.046907417275479
 21
1.815979876780058
 31
0.0
  0
TEXT
  5
183
330
17
100
AcDbEntity
  8
3
100
AcDbText
 10
6.080274928195279
 20
1.048988710554688
 30
0.0
 40
0.0390761491069264
  1
MAT'L DESCRIPTION:
  7
SIMPLEX
100
AcDbText
  0
TEXT
  5
184
330
17
100
AcDbEntity
  8
3
100
AcDbText
 10
6.086506016559246
 20
1.186077063341495
 30
0.0
 40
0.0390761491069264
  1
FILE PATH:
  7
SIMPLEX
100
AcDbText
  0
TEXT
  5
185
330
17
100
AcDbEntity
  8
3
100
AcDbText
 10
6.088605668526677
 20
1.425218385710799
 30
0.0
 40
0.0390761491069264
  1
NAME:
  7
SIMPLEX
100
AcDbText
  0
LWPOLYLINE
  5
18A
330
17
100
AcDbEntity
  8
4
  6
Continuous
100
AcDbPolyline
 90
       21
 70
     0
 43
0.0
 10
6.172083530474957
 20
1.757605381194095
 10
6.172083530474957
 20
1.601872722709718
 10
6.178722585596716
 20
1.53601566699277
 10
6.186606463553864
 20
1.601872722709718
 10
6.186606463553864
 20
1.757308994804724
 10
6.186428631720228
 20
1.759739363197523
 10
6.185954413497223
 20
1.761873345200948
 10
6.185243086162773
 20
1.763651663537149
 10
6.184353926994652
 20
1.765133595483979
 10
6.183227658715089
 20
1.766259863763582
 10
6.181982835879746
 20
1.767089745653814
 10
6.180678735766547
 20
1.767563963876778
 10
6.179374635653355
 20
1.767741795710412
 10
6.178011258262268
 20
1.767623241154668
 10
6.176707158149071
 20
1.767149022931663
 10
6.175462335313727
 20
1.766319141041432
 10
6.174336067034164
 20
1.76525215003972
 10
6.173446907866042
 20
1.763829495370783
 10
6.172735580531553
 20
1.762051177034581
 10
6.172261362308546
 20
1.759976472309048
 10
6.172083530474957
 20
1.757605381194095
  0
LWPOLYLINE
  5
1A1
330
17
100
AcDbEntity
  8
4
  6
Continuous
100
AcDbPolyline
 90
       21
 70
     0
 43
0.0
 10
6.123412263550168
 20
1.747425978612691
 10
6.123412263550168
 20
1.601931999987612
 10
6.130703368728521
 20
1.53601566699277
 10
6.138231583018406
 20
1.601635613598236
 10
6.138231583018406
 20
1.747959474113548
 10
6.138053751184773
 20
1.750330565228455
 10
6.137579532961807
 20
1.752345992676139
 10
6.136868205627314
 20
1.754065033734451
 10
6.135919769181348
 20
1.75548768840343
 10
6.134793500901738
 20
1.756495402127248
 10
6.133548678066438
 20
1.757266006739588
 10
6.132185300675352
 20
1.757680947684704
 10
6.130821923284266
 20
1.757799502240445
 10
6.129458545893179
 20
1.757562393128964
 10
6.128095168502087
 20
1.757028897628105
 10
6.126850345666787
 20
1.756199015737876
 10
6.125724077387186
 20
1.755072747458314
 10
6.124775640941255
 20
1.753590815511485
 10
6.124064313606722
 20
1.751871774453131
 10
6.123590095383762
 20
1.749797069727598
 10
6.123412263550168
 20
1.747425978612691
  0
LWPOLYLINE
  5
1B8
330
17
100
AcDbEntity
  8
4
  6
Continuous
100
AcDbPolyline
 90
       21
 70
     0
 43
0.0
 10
6.14807392204084
 20
1.771701683024874
 10
6.14807392204084
 20
1.601872722709718
 10
6.154712977162637
 20
1.53601566699277
 10
6.162596855119747
 20
1.601872722709718
 10
6.162596855119747
 20
1.771405296635501
 10
6.162419023286155
 20
1.7738356650283
 10
6.161944805063149
 20
1.775969647031724
 10
6.161233477728661
 20
1.777747965367929
 10
6.160344318560579
 20
1.779229897314755
 10
6.159218050280972
 20
1.780356165594361
 10
6.157973227445629
 20
1.781186047484548
 10
6.15666912733243
 20
1.781660265707556
 10
6.155365027219238
 20
1.781838097541147
 10
6.154001649828152
 20
1.781719542985405
 10
6.152697549714954
 20
1.78124532476244
 10
6.15145272687961
 20
1.78041544287221
 10
6.150326458600047
 20
1.779348451870496
 10
6.149437299431927
 20
1.77792579720156
 10
6.14872597209748
 20
1.776147478865359
 10
6.148251753874472
 20
1.774072774139782
 10
6.14807392204084
 20
1.771701683024874
  0
LWPOLYLINE
  5
1CF
330
17
100
AcDbEntity
  8
4
  6
Continuous
100
AcDbPolyline
 90
       18
 70
     0
 43
0.0
 10
6.183583322382317
 20
1.601754168153976
 10
6.183524045104465
 20
1.600805731708006
 10
6.183405490548724
 20
1.599857295262034
 10
6.183109104159349
 20
1.599027413371803
 10
6.182753440492081
 20
1.598256808759465
 10
6.182160667713378
 20
1.597545481425018
 10
6.181449340378892
 20
1.597011985924118
 10
6.180619458488656
 20
1.596656322256897
 10
6.179552467486946
 20
1.596478490423264
 10
6.178544753763122
 20
1.596537767701154
 10
6.177596317317152
 20
1.596834154090529
 10
6.176884989982664
 20
1.597367649591386
 10
6.176292217203915
 20
1.598078976925875
 10
6.175817998980952
 20
1.598908858816063
 10
6.175462335313727
 20
1.599798017984183
 10
6.175225226202203
 20
1.600746454430158
 10
6.175165948924355
 20
1.601754168153976
 10
6.183583322382317
 20
1.601754168153976
  0
LWPOLYLINE
  5
1E3
330
17
100
AcDbEntity
  8
4
  6
Continuous
100
AcDbPolyline
 90
       18
 70
     0
 43
0.0
 10
6.175106671646505
 20
1.605251527548491
 10
6.175047394368611
 20
1.60780045049703
 10
6.175047394368611
 20
1.610586482557055
 10
6.175047394368611
 20
1.613609623728603
 10
6.175284503480097
 20
1.61686987401159
 10
6.175699444425212
 20
1.620307956128254
 10
6.17647004903759
 20
1.623983147356359
 10
6.177655594595004
 20
1.627836170418136
 10
6.179374635653355
 20
1.631867025313503
 10
6.180797290322287
 20
1.628073279529619
 10
6.181923558601854
 20
1.624338811023623
 10
6.182753440492081
 20
1.62072289707337
 10
6.183346213270833
 20
1.617225537678856
 10
6.183701876938097
 20
1.613846732840085
 10
6.183820431493798
 20
1.610764314390688
 10
6.183820431493798
 20
1.607859727774924
 10
6.183701876938097
 20
1.605251527548491
 10
6.175106671646505
 20
1.605251527548491
  0
LWPOLYLINE
  5
1F7
330
17
100
AcDbEntity
  8
4
  6
Continuous
100
AcDbPolyline
 90
       18
 70
     0
 43
0.0
 10
6.135682660069867
 20
1.601754168153976
 10
6.135682660069867
 20
1.600805731708006
 10
6.135564105514123
 20
1.599857295262034
 10
6.13526771912475
 20
1.598968136093954
 10
6.134793500901738
 20
1.598078976925875
 10
6.134200728123036
 20
1.597308372313494
 10
6.133370846232807
 20
1.596715599534789
 10
6.132422409786838
 20
1.596300658589671
 10
6.131236864229382
 20
1.596182104033931
 10
6.130051318671927
 20
1.59635993586752
 10
6.129043604948106
 20
1.596715599534789
 10
6.128154445779983
 20
1.597249095035644
 10
6.127383841167644
 20
1.598019699647984
 10
6.126850345666787
 20
1.598849581538213
 10
6.126376127443825
 20
1.599738740706293
 10
6.126139018332298
 20
1.600746454430158
 10
6.126020463776557
 20
1.601754168153976
 10
6.135682660069867
 20
1.601754168153976
  0
LWPOLYLINE
  5
20B
330
17
100
AcDbEntity
  8
4
  6
Continuous
100
AcDbPolyline
 90
       18
 70
     0
 43
0.0
 10
6.125901909220816
 20
1.605014418437007
 10
6.125842631942968
 20
1.60845250055363
 10
6.12607974105445
 20
1.612009137226035
 10
6.12649468199952
 20
1.615565773898395
 10
6.127087454778268
 20
1.619063133292906
 10
6.127858059390611
 20
1.622382660853786
 10
6.128747218558732
 20
1.625346524747445
 10
6.129754932282555
 20
1.627954724973877
 10
6.130881200562157
 20
1.629970152421561
 10
6.131829637008087
 20
1.628014002251725
 10
6.132778073454105
 20
1.625524356581077
 10
6.133667232622181
 20
1.622501215409528
 10
6.13443783723452
 20
1.619122410570799
 10
6.135089887291119
 20
1.615565773898395
 10
6.135564105514123
 20
1.611949859948141
 10
6.135801214625607
 20
1.608393223275779
 10
6.135801214625607
 20
1.605014418437007
 10
6.125901909220816
 20
1.605014418437007
  0
LWPOLYLINE
  5
21F
330
17
100
AcDbEntity
  8
4
  6
Continuous
100
AcDbPolyline
 90
       18
 70
     0
 43
0.0
 10
6.15109706321239
 20
1.605251527548491
 10
6.151037785934494
 20
1.60780045049703
 10
6.151037785934494
 20
1.610586482557055
 10
6.151037785934494
 20
1.613609623728603
 10
6.151274895045979
 20
1.61686987401159
 10
6.151689835991137
 20
1.620307956128254
 10
6.152460440603473
 20
1.623983147356359
 10
6.153645986160931
 20
1.627836170418136
 10
6.155365027219238
 20
1.631867025313503
 10
6.156787681888221
 20
1.628073279529619
 10
6.157913950167781
 20
1.624338811023623
 10
6.158743832057966
 20
1.62072289707337
 10
6.159336604836719
 20
1.617225537678856
 10
6.159692268503983
 20
1.613846732840085
 10
6.159810823059724
 20
1.610764314390688
 10
6.159810823059724
 20
1.607859727774924
 10
6.159692268503983
 20
1.605251527548491
 10
6.15109706321239
 20
1.605251527548491
  0
LWPOLYLINE
  5
233
330
17
100
AcDbEntity
  8
4
  6
Continuous
100
AcDbPolyline
 90
       18
 70
     0
 43
0.0
 10
6.159573713948197
 20
1.601754168153976
 10
6.159514436670348
 20
1.600805731708006
 10
6.159395882114607
 20
1.599857295262034
 10
6.159099495725232
 20
1.599027413371803
 10
6.158743832057966
 20
1.598256808759465
 10
6.158151059279263
 20
1.597545481425018
 10
6.157439731944776
 20
1.597011985924118
 10
6.15660985005454
 20
1.596656322256897
 10
6.155542859052828
 20
1.596478490423264
 10
6.154535145329005
 20
1.596537767701154
 10
6.153586708883036
 20
1.596834154090529
 10
6.152875381548549
 20
1.597367649591386
 10
6.152282608769843
 20
1.598078976925875
 10
6.151808390546835
 20
1.598908858816063
 10
6.15145272687961
 20
1.599798017984183
 10
6.151215617768125
 20
1.600746454430158
 10
6.151156340490281
 20
1.601754168153976
 10
6.159573713948197
 20
1.601754168153976
  0
LWPOLYLINE
  5
247
330
17
100
AcDbEntity
  8
4
  6
Continuous
100
AcDbPolyline
 90
       83
 70
     0
 43
0.0
 10
6.334822929714777
 20
1.712596203730694
 10
6.332508854433186
 20
1.714765649307153
 10
6.330194779151592
 20
1.716935094883656
 10
6.327880703870042
 20
1.718959910755029
 10
6.325421998883362
 20
1.720840096921311
 10
6.322818664191551
 20
1.722431023677418
 10
6.319926070089604
 20
1.72387732072839
 10
6.316744216577394
 20
1.725178988074275
 10
6.313128473949916
 20
1.726046766304895
 10
6.245731031373825
 20
1.688732302389371
 10
6.245441771963647
 20
1.592553548498548
 10
6.24558640166873
 20
1.590962621742485
 10
6.245875661078907
 20
1.589227065281291
 10
6.246454179899353
 20
1.587780768230274
 10
6.247177328424798
 20
1.586334471179301
 10
6.248045106655413
 20
1.585032803833416
 10
6.249057514591121
 20
1.583731136487531
 10
6.250214552231919
 20
1.582718728551824
 10
6.2515162195778
 20
1.581706320616116
 10
6.253685665154308
 20
1.580404653270232
 10
6.255999740435853
 20
1.579247615629436
 10
6.258313815717446
 20
1.578235207693771
 10
6.260772520704126
 20
1.577367429463153
 10
6.263231225690808
 20
1.576788910642754
 10
6.265689930677488
 20
1.576210391822356
 10
6.268293265369262
 20
1.57577650270709
 10
6.270896600061075
 20
1.575342613591781
 10
6.27349993475284
 20
1.575197983886691
 10
6.276103269444611
 20
1.575053354181561
 10
6.278706604136381
 20
1.575053354181561
 10
6.281454568533241
 20
1.575197983886691
 10
6.284057903225053
 20
1.575342613591781
 10
6.286661237916868
 20
1.575631873001959
 10
6.289264572608638
 20
1.57592113241218
 10
6.291867907300401
 20
1.576355021527489
 10
6.294905131107483
 20
1.576788910642754
 10
6.297942354914564
 20
1.577512059168241
 10
6.300834949016511
 20
1.578235207693771
 10
6.303727543118543
 20
1.579102985924347
 10
6.306620137220491
 20
1.580115393860054
 10
6.309512731322437
 20
1.58127243150085
 10
6.31226069571938
 20
1.582574098846736
 10
6.315008660116244
 20
1.583875766192619
 10
6.317611994808012
 20
1.585322063243593
 10
6.320359959204871
 20
1.586912989999698
 10
6.322818664191551
 20
1.588648546460895
 10
6.325421998883362
 20
1.590384102922087
 10
6.327880703870042
 20
1.59226428908837
 10
6.330194779151592
 20
1.594144475254653
 10
6.332508854433186
 20
1.596169291126025
 10
6.334822929714777
 20
1.598194106997396
 10
6.338438672342256
 20
1.601954479329965
 10
6.341765155559553
 20
1.605859481367659
 10
6.344947009071723
 20
1.609909113110403
 10
6.347694973468628
 20
1.614248004263411
 10
6.350298308160398
 20
1.618876154826551
 10
6.352612383441985
 20
1.623504305389736
 10
6.354492569608225
 20
1.628277085658009
 10
6.356228126069468
 20
1.63319449563137
 10
6.357529793415344
 20
1.638111905604734
 10
6.358542201351013
 20
1.643318574988274
 10
6.359265349876496
 20
1.648380614666724
 10
6.359699238991812
 20
1.653587284050305
 10
6.359843868696894
 20
1.658649323728758
 10
6.359554609286679
 20
1.663855993112339
 10
6.35897609046632
 20
1.669062662495877
 10
6.358108312235702
 20
1.674124702174374
 10
6.357385163710218
 20
1.67687266657123
 10
6.356662015184728
 20
1.679620630968134
 10
6.355794236954113
 20
1.68236859536499
 10
6.354781829018449
 20
1.68497193005676
 10
6.353624791377651
 20
1.687575264748573
 10
6.352323124031766
 20
1.690178599440343
 10
6.351021456685837
 20
1.692637304427025
 10
6.349575159634861
 20
1.695096009413705
 10
6.347984232878799
 20
1.697554714400387
 10
6.346248676417608
 20
1.699868789681977
 10
6.344513119956411
 20
1.702182864963571
 10
6.342777563495221
 20
1.70435231054003
 10
6.340897377328936
 20
1.706521756116536
 10
6.338872561457562
 20
1.708546571987906
 10
6.336847745586189
 20
1.710571387859278
 10
6.334822929714777
 20
1.712596203730694
  0
LWPOLYLINE
  5
29C
330
17
100
AcDbEntity
  8
4
  6
Continuous
100
AcDbPolyline
 90
       59
 70
     0
 43
0.0
 10
6.276103269444611
 20
1.687719894453664
 10
6.290855499364695
 20
1.69900101145136
 10
6.293169574646293
 20
1.698856381746271
 10
6.295339020222789
 20
1.698567122336092
 10
6.297508465799257
 20
1.697988603515695
 10
6.299533281670626
 20
1.697410084695298
 10
6.301702727247128
 20
1.696542306464679
 10
6.303727543118543
 20
1.695529898529017
 10
6.305607729284782
 20
1.694372860888218
 10
6.307487915451106
 20
1.693071193542333
 10
6.309223471912261
 20
1.691769526196405
 10
6.310959028373456
 20
1.690323229145434
 10
6.312694584834652
 20
1.688876932094458
 10
6.314285511590714
 20
1.687286005338354
 10
6.315731808641728
 20
1.685695078582291
 10
6.317178105692746
 20
1.684104151826186
 10
6.318479773038627
 20
1.682657854775212
 10
6.319636810679383
 20
1.681066928019108
 10
6.323686442422168
 20
1.674703220994771
 10
6.326868295934338
 20
1.668050254560215
 10
6.329182371215932
 20
1.66096339901035
 10
6.330773297972031
 20
1.653731913755397
 10
6.331785705907702
 20
1.646355798795353
 10
6.332219595023007
 20
1.638835054130221
 10
6.332508854433186
 20
1.631314309465088
 10
6.332364224728094
 20
1.623793564799913
 10
6.332074965317922
 20
1.619888562762259
 10
6.331351816792388
 20
1.616128190429694
 10
6.330194779151592
 20
1.612512447802216
 10
6.328748482100616
 20
1.60904133487983
 10
6.327012925639425
 20
1.605714851662571
 10
6.324843480062966
 20
1.602532998150361
 10
6.322529404781374
 20
1.599640404048415
 10
6.319926070089604
 20
1.596892439651511
 10
6.317033475987613
 20
1.594433734664831
 10
6.31414088188562
 20
1.592119659383239
 10
6.310959028373456
 20
1.590094843511866
 10
6.307777174861286
 20
1.588214657345583
 10
6.304595321349076
 20
1.586623730589478
 10
6.301268838131862
 20
1.585466692948683
 10
6.297942354914564
 20
1.58445428501302
 10
6.294760501402352
 20
1.583731136487531
 10
6.292880315236112
 20
1.583875766192619
 10
6.291000129069789
 20
1.584020395897709
 10
6.289119942903549
 20
1.58445428501302
 10
6.287384386442312
 20
1.585032803833416
 10
6.285648829981158
 20
1.585755952358903
 10
6.284057903225053
 20
1.586623730589478
 10
6.282466976468949
 20
1.587780768230274
 10
6.281165309123062
 20
1.588937805871071
 10
6.279719012072089
 20
1.590384102922087
 10
6.278706604136381
 20
1.591975029678149
 10
6.277838825905806
 20
1.593710586139343
 10
6.277115677380318
 20
1.595590772305626
 10
6.276681788265007
 20
1.59747095847191
 10
6.276392528854787
 20
1.599495774343282
 10
6.276103269444611
 20
1.601520590214696
 10
6.276103269444611
 20
1.603545406086069
 10
6.276103269444611
 20
1.687719894453664
  0
LINE
  5
2D9
330
17
100
AcDbEntity
  8
0
100
AcDbLine
 10
6.155218017985428
 20
1.781825314129529
 30
0.0
 11
6.155218017985428
 21
1.781825314129529
 31
0.0
  0
LWPOLYLINE
  5
2DA
330
17
100
AcDbEntity
  8
4
  6
Continuous
100
AcDbPolyline
 90
      271
 70
     0
 43
0.0
 10
6.653879028538867
 20
1.670508959546895
 10
6.651854212667493
 20
1.671665997187693
 10
6.649829396796079
 20
1.672678405123356
 10
6.647659951219619
 20
1.673546183353975
 10
6.645635135348245
 20
1.674413961584551
 10
6.643465689771743
 20
1.675281739815126
 10
6.641296244195242
 20
1.675860258635524
 10
6.639126798618778
 20
1.676583407161053
 10
6.636957353042318
 20
1.677161925981453
 10
6.634643277760731
 20
1.677595815096719
 10
6.632473832184223
 20
1.677885074506939
 10
6.630015127197544
 20
1.678174333917116
 10
6.627701051915951
 20
1.678463593327335
 10
6.625242346929272
 20
1.678608223032425
 10
6.622783641942585
 20
1.678608223032425
 10
6.620324936955905
 20
1.678608223032425
 10
6.617721602264137
 20
1.678463593327335
 10
6.583588991860781
 20
1.648091355256545
 10
6.586192326552553
 20
1.648669874076944
 10
6.588795661244321
 20
1.649248392897342
 10
6.591398995936129
 20
1.649826911717742
 10
6.594002330627946
 20
1.650260800833049
 10
6.596605665319717
 20
1.650694689948315
 10
6.599209000011486
 20
1.650983949358536
 10
6.601812334703258
 20
1.651273208768714
 10
6.604560299100112
 20
1.651417838473804
 10
6.607163633791883
 20
1.651562468178934
 10
6.609766968483697
 20
1.651562468178934
 10
6.612370303175512
 20
1.651562468178934
 10
6.614973637867278
 20
1.651417838473804
 10
6.617576972559048
 20
1.651128579063626
 10
6.620180307250818
 20
1.650694689948315
 10
6.622783641942585
 20
1.650260800833049
 10
6.625386976634357
 20
1.64968228201265
 10
6.627122533095597
 20
1.649103763192254
 10
6.629002719261838
 20
1.648669874076944
 10
6.630738275723028
 20
1.647946725551457
 10
6.632473832184223
 20
1.64736820673106
 10
6.63420938864542
 20
1.646645058205573
 10
6.635944945106611
 20
1.645921909680044
 10
6.637535871862669
 20
1.645054131449468
 10
6.639271428323912
 20
1.64418635321889
 10
6.640862355079973
 20
1.643173945283183
 10
6.64230865213095
 20
1.642161537347478
 10
6.643754949181921
 20
1.641149129411813
 10
6.645201246232936
 20
1.639992091771015
 10
6.646502913578824
 20
1.63869042442513
 10
6.647804580924706
 20
1.637388757079245
 10
6.648961618565503
 20
1.635942460028229
 10
6.650118656206299
 20
1.634496162977255
 10
6.651854212667493
 20
1.631892828285444
 10
6.653300509718465
 20
1.629000234183496
 10
6.654312917654178
 20
1.626107640081506
 10
6.65503606617966
 20
1.622925786569338
 10
6.655469955294972
 20
1.619888562762259
 10
6.655325325589884
 20
1.616706709250092
 10
6.654602177064353
 20
1.613669485443013
 10
6.65344513942356
 20
1.61077689134102
 10
6.651709582962402
 20
1.60817355664925
 10
6.649684767090991
 20
1.606004111072748
 10
6.647370691809397
 20
1.604123924906466
 10
6.644622727412538
 20
1.602532998150361
 10
6.641730133310594
 20
1.601231330804476
 10
6.638837539208562
 20
1.600218922868811
 10
6.635655685696433
 20
1.599351144638194
 10
6.632618461889316
 20
1.598772625817793
 10
6.631172164838342
 20
1.598627996112706
 10
6.629581238082277
 20
1.59833873670253
 10
6.628134941031259
 20
1.598194106997396
 10
6.626544014275153
 20
1.598194106997396
 10
6.624953087519092
 20
1.598049477292308
 10
6.62350679046812
 20
1.598049477292308
 10
6.621915863711972
 20
1.598049477292308
 10
6.620324936955905
 20
1.598049477292308
 10
6.618878639904933
 20
1.598049477292308
 10
6.617287713148871
 20
1.598194106997396
 10
6.615696786392723
 20
1.598194106997396
 10
6.614105859636661
 20
1.598483366407618
 10
6.612659562585682
 20
1.598627996112706
 10
6.611068635829582
 20
1.598917255522926
 10
6.609622338778563
 20
1.599206514933103
 10
6.6080314120225
 20
1.599495774343282
 10
6.606295855561352
 20
1.599929663458591
 10
6.604560299100112
 20
1.6003635525739
 10
6.602969372344053
 20
1.6009420713943
 10
6.601233815882856
 20
1.601520590214696
 10
6.599642889126752
 20
1.602243738740185
 10
6.598051962370688
 20
1.60296688726567
 10
6.596461035614583
 20
1.60383466549629
 10
6.594870108858478
 20
1.604702443726864
 10
6.593423811807503
 20
1.605570221957438
 10
6.591832885051442
 20
1.606582629893145
 10
6.590386588000427
 20
1.607595037828853
 10
6.588940290949408
 20
1.608607445764518
 10
6.587493993898433
 20
1.609619853700226
 10
6.586192326552553
 20
1.61077689134102
 10
6.584746029501579
 20
1.611933928981819
 10
6.583444362155692
 20
1.613090966622613
 10
6.581274916579188
 20
1.615260412199075
 10
6.579250100707817
 20
1.617574487480668
 10
6.577225284836443
 20
1.619888562762259
 10
6.575200468965031
 20
1.622202638043851
 10
6.573320282798793
 20
1.624516713325401
 10
6.571584726337554
 20
1.626975418312082
 10
6.569704540171311
 20
1.629578753003894
 10
6.568113613415168
 20
1.632037457990576
 10
6.566522686659106
 20
1.634640792682346
 10
6.565076389608125
 20
1.637388757079245
 10
6.563774722262245
 20
1.639992091771015
 10
6.56247305491636
 20
1.642740056167877
 10
6.561316017275562
 20
1.645632650269866
 10
6.560448239044947
 20
1.648380614666724
 10
6.55958046081437
 20
1.651417838473804
 10
6.558857312288886
 20
1.654310432575793
 10
6.557844904353177
 20
1.66096339901035
 10
6.557411015237907
 20
1.667905624855084
 10
6.557844904353177
 20
1.674847850699861
 10
6.559001941993972
 20
1.681500817134416
 10
6.561026757865344
 20
1.687864524158751
 10
6.564063981672422
 20
1.693649712362732
 10
6.567968983710076
 20
1.698856381746271
 10
6.57288639368344
 20
1.703050643194147
 10
6.574621950144673
 20
1.704063051129853
 10
6.576357506605826
 20
1.70493082936043
 10
6.578237692772152
 20
1.705798607591005
 10
6.579973249233304
 20
1.706521756116536
 10
6.581853435399632
 20
1.707100274936934
 10
6.583878251270955
 20
1.707678793757331
 10
6.585758437437283
 20
1.708112682872599
 10
6.587783253308657
 20
1.708401942282819
 10
6.589663439474937
 20
1.708691201692995
 10
6.591688255346355
 20
1.708835831398085
 10
6.59371307121768
 20
1.708835831398085
 10
6.595737887089097
 20
1.708835831398085
 10
6.597762702960512
 20
1.708835831398085
 10
6.599787518831843
 20
1.708691201692995
 10
6.601667704998167
 20
1.708401942282819
 10
6.60369252086954
 20
1.708112682872599
 10
6.606295855561352
 20
1.707678793757331
 10
6.608899190253121
 20
1.707100274936934
 10
6.611502524944893
 20
1.706521756116536
 10
6.613961229931573
 20
1.705653977885917
 10
6.61641993491825
 20
1.70478619965534
 10
6.618878639904933
 20
1.703773791719632
 10
6.621337344891613
 20
1.702761383783968
 10
6.623796049878293
 20
1.701604346143174
 10
6.626110125159887
 20
1.700302678797245
 10
6.628279570736392
 20
1.69900101145136
 10
6.630593646017942
 20
1.697410084695298
 10
6.632763091594402
 20
1.695963787644281
 10
6.634932537170903
 20
1.694228231183132
 10
6.636957353042318
 20
1.692637304427025
 10
6.638982168913687
 20
1.690757118260743
 10
6.640862355079973
 20
1.688876932094458
 10
6.66761885052329
 20
1.703339902604326
 10
6.665883294062052
 20
1.706521756116536
 10
6.663858478190721
 20
1.709414350218484
 10
6.661544402909128
 20
1.712162314615382
 10
6.658941068217358
 20
1.714621019602065
 10
6.656193103820458
 20
1.716935094883656
 10
6.653155880013374
 20
1.718959910755029
 10
6.650118656206299
 20
1.720840096921311
 10
6.64693680269413
 20
1.722575653382505
 10
6.644478097707451
 20
1.723732691023301
 10
6.641874763015683
 20
1.724889728664098
 10
6.639416058028999
 20
1.725902136599763
 10
6.636812723337228
 20
1.726769914830381
 10
6.634064758940287
 20
1.727637693060958
 10
6.631461424248517
 20
1.728216211881355
 10
6.628713459851655
 20
1.728794730701753
 10
6.625965495454798
 20
1.729228619817064
 10
6.623217531057896
 20
1.72951787922724
 10
6.620469566660996
 20
1.72966250893237
 10
6.617576972559048
 20
1.729807138637461
 10
6.614829008162188
 20
1.729807138637461
 10
6.612081043765247
 20
1.72966250893237
 10
6.609333079368385
 20
1.72937324952215
 10
6.606585114971526
 20
1.728939360406841
 10
6.603837150574626
 20
1.728360841586443
 10
6.601233815882856
 20
1.727782322766045
 10
6.598775110896177
 20
1.72691454453547
 10
6.596171776204366
 20
1.726046766304895
 10
6.59371307121768
 20
1.725178988074275
 10
6.591398995936129
 20
1.724021950433481
 10
6.588940290949408
 20
1.722864912792684
 10
6.586626215667858
 20
1.721563245446798
 10
6.584312140386308
 20
1.720261578100913
 10
6.581998065104715
 20
1.71881528104994
 10
6.579828619528213
 20
1.717368983998922
 10
6.577659173951714
 20
1.71577805724286
 10
6.575489728375249
 20
1.714187130486755
 10
6.573320282798793
 20
1.712451574025561
 10
6.571295466927377
 20
1.71071601756441
 10
6.569126021350871
 20
1.708980461103215
 10
6.567101205479502
 20
1.707244904642021
 10
6.564208611377511
 20
1.704641569950251
 10
6.561460646980652
 20
1.70203823525844
 10
6.558712682583794
 20
1.69929027086158
 10
6.556109347891977
 20
1.69639767675959
 10
6.553506013200209
 20
1.6935050826576
 10
6.551047308213528
 20
1.690612488555653
 10
6.548733232931937
 20
1.687575264748573
 10
6.546419157650387
 20
1.684393411236363
 10
6.544394341778971
 20
1.681211557724195
 10
6.542369525907559
 20
1.677885074506939
 10
6.54048933974132
 20
1.674558591289639
 10
6.538898412985171
 20
1.671087478367294
 10
6.537452115934192
 20
1.667616365444906
 10
6.536150448588313
 20
1.664000622817429
 10
6.534993410947516
 20
1.66038488018995
 10
6.534125632716941
 20
1.656624507857387
 10
6.533257854486365
 20
1.651562468178934
 10
6.532823965371052
 20
1.646355798795353
 10
6.532679335665924
 20
1.6412937591169
 10
6.532823965371052
 20
1.636087089733319
 10
6.533402484191454
 20
1.631025050054869
 10
6.534414892127162
 20
1.625963010376418
 10
6.535716559473047
 20
1.620900970697966
 10
6.537452115934192
 20
1.616128190429694
 10
6.538609153574994
 20
1.613524855737882
 10
6.539910820920879
 20
1.610921521046111
 10
6.541212488266761
 20
1.608462816059429
 10
6.542803415022912
 20
1.606148740777838
 10
6.544394341778971
 20
1.60383466549629
 10
6.546129898240127
 20
1.601520590214696
 10
6.548010084406449
 20
1.599351144638194
 10
6.549890270572735
 20
1.597326328766822
 10
6.551915086444107
 20
1.595301512895449
 10
6.554084532020606
 20
1.593421326729167
 10
6.556253977597112
 20
1.591541140562841
 10
6.558423423173528
 20
1.589805584101688
 10
6.560737498455121
 20
1.588214657345583
 10
6.5631962034418
 20
1.58676836029461
 10
6.565654908428482
 20
1.585322063243593
 10
6.568113613415168
 20
1.584020395897709
 10
6.573898801619146
 20
1.581561690911028
 10
6.579828619528213
 20
1.579536875039656
 10
6.585903067142374
 20
1.578090577988639
 10
6.592122144461622
 20
1.576933540347886
 10
6.598341221780869
 20
1.576355021527489
 10
6.604560299100112
 20
1.576065762117268
 10
6.610779376419361
 20
1.576355021527489
 10
6.617143083443738
 20
1.577078170052974
 10
6.623217531057896
 20
1.578235207693771
 10
6.629147348966924
 20
1.579826134449833
 10
6.635077166875993
 20
1.581995580026337
 10
6.640717725374888
 20
1.58445428501302
 10
6.646069024463509
 20
1.587491508820096
 10
6.651131064141964
 20
1.590962621742485
 10
6.655903844410236
 20
1.59486762378014
 10
6.66038736526833
 20
1.599206514933103
 10
6.663713848485634
 20
1.603111516970758
 10
6.666751072292668
 20
1.607305778418633
 10
6.669499036689526
 20
1.611500039866509
 10
6.671813111971117
 20
1.616128190429694
 10
6.673837927842533
 20
1.620756340992834
 10
6.675428854598596
 20
1.625529121261109
 10
6.676441262534306
 20
1.630446531234469
 10
6.677164411059833
 20
1.635508570912921
 10
6.67730904076492
 20
1.639558202655707
 10
6.677019781354704
 20
1.643463204693363
 10
6.676296632829212
 20
1.64736820673106
 10
6.674994965483331
 20
1.651273208768714
 10
6.673259409022136
 20
1.654455062280883
 10
6.671234593150763
 20
1.657347656382873
 10
6.668775888164083
 20
1.660095620779774
 10
6.666172553472271
 20
1.662554325766453
 10
6.663279959370276
 20
1.664723771342917
 10
6.660242735563246
 20
1.666893216919418
 10
6.657060882051034
 20
1.6687734030857
 10
6.653879028538867
 20
1.670508959546895
  0
LWPOLYLINE
  5
3EB
330
17
100
AcDbEntity
  8
4
  6
Continuous
100
AcDbPolyline
 90
       61
 70
     0
 43
0.0
 10
6.475961520959668
 20
1.664000622817429
 10
6.480155782407499
 20
1.664289882227649
 10
6.484205414150286
 20
1.664868401048045
 10
6.487821156777719
 20
1.665736179278622
 10
6.491147639995019
 20
1.666893216919418
 10
6.494040234097012
 20
1.668339513970391
 10
6.496788198493912
 20
1.669930440726498
 10
6.499246903480592
 20
1.671810626892781
 10
6.501416349057056
 20
1.673980072469241
 10
6.503296535223333
 20
1.676294147750834
 10
6.504887461979397
 20
1.678752852737515
 10
6.506189129325326
 20
1.681356187429285
 10
6.507201537260992
 20
1.684248781531274
 10
6.508069315491606
 20
1.687141375633264
 10
6.508647834311964
 20
1.690178599440343
 10
6.508937093722227
 20
1.693360452952511
 10
6.509081723427317
 20
1.69668693616981
 10
6.508937093722227
 20
1.699724159976891
 10
6.508358574901786
 20
1.702761383783968
 10
6.507635426376301
 20
1.705653977885917
 10
6.506478388735505
 20
1.708546571987906
 10
6.50517672138962
 20
1.711294536384765
 10
6.503585794633512
 20
1.713897871076579
 10
6.501705608467275
 20
1.71635657606326
 10
6.499680792595859
 20
1.71867065134485
 10
6.497366717314267
 20
1.720695467216224
 10
6.494908012327587
 20
1.722575653382505
 10
6.492449307340905
 20
1.72416658013861
 10
6.489701342944043
 20
1.725612877189585
 10
6.486808748842058
 20
1.726769914830381
 10
6.483916154740067
 20
1.727493063355868
 10
6.480878930933027
 20
1.728071582176266
 10
6.477841707125906
 20
1.728216211881355
 10
6.376600913556636
 20
1.728216211881355
 10
6.378047210607648
 20
1.727059174240558
 10
6.379348877953538
 20
1.725902136599763
 10
6.380650545299463
 20
1.724600469253878
 10
6.381807582940261
 20
1.723443431613081
 10
6.382964620581012
 20
1.722286393972285
 10
6.38412165822181
 20
1.720840096921311
 10
6.385134066157472
 20
1.719393799870339
 10
6.386146474093179
 20
1.717658243409143
 10
6.387592771144156
 20
1.714476389896975
 10
6.388749808784949
 20
1.71071601756441
 10
6.389472957310483
 20
1.707100274936934
 10
6.389762216720662
 20
1.704207680834944
 10
6.389906846425745
 20
1.574185575950985
 10
6.424762605354636
 20
1.604702443726864
 10
6.424762605354636
 20
1.665013030753136
 10
6.440093354095075
 20
1.665157660458224
 10
6.492304677635813
 20
1.578669096809038
 10
6.537284515921605
 20
1.57837983739886
 10
6.534536551524702
 20
1.579970764154922
 10
6.531788587127845
 20
1.581850950321249
 10
6.529185252436028
 20
1.583731136487531
 10
6.526581917744258
 20
1.585900582063992
 10
6.524123212757581
 20
1.587925397935364
 10
6.521809137475989
 20
1.590239473216956
 10
6.519495062194393
 20
1.592553548498548
 10
6.517180986912804
 20
1.595012253485229
 10
6.475961520959668
 20
1.664000622817429
  0
LWPOLYLINE
  5
42A
330
17
100
AcDbEntity
  8
4
  6
Continuous
100
AcDbPolyline
 90
       21
 70
     0
 43
0.0
 10
6.475383002139227
 20
1.69668693616981
 10
6.474949113023956
 20
1.692203415311715
 10
6.473647445678075
 20
1.68800915386384
 10
6.47162262980666
 20
1.684393411236363
 10
6.468874665409802
 20
1.681211557724195
 10
6.465548182192505
 20
1.678608223032425
 10
6.461787809859937
 20
1.676728036866141
 10
6.457593548412106
 20
1.675570999225345
 10
6.453254657259093
 20
1.675137110110036
 10
6.424184086534189
 20
1.675137110110036
 10
6.424184086534189
 20
1.712306944320474
 10
6.421291492432246
 20
1.719393799870339
 10
6.453833176079491
 20
1.719393799870339
 10
6.458172067232459
 20
1.718959910755029
 10
6.462366328680335
 20
1.717658243409143
 10
6.465982071307807
 20
1.715633427537771
 10
6.46916392481998
 20
1.71288546314087
 10
6.471767259511747
 20
1.709414350218484
 10
6.473647445678075
 20
1.705653977885917
 10
6.474949113023956
 20
1.701315086732954
 10
6.475383002139227
 20
1.69668693616981
  0
TEXT
  5
441
330
17
100
AcDbEntity
  8
3
100
AcDbText
 10
6.274644328082747
 20
1.311149142688045
 30
0.0
 40
0.0781522982138528
  1
ASSEMBLY WURLITZER EXPRESSION CONTACT BLOCK 13 WIRE
  7
SIMPLEX
 72
     1
 11
8.111223336108286
 21
1.311149142688045
 31
0.0
100
AcDbText
  0
LWPOLYLINE
  5
442
330
17
100
AcDbEntity
  8
4
  6
Continuous
100
AcDbPolyline
 90
       21
 70
     0
 43
0.0
 10
8.046968334053016
 20
1.729228619817064
 10
8.00878609190687
 20
1.729228619817064
 10
8.010666278073195
 20
1.727926952471176
 10
8.012546464239438
 20
1.726191396009983
 10
8.014426650405761
 20
1.724455839548788
 10
8.016017577161829
 20
1.722431023677418
 10
8.01746387421284
 20
1.720406207806004
 10
8.018620911853595
 20
1.718092132524454
 10
8.019344060379124
 20
1.71577805724286
 10
8.019633319789306
 20
1.71331935225618
 10
8.019633319789306
 20
1.580115393860054
 10
8.055646116358985
 20
1.580115393860054
 10
8.055646116358985
 20
1.720550837511135
 10
8.055501486653856
 20
1.722575653382505
 10
8.055067597538549
 20
1.7243112098437
 10
8.054199819307967
 20
1.725757506894673
 10
8.053187411372306
 20
1.727059174240558
 10
8.051885744026378
 20
1.727926952471176
 10
8.050439446975406
 20
1.728650100996663
 10
8.048848520219296
 20
1.729083990111973
 10
8.046968334053016
 20
1.729228619817064
  0
TEXT
  5
459
330
17
100
AcDbEntity
  8
3
100
AcDbText
 10
7.154509382906337
 20
0.8915767529290157
 30
0.0
 40
0.0581453098711065
  1
MATERIAL: 
  7
SIMPLEX
 72
     1
 11
7.410625628767164
 21
0.8915767529290157
 31
0.0
100
AcDbText
  0
TEXT
  5
45A
330
17
100
AcDbEntity
  8
3
100
AcDbText
 10
6.903313577397153
 20
1.172721701144442
 30
0.0
 40
0.0581453098711065
  1
DWG/PART NO/032042
  7
SIMPLEX
 72
     1
 11
7.414161656979016
 21
1.172721701144442
 31
0.0
100
AcDbText
  0
LWPOLYLINE
  5
45C
330
17
100
AcDbEntity
  8
4
  6
Continuous
 62
     4
100
AcDbPolyline
 90
       96
 70
     0
 43
0.0
 10
6.983032181370872
 20
1.57852446710395
 10
6.980718106089284
 20
1.579970764154922
 10
6.978259401102601
 20
1.581706320616116
 10
6.975656066410831
 20
1.583875766192619
 10
6.973341991129242
 20
1.586334471179301
 10
6.971172545552736
 20
1.589082435576159
 10
6.969436989091581
 20
1.592408918793458
 10
6.968279951450789
 20
1.596024661420936
 10
6.967846062335438
 20
1.600218922868811
 10
6.967846062335438
 20
1.696108417349413
 10
6.967556802925262
 20
1.700158049092156
 10
6.96697828410486
 20
1.703918421424724
 10
6.965821246464107
 20
1.707534164052199
 10
6.964374949413094
 20
1.710860647269498
 10
6.962639392951898
 20
1.714187130486755
 10
6.960469947375393
 20
1.717079724588745
 10
6.958011242388713
 20
1.719827688985605
 10
6.955263277991857
 20
1.722431023677418
 10
6.95237068388991
 20
1.724745098958966
 10
6.949188830377696
 20
1.726769914830381
 10
6.945862347160396
 20
1.728505471291575
 10
6.942535863943182
 20
1.730096398047638
 10
6.938920121315707
 20
1.731253435688435
 10
6.935304378688227
 20
1.732121213919054
 10
6.931544006355661
 20
1.73284436244454
 10
6.927783634023053
 20
1.733133621854716
 10
6.92518029933124
 20
1.733133621854716
 10
6.922576964639471
 20
1.733133621854716
 10
6.920118259652793
 20
1.73284436244454
 10
6.917514924961017
 20
1.732555103034318
 10
6.915056219974342
 20
1.732121213919054
 10
6.912452885282572
 20
1.731398065393523
 10
6.909994180295893
 20
1.730674916868035
 10
6.907535475309206
 20
1.72995176834255
 10
6.905076770322526
 20
1.728939360406841
 10
6.902762695040934
 20
1.727926952471176
 10
6.900448619759345
 20
1.726769914830381
 10
6.898134544477752
 20
1.725612877189585
 10
6.895820469196156
 20
1.72416658013861
 10
6.893651023619739
 20
1.722864912792684
 10
6.89148157804324
 20
1.721418615741711
 10
6.889456762171825
 20
1.719827688985605
 10
6.888588983941247
 20
1.72185250485702
 10
6.887431946300451
 20
1.724021950433481
 10
6.885841019544344
 20
1.726046766304895
 10
6.884105463083191
 20
1.727926952471176
 10
6.88236990662196
 20
1.72951787922724
 10
6.880634350160807
 20
1.730819546573125
 10
6.879043423404745
 20
1.731687324803742
 10
6.877886385763947
 20
1.73197658421392
 10
6.842452108014707
 20
1.73197658421392
 10
6.844621553591167
 20
1.72995176834255
 10
6.847080258577847
 20
1.727637693060958
 10
6.84982822297475
 20
1.724889728664098
 10
6.85243155766652
 20
1.72170787515193
 10
6.854890262653201
 20
1.718092132524454
 10
6.856770448819482
 20
1.714331760191845
 10
6.858216745870499
 20
1.710137498744011
 10
6.858650634985767
 20
1.705798607591005
 10
6.858650634985767
 20
1.578669096809038
 10
6.891192318633063
 20
1.604991703137041
 10
6.891192318633063
 20
1.696976195579988
 10
6.891336948338151
 20
1.69929027086158
 10
6.891770837453417
 20
1.70145971643804
 10
6.892638615684035
 20
1.703484532309456
 10
6.893651023619739
 20
1.705509348180829
 10
6.894808061260493
 20
1.707534164052199
 10
6.896254358311512
 20
1.709269720513392
 10
6.897989914772661
 20
1.711005276974589
 10
6.899725471233858
 20
1.712596203730694
 10
6.901750287105226
 20
1.713897871076579
 10
6.903775102976643
 20
1.715054908717375
 10
6.905944548553147
 20
1.71621194635817
 10
6.908113994129607
 20
1.716935094883656
 10
6.910428069411157
 20
1.717658243409143
 10
6.912742144692749
 20
1.717947502819321
 10
6.914911590269253
 20
1.718236762229542
 10
6.917225665550843
 20
1.718092132524454
 10
6.920841408178322
 20
1.717513613704055
 10
6.924312521100709
 20
1.71635657606326
 10
6.927639004317968
 20
1.714765649307153
 10
6.930531598419952
 20
1.712596203730694
 10
6.932990303406636
 20
1.70999286903888
 10
6.934870489572875
 20
1.706955645231801
 10
6.936027527213673
 20
1.703339902604326
 10
6.936461416329027
 20
1.69929027086158
 10
6.936461416329027
 20
1.596603180241333
 10
6.936895305444291
 20
1.59284280790877
 10
6.93805234308509
 20
1.589371694986381
 10
6.93978789954628
 20
1.586334471179301
 10
6.942246604532917
 20
1.583731136487531
 10
6.945139198634951
 20
1.581561690911028
 10
6.948465681852213
 20
1.579826134449833
 10
6.952081424479691
 20
1.578813726514169
 10
6.95598642651734
 20
1.57852446710395
 10
6.983032181370872
 20
1.57852446710395
  0
LWPOLYLINE
  5
4BE
330
17
100
AcDbEntity
  8
4
  6
Continuous
100
AcDbPolyline
 90
        5
 70
     0
 43
0.0
 10
6.781229812169808
 20
1.654455062280883
 10
6.738853308575791
 20
1.681500817134416
 10
6.738853308575791
 20
1.655033581101282
 10
6.781374441874895
 20
1.632182087695664
 10
6.781229812169808
 20
1.654455062280883
  0
LWPOLYLINE
  5
4C5
330
17
100
AcDbEntity
  8
4
  6
Continuous
100
AcDbPolyline
 90
      213
 70
     0
 43
0.0
 10
7.19506435757077
 20
1.723009542497815
 10
7.191737874353552
 20
1.7243112098437
 10
7.188411391136255
 20
1.725468247484496
 10
7.185084907918954
 20
1.72648065542016
 10
7.181613794996611
 20
1.72734843365078
 10
7.178142682074224
 20
1.727926952471176
 10
7.174671569151878
 20
1.728505471291575
 10
7.171200456229487
 20
1.728939360406841
 10
7.167729343307101
 20
1.729228619817064
 10
7.164113600679621
 20
1.72937324952215
 10
7.160642487757235
 20
1.72937324952215
 10
7.157026745129758
 20
1.729228619817064
 10
7.153555632207414
 20
1.728939360406841
 10
7.149939889579936
 20
1.728505471291575
 10
7.146468776657549
 20
1.728071582176266
 10
7.142997663735201
 20
1.72734843365078
 10
7.139526550812813
 20
1.72662528512525
 10
7.133452103198655
 20
1.724745098958966
 10
7.12752228528959
 20
1.721997134562109
 10
7.121881726790737
 20
1.71881528104994
 10
7.116385797996978
 20
1.714910279012244
 10
7.11132375831853
 20
1.710571387859278
 10
7.106550978050253
 20
1.705653977885917
 10
7.102356716602378
 20
1.700447308502377
 10
7.098596344269812
 20
1.694951379708617
 10
7.095559120462733
 20
1.689166191504638
 10
7.093245045181141
 20
1.683091743890478
 10
7.091509488719946
 20
1.677017296276321
 10
7.090786340194462
 20
1.670798218957074
 10
7.090930969899548
 20
1.664579141637825
 10
7.091943377835256
 20
1.65836006431858
 10
7.093968193706673
 20
1.652285616704421
 10
7.097150047218792
 20
1.64650042850044
 10
7.097873195744327
 20
1.645632650269866
 10
7.098740973974901
 20
1.644909501744379
 10
7.09960875220548
 20
1.644330982923981
 10
7.100621160141183
 20
1.643752464103583
 10
7.101633568076891
 20
1.643463204693363
 10
7.102645976012598
 20
1.643318574988274
 10
7.103803013653394
 20
1.643318574988274
 10
7.104960051294192
 20
1.643607834398494
 10
7.146034887542238
 20
1.651417838473804
 10
7.14834896282383
 20
1.651851727589113
 10
7.150663038105419
 20
1.652140986999334
 10
7.153121743092103
 20
1.652574876114599
 10
7.155435818373696
 20
1.652719505819731
 10
7.157894523360376
 20
1.653008765229909
 10
7.160208598641967
 20
1.653153394934998
 10
7.162522673923561
 20
1.653153394934998
 10
7.164981378910241
 20
1.653153394934998
 10
7.167295454191832
 20
1.653008765229909
 10
7.169609529473381
 20
1.65286413552482
 10
7.171923604754976
 20
1.652574876114599
 10
7.174237680036527
 20
1.652140986999334
 10
7.176407125613027
 20
1.651562468178934
 10
7.178721200894621
 20
1.650983949358536
 10
7.180890646471128
 20
1.650116171127918
 10
7.183060092047581
 20
1.649248392897342
 10
7.187977502020949
 20
1.646211169090264
 10
7.191593244648423
 20
1.641872277937299
 10
7.194051949635106
 20
1.636810238258806
 10
7.195498246686121
 20
1.631025050054869
 10
7.19564287639121
 20
1.62495060244071
 10
7.194630468455502
 20
1.618731525121464
 10
7.192605652584131
 20
1.612946336917485
 10
7.189568428777049
 20
1.607595037828853
 10
7.187398983200552
 20
1.605136332842175
 10
7.185229537624045
 20
1.602677627855493
 10
7.182626202932277
 20
1.600652811984077
 10
7.180022868240502
 20
1.598772625817793
 10
7.177274903843648
 20
1.597037069356601
 10
7.174237680036527
 20
1.595590772305626
 10
7.171200456229487
 20
1.594578364369918
 10
7.168018602717283
 20
1.593710586139343
 10
7.164258230384713
 20
1.593276697024034
 10
7.160497858052146
 20
1.593276697024034
 10
7.156882115424672
 20
1.593565956434255
 10
7.153121743092103
 20
1.594433734664831
 10
7.149650630169715
 20
1.59544614260054
 10
7.146034887542238
 20
1.596892439651511
 10
7.142708404324981
 20
1.598627996112706
 10
7.139381921107727
 20
1.600652811984077
 10
7.136200067595512
 20
1.60296688726567
 10
7.133162843788478
 20
1.605425592252351
 10
7.130270249686442
 20
1.60817355664925
 10
7.12752228528959
 20
1.6110661507512
 10
7.125063580302902
 20
1.614103374558278
 10
7.122604875316222
 20
1.617285228070488
 10
7.120435429739721
 20
1.620611711287746
 10
7.118555243573477
 20
1.623938194505004
 10
7.085145781695612
 20
1.608752075469651
 10
7.086881338156802
 20
1.604413184316686
 10
7.089050783733267
 20
1.600218922868811
 10
7.091943377835256
 20
1.596458550536203
 10
7.095269861052552
 20
1.59284280790877
 10
7.09903023338512
 20
1.589516324691468
 10
7.103224494832954
 20
1.586479100884389
 10
7.107708015691049
 20
1.583731136487531
 10
7.112480795959323
 20
1.58127243150085
 10
7.117542835637773
 20
1.579247615629436
 10
7.122749505021313
 20
1.577512059168241
 10
7.128245433815115
 20
1.576065762117268
 10
7.133596732903747
 20
1.575197983886691
 10
7.139092661697503
 20
1.574474835361205
 10
7.144588590491262
 20
1.574330205656074
 10
7.149939889579936
 20
1.574619465066295
 10
7.155291188668606
 20
1.575197983886691
 10
7.159340820411347
 20
1.576065762117268
 10
7.163245822449005
 20
1.577222799758065
 10
7.167150824486707
 20
1.57852446710395
 10
7.170911196819311
 20
1.580115393860054
 10
7.174526939446746
 20
1.581995580026337
 10
7.178142682074224
 20
1.584165025602798
 10
7.18146916529148
 20
1.586334471179301
 10
7.184795648508777
 20
1.588937805871071
 10
7.187832872315855
 20
1.591541140562841
 10
7.190870096122938
 20
1.594433734664831
 10
7.193618060519795
 20
1.59747095847191
 10
7.196221395211567
 20
1.600797441689208
 10
7.198535470493161
 20
1.604123924906466
 10
7.200704916069661
 20
1.607595037828853
 10
7.202585102235941
 20
1.611210780456331
 10
7.204320658697137
 20
1.614971152788898
 10
7.205911585453203
 20
1.619165414236773
 10
7.207068623093998
 20
1.623359675684648
 10
7.207936401324611
 20
1.627553937132479
 10
7.208659549850104
 20
1.632037457990576
 10
7.208948809260322
 20
1.636376349143541
 10
7.208948809260322
 20
1.640715240296504
 10
7.208659549850104
 20
1.645054131449468
 10
7.207936401324611
 20
1.64939302260243
 10
7.207068623093998
 20
1.653153394934998
 10
7.205911585453203
 20
1.656769137562475
 10
7.204465288402228
 20
1.660240250484863
 10
7.202729731941076
 20
1.663711363407251
 10
7.20056028636457
 20
1.66674858721433
 10
7.198101581377891
 20
1.669641181316276
 10
7.195208987275901
 20
1.67224451600809
 10
7.192171763468819
 20
1.674413961584551
 10
7.190870096122938
 20
1.675281739815126
 10
7.189423799071962
 20
1.676149518045745
 10
7.187977502020949
 20
1.67687266657123
 10
7.186531204969932
 20
1.677595815096719
 10
7.185084907918954
 20
1.678318963622249
 10
7.183493981162892
 20
1.678897482442603
 10
7.18204768411192
 20
1.679331371557914
 10
7.180456757355816
 20
1.67976526067322
 10
7.17886583059971
 20
1.680199149788531
 10
7.177274903843648
 20
1.680633038903799
 10
7.17568397708754
 20
1.680922298314019
 10
7.174093050331434
 20
1.681211557724195
 10
7.172502123575371
 20
1.681500817134416
 10
7.170911196819311
 20
1.681645446839504
 10
7.169175640358072
 20
1.681934706249682
 10
7.16758471360201
 20
1.682079335954813
 10
7.165993786845947
 20
1.682079335954813
 10
7.1644028600898
 20
1.682079335954813
 10
7.162811933333737
 20
1.682223965659904
 10
7.161221006577672
 20
1.682223965659904
 10
7.159630079821571
 20
1.682223965659904
 10
7.158039153065465
 20
1.68236859536499
 10
7.156303596604271
 20
1.68236859536499
 10
7.154568040143078
 20
1.68236859536499
 10
7.152832483681925
 20
1.68236859536499
 10
7.151096927220732
 20
1.682223965659904
 10
7.149072111349357
 20
1.682079335954813
 10
7.147191925183032
 20
1.681934706249682
 10
7.14516710931166
 20
1.681790076544593
 10
7.142997663735201
 20
1.681500817134416
 10
7.140828218158699
 20
1.681066928019108
 10
7.138514142877106
 20
1.680633038903799
 10
7.105393940409456
 20
1.674558591289639
 10
7.104526162178842
 20
1.677595815096719
 10
7.104092273063574
 20
1.680488409198709
 10
7.104236902768657
 20
1.683525633005788
 10
7.104670791883967
 20
1.686418227107778
 10
7.105683199819632
 20
1.689310821209725
 10
7.106840237460431
 20
1.692058785606628
 10
7.108575793921628
 20
1.694806750003485
 10
7.110455980087909
 20
1.697265454990166
 10
7.11262542566441
 20
1.699579530271758
 10
7.115084130651093
 20
1.70189360555335
 10
7.117687465342863
 20
1.703773791719632
 10
7.120580059444852
 20
1.705509348180829
 10
7.123617283251931
 20
1.706955645231801
 10
7.126654507059011
 20
1.70825731257773
 10
7.129836360571178
 20
1.709125090808305
 10
7.133162843788478
 20
1.709703609628704
 10
7.136055437890425
 20
1.709848239333791
 10
7.139092661697503
 20
1.709848239333791
 10
7.141985255799492
 20
1.709558979923614
 10
7.144877849901443
 20
1.709125090808305
 10
7.147770444003477
 20
1.708546571987906
 10
7.150663038105419
 20
1.707678793757331
 10
7.153411002502281
 20
1.706666385821622
 10
7.156158966899178
 20
1.705509348180829
 10
7.158906931296081
 20
1.704207680834944
 10
7.161654895692943
 20
1.702761383783926
 10
7.164258230384713
 20
1.701315086732954
 10
7.166861565076483
 20
1.699579530271758
 10
7.169320270063161
 20
1.697843973810564
 10
7.171778975049842
 20
1.696108417349413
 10
7.174237680036527
 20
1.694228231183132
 10
7.176551755318119
 20
1.692348045016804
 10
7.214010848938772
 20
1.70999286903888
 10
7.211986033067357
 20
1.712017684910295
 10
7.209816587490896
 20
1.714042500781666
 10
7.207647141914438
 20
1.71592268694795
 10
7.205188436927755
 20
1.717513613704055
 10
7.202729731941076
 20
1.719104540460119
 10
7.200271026954392
 20
1.720550837511135
 10
7.197667692262584
 20
1.72185250485702
 10
7.19506435757077
 20
1.723009542497815
  0
LWPOLYLINE
  5
59C
330
17
100
AcDbEntity
  8
4
  6
Continuous
100
AcDbPolyline
 90
      104
 70
     0
 43
0.0
 10
7.308127577275615
 20
1.731831954508831
 10
7.312177209018358
 20
1.727493063355868
 10
7.313912765479552
 20
1.725034358369186
 10
7.315359062530525
 20
1.722575653382505
 10
7.316660729876452
 20
1.720261578100913
 10
7.317673137812117
 20
1.718092132524454
 10
7.318540916042692
 20
1.71577805724286
 10
7.319119434863137
 20
1.713463981961268
 10
7.319408694273311
 20
1.711149906679676
 10
7.319553323978404
 20
1.708691201692995
 10
7.319553323978404
 20
1.596313920831114
 10
7.315937581350922
 20
1.596747809946423
 10
7.312321838723446
 20
1.59747095847191
 10
7.308850725801057
 20
1.59833873670253
 10
7.305379612878716
 20
1.599495774343282
 10
7.302053129661454
 20
1.6009420713943
 10
7.298726646444157
 20
1.60238836844527
 10
7.295400163226862
 20
1.604123924906466
 10
7.292362939419819
 20
1.606004111072748
 10
7.289325715612701
 20
1.60817355664925
 10
7.286433121510749
 20
1.610343002225715
 10
7.283685157113898
 20
1.612801707212394
 10
7.281081822422081
 20
1.615405041904163
 10
7.278478487730311
 20
1.618008376595977
 10
7.276164412448721
 20
1.620900970697924
 10
7.273994966872257
 20
1.623938194505004
 10
7.271970151000846
 20
1.626975418312082
 10
7.268788297488678
 20
1.632760606516063
 10
7.266184962796906
 20
1.638835054130221
 10
7.264160146925532
 20
1.645198761154555
 10
7.262858479579652
 20
1.651707097884024
 10
7.262279960759213
 20
1.65836006431858
 10
7.262569220169432
 20
1.664868401048004
 10
7.263870887515312
 20
1.671521367482561
 10
7.266040333091776
 20
1.677885074506939
 10
7.267197370732571
 20
1.680633038903799
 10
7.268499038078456
 20
1.683236373595566
 10
7.269945335129473
 20
1.685839708287381
 10
7.271391632180487
 20
1.688298413274061
 10
7.27298255893655
 20
1.690901747965831
 10
7.274718115397746
 20
1.693360452952511
 10
7.27645367185894
 20
1.695674528234103
 10
7.278189228320091
 20
1.698133233220786
 10
7.280069414486418
 20
1.700447308502377
 10
7.281949600652655
 20
1.702616754078839
 10
7.283974416524074
 20
1.70493082936043
 10
7.285999232395442
 20
1.707100274936934
 10
7.288024048266816
 20
1.709269720513392
 10
7.290193493843316
 20
1.711294536384765
 10
7.292218309714736
 20
1.71331935225618
 10
7.294387755291192
 20
1.715344168127551
 10
7.296123311752387
 20
1.717368983998922
 10
7.297280349393187
 20
1.719683059280515
 10
7.298003497918667
 20
1.721997134562109
 10
7.298003497918667
 20
1.724455839548788
 10
7.297714238508451
 20
1.72662528512525
 10
7.296846460277872
 20
1.728794730701753
 10
7.29583405234221
 20
1.730530287162946
 10
7.294387755291192
 20
1.731831954508831
 10
7.242610320865762
 20
1.731831954508831
 10
7.245069025852442
 20
1.72951787922724
 10
7.247816990249297
 20
1.72662528512525
 10
7.250420324941113
 20
1.723154172202903
 10
7.252589770517571
 20
1.719393799870339
 10
7.254180697273677
 20
1.715199538422464
 10
7.254903845799169
 20
1.710860647269498
 10
7.25432532697881
 20
1.706521756116536
 10
7.252300511107397
 20
1.70232749466866
 10
7.236391243546512
 20
1.674558591289639
 10
7.232486241508857
 20
1.666459327804109
 10
7.230027536522178
 20
1.657926175203272
 10
7.228870498881383
 20
1.649103763192254
 10
7.229015128586467
 20
1.640136721476106
 10
7.230461425637447
 20
1.631169679759955
 10
7.233354019739432
 20
1.622636527159119
 10
7.237403651482222
 20
1.614537263673589
 10
7.242754950570851
 20
1.607305778418633
 10
7.245358285262621
 20
1.604413184316686
 10
7.248106249659524
 20
1.601665219919785
 10
7.250998843761512
 20
1.598917255522884
 10
7.25403606756859
 20
1.596313920831114
 10
7.257073291375667
 20
1.593999845549522
 10
7.260399774592968
 20
1.591685770267972
 10
7.263726257810182
 20
1.589516324691468
 10
7.267197370732571
 20
1.587636138525186
 10
7.270668483654956
 20
1.585755952358903
 10
7.274284226282436
 20
1.584165025602798
 10
7.277899968909911
 20
1.582863358256913
 10
7.281660341242481
 20
1.581706320616116
 10
7.285420713575046
 20
1.580693912680451
 10
7.289325715612701
 20
1.580115393860054
 10
7.293086087945312
 20
1.579681504744744
 10
7.296991089983008
 20
1.579536875039656
 10
7.352384267035876
 20
1.579536875039656
 10
7.352384267035876
 20
1.710137498744011
 10
7.352528896740963
 20
1.713030092845959
 10
7.352673526446045
 20
1.71592268694795
 10
7.35310741556136
 20
1.718670651344807
 10
7.353685934381761
 20
1.721563245446798
 10
7.354553712612375
 20
1.7243112098437
 10
7.355566120548039
 20
1.72691454453547
 10
7.356723158188837
 20
1.72937324952215
 10
7.358024825534722
 20
1.731831954508831
 10
7.308127577275615
 20
1.731831954508831
  0
LWPOLYLINE
  5
606
330
17
100
AcDbEntity
  8
4
  6
Continuous
100
AcDbPolyline
 90
       73
 70
     0
 43
0.0
 10
7.721811722549055
 20
1.616995968660269
 10
7.724270427535735
 20
1.615549671609294
 10
7.72629524340715
 20
1.613669485443013
 10
7.728030799868299
 20
1.611355410161419
 10
7.729332467214187
 20
1.608752075469651
 10
7.730055615739717
 20
1.605859481367659
 10
7.730200245444803
 20
1.60296688726567
 10
7.729766356329538
 20
1.600218922868811
 10
7.728609318688741
 20
1.59747095847191
 10
7.727307651342856
 20
1.595880031715847
 10
7.726005983996928
 20
1.594433734664831
 10
7.724415057240824
 20
1.593132067318946
 10
7.722679500779673
 20
1.591975029678149
 10
7.720799314613348
 20
1.591107251447573
 10
7.718774498742018
 20
1.590384102922087
 10
7.716605053165513
 20
1.58995021380678
 10
7.714435607589012
 20
1.589805584101688
 10
7.661645765227913
 20
1.589805584101688
 10
7.690137817132377
 20
1.613958744853189
 10
7.691873373593614
 20
1.615549671609294
 10
7.693175040939504
 20
1.617140598365359
 10
7.694332078580255
 20
1.618586895416374
 10
7.695055227105743
 20
1.620033192467349
 10
7.69563374592618
 20
1.621479489518321
 10
7.695923005336361
 20
1.623070416274428
 10
7.696212264746537
 20
1.624516713325401
 10
7.696212264746537
 20
1.626107640081506
 10
7.696212264746537
 20
1.721997134562109
 10
7.695923005336361
 20
1.724021950433481
 10
7.695344486515959
 20
1.726046766304895
 10
7.694332078580255
 20
1.727637693060958
 10
7.693030411234371
 20
1.729083990111973
 10
7.691439484478266
 20
1.730241027752726
 10
7.689703928017111
 20
1.731108805983345
 10
7.687679112145696
 20
1.731687324803742
 10
7.685654296274329
 20
1.731831954508831
 10
7.654414279972961
 20
1.731831954508831
 10
7.656583725549462
 20
1.72966250893237
 10
7.658463911715701
 20
1.727637693060958
 10
7.660054838471807
 20
1.725323617779366
 10
7.661356505817734
 20
1.723009542497815
 10
7.662513543458491
 20
1.720406207806004
 10
7.663236691983977
 20
1.717658243409143
 10
7.663670581099284
 20
1.714476389896975
 10
7.663815210804417
 20
1.710860647269498
 10
7.663815210804417
 20
1.61077689134102
 10
7.638071123296767
 20
1.579536875039656
 10
7.735406914828344
 20
1.579536875039656
 10
7.736997841584449
 20
1.579681504744744
 10
7.738733398045646
 20
1.579826134449833
 10
7.740324324801707
 20
1.580115393860054
 10
7.742059881262942
 20
1.580693912680451
 10
7.743795437724094
 20
1.58127243150085
 10
7.745386364480199
 20
1.581995580026337
 10
7.746977291236309
 20
1.582718728551824
 10
7.748568217992367
 20
1.583586506782399
 10
7.750159144748432
 20
1.584598914718107
 10
7.751605441799447
 20
1.585611322653813
 10
7.753051738850462
 20
1.58676836029461
 10
7.754498035901432
 20
1.587925397935364
 10
7.755655073542232
 20
1.589082435576159
 10
7.756956740888117
 20
1.590384102922087
 10
7.757969148823825
 20
1.591685770267972
 10
7.758981556759489
 20
1.592987437613856
 10
7.761295632041078
 20
1.597615588176999
 10
7.762741929092097
 20
1.602822257560581
 10
7.763465077617546
 20
1.608607445764518
 10
7.763320447912452
 20
1.614537263673589
 10
7.762308039976747
 20
1.620177822172438
 10
7.760572483515595
 20
1.625384491556019
 10
7.758113778528914
 20
1.629723382708984
 10
7.754787295311611
 20
1.633049865926239
 10
7.721811722549055
 20
1.616995968660269
  0
LWPOLYLINE
  5
651
330
17
100
AcDbEntity
  8
4
  6
Continuous
100
AcDbPolyline
 90
       46
 70
     0
 43
0.0
 10
7.592656882774956
 20
1.731542695098655
 10
7.514122952906254
 20
1.731542695098655
 10
7.515858509367407
 20
1.729228619817064
 10
7.517594065828602
 20
1.72662528512525
 10
7.519040362879617
 20
1.724021950433481
 10
7.520342030225503
 20
1.72127398603662
 10
7.521499067866297
 20
1.71838139193463
 10
7.522366846096828
 20
1.71548879783264
 10
7.522945364917272
 20
1.712740833435781
 10
7.523089994622356
 20
1.709848239333791
 10
7.523089994622356
 20
1.576355021527489
 10
7.558090383256296
 20
1.610053742815534
 10
7.558090383256296
 20
1.669930440726498
 10
7.605239667118538
 20
1.669930440726498
 10
7.608276890925664
 20
1.670075070431585
 10
7.611458744437785
 20
1.670219700136676
 10
7.614351338539818
 20
1.670653589251985
 10
7.617388562346858
 20
1.671232108072381
 10
7.620136526743717
 20
1.672099886302959
 10
7.622884491140617
 20
1.673256923943755
 10
7.625487825832428
 20
1.674558591289639
 10
7.627946530819108
 20
1.676149518045745
 10
7.630115976395572
 20
1.678029704212028
 10
7.631996162561851
 20
1.68034377949362
 10
7.633731719023046
 20
1.682802484480301
 10
7.635178016074063
 20
1.685695078582291
 10
7.636190424009728
 20
1.689021561799549
 10
7.637058202240307
 20
1.692637304427025
 10
7.637492091355613
 20
1.69668693616981
 10
7.637492091355613
 20
1.701170457027862
 10
7.637058202240307
 20
1.705943237296136
 10
7.636190424009728
 20
1.7102821284491
 10
7.634744126958715
 20
1.714042500781666
 10
7.633008570497563
 20
1.717368983998922
 10
7.630694495215968
 20
1.720261578100913
 10
7.628235790229292
 20
1.722720283087596
 10
7.6253431961273
 20
1.724745098958966
 10
7.622305972320218
 20
1.72648065542016
 10
7.618834859397832
 20
1.727926952471176
 10
7.615363746475487
 20
1.729083990111973
 10
7.611748003848005
 20
1.72995176834255
 10
7.607987631515442
 20
1.730530287162946
 10
7.604082629477743
 20
1.731108805983345
 10
7.600177627440088
 20
1.731398065393523
 10
7.596417255107525
 20
1.731542695098655
 10
7.592656882774956
 20
1.731542695098655
  0
LWPOLYLINE
  5
681
330
17
100
AcDbEntity
  8
4
  6
Continuous
100
AcDbPolyline
 90
       46
 70
     0
 43
0.0
 10
7.452639367810362
 20
1.73197658421392
 10
7.374105437941657
 20
1.73197658421392
 10
7.375840994402813
 20
1.72966250893237
 10
7.377431921158876
 20
1.727059174240558
 10
7.379022847915019
 20
1.724455839548788
 10
7.380324515260908
 20
1.72170787515193
 10
7.38133692319657
 20
1.71881528104994
 10
7.382204701427149
 20
1.71592268694795
 10
7.382783220247584
 20
1.71317472255109
 10
7.382927849952678
 20
1.7102821284491
 10
7.382927849952678
 20
1.576788910642754
 10
7.418072868291741
 20
1.610487631930801
 10
7.418072868291741
 20
1.670364329841764
 10
7.465222152153945
 20
1.670364329841764
 10
7.468404005666156
 20
1.670508959546895
 10
7.471441229473192
 20
1.670653589251985
 10
7.474478453280313
 20
1.671087478367294
 10
7.477371047382259
 20
1.671665997187693
 10
7.480263641484253
 20
1.672533775418268
 10
7.483011605881151
 20
1.673690813059063
 10
7.485614940572923
 20
1.674992480404949
 10
7.487929015854514
 20
1.676583407161053
 10
7.490243091136107
 20
1.678463593327335
 10
7.492123277302347
 20
1.680777668608928
 10
7.493858833763584
 20
1.683236373595566
 10
7.495305130814561
 20
1.686128967697559
 10
7.496317538750266
 20
1.689455450914858
 10
7.497185316980842
 20
1.693071193542333
 10
7.497619206096151
 20
1.697120825285079
 10
7.497619206096151
 20
1.701604346143174
 10
7.497185316980842
 20
1.706377126411403
 10
7.496317538750266
 20
1.710571387859278
 10
7.494871241699249
 20
1.714331760191845
 10
7.493135685238055
 20
1.717658243409143
 10
7.490821609956466
 20
1.720550837511135
 10
7.488362904969781
 20
1.723009542497815
 10
7.485470310867834
 20
1.725178988074275
 10
7.482288457355624
 20
1.72691454453547
 10
7.478961974138367
 20
1.728360841586443
 10
7.475346231510889
 20
1.72951787922724
 10
7.471730488883411
 20
1.730385657457857
 10
7.467970116550847
 20
1.730964176278255
 10
7.46406511451315
 20
1.731542695098655
 10
7.460160112475495
 20
1.731831954508831
 10
7.456399740142932
 20
1.73197658421392
 10
7.452639367810362
 20
1.73197658421392
  0
LWPOLYLINE
  5
6B1
330
17
100
AcDbEntity
  8
4
  6
Continuous
100
AcDbPolyline
 90
       21
 70
     0
 43
0.0
 10
7.411709161267363
 20
1.724021950433481
 10
7.447143439016602
 20
1.724021950433481
 10
7.451626959874657
 20
1.723588061318213
 10
7.455965851027619
 20
1.722286393972285
 10
7.459726223360227
 20
1.720261578100913
 10
7.463197336282572
 20
1.717513613704055
 10
7.465945300679474
 20
1.714187130486755
 10
7.468114746255937
 20
1.71042675815419
 10
7.469416413601865
 20
1.706232496706314
 10
7.46985030271713
 20
1.701604346143174
 10
7.469561043306952
 20
1.697843973810564
 10
7.468693265076336
 20
1.694083601477997
 10
7.467391597730447
 20
1.690612488555653
 10
7.465511411564167
 20
1.687575264748573
 10
7.463052706577485
 20
1.68497193005676
 10
7.460160112475495
 20
1.682947114185389
 10
7.456833629258195
 20
1.681645446839504
 10
7.45292862722054
 20
1.681211557724195
 10
7.418362127701917
 20
1.681211557724195
 10
7.418362127701917
 20
1.71635657606326
 10
7.411709161267363
 20
1.724021950433481
  0
LWPOLYLINE
  5
6C8
330
17
100
AcDbEntity
  8
4
  6
Continuous
100
AcDbPolyline
 90
       21
 70
     0
 43
0.0
 10
7.551726676231956
 20
1.723732691023301
 10
7.5871609539812
 20
1.723732691023301
 10
7.591789104544338
 20
1.723298801907994
 10
7.595983365992218
 20
1.721997134562109
 10
7.599888368029914
 20
1.719972318690735
 10
7.603359480952298
 20
1.717224354293836
 10
7.606107445349159
 20
1.713897871076579
 10
7.608276890925664
 20
1.70999286903888
 10
7.609578558271547
 20
1.705798607591005
 10
7.610012447386812
 20
1.701170457027862
 10
7.609723187976633
 20
1.697410084695298
 10
7.608855409746015
 20
1.693649712362732
 10
7.607409112695044
 20
1.690323229145434
 10
7.605528926528762
 20
1.687141375633264
 10
7.603070221542079
 20
1.684538040941494
 10
7.600177627440088
 20
1.682513225070081
 10
7.596851144222791
 20
1.681211557724195
 10
7.592946142185136
 20
1.680777668608928
 10
7.558379642666512
 20
1.680777668608928
 10
7.558379642666512
 20
1.71592268694795
 10
7.551726676231956
 20
1.723732691023301
  0
LWPOLYLINE
  5
6DF
330
17
100
AcDbEntity
  8
4
  6
Continuous
100
AcDbPolyline
 90
      133
 70
     0
 43
0.0
 10
7.896098949464771
 20
1.73197658421392
 10
7.865292822278714
 20
1.73197658421392
 10
7.867462267855219
 20
1.72966250893237
 10
7.869342454021456
 20
1.72734843365078
 10
7.870788751072473
 20
1.725034358369186
 10
7.872090418418355
 20
1.722864912792684
 10
7.87310282635407
 20
1.720695467216224
 10
7.87382597487955
 20
1.718526021639721
 10
7.874404493699952
 20
1.71621194635817
 10
7.874549123405042
 20
1.713897871076579
 10
7.874549123405042
 20
1.634930052092524
 10
7.871945788713272
 20
1.635219311502744
 10
7.869197824316371
 20
1.635653200618053
 10
7.866594489624603
 20
1.636087089733319
 10
7.863846525227738
 20
1.636665608553718
 10
7.861243190535971
 20
1.637388757079245
 10
7.858495226139068
 20
1.638111905604734
 10
7.855891891447257
 20
1.638979683835309
 10
7.853288556755487
 20
1.639847462065885
 10
7.850829851768807
 20
1.640859870001592
 10
7.848226517077036
 20
1.642016907642389
 10
7.845912441795443
 20
1.643173945283183
 10
7.843453736808765
 20
1.644475612629069
 10
7.841139661527172
 20
1.645921909680044
 10
7.83882558624558
 20
1.64736820673106
 10
7.83665614066912
 20
1.649103763192254
 10
7.834631324797746
 20
1.650839319653405
 10
7.830870952465178
 20
1.654599691986014
 10
7.827544469247881
 20
1.658793953433889
 10
7.824651875145934
 20
1.66327747429194
 10
7.822048540454119
 20
1.668194884265303
 10
7.820023724582749
 20
1.673112294238666
 10
7.818288168121553
 20
1.678463593327335
 10
7.81713113048076
 20
1.683814892415965
 10
7.816407981955271
 20
1.689310821209725
 10
7.815974092840003
 20
1.694806750003485
 10
7.815974092840003
 20
1.700447308502377
 10
7.816552611660362
 20
1.705943237296136
 10
7.817420389890981
 20
1.711439166089896
 10
7.818722057236866
 20
1.716935094883656
 10
7.820602243403147
 20
1.722141764267196
 10
7.82277168897961
 20
1.72720380394569
 10
7.825375023671377
 20
1.73197658421392
 10
7.785891114179393
 20
1.73197658421392
 10
7.782998520077445
 20
1.722720283087596
 10
7.780973704206028
 20
1.713753241371446
 10
7.779961296270324
 20
1.70478619965534
 10
7.779816666565236
 20
1.696253047054502
 10
7.780395185385632
 20
1.687864524158751
 10
7.781986112141741
 20
1.67990989037831
 10
7.78430018742333
 20
1.67224451600809
 10
7.787337411230367
 20
1.664868401048004
 10
7.791242413268022
 20
1.658070804908359
 10
7.795725934126113
 20
1.651562468178934
 10
7.800932603509657
 20
1.645632650269866
 10
7.806717791713642
 20
1.640136721476106
 10
7.813226128443062
 20
1.635363941207832
 10
7.820312983992928
 20
1.631025050054869
 10
7.82783372865806
 20
1.627409307427391
 10
7.835932992143628
 20
1.624372083620311
 10
7.838247067425224
 20
1.623648935094826
 10
7.840705772411903
 20
1.623070416274428
 10
7.843164477398583
 20
1.622491897454028
 10
7.845767812090353
 20
1.621913378633631
 10
7.848226517077036
 20
1.621479489518321
 10
7.850829851768807
 20
1.621190230108144
 10
7.853288556755487
 20
1.620756340992834
 10
7.855891891447257
 20
1.620611711287746
 10
7.85835059643394
 20
1.620322451877568
 10
7.860809301420619
 20
1.620177822172438
 10
7.863268006407299
 20
1.620033192467349
 10
7.865582081688893
 20
1.620033192467349
 10
7.867896156970482
 20
1.620033192467349
 10
7.870065602546989
 20
1.620033192467349
 10
7.872235048123491
 20
1.620177822172438
 10
7.874259863994822
 20
1.620322451877568
 10
7.874259863994822
 20
1.604991703137041
 10
7.858495226139068
 20
1.596169291126025
 10
7.855313372626901
 20
1.59544614260054
 10
7.852131519114687
 20
1.595012253485229
 10
7.848949665602525
 20
1.595012253485229
 10
7.846057071500535
 20
1.59544614260054
 10
7.843019847693494
 20
1.596024661420936
 10
7.840271883296598
 20
1.597037069356601
 10
7.837668548604824
 20
1.59833873670253
 10
7.835065213913015
 20
1.599785033753502
 10
7.832606508926332
 20
1.601520590214696
 10
7.830292433644737
 20
1.603400776380979
 10
7.82812298806828
 20
1.605570221957438
 10
7.826098172196906
 20
1.607739667533945
 10
7.824217986030582
 20
1.610198372520624
 10
7.822482429569432
 20
1.612657077507304
 10
7.820891502813366
 20
1.615115782493986
 10
7.819589835467485
 20
1.617719117185756
 10
7.791820932088463
 20
1.604847073431954
 10
7.793122599434346
 20
1.60238836844527
 10
7.794713526190409
 20
1.599929663458591
 10
7.796304452946511
 20
1.597326328766822
 10
7.798040009407706
 20
1.59486762378014
 10
7.800064825279079
 20
1.592408918793458
 10
7.802089641150452
 20
1.58995021380678
 10
7.804403716432044
 20
1.587780768230274
 10
7.806717791713642
 20
1.585466692948683
 10
7.809176496700318
 20
1.583441877077311
 10
7.811924461097177
 20
1.581561690911028
 10
7.814817055199209
 20
1.579970764154922
 10
7.817709649301156
 20
1.57837983739886
 10
7.820891502813366
 20
1.577222799758065
 10
7.824073356325492
 20
1.576210391822356
 10
7.827544469247881
 20
1.575487243296869
 10
7.831160211875356
 20
1.575197983886691
 10
7.832317249516155
 20
1.575197983886691
 10
7.833474287156952
 20
1.575342613591781
 10
7.834775954502833
 20
1.575487243296869
 10
7.836077621848723
 20
1.575631873001959
 10
7.837234659489516
 20
1.57592113241218
 10
7.838536326835398
 20
1.576355021527489
 10
7.839693364476196
 20
1.576788910642754
 10
7.840850402116994
 20
1.577222799758065
 10
7.903475064424814
 20
1.614103374558278
 10
7.904921361475827
 20
1.615260412199075
 10
7.905933769411497
 20
1.616851338955179
 10
7.906367658526845
 20
1.618731525121464
 10
7.906512288231938
 20
1.620756340992834
 10
7.906512288231938
 20
1.717658243409143
 10
7.906223028821717
 20
1.7209847266264
 10
7.905644510001318
 20
1.724021950433481
 10
7.904632102065606
 20
1.72648065542016
 10
7.903330434719727
 20
1.728505471291575
 10
7.901739507963664
 20
1.72995176834255
 10
7.899859321797336
 20
1.731108805983345
 10
7.897979135631099
 20
1.731687324803742
 10
7.896098949464771
 20
1.73197658421392
  0
LINE
  5
766
330
17
100
AcDbEntity
  8
0
100
AcDbLine
 10
8.773484695253902
 20
0.7999999999999563
 30
0.0
 11
8.773484695253902
 21
1.268913789283077
 31
0.0
  0
TEXT
  5
767
330
17
100
AcDbEntity
  8
3
100
AcDbText
 10
8.81058982005296
 20
1.015588455926574
 30
0.0
 40
0.0390761491069264
  1
PART/DWG. NO.
  7
SIMPLEX
100
AcDbText
  0
TEXT
  5
768
330
17
100
AcDbEntity
  8
3
100
AcDbText
 10
8.830739989161255
 20
1.162083521424067
 30
0.0
 40
0.038763539914071
  1
SHEET
  7
SIMPLEX
100
AcDbText
  0
TEXT
  5
769
330
17
100
AcDbEntity
  8
3
100
AcDbText
 10
9.095907186201896
 20
1.14069934460157
 30
0.0
 40
0.0781522982138528
  1
1
  7
SIMPLEX
100
AcDbText
  0
TEXT
  5
76A
330
17
100
AcDbEntity
  8
3
100
AcDbText
 10
9.232024171881027
 20
1.161751422157341
 30
0.0
 40
0.038763539914071
  1
OF
  7
SIMPLEX
100
AcDbText
  0
LWPOLYLINE
  5
76C
330
17
100
AcDbEntity
  8
4
  6
Continuous
100
AcDbPolyline
 90
      133
 70
     0
 43
0.0
 10
8.684411380195115
 20
1.722575653382505
 10
8.681952675208439
 20
1.719972318690735
 10
8.679638599926843
 20
1.716935094883656
 10
8.677613784055472
 20
1.713753241371446
 10
8.67544433847901
 20
1.71042675815419
 10
8.673274892902508
 20
1.707244904642021
 10
8.670960817620915
 20
1.704063051129853
 10
8.668646742339323
 20
1.701170457027862
 10
8.665898777942462
 20
1.698711752041184
 10
8.664886370006755
 20
1.697988603515695
 10
8.663873962071049
 20
1.697265454990166
 10
8.662861554135343
 20
1.696542306464679
 10
8.661849146199678
 20
1.695819157939194
 10
8.660836738264011
 20
1.695096009413705
 10
8.659679700623218
 20
1.694372860888218
 10
8.658522662982424
 20
1.693649712362732
 10
8.657076365931406
 20
1.692926563837203
 10
8.709576948882368
 20
1.692926563837203
 10
8.707262873600775
 20
1.691046377670919
 10
8.705093428024268
 20
1.689166191504638
 10
8.703068612152858
 20
1.687286005338354
 10
8.701043796281531
 20
1.685261189466983
 10
8.699163610115203
 20
1.683091743890478
 10
8.697283423948919
 20
1.680922298314019
 10
8.695547867487725
 20
1.678752852737515
 10
8.693956940731659
 20
1.676438777455921
 10
8.692221384270425
 20
1.673980072469241
 10
8.690775087219451
 20
1.67137673777747
 10
8.689328790168481
 20
1.668628773380613
 10
8.687882493117506
 20
1.66588080898371
 10
8.686436196066534
 20
1.662843585176631
 10
8.685134528720602
 20
1.659806361369554
 10
8.683832861374717
 20
1.656479878152295
 10
8.682675823733918
 20
1.653008765229909
 10
8.68065100786255
 20
1.645343390859647
 10
8.679493970221752
 20
1.637678016489424
 10
8.679349340516669
 20
1.62986801241407
 10
8.68007248904211
 20
1.622058008338719
 10
8.681663415798261
 20
1.614537263673589
 10
8.684266750490028
 20
1.607161148713544
 10
8.687593233707326
 20
1.600218922868811
 10
8.691932124860247
 20
1.593855215844433
 10
8.694101570436753
 20
1.591251881152663
 10
8.696560275423433
 20
1.588793176165981
 10
8.699308239820293
 20
1.586334471179301
 10
8.702345463627413
 20
1.584165025602798
 10
8.705382687434447
 20
1.581995580026337
 10
8.708709170651751
 20
1.579970764154922
 10
8.712180283574138
 20
1.578235207693771
 10
8.715796026201616
 20
1.576644280937666
 10
8.71941176882909
 20
1.575197983886691
 10
8.723172141161658
 20
1.573896316540806
 10
8.726787883789132
 20
1.572883908605098
 10
8.7305482561217
 20
1.572160760079612
 10
8.734308628454268
 20
1.571582241259215
 10
8.737924371081742
 20
1.571437611554085
 10
8.74154011370922
 20
1.571437611554085
 10
8.745011226631563
 20
1.571726870964304
 10
8.74935011778453
 20
1.572450019489791
 10
8.753689008937538
 20
1.57331779772041
 10
8.757883270385367
 20
1.574474835361205
 10
8.761932902128112
 20
1.57592113241218
 10
8.765982533870943
 20
1.577512059168241
 10
8.769742906203507
 20
1.579392245334524
 10
8.773503278536072
 20
1.581561690911028
 10
8.776829761753328
 20
1.584020395897709
 10
8.780156244970587
 20
1.58676836029461
 10
8.78304883907262
 20
1.589660954396558
 10
8.78579680346948
 20
1.59284280790877
 10
8.78825550845616
 20
1.596313920831114
 10
8.790424954032662
 20
1.600074293163681
 10
8.792160510493815
 20
1.603979295201376
 10
8.793606807544787
 20
1.608318186354341
 10
8.794763845185585
 20
1.612801707212394
 10
8.79158199167346
 20
1.610053742815534
 10
8.78825550845616
 20
1.607595037828853
 10
8.784639765828682
 20
1.605280962547261
 10
8.781024023201206
 20
1.603400776380979
 10
8.77726365086864
 20
1.601665219919785
 10
8.773358648830985
 20
1.600218922868811
 10
8.769309017088199
 20
1.599061885228015
 10
8.765259385345412
 20
1.598194106997396
 10
8.761209753602667
 20
1.597615588176999
 10
8.757015492154792
 20
1.59747095847191
 10
8.752965860412007
 20
1.59747095847191
 10
8.748916228669266
 20
1.597904847587218
 10
8.744866596926476
 20
1.598627996112706
 10
8.740961594888776
 20
1.599785033753502
 10
8.737056592851125
 20
1.601231330804476
 10
8.733296220518557
 20
1.60296688726567
 10
8.729680477891081
 20
1.605280962547261
 10
8.726353994673782
 20
1.607739667533945
 10
8.723316770866746
 20
1.610632261635934
 10
8.720424176764757
 20
1.613669485443013
 10
8.717965471778075
 20
1.617140598365359
 10
8.715651396496481
 20
1.620611711287746
 10
8.7137712103302
 20
1.624372083620311
 10
8.712035653869005
 20
1.628277085658009
 10
8.71058935681799
 20
1.632326717400754
 10
8.709576948882368
 20
1.636376349143541
 10
8.708709170651751
 20
1.640570610591414
 10
8.708130651831311
 20
1.644909501744379
 10
8.70784139242113
 20
1.649103763192254
 10
8.70784139242113
 20
1.653442654345217
 10
8.708130651831311
 20
1.65778154549818
 10
8.708709170651751
 20
1.661975806946055
 10
8.710300097407813
 20
1.666893216919418
 10
8.712035653869005
 20
1.671232108072381
 10
8.713915840035287
 20
1.675281739815126
 10
8.716085285611793
 20
1.679042112147735
 10
8.718399360893386
 20
1.682657854775212
 10
8.721147325290242
 20
1.685984337992469
 10
8.724329178802456
 20
1.689455450914858
 10
8.72794492142993
 20
1.692781934132113
 10
8.755424565398687
 20
1.692781934132113
 10
8.757015492154792
 20
1.692781934132113
 10
8.758895678321076
 20
1.693071193542333
 10
8.760920494192447
 20
1.693360452952511
 10
8.76294531006382
 20
1.69393897177291
 10
8.764970125935231
 20
1.694517490593309
 10
8.766705682396388
 20
1.695385268823882
 10
8.768296609152535
 20
1.696253047054502
 10
8.769453646793285
 20
1.697410084695298
 10
8.795776253121292
 20
1.72951787922724
 10
8.700899166576396
 20
1.72951787922724
 10
8.698151202179499
 20
1.72937324952215
 10
8.695837126897902
 20
1.729228619817064
 10
8.693667681321441
 20
1.728794730701753
 10
8.691787495155161
 20
1.728071582176266
 10
8.689907308988876
 20
1.727203803945648
 10
8.688171752527683
 20
1.726046766304895
 10
8.686291566361401
 20
1.724455839548788
 10
8.684411380195115
 20
1.722575653382505
  0
LWPOLYLINE
  5
7F3
330
17
100
AcDbEntity
  8
4
  6
Continuous
100
AcDbPolyline
 90
       44
 70
     0
 43
0.0
 10
8.287254160096692
 20
1.72995176834255
 10
8.223183200737853
 20
1.72995176834255
 10
8.225208016609226
 20
1.728794730701753
 10
8.227522091890815
 20
1.727203803945648
 10
8.229691537467321
 20
1.724889728664098
 10
8.231860983043825
 20
1.722286393972285
 10
8.233741169210061
 20
1.719249170165206
 10
8.235332095966167
 20
1.71577805724286
 10
8.236199874196746
 20
1.712162314615382
 10
8.236633763312099
 20
1.708257312577686
 10
8.236633763312099
 20
1.579536875039656
 10
8.284650825404918
 20
1.579536875039656
 10
8.29275008889045
 20
1.579970764154922
 10
8.300560092965802
 20
1.581127801795718
 10
8.308080837630933
 20
1.583007987962001
 10
8.315167693180795
 20
1.585611322653813
 10
8.321820659615312
 20
1.588937805871071
 10
8.328184366639693
 20
1.592987437613856
 10
8.333969554843626
 20
1.59747095847191
 10
8.339320853932346
 20
1.602677627855493
 10
8.344093634200575
 20
1.608318186354341
 10
8.34843252535354
 20
1.614537263673589
 10
8.352192897686105
 20
1.621190230108144
 10
8.355230121493223
 20
1.628277085658009
 10
8.357688826479906
 20
1.63579783032314
 10
8.359569012646147
 20
1.643607834398494
 10
8.360581420581855
 20
1.651851727589113
 10
8.361015309697165
 20
1.66038488018995
 10
8.360726050286942
 20
1.667616365444906
 10
8.359569012646147
 20
1.674558591289639
 10
8.357688826479906
 20
1.681211557724195
 10
8.35508549178809
 20
1.687575264748573
 10
8.351903638275922
 20
1.69379434206782
 10
8.34814326594336
 20
1.69943490056667
 10
8.343804374790352
 20
1.70478619965534
 10
8.338886964816992
 20
1.709703609628704
 10
8.333680295433449
 20
1.714187130486755
 10
8.327895107229469
 20
1.718236762229542
 10
8.321820659615312
 20
1.72170787515193
 10
8.315312322885889
 20
1.724600469253878
 10
8.308659356451329
 20
1.72691454453547
 10
8.301717130606601
 20
1.728650100996663
 10
8.294485645351642
 20
1.72966250893237
 10
8.287254160096692
 20
1.72995176834255
  0
LWPOLYLINE
  5
821
330
17
100
AcDbEntity
  8
4
  6
Continuous
100
AcDbPolyline
 90
       96
 70
     0
 43
0.0
 10
8.207181828515981
 20
1.579536875039656
 10
8.204867753234386
 20
1.581127801795718
 10
8.202553677952796
 20
1.582718728551824
 10
8.200528862081423
 20
1.584598914718107
 10
8.198793305620231
 20
1.586479100884389
 10
8.197347008569257
 20
1.588648546460895
 10
8.196189970928459
 20
1.591107251447573
 10
8.195466822402973
 20
1.593710586139343
 10
8.195177562992752
 20
1.596458550536203
 10
8.195177562992752
 20
1.690323229145434
 10
8.195177562992752
 20
1.694228231183132
 10
8.194888303582532
 20
1.698133233220786
 10
8.194309784762179
 20
1.70232749466866
 10
8.193152747121381
 20
1.706377126411403
 10
8.191417190660187
 20
1.710571387859278
 10
8.188669226263286
 20
1.714476389896975
 10
8.185053483635806
 20
1.71838139193463
 10
8.180136073662449
 20
1.722141764267196
 10
8.177098849855415
 20
1.724021950433481
 10
8.173916996343201
 20
1.725612877189585
 10
8.170735142831034
 20
1.72691454453547
 10
8.16726402990869
 20
1.728071582176266
 10
8.163792916986299
 20
1.728794730701753
 10
8.160321804063906
 20
1.729228619817064
 10
8.156850691141523
 20
1.72951787922724
 10
8.153234948514047
 20
1.72951787922724
 10
8.149763835591702
 20
1.729228619817064
 10
8.146292722669311
 20
1.728794730701753
 10
8.142966239452054
 20
1.728216211881355
 10
8.139639756234757
 20
1.72734843365078
 10
8.136602532427717
 20
1.726336025715071
 10
8.133565308620596
 20
1.725034358369186
 10
8.130672714518652
 20
1.723732691023301
 10
8.128069379826882
 20
1.722141764267196
 10
8.126623082775866
 20
1.721418615741711
 10
8.125321415429976
 20
1.720695467216224
 10
8.123875118378961
 20
1.719972318690735
 10
8.122573451033076
 20
1.719104540460119
 10
8.121271783687195
 20
1.718092132524454
 10
8.119825486636219
 20
1.717079724588745
 10
8.118523819290334
 20
1.71577805724286
 10
8.116932892534228
 20
1.714476389896975
 10
8.116209744008738
 20
1.717224354293836
 10
8.115052706367944
 20
1.719683059280515
 10
8.113751039022062
 20
1.72185250485702
 10
8.112160112266
 20
1.72387732072839
 10
8.110424555804762
 20
1.725612877189585
 10
8.108544369638517
 20
1.727059174240558
 10
8.106664183472194
 20
1.728360841586443
 10
8.104639367600821
 20
1.72937324952215
 10
8.071519165133175
 20
1.72937324952215
 10
8.074556388940253
 20
1.727203803945648
 10
8.077159723632025
 20
1.724745098958966
 10
8.079329169208527
 20
1.722141764267196
 10
8.081209355374767
 20
1.719104540460119
 10
8.082655652425785
 20
1.71592268694795
 10
8.08366806036145
 20
1.712306944320474
 10
8.084391208886977
 20
1.708546571987906
 10
8.084535838592064
 20
1.70435231054003
 10
8.084535838592064
 20
1.57592113241218
 10
8.118234559880157
 20
1.601954479329965
 10
8.118234559880157
 20
1.690901747965831
 10
8.118813078700508
 20
1.695674528234103
 10
8.120259375751484
 20
1.699868789681977
 10
8.122428821327988
 20
1.703484532309456
 10
8.125321415429976
 20
1.706521756116536
 10
8.128647898647232
 20
1.708980461103215
 10
8.132263641274715
 20
1.71071601756441
 10
8.136168643312366
 20
1.711873055205163
 10
8.140073645350067
 20
1.712306944320474
 10
8.142387720631656
 20
1.712306944320474
 10
8.144701795913206
 20
1.712017684910295
 10
8.146871241489712
 20
1.711583795794985
 10
8.149040687066211
 20
1.711005276974589
 10
8.151065502937584
 20
1.7102821284491
 10
8.153090318808956
 20
1.709269720513392
 10
8.154970504975281
 20
1.708257312577686
 10
8.15670606143643
 20
1.706955645231801
 10
8.158441617897628
 20
1.705653977885917
 10
8.159887914948644
 20
1.704207680834944
 10
8.161044952589442
 20
1.702472124373747
 10
8.162201990230192
 20
1.700881197617643
 10
8.163069768460772
 20
1.69900101145136
 10
8.163648287281207
 20
1.697120825285079
 10
8.164082176396476
 20
1.695096009413705
 10
8.164226806101567
 20
1.692926563837203
 10
8.164226806101567
 20
1.593710586139343
 10
8.164371435806652
 20
1.591396510857751
 10
8.164660695216872
 20
1.588937805871071
 10
8.165383843742365
 20
1.586623730589478
 10
8.166396251678069
 20
1.584309655307928
 10
8.167987178434135
 20
1.582429469141646
 10
8.170011994305546
 20
1.580838542385541
 10
8.172759958702407
 20
1.579826134449833
 10
8.176231071624794
 20
1.579536875039656
 10
8.207181828515981
 20
1.579536875039656
  0
LWPOLYLINE
  5
883
330
17
100
AcDbEntity
  8
4
  6
Continuous
100
AcDbPolyline
 90
       34
 70
     0
 43
0.0
 10
8.27091100342054
 20
1.717947502819321
 10
8.276551561919347
 20
1.717368983998922
 10
8.28204749071315
 20
1.716211946358129
 10
8.287254160096692
 20
1.714187130486755
 10
8.292316199775138
 20
1.711439166089896
 10
8.296944350338325
 20
1.708257312577686
 10
8.30142787119642
 20
1.70435231054003
 10
8.305477502939163
 20
1.700013419387069
 10
8.30923787527173
 20
1.695240639118794
 10
8.312708988194119
 20
1.689889340030123
 10
8.315601582296068
 20
1.684393411236363
 10
8.318204916987838
 20
1.678463593327335
 10
8.32037436256434
 20
1.672389145713178
 10
8.322109919025532
 20
1.666025438688801
 10
8.32326695666633
 20
1.659517101959376
 10
8.324134734896905
 20
1.653008765229909
 10
8.324279364601995
 20
1.646355798795353
 10
8.323845475486731
 20
1.640281351181194
 10
8.322688437845931
 20
1.634496162977255
 10
8.320952881384737
 20
1.628855604478364
 10
8.318638806103187
 20
1.623648935094826
 10
8.315746212001201
 20
1.618586895416374
 10
8.31241972878394
 20
1.613958744853189
 10
8.308659356451329
 20
1.609764483405315
 10
8.304754354413635
 20
1.605859481367659
 10
8.300560092965802
 20
1.602243738740185
 10
8.296221201812837
 20
1.599061885228015
 10
8.291737680954787
 20
1.596313920831114
 10
8.287398789801779
 20
1.593999845549522
 10
8.282915268943726
 20
1.59226428908837
 10
8.278721007495848
 20
1.590817992037354
 10
8.274671375753106
 20
1.58995021380678
 10
8.27091100342054
 20
1.589516324691468
 10
8.27091100342054
 20
1.717947502819321
  0
LWPOLYLINE
  5
8A7
330
17
100
AcDbEntity
  8
4
  6
Continuous
100
AcDbPolyline
 90
      205
 70
     0
 43
0.0
 10
8.651456341485436
 20
1.712451574025561
 10
8.647551339447781
 20
1.716501205768349
 10
8.643357077999905
 20
1.720261578100913
 10
8.638584297731632
 20
1.723443431613081
 10
8.633522258053181
 20
1.726191396009983
 10
8.628170958964512
 20
1.728505471291575
 10
8.622675030170752
 20
1.730385657457857
 10
8.616745212261726
 20
1.731831954508831
 10
8.610815394352659
 20
1.73284436244454
 10
8.604885576443585
 20
1.733422881264939
 10
8.598811128829431
 20
1.733567510970025
 10
8.592592051510184
 20
1.733133621854716
 10
8.586662233601114
 20
1.73241047332923
 10
8.580732415692043
 20
1.731108805983345
 10
8.574947227488106
 20
1.72937324952215
 10
8.56945129869435
 20
1.727059174240558
 10
8.564099999605719
 20
1.724455839548788
 10
8.560050367862887
 20
1.721997134562109
 10
8.556289995530324
 20
1.719393799870339
 10
8.552674252902846
 20
1.71635657606326
 10
8.549347769685589
 20
1.71317472255109
 10
8.546165916173421
 20
1.709703609628704
 10
8.543273322071478
 20
1.706087867001226
 10
8.54066998737966
 20
1.702182864963571
 10
8.538211282392976
 20
1.698133233220786
 10
8.536186466521606
 20
1.694083601477997
 10
8.534306280355284
 20
1.689744710325034
 10
8.532859983304309
 20
1.685261189466983
 10
8.531702945663511
 20
1.680777668608928
 10
8.530835167432936
 20
1.676294147750834
 10
8.530401278317629
 20
1.671665997187693
 10
8.530112018907452
 20
1.666893216919418
 10
8.530401278317629
 20
1.662265066356233
 10
8.530545908022716
 20
1.659950991074643
 10
8.530835167432936
 20
1.65749228608796
 10
8.531124426843156
 20
1.655178210806413
 10
8.531702945663511
 20
1.65286413552482
 10
8.532426094189045
 20
1.650694689948315
 10
8.533583131829839
 20
1.648669874076944
 10
8.535029428880815
 20
1.647078947320839
 10
8.536909615047097
 20
1.645921909680044
 10
8.537777393277671
 20
1.645488020564775
 10
8.538645171508289
 20
1.645198761154555
 10
8.539657579443996
 20
1.645054131449468
 10
8.540525357674527
 20
1.645054131449468
 10
8.54153776561024
 20
1.645198761154555
 10
8.542550173545944
 20
1.645198761154555
 10
8.543562581481655
 20
1.645488020564775
 10
8.544864248827536
 20
1.645632650269866
 10
8.587819271241906
 20
1.653153394934998
 10
8.589699457408237
 20
1.653442654345217
 10
8.591724273279567
 20
1.653731913755397
 10
8.593604459445892
 20
1.653876543460484
 10
8.595629275317262
 20
1.654021173165616
 10
8.597509461483543
 20
1.654021173165616
 10
8.599534277354957
 20
1.654021173165616
 10
8.601414463521201
 20
1.654021173165616
 10
8.603439279392611
 20
1.653876543460484
 10
8.605319465558856
 20
1.653731913755397
 10
8.607344281430272
 20
1.653442654345217
 10
8.609224467596551
 20
1.653153394934998
 10
8.611104653762836
 20
1.652719505819731
 10
8.613129469634252
 20
1.652285616704421
 10
8.615009655800529
 20
1.651707097884024
 10
8.616745212261726
 20
1.651128579063626
 10
8.618625398427964
 20
1.650405430538139
 10
8.622964289580972
 20
1.648091355256545
 10
8.626435402503362
 20
1.644909501744379
 10
8.629183366900218
 20
1.641149129411813
 10
8.630918923361374
 20
1.636954867963938
 10
8.631931331297082
 20
1.632326717400754
 10
8.6322205907073
 20
1.627553937132479
 10
8.631642071886902
 20
1.62278115686425
 10
8.630195774835929
 20
1.618153006301065
 10
8.628749477784952
 20
1.615115782493986
 10
8.627158551028808
 20
1.612223188391996
 10
8.625133735157476
 20
1.609619853700226
 10
8.622964289580972
 20
1.607161148713544
 10
8.620505584594294
 20
1.604847073431954
 10
8.617902249902524
 20
1.602822257560581
 10
8.615154285505621
 20
1.601086701099385
 10
8.612261691403631
 20
1.599495774343282
 10
8.609224467596551
 20
1.598194106997396
 10
8.606042614084383
 20
1.597181699061732
 10
8.602860760572214
 20
1.596458550536203
 10
8.599678907060049
 20
1.596169291126025
 10
8.596352423842747
 20
1.596024661420936
 10
8.593025940625446
 20
1.596313920831114
 10
8.589844087113322
 20
1.596892439651511
 10
8.586662233601114
 20
1.597760217882131
 10
8.584058898909347
 20
1.598772625817793
 10
8.581600193922664
 20
1.599929663458591
 10
8.579286118641071
 20
1.601086701099385
 10
8.576972043359475
 20
1.602532998150361
 10
8.574657968077929
 20
1.603979295201376
 10
8.572488522501425
 20
1.605714851662571
 10
8.570319076924967
 20
1.607305778418633
 10
8.56829426105355
 20
1.609185964584916
 10
8.566414074887266
 20
1.6110661507512
 10
8.564389259015896
 20
1.613090966622613
 10
8.562653702554701
 20
1.615115782493986
 10
8.560918146093509
 20
1.617140598365359
 10
8.55918258963236
 20
1.619310043941861
 10
8.557591662876253
 20
1.621624119223453
 10
8.556000736120147
 20
1.623793564799913
 10
8.554554439069171
 20
1.626107640081506
 10
8.520277198960723
 20
1.609185964584916
 10
8.523025163357587
 20
1.604702443726864
 10
8.526207016869797
 20
1.600652811984077
 10
8.529678129792136
 20
1.596747809946423
 10
8.533438502124706
 20
1.593132067318946
 10
8.537488133867494
 20
1.58995021380678
 10
8.541827025020458
 20
1.587057619704788
 10
8.546310545878508
 20
1.58445428501302
 10
8.551083326146784
 20
1.582284839436514
 10
8.556000736120147
 20
1.580404653270232
 10
8.560918146093509
 20
1.578813726514169
 10
8.566124815477046
 20
1.577656688873372
 10
8.571331484860627
 20
1.576788910642754
 10
8.576538154244211
 20
1.576355021527489
 10
8.581744823627751
 20
1.576355021527489
 10
8.586951493011332
 20
1.576788910642754
 10
8.592158162394872
 20
1.577512059168241
 10
8.597364831778456
 20
1.578813726514169
 10
8.602426871456906
 20
1.580404653270232
 10
8.607199651725178
 20
1.582429469141646
 10
8.611972431993454
 20
1.585032803833416
 10
8.616455952851504
 20
1.587780768230274
 10
8.620650214299384
 20
1.590962621742443
 10
8.624699846042121
 20
1.594433734664831
 10
8.628460218374737
 20
1.59833873670253
 10
8.631786701591988
 20
1.60238836844527
 10
8.634968555104201
 20
1.606582629893145
 10
8.637716519501058
 20
1.611210780456331
 10
8.640030594782651
 20
1.61598356072456
 10
8.642055410654021
 20
1.620756340992834
 10
8.643646337410128
 20
1.625818380671329
 10
8.644803375050923
 20
1.631025050054869
 10
8.645381893871277
 20
1.636376349143541
 10
8.645526523576371
 20
1.640425980886284
 10
8.645381893871277
 20
1.644475612629069
 10
8.644948004756013
 20
1.648380614666724
 10
8.644224856230481
 20
1.652430246409512
 10
8.643067818589727
 20
1.656190618742075
 10
8.641766151243801
 20
1.659950991074643
 10
8.640030594782651
 20
1.663566733702118
 10
8.637861149206152
 20
1.667037846624506
 10
8.636125592744999
 20
1.6693519219061
 10
8.634245406578671
 20
1.67137673777747
 10
8.6322205907073
 20
1.673256923943755
 10
8.629906515425709
 20
1.674992480404949
 10
8.627592440144159
 20
1.676583407161053
 10
8.625133735157476
 20
1.677885074506939
 10
8.622530400465661
 20
1.679186741852824
 10
8.619782436068764
 20
1.680199149788531
 10
8.617034471671901
 20
1.681211557724195
 10
8.614286507275046
 20
1.681934706249682
 10
8.611393913173056
 20
1.682657854775212
 10
8.608645948776151
 20
1.683236373595566
 10
8.605753354674206
 20
1.683670262710878
 10
8.602860760572214
 20
1.683959522121098
 10
8.59996816647023
 20
1.684248781531274
 10
8.597220202073366
 20
1.684393411236363
 10
8.595484645612168
 20
1.684538040941494
 10
8.593604459445892
 20
1.684538040941494
 10
8.591868902984696
 20
1.684393411236363
 10
8.590133346523504
 20
1.684393411236363
 10
8.588397790062307
 20
1.684248781531274
 10
8.586517603896023
 20
1.684104151826186
 10
8.584782047434874
 20
1.683814892415965
 10
8.583046490973638
 20
1.683670262710878
 10
8.581310934512483
 20
1.683381003300699
 10
8.579575378051249
 20
1.683091743890478
 10
8.577695191885009
 20
1.682802484480301
 10
8.575959635423814
 20
1.682513225070081
 10
8.574224078962622
 20
1.682223965659904
 10
8.572488522501425
 20
1.681934706249682
 10
8.570608336335144
 20
1.681645446839504
 10
8.568872779873951
 20
1.681356187429285
 10
8.543128692366343
 20
1.675137110110036
 10
8.542550173545944
 20
1.677595815096719
 10
8.542839432956121
 20
1.681356187429285
 10
8.543851840891829
 20
1.685984337992469
 10
8.545442767647934
 20
1.69119100737605
 10
8.547756842929484
 20
1.69639767675959
 10
8.55064943703152
 20
1.701315086732954
 10
8.553975920248772
 20
1.705364718475738
 10
8.557880922286427
 20
1.708401942282819
 10
8.561352035208816
 20
1.70999286903888
 10
8.564967777836251
 20
1.711149906679676
 10
8.568728150168857
 20
1.712017684910295
 10
8.572633152206559
 20
1.712451574025561
 10
8.576538154244211
 20
1.712596203730694
 10
8.580587785986956
 20
1.712451574025561
 10
8.584492788024611
 20
1.711873055205163
 10
8.588397790062307
 20
1.711005276974589
 10
8.592302792100007
 20
1.709848239333791
 10
8.595918534727484
 20
1.708401942282819
 10
8.599534277354957
 20
1.706811015526714
 10
8.602860760572214
 20
1.70493082936043
 10
8.605897984379296
 20
1.702761383783926
 10
8.608645948776151
 20
1.700302678797245
 10
8.611104653762836
 20
1.697699344105475
 10
8.613274099339339
 20
1.694951379708617
 10
8.651456341485436
 20
1.712451574025561
  0
LWPOLYLINE
  5
976
330
17
100
AcDbEntity
  8
4
  6
Continuous
100
AcDbPolyline
 90
      138
 70
     0
 43
0.0
 10
8.458797282318855
 20
1.72951787922724
 10
8.461834506125931
 20
1.72734843365078
 10
8.464293211112611
 20
1.724889728664098
 10
8.466318026983984
 20
1.722141764267196
 10
8.467764324034959
 20
1.719249170165206
 10
8.468921361675757
 20
1.716211946358129
 10
8.469644510201288
 20
1.713030092845959
 10
8.470078399316552
 20
1.709558979923614
 10
8.470223029021642
 20
1.705943237296136
 10
8.470223029021642
 20
1.597326328766822
 10
8.467619694329872
 20
1.597326328766822
 10
8.465016359638099
 20
1.59747095847191
 10
8.462413024946329
 20
1.597760217882131
 10
8.459954319959649
 20
1.598194106997396
 10
8.457350985267879
 20
1.598772625817793
 10
8.4548922802812
 20
1.599495774343282
 10
8.452433575294515
 20
1.6003635525739
 10
8.450119500012924
 20
1.601231330804476
 10
8.447660795026244
 20
1.60238836844527
 10
8.445346719744655
 20
1.603545406086069
 10
8.443177274168148
 20
1.604847073431954
 10
8.441007828591686
 20
1.606293370482968
 10
8.438838383015188
 20
1.60788429723903
 10
8.436668937438721
 20
1.609475223995138
 10
8.434644121567313
 20
1.611210780456331
 10
8.432763935401068
 20
1.612946336917485
 10
8.429437452183773
 20
1.61627282013478
 10
8.426400228376692
 20
1.619888562762259
 10
8.423652263979793
 20
1.623648935094826
 10
8.42119355899311
 20
1.627698566837611
 10
8.419024113416647
 20
1.631892828285444
 10
8.417288556955451
 20
1.636087089733319
 10
8.415842259904477
 20
1.640570610591414
 10
8.414829851968772
 20
1.645054131449468
 10
8.414251333148374
 20
1.649248392897342
 10
8.413817444033067
 20
1.653442654345217
 10
8.413817444033067
 20
1.65778154549818
 10
8.414106703443245
 20
1.661975806946055
 10
8.414685222263683
 20
1.666170068393933
 10
8.415553000494258
 20
1.670364329841764
 10
8.416854667840187
 20
1.674413961584551
 10
8.41859022430134
 20
1.678318963622249
 10
8.419891891647225
 20
1.680777668608928
 10
8.42119355899311
 20
1.683236373595566
 10
8.422495226338995
 20
1.685550448877159
 10
8.423941523390007
 20
1.687864524158751
 10
8.425243190735898
 20
1.690178599440343
 10
8.42668948778691
 20
1.692348045016804
 10
8.428280414542975
 20
1.694517490593309
 10
8.429871341299037
 20
1.696542306464679
 10
8.431462268055183
 20
1.698711752041184
 10
8.433053194811247
 20
1.700736567912555
 10
8.4347887512724
 20
1.702761383783926
 10
8.436524307733638
 20
1.70478619965534
 10
8.438404493899877
 20
1.706666385821622
 10
8.4402846800662
 20
1.708691201692995
 10
8.442164866232442
 20
1.710571387859278
 10
8.444189682103857
 20
1.712596203730694
 10
8.445925238565049
 20
1.714621019602065
 10
8.447082276205803
 20
1.716790465178525
 10
8.447805424731331
 20
1.718959910755029
 10
8.447950054436422
 20
1.721129356331534
 10
8.447805424731331
 20
1.723298801907994
 10
8.447371535616067
 20
1.725468247484496
 10
8.446648387090537
 20
1.727493063355868
 10
8.445635979154829
 20
1.72951787922724
 10
8.393713915024347
 20
1.72951787922724
 10
8.394870952665147
 20
1.728505471291575
 10
8.396027990305945
 20
1.727493063355868
 10
8.397185027946697
 20
1.72648065542016
 10
8.398342065587495
 20
1.725323617779366
 10
8.399354473523157
 20
1.72416658013861
 10
8.400366881458865
 20
1.722864912792684
 10
8.401234659689482
 20
1.721563245446798
 10
8.40210243792006
 20
1.720261578100913
 10
8.403837994381252
 20
1.71635657606326
 10
8.404705772611871
 20
1.712162314615382
 10
8.404705772611871
 20
1.70782342346242
 10
8.404127253791433
 20
1.703484532309456
 10
8.402970216150638
 20
1.698856381746271
 10
8.401090029984393
 20
1.694372860888218
 10
8.398920584407891
 20
1.690178599440343
 10
8.39646187942121
 20
1.686128967697559
 10
8.393858544729441
 20
1.682079335954813
 10
8.39111058033254
 20
1.678174333917116
 10
8.388362615935637
 20
1.674124702174374
 10
8.385903910948957
 20
1.670075070431585
 10
8.383879095077627
 20
1.666025438688801
 10
8.382143538616389
 20
1.661975806946055
 10
8.380841871270504
 20
1.657636915793094
 10
8.3798294633348
 20
1.653298024640085
 10
8.379250944514442
 20
1.648959133487123
 10
8.378961685104265
 20
1.644475612629069
 10
8.378961685104265
 20
1.639992091771015
 10
8.379395574219531
 20
1.635508570912921
 10
8.37997409303993
 20
1.632615976810974
 10
8.380552611860327
 20
1.629723382708984
 10
8.381420390090946
 20
1.626830788606994
 10
8.382432798026611
 20
1.624082824210134
 10
8.383589835667407
 20
1.621334859813234
 10
8.384891503013289
 20
1.618731525121464
 10
8.386193170359177
 20
1.61598356072456
 10
8.387784097115281
 20
1.613524855737882
 10
8.389375023871345
 20
1.6110661507512
 10
8.39111058033254
 20
1.608607445764518
 10
8.392990766498822
 20
1.606293370482968
 10
8.395015582370236
 20
1.603979295201376
 10
8.397040398241607
 20
1.601809849624874
 10
8.399065214112976
 20
1.599640404048415
 10
8.401234659689482
 20
1.597615588176999
 10
8.403548734971073
 20
1.595735402010716
 10
8.406152069662839
 20
1.593710586139343
 10
8.409044663764792
 20
1.591830399973061
 10
8.411937257866826
 20
1.590094843511866
 10
8.414974481673862
 20
1.588503916755762
 10
8.418156335186072
 20
1.587057619704788
 10
8.421338188698197
 20
1.585755952358903
 10
8.4246646719155
 20
1.58445428501302
 10
8.427991155132797
 20
1.583441877077311
 10
8.43131763835005
 20
1.582574098846736
 10
8.434644121567313
 20
1.581706320616116
 10
8.438115234489696
 20
1.580983172090629
 10
8.441586347412087
 20
1.580549282975321
 10
8.444912830629339
 20
1.580115393860054
 10
8.448383943551732
 20
1.579826134449833
 10
8.45171042676899
 20
1.579536875039656
 10
8.455036909986286
 20
1.579536875039656
 10
8.503487861194424
 20
1.579536875039656
 10
8.503487861194424
 20
1.711294536384765
 10
8.503487861194424
 20
1.713608611666358
 10
8.503487861194424
 20
1.71592268694795
 10
8.503777120604642
 20
1.71838139193463
 10
8.504211009719906
 20
1.720840096921311
 10
8.505078787950527
 20
1.723154172202903
 10
8.506235825591321
 20
1.725323617779366
 10
8.507971382052469
 20
1.727493063355868
 10
8.510285457334063
 20
1.72951787922724
 10
8.458797282318855
 20
1.72951787922724
  0
LWPOLYLINE
  5
A02
330
17
100
AcDbEntity
  8
4
  6
Continuous
100
AcDbPolyline
 90
       21
 70
     0
 43
0.0
 10
8.980253526839886
 20
1.72951787922724
 10
8.983001491236743
 20
1.728071582176266
 10
8.985315566518337
 20
1.726336025715071
 10
8.98734038238971
 20
1.7243112098437
 10
8.988786679440725
 20
1.721997134562109
 10
8.989943717081523
 20
1.719393799870339
 10
8.990811495312097
 20
1.716645835473436
 10
8.991245384427408
 20
1.713608611666358
 10
8.991390014132493
 20
1.71042675815419
 10
8.991390014132493
 20
1.579536875039656
 10
9.026968921586828
 20
1.579536875039656
 10
9.026968921586828
 20
1.710860647269498
 10
9.027113551291911
 20
1.713897871076579
 10
9.027836699817443
 20
1.716501205768349
 10
9.02870447804802
 20
1.719104540460119
 10
9.030150775098991
 20
1.721418615741711
 10
9.031741701855098
 20
1.723588061318213
 10
9.033766517726473
 20
1.725757506894673
 10
9.035935963302927
 20
1.727637693060958
 10
9.038539297994743
 20
1.72951787922724
 10
8.980253526839886
 20
1.72951787922724
  0
LWPOLYLINE
  5
A19
330
17
100
AcDbEntity
  8
4
  6
Continuous
100
AcDbPolyline
 90
       61
 70
     0
 43
0.0
 10
8.914508582204312
 20
1.665157660458224
 10
8.918702843652226
 20
1.665446919868403
 10
8.922752475394972
 20
1.666025438688801
 10
8.926368218022448
 20
1.666893216919418
 10
8.929694701239702
 20
1.668050254560215
 10
8.932587295341697
 20
1.669496551611189
 10
8.935335259738554
 20
1.671087478367294
 10
8.937793964725234
 20
1.672967664533576
 10
8.939963410301738
 20
1.675137110110036
 10
8.941843596468064
 20
1.677451185391629
 10
8.943434523224127
 20
1.67990989037831
 10
8.944736190570015
 20
1.682513225070081
 10
8.945748598505717
 20
1.68540581917207
 10
8.946616376736292
 20
1.688298413274061
 10
8.947194895556695
 20
1.691335637081139
 10
8.947484154966867
 20
1.694517490593309
 10
8.947628784671998
 20
1.697843973810564
 10
8.947484154966867
 20
1.700881197617643
 10
8.946905636146517
 20
1.703918421424724
 10
8.946182487620982
 20
1.706811015526714
 10
8.945025449980192
 20
1.709703609628704
 10
8.943723782634304
 20
1.712451574025561
 10
8.941988226173149
 20
1.715054908717375
 10
8.940252669711917
 20
1.717513613704055
 10
8.938083224135453
 20
1.719827688985605
 10
8.935913778558994
 20
1.72185250485702
 10
8.933455073572309
 20
1.723732691023301
 10
8.930851738880543
 20
1.725323617779366
 10
8.92810377448364
 20
1.726769914830381
 10
8.925355810086742
 20
1.727926952471176
 10
8.922463215984793
 20
1.728650100996663
 10
8.919425992177668
 20
1.729228619817064
 10
8.916388768370635
 20
1.72937324952215
 10
8.815003345096274
 20
1.72937324952215
 10
8.816449642147247
 20
1.728216211881355
 10
8.817751309493132
 20
1.727059174240558
 10
8.819052976839017
 20
1.725757506894673
 10
8.820210014479814
 20
1.724600469253878
 10
8.821367052120612
 20
1.723443431613081
 10
8.822524089761403
 20
1.721997134562109
 10
8.823536497697114
 20
1.720550837511135
 10
8.824548905632777
 20
1.71881528104994
 10
8.825995202683794
 20
1.715633427537771
 10
8.82715224032459
 20
1.711873055205163
 10
8.827875388850035
 20
1.708257312577686
 10
8.828164648260255
 20
1.705364718475738
 10
8.828309277965383
 20
1.575342613591781
 10
8.863165036894187
 20
1.605859481367659
 10
8.863165036894187
 20
1.666170068393933
 10
8.878495785634713
 20
1.666314698099021
 10
8.930707109175411
 20
1.579826134449833
 10
8.975686947461156
 20
1.579536875039656
 10
8.972938983064299
 20
1.581127801795718
 10
8.970191018667437
 20
1.583007987962001
 10
8.967587683975667
 20
1.584888174128326
 10
8.965128978988987
 20
1.587057619704788
 10
8.962670274002308
 20
1.589082435576159
 10
8.960356198720715
 20
1.591396510857751
 10
8.958042123439122
 20
1.593710586139343
 10
8.955728048157531
 20
1.596169291126025
 10
8.914508582204312
 20
1.665157660458224
  0
LWPOLYLINE
  5
A58
330
17
100
AcDbEntity
  8
4
  6
Continuous
100
AcDbPolyline
 90
       21
 70
     0
 43
0.0
 10
8.913785433678865
 20
1.697843973810564
 10
8.913351544563514
 20
1.693360452952511
 10
8.912049877217629
 20
1.689166191504638
 10
8.910025061346257
 20
1.685550448877159
 10
8.907277096949352
 20
1.68236859536499
 10
8.903950613732142
 20
1.67976526067322
 10
8.900190241399535
 20
1.677885074506939
 10
8.896140609656747
 20
1.676728036866141
 10
8.891801718503824
 20
1.676294147750834
 10
8.862731147778918
 20
1.676294147750834
 10
8.862731147778918
 20
1.713463981961268
 10
8.8596939239718
 20
1.720550837511135
 10
8.89223560761909
 20
1.720550837511135
 10
8.896719128477187
 20
1.720116948395825
 10
8.90076876021993
 20
1.71881528104994
 10
8.904384502847404
 20
1.716790465178525
 10
8.907566356359618
 20
1.714042500781666
 10
8.91016969105139
 20
1.710571387859278
 10
8.912049877217629
 20
1.706811015526714
 10
8.913351544563514
 20
1.702472124373747
 10
8.913785433678865
 20
1.697843973810564
  0
LWPOLYLINE
  5
A6F
330
17
100
AcDbEntity
  8
4
  6
Continuous
 62
     4
100
AcDbPolyline
 90
      205
 70
     0
 43
0.0
 10
9.31357977936965
 20
1.711439166089896
 10
9.309674777331995
 20
1.71548879783264
 10
9.305480515884076
 20
1.719104540460119
 10
9.300707735615846
 20
1.722286393972285
 10
9.29564569593735
 20
1.725178988074275
 10
9.290294396848725
 20
1.727493063355868
 10
9.284798468054923
 20
1.72937324952215
 10
9.279013279850984
 20
1.730819546573125
 10
9.273083461941958
 20
1.731831954508831
 10
9.2670090143278
 20
1.732265843624141
 10
9.26093456671364
 20
1.73241047332923
 10
9.254860119099486
 20
1.732121213919054
 10
9.248785671485324
 20
1.731253435688435
 10
9.242855853576255
 20
1.72995176834255
 10
9.237070665372275
 20
1.728216211881355
 10
9.231574736578556
 20
1.726046766304895
 10
9.226223437489846
 20
1.723443431613081
 10
9.2221738057471
 20
1.7209847266264
 10
9.218413433414539
 20
1.718236762229542
 10
9.214797690787056
 20
1.715344168127551
 10
9.21147120756976
 20
1.712162314615382
 10
9.208289354057635
 20
1.708691201692995
 10
9.205396759955599
 20
1.70493082936043
 10
9.202648795558744
 20
1.701170457027862
 10
9.200334720277151
 20
1.697120825285079
 10
9.198165274700693
 20
1.692926563837203
 10
9.196285088534406
 20
1.688587672684239
 10
9.194838791483432
 20
1.684248781531274
 10
9.193681753842636
 20
1.67976526067322
 10
9.192813975612015
 20
1.675137110110036
 10
9.192235456791616
 20
1.670508959546895
 10
9.192090827086532
 20
1.66588080898371
 10
9.192380086496752
 20
1.66125265842057
 10
9.192524716201836
 20
1.658793953433889
 10
9.192813975612015
 20
1.656479878152295
 10
9.193103235022196
 20
1.654021173165616
 10
9.193681753842636
 20
1.651707097884024
 10
9.19454953207321
 20
1.649537652307522
 10
9.195561940008881
 20
1.647512836436149
 10
9.19715286676498
 20
1.645921909680044
 10
9.199033052931266
 20
1.64476487203929
 10
9.199900831161883
 20
1.644330982923981
 10
9.200768609392456
 20
1.644041723513759
 10
9.201781017328167
 20
1.644041723513759
 10
9.202648795558744
 20
1.644041723513759
 10
9.203661203494448
 20
1.644041723513759
 10
9.204673611430155
 20
1.64418635321889
 10
9.205830649070952
 20
1.644475612629069
 10
9.207132316416835
 20
1.644620242334159
 10
9.25008733883121
 20
1.652140986999334
 10
9.251967524997496
 20
1.652430246409512
 10
9.253992340868862
 20
1.652574876114599
 10
9.25587252703519
 20
1.65286413552482
 10
9.257897342906519
 20
1.65286413552482
 10
9.259777529072843
 20
1.653008765229909
 10
9.261802344944216
 20
1.653008765229909
 10
9.263682531110504
 20
1.65286413552482
 10
9.265707346981916
 20
1.652719505819731
 10
9.267587533148155
 20
1.652574876114599
 10
9.26961234901957
 20
1.652285616704421
 10
9.271492535185851
 20
1.6519963572942
 10
9.273372721352135
 20
1.651562468178934
 10
9.275252907518419
 20
1.651128579063626
 10
9.2771330936847
 20
1.650694689948315
 10
9.279013279850984
 20
1.650116171127918
 10
9.280748836312179
 20
1.64939302260243
 10
9.285087727465183
 20
1.647078947320839
 10
9.288703470092618
 20
1.64389709380867
 10
9.291306804784431
 20
1.640136721476106
 10
9.293186990950671
 20
1.63579783032314
 10
9.294199398886382
 20
1.631314309465088
 10
9.294344028591472
 20
1.626541529196817
 10
9.293765509771112
 20
1.621768748928543
 10
9.292319212720096
 20
1.616995968660269
 10
9.29087291566908
 20
1.613958744853189
 10
9.289281988913018
 20
1.6110661507512
 10
9.287257173041606
 20
1.608462816059429
 10
9.285087727465183
 20
1.606004111072748
 10
9.282773652183596
 20
1.603690035791156
 10
9.280170317491782
 20
1.601665219919785
 10
9.277277723389792
 20
1.599929663458591
 10
9.274385129287843
 20
1.59833873670253
 10
9.271347905480761
 20
1.597037069356601
 10
9.268310681673684
 20
1.596169291126025
 10
9.264984198456382
 20
1.59544614260054
 10
9.261802344944216
 20
1.595012253485229
 10
9.258620491432052
 20
1.59486762378014
 10
9.25529400821475
 20
1.595156883190318
 10
9.252112154702583
 20
1.595735402010716
 10
9.248930301190412
 20
1.596747809946423
 10
9.246326966498642
 20
1.597760217882131
 10
9.243868261511966
 20
1.598917255522884
 10
9.241409556525283
 20
1.600074293163681
 10
9.239095481243689
 20
1.601520590214696
 10
9.236781405962098
 20
1.60296688726567
 10
9.234611960385599
 20
1.604557814021774
 10
9.232587144514264
 20
1.606293370482968
 10
9.23041769893776
 20
1.60817355664925
 10
9.228537512771435
 20
1.610053742815534
 10
9.226657326605199
 20
1.611933928981819
 10
9.224777140438868
 20
1.613958744853189
 10
9.223041583977721
 20
1.616128190429694
 10
9.221306027516483
 20
1.618297636006154
 10
9.219715100760419
 20
1.620467081582658
 10
9.218124174004362
 20
1.622636527159119
 10
9.216677876953344
 20
1.62495060244071
 10
9.182256007139807
 20
1.60817355664925
 10
9.185003971536666
 20
1.603690035791156
 10
9.188185825048837
 20
1.599495774343282
 10
9.19165693797122
 20
1.595590772305626
 10
9.195417310303787
 20
1.592119659383239
 10
9.199466942046576
 20
1.588793176165981
 10
9.203805833199542
 20
1.585900582063992
 10
9.208433983762724
 20
1.583297247372222
 10
9.213062134325863
 20
1.581127801795718
 10
9.217979544299266
 20
1.579247615629436
 10
9.223041583977721
 20
1.577656688873372
 10
9.228248253361259
 20
1.576499651232577
 10
9.233454922744801
 20
1.57577650270709
 10
9.23866159212838
 20
1.575342613591781
 10
9.243868261511966
 20
1.575342613591781
 10
9.249074930895506
 20
1.575631873001959
 10
9.254281600279043
 20
1.576499651232577
 10
9.259488269662668
 20
1.577656688873372
 10
9.264550309341119
 20
1.579392245334524
 10
9.269323089609393
 20
1.581417061205939
 10
9.274095869877623
 20
1.583875766192619
 10
9.278579390735675
 20
1.58676836029461
 10
9.282918281888683
 20
1.58995021380678
 10
9.286823283926334
 20
1.593421326729123
 10
9.290583656258903
 20
1.597181699061732
 10
9.294054769181288
 20
1.601231330804476
 10
9.297091992988368
 20
1.605570221957438
 10
9.299839957385273
 20
1.610053742815534
 10
9.302298662371908
 20
1.614826523083809
 10
9.304178848538192
 20
1.619743933057171
 10
9.305769775294296
 20
1.624805972735621
 10
9.306926812935095
 20
1.630012642119161
 10
9.307505331755493
 20
1.635219311502744
 10
9.30779459116567
 20
1.63926894324553
 10
9.30764996146058
 20
1.643318574988274
 10
9.307216072345315
 20
1.64736820673106
 10
9.306492923819781
 20
1.651273208768714
 10
9.30533588617899
 20
1.655178210806413
 10
9.303889589128015
 20
1.658938583138979
 10
9.302154032666823
 20
1.662554325766453
 10
9.29998458709036
 20
1.666025438688801
 10
9.298249030629124
 20
1.668194884265303
 10
9.296368844462882
 20
1.670364329841764
 10
9.294344028591472
 20
1.67224451600809
 10
9.292174583015011
 20
1.673835442764153
 10
9.289715878028282
 20
1.675426369520258
 10
9.287257173041606
 20
1.67687266657123
 10
9.284653838349836
 20
1.678029704212028
 10
9.282050503658062
 20
1.679186741852824
 10
9.279302539261202
 20
1.680054520083398
 10
9.276554574864302
 20
1.680922298314019
 10
9.273661980762316
 20
1.681645446839504
 10
9.270769386660363
 20
1.682223965659904
 10
9.267876792558377
 20
1.682657854775212
 10
9.264984198456382
 20
1.682947114185389
 10
9.262091604354438
 20
1.683236373595566
 10
9.259343639957537
 20
1.683381003300699
 10
9.257608083496343
 20
1.683381003300699
 10
9.255727897330059
 20
1.683381003300699
 10
9.253992340868862
 20
1.683381003300699
 10
9.252256784407716
 20
1.683236373595566
 10
9.250521227946482
 20
1.683091743890478
 10
9.248785671485324
 20
1.682947114185389
 10
9.247050115024132
 20
1.682802484480301
 10
9.245314558562938
 20
1.682513225070081
 10
9.243434372396656
 20
1.682223965659904
 10
9.24169881593546
 20
1.681934706249682
 10
9.239963259474267
 20
1.681645446839504
 10
9.238227703013071
 20
1.681500817134416
 10
9.23649214655192
 20
1.681211557724195
 10
9.234756590090723
 20
1.680922298314019
 10
9.232876403924445
 20
1.680633038903799
 10
9.231140847463253
 20
1.68034377949362
 10
9.20525213025051
 20
1.673980072469241
 10
9.204818241135246
 20
1.676438777455921
 10
9.205107500545423
 20
1.680199149788531
 10
9.205975278776042
 20
1.684827300351674
 10
9.207710835237193
 20
1.690033969735254
 10
9.209880280813695
 20
1.695240639118794
 10
9.212772874915684
 20
1.700158049092156
 10
9.216243987838034
 20
1.704207680834944
 10
9.220148989875733
 20
1.707244904642021
 10
9.223620102798076
 20
1.708835831398085
 10
9.227235845425553
 20
1.710137498744011
 10
9.230996217758116
 20
1.710860647269498
 10
9.234901219795821
 20
1.711439166089896
 10
9.238806221833515
 20
1.711583795794985
 10
9.242855853576255
 20
1.711294536384765
 10
9.246760855613914
 20
1.710860647269498
 10
9.250665857651608
 20
1.70999286903888
 10
9.254570859689264
 20
1.708835831398085
 10
9.25818660231674
 20
1.707389534347111
 10
9.261657715239087
 20
1.705653977885917
 10
9.264984198456382
 20
1.703773791719632
 10
9.268021422263462
 20
1.701604346143174
 10
9.270914016365452
 20
1.699145641156492
 10
9.273372721352135
 20
1.696542306464679
 10
9.275397537223547
 20
1.69379434206782
 10
9.31357977936965
 20
1.711439166089896
  0
LWPOLYLINE
  5
B3E
330
17
100
AcDbEntity
  8
4
  6
Continuous
100
AcDbPolyline
 90
       88
 70
     0
 43
0.0
 10
9.149277554532501
 20
1.72937324952215
 10
9.05454509769274
 20
1.72937324952215
 10
9.057148432384511
 20
1.72734843365078
 10
9.059751767076278
 20
1.725034358369186
 10
9.062065842357872
 20
1.722431023677418
 10
9.064235287934334
 20
1.719827688985605
 10
9.065970844395527
 20
1.716790465178525
 10
9.067272511741411
 20
1.713753241371446
 10
9.068140289972028
 20
1.7102821284491
 10
9.068574179087296
 20
1.706811015526714
 10
9.068574179087296
 20
1.606293370482968
 10
9.044131758925573
 20
1.579536875039656
 10
9.131343471100247
 20
1.579536875039656
 10
9.133079027561439
 20
1.579536875039656
 10
9.134814584022596
 20
1.579826134449833
 10
9.13655014048383
 20
1.579970764154922
 10
9.138141067239892
 20
1.580404653270232
 10
9.139876623701088
 20
1.580838542385541
 10
9.14161218016228
 20
1.581417061205939
 10
9.143203106918344
 20
1.581995580026337
 10
9.144938663379535
 20
1.582863358256913
 10
9.146529590135646
 20
1.583586506782399
 10
9.148120516891703
 20
1.58445428501302
 10
9.149566813942724
 20
1.585466692948683
 10
9.151013110993741
 20
1.586479100884389
 10
9.152459408044713
 20
1.587636138525186
 10
9.153905705095686
 20
1.588793176165981
 10
9.155062742736483
 20
1.58995021380678
 10
9.156364410082362
 20
1.591251881152663
 10
9.159835523004755
 20
1.595590772305626
 10
9.162583487401617
 20
1.600652811984077
 10
9.164608303273029
 20
1.606004111072748
 10
9.165765340913823
 20
1.611500039866509
 10
9.165909970618912
 20
1.617140598365359
 10
9.165042192388296
 20
1.622347267748939
 10
9.162872746811792
 20
1.627264677722303
 10
9.159546263594576
 20
1.631603568875266
 10
9.12801698788299
 20
1.618008376595977
 10
9.129607914639056
 20
1.615694301314384
 10
9.130909581984939
 20
1.613090966622613
 10
9.131921989920645
 20
1.610487631930801
 10
9.132645138446136
 20
1.607739667533945
 10
9.133079027561439
 20
1.604991703137041
 10
9.133079027561439
 20
1.602243738740185
 10
9.132645138446136
 20
1.599495774343282
 10
9.131777360215556
 20
1.596892439651511
 10
9.130620322574763
 20
1.595012253485229
 10
9.129318655228876
 20
1.593276697024034
 10
9.127583098767685
 20
1.591685770267972
 10
9.125847542306491
 20
1.590528732627176
 10
9.123822726435076
 20
1.589516324691468
 10
9.121797910563746
 20
1.588648546460895
 10
9.11962846498724
 20
1.588214657345583
 10
9.117459019410738
 20
1.588070027640496
 10
9.068140289972028
 20
1.588070027640496
 10
9.100826603324366
 20
1.621913378633631
 10
9.100826603324366
 20
1.65488895139619
 10
9.139298104880689
 20
1.65488895139619
 10
9.139298104880689
 20
1.666459327804109
 10
9.101405122144763
 20
1.666459327804109
 10
9.101405122144763
 20
1.71042675815419
 10
9.094607526005122
 20
1.7209847266264
 10
9.116446611475028
 20
1.7209847266264
 10
9.121364021448393
 20
1.720695467216224
 10
9.12541365319122
 20
1.719538429575426
 10
9.128595506703343
 20
1.717658243409143
 10
9.130909581984939
 20
1.715054908717375
 10
9.132211249330826
 20
1.712017684910295
 10
9.132645138446136
 20
1.708546571987906
 10
9.132066619625735
 20
1.704641569950251
 10
9.130475692869667
 20
1.700736567912555
 10
9.164319043862812
 20
1.69046785885052
 10
9.1666331191444
 20
1.692926563837203
 10
9.168368675605595
 20
1.695674528234103
 10
9.16967034295148
 20
1.698711752041184
 10
9.170393491476966
 20
1.701748975848262
 10
9.170682750887184
 20
1.70493082936043
 10
9.170393491476966
 20
1.708257312577686
 10
9.16981497265657
 20
1.711439166089896
 10
9.168802564720863
 20
1.714621019602065
 10
9.167500897374974
 20
1.717513613704055
 10
9.165765340913823
 20
1.720406207806004
 10
9.163740525042411
 20
1.722864912792684
 10
9.16128182005573
 20
1.725034358369186
 10
9.15867848536396
 20
1.72691454453547
 10
9.155785891261965
 20
1.728216211881355
 10
9.152604037749803
 20
1.729083990111973
 10
9.149277554532501
 20
1.72937324952215
  0
TEXT
  5
B98
330
17
100
AcDbEntity
  8
3
100
AcDbText
 10
9.906909695007863
 20
1.148242052218146
 30
0.0
 40
0.0535812156554175
  1
1=1
  7
SIMPLEX
 72
     1
 11
9.966869626812735
 21
1.148242052218146
 31
0.0
100
AcDbText
  0
TEXT
  5
B99
330
17
100
AcDbEntity
  8
3
100
AcDbText
 10
9.957937952005462
 20
1.015346836363333
 30
0.0
 40
0.0390761491069264
  1
REV.
  7
SIMPLEX
100
AcDbText
  0
TEXT
  5
B9A
330
17
100
AcDbEntity
  8
3
100
AcDbText
 10
9.982855558196931
 20
0.8589523399345058
 30
0.0
 40
0.0875305739995151
  1
B
  7
SIMPLEX
 72
     1
 11
10.01203241619677
 21
0.8589523399345058
 31
0.0
100
AcDbText
  0
LINE
  5
B9B
330
17
100
AcDbEntity
  8
0
100
AcDbLine
 10
9.500003654213116
 20
1.088837136489871
 30
0.0
 11
9.500003654213116
 21
1.268913789283077
 31
0.0
  0
LINE
  5
B9C
330
17
100
AcDbEntity
  8
0
100
AcDbLine
 10
9.839754791408363
 20
0.799999999999999
 30
0.0
 11
9.839754791408363
 21
1.088837136489871
 31
0.0
  0
TEXT
  5
B9D
330
17
100
AcDbEntity
  8
3
100
AcDbText
 10
9.604944096898279
 20
1.156139443902532
 30
0.0
 40
0.0390761491069264
  1
SCALE:
  7
SIMPLEX
100
AcDbText
  0
TEXT
  5
B9E
330
17
100
AcDbEntity
  8
3
100
AcDbText
 10
9.400426086095226
 20
1.14069934460157
 30
0.0
 40
0.0781522982138528
  1
1
  7
SIMPLEX
100
AcDbText
  0
TEXT
  5
B9F
330
17
100
AcDbEntity
  8
4
100
AcDbText
 10
9.385786919138793
 20
1.577369927989766
 30
0.0
 40
0.094
  1
inc., erie, pa.
  7
T
100
AcDbText
  0
LINE
  5
BA1
330
17
100
AcDbEntity
  8
3
100
AcDbLine
 10
4.140615805608702
 20
7.57512622460608
 30
0.0
 11
4.140615805608702
 21
7.699999999999998
 31
0.0
  0
TEXT
  5
BA2
330
17
100
AcDbEntity
  8
2
100
AcDbText
 10
4.843383484051791
 20
7.572559019520411
 30
0.0
 40
0.078
  1
C
  7
SIMPLEX
 72
     1
 11
4.871240626908934
 21
7.572559019520411
 31
0.0
100
AcDbText
  0
LINE
  5
BA3
330
17
100
AcDbEntity
  8
3
100
AcDbLine
 10
5.649211854206527
 20
7.57512622460608
 30
0.0
 11
5.649211854206527
 21
7.699999999999998
 31
0.0
  0
TEXT
  5
BA4
330
17
100
AcDbEntity
  8
2
100
AcDbText
 10
6.331771364688003
 20
7.572559019520411
 30
0.0
 40
0.078
  1
D
  7
SIMPLEX
 72
     1
 11
6.357771364688002
 21
7.572559019520411
 31
0.0
100
AcDbText
  0
LINE
  5
BA5
330
17
100
AcDbEntity
  8
3
100
AcDbLine
 10
7.157807902804349
 20
7.57512622460608
 30
0.0
 11
7.157807902804349
 21
7.699999999999998
 31
0.0
  0
TEXT
  5
BA6
330
17
100
AcDbEntity
  8
2
100
AcDbText
 10
7.863880737611827
 20
7.572559019520411
 30
0.0
 40
0.078
  1
E
  7
SIMPLEX
 72
     1
 11
7.888023594754685
 21
7.572559019520411
 31
0.0
100
AcDbText
  0
LINE
  5
BA7
330
17
100
AcDbEntity
  8
3
100
AcDbLine
 10
8.666403951402173
 20
7.57512622460608
 30
0.0
 11
8.666403951402173
 21
7.699999999999998
 31
0.0
  0
TEXT
  5
BA8
330
17
100
AcDbEntity
  8
2
100
AcDbText
 10
9.372272221534707
 20
7.572559019520411
 30
0.0
 40
0.078
  1
F
  7
SIMPLEX
 72
     1
 11
9.396415078677565
 21
7.572559019520411
 31
0.0
100
AcDbText
  0
TEXT
  5
BBF
330
17
100
AcDbEntity
  8
3
100
AcDbText
 10
28.65923562309384
 20
13.87815174919781
 30
0.0
 40
0.125
  1

  7
SIMPLEX
 72
     1
 11
28.65923562309384
 21
13.87815174919781
 31
0.0
100
AcDbText
  0
TEXT
  5
BC0
330
17
100
AcDbEntity
  8
3
100
AcDbText
 10
33.32965132202543
 20
16.7730354562652
 30
0.0
 40
0.125
  1
 
  7
ROMANS
 72
     1
 11
33.39215132202543
 21
16.7730354562652
 31
0.0
100
AcDbText
  0
LINE
  5
BC9
330
17
100
AcDbEntity
  8
0
100
AcDbLine
 10
4.395794116008081
 20
3.863469078244314
 30
0.0
 11
4.395794116008081
 21
3.613469078244314
 31
0.0
  0
LINE
  5
BCA
330
17
100
AcDbEntity
  8
0
100
AcDbLine
 10
4.395794116008081
 20
3.613469078244314
 30
0.0
 11
5.770794116008081
 21
3.613469078244314
 31
0.0
  0
LINE
  5
BCB
330
17
100
AcDbEntity
  8
0
100
AcDbLine
 10
4.395794116008081
 20
3.863469078244314
 30
0.0
 11
6.145794116008081
 21
3.863469078244314
 31
0.0
  0
LINE
  5
BCC
330
17
100
AcDbEntity
  8
0
100
AcDbLine
 10
6.895794116008081
 20
3.675969078244314
 30
0.0
 11
6.895794116008081
 21
3.363469078244314
 31
0.0
  0
LINE
  5
BCD
330
17
100
AcDbEntity
  8
0
100
AcDbLine
 10
5.770794116008081
 20
3.363469078244314
 30
0.0
 11
6.895794116008081
 21
3.363469078244314
 31
0.0
  0
LINE
  5
BCE
330
17
100
AcDbEntity
  8
0
100
AcDbLine
 10
5.770794116008081
 20
3.613469078244314
 30
0.0
 11
5.770794116008081
 21
3.363469078244314
 31
0.0
  0
LINE
  5
BCF
330
17
100
AcDbEntity
  8
0
100
AcDbLine
 10
6.145794116008081
 20
3.863469078244314
 30
0.0
 11
6.895794116008081
 21
3.675969078244314
 31
0.0
  0
LINE
  5
BD0
330
17
100
AcDbEntity
  8
2
  6
HIDDEN
100
AcDbLine
 10
4.395794116008081
 20
3.644669078244311
 30
0.0
 11
6.895794116008081
 21
3.644669078244311
 31
0.0
  0
LINE
  5
BD1
330
17
100
AcDbEntity
  8
0
100
AcDbLine
 10
4.395794116008081
 20
3.363469078244314
 30
0.0
 11
4.520794116008081
 21
3.238469078244314
 31
0.0
  0
LINE
  5
BD2
330
17
100
AcDbEntity
  8
0
100
AcDbLine
 10
4.520794116008081
 20
3.238469078244314
 30
0.0
 11
5.770794116008081
 21
3.363469078244314
 31
0.0
  0
LINE
  5
BD3
330
17
100
AcDbEntity
  8
0
100
AcDbLine
 10
4.395794116008081
 20
3.613469078244314
 30
0.0
 11
4.395794116008081
 21
3.363469078244314
 31
0.0
  0
LINE
  5
BD4
330
17
100
AcDbEntity
  8
0
100
AcDbLine
 10
4.395794116008081
 20
5.339931280391358
 30
0.0
 11
6.895794116008081
 21
5.339931280391353
 31
0.0
  0
LINE
  5
BD5
330
17
100
AcDbEntity
  8
0
100
AcDbLine
 10
4.395794116008081
 20
6.839931280391365
 30
0.0
 11
6.895794116008081
 21
6.839931280391353
 31
0.0
  0
LINE
  5
BD6
330
17
100
AcDbEntity
  8
0
100
AcDbLine
 10
4.395794116008081
 20
5.339931280391358
 30
0.0
 11
4.395794116008081
 21
6.839931280391365
 31
0.0
  0
LINE
  5
BD7
330
17
100
AcDbEntity
  8
0
100
AcDbLine
 10
6.895794116008081
 20
5.339931280391353
 30
0.0
 11
6.895794116008081
 21
6.839931280391353
 31
0.0
  0
LINE
  5
BD8
330
17
100
AcDbEntity
  8
0
100
AcDbLine
 10
6.145794116008081
 20
5.339931280391353
 30
0.0
 11
6.145794116008081
 21
6.839931280391357
 31
0.0
  0
LINE
  5
BD9
330
17
100
AcDbEntity
  8
0
100
AcDbLine
 10
6.914486472474933
 20
3.644669078244311
 30
0.0
 11
6.895794116008081
 21
3.644669078244311
 31
0.0
  0
LINE
  5
BDA
330
17
100
AcDbEntity
  8
0
100
AcDbLine
 10
6.917158330422017
 20
3.613669078244313
 30
0.0
 11
6.895794116008081
 21
3.613669078244313
 31
0.0
  0
CIRCLE
  5
BEE
330
17
100
AcDbEntity
  8
0
100
AcDbCircle
 10
4.708294116008081
 20
5.501931280391358
 30
0.0
 40
0.016
  0
CIRCLE
  5
BEF
330
17
100
AcDbEntity
  8
0
100
AcDbCircle
 10
5.020794116008081
 20
5.599931280391365
 30
0.0
 40
0.016
  0
CIRCLE
  5
BF0
330
17
100
AcDbEntity
  8
0
100
AcDbCircle
 10
4.708294116008081
 20
5.697931280391356
 30
0.0
 40
0.016
  0
CIRCLE
  5
BF1
330
17
100
AcDbEntity
  8
0
100
AcDbCircle
 10
5.020794116008081
 20
5.795931280391362
 30
0.0
 40
0.016
  0
CIRCLE
  5
BF2
330
17
100
AcDbEntity
  8
0
100
AcDbCircle
 10
4.708294116008081
 20
5.893931280391361
 30
0.0
 40
0.016
  0
CIRCLE
  5
BF3
330
17
100
AcDbEntity
  8
0
100
AcDbCircle
 10
5.020794116008081
 20
5.991931280391368
 30
0.0
 40
0.016
  0
CIRCLE
  5
BF4
330
17
100
AcDbEntity
  8
0
100
AcDbCircle
 10
4.708294116008081
 20
6.089931280391358
 30
0.0
 40
0.016
  0
CIRCLE
  5
BF5
330
17
100
AcDbEntity
  8
0
100
AcDbCircle
 10
5.020794116008081
 20
6.187931280391365
 30
0.0
 40
0.016
  0
CIRCLE
  5
BF6
330
17
100
AcDbEntity
  8
0
100
AcDbCircle
 10
4.708294116008081
 20
6.285931280391361
 30
0.0
 40
0.016
  0
CIRCLE
  5
BF7
330
17
100
AcDbEntity
  8
0
100
AcDbCircle
 10
5.020794116008081
 20
6.383931280391367
 30
0.0
 40
0.016
  0
CIRCLE
  5
BF8
330
17
100
AcDbEntity
  8
0
100
AcDbCircle
 10
4.708294116008081
 20
6.481931280391362
 30
0.0
 40
0.016
  0
CIRCLE
  5
BF9
330
17
100
AcDbEntity
  8
0
100
AcDbCircle
 10
5.020794116008081
 20
6.579931280391368
 30
0.0
 40
0.016
  0
TEXT
  5
BFA
330
17
100
AcDbEntity
  8
3
100
AcDbText
 10
27.01561505797329
 20
13.89868309647122
 30
0.0
 40
0.125
  1

  7
SIMPLEX
 72
     1
 11
27.01561505797329
 21
13.89868309647122
 31
0.0
100
AcDbText
  0
TEXT
  5
BFB
330
17
100
AcDbEntity
  8
3
100
AcDbText
 10
38.7161396190279
 20
22.14204059058927
 30
0.0
 40
0.125
  1

  7
SIMPLEX
 72
     1
 11
38.7161396190279
 21
22.14204059058927
 31
0.0
100
AcDbText
  0
TEXT
  5
BFC
330
17
100
AcDbEntity
  8
3
100
AcDbText
 10
52.57391621298975
 20
22.13177492882691
 30
0.0
 40
0.125
  1

  7
SIMPLEX
 72
     1
 11
52.57391621298975
 21
22.13177492882691
 31
0.0
100
AcDbText
  0
TEXT
  5
BFD
330
17
100
AcDbEntity
  8
3
100
AcDbText
 10
57.24433191192133
 20
25.0266586358943
 30
0.0
 40
0.125
  1
 
  7
ROMANS
 72
     1
 11
57.30683191192134
 21
25.0266586358943
 31
0.0
100
AcDbText
  0
LINE
  5
BFE
330
17
100
AcDbEntity
  8
0
100
AcDbLine
 10
7.273810510552272
 20
3.613469078244308
 30
0.0
 11
6.895794116008081
 21
3.613469078244313
 31
0.0
  0
LINE
  5
BFF
330
17
100
AcDbEntity
  8
0
100
AcDbLine
 10
7.273810510552272
 20
3.645469078244308
 30
0.0
 11
6.895794116008081
 21
3.645469078244311
 31
0.0
  0
ARC
  5
C00
330
17
100
AcDbEntity
  8
0
100
AcDbCircle
 10
7.395794116008081
 20
3.643969078244309
 30
0.0
 40
0.0625
100
AcDbArc
 50
18.20440059461778
 51
164.6019338206815
  0
LINE
  5
C01
330
17
100
AcDbEntity
  8
0
100
AcDbLine
 10
7.520794116008081
 20
3.645469078244308
 30
0.0
 11
7.520794116008081
 21
3.613469078244308
 31
0.0
  0
LINE
  5
C02
330
17
100
AcDbEntity
  8
0
100
AcDbLine
 10
7.517777721463897
 20
3.613469078244308
 30
0.0
 11
7.520794116008081
 21
3.613469078244308
 31
0.0
  0
LINE
  5
C03
330
17
100
AcDbEntity
  8
0
100
AcDbLine
 10
7.517777721463897
 20
3.645469078244308
 30
0.0
 11
7.520794116008081
 21
3.645469078244308
 31
0.0
  0
ARC
  5
C04
330
17
100
AcDbEntity
  8
0
100
AcDbCircle
 10
7.517777721463897
 20
3.677469078244308
 30
0.0
 40
0.032
100
AcDbArc
 50
195.3563842652738
 51
270.0
  0
ARC
  5
C05
330
17
100
AcDbEntity
  8
0
100
AcDbCircle
 10
7.395794116008081
 20
3.643969078244309
 30
0.0
 40
0.0945
100
AcDbArc
 50
16.14378381858066
 51
164.643615734726
  0
ARC
  5
C06
330
17
100
AcDbEntity
  8
0
100
AcDbCircle
 10
7.517777721463897
 20
3.677469078244308
 30
0.0
 40
0.064
100
AcDbArc
 50
195.3563842652738
 51
270.0
  0
ARC
  5
C07
330
17
100
AcDbEntity
  8
0
100
AcDbCircle
 10
7.273810510552272
 20
3.677469078244308
 30
0.0
 40
0.032
100
AcDbArc
 50
270.0
 51
344.6436157347262
  0
ARC
  5
C08
330
17
100
AcDbEntity
  8
0
100
AcDbCircle
 10
7.273810510552272
 20
3.677469078244308
 30
0.0
 40
0.064
100
AcDbArc
 50
270.0
 51
344.6436157347262
  0
LINE
  5
C09
330
17
100
AcDbEntity
  8
0
100
AcDbLine
 10
4.696517600418731
 20
3.895469078244311
 30
0.0
 11
4.6947939311784
 21
3.863469078244314
 31
0.0
  0
LINE
  5
C0A
330
17
100
AcDbEntity
  8
0
100
AcDbLine
 10
4.729335557430472
 20
3.895469078244311
 30
0.0
 11
4.727286560029876
 21
3.863469078244314
 31
0.0
  0
LINE
  5
C0B
330
17
100
AcDbEntity
  8
0
100
AcDbLine
 10
4.638133236334938
 20
4.233037379480943
 30
0.0
 11
4.696517600418731
 21
3.895469078244311
 31
0.0
  0
LINE
  5
C0C
330
17
100
AcDbEntity
  8
0
100
AcDbLine
 10
4.669538379700861
 20
4.238469078244312
 30
0.0
 11
4.729335557430472
 21
3.895469078244311
 31
0.0
  0
LINE
  5
C0D
330
17
100
AcDbEntity
  8
0
100
AcDbLine
 10
4.638133236334938
 20
4.233037379480943
 30
0.0
 11
4.669538379700861
 21
4.238469078244312
 31
0.0
  0
LINE
  5
C0E
330
17
100
AcDbEntity
  8
0
100
AcDbLine
 10
5.009017600418731
 20
3.895469078244311
 30
0.0
 11
5.007293931178399
 21
3.863469078244314
 31
0.0
  0
LINE
  5
C0F
330
17
100
AcDbEntity
  8
0
100
AcDbLine
 10
4.950633236334934
 20
4.233037379480943
 30
0.0
 11
5.009017600418731
 21
3.895469078244311
 31
0.0
  0
LINE
  5
C10
330
17
100
AcDbEntity
  8
0
100
AcDbLine
 10
4.982038379700862
 20
4.238469078244314
 30
0.0
 11
5.041835557430471
 21
3.895469078244311
 31
0.0
  0
LINE
  5
C11
330
17
100
AcDbEntity
  8
0
100
AcDbLine
 10
5.041835557430471
 20
3.895469078244311
 30
0.0
 11
5.039786560029875
 21
3.863469078244314
 31
0.0
  0
LINE
  5
C12
330
17
100
AcDbEntity
  8
0
100
AcDbLine
 10
4.950633236334934
 20
4.233037379480943
 30
0.0
 11
4.982038379700862
 21
4.238469078244314
 31
0.0
  0
CIRCLE
  5
C13
330
17
100
AcDbEntity
  8
0
100
AcDbCircle
 10
4.708294116008081
 20
6.677931280391362
 30
0.0
 40
0.016
  0
LINE
  5
C16
330
17
100
AcDbEntity
  8
0
100
AcDbLine
 10
7.520794116008081
 20
5.485931280391358
 30
0.0
 11
7.520794116008081
 21
5.517931280391358
 31
0.0
  0
LINE
  5
C17
330
17
100
AcDbEntity
  8
0
100
AcDbLine
 10
6.895794116008081
 20
6.693931280391362
 30
0.0
 11
7.520794116008081
 21
6.693931280391362
 31
0.0
  0
LINE
  5
C18
330
17
100
AcDbEntity
  8
0
100
AcDbLine
 10
6.895794116008081
 20
6.661931280391362
 30
0.0
 11
7.520794116008081
 21
6.661931280391361
 31
0.0
  0
LINE
  5
C19
330
17
100
AcDbEntity
  8
0
100
AcDbLine
 10
6.895794116008081
 20
6.497931280391362
 30
0.0
 11
7.520794116008085
 21
6.497931280391362
 31
0.0
  0
LINE
  5
C1A
330
17
100
AcDbEntity
  8
0
100
AcDbLine
 10
6.895794116008081
 20
6.465931280391362
 30
0.0
 11
7.520794116008081
 21
6.465931280391362
 31
0.0
  0
LINE
  5
C1B
330
17
100
AcDbEntity
  8
0
100
AcDbLine
 10
6.895794116008081
 20
6.30193128039136
 30
0.0
 11
7.520794116008081
 21
6.301931280391361
 31
0.0
  0
LINE
  5
C1C
330
17
100
AcDbEntity
  8
0
100
AcDbLine
 10
6.895794116008081
 20
6.269931280391361
 30
0.0
 11
7.520794116008081
 21
6.269931280391361
 31
0.0
  0
LINE
  5
C1D
330
17
100
AcDbEntity
  8
0
100
AcDbLine
 10
6.895794116008081
 20
6.105931280391358
 30
0.0
 11
7.520794116008081
 21
6.105931280391358
 31
0.0
  0
LINE
  5
C1E
330
17
100
AcDbEntity
  8
0
100
AcDbLine
 10
6.895794116008081
 20
6.073931280391357
 30
0.0
 11
7.520794116008081
 21
6.073931280391357
 31
0.0
  0
LINE
  5
C1F
330
17
100
AcDbEntity
  8
0
100
AcDbLine
 10
6.895794116008081
 20
6.595931280391369
 30
0.0
 11
7.520794116008081
 21
6.595931280391369
 31
0.0
  0
LINE
  5
C20
330
17
100
AcDbEntity
  8
0
100
AcDbLine
 10
6.895794116008081
 20
6.563931280391368
 30
0.0
 11
7.520794116008081
 21
6.563931280391368
 31
0.0
  0
LINE
  5
C21
330
17
100
AcDbEntity
  8
0
100
AcDbLine
 10
6.895794116008081
 20
6.399931280391367
 30
0.0
 11
7.520794116008081
 21
6.399931280391367
 31
0.0
  0
LINE
  5
C22
330
17
100
AcDbEntity
  8
0
100
AcDbLine
 10
6.895794116008081
 20
6.367931280391367
 30
0.0
 11
7.520794116008081
 21
6.367931280391367
 31
0.0
  0
LINE
  5
C23
330
17
100
AcDbEntity
  8
0
100
AcDbLine
 10
6.895794116008081
 20
6.203931280391365
 30
0.0
 11
7.520794116008081
 21
6.203931280391365
 31
0.0
  0
LINE
  5
C24
330
17
100
AcDbEntity
  8
0
100
AcDbLine
 10
6.895794116008081
 20
6.171931280391365
 30
0.0
 11
7.520794116008081
 21
6.171931280391365
 31
0.0
  0
LINE
  5
C25
330
17
100
AcDbEntity
  8
0
100
AcDbLine
 10
6.895794116008081
 20
6.007931280391368
 30
0.0
 11
7.520794116008081
 21
6.007931280391368
 31
0.0
  0
LINE
  5
C26
330
17
100
AcDbEntity
  8
0
100
AcDbLine
 10
6.895794116008081
 20
5.975931280391368
 30
0.0
 11
7.520794116008081
 21
5.975931280391368
 31
0.0
  0
LINE
  5
C27
330
17
100
AcDbEntity
  8
0
100
AcDbLine
 10
6.895794116008081
 20
5.909931280391361
 30
0.0
 11
7.520794116008081
 21
5.909931280391361
 31
0.0
  0
LINE
  5
C28
330
17
100
AcDbEntity
  8
0
100
AcDbLine
 10
6.895794116008081
 20
5.877931280391361
 30
0.0
 11
7.520794116008081
 21
5.877931280391361
 31
0.0
  0
LINE
  5
C29
330
17
100
AcDbEntity
  8
0
100
AcDbLine
 10
6.895794116008081
 20
5.811931280391362
 30
0.0
 11
7.520794116008081
 21
5.811931280391362
 31
0.0
  0
LINE
  5
C2A
330
17
100
AcDbEntity
  8
0
100
AcDbLine
 10
6.895794116008081
 20
5.779931280391362
 30
0.0
 11
7.520794116008081
 21
5.779931280391362
 31
0.0
  0
LINE
  5
C2B
330
17
100
AcDbEntity
  8
0
100
AcDbLine
 10
6.895794116008081
 20
5.713931280391356
 30
0.0
 11
7.520794116008081
 21
5.713931280391356
 31
0.0
  0
LINE
  5
C2C
330
17
100
AcDbEntity
  8
0
100
AcDbLine
 10
6.895794116008081
 20
5.681931280391355
 30
0.0
 11
7.520794116008081
 21
5.681931280391356
 31
0.0
  0
LINE
  5
C2D
330
17
100
AcDbEntity
  8
0
100
AcDbLine
 10
6.895794116008081
 20
5.615931280391365
 30
0.0
 11
7.520794116008081
 21
5.615931280391365
 31
0.0
  0
LINE
  5
C2E
330
17
100
AcDbEntity
  8
0
100
AcDbLine
 10
6.895794116008081
 20
5.583931280391363
 30
0.0
 11
7.520794116008081
 21
5.583931280391363
 31
0.0
  0
LINE
  5
C2F
330
17
100
AcDbEntity
  8
0
100
AcDbLine
 10
6.895794116008081
 20
5.517931280391358
 30
0.0
 11
7.520794116008081
 21
5.517931280391358
 31
0.0
  0
LINE
  5
C30
330
17
100
AcDbEntity
  8
0
100
AcDbLine
 10
6.895794116008081
 20
5.485931280391358
 30
0.0
 11
7.520794116008081
 21
5.485931280391358
 31
0.0
  0
LINE
  5
C31
330
17
100
AcDbEntity
  8
0
100
AcDbLine
 10
7.520794116008081
 20
6.661931280391361
 30
0.0
 11
7.520794116008081
 21
6.693931280391362
 31
0.0
  0
LINE
  5
C32
330
17
100
AcDbEntity
  8
0
100
AcDbLine
 10
7.520794116008081
 20
6.563931280391368
 30
0.0
 11
7.520794116008081
 21
6.595931280391369
 31
0.0
  0
LINE
  5
C33
330
17
100
AcDbEntity
  8
0
100
AcDbLine
 10
7.520794116008081
 20
6.465931280391362
 30
0.0
 11
7.520794116008085
 21
6.497931280391362
 31
0.0
  0
LINE
  5
C34
330
17
100
AcDbEntity
  8
0
100
AcDbLine
 10
7.520794116008081
 20
6.367931280391367
 30
0.0
 11
7.520794116008081
 21
6.399931280391367
 31
0.0
  0
LINE
  5
C35
330
17
100
AcDbEntity
  8
0
100
AcDbLine
 10
7.520794116008081
 20
6.269931280391361
 30
0.0
 11
7.520794116008081
 21
6.301931280391361
 31
0.0
  0
LINE
  5
C36
330
17
100
AcDbEntity
  8
0
100
AcDbLine
 10
7.520794116008081
 20
6.171931280391365
 30
0.0
 11
7.520794116008081
 21
6.203931280391365
 31
0.0
  0
LINE
  5
C37
330
17
100
AcDbEntity
  8
0
100
AcDbLine
 10
7.520794116008081
 20
6.073931280391357
 30
0.0
 11
7.520794116008081
 21
6.105931280391358
 31
0.0
  0
LINE
  5
C38
330
17
100
AcDbEntity
  8
0
100
AcDbLine
 10
7.520794116008081
 20
5.975931280391368
 30
0.0
 11
7.520794116008081
 21
6.007931280391368
 31
0.0
  0
LINE
  5
C39
330
17
100
AcDbEntity
  8
0
100
AcDbLine
 10
7.520794116008081
 20
5.877931280391361
 30
0.0
 11
7.520794116008081
 21
5.909931280391361
 31
0.0
  0
LINE
  5
C3A
330
17
100
AcDbEntity
  8
0
100
AcDbLine
 10
7.520794116008081
 20
5.779931280391362
 30
0.0
 11
7.520794116008081
 21
5.811931280391362
 31
0.0
  0
LINE
  5
C3B
330
17
100
AcDbEntity
  8
0
100
AcDbLine
 10
7.520794116008081
 20
5.681931280391356
 30
0.0
 11
7.520794116008081
 21
5.713931280391356
 31
0.0
  0
LINE
  5
C3C
330
17
100
AcDbEntity
  8
0
100
AcDbLine
 10
7.520794116008081
 20
5.583931280391363
 30
0.0
 11
7.520794116008081
 21
5.615931280391365
 31
0.0
  0
TEXT
  5
C4C
330
17
100
AcDbEntity
  8
3
100
AcDbText
 10
0.9894632046305808
 20
1.198399579530334
 30
0.0
 40
0.05859375
  1
B
  7
SIMPLEX
 72
     1
 11
1.00899445463058
 21
1.198399579530334
 31
0.0
100
AcDbText
  0
DIMENSION
  5
CB7
330
17
100
AcDbEntity
  8
3
100
AcDbDimension
280
     0
  2
*D3
 10
3.604349149064326
 20
3.238469078244314
 30
0.0
 11
3.604349149064324
 21
3.738469078244314
 31
0.0
 70
    32
 71
     5
 42
0.9999999999999992
 73
     0
 74
     0
 75
     0
  3
STANDARD
100
AcDbAlignedDimension
 13
4.669538379700861
 23
4.238469078244312
 33
0.0
 14
4.520794116008081
 24
3.238469078244314
 34
0.0
 50
90.0
100
AcDbRotatedDimension
1001
ACAD
1000
DSTYLE
1002
{
1070
    41
1040
0.125
1070
    43
1040
0.375
1070
    44
1040
0.0625
1070
    78
1070
     4
1070
   140
1040
0.125
1070
   141
1040
-0.125
1070
   147
1040
0.09375
1070
   174
1070
     1
1070
   271
1070
     5
1070
   272
1070
     5
1070
   273
1070
     5
1070
   277
1070
     5
1070
   279
1070
     2
1070
   284
1070
     4
1070
   285
1070
     4
1070
   286
1070
     4
1070
   340
1005
3B
1002
}
  0
DIMENSION
  5
CC5
330
17
100
AcDbEntity
  8
3
100
AcDbDimension
280
     0
  2
*D4
 10
3.604349149064326
 20
6.839931280391365
 30
0.0
 11
3.604349149064326
 21
6.089931280391361
 31
0.0
 70
    32
 71
     5
 42
1.500000000000006
 73
     0
 74
     0
 75
     0
  3
STANDARD
100
AcDbAlignedDimension
 13
4.395794116008081
 23
5.339931280391358
 33
0.0
 14
4.395794116008088
 24
6.839931280391365
 34
0.0
 50
90.0
100
AcDbRotatedDimension
1001
ACAD
1000
DSTYLE
1002
{
1070
    41
1040
0.125
1070
    43
1040
0.375
1070
    44
1040
0.0625
1070
    78
1070
     4
1070
   140
1040
0.125
1070
   141
1040
-0.125
1070
   147
1040
0.09375
1070
   174
1070
     1
1070
   271
1070
     5
1070
   272
1070
     5
1070
   273
1070
     5
1070
   277
1070
     5
1070
   279
1070
     2
1070
   284
1070
     4
1070
   285
1070
     4
1070
   286
1070
     4
1070
   340
1005
3B
1002
}
  0
DIMENSION
  5
CD3
330
17
100
AcDbEntity
  8
3
100
AcDbDimension
280
     0
  2
*D5
 10
7.520794116008081
 20
4.992124300027853
 30
0.0
 11
5.958294116008081
 21
4.992124300027853
 31
0.0
 70
    32
 71
     5
 42
3.125
 73
     0
 74
     0
 75
     0
  3
STANDARD
100
AcDbAlignedDimension
 13
4.395794116008081
 23
5.339931280391358
 33
0.0
 14
7.520794116008081
 24
5.485931280391358
 34
0.0
100
AcDbRotatedDimension
1001
ACAD
1000
DSTYLE
1002
{
1070
    41
1040
0.125
1070
    43
1040
0.375
1070
    44
1040
0.0625
1070
    78
1070
     4
1070
   140
1040
0.125
1070
   141
1040
-0.125
1070
   147
1040
0.09375
1070
   174
1070
     1
1070
   271
1070
     5
1070
   272
1070
     5
1070
   273
1070
     5
1070
   277
1070
     5
1070
   279
1070
     2
1070
   284
1070
     4
1070
   285
1070
     4
1070
   286
1070
     4
1070
   340
1005
3B
1002
}
  0
ENDSEC
  0
SECTION
  2
OBJECTS
  0
DICTIONARY
  5
C
330
0
100
AcDbDictionary
281
     1
  3
ACAD_CIP_PREVIOUS_PRODUCT_INFO
350
CAF
  3
ACAD_COLOR
350
C8C
  3
ACAD_DETAILVIEWSTYLE
350
CA5
  3
ACAD_GROUP
350
D
  3
ACAD_LAYOUT
350
CA7
  3
ACAD_MATERIAL
350
C5A
  3
ACAD_MLEADERSTYLE
350
CA1
  3
ACAD_MLINESTYLE
350
1A
  3
ACAD_PLOTSETTINGS
350
CA8
  3
ACAD_PLOTSTYLENAME
350
C58
  3
ACAD_SCALELIST
350
C8F
  3
ACAD_SECTIONVIEWSTYLE
350
CA3
  3
ACAD_TABLESTYLE
350
C8D
  3
ACAD_VISUALSTYLE
350
C73
  3
ACDB_RECOMPOSE_DATA
350
D86
  3
ACDBVARIABLEDICTIONARY
350
4D
  0
DICTIONARY
  5
D16
330
2
100
AcDbDictionary
280
     1
281
     1
  3
ACAD_LAYERSTATES
360
D17
  0
DICTIONARY
  5
D09
330
E
100
AcDbDictionary
280
     1
281
     1
  3
ADSK_XREC_LAYER_RECONCILED
360
D0A
  0
DICTIONARY
  5
D0B
330
44
100
AcDbDictionary
280
     1
281
     1
  3
ADSK_XREC_LAYER_RECONCILED
360
D0C
  0
DICTIONARY
  5
D0D
330
45
100
AcDbDictionary
280
     1
281
     1
  3
ADSK_XREC_LAYER_RECONCILED
360
D0E
  0
DICTIONARY
  5
D0F
330
46
100
AcDbDictionary
280
     1
281
     1
  3
ADSK_XREC_LAYER_RECONCILED
360
D10
  0
DICTIONARY
  5
D11
330
48
100
AcDbDictionary
280
     1
281
     1
  3
ADSK_XREC_LAYER_RECONCILED
360
D12
  0
XRECORD
  5
CAF
102
{ACAD_REACTORS
330
C
102
}
330
C
100
AcDbXrecord
280
     1
300
AMECH_PP
300
2015
300
PDSU_F_S
  0
DICTIONARY
  5
C8C
102
{ACAD_REACTORS
330
C
102
}
330
C
100
AcDbDictionary
281
     1
  0
DICTIONARY
  5
CA5
102
{ACAD_REACTORS
330
C
102
}
330
C
100
AcDbDictionary
281
     1
  3
Imperial24
350
CA6
  0
DICTIONARY
  5
D
102
{ACAD_REACTORS
330
C
102
}
330
C
100
AcDbDictionary
281
     1
  0
DICTIONARY
  5
CA7
102
{ACAD_REACTORS
330
C
102
}
330
C
100
AcDbDictionary
281
     1
  3
Layout1
350
CAA
  3
Model
350
CA9
  0
DICTIONARY
  5
C5A
102
{ACAD_REACTORS
330
C
102
}
330
C
100
AcDbDictionary
281
     1
  3
ByBlock
350
C63
  3
ByLayer
350
C5B
  3
Global
350
C6B
  0
DICTIONARY
  5
CA1
102
{ACAD_REACTORS
330
C
102
}
330
C
100
AcDbDictionary
281
     1
  3
Standard
350
CA2
  0
DICTIONARY
  5
1A
102
{ACAD_REACTORS
330
C
102
}
330
C
100
AcDbDictionary
281
     1
  3
STANDARD
350
1B
  0
DICTIONARY
  5
CA8
102
{ACAD_REACTORS
330
C
102
}
330
C
100
AcDbDictionary
281
     1
  0
ACDBDICTIONARYWDFLT
  5
C58
102
{ACAD_REACTORS
330
C
102
}
330
C
100
AcDbDictionary
281
     1
  3
Normal
350
C59
100
AcDbDictionaryWithDefault
340
C59
  0
DICTIONARY
  5
C8F
102
{ACAD_REACTORS
330
C
102
}
330
C
100
AcDbDictionary
281
     1
  3
A0
350
C90
  3
A1
350
C91
  3
A2
350
C92
  3
A3
350
C93
  3
A4
350
C94
  3
A5
350
C95
  3
A6
350
C96
  3
A7
350
C97
  3
A8
350
C98
  3
A9
350
C99
  3
B0
350
C9A
  3
B1
350
C9B
  3
B2
350
C9C
  3
B3
350
C9D
  3
B4
350
C9E
  3
B5
350
C9F
  3
B6
350
CA0
  0
DICTIONARY
  5
CA3
102
{ACAD_REACTORS
330
C
102
}
330
C
100
AcDbDictionary
281
     1
  3
Imperial24
350
CA4
  0
DICTIONARY
  5
C8D
102
{ACAD_REACTORS
330
C
102
}
330
C
100
AcDbDictionary
281
     1
  3
Standard
350
C8E
  0
DICTIONARY
  5
C73
102
{ACAD_REACTORS
330
C
102
}
330
C
100
AcDbDictionary
281
     1
  3
2dWireframe
350
C79
  3
Basic
350
C78
  3
Brighten
350
C7F
  3
ColorChange
350
C83
  3
Conceptual
350
C7C
  3
Dim
350
C7E
  3
EdgeColorOff
350
C8B
  3
Facepattern
350
C82
  3
Flat
350
C74
  3
FlatWithEdges
350
C75
  3
Gouraud
350
C76
  3
GouraudWithEdges
350
C77
  3
Hidden
350
C7B
  3
JitterOff
350
C89
  3
Linepattern
350
C81
  3
OverhangOff
350
C8A
  3
Realistic
350
C7D
  3
Shaded
350
C88
  3
Shaded with edges
350
C87
  3
Shades of Gray
350
C84
  3
Sketchy
350
C85
  3
Thicken
350
C80
  3
Wireframe
350
C7A
  3
X-Ray
350
C86
  0
XRECORD
  5
D86
102
{ACAD_REACTORS
330
C
102
}
330
C
100
AcDbXrecord
280
     1
 90
        1
330
C8E
330
CA4
330
CA6
  0
DICTIONARY
  5
4D
102
{ACAD_REACTORS
330
C
102
}
330
C
100
AcDbDictionary
281
     1
  3
CANNOSCALE
350
D72
  3
CMLEADERSTYLE
350
D6E
  3
CTABLESTYLE
350
D6D
  3
CVIEWDETAILSTYLE
350
D6F
  3
CVIEWSECTIONSTYLE
350
D70
  3
DIMADEC
350
4E
  3
LAYEREVAL
350
D74
  3
LAYERNOTIFY
350
D75
  3
LIGHTINGUNITS
350
D73
  3
MSLTSCALE
350
D71
  0
DICTIONARY
  5
D17
102
{ACAD_REACTORS
330
D16
102
}
330
D16
100
AcDbDictionary
281
     1
  0
XRECORD
  5
D0A
102
{ACAD_REACTORS
330
D09
102
}
330
D09
100
AcDbXrecord
280
     1
290
     1
  0
XRECORD
  5
D0C
102
{ACAD_REACTORS
330
D0B
102
}
330
D0B
100
AcDbXrecord
280
     1
290
     1
  0
XRECORD
  5
D0E
102
{ACAD_REACTORS
330
D0D
102
}
330
D0D
100
AcDbXrecord
280
     1
290
     1
  0
XRECORD
  5
D10
102
{ACAD_REACTORS
330
D0F
102
}
330
D0F
100
AcDbXrecord
280
     1
290
     1
  0
XRECORD
  5
D12
102
{ACAD_REACTORS
330
D11
102
}
330
D11
100
AcDbXrecord
280
     1
290
     1
  0
ACDBDETAILVIEWSTYLE
  5
CA6
102
{ACAD_XDICTIONARY
360
D7A
102
}
102
{ACAD_REACTORS
330
CA5
102
}
330
CA5
100
AcDbModelDocViewStyle
 70
     0
  3
Imperial24
290
     0
100
AcDbDetailViewStyle
 70
     0
 71
     0
 90
        3
 71
     1
340
F
 62
   256
 40
0.24
340
0
 62
   256
 40
0.24
300

 40
0.36
280
     3
 71
     2
340
13
 90
       25
 62
   256
 71
     3
340
F
 62
   256
 40
0.24
 90
        1
 40
0.75
 90
        1
300
%<\AcVar ViewType \f "%tc1">% %<\AcVar ViewDetailId>%\PSCALE %<\AcVar ViewScale \f "%sn">%
 71
     4
340
13
 90
       25
 62
   256
340
13
 90
       25
 62
   256
280
     0
  0
LAYOUT
  5
CAA
102
{ACAD_REACTORS
330
CA7
102
}
330
CA7
100
AcDbPlotSettings
  1

  2
TOSHIBA e-STUDIO351c PS3
  4

  6

 40
0.0
 41
0.0
 42
0.0
 43
0.0
 44
0.0
 45
0.0
 46
0.0
 47
0.0
 48
0.0
 49
0.0
140
0.0
141
0.0
142
1.0
143
1.0
 70
   688
 72
     0
 73
     0
 74
     5
  7
monochrome.ctb
 75
    16
147
1.0
 76
     0
 77
     2
 78
   300
148
0.0
149
0.0
100
AcDbLayout
  1
Layout1
 70
     0
 71
     1
 10
0.0
 20
0.0
 11
12.0
 21
9.0
 12
0.0
 22
0.0
 32
0.0
 14
1.000000000000000E+20
 24
1.000000000000000E+20
 34
1.000000000000000E+20
 15
-1.000000000000000E+20
 25
-1.000000000000000E+20
 35
-1.000000000000000E+20
146
0.0
 13
0.0
 23
0.0
 33
0.0
 16
1.0
 26
0.0
 36
0.0
 17
0.0
 27
1.0
 37
0.0
 76
     0
330
14
  0
LAYOUT
  5
CA9
102
{ACAD_REACTORS
330
CA7
102
}
330
CA7
100
AcDbPlotSettings
  1

  2
TOSHIBA e-STUDIO351c PS3
  4

  6

 40
0.0
 41
0.0
 42
0.0
 43
0.0
 44
0.0
 45
0.0
 46
0.0
 47
0.0
 48
0.0
 49
0.0
140
0.0
141
0.0
142
1.0
143
1.0
 70
  1712
 72
     0
 73
     0
 74
     0
  7
monochrome.ctb
 75
     0
147
1.0
 76
     0
 77
     2
 78
   300
148
0.0
149
0.0
100
AcDbLayout
  1
Model
 70
     1
 71
     0
 10
0.0
 20
0.0
 11
12.0
 21
9.0
 12
0.0
 22
0.0
 32
0.0
 14
0.0
 24
0.0
 34
0.0
 15
0.0
 25
0.0
 35
0.0
146
0.0
 13
0.0
 23
0.0
 33
0.0
 16
1.0
 26
0.0
 36
0.0
 17
0.0
 27
1.0
 37
0.0
 76
     0
330
17
331
C56
  0
MATERIAL
  5
C63
102
{ACAD_XDICTIONARY
360
C64
102
}
102
{ACAD_REACTORS
330
C5A
102
}
330
C5A
100
AcDbMaterial
  1
ByBlock
 72
     0
 43
0.0208333333333333
 43
0.0
 43
0.0
 43
0.0
 43
0.0
 43
0.0208333333333333
 43
0.0
 43
0.0
 43
0.0
 43
0.0
 43
1.0
 43
0.0
 43
0.0
 43
0.0
 43
0.0
 43
1.0
 77
     0
 47
0.0208333333333333
 47
0.0
 47
0.0
 47
0.0
 47
0.0
 47
0.0208333333333333
 47
0.0
 47
0.0
 47
0.0
 47
0.0
 47
1.0
 47
0.0
 47
0.0
 47
0.0
 47
0.0
 47
1.0
171
     0
 49
0.0208333333333333
 49
0.0
 49
0.0
 49
0.0
 49
0.0
 49
0.0208333333333333
 49
0.0
 49
0.0
 49
0.0
 49
0.0
 49
1.0
 49
0.0
 49
0.0
 49
0.0
 49
0.0
 49
1.0
175
     0
142
0.0208333333333333
142
0.0
142
0.0
142
0.0
142
0.0
142
0.0208333333333333
142
0.0
142
0.0
142
0.0
142
0.0
142
1.0
142
0.0
142
0.0
142
0.0
142
0.0
142
1.0
179
     0
144
0.0208333333333333
144
0.0
144
0.0
144
0.0
144
0.0
144
0.0208333333333333
144
0.0
144
0.0
144
0.0
144
0.0
144
1.0
144
0.0
144
0.0
144
0.0
144
0.0
144
1.0
147
0.0208333333333333
147
0.0
147
0.0
147
0.0
147
0.0
147
0.0208333333333333
147
0.0
147
0.0
147
0.0
147
0.0
147
1.0
147
0.0
147
0.0
147
0.0
147
0.0
147
1.0
  0
MATERIAL
  5
C5B
102
{ACAD_XDICTIONARY
360
C5C
102
}
102
{ACAD_REACTORS
330
C5A
102
}
330
C5A
100
AcDbMaterial
  1
ByLayer
 72
     0
 43
0.0208333333333333
 43
0.0
 43
0.0
 43
0.0
 43
0.0
 43
0.0208333333333333
 43
0.0
 43
0.0
 43
0.0
 43
0.0
 43
1.0
 43
0.0
 43
0.0
 43
0.0
 43
0.0
 43
1.0
 77
     0
 47
0.0208333333333333
 47
0.0
 47
0.0
 47
0.0
 47
0.0
 47
0.0208333333333333
 47
0.0
 47
0.0
 47
0.0
 47
0.0
 47
1.0
 47
0.0
 47
0.0
 47
0.0
 47
0.0
 47
1.0
171
     0
 49
0.0208333333333333
 49
0.0
 49
0.0
 49
0.0
 49
0.0
 49
0.0208333333333333
 49
0.0
 49
0.0
 49
0.0
 49
0.0
 49
1.0
 49
0.0
 49
0.0
 49
0.0
 49
0.0
 49
1.0
175
     0
142
0.0208333333333333
142
0.0
142
0.0
142
0.0
142
0.0
142
0.0208333333333333
142
0.0
142
0.0
142
0.0
142
0.0
142
1.0
142
0.0
142
0.0
142
0.0
142
0.0
142
1.0
179
     0
144
0.0208333333333333
144
0.0
144
0.0
144
0.0
144
0.0
144
0.0208333333333333
144
0.0
144
0.0
144
0.0
144
0.0
144
1.0
144
0.0
144
0.0
144
0.0
144
0.0
144
1.0
147
0.0208333333333333
147
0.0
147
0.0
147
0.0
147
0.0
147
0.0208333333333333
147
0.0
147
0.0
147
0.0
147
0.0
147
1.0
147
0.0
147
0.0
147
0.0
147
0.0
147
1.0
  0
MATERIAL
  5
C6B
102
{ACAD_XDICTIONARY
360
C6C
102
}
102
{ACAD_REACTORS
330
C5A
102
}
330
C5A
100
AcDbMaterial
  1
Global
 72
     0
 43
0.0208333333333333
 43
0.0
 43
0.0
 43
0.0
 43
0.0
 43
0.0208333333333333
 43
0.0
 43
0.0
 43
0.0
 43
0.0
 43
1.0
 43
0.0
 43
0.0
 43
0.0
 43
0.0
 43
1.0
 77
     0
 47
0.0208333333333333
 47
0.0
 47
0.0
 47
0.0
 47
0.0
 47
0.0208333333333333
 47
0.0
 47
0.0
 47
0.0
 47
0.0
 47
1.0
 47
0.0
 47
0.0
 47
0.0
 47
0.0
 47
1.0
171
     0
 49
0.0208333333333333
 49
0.0
 49
0.0
 49
0.0
 49
0.0
 49
0.0208333333333333
 49
0.0
 49
0.0
 49
0.0
 49
0.0
 49
1.0
 49
0.0
 49
0.0
 49
0.0
 49
0.0
 49
1.0
175
     0
142
0.0208333333333333
142
0.0
142
0.0
142
0.0
142
0.0
142
0.0208333333333333
142
0.0
142
0.0
142
0.0
142
0.0
142
1.0
142
0.0
142
0.0
142
0.0
142
0.0
142
1.0
179
     0
144
0.0208333333333333
144
0.0
144
0.0
144
0.0
144
0.0
144
0.0208333333333333
144
0.0
144
0.0
144
0.0
144
0.0
144
1.0
144
0.0
144
0.0
144
0.0
144
0.0
144
1.0
147
0.0208333333333333
147
0.0
147
0.0
147
0.0
147
0.0
147
0.0208333333333333
147
0.0
147
0.0
147
0.0
147
0.0
147
1.0
147
0.0
147
0.0
147
0.0
147
0.0
147
1.0
  0
MLEADERSTYLE
  5
CA2
102
{ACAD_REACTORS
330
CA1
102
}
330
CA1
100
AcDbMLeaderStyle
179
     2
170
     2
171
     1
172
     0
 90
        2
 40
0.0
 41
0.0
173
     1
 91
-1056964608
340
11
 92
       -2
290
     1
 42
0.09
291
     1
 43
0.36
  3
Standard
 44
0.18
300

342
F
174
     1
178
     6
175
     1
176
     0
 93
-1056964608
 45
0.18
292
     0
297
     0
 46
0.18
 94
-1056964608
 47
1.0
 49
1.0
140
1.0
293
     1
141
0.0
294
     1
177
     0
142
1.0
295
     0
296
     0
143
0.125
271
     0
272
     9
273
     9
298
     1
  0
MLINESTYLE
  5
1B
102
{ACAD_REACTORS
330
1A
102
}
330
1A
100
AcDbMlineStyle
  2
STANDARD
 70
     0
  3

 62
   256
 51
90.0
 52
90.0
 71
     2
 49
0.5
 62
   256
  6
BYLAYER
 49
-0.5
 62
   256
  6
BYLAYER
  0
ACDBPLACEHOLDER
  5
C59
102
{ACAD_REACTORS
330
C58
102
}
330
C58
  0
SCALE
  5
C90
102
{ACAD_REACTORS
330
C8F
102
}
330
C8F
100
AcDbScale
 70
     0
300
1:1
140
1.0
141
1.0
290
     1
  0
SCALE
  5
C91
102
{ACAD_REACTORS
330
C8F
102
}
330
C8F
100
AcDbScale
 70
     0
300
1/128" = 1'-0"
140
0.0078125
141
12.0
290
     0
  0
SCALE
  5
C92
102
{ACAD_REACTORS
330
C8F
102
}
330
C8F
100
AcDbScale
 70
     0
300
1/64" = 1'-0"
140
0.015625
141
12.0
290
     0
  0
SCALE
  5
C93
102
{ACAD_REACTORS
330
C8F
102
}
330
C8F
100
AcDbScale
 70
     0
300
1/32" = 1'-0"
140
0.03125
141
12.0
290
     0
  0
SCALE
  5
C94
102
{ACAD_REACTORS
330
C8F
102
}
330
C8F
100
AcDbScale
 70
     0
300
1/16" = 1'-0"
140
0.0625
141
12.0
290
     0
  0
SCALE
  5
C95
102
{ACAD_REACTORS
330
C8F
102
}
330
C8F
100
AcDbScale
 70
     0
300
3/32" = 1'-0"
140
0.09375
141
12.0
290
     0
  0
SCALE
  5
C96
102
{ACAD_REACTORS
330
C8F
102
}
330
C8F
100
AcDbScale
 70
     0
300
1/8" = 1'-0"
140
0.125
141
12.0
290
     0
  0
SCALE
  5
C97
102
{ACAD_REACTORS
330
C8F
102
}
330
C8F
100
AcDbScale
 70
     0
300
3/16" = 1'-0"
140
0.1875
141
12.0
290
     0
  0
SCALE
  5
C98
102
{ACAD_REACTORS
330
C8F
102
}
330
C8F
100
AcDbScale
 70
     0
300
1/4" = 1'-0"
140
0.25
141
12.0
290
     0
  0
SCALE
  5
C99
102
{ACAD_REACTORS
330
C8F
102
}
330
C8F
100
AcDbScale
 70
     0
300
3/8" = 1'-0"
140
0.375
141
12.0
290
     0
  0
SCALE
  5
C9A
102
{ACAD_REACTORS
330
C8F
102
}
330
C8F
100
AcDbScale
 70
     0
300
1/2" = 1'-0"
140
0.5
141
12.0
290
     0
  0
SCALE
  5
C9B
102
{ACAD_REACTORS
330
C8F
102
}
330
C8F
100
AcDbScale
 70
     0
300
3/4" = 1'-0"
140
0.75
141
12.0
290
     0
  0
SCALE
  5
C9C
102
{ACAD_REACTORS
330
C8F
102
}
330
C8F
100
AcDbScale
 70
     0
300
1" = 1'-0"
140
1.0
141
12.0
290
     0
  0
SCALE
  5
C9D
102
{ACAD_REACTORS
330
C8F
102
}
330
C8F
100
AcDbScale
 70
     0
300
1-1/2" = 1'-0"
140
1.5
141
12.0
290
     0
  0
SCALE
  5
C9E
102
{ACAD_REACTORS
330
C8F
102
}
330
C8F
100
AcDbScale
 70
     0
300
3" = 1'-0"
140
3.0
141
12.0
290
     0
  0
SCALE
  5
C9F
102
{ACAD_REACTORS
330
C8F
102
}
330
C8F
100
AcDbScale
 70
     0
300
6" = 1'-0"
140
6.0
141
12.0
290
     0
  0
SCALE
  5
CA0
102
{ACAD_REACTORS
330
C8F
102
}
330
C8F
100
AcDbScale
 70
     0
300
1'-0" = 1'-0"
140
12.0
141
12.0
290
     0
  0
ACDBSECTIONVIEWSTYLE
  5
CA4
102
{ACAD_XDICTIONARY
360
D78
102
}
102
{ACAD_REACTORS
330
CA3
102
}
330
CA3
100
AcDbModelDocViewStyle
 70
     0
  3
Imperial24
290
     0
100
AcDbSectionViewStyle
 70
     0
 71
     0
 90
       78
 71
     1
340
F
 62
   256
 40
0.24
340
0
340
0
 62
   256
 40
0.24
300
I, O, Q, S, X, Z
 40
0.48
 90
        3
 40
0.18
 90
        1
 71
     2
340
13
 90
       25
 62
   256
340
13
 90
       50
 62
   256
 40
0.24
 40
0.0
 40
0.24
 71
     3
340
F
 62
   256
 40
0.24
 90
        1
 40
0.75
 90
        1
300
%<\AcVar ViewType \f "%tc1">% %<\AcVar ViewSectionStartId>%-%<\AcVar ViewSectionEndId>%\PSCALE %<\AcVar ViewScale \f "%sn">%
 71
     4
 62
   256
 62
   257
300
ANSI31
 40
1.0
 90
        0
290
     0
290
     0
 90
        6
 40
0.0
 40
1.570796326794896
 40
0.2617993877991494
 40
1.308996938995747
 40
-0.2617993877991494
 40
1.832595714594045
  0
TABLESTYLE
  5
C8E
102
{ACAD_XDICTIONARY
360
D76
102
}
102
{ACAD_REACTORS
330
C8D
102
}
330
C8D
100
AcDbTableStyle
280
     0
  3
Standard
 70
     0
 71
     0
 40
0.06
 41
0.06
280
     0
281
     0
  7
STANDARD
140
0.18
170
     2
 62
     0
 63
     7
283
     0
 90
      512
 91
        0
  1

274
    -2
284
     1
 64
     0
275
    -2
285
     1
 65
     0
276
    -2
286
     1
 66
     0
277
    -2
287
     1
 67
     0
278
    -2
288
     1
 68
     0
279
    -2
289
     1
 69
     0
  7
STANDARD
140
0.25
170
     5
 62
     0
 63
     7
283
     0
 90
      512
 91
        0
  1

274
    -2
284
     1
 64
     0
275
    -2
285
     1
 65
     0
276
    -2
286
     1
 66
     0
277
    -2
287
     1
 67
     0
278
    -2
288
     1
 68
     0
279
    -2
289
     1
 69
     0
  7
STANDARD
140
0.18
170
     5
 62
     0
 63
     7
283
     0
 90
      512
 91
        0
  1

274
    -2
284
     1
 64
     0
275
    -2
285
     1
 65
     0
276
    -2
286
     1
 66
     0
277
    -2
287
     1
 67
     0
278
    -2
288
     1
 68
     0
279
    -2
289
     1
 69
     0
  0
VISUALSTYLE
  5
C79
102
{ACAD_REACTORS
330
C73
102
}
330
C73
100
AcDbVisualStyle
  2
2dWireframe
 70
     4
177
     3
291
     0
 70
    58
 90
        0
176
     1
 90
        2
176
     1
 90
        0
176
     1
 90
        0
176
     1
 40
0.6
176
     1
 40
30.0
176
     1
 62
     7
420
 16777215
176
     1
 90
        1
176
     1
 90
        4
176
     1
 62
     7
176
     1
 62
   257
176
     1
 90
        1
176
     1
 90
        1
176
     1
 40
1.0
176
     1
 90
        0
176
     1
 62
   257
176
     1
 40
1.0
176
     1
 90
        1
176
     1
 90
        6
176
     1
 90
        2
176
     1
 62
     7
176
     1
 90
        5
176
     1
 90
        0
176
     1
 90
        0
176
     1
290
     0
176
     1
 90
        1
176
     1
 40
0.0
176
     1
 90
        0
176
     1
290
     1
176
     1
290
     1
176
     1
290
     0
176
     1
290
     0
176
     1
290
     0
176
     1
290
     0
176
     1
290
     0
176
     1
290
     0
176
     1
290
     0
176
     1
 90
       50
176
     1
 40
0.0
176
     1
 40
1.0
176
     1
 90
        0
176
     1
 62
    18
176
     1
 90
       50
176
     1
 90
        3
176
     1
 62
     5
420
      255
176
     1
290
     0
176
     1
 90
       50
176
     1
 90
       50
176
     1
 90
       50
176
     1
290
     0
176
     1
 90
       50
176
     1
 62
   256
176
     0
 40
1.0
176
     0
 90
        2
176
     1
  1
strokes_ogs.tif
176
     1
290
     0
176
     1
 40
1.0
176
     1
 40
1.0
176
     1
  0
VISUALSTYLE
  5
C78
102
{ACAD_REACTORS
330
C73
102
}
330
C73
100
AcDbVisualStyle
  2
Basic
 70
     7
177
     3
291
     1
 70
    58
 90
        1
176
     1
 90
        0
176
     1
 90
        1
176
     1
 90
        0
176
     1
 40
0.6
176
     1
 40
30.0
176
     1
 62
     7
420
 16777215
176
     1
 90
        0
176
     1
 90
        4
176
     1
 62
     7
176
     1
 62
   257
176
     1
 90
        1
176
     1
 90
        1
176
     1
 40
1.0
176
     1
 90
        8
176
     1
 62
     7
176
     1
 40
1.0
176
     1
 90
        1
176
     1
 90
        6
176
     1
 90
        2
176
     1
 62
     7
176
     1
 90
        5
176
     1
 90
        0
176
     1
 90
        0
176
     1
290
     0
176
     1
 90
        1
176
     1
 40
0.0
176
     1
 90
        0
176
     1
290
     0
176
     1
290
     1
176
     1
290
     1
176
     1
290
     0
176
     1
290
     0
176
     1
290
     0
176
     1
290
     0
176
     1
290
     0
176
     1
290
     0
176
     1
 90
       50
176
     1
 40
0.0
176
     1
 40
1.0
176
     1
 90
        0
176
     1
 62
    18
176
     1
 90
       50
176
     1
 90
        3
176
     1
 62
     5
420
      255
176
     1
290
     0
176
     1
 90
       50
176
     1
 90
       50
176
     1
 90
       50
176
     1
290
     0
176
     1
 90
       50
176
     1
 62
   256
176
     0
 40
1.0
176
     0
 90
        2
176
     1
  1
strokes_ogs.tif
176
     1
290
     0
176
     1
 40
1.0
176
     1
 40
1.0
176
     1
  0
VISUALSTYLE
  5
C7F
102
{ACAD_REACTORS
330
C73
102
}
330
C73
100
AcDbVisualStyle
  2
Brighten
 70
    12
177
     3
291
     1
 70
    58
 90
        2
176
     1
 90
        2
176
     1
 90
        0
176
     1
 90
        0
176
     1
 40
0.6
176
     1
 40
30.0
176
     1
 62
     7
420
 16777215
176
     1
 90
        1
176
     1
 90
        4
176
     1
 62
     7
176
     1
 62
   257
176
     1
 90
        1
176
     1
 90
        1
176
     1
 40
1.0
176
     1
 90
        8
176
     1
 62
     7
176
     1
 40
1.0
176
     1
 90
        1
176
     1
 90
        6
176
     1
 90
        2
176
     1
 62
     7
176
     1
 90
        5
176
     1
 90
        0
176
     1
 90
        0
176
     1
290
     0
176
     1
 90
        1
176
     1
 40
50.0
176
     1
 90
        0
176
     1
290
     0
176
     1
290
     1
176
     1
290
     1
176
     1
290
     0
176
     1
290
     0
176
     1
290
     0
176
     1
290
     0
176
     1
290
     0
176
     1
290
     0
176
     1
 90
       50
176
     1
 40
0.0
176
     1
 40
1.0
176
     1
 90
        0
176
     1
 62
    18
176
     1
 90
       50
176
     1
 90
        3
176
     1
 62
     5
420
      255
176
     1
290
     0
176
     1
 90
       50
176
     1
 90
       50
176
     1
 90
       50
176
     1
290
     0
176
     1
 90
       50
176
     1
 62
   256
176
     0
 40
1.0
176
     0
 90
        2
176
     1
  1
strokes_ogs.tif
176
     1
290
     0
176
     1
 40
1.0
176
     1
 40
1.0
176
     1
  0
VISUALSTYLE
  5
C83
102
{ACAD_REACTORS
330
C73
102
}
330
C73
100
AcDbVisualStyle
  2
ColorChange
 70
    16
177
     3
291
     1
 70
    58
 90
        2
176
     1
 90
        2
176
     1
 90
        3
176
     1
 90
        0
176
     1
 40
0.6
176
     1
 40
30.0
176
     1
 62
     8
420
  8421504
176
     1
 90
        1
176
     1
 90
        4
176
     1
 62
     7
176
     1
 62
   257
176
     1
 90
        1
176
     1
 90
        1
176
     1
 40
1.0
176
     1
 90
        8
176
     1
 62
     8
420
  8421504
176
     1
 40
1.0
176
     1
 90
        1
176
     1
 90
        6
176
     1
 90
        2
176
     1
 62
     7
176
     1
 90
        5
176
     1
 90
        0
176
     1
 90
        0
176
     1
290
     0
176
     1
 90
        1
176
     1
 40
0.0
176
     1
 90
        0
176
     1
290
     0
176
     1
290
     1
176
     1
290
     1
176
     1
290
     0
176
     1
290
     0
176
     1
290
     0
176
     1
290
     0
176
     1
290
     0
176
     1
290
     0
176
     1
 90
       50
176
     1
 40
0.0
176
     1
 40
1.0
176
     1
 90
        0
176
     1
 62
    18
176
     1
 90
       50
176
     1
 90
        3
176
     1
 62
     5
420
      255
176
     1
290
     0
176
     1
 90
       50
176
     1
 90
       50
176
     1
 90
       50
176
     1
290
     0
176
     1
 90
       50
176
     1
 62
   256
176
     0
 40
1.0
176
     0
 90
        2
176
     1
  1
strokes_ogs.tif
176
     1
290
     0
176
     1
 40
1.0
176
     1
 40
1.0
176
     1
  0
VISUALSTYLE
  5
C7C
102
{ACAD_REACTORS
330
C73
102
}
330
C73
100
AcDbVisualStyle
  2
Conceptual
 70
     9
177
     3
291
     0
 70
    58
 90
        3
176
     1
 90
        2
176
     1
 90
        0
176
     1
 90
        0
176
     1
 40
0.6
176
     1
 40
30.0
176
     1
 62
     7
420
 16777215
176
     1
 90
        2
176
     1
 90
        2
176
     1
 62
     7
176
     1
 62
   257
176
     1
 90
        1
176
     1
 90
        1
176
     1
 40
179.0
176
     1
 90
        8
176
     1
 62
     7
176
     1
 40
1.0
176
     1
 90
        1
176
     1
 90
        6
176
     1
 90
        2
176
     1
 62
     7
176
     1
 90
        3
176
     1
 90
        0
176
     1
 90
        0
176
     1
290
     0
176
     1
 90
        1
176
     1
 40
0.0
176
     1
 90
        0
176
     1
290
     0
176
     1
290
     1
176
     1
290
     1
176
     1
290
     0
176
     1
290
     0
176
     1
290
     0
176
     1
290
     0
176
     1
290
     0
176
     1
290
     0
176
     1
 90
       50
176
     1
 40
0.0
176
     1
 40
1.0
176
     1
 90
        0
176
     1
 62
    18
176
     1
 90
       50
176
     1
 90
        3
176
     1
 62
     5
420
      255
176
     1
290
     0
176
     1
 90
       50
176
     1
 90
       50
176
     1
 90
       50
176
     1
290
     0
176
     1
 90
       50
176
     1
 62
   256
176
     0
 40
1.0
176
     0
 90
        2
176
     1
  1
strokes_ogs.tif
176
     1
290
     0
176
     1
 40
1.0
176
     1
 40
1.0
176
     1
  0
VISUALSTYLE
  5
C7E
102
{ACAD_REACTORS
330
C73
102
}
330
C73
100
AcDbVisualStyle
  2
Dim
 70
    11
177
     3
291
     1
 70
    58
 90
        2
176
     1
 90
        2
176
     1
 90
        0
176
     1
 90
        0
176
     1
 40
0.6
176
     1
 40
30.0
176
     1
 62
     7
420
 16777215
176
     1
 90
        1
176
     1
 90
        4
176
     1
 62
     7
176
     1
 62
   257
176
     1
 90
        1
176
     1
 90
        1
176
     1
 40
1.0
176
     1
 90
        8
176
     1
 62
     7
176
     1
 40
1.0
176
     1
 90
        1
176
     1
 90
        6
176
     1
 90
        2
176
     1
 62
     7
176
     1
 90
        5
176
     1
 90
        0
176
     1
 90
        0
176
     1
290
     0
176
     1
 90
        1
176
     1
 40
-50.0
176
     1
 90
        0
176
     1
290
     0
176
     1
290
     1
176
     1
290
     1
176
     1
290
     0
176
     1
290
     0
176
     1
290
     0
176
     1
290
     0
176
     1
290
     0
176
     1
290
     0
176
     1
 90
       50
176
     1
 40
0.0
176
     1
 40
1.0
176
     1
 90
        0
176
     1
 62
    18
176
     1
 90
       50
176
     1
 90
        3
176
     1
 62
     5
420
      255
176
     1
290
     0
176
     1
 90
       50
176
     1
 90
       50
176
     1
 90
       50
176
     1
290
     0
176
     1
 90
       50
176
     1
 62
   256
176
     0
 40
1.0
176
     0
 90
        2
176
     1
  1
strokes_ogs.tif
176
     1
290
     0
176
     1
 40
1.0
176
     1
 40
1.0
176
     1
  0
VISUALSTYLE
  5
C8B
102
{ACAD_REACTORS
330
C73
102
}
330
C73
100
AcDbVisualStyle
  2
EdgeColorOff
 70
    22
177
     3
291
     1
 70
    58
 90
        2
176
     0
 90
        2
176
     0
 90
        0
176
     0
 90
        0
176
     0
 40
0.6
176
     0
 40
30.0
176
     0
 62
     7
420
 16777215
176
     0
 90
        1
176
     0
 90
        4
176
     0
 62
     7
176
     0
 62
   257
176
     0
 90
        1
176
     0
 90
        1
176
     0
 40
1.0
176
     0
 90
        8
176
     2
 62
     7
176
     0
 40
1.0
176
     0
 90
        1
176
     0
 90
        6
176
     0
 90
        2
176
     0
 62
     7
176
     0
 90
        5
176
     0
 90
        0
176
     0
 90
        0
176
     0
290
     0
176
     0
 90
        1
176
     0
 40
0.0
176
     0
 90
        0
176
     0
290
     0
176
     0
290
     1
176
     0
290
     1
176
     0
290
     0
176
     0
290
     0
176
     0
290
     0
176
     0
290
     0
176
     0
290
     0
176
     0
290
     0
176
     0
 90
       50
176
     0
 40
0.0
176
     0
 40
1.0
176
     0
 90
        0
176
     0
 62
    18
176
     0
 90
       50
176
     0
 90
        3
176
     0
 62
     5
420
      255
176
     0
290
     0
176
     0
 90
       50
176
     0
 90
       50
176
     0
 90
       50
176
     0
290
     0
176
     0
 90
       50
176
     0
 62
   256
176
     0
 40
1.0
176
     0
 90
        2
176
     0
  1
strokes_ogs.tif
176
     0
290
     0
176
     0
 40
1.0
176
     0
 40
1.0
176
     0
  0
VISUALSTYLE
  5
C82
102
{ACAD_REACTORS
330
C73
102
}
330
C73
100
AcDbVisualStyle
  2
Facepattern
 70
    15
177
     3
291
     1
 70
    58
 90
        2
176
     1
 90
        2
176
     1
 90
        0
176
     1
 90
        0
176
     1
 40
0.6
176
     1
 40
30.0
176
     1
 62
     7
420
 16777215
176
     1
 90
        1
176
     1
 90
        4
176
     1
 62
     7
176
     1
 62
   257
176
     1
 90
        1
176
     1
 90
        1
176
     1
 40
1.0
176
     1
 90
        8
176
     1
 62
     7
176
     1
 40
1.0
176
     1
 90
        1
176
     1
 90
        6
176
     1
 90
        2
176
     1
 62
     7
176
     1
 90
        5
176
     1
 90
        0
176
     1
 90
        0
176
     1
290
     0
176
     1
 90
        1
176
     1
 40
0.0
176
     1
 90
        0
176
     1
290
     0
176
     1
290
     1
176
     1
290
     1
176
     1
290
     0
176
     1
290
     0
176
     1
290
     0
176
     1
290
     0
176
     1
290
     0
176
     1
290
     0
176
     1
 90
       50
176
     1
 40
0.0
176
     1
 40
1.0
176
     1
 90
        0
176
     1
 62
    18
176
     1
 90
       50
176
     1
 90
        3
176
     1
 62
     5
420
      255
176
     1
290
     0
176
     1
 90
       50
176
     1
 90
       50
176
     1
 90
       50
176
     1
290
     0
176
     1
 90
       50
176
     1
 62
   256
176
     0
 40
1.0
176
     0
 90
        2
176
     1
  1
strokes_ogs.tif
176
     1
290
     0
176
     1
 40
1.0
176
     1
 40
1.0
176
     1
  0
VISUALSTYLE
  5
C74
102
{ACAD_REACTORS
330
C73
102
}
330
C73
100
AcDbVisualStyle
  2
Flat
 70
     0
177
     3
291
     1
 70
    58
 90
        2
176
     1
 90
        1
176
     1
 90
        1
176
     1
 90
        2
176
     1
 40
0.6
176
     1
 40
30.0
176
     1
 62
     7
420
 16777215
176
     1
 90
        0
176
     1
 90
        0
176
     1
 62
     7
176
     1
 62
   257
176
     1
 90
        1
176
     1
 90
        1
176
     1
 40
1.0
176
     1
 90
        8
176
     1
 62
     7
176
     1
 40
1.0
176
     1
 90
        1
176
     1
 90
        6
176
     1
 90
        2
176
     1
 62
     7
176
     1
 90
        5
176
     1
 90
        0
176
     1
 90
        0
176
     1
290
     0
176
     1
 90
       13
176
     1
 40
0.0
176
     1
 90
        0
176
     1
290
     0
176
     1
290
     1
176
     1
290
     1
176
     1
290
     0
176
     1
290
     0
176
     1
290
     0
176
     1
290
     0
176
     1
290
     0
176
     1
290
     0
176
     1
 90
       50
176
     1
 40
0.0
176
     1
 40
1.0
176
     1
 90
        0
176
     1
 62
    18
176
     1
 90
       50
176
     1
 90
        3
176
     1
 62
     5
420
      255
176
     1
290
     0
176
     1
 90
       50
176
     1
 90
       50
176
     1
 90
       50
176
     1
290
     0
176
     1
 90
       50
176
     1
 62
   256
176
     0
 40
1.0
176
     0
 90
        2
176
     1
  1
strokes_ogs.tif
176
     1
290
     0
176
     1
 40
1.0
176
     1
 40
1.0
176
     1
  0
VISUALSTYLE
  5
C75
102
{ACAD_REACTORS
330
C73
102
}
330
C73
100
AcDbVisualStyle
  2
FlatWithEdges
 70
     1
177
     3
291
     1
 70
    58
 90
        2
176
     1
 90
        1
176
     1
 90
        1
176
     1
 90
        2
176
     1
 40
0.6
176
     1
 40
30.0
176
     1
 62
     7
420
 16777215
176
     1
 90
        1
176
     1
 90
        0
176
     1
 62
     7
176
     1
 62
   257
176
     1
 90
        1
176
     1
 90
        1
176
     1
 40
1.0
176
     1
 90
        0
176
     1
 62
   257
176
     1
 40
1.0
176
     1
 90
        1
176
     1
 90
        6
176
     1
 90
        2
176
     1
 62
     7
176
     1
 90
        5
176
     1
 90
        0
176
     1
 90
        0
176
     1
290
     0
176
     1
 90
       13
176
     1
 40
0.0
176
     1
 90
        0
176
     1
290
     0
176
     1
290
     1
176
     1
290
     1
176
     1
290
     0
176
     1
290
     0
176
     1
290
     0
176
     1
290
     0
176
     1
290
     0
176
     1
290
     0
176
     1
 90
       50
176
     1
 40
0.0
176
     1
 40
1.0
176
     1
 90
        0
176
     1
 62
    18
176
     1
 90
       50
176
     1
 90
        3
176
     1
 62
     5
420
      255
176
     1
290
     0
176
     1
 90
       50
176
     1
 90
       50
176
     1
 90
       50
176
     1
290
     0
176
     1
 90
       50
176
     1
 62
   256
176
     0
 40
1.0
176
     0
 90
        2
176
     1
  1
strokes_ogs.tif
176
     1
290
     0
176
     1
 40
1.0
176
     1
 40
1.0
176
     1
  0
VISUALSTYLE
  5
C76
102
{ACAD_REACTORS
330
C73
102
}
330
C73
100
AcDbVisualStyle
  2
Gouraud
 70
     2
177
     3
291
     1
 70
    58
 90
        2
176
     1
 90
        2
176
     1
 90
        1
176
     1
 90
        2
176
     1
 40
0.6
176
     1
 40
30.0
176
     1
 62
     7
420
 16777215
176
     1
 90
        0
176
     1
 90
        0
176
     1
 62
     7
176
     1
 62
   257
176
     1
 90
        1
176
     1
 90
        1
176
     1
 40
1.0
176
     1
 90
        0
176
     1
 62
     7
176
     1
 40
1.0
176
     1
 90
        1
176
     1
 90
        6
176
     1
 90
        2
176
     1
 62
     7
176
     1
 90
        5
176
     1
 90
        0
176
     1
 90
        0
176
     1
290
     0
176
     1
 90
       13
176
     1
 40
0.0
176
     1
 90
        0
176
     1
290
     0
176
     1
290
     1
176
     1
290
     1
176
     1
290
     0
176
     1
290
     0
176
     1
290
     0
176
     1
290
     0
176
     1
290
     0
176
     1
290
     0
176
     1
 90
       50
176
     1
 40
0.0
176
     1
 40
1.0
176
     1
 90
        0
176
     1
 62
    18
176
     1
 90
       50
176
     1
 90
        3
176
     1
 62
     5
420
      255
176
     1
290
     0
176
     1
 90
       50
176
     1
 90
       50
176
     1
 90
       50
176
     1
290
     0
176
     1
 90
       50
176
     1
 62
   256
176
     0
 40
1.0
176
     0
 90
        2
176
     1
  1
strokes_ogs.tif
176
     1
290
     0
176
     1
 40
1.0
176
     1
 40
1.0
176
     1
  0
VISUALSTYLE
  5
C77
102
{ACAD_REACTORS
330
C73
102
}
330
C73
100
AcDbVisualStyle
  2
GouraudWithEdges
 70
     3
177
     3
291
     1
 70
    58
 90
        2
176
     1
 90
        2
176
     1
 90
        1
176
     1
 90
        2
176
     1
 40
0.6
176
     1
 40
30.0
176
     1
 62
     7
420
 16777215
176
     1
 90
        1
176
     1
 90
        0
176
     1
 62
     7
176
     1
 62
   257
176
     1
 90
        1
176
     1
 90
        1
176
     1
 40
1.0
176
     1
 90
        0
176
     1
 62
   257
176
     1
 40
1.0
176
     1
 90
        1
176
     1
 90
        6
176
     1
 90
        2
176
     1
 62
     7
176
     1
 90
        5
176
     1
 90
        0
176
     1
 90
        0
176
     1
290
     0
176
     1
 90
       13
176
     1
 40
0.0
176
     1
 90
        0
176
     1
290
     0
176
     1
290
     1
176
     1
290
     1
176
     1
290
     0
176
     1
290
     0
176
     1
290
     0
176
     1
290
     0
176
     1
290
     0
176
     1
290
     0
176
     1
 90
       50
176
     1
 40
0.0
176
     1
 40
1.0
176
     1
 90
        0
176
     1
 62
    18
176
     1
 90
       50
176
     1
 90
        3
176
     1
 62
     5
420
      255
176
     1
290
     0
176
     1
 90
       50
176
     1
 90
       50
176
     1
 90
       50
176
     1
290
     0
176
     1
 90
       50
176
     1
 62
   256
176
     0
 40
1.0
176
     0
 90
        2
176
     1
  1
strokes_ogs.tif
176
     1
290
     0
176
     1
 40
1.0
176
     1
 40
1.0
176
     1
  0
VISUALSTYLE
  5
C7B
102
{ACAD_REACTORS
330
C73
102
}
330
C73
100
AcDbVisualStyle
  2
Hidden
 70
     6
177
     3
291
     0
 70
    58
 90
        1
176
     1
 90
        2
176
     1
 90
        2
176
     1
 90
        0
176
     1
 40
0.6
176
     1
 40
30.0
176
     1
 62
     7
420
 16777215
176
     1
 90
        2
176
     1
 90
        2
176
     1
 62
     7
176
     1
 62
   257
176
     1
 90
        2
176
     1
 90
        1
176
     1
 40
40.0
176
     1
 90
        0
176
     1
 62
   257
176
     1
 40
1.0
176
     1
 90
        1
176
     1
 90
        6
176
     1
 90
        2
176
     1
 62
     7
176
     1
 90
        3
176
     1
 90
        0
176
     1
 90
        0
176
     1
290
     0
176
     1
 90
        1
176
     1
 40
0.0
176
     1
 90
        0
176
     1
290
     0
176
     1
290
     1
176
     1
290
     1
176
     1
290
     0
176
     1
290
     0
176
     1
290
     0
176
     1
290
     0
176
     1
290
     0
176
     1
290
     0
176
     1
 90
       50
176
     1
 40
0.0
176
     1
 40
1.0
176
     1
 90
        0
176
     1
 62
    18
176
     1
 90
       50
176
     1
 90
        3
176
     1
 62
     5
420
      255
176
     1
290
     0
176
     1
 90
       50
176
     1
 90
       50
176
     1
 90
       50
176
     1
290
     0
176
     1
 90
       50
176
     1
 62
   256
176
     0
 40
1.0
176
     0
 90
        2
176
     1
  1
strokes_ogs.tif
176
     1
290
     0
176
     1
 40
1.0
176
     1
 40
1.0
176
     1
  0
VISUALSTYLE
  5
C89
102
{ACAD_REACTORS
330
C73
102
}
330
C73
100
AcDbVisualStyle
  2
JitterOff
 70
    20
177
     3
291
     1
 70
    58
 90
        2
176
     0
 90
        2
176
     0
 90
        0
176
     0
 90
        0
176
     0
 40
0.6
176
     0
 40
30.0
176
     0
 62
     7
420
 16777215
176
     0
 90
        1
176
     0
 90
        4
176
     0
 62
     7
176
     0
 62
   257
176
     0
 90
        1
176
     0
 90
        1
176
     0
 40
1.0
176
     0
 90
       10
176
     2
 62
     7
176
     0
 40
1.0
176
     0
 90
        1
176
     0
 90
        6
176
     0
 90
        2
176
     0
 62
     7
176
     0
 90
        5
176
     0
 90
        0
176
     0
 90
        0
176
     0
290
     0
176
     0
 90
        1
176
     0
 40
0.0
176
     0
 90
        0
176
     0
290
     0
176
     0
290
     1
176
     0
290
     1
176
     0
290
     0
176
     0
290
     0
176
     0
290
     0
176
     0
290
     0
176
     0
290
     0
176
     0
290
     0
176
     0
 90
       50
176
     0
 40
0.0
176
     0
 40
1.0
176
     0
 90
        0
176
     0
 62
    18
176
     0
 90
       50
176
     0
 90
        3
176
     0
 62
     5
420
      255
176
     0
290
     0
176
     0
 90
       50
176
     0
 90
       50
176
     0
 90
       50
176
     0
290
     0
176
     0
 90
       50
176
     0
 62
   256
176
     0
 40
1.0
176
     0
 90
        2
176
     0
  1
strokes_ogs.tif
176
     0
290
     0
176
     0
 40
1.0
176
     0
 40
1.0
176
     0
  0
VISUALSTYLE
  5
C81
102
{ACAD_REACTORS
330
C73
102
}
330
C73
100
AcDbVisualStyle
  2
Linepattern
 70
    14
177
     3
291
     1
 70
    58
 90
        2
176
     1
 90
        2
176
     1
 90
        0
176
     1
 90
        0
176
     1
 40
0.6
176
     1
 40
30.0
176
     1
 62
     7
420
 16777215
176
     1
 90
        1
176
     1
 90
        4
176
     1
 62
     7
176
     1
 62
   257
176
     1
 90
        7
176
     1
 90
        7
176
     1
 40
1.0
176
     1
 90
        8
176
     1
 62
     7
176
     1
 40
1.0
176
     1
 90
        1
176
     1
 90
        6
176
     1
 90
        2
176
     1
 62
     7
176
     1
 90
        5
176
     1
 90
        0
176
     1
 90
        0
176
     1
290
     0
176
     1
 90
        1
176
     1
 40
0.0
176
     1
 90
        0
176
     1
290
     0
176
     1
290
     1
176
     1
290
     1
176
     1
290
     0
176
     1
290
     0
176
     1
290
     0
176
     1
290
     0
176
     1
290
     0
176
     1
290
     0
176
     1
 90
       50
176
     1
 40
0.0
176
     1
 40
1.0
176
     1
 90
        0
176
     1
 62
    18
176
     1
 90
       50
176
     1
 90
        3
176
     1
 62
     5
420
      255
176
     1
290
     0
176
     1
 90
       50
176
     1
 90
       50
176
     1
 90
       50
176
     1
290
     0
176
     1
 90
       50
176
     1
 62
   256
176
     0
 40
1.0
176
     0
 90
        2
176
     1
  1
strokes_ogs.tif
176
     1
290
     0
176
     1
 40
1.0
176
     1
 40
1.0
176
     1
  0
VISUALSTYLE
  5
C8A
102
{ACAD_REACTORS
330
C73
102
}
330
C73
100
AcDbVisualStyle
  2
OverhangOff
 70
    21
177
     3
291
     1
 70
    58
 90
        2
176
     0
 90
        2
176
     0
 90
        0
176
     0
 90
        0
176
     0
 40
0.6
176
     0
 40
30.0
176
     0
 62
     7
420
 16777215
176
     0
 90
        1
176
     0
 90
        4
176
     0
 62
     7
176
     0
 62
   257
176
     0
 90
        1
176
     0
 90
        1
176
     0
 40
1.0
176
     0
 90
        9
176
     2
 62
     7
176
     0
 40
1.0
176
     0
 90
        1
176
     0
 90
        6
176
     0
 90
        2
176
     0
 62
     7
176
     0
 90
        5
176
     0
 90
        0
176
     0
 90
        0
176
     0
290
     0
176
     0
 90
        1
176
     0
 40
0.0
176
     0
 90
        0
176
     0
290
     0
176
     0
290
     1
176
     0
290
     1
176
     0
290
     0
176
     0
290
     0
176
     0
290
     0
176
     0
290
     0
176
     0
290
     0
176
     0
290
     0
176
     0
 90
       50
176
     0
 40
0.0
176
     0
 40
1.0
176
     0
 90
        0
176
     0
 62
    18
176
     0
 90
       50
176
     0
 90
        3
176
     0
 62
     5
420
      255
176
     0
290
     0
176
     0
 90
       50
176
     0
 90
       50
176
     0
 90
       50
176
     0
290
     0
176
     0
 90
       50
176
     0
 62
   256
176
     0
 40
1.0
176
     0
 90
        2
176
     0
  1
strokes_ogs.tif
176
     0
290
     0
176
     0
 40
1.0
176
     0
 40
1.0
176
     0
  0
VISUALSTYLE
  5
C7D
102
{ACAD_REACTORS
330
C73
102
}
330
C73
100
AcDbVisualStyle
  2
Realistic
 70
     8
177
     3
291
     0
 70
    58
 90
        2
176
     1
 90
        3
176
     1
 90
        0
176
     1
 90
        2
176
     1
 40
0.6
176
     1
 40
30.0
176
     1
 62
     7
420
 16777215
176
     1
 90
        0
176
     1
 90
        0
176
     1
 62
     7
176
     1
 62
   257
176
     1
 90
        1
176
     1
 90
        1
176
     1
 40
1.0
176
     1
 90
        8
176
     1
 62
   257
176
     1
 40
1.0
176
     1
 90
        1
176
     1
 90
        6
176
     1
 90
        2
176
     1
 62
     7
176
     1
 90
        3
176
     1
 90
        0
176
     1
 90
        0
176
     1
290
     0
176
     1
 90
       13
176
     1
 40
0.0
176
     1
 90
        0
176
     1
290
     0
176
     1
290
     1
176
     1
290
     1
176
     1
290
     0
176
     1
290
     0
176
     1
290
     0
176
     1
290
     0
176
     1
290
     0
176
     1
290
     0
176
     1
 90
       50
176
     1
 40
0.0
176
     1
 40
1.0
176
     1
 90
        0
176
     1
 62
    18
176
     1
 90
       50
176
     1
 90
        3
176
     1
 62
     5
420
      255
176
     1
290
     0
176
     1
 90
       50
176
     1
 90
       50
176
     1
 90
       50
176
     1
290
     0
176
     1
 90
       50
176
     1
 62
   256
176
     0
 40
1.0
176
     0
 90
        2
176
     1
  1
strokes_ogs.tif
176
     1
290
     0
176
     1
 40
1.0
176
     1
 40
1.0
176
     1
  0
VISUALSTYLE
  5
C88
102
{ACAD_REACTORS
330
C73
102
}
330
C73
100
AcDbVisualStyle
  2
Shaded
 70
    27
177
     3
291
     0
 70
    58
 90
        2
176
     1
 90
        2
176
     1
 90
        1
176
     1
 90
        2
176
     1
 40
0.6
176
     1
 40
30.0
176
     1
 62
     7
420
 16777215
176
     1
 90
        0
176
     1
 90
        4
176
     1
 62
     7
176
     1
 62
   257
176
     1
 90
        1
176
     1
 90
        1
176
     1
 40
1.0
176
     1
 90
        8
176
     1
 62
   257
176
     1
 40
1.0
176
     1
 90
        1
176
     1
 90
        6
176
     1
 90
        2
176
     1
 62
     8
420
  7895160
176
     1
 90
        3
176
     1
 90
        0
176
     1
 90
        0
176
     1
290
     0
176
     1
 90
        5
176
     1
 40
0.0
176
     1
 90
        0
176
     1
290
     0
176
     1
290
     1
176
     1
290
     1
176
     1
290
     0
176
     1
290
     0
176
     1
290
     0
176
     1
290
     0
176
     1
290
     0
176
     1
290
     0
176
     1
 90
       50
176
     1
 40
0.0
176
     1
 40
1.0
176
     1
 90
        0
176
     1
 62
    18
176
     1
 90
       50
176
     1
 90
        3
176
     1
 62
     5
420
      255
176
     1
290
     0
176
     1
 90
       50
176
     1
 90
       50
176
     1
 90
       50
176
     1
290
     0
176
     1
 90
       50
176
     1
 62
   256
176
     0
 40
1.0
176
     0
 90
        2
176
     1
  1
strokes_ogs.tif
176
     1
290
     0
176
     1
 40
1.0
176
     1
 40
1.0
176
     1
  0
VISUALSTYLE
  5
C87
102
{ACAD_REACTORS
330
C73
102
}
330
C73
100
AcDbVisualStyle
  2
Shaded with edges
 70
    26
177
     3
291
     0
 70
    58
 90
        2
176
     1
 90
        2
176
     1
 90
        1
176
     1
 90
        2
176
     1
 40
0.6
176
     1
 40
30.0
176
     1
 62
     7
420
 16777215
176
     1
 90
        1
176
     1
 90
       10
176
     1
 62
     7
176
     1
 62
   257
176
     1
 90
        2
176
     1
 90
        1
176
     1
 40
1.0
176
     1
 90
        8
176
     1
 62
   257
176
     1
 40
1.0
176
     1
 90
        1
176
     1
 90
        6
176
     1
 90
        2
176
     1
 62
     7
176
     1
 90
        3
176
     1
 90
        0
176
     1
 90
        0
176
     1
290
     0
176
     1
 90
        5
176
     1
 40
0.0
176
     1
 90
        0
176
     1
290
     0
176
     1
290
     1
176
     1
290
     1
176
     1
290
     0
176
     1
290
     0
176
     1
290
     0
176
     1
290
     0
176
     1
290
     0
176
     1
290
     0
176
     1
 90
       50
176
     1
 40
0.0
176
     1
 40
1.0
176
     1
 90
        0
176
     1
 62
    18
176
     1
 90
       50
176
     1
 90
        3
176
     1
 62
     5
420
      255
176
     1
290
     0
176
     1
 90
       50
176
     1
 90
       50
176
     1
 90
       50
176
     1
290
     0
176
     1
 90
       50
176
     1
 62
   256
176
     0
 40
1.0
176
     0
 90
        2
176
     1
  1
strokes_ogs.tif
176
     1
290
     0
176
     1
 40
1.0
176
     1
 40
1.0
176
     1
  0
VISUALSTYLE
  5
C84
102
{ACAD_REACTORS
330
C73
102
}
330
C73
100
AcDbVisualStyle
  2
Shades of Gray
 70
    23
177
     3
291
     0
 70
    58
 90
        2
176
     1
 90
        2
176
     1
 90
        3
176
     1
 90
        0
176
     1
 40
0.6
176
     1
 40
30.0
176
     1
 62
     7
420
 16777215
176
     1
 90
        2
176
     1
 90
        2
176
     1
 62
     7
176
     1
 62
     7
176
     1
 90
        1
176
     1
 90
        1
176
     1
 40
40.0
176
     1
 90
        8
176
     1
 62
     7
176
     1
 40
1.0
176
     1
 90
        1
176
     1
 90
        6
176
     1
 90
        2
176
     1
 62
     7
176
     1
 90
        3
176
     1
 90
        0
176
     1
 90
        0
176
     1
290
     0
176
     1
 90
        1
176
     1
 40
0.0
176
     1
 90
        0
176
     1
290
     0
176
     1
290
     1
176
     1
290
     1
176
     1
290
     0
176
     1
290
     0
176
     1
290
     0
176
     1
290
     0
176
     1
290
     0
176
     1
290
     0
176
     1
 90
       50
176
     1
 40
0.0
176
     1
 40
1.0
176
     1
 90
        0
176
     1
 62
    18
176
     1
 90
       50
176
     1
 90
        3
176
     1
 62
     5
420
      255
176
     1
290
     0
176
     1
 90
       50
176
     1
 90
       50
176
     1
 90
       50
176
     1
290
     0
176
     1
 90
       50
176
     1
 62
   256
176
     0
 40
1.0
176
     0
 90
        2
176
     1
  1
strokes_ogs.tif
176
     1
290
     0
176
     1
 40
1.0
176
     1
 40
1.0
176
     1
  0
VISUALSTYLE
  5
C85
102
{ACAD_REACTORS
330
C73
102
}
330
C73
100
AcDbVisualStyle
  2
Sketchy
 70
    24
177
     3
291
     0
 70
    58
 90
        1
176
     1
 90
        2
176
     1
 90
        2
176
     1
 90
        0
176
     1
 40
0.6
176
     1
 40
30.0
176
     1
 62
     7
420
 16777215
176
     1
 90
        2
176
     1
 90
        2
176
     1
 62
     7
176
     1
 62
     7
176
     1
 90
        1
176
     1
 90
        1
176
     1
 40
40.0
176
     1
 90
       11
176
     1
 62
     7
176
     1
 40
1.0
176
     1
 90
        1
176
     1
 90
        6
176
     1
 90
        2
176
     1
 62
     7
176
     1
 90
        6
176
     1
 90
        0
176
     1
 90
        0
176
     1
290
     0
176
     1
 90
        1
176
     1
 40
0.0
176
     1
 90
        0
176
     1
290
     0
176
     1
290
     1
176
     1
290
     1
176
     1
290
     0
176
     1
290
     0
176
     1
290
     0
176
     1
290
     0
176
     1
290
     0
176
     1
290
     0
176
     1
 90
       50
176
     1
 40
0.0
176
     1
 40
1.0
176
     1
 90
        0
176
     1
 62
    18
176
     1
 90
       50
176
     1
 90
        3
176
     1
 62
     5
420
      255
176
     1
290
     0
176
     1
 90
       50
176
     1
 90
       50
176
     1
 90
       50
176
     1
290
     0
176
     1
 90
       50
176
     1
 62
   256
176
     0
 40
1.0
176
     0
 90
        2
176
     1
  1
strokes_ogs.tif
176
     1
290
     0
176
     1
 40
1.0
176
     1
 40
1.0
176
     1
  0
VISUALSTYLE
  5
C80
102
{ACAD_REACTORS
330
C73
102
}
330
C73
100
AcDbVisualStyle
  2
Thicken
 70
    13
177
     3
291
     1
 70
    58
 90
        2
176
     1
 90
        2
176
     1
 90
        0
176
     1
 90
        0
176
     1
 40
0.6
176
     1
 40
30.0
176
     1
 62
     7
420
 16777215
176
     1
 90
        1
176
     1
 90
        4
176
     1
 62
     7
176
     1
 62
   257
176
     1
 90
        1
176
     1
 90
        1
176
     1
 40
1.0
176
     1
 90
       12
176
     1
 62
     7
176
     1
 40
1.0
176
     1
 90
        1
176
     1
 90
        6
176
     1
 90
        2
176
     1
 62
     7
176
     1
 90
        5
176
     1
 90
        0
176
     1
 90
        0
176
     1
290
     0
176
     1
 90
        1
176
     1
 40
0.0
176
     1
 90
        0
176
     1
290
     0
176
     1
290
     1
176
     1
290
     1
176
     1
290
     0
176
     1
290
     0
176
     1
290
     0
176
     1
290
     0
176
     1
290
     0
176
     1
290
     0
176
     1
 90
       50
176
     1
 40
0.0
176
     1
 40
1.0
176
     1
 90
        0
176
     1
 62
    18
176
     1
 90
       50
176
     1
 90
        3
176
     1
 62
     5
420
      255
176
     1
290
     0
176
     1
 90
       50
176
     1
 90
       50
176
     1
 90
       50
176
     1
290
     0
176
     1
 90
       50
176
     1
 62
   256
176
     0
 40
1.0
176
     0
 90
        2
176
     1
  1
strokes_ogs.tif
176
     1
290
     0
176
     1
 40
1.0
176
     1
 40
1.0
176
     1
  0
VISUALSTYLE
  5
C7A
102
{ACAD_REACTORS
330
C73
102
}
330
C73
100
AcDbVisualStyle
  2
Wireframe
 70
     5
177
     3
291
     0
 70
    58
 90
        0
176
     1
 90
        2
176
     1
 90
        0
176
     1
 90
        0
176
     1
 40
0.6
176
     1
 40
30.0
176
     1
 62
     7
420
 16777215
176
     1
 90
        1
176
     1
 90
        4
176
     1
 62
     7
176
     1
 62
   257
176
     1
 90
        1
176
     1
 90
        1
176
     1
 40
1.0
176
     1
 90
        0
176
     1
 62
   257
176
     1
 40
1.0
176
     1
 90
        1
176
     1
 90
        6
176
     1
 90
        2
176
     1
 62
     7
176
     1
 90
        3
176
     1
 90
        0
176
     1
 90
        0
176
     1
290
     0
176
     1
 90
        1
176
     1
 40
0.0
176
     1
 90
        0
176
     1
290
     0
176
     1
290
     1
176
     1
290
     1
176
     1
290
     0
176
     1
290
     0
176
     1
290
     0
176
     1
290
     0
176
     1
290
     0
176
     1
290
     0
176
     1
 90
       50
176
     1
 40
0.0
176
     1
 40
1.0
176
     1
 90
        0
176
     1
 62
    18
176
     1
 90
       50
176
     1
 90
        3
176
     1
 62
     5
420
      255
176
     1
290
     0
176
     1
 90
       50
176
     1
 90
       50
176
     1
 90
       50
176
     1
290
     0
176
     1
 90
       50
176
     1
 62
   256
176
     0
 40
1.0
176
     0
 90
        2
176
     1
  1
strokes_ogs.tif
176
     1
290
     0
176
     1
 40
1.0
176
     1
 40
1.0
176
     1
  0
VISUALSTYLE
  5
C86
102
{ACAD_REACTORS
330
C73
102
}
330
C73
100
AcDbVisualStyle
  2
X-Ray
 70
    25
177
     3
291
     0
 70
    58
 90
        2
176
     1
 90
        2
176
     1
 90
        1
176
     1
 90
        1
176
     1
 40
0.5
176
     1
 40
30.0
176
     1
 62
     7
420
 16777215
176
     1
 90
        1
176
     1
 90
        0
176
     1
 62
     7
176
     1
 62
   257
176
     1
 90
        1
176
     1
 90
        1
176
     1
 40
1.0
176
     1
 90
        8
176
     1
 62
     7
176
     1
 40
1.0
176
     1
 90
        1
176
     1
 90
        6
176
     1
 90
        2
176
     1
 62
     7
176
     1
 90
        3
176
     1
 90
        0
176
     1
 90
        0
176
     1
290
     0
176
     1
 90
       13
176
     1
 40
0.0
176
     1
 90
        0
176
     1
290
     0
176
     1
290
     1
176
     1
290
     1
176
     1
290
     0
176
     1
290
     0
176
     1
290
     0
176
     1
290
     0
176
     1
290
     0
176
     1
290
     0
176
     1
 90
       50
176
     1
 40
0.0
176
     1
 40
1.0
176
     1
 90
        0
176
     1
 62
    18
176
     1
 90
       50
176
     1
 90
        3
176
     1
 62
     5
420
      255
176
     1
290
     0
176
     1
 90
       50
176
     1
 90
       50
176
     1
 90
       50
176
     1
290
     0
176
     1
 90
       50
176
     1
 62
   256
176
     0
 40
1.0
176
     0
 90
        2
176
     1
  1
strokes_ogs.tif
176
     1
290
     0
176
     1
 40
1.0
176
     1
 40
1.0
176
     1
  0
DICTIONARYVAR
  5
D72
102
{ACAD_REACTORS
330
4D
102
}
330
4D
100
DictionaryVariables
280
     0
  1
1:1
  0
DICTIONARYVAR
  5
D6E
102
{ACAD_REACTORS
330
4D
102
}
330
4D
100
DictionaryVariables
280
     0
  1
STANDARD
  0
DICTIONARYVAR
  5
D6D
102
{ACAD_REACTORS
330
4D
102
}
330
4D
100
DictionaryVariables
280
     0
  1
STANDARD
  0
DICTIONARYVAR
  5
D6F
102
{ACAD_REACTORS
330
4D
102
}
330
4D
100
DictionaryVariables
280
     0
  1
Imperial24
  0
DICTIONARYVAR
  5
D70
102
{ACAD_REACTORS
330
4D
102
}
330
4D
100
DictionaryVariables
280
     0
  1
Imperial24
  0
DICTIONARYVAR
  5
4E
102
{ACAD_REACTORS
330
4D
102
}
330
4D
100
DictionaryVariables
280
     0
  1
2
  0
DICTIONARYVAR
  5
D74
102
{ACAD_REACTORS
330
4D
102
}
330
4D
100
DictionaryVariables
280
     0
  1
1
  0
DICTIONARYVAR
  5
D75
102
{ACAD_REACTORS
330
4D
102
}
330
4D
100
DictionaryVariables
280
     0
  1
15
  0
DICTIONARYVAR
  5
D73
102
{ACAD_REACTORS
330
4D
102
}
330
4D
100
DictionaryVariables
280
     0
  1
0
  0
DICTIONARYVAR
  5
D71
102
{ACAD_REACTORS
330
4D
102
}
330
4D
100
DictionaryVariables
280
     0
  1
0
  0
DICTIONARY
  5
D7A
330
CA6
100
AcDbDictionary
280
     1
281
     1
  3
ACAD_XREC_ROUNDTRIP
360
D85
  0
DICTIONARY
  5
C64
330
C63
100
AcDbDictionary
280
     1
281
     1
  3
BUMPTILE
360
C66
  3
DIFFUSETILE
360
C65
  3
OPACITYTILE
360
C69
  3
REFLECTIONTILE
360
C68
  3
REFRACTIONTILE
360
C6A
  3
SPECULARTILE
360
C67
  0
DICTIONARY
  5
C5C
330
C5B
100
AcDbDictionary
280
     1
281
     1
  3
BUMPTILE
360
C5E
  3
DIFFUSETILE
360
C5D
  3
OPACITYTILE
360
C61
  3
REFLECTIONTILE
360
C60
  3
REFRACTIONTILE
360
C62
  3
SPECULARTILE
360
C5F
  0
DICTIONARY
  5
C6C
330
C6B
100
AcDbDictionary
280
     1
281
     1
  3
BUMPTILE
360
C6E
  3
DIFFUSETILE
360
C6D
  3
OPACITYTILE
360
C71
  3
REFLECTIONTILE
360
C70
  3
REFRACTIONTILE
360
C72
  3
SPECULARTILE
360
C6F
  0
DICTIONARY
  5
D78
330
CA4
100
AcDbDictionary
280
     1
281
     1
  3
ACAD_XREC_ROUNDTRIP
360
D84
  0
DICTIONARY
  5
D76
330
C8E
100
AcDbDictionary
280
     1
281
     1
  3
ACAD_ROUNDTRIP_2008_TABLESTYLE_CELLSTYLEMAP
360
D83
  0
XRECORD
  5
D85
102
{ACAD_REACTORS
330
D7A
102
}
330
D7A
100
AcDbXrecord
280
     1
102
DISPLAYNAME
  1
Imperial24
102
FLAGS
 90
        0
  0
XRECORD
  5
C66
102
{ACAD_REACTORS
330
C64
102
}
330
C64
100
AcDbXrecord
280
     1
270
     1
271
     1
  0
XRECORD
  5
C65
102
{ACAD_REACTORS
330
C64
102
}
330
C64
100
AcDbXrecord
280
     1
270
     1
271
     1
  0
XRECORD
  5
C69
102
{ACAD_REACTORS
330
C64
102
}
330
C64
100
AcDbXrecord
280
     1
270
     1
271
     1
  0
XRECORD
  5
C68
102
{ACAD_REACTORS
330
C64
102
}
330
C64
100
AcDbXrecord
280
     1
270
     1
271
     1
  0
XRECORD
  5
C6A
102
{ACAD_REACTORS
330
C64
102
}
330
C64
100
AcDbXrecord
280
     1
270
     1
271
     1
  0
XRECORD
  5
C67
102
{ACAD_REACTORS
330
C64
102
}
330
C64
100
AcDbXrecord
280
     1
270
     1
271
     1
  0
XRECORD
  5
C5E
102
{ACAD_REACTORS
330
C5C
102
}
330
C5C
100
AcDbXrecord
280
     1
270
     1
271
     1
  0
XRECORD
  5
C5D
102
{ACAD_REACTORS
330
C5C
102
}
330
C5C
100
AcDbXrecord
280
     1
270
     1
271
     1
  0
XRECORD
  5
C61
102
{ACAD_REACTORS
330
C5C
102
}
330
C5C
100
AcDbXrecord
280
     1
270
     1
271
     1
  0
XRECORD
  5
C60
102
{ACAD_REACTORS
330
C5C
102
}
330
C5C
100
AcDbXrecord
280
     1
270
     1
271
     1
  0
XRECORD
  5
C62
102
{ACAD_REACTORS
330
C5C
102
}
330
C5C
100
AcDbXrecord
280
     1
270
     1
271
     1
  0
XRECORD
  5
C5F
102
{ACAD_REACTORS
330
C5C
102
}
330
C5C
100
AcDbXrecord
280
     1
270
     1
271
     1
  0
XRECORD
  5
C6E
102
{ACAD_REACTORS
330
C6C
102
}
330
C6C
100
AcDbXrecord
280
     1
270
     1
271
     1
  0
XRECORD
  5
C6D
102
{ACAD_REACTORS
330
C6C
102
}
330
C6C
100
AcDbXrecord
280
     1
270
     1
271
     1
  0
XRECORD
  5
C71
102
{ACAD_REACTORS
330
C6C
102
}
330
C6C
100
AcDbXrecord
280
     1
270
     1
271
     1
  0
XRECORD
  5
C70
102
{ACAD_REACTORS
330
C6C
102
}
330
C6C
100
AcDbXrecord
280
     1
270
     1
271
     1
  0
XRECORD
  5
C72
102
{ACAD_REACTORS
330
C6C
102
}
330
C6C
100
AcDbXrecord
280
     1
270
     1
271
     1
  0
XRECORD
  5
C6F
102
{ACAD_REACTORS
330
C6C
102
}
330
C6C
100
AcDbXrecord
280
     1
270
     1
271
     1
  0
XRECORD
  5
D84
102
{ACAD_REACTORS
330
D78
102
}
330
D78
100
AcDbXrecord
280
     1
102
DISPLAYNAME
  1
Imperial24
102
FLAGS
 90
        0
  0
CELLSTYLEMAP
  5
D83
102
{ACAD_REACTORS
330
D76
102
}
330
D76
100
AcDbCellStyleMap
 90
        3
300
CELLSTYLE
  1
TABLEFORMAT_BEGIN
 90
        5
170
     1
 91
        0
 92
    32768
 62
   257
 93
        1
300
CONTENTFORMAT
  1
CONTENTFORMAT_BEGIN
 90
        0
 91
        0
 92
      512
 93
        0
300

 40
0.0
140
1.0
 94
        5
 62
     0
340
F
144
0.25
309
CONTENTFORMAT_END
171
     1
301
MARGIN
  1
CELLMARGIN_BEGIN
 40
0.06
 40
0.06
 40
0.06
 40
0.06
 40
0.18
 40
0.18
309
CELLMARGIN_END
 94
        6
 95
        1
302
GRIDFORMAT
  1
GRIDFORMAT_BEGIN
 90
        0
 91
        1
 62
     0
 92
       -2
340
0
 93
        0
 40
0.045
309
GRIDFORMAT_END
 95
        2
302
GRIDFORMAT
  1
GRIDFORMAT_BEGIN
 90
        0
 91
        1
 62
     0
 92
       -2
340
0
 93
        0
 40
0.045
309
GRIDFORMAT_END
 95
        4
302
GRIDFORMAT
  1
GRIDFORMAT_BEGIN
 90
        0
 91
        1
 62
     0
 92
       -2
340
0
 93
        0
 40
0.045
309
GRIDFORMAT_END
 95
        8
302
GRIDFORMAT
  1
GRIDFORMAT_BEGIN
 90
        0
 91
        1
 62
     0
 92
       -2
340
0
 93
        0
 40
0.045
309
GRIDFORMAT_END
 95
       16
302
GRIDFORMAT
  1
GRIDFORMAT_BEGIN
 90
        0
 91
        1
 62
     0
 92
       -2
340
0
 93
        0
 40
0.045
309
GRIDFORMAT_END
 95
       32
302
GRIDFORMAT
  1
GRIDFORMAT_BEGIN
 90
        0
 91
        1
 62
     0
 92
       -2
340
0
 93
        0
 40
0.045
309
GRIDFORMAT_END
309
TABLEFORMAT_END
  1
CELLSTYLE_BEGIN
 90
        1
 91
        1
300
_TITLE
309
CELLSTYLE_END
300
CELLSTYLE
  1
TABLEFORMAT_BEGIN
 90
        5
170
     1
 91
        0
 92
        0
 62
   257
 93
        1
300
CONTENTFORMAT
  1
CONTENTFORMAT_BEGIN
 90
        0
 91
        0
 92
      512
 93
        0
300

 40
0.0
140
1.0
 94
        5
 62
     0
340
F
144
0.18
309
CONTENTFORMAT_END
171
     1
301
MARGIN
  1
CELLMARGIN_BEGIN
 40
0.06
 40
0.06
 40
0.06
 40
0.06
 40
0.18
 40
0.18
309
CELLMARGIN_END
 94
        6
 95
        1
302
GRIDFORMAT
  1
GRIDFORMAT_BEGIN
 90
        0
 91
        1
 62
     0
 92
       -2
340
0
 93
        0
 40
0.045
309
GRIDFORMAT_END
 95
        2
302
GRIDFORMAT
  1
GRIDFORMAT_BEGIN
 90
        0
 91
        1
 62
     0
 92
       -2
340
0
 93
        0
 40
0.045
309
GRIDFORMAT_END
 95
        4
302
GRIDFORMAT
  1
GRIDFORMAT_BEGIN
 90
        0
 91
        1
 62
     0
 92
       -2
340
0
 93
        0
 40
0.045
309
GRIDFORMAT_END
 95
        8
302
GRIDFORMAT
  1
GRIDFORMAT_BEGIN
 90
        0
 91
        1
 62
     0
 92
       -2
340
0
 93
        0
 40
0.045
309
GRIDFORMAT_END
 95
       16
302
GRIDFORMAT
  1
GRIDFORMAT_BEGIN
 90
        0
 91
        1
 62
     0
 92
       -2
340
0
 93
        0
 40
0.045
309
GRIDFORMAT_END
 95
       32
302
GRIDFORMAT
  1
GRIDFORMAT_BEGIN
 90
        0
 91
        1
 62
     0
 92
       -2
340
0
 93
        0
 40
0.045
309
GRIDFORMAT_END
309
TABLEFORMAT_END
  1
CELLSTYLE_BEGIN
 90
        2
 91
        1
300
_HEADER
309
CELLSTYLE_END
300
CELLSTYLE
  1
TABLEFORMAT_BEGIN
 90
        5
170
     1
 91
        0
 92
        0
 62
   257
 93
        1
300
CONTENTFORMAT
  1
CONTENTFORMAT_BEGIN
 90
        0
 91
        0
 92
      512
 93
        0
300

 40
0.0
140
1.0
 94
        2
 62
     0
340
F
144
0.18
309
CONTENTFORMAT_END
171
     1
301
MARGIN
  1
CELLMARGIN_BEGIN
 40
0.06
 40
0.06
 40
0.06
 40
0.06
 40
0.18
 40
0.18
309
CELLMARGIN_END
 94
        6
 95
        1
302
GRIDFORMAT
  1
GRIDFORMAT_BEGIN
 90
        0
 91
        1
 62
     0
 92
       -2
340
0
 93
        0
 40
0.045
309
GRIDFORMAT_END
 95
        2
302
GRIDFORMAT
  1
GRIDFORMAT_BEGIN
 90
        0
 91
        1
 62
     0
 92
       -2
340
0
 93
        0
 40
0.045
309
GRIDFORMAT_END
 95
        4
302
GRIDFORMAT
  1
GRIDFORMAT_BEGIN
 90
        0
 91
        1
 62
     0
 92
       -2
340
0
 93
        0
 40
0.045
309
GRIDFORMAT_END
 95
        8
302
GRIDFORMAT
  1
GRIDFORMAT_BEGIN
 90
        0
 91
        1
 62
     0
 92
       -2
340
0
 93
        0
 40
0.045
309
GRIDFORMAT_END
 95
       16
302
GRIDFORMAT
  1
GRIDFORMAT_BEGIN
 90
        0
 91
        1
 62
     0
 92
       -2
340
0
 93
        0
 40
0.045
309
GRIDFORMAT_END
 95
       32
302
GRIDFORMAT
  1
GRIDFORMAT_BEGIN
 90
        0
 91
        1
 62
     0
 92
       -2
340
0
 93
        0
 40
0.045
309
GRIDFORMAT_END
309
TABLEFORMAT_END
  1
CELLSTYLE_BEGIN
 90
        3
 91
        2
300
_DATA
309
CELLSTYLE_END
  0
ENDSEC
  0
SECTION
  2
ACDSDATA
 70
     2
 71
     8
  0
ACDSSCHEMA
 90
        0
  1
AcDb_Thumbnail_Schema
  2
AcDbDs::ID
280
    10
 91
        8
  2
Thumbnail_Data
280
    15
 91
        0
101
ACDSRECORD
 95
        0
 90
        1
  2
AcDbDs::TreatedAsObjectData
280
     1
291
     1
101
ACDSRECORD
 95
        0
 90
        2
  2
AcDbDs::Legacy
280
     1
291
     1
101
ACDSRECORD
  1
AcDbDs::ID
 90
        3
  2
AcDs:Indexable
280
     1
291
     1
101
ACDSRECORD
  1
AcDbDs::ID
 90
        4
  2
AcDbDs::HandleAttribute
280
     7
282
     1
  0
ACDSSCHEMA
 90
        1
  1
AcDbDs::TreatedAsObjectDataSchema
  2
AcDbDs::TreatedAsObjectData
280
     1
 91
        0
  0
ACDSSCHEMA
 90
        2
  1
AcDbDs::LegacySchema
  2
AcDbDs::Legacy
280
     1
 91
        0
  0
ACDSSCHEMA
 90
        3
  1
AcDbDs::IndexedPropertySchema
  2
AcDs:Indexable
280
     1
 91
        0
  0
ACDSSCHEMA
 90
        4
  1
AcDbDs::HandleAttributeSchema
  2
AcDbDs::HandleAttribute
280
     7
 91
        1
284
     1
  0
ACDSRECORD
 90
        0
  2
AcDbDs::ID
280
    10
320
CA9
  2
Thumbnail_Data
280
    15
 94
     1269
310
89504E470D0A1A0A0000000D494844520000010000000076080300000010A0BD3C00000300504C5445000000FFFFFF0000000000000000000000000000000000000000000000000000000000330000660000990000CC0000FF0033000033330033660033990033CC0033FF0066000066330066660066990066CC0066FF0099
310
000099330099660099990099CC0099FF00CC0000CC3300CC6600CC9900CCCC00CCFF00FF0000FF3300FF6600FF9900FFCC00FFFF3300003300333300663300993300CC3300FF3333003333333333663333993333CC3333FF3366003366333366663366993366CC3366FF3399003399333399663399993399CC3399FF33CC00
310
33CC3333CC6633CC9933CCCC33CCFF33FF0033FF3333FF6633FF9933FFCC33FFFF6600006600336600666600996600CC6600FF6633006633336633666633996633CC6633FF6666006666336666666666996666CC6666FF6699006699336699666699996699CC6699FF66CC0066CC3366CC6666CC9966CCCC66CCFF66FF0066
310
FF3366FF6666FF9966FFCC66FFFF9900009900339900669900999900CC9900FF9933009933339933669933999933CC9933FF9966009966339966669966999966CC9966FF9999009999339999669999999999CC9999FF99CC0099CC3399CC6699CC9999CCCC99CCFF99FF0099FF3399FF6699FF9999FFCC99FFFFCC0000CC00
310
33CC0066CC0099CC00CCCC00FFCC3300CC3333CC3366CC3399CC33CCCC33FFCC6600CC6633CC6666CC6699CC66CCCC66FFCC9900CC9933CC9966CC9999CC99CCCC99FFCCCC00CCCC33CCCC66CCCC99CCCCCCCCCCFFCCFF00CCFF33CCFF66CCFF99CCFFCCCCFFFFFF0000FF0033FF0066FF0099FF00CCFF00FFFF3300FF3333
310
FF3366FF3399FF33CCFF33FFFF6600FF6633FF6666FF6699FF66CCFF66FFFF9900FF9933FF9966FF9999FF99CCFF99FFFFCC00FFCC33FFCC66FFCC99FFCCCCFFCCFFFFFF00FFFF33FFFF66FFFF99FFFFCCFFFFFF0000000D0D0D1A1A1A2828283535354343435050505D5D5D6B6B6B787878868686939393A1A1A1AEAEAEBB
310
BBBBC9C9C9D6D6D6E4E4E4F1F1F1FFFFFF0000000000000000000000000000000000000000000000000000000000003AE5ACE9000001B04944415478DAED9C41B2C220100539CE6C72FFCBE41AEC7F4A088202C62AAD2FF3BA171AD44A490B03038921000000000000000000000000007C94EDABAC2060D993230001084000
310
023EF61DCF716B4F4F362AD8A54F9DE3DF4A027271DF6F4FD629CCDF680BEB0AF8E9B322000108F89A801CD6845B405F8065620F852E90C6B6104353DB5498597028A07680004101A5DA5E05980D82E0BD0528C600BB0B08A25DC0D463807817100A82F2C3E0201740C0ABA9B0B90F822F9221EF02DA86D029090A30531430
310
C6792E30991C795B115AE1AC08400002FE6B227404BEE92AB0F7A9F053422C28E0211D90E902A14AFCAEED89F85D1069F2C1E4406741643FB83D54C82D893D1EFADA1B1CED0B3CAD80A86D8ED62B22CC0411800004A84D85690108400002102021E08D7D01D916B04D774ABB8992330167E5CA5D91E33B25370901931B467D
310
0AC8C9F1F1C38B768153409CED166747EB09B0EB413007C2A650CA31BDE07A14A86ADA1510971460D7BB40B932A2BD40A25C317138F03D0AC4A6CAE5FD188A801563C015D24FBC0DC6C1581F2C2760C1932300010840C027BEA3FADFE8000000000000000000C04FF007873514360B8CD2450000000049454E44AE426082
  0
ENDSEC
  0
EOF
