  0
SECTION
  2
HEADER
  9
$ACADVER
  1
AC1015
  9
$ACADMAINTVER
 70
    20
  9
$DWGCODEPAGE
  3
ANSI_1252
  9
$INSBASE
 10
0.0
 20
0.0
 30
0.0
  9
$EXTMIN
 10
0.0
 20
-0.0000000000000007
 30
0.0
  9
$EXTMAX
 10
5.525
 20
4.25
 30
0.0
  9
$LIMMIN
 10
0.0
 20
0.0
  9
$LIMMAX
 10
12.0
 20
9.0
  9
$ORTHOMODE
 70
     0
  9
$REGENMODE
 70
     1
  9
$FILLMODE
 70
     1
  9
$QTEXTMODE
 70
     0
  9
$MIRRTEXT
 70
     1
  9
$LTSCALE
 40
0.25
  9
$ATTMODE
 70
     1
  9
$TEXTSIZE
 40
0.078
  9
$TRACEWID
 40
0.05
  9
$TEXTSTYLE
  7
SIMPLEX
  9
$CLAYER
  8
3
  9
$CELTYPE
  6
BYLAYER
  9
$CECOLOR
 62
   256
  9
$CELTSCALE
 40
1.0
  9
$DISPSILH
 70
     0
  9
$DIMSCALE
 40
0.5
  9
$DIMASZ
 40
0.125
  9
$DIMEXO
 40
0.0625
  9
$DIMDLI
 40
0.38
  9
$DIMRND
 40
0.0
  9
$DIMDLE
 40
0.0
  9
$DIMEXE
 40
0.0625
  9
$DIMTP
 40
0.0
  9
$DIMTM
 40
0.0
  9
$DIMTXT
 40
0.125
  9
$DIMCEN
 40
-0.125
  9
$DIMTSZ
 40
0.0
  9
$DIMTOL
 70
     0
  9
$DIMLIM
 70
     0
  9
$DIMTIH
 70
     0
  9
$DIMTOH
 70
     0
  9
$DIMSE1
 70
     0
  9
$DIMSE2
 70
     0
  9
$DIMTAD
 70
     0
  9
$DIMZIN
 70
     4
  9
$DIMBLK
  1

  9
$DIMASO
 70
     1
  9
$DIMSHO
 70
     0
  9
$DIMPOST
  1

  9
$DIMAPOST
  1

  9
$DIMALT
 70
     0
  9
$DIMALTD
 70
     2
  9
$DIMALTF
 40
25.4
  9
$DIMLFAC
 40
1.0
  9
$DIMTOFL
 70
     0
  9
$DIMTVP
 40
0.0
  9
$DIMTIX
 70
     0
  9
$DIMSOXD
 70
     0
  9
$DIMSAH
 70
     0
  9
$DIMBLK1
  1

  9
$DIMBLK2
  1

  9
$DIMSTYLE
  2
STANDARD
  9
$DIMCLRD
 70
     0
  9
$DIMCLRE
 70
     0
  9
$DIMCLRT
 70
     0
  9
$DIMTFAC
 40
1.0
  9
$DIMGAP
 40
0.09
  9
$DIMJUST
 70
     0
  9
$DIMSD1
 70
     0
  9
$DIMSD2
 70
     0
  9
$DIMTOLJ
 70
     1
  9
$DIMTZIN
 70
     4
  9
$DIMALTZ
 70
     4
  9
$DIMALTTZ
 70
     4
  9
$DIMUPT
 70
     0
  9
$DIMDEC
 70
     5
  9
$DIMTDEC
 70
     3
  9
$DIMALTU
 70
     2
  9
$DIMALTTD
 70
     2
  9
$DIMTXSTY
  7
SIMPLEX
  9
$DIMAUNIT
 70
     0
  9
$DIMADEC
 70
     0
  9
$DIMALTRND
 40
0.0
  9
$DIMAZIN
 70
     0
  9
$DIMDSEP
 70
    46
  9
$DIMATFIT
 70
     3
  9
$DIMFRAC
 70
     0
  9
$DIMLDRBLK
  1

  9
$DIMLUNIT
 70
     5
  9
$DIMLWD
 70
    -2
  9
$DIMLWE
 70
    -2
  9
$DIMTMOVE
 70
     2
  9
$LUNITS
 70
     2
  9
$LUPREC
 70
     3
  9
$SKETCHINC
 40
0.1
  9
$FILLETRAD
 40
0.0
  9
$AUNITS
 70
     0
  9
$AUPREC
 70
     2
  9
$MENU
  1
ACAD
  9
$ELEVATION
 40
0.0
  9
$PELEVATION
 40
0.0
  9
$THICKNESS
 40
0.0
  9
$LIMCHECK
 70
     0
  9
$CHAMFERA
 40
0.0
  9
$CHAMFERB
 40
0.0
  9
$CHAMFERC
 40
0.0
  9
$CHAMFERD
 40
0.0
  9
$SKPOLY
 70
     0
  9
$TDCREATE
 40
2449051.539295139
  9
$TDUCREATE
 40
2449051.705961806
  9
$TDUPDATE
 40
2457155.534567929
  9
$TDUUPDATE
 40
2457155.701234595
  9
$TDINDWG
 40
0.2312521528
  9
$TDUSRTIMER
 40
0.2312521412
  9
$USRTIMER
 70
     1
  9
$ANGBASE
 50
0.0
  9
$ANGDIR
 70
     0
  9
$PDMODE
 70
     0
  9
$PDSIZE
 40
0.0
  9
$PLINEWID
 40
0.0
  9
$SPLFRAME
 70
     0
  9
$SPLINETYPE
 70
     6
  9
$SPLINESEGS
 70
     8
  9
$HANDSEED
  5
1093
  9
$SURFTAB1
 70
     6
  9
$SURFTAB2
 70
     6
  9
$SURFTYPE
 70
     6
  9
$SURFU
 70
     6
  9
$SURFV
 70
     6
  9
$UCSBASE
  2

  9
$UCSNAME
  2

  9
$UCSORG
 10
0.0
 20
0.0
 30
0.0
  9
$UCSXDIR
 10
1.0
 20
0.0
 30
0.0
  9
$UCSYDIR
 10
0.0
 20
1.0
 30
0.0
  9
$UCSORTHOREF
  2

  9
$UCSORTHOVIEW
 70
     0
  9
$UCSORGTOP
 10
0.0
 20
0.0
 30
0.0
  9
$UCSORGBOTTOM
 10
0.0
 20
0.0
 30
0.0
  9
$UCSORGLEFT
 10
0.0
 20
0.0
 30
0.0
  9
$UCSORGRIGHT
 10
0.0
 20
0.0
 30
0.0
  9
$UCSORGFRONT
 10
0.0
 20
0.0
 30
0.0
  9
$UCSORGBACK
 10
0.0
 20
0.0
 30
0.0
  9
$PUCSBASE
  2

  9
$PUCSNAME
  2

  9
$PUCSORG
 10
0.0
 20
0.0
 30
0.0
  9
$PUCSXDIR
 10
1.0
 20
0.0
 30
0.0
  9
$PUCSYDIR
 10
0.0
 20
1.0
 30
0.0
  9
$PUCSORTHOREF
  2

  9
$PUCSORTHOVIEW
 70
     0
  9
$PUCSORGTOP
 10
0.0
 20
0.0
 30
0.0
  9
$PUCSORGBOTTOM
 10
0.0
 20
0.0
 30
0.0
  9
$PUCSORGLEFT
 10
0.0
 20
0.0
 30
0.0
  9
$PUCSORGRIGHT
 10
0.0
 20
0.0
 30
0.0
  9
$PUCSORGFRONT
 10
0.0
 20
0.0
 30
0.0
  9
$PUCSORGBACK
 10
0.0
 20
0.0
 30
0.0
  9
$USERI1
 70
     0
  9
$USERI2
 70
     0
  9
$USERI3
 70
     0
  9
$USERI4
 70
     0
  9
$USERI5
 70
     0
  9
$USERR1
 40
0.0
  9
$USERR2
 40
0.0
  9
$USERR3
 40
0.0
  9
$USERR4
 40
0.0
  9
$USERR5
 40
0.0
  9
$WORLDVIEW
 70
     1
  9
$SHADEDGE
 70
     3
  9
$SHADEDIF
 70
    70
  9
$TILEMODE
 70
     1
  9
$MAXACTVP
 70
    16
  9
$PINSBASE
 10
0.0
 20
0.0
 30
0.0
  9
$PLIMCHECK
 70
     0
  9
$PEXTMIN
 10
1.000000000000000E+20
 20
1.000000000000000E+20
 30
1.000000000000000E+20
  9
$PEXTMAX
 10
-1.000000000000000E+20
 20
-1.000000000000000E+20
 30
-1.000000000000000E+20
  9
$PLIMMIN
 10
0.0
 20
0.0
  9
$PLIMMAX
 10
12.0
 20
9.0
  9
$UNITMODE
 70
     0
  9
$VISRETAIN
 70
     0
  9
$PLINEGEN
 70
     0
  9
$PSLTSCALE
 70
     0
  9
$TREEDEPTH
 70
  3020
  9
$CMLSTYLE
  2
STANDARD
  9
$CMLJUST
 70
     0
  9
$CMLSCALE
 40
1.0
  9
$PROXYGRAPHICS
 70
     1
  9
$MEASUREMENT
 70
     0
  9
$CELWEIGHT
370
    -1
  9
$ENDCAPS
280
     0
  9
$JOINSTYLE
280
     0
  9
$LWDISPLAY
290
     0
  9
$INSUNITS
 70
     0
  9
$HYPERLINKBASE
  1

  9
$STYLESHEET
  1

  9
$XEDIT
290
     1
  9
$CEPSNTYPE
380
     0
  9
$PSTYLEMODE
290
     1
  9
$FINGERPRINTGUID
  2
{E6A6C75F-0EE1-4191-B8F7-5C2CC15B37DC}
  9
$VERSIONGUID
  2
{1D6D2515-B845-4FEC-93C2-79EE3C11531F}
  9
$EXTNAMES
290
     1
  9
$PSVPSCALE
 40
0.0
  9
$OLESTARTUP
290
     0
  0
ENDSEC
  0
SECTION
  2
CLASSES
  0
CLASS
  1
DICTIONARYVAR
  2
AcDbDictionaryVar
  3
ObjectDBX Classes
 90
        0
280
     0
281
     0
  0
CLASS
  1
ACDBDICTIONARYWDFLT
  2
AcDbDictionaryWithDefault
  3
ObjectDBX Classes
 90
        0
280
     0
281
     0
  0
CLASS
  1
MATERIAL
  2
AcDbMaterial
  3
ObjectDBX Classes
 90
     1153
280
     0
281
     0
  0
CLASS
  1
VISUALSTYLE
  2
AcDbVisualStyle
  3
ObjectDBX Classes
 90
     4095
280
     0
281
     0
  0
CLASS
  1
TABLESTYLE
  2
AcDbTableStyle
  3
ObjectDBX Classes
 90
     4095
280
     0
281
     0
  0
CLASS
  1
SCALE
  2
AcDbScale
  3
ObjectDBX Classes
 90
     1153
280
     0
281
     0
  0
CLASS
  1
MLEADERSTYLE
  2
AcDbMLeaderStyle
  3
ACDB_MLEADERSTYLE_CLASS
 90
     4095
280
     0
281
     0
  0
CLASS
  1
ACDBSECTIONVIEWSTYLE
  2
AcDbSectionViewStyle
  3
ObjectDBX Classes
 90
     1025
280
     0
281
     0
  0
CLASS
  1
ACDBDETAILVIEWSTYLE
  2
AcDbDetailViewStyle
  3
ObjectDBX Classes
 90
     1025
280
     0
281
     0
  0
CLASS
  1
CELLSTYLEMAP
  2
AcDbCellStyleMap
  3
ObjectDBX Classes
 90
     1152
280
     0
281
     0
  0
CLASS
  1
ACDBPLACEHOLDER
  2
AcDbPlaceHolder
  3
ObjectDBX Classes
 90
        0
280
     0
281
     0
  0
CLASS
  1
LAYOUT
  2
AcDbLayout
  3
ObjectDBX Classes
 90
        0
280
     0
281
     0
  0
ENDSEC
  0
SECTION
  2
TABLES
  0
TABLE
  2
VPORT
  5
8
330
0
100
AcDbSymbolTable
 70
     1
  0
VPORT
  5
F6D
330
8
100
AcDbSymbolTableRecord
100
AcDbViewportTableRecord
  2
*ACTIVE
 70
     0
 10
0.0
 20
0.0
 11
1.0
 21
1.0
 12
2.961870821927923
 22
2.397322387092302
 13
0.0
 23
0.0
 14
1.0
 24
1.0
 15
0.0
 25
0.0
 16
0.0
 26
0.0
 36
1.0
 17
0.0
 27
0.0
 37
0.0
 40
7.09973292136993
 41
2.080545229244113
 42
50.0
 43
0.0
 44
0.0
 50
0.0
 51
0.0
 71
     0
 72
   250
 73
     1
 74
     0
 75
     0
 76
     0
 77
     0
 78
     0
281
     0
 65
     1
110
0.0
120
0.0
130
0.0
111
1.0
121
0.0
131
0.0
112
0.0
122
1.0
132
0.0
 79
     0
146
0.0
1001
ACAD_NAV_VCDISPLAY
1070
     3
  0
ENDTAB
  0
TABLE
  2
LTYPE
  5
5
330
0
100
AcDbSymbolTable
 70
     1
  0
LTYPE
  5
11
330
5
100
AcDbSymbolTableRecord
100
AcDbLinetypeTableRecord
  2
BYBLOCK
 70
     0
  3

 72
    65
 73
     0
 40
0.0
  0
LTYPE
  5
12
330
5
100
AcDbSymbolTableRecord
100
AcDbLinetypeTableRecord
  2
BYLAYER
 70
     0
  3

 72
    65
 73
     0
 40
0.0
  0
LTYPE
  5
13
330
5
100
AcDbSymbolTableRecord
100
AcDbLinetypeTableRecord
  2
CONTINUOUS
 70
     0
  3
Solid line
 72
    65
 73
     0
 40
0.0
  0
ENDTAB
  0
TABLE
  2
LAYER
  5
2
102
{ACAD_XDICTIONARY
360
FD8
102
}
330
0
100
AcDbSymbolTable
 70
     5
  0
LAYER
  5
E
102
{ACAD_XDICTIONARY
360
FCD
102
}
330
2
100
AcDbSymbolTableRecord
100
AcDbLayerTableRecord
  2
0
 70
     0
 62
     7
  6
CONTINUOUS
370
    -3
390
F70
  0
LAYER
  5
24
102
{ACAD_XDICTIONARY
360
FCF
102
}
330
2
100
AcDbSymbolTableRecord
100
AcDbLayerTableRecord
  2
3
 70
     0
 62
     3
  6
CONTINUOUS
370
    -3
390
F70
  0
LAYER
  5
B1A
330
2
100
AcDbSymbolTableRecord
100
AcDbLayerTableRecord
  2
DEFPOINTS
 70
     0
 62
     7
  6
CONTINUOUS
290
     0
370
    -3
390
F70
  0
LAYER
  5
CF5
102
{ACAD_XDICTIONARY
360
FD1
102
}
330
2
100
AcDbSymbolTableRecord
100
AcDbLayerTableRecord
  2
2
 70
     0
 62
     2
  6
CONTINUOUS
370
    -3
390
F70
  0
LAYER
  5
CF6
102
{ACAD_XDICTIONARY
360
FD3
102
}
330
2
100
AcDbSymbolTableRecord
100
AcDbLayerTableRecord
  2
4
 70
     0
 62
     4
  6
CONTINUOUS
370
    -3
390
F70
  0
ENDTAB
  0
TABLE
  2
STYLE
  5
3
330
0
100
AcDbSymbolTable
 70
     3
  0
STYLE
  5
F
330
3
100
AcDbSymbolTableRecord
100
AcDbTextStyleTableRecord
  2
STANDARD
 70
     0
 40
0.0
 41
1.0
 50
0.0
 71
     0
 42
0.2
  3
txt
  4

  0
STYLE
  5
1C
330
3
100
AcDbSymbolTableRecord
100
AcDbTextStyleTableRecord
  2
SIMPLEX
 70
     0
 40
0.0
 41
1.0
 50
0.0
 71
     0
 42
0.078
  3
SIMPLEX.shx
  4

  0
STYLE
  5
CF7
330
3
100
AcDbSymbolTableRecord
100
AcDbTextStyleTableRecord
  2
T
 70
     0
 40
0.0
 41
1.0
 50
0.0
 71
     0
 42
1.0
  3
ROMI____.PFB
  4

  0
ENDTAB
  0
TABLE
  2
VIEW
  5
6
330
0
100
AcDbSymbolTable
 70
     0
  0
ENDTAB
  0
TABLE
  2
UCS
  5
7
330
0
100
AcDbSymbolTable
 70
     0
  0
ENDTAB
  0
TABLE
  2
APPID
  5
9
330
0
100
AcDbSymbolTable
 70
     4
  0
APPID
  5
10
330
9
100
AcDbSymbolTableRecord
100
AcDbRegAppTableRecord
  2
ACAD
 70
     0
  0
APPID
  5
FC6
330
9
100
AcDbSymbolTableRecord
100
AcDbRegAppTableRecord
  2
ACAD_EXEMPT_FROM_CAD_STANDARDS
 70
     0
  0
APPID
  5
FDE
330
9
100
AcDbSymbolTableRecord
100
AcDbRegAppTableRecord
  2
ACAD_NAV_VCDISPLAY
 70
     0
  0
APPID
  5
108A
330
9
100
AcDbSymbolTableRecord
100
AcDbRegAppTableRecord
  2
ACAD_MLEADERVER
 70
     0
  0
ENDTAB
  0
TABLE
  2
DIMSTYLE
  5
A
330
0
100
AcDbSymbolTable
 70
     1
100
AcDbDimStyleTable
 71
     1
340
B05
  0
DIMSTYLE
105
B05
102
{ACAD_REACTORS
330
F2E
330
F2F
330
F30
330
F35
102
}
330
A
100
AcDbSymbolTableRecord
100
AcDbDimStyleTableRecord
  2
STANDARD
 70
     0
340
F
  0
ENDTAB
  0
TABLE
  2
BLOCK_RECORD
  5
1
330
0
100
AcDbSymbolTable
 70
     4
  0
BLOCK_RECORD
  5
17
330
1
100
AcDbSymbolTableRecord
100
AcDbBlockTableRecord
  2
*MODEL_SPACE
340
FC0
  0
BLOCK_RECORD
  5
14
330
1
100
AcDbSymbolTableRecord
100
AcDbBlockTableRecord
  2
*PAPER_SPACE
340
FC1
  0
BLOCK_RECORD
  5
E6C
330
1
100
AcDbSymbolTableRecord
100
AcDbBlockTableRecord
  2
*D0
340
0
  0
BLOCK_RECORD
  5
E78
330
1
100
AcDbSymbolTableRecord
100
AcDbBlockTableRecord
  2
*D1
340
0
  0
BLOCK_RECORD
  5
E85
330
1
100
AcDbSymbolTableRecord
100
AcDbBlockTableRecord
  2
*D2
340
0
  0
BLOCK_RECORD
  5
E92
330
1
100
AcDbSymbolTableRecord
100
AcDbBlockTableRecord
  2
*D3
340
0
  0
ENDTAB
  0
ENDSEC
  0
SECTION
  2
BLOCKS
  0
BLOCK
  5
29
330
17
100
AcDbEntity
  8
0
100
AcDbBlockBegin
  2
*MODEL_SPACE
 70
     0
 10
0.0
 20
0.0
 30
0.0
  3
*MODEL_SPACE
  1

  0
ENDBLK
  5
2A
330
17
100
AcDbEntity
  8
0
100
AcDbBlockEnd
  0
BLOCK
  5
27
330
14
100
AcDbEntity
 67
     1
  8
0
100
AcDbBlockBegin
  2
*PAPER_SPACE
 70
     0
 10
0.0
 20
0.0
 30
0.0
  3
*PAPER_SPACE
  1

  0
ENDBLK
  5
28
330
14
100
AcDbEntity
 67
     1
  8
0
100
AcDbBlockEnd
  0
BLOCK
  5
F36
330
E6C
100
AcDbEntity
  8
0
100
AcDbBlockBegin
  2
*D0
 70
     1
 10
0.0
 20
0.0
 30
0.0
  3
*D0
  1

  0
LINE
  5
F37
330
E6C
100
AcDbEntity
  8
0
  6
ByBlock
 62
     0
100
AcDbLine
 10
1.203180873009346
 20
2.842085396051551
 30
0.0
 11
0.9462658195912078
 21
2.842085396051551
 31
0.0
  0
LINE
  5
F38
330
E6C
100
AcDbEntity
  8
0
  6
ByBlock
 62
     0
100
AcDbLine
 10
1.203180873009346
 20
2.529585396051553
 30
0.0
 11
0.9462658195912075
 21
2.529585396051553
 31
0.0
  0
LINE
  5
F39
330
E6C
100
AcDbEntity
  8
0
  6
ByBlock
 62
     0
100
AcDbLine
 10
0.9775158195912078
 20
2.779585396051551
 30
0.0
 11
0.9775158195912075
 21
2.592085396051553
 31
0.0
  0
MTEXT
  5
F3A
330
E6C
100
AcDbEntity
  8
0
  6
ByBlock
 62
     0
100
AcDbMText
 10
0.773111057686446
 20
2.685835396051553
 30
0.0
 40
0.0625
 41
0.0
 71
     5
 72
     1
  1
\A1;5/16
  7
SIMPLEX
 73
     1
 44
1.0
1001
ACAD
1000
MTEXTBEGIN
1070
    73
1070
     1
1070
    44
1040
1.0
1070
    74
1070
     0
1000
MTEXTEND
  0
SOLID
  5
F3B
330
E6C
100
AcDbEntity
  8
0
  6
ByBlock
 62
     0
100
AcDbTrace
 10
0.9670991529245412
 20
2.779585396051551
 30
0.0
 11
0.9879324862578744
 21
2.779585396051551
 31
0.0
 12
0.9775158195912078
 22
2.842085396051551
 32
0.0
 13
0.9775158195912078
 23
2.842085396051551
 33
0.0
  0
SOLID
  5
F3C
330
E6C
100
AcDbEntity
  8
0
  6
ByBlock
 62
     0
100
AcDbTrace
 10
0.9670991529245409
 20
2.592085396051553
 30
0.0
 11
0.9879324862578744
 21
2.592085396051553
 31
0.0
 12
0.9775158195912075
 22
2.529585396051553
 32
0.0
 13
0.9775158195912075
 23
2.529585396051553
 33
0.0
  0
POINT
  5
F3D
330
E6C
100
AcDbEntity
  8
DEFPOINTS
  6
ByBlock
 62
     0
100
AcDbPoint
 10
1.234430873009346
 20
2.842085396051551
 30
0.0
  0
POINT
  5
F3E
330
E6C
100
AcDbEntity
  8
DEFPOINTS
  6
ByBlock
 62
     0
100
AcDbPoint
 10
1.234430873009346
 20
2.529585396051553
 30
0.0
  0
POINT
  5
F3F
330
E6C
100
AcDbEntity
  8
DEFPOINTS
  6
ByBlock
 62
     0
100
AcDbPoint
 10
0.9775158195912075
 20
2.529585396051553
 30
0.0
  0
ENDBLK
  5
F40
330
E6C
100
AcDbEntity
  8
0
100
AcDbBlockEnd
  0
BLOCK
  5
F41
330
E78
100
AcDbEntity
  8
0
100
AcDbBlockBegin
  2
*D1
 70
     1
 10
0.0
 20
0.0
 30
0.0
  3
*D1
  1

  0
LINE
  5
F42
330
E78
100
AcDbEntity
  8
0
  6
ByBlock
 62
     0
100
AcDbLine
 10
3.326609817128507
 20
2.498335396051553
 30
0.0
 11
3.326609817128507
 21
2.225440095649814
 31
0.0
  0
LINE
  5
F43
330
E78
100
AcDbEntity
  8
0
  6
ByBlock
 62
     0
100
AcDbLine
 10
4.430409817128508
 20
2.498335396051553
 30
0.0
 11
4.430409817128508
 21
2.225440095649814
 31
0.0
  0
LINE
  5
F44
330
E78
100
AcDbEntity
  8
0
  6
ByBlock
 62
     0
100
AcDbLine
 10
3.389109817128507
 20
2.256690095649814
 30
0.0
 11
3.668331245699934
 21
2.256690095649814
 31
0.0
  0
LINE
  5
F45
330
E78
100
AcDbEntity
  8
0
  6
ByBlock
 62
     0
100
AcDbLine
 10
4.367909817128508
 20
2.256690095649814
 30
0.0
 11
4.088688388557078
 21
2.256690095649814
 31
0.0
  0
SOLID
  5
F46
330
E78
100
AcDbEntity
  8
0
  6
ByBlock
 62
     0
100
AcDbTrace
 10
3.389109817128507
 20
2.267106762316479
 30
0.0
 11
3.389109817128507
 21
2.246273428983146
 31
0.0
 12
3.326609817128507
 22
2.256690095649814
 32
0.0
 13
3.326609817128507
 23
2.256690095649814
 33
0.0
  0
SOLID
  5
F47
330
E78
100
AcDbEntity
  8
0
  6
ByBlock
 62
     0
100
AcDbTrace
 10
4.367909817128508
 20
2.267106762316479
 30
0.0
 11
4.367909817128508
 21
2.246273428983146
 31
0.0
 12
4.430409817128508
 22
2.256690095649814
 32
0.0
 13
4.430409817128508
 23
2.256690095649814
 33
0.0
  0
MTEXT
  5
F48
330
E78
100
AcDbEntity
  8
0
  6
ByBlock
 62
     0
100
AcDbMText
 10
3.878509817128506
 20
2.256690095649814
 30
0.0
 40
0.0625
 41
0.0
 71
     5
 72
     1
  1
\A1;1 3/32
  7
SIMPLEX
 73
     1
 44
1.0
1001
ACAD
1000
MTEXTBEGIN
1070
    73
1070
     1
1070
    44
1040
1.0
1070
    74
1070
     0
1000
MTEXTEND
  0
POINT
  5
F49
330
E78
100
AcDbEntity
  8
DEFPOINTS
  6
ByBlock
 62
     0
100
AcDbPoint
 10
3.326609817128507
 20
2.529585396051553
 30
0.0
  0
POINT
  5
F4A
330
E78
100
AcDbEntity
  8
DEFPOINTS
  6
ByBlock
 62
     0
100
AcDbPoint
 10
4.430409817128508
 20
2.529585396051553
 30
0.0
  0
POINT
  5
F4B
330
E78
100
AcDbEntity
  8
DEFPOINTS
  6
ByBlock
 62
     0
100
AcDbPoint
 10
4.430409817128508
 20
2.256690095649814
 30
0.0
  0
ENDBLK
  5
F4C
330
E78
100
AcDbEntity
  8
0
100
AcDbBlockEnd
  0
BLOCK
  5
F4D
330
E85
100
AcDbEntity
  8
0
100
AcDbBlockBegin
  2
*D2
 70
     1
 10
0.0
 20
0.0
 30
0.0
  3
*D2
  1

  0
LINE
  5
F4E
330
E85
100
AcDbEntity
  8
0
  6
ByBlock
 62
     0
100
AcDbLine
 10
1.234430873009346
 20
2.498335396051553
 30
0.0
 11
1.234430873009346
 21
2.225440095649814
 31
0.0
  0
LINE
  5
F4F
330
E85
100
AcDbEntity
  8
0
  6
ByBlock
 62
     0
100
AcDbLine
 10
2.431980873009345
 20
2.498335396051553
 30
0.0
 11
2.431980873009345
 21
2.225440095649814
 31
0.0
  0
LINE
  5
F50
330
E85
100
AcDbEntity
  8
0
  6
ByBlock
 62
     0
100
AcDbLine
 10
1.296930873009346
 20
2.256690095649814
 30
0.0
 11
1.630467777771249
 21
2.256690095649814
 31
0.0
  0
LINE
  5
F51
330
E85
100
AcDbEntity
  8
0
  6
ByBlock
 62
     0
100
AcDbLine
 10
2.369480873009345
 20
2.256690095649814
 30
0.0
 11
2.03594396824744
 21
2.256690095649814
 31
0.0
  0
SOLID
  5
F52
330
E85
100
AcDbEntity
  8
0
  6
ByBlock
 62
     0
100
AcDbTrace
 10
1.296930873009346
 20
2.267106762316479
 30
0.0
 11
1.296930873009346
 21
2.246273428983146
 31
0.0
 12
1.234430873009346
 22
2.256690095649814
 32
0.0
 13
1.234430873009346
 23
2.256690095649814
 33
0.0
  0
SOLID
  5
F53
330
E85
100
AcDbEntity
  8
0
  6
ByBlock
 62
     0
100
AcDbTrace
 10
2.369480873009345
 20
2.267106762316479
 30
0.0
 11
2.369480873009345
 21
2.246273428983146
 31
0.0
 12
2.431980873009345
 22
2.256690095649814
 32
0.0
 13
2.431980873009345
 23
2.256690095649814
 33
0.0
  0
MTEXT
  5
F54
330
E85
100
AcDbEntity
  8
0
  6
ByBlock
 62
     0
100
AcDbMText
 10
1.833205873009345
 20
2.256690095649814
 30
0.0
 40
0.0625
 41
0.0
 71
     5
 72
     1
  1
\A1;1 3/16
  7
SIMPLEX
 73
     1
 44
1.0
1001
ACAD
1000
MTEXTBEGIN
1070
    73
1070
     1
1070
    44
1040
1.0
1070
    74
1070
     0
1000
MTEXTEND
  0
POINT
  5
F55
330
E85
100
AcDbEntity
  8
DEFPOINTS
  6
ByBlock
 62
     0
100
AcDbPoint
 10
1.234430873009346
 20
2.529585396051553
 30
0.0
  0
POINT
  5
F56
330
E85
100
AcDbEntity
  8
DEFPOINTS
  6
ByBlock
 62
     0
100
AcDbPoint
 10
2.431980873009345
 20
2.529585396051553
 30
0.0
  0
POINT
  5
F57
330
E85
100
AcDbEntity
  8
DEFPOINTS
  6
ByBlock
 62
     0
100
AcDbPoint
 10
2.431980873009345
 20
2.256690095649814
 30
0.0
  0
ENDBLK
  5
F58
330
E85
100
AcDbEntity
  8
0
100
AcDbBlockEnd
  0
BLOCK
  5
F59
330
E92
100
AcDbEntity
  8
0
100
AcDbBlockBegin
  2
*D3
 70
     1
 10
0.0
 20
0.0
 30
0.0
  3
*D3
  1

  0
LINE
  5
F5A
330
E92
100
AcDbEntity
  8
0
  6
ByBlock
 62
     0
100
AcDbLine
 10
3.295359817128507
 20
2.842085396051551
 30
0.0
 11
3.058487292402678
 21
2.842085396051551
 31
0.0
  0
LINE
  5
F5B
330
E92
100
AcDbEntity
  8
0
  6
ByBlock
 62
     0
100
AcDbLine
 10
3.295359817128507
 20
2.529585396051553
 30
0.0
 11
3.058487292402678
 21
2.529585396051553
 31
0.0
  0
LINE
  5
F5C
330
E92
100
AcDbEntity
  8
0
  6
ByBlock
 62
     0
100
AcDbLine
 10
3.089737292402678
 20
2.779585396051551
 30
0.0
 11
3.089737292402678
 21
2.592085396051553
 31
0.0
  0
MTEXT
  5
F5D
330
E92
100
AcDbEntity
  8
0
  6
ByBlock
 62
     0
100
AcDbMText
 10
2.885332530497917
 20
2.685835396051553
 30
0.0
 40
0.0625
 41
0.0
 71
     5
 72
     1
  1
\A1;5/16
  7
SIMPLEX
 73
     1
 44
1.0
1001
ACAD
1000
MTEXTBEGIN
1070
    73
1070
     1
1070
    44
1040
1.0
1070
    74
1070
     0
1000
MTEXTEND
  0
SOLID
  5
F5E
330
E92
100
AcDbEntity
  8
0
  6
ByBlock
 62
     0
100
AcDbTrace
 10
3.079320625736011
 20
2.779585396051551
 30
0.0
 11
3.100153959069344
 21
2.779585396051551
 31
0.0
 12
3.089737292402678
 22
2.842085396051551
 32
0.0
 13
3.089737292402678
 23
2.842085396051551
 33
0.0
  0
SOLID
  5
F5F
330
E92
100
AcDbEntity
  8
0
  6
ByBlock
 62
     0
100
AcDbTrace
 10
3.079320625736011
 20
2.592085396051553
 30
0.0
 11
3.100153959069344
 21
2.592085396051553
 31
0.0
 12
3.089737292402678
 22
2.529585396051553
 32
0.0
 13
3.089737292402678
 23
2.529585396051553
 33
0.0
  0
POINT
  5
F60
330
E92
100
AcDbEntity
  8
DEFPOINTS
  6
ByBlock
 62
     0
100
AcDbPoint
 10
3.326609817128507
 20
2.842085396051551
 30
0.0
  0
POINT
  5
F61
330
E92
100
AcDbEntity
  8
DEFPOINTS
  6
ByBlock
 62
     0
100
AcDbPoint
 10
3.326609817128507
 20
2.529585396051553
 30
0.0
  0
POINT
  5
F62
330
E92
100
AcDbEntity
  8
DEFPOINTS
  6
ByBlock
 62
     0
100
AcDbPoint
 10
3.089737292402678
 20
2.529585396051553
 30
0.0
  0
ENDBLK
  5
F63
330
E92
100
AcDbEntity
  8
0
100
AcDbBlockEnd
  0
ENDSEC
  0
SECTION
  2
ENTITIES
  0
LINE
  5
E9E
330
17
100
AcDbEntity
  8
0
100
AcDbLine
 10
2.515463770247667
 20
0.7907614910692598
 30
0.0
 11
3.023453708637739
 21
0.7907614910692598
 31
0.0
  0
LINE
  5
E9F
330
17
100
AcDbEntity
  8
0
100
AcDbLine
 10
2.515463770247667
 20
0.8493757147296443
 30
0.0
 11
3.023453708637739
 21
0.8493757147296443
 31
0.0
  0
TEXT
  5
EA0
330
17
100
AcDbEntity
  8
3
100
AcDbText
 10
2.530749094796046
 20
0.8085053807423868
 30
0.0
 40
0.0247685554963471
  1
DIMENSIONS ARE IN INCHES
 41
0.9163641132346473
  7
SIMPLEX
 72
     5
 11
3.007386418059825
 21
0.8085053807423868
 31
0.0
100
AcDbText
  0
TEXT
  5
EA1
330
17
100
AcDbEntity
  8
3
100
AcDbText
 10
2.530749094796046
 20
0.8686223556239712
 30
0.0
 40
0.0247685554963471
  1
UNLESS OTHERWISE SPECIFIED
 41
0.8436671689696863
  7
SIMPLEX
 72
     5
 11
3.007386418059825
 21
0.8686223556239712
 31
0.0
100
AcDbText
  0
LINE
  5
EA2
330
17
100
AcDbEntity
  8
0
100
AcDbLine
 10
2.515463770247667
 20
0.470365214478237
 30
0.0
 11
3.023453708637739
 21
0.470365214478237
 31
0.0
  0
LINE
  5
EA3
330
17
100
AcDbEntity
  8
0
100
AcDbLine
 10
2.515463770247667
 20
0.9080003499999783
 30
0.0
 11
5.087499999999998
 21
0.9080003499999783
 31
0.0
  0
LINE
  5
EA6
330
17
100
AcDbEntity
  8
4
100
AcDbLine
 10
5.525
 20
-0.0000000000000007
 30
0.0
 11
0.0
 21
0.0
 31
0.0
  0
LINE
  5
EA7
330
17
100
AcDbEntity
  8
4
100
AcDbLine
 10
5.087499999999998
 20
0.3999999999999994
 30
0.0
 11
0.4375000000000001
 21
0.4
 31
0.0
  0
LINE
  5
EA8
330
17
100
AcDbEntity
  8
4
100
AcDbLine
 10
5.087499999999998
 20
3.849999999999998
 30
0.0
 11
0.4375000000000001
 21
3.849999999999998
 31
0.0
  0
LINE
  5
EA9
330
17
100
AcDbEntity
  8
4
100
AcDbLine
 10
0.0
 20
0.0
 30
0.0
 11
0.0000000000000001
 21
4.249999999999999
 31
0.0
  0
LINE
  5
EAA
330
17
100
AcDbEntity
  8
4
100
AcDbLine
 10
0.4375000000000001
 20
0.3999999999999999
 30
0.0
 11
0.4375000000000001
 21
3.849999999999998
 31
0.0
  0
LINE
  5
EAF
330
17
100
AcDbEntity
  8
3
100
AcDbLine
 10
0.4997541236310516
 20
0.9859375
 30
0.0
 11
0.4375000000000001
 21
0.9859375
 31
0.0
  0
TEXT
  5
EB0
330
17
100
AcDbEntity
  8
2
100
AcDbText
 10
0.451562683102331
 20
1.32725451580751
 30
0.0
 40
0.039
  1
4
  7
SIMPLEX
 72
     1
 11
0.4654912545309024
 21
1.32725451580751
 31
0.0
100
AcDbText
  0
LINE
  5
EB1
330
17
100
AcDbEntity
  8
3
100
AcDbLine
 10
0.4997541236310516
 20
1.701953125
 30
0.0
 11
0.4375000000000001
 21
1.701953125
 31
0.0
  0
TEXT
  5
EB2
330
17
100
AcDbEntity
  8
2
100
AcDbText
 10
0.4524912545309016
 20
2.015287115886783
 30
0.0
 40
0.039
  1
3
  7
SIMPLEX
 72
     1
 11
0.4654912545309016
 21
2.015287115886783
 31
0.0
100
AcDbText
  0
LINE
  5
EB3
330
17
100
AcDbEntity
  8
4
100
AcDbLine
 10
2.515463770247667
 20
0.9080003499999783
 30
0.0
 11
2.515463770247667
 21
0.3999999999999781
 31
0.0
  0
TEXT
  5
EBF
330
17
100
AcDbEntity
  8
3
100
AcDbText
 10
2.603645037256163
 20
0.4837903071869251
 30
0.0
 40
0.0309098445084086
  1
HOLES %%P .005
  7
SIMPLEX
 72
     1
 11
2.771441336016095
 21
0.4837903071869251
 31
0.0
100
AcDbText
  0
TEXT
  5
EC0
330
17
100
AcDbEntity
  8
3
100
AcDbText
 10
2.648975444724134
 20
0.4390075042868843
 30
0.0
 40
0.0210186942657178
  1
DO NOT SCALE
  7
SIMPLEX
 72
     1
 11
2.767080488693406
 21
0.4390075042868843
 31
0.0
100
AcDbText
  0
TEXT
  5
EC1
330
17
100
AcDbEntity
  8
3
100
AcDbText
 10
2.630959421067805
 20
0.4090610619738455
 30
0.0
 40
0.0210186942657178
  1
READ ALL NOTES
  7
SIMPLEX
 72
     1
 11
2.767080488693406
 21
0.4090610619738455
 31
0.0
100
AcDbText
  0
TEXT
  5
EC2
330
17
100
AcDbEntity
  8
3
100
AcDbText
 10
2.627931343655627
 20
0.7437735996279118
 30
0.0
 40
0.0309098445084086
  1
TOLERANCES
  7
SIMPLEX
 72
     1
 11
2.771441336016095
 21
0.7437735996279118
 31
0.0
100
AcDbText
  0
TEXT
  5
EC3
330
17
100
AcDbEntity
  8
3
100
AcDbText
 10
2.643386265909831
 20
0.6957435266731649
 30
0.0
 40
0.0309098445084086
  1
.XX %%P .010
  7
SIMPLEX
 72
     1
 11
2.771441336016095
 21
0.6957435266731649
 31
0.0
100
AcDbText
  0
TEXT
  5
EC4
330
17
100
AcDbEntity
  8
3
100
AcDbText
 10
2.607324780650021
 20
0.6427552218015995
 30
0.0
 40
0.0309098445084086
  1
.XXX %%P .005 
  7
SIMPLEX
 72
     1
 11
2.771441336016095
 21
0.6427552218015995
 31
0.0
100
AcDbText
  0
TEXT
  5
EC5
330
17
100
AcDbEntity
  8
3
100
AcDbText
 10
2.589662012359501
 20
0.5367786120584901
 30
0.0
 40
0.0309098445084086
  1
ANGLES %%P 1/2%%D
  7
SIMPLEX
 72
     1
 11
2.771441336016095
 21
0.5367786120584901
 31
0.0
100
AcDbText
  0
TEXT
  5
EC6
330
17
100
AcDbEntity
  8
3
100
AcDbText
 10
2.544769142954432
 20
0.5897669169300555
 30
0.0
 40
0.0309098445084086
  1
FRACTIONS %%P 1/32
  7
SIMPLEX
 72
     1
 11
2.771441336016095
 21
0.5897669169300555
 31
0.0
100
AcDbText
  0
LINE
  5
EC9
330
17
100
AcDbEntity
  8
3
100
AcDbLine
 10
0.4997541236310516
 20
2.41796875
 30
0.0
 11
0.4375000000000001
 21
2.41796875
 31
0.0
  0
TEXT
  5
ECA
330
17
100
AcDbEntity
  8
2
100
AcDbText
 10
0.457784802821876
 20
2.728760659287496
 30
0.0
 40
0.039
  1
2
  7
SIMPLEX
 72
     1
 11
0.470784802821876
 21
2.728760659287496
 31
0.0
100
AcDbText
  0
LINE
  5
ECB
330
17
100
AcDbEntity
  8
3
100
AcDbLine
 10
0.4997541236310516
 20
3.133984374999998
 30
0.0
 11
0.4375000000000001
 21
3.133984374999998
 31
0.0
  0
TEXT
  5
ECC
330
17
100
AcDbEntity
  8
2
100
AcDbText
 10
0.4608483973880454
 20
3.448040936982698
 30
0.0
 40
0.039
  1
1
  7
SIMPLEX
 72
     1
 11
0.4654912545309024
 21
3.448040936982698
 31
0.0
100
AcDbText
  0
TEXT
  5
ECD
330
17
100
AcDbEntity
  8
2
100
AcDbText
 10
0.9233020597463571
 20
3.786279509760205
 30
0.0
 40
0.039
  1
A
  7
SIMPLEX
 72
     1
 11
0.9381592026035001
 21
3.786279509760205
 31
0.0
100
AcDbText
  0
LINE
  5
ECE
330
17
100
AcDbEntity
  8
3
100
AcDbLine
 10
1.316009878505441
 20
3.787563112303041
 30
0.0
 11
1.316009878505441
 21
3.85
 31
0.0
  0
TEXT
  5
ECF
330
17
100
AcDbEntity
  8
2
100
AcDbText
 10
1.684820131100889
 20
3.786279509760205
 30
0.0
 40
0.039
  1
B
  7
SIMPLEX
 72
     1
 11
1.697820131100889
 21
3.786279509760205
 31
0.0
100
AcDbText
  0
LINE
  5
ED0
330
17
100
AcDbEntity
  8
3
100
AcDbLine
 10
2.070307902804351
 20
3.787563112303041
 30
0.0
 11
2.070307902804351
 21
3.85
 31
0.0
  0
TEXT
  5
ED1
330
17
100
AcDbEntity
  8
2
100
AcDbText
 10
2.421691742025896
 20
3.786279509760205
 30
0.0
 40
0.039
  1
C
  7
SIMPLEX
 72
     1
 11
2.435620313454468
 21
3.786279509760205
 31
0.0
100
AcDbText
  0
LINE
  5
ED2
330
17
100
AcDbEntity
  8
3
100
AcDbLine
 10
2.824605927103263
 20
3.787563112303041
 30
0.0
 11
2.824605927103263
 21
3.85
 31
0.0
  0
LINE
  5
ED3
330
17
100
AcDbEntity
  8
4
100
AcDbLine
 10
5.524999999999997
 20
4.25
 30
0.0
 11
5.525
 21
-0.0000000000000007
 31
0.0
  0
LINE
  5
ED4
330
17
100
AcDbEntity
  8
4
100
AcDbLine
 10
5.087499999999998
 20
3.849999999999998
 30
0.0
 11
5.0875
 21
0.4000000000000003
 31
0.0
  0
TEXT
  5
ED5
330
17
100
AcDbEntity
  8
4
100
AcDbText
 10
4.692893459569394
 20
0.7886849639948839
 30
0.0
 40
0.047
  1
inc., erie, pa.
  7
T
100
AcDbText
  0
TEXT
  5
ED6
330
17
100
AcDbEntity
  8
3
100
AcDbText
 10
4.802472048449138
 20
0.5780697219512656
 30
0.0
 40
0.0195380745534632
  1
SCALE:
  7
SIMPLEX
100
AcDbText
  0
TEXT
  5
ED7
330
17
100
AcDbEntity
  8
3
100
AcDbText
 10
4.482214472248318
 20
0.4294761699672533
 30
0.0
 40
0.0437652869997576
  1
220.54/55
  7
SIMPLEX
 72
     1
 11
4.655191558961646
 21
0.4294761699672533
 31
0.0
100
AcDbText
  0
LINE
  5
ED8
330
17
100
AcDbEntity
  8
0
100
AcDbLine
 10
4.386742347626951
 20
0.544418568244936
 30
0.0
 11
5.0875
 21
0.544418568244936
 31
0.0
  0
LINE
  5
ED9
330
17
100
AcDbEntity
  8
0
100
AcDbLine
 10
3.023453708637718
 20
0.7534255236954444
 30
0.0
 11
5.0875
 21
0.7534255236954444
 31
0.0
  0
LINE
  5
EDA
330
17
100
AcDbEntity
  8
0
100
AcDbLine
 10
3.023453708637718
 20
0.6344568946415388
 30
0.0
 11
5.0875
 21
0.6344568946415388
 31
0.0
  0
LWPOLYLINE
  5
EDB
330
17
100
AcDbEntity
  8
4
  6
Continuous
 62
     4
100
AcDbPolyline
 90
      205
 70
     0
 43
0.0
 10
4.656789889684825
 20
0.8557195830449487
 10
4.654837388665996
 20
0.8577443989163207
 10
4.652740257942038
 20
0.8595522702300595
 10
4.650353867807923
 20
0.8611431969861435
 10
4.647822847968675
 20
0.8625894940371383
 10
4.645147198424362
 20
0.8637465316779342
 10
4.64239923402746
 20
0.8646866247610759
 10
4.639506639925492
 20
0.8654097732865629
 10
4.636541730970979
 20
0.865915977254416
 10
4.6335045071639
 20
0.8661329218120712
 10
4.63046728335682
 20
0.8662052366646156
 10
4.627430059549743
 20
0.8660606069595267
 10
4.624392835742662
 20
0.8656267178442176
 10
4.621427926788126
 20
0.8649758841712751
 10
4.618535332686136
 20
0.8641081059406779
 10
4.615787368289278
 20
0.8630233831524476
 10
4.613111718744923
 20
0.8617217158065413
 10
4.61108690287355
 20
0.8604923633132004
 10
4.609206716707268
 20
0.8591183811147713
 10
4.607398845393528
 20
0.8576720840637761
 10
4.60573560378488
 20
0.8560811573076922
 10
4.604144677028817
 20
0.8543456008464982
 10
4.602698379977799
 20
0.8524654146802156
 10
4.601324397779372
 20
0.8505852285139321
 10
4.600167360138575
 20
0.8485604126425393
 10
4.599082637350345
 20
0.8464632819186018
 10
4.598142544267203
 20
0.8442938363421195
 10
4.597419395741716
 20
0.8421243907656377
 10
4.596840876921318
 20
0.8398826303366108
 10
4.596406987806006
 20
0.8375685550550189
 10
4.596117728395808
 20
0.8352544797734481
 10
4.596045413543264
 20
0.8329404044918561
 10
4.596190043248376
 20
0.8306263292102853
 10
4.596262358100918
 20
0.8293969767169445
 10
4.596406987806006
 20
0.8282399390761487
 10
4.596551617511098
 20
0.8270105865828082
 10
4.596840876921318
 20
0.8258535489420122
 10
4.597274766036605
 20
0.8247688261537607
 10
4.597780970004438
 20
0.8237564182180745
 10
4.59857643338249
 20
0.8229609548400221
 10
4.599516526465633
 20
0.8223824360196454
 10
4.599950415580941
 20
0.8221654914619907
 10
4.600384304696228
 20
0.82202086175688
 10
4.600890508664083
 20
0.82202086175688
 10
4.601324397779372
 20
0.82202086175688
 10
4.601830601747224
 20
0.82202086175688
 10
4.602336805715077
 20
0.8220931766094462
 10
4.602915324535476
 20
0.8222378063145349
 10
4.603566158208416
 20
0.8223101211670794
 10
4.625043669415605
 20
0.826070493499667
 10
4.625983762498748
 20
0.8262151232047557
 10
4.626996170434431
 20
0.8262874380572997
 10
4.627936263517595
 20
0.8264320677624104
 10
4.628948671453259
 20
0.8264320677624104
 10
4.629888764536421
 20
0.8265043826149547
 10
4.630901172472108
 20
0.8265043826149547
 10
4.631841265555252
 20
0.8264320677624104
 10
4.632853673490958
 20
0.8263597529098657
 10
4.633793766574076
 20
0.8262874380572997
 10
4.634806174509785
 20
0.8261428083522112
 10
4.635746267592925
 20
0.8259981786471009
 10
4.636686360676065
 20
0.8257812340894673
 10
4.637626453759209
 20
0.8255642895318132
 10
4.63856654684235
 20
0.8253473449741584
 10
4.639506639925492
 20
0.8250580855639594
 10
4.640374418156089
 20
0.8246965113012159
 10
4.642543863732591
 20
0.8235394736604199
 10
4.644351735046309
 20
0.8219485469043359
 10
4.645653402392215
 20
0.8200683607380533
 10
4.646593495475335
 20
0.8178989151615713
 10
4.647099699443191
 20
0.8156571547325448
 10
4.647172014295735
 20
0.8132707645984083
 10
4.646882754885556
 20
0.8108843744642717
 10
4.646159606360048
 20
0.8084979843301345
 10
4.64543645783454
 20
0.8069793724265954
 10
4.644640994456509
 20
0.8055330753756003
 10
4.643628586520803
 20
0.8042314080297153
 10
4.642543863732591
 20
0.8030020555363748
 10
4.641386826091798
 20
0.8018450178955788
 10
4.640085158745891
 20
0.8008326099598928
 10
4.638638861694896
 20
0.7999648317292958
 10
4.63719256464392
 20
0.7991693683512647
 10
4.63567395274038
 20
0.7985185346783008
 10
4.634155340836842
 20
0.7980846455630131
 10
4.632492099228191
 20
0.7977230713002697
 10
4.630901172472108
 20
0.7975061267426149
 10
4.629310245716025
 20
0.7974338118900706
 10
4.627647004107375
 20
0.7975784415951594
 10
4.62605607735129
 20
0.7978677010053583
 10
4.624465150595206
 20
0.7983739049732117
 10
4.623163483249321
 20
0.798880108941066
 10
4.621934130755983
 20
0.7994586277614424
 10
4.620704778262641
 20
0.8000371465818405
 10
4.619547740621844
 20
0.8007602951073485
 10
4.618390702981049
 20
0.8014834436328355
 10
4.617305980192798
 20
0.8022789070108878
 10
4.616293572257132
 20
0.8031466852414851
 10
4.61520884946888
 20
0.8040867783246261
 10
4.614268756385716
 20
0.8050268714077677
 10
4.613328663302598
 20
0.8059669644909096
 10
4.612388570219434
 20
0.8069793724265954
 10
4.61152079198886
 20
0.8080640952148471
 10
4.61065301375824
 20
0.8091488180030776
 10
4.609857550380209
 20
0.8102335407913292
 10
4.609062087002181
 20
0.8113182635795595
 10
4.608338938476672
 20
0.8124753012203552
 10
4.591128003569903
 20
0.8040867783246261
 10
4.592501985768333
 20
0.8018450178955788
 10
4.594092912524418
 20
0.7997478871716415
 10
4.59582846898561
 20
0.797795386152814
 10
4.597708655151893
 20
0.7960598296916201
 10
4.599733471023288
 20
0.7943965880829916
 10
4.601902916599771
 20
0.7929502910319966
 10
4.604216991881362
 20
0.7916486236861116
 10
4.606531067162931
 20
0.7905639008978599
 10
4.608989772149633
 20
0.7896238078147185
 10
4.61152079198886
 20
0.7888283444366869
 10
4.614124126680629
 20
0.7882498256162891
 10
4.6167274613724
 20
0.7878882513535457
 10
4.61933079606419
 20
0.787671306795891
 10
4.621934130755983
 20
0.787671306795891
 10
4.624537465447753
 20
0.7878159365009796
 10
4.627140800139521
 20
0.7882498256162891
 10
4.629744134831334
 20
0.7888283444366869
 10
4.632275154670559
 20
0.7896961226672628
 10
4.634661544804696
 20
0.79070853060297
 10
4.637047934938811
 20
0.7919378830963102
 10
4.639289695367836
 20
0.7933841801473056
 10
4.64145914094434
 20
0.7949751069033897
 10
4.643411641963167
 20
0.796710663364562
 10
4.645291828129451
 20
0.7985908495308665
 10
4.647027384590644
 20
0.8006156654022383
 10
4.648545996494184
 20
0.8027851109787198
 10
4.649919978692636
 20
0.8050268714077677
 10
4.651149331185954
 20
0.8074132615419046
 10
4.652089424269096
 20
0.8098719665285859
 10
4.652884887647148
 20
0.8124029863678108
 10
4.653463406467547
 20
0.8150063210595808
 10
4.653752665877746
 20
0.8176096557513719
 10
4.653897295582835
 20
0.8196344716227653
 10
4.65382498073029
 20
0.8216592874941369
 10
4.653608036172657
 20
0.8236841033655304
 10
4.65324646190989
 20
0.8256366043843579
 10
4.652667943089495
 20
0.8275891054032067
 10
4.651944794564006
 20
0.8294692915694895
 10
4.65107701633341
 20
0.8312771628832273
 10
4.64999229354518
 20
0.8330127193444006
 10
4.649124515314562
 20
0.8340974421326521
 10
4.648184422231441
 20
0.8351821649208828
 10
4.647172014295735
 20
0.836122258004045
 10
4.646087291507504
 20
0.8369177213820769
 10
4.644857939014141
 20
0.8377131847601294
 10
4.643628586520803
 20
0.838436333285616
 10
4.642326919174918
 20
0.8390148521060144
 10
4.641025251829031
 20
0.839593370926412
 10
4.639651269630601
 20
0.8400272600416997
 10
4.638277287432151
 20
0.8404611491570094
 10
4.636830990381158
 20
0.8408227234197527
 10
4.635384693330181
 20
0.8411119828299518
 10
4.633938396279186
 20
0.8413289273876063
 10
4.632492099228191
 20
0.8414735570926952
 10
4.631045802177219
 20
0.8416181867977837
 10
4.629671819978768
 20
0.8416905016503497
 10
4.62880404174817
 20
0.8416905016503497
 10
4.627863948665029
 20
0.8416905016503497
 10
4.626996170434431
 20
0.8416905016503497
 10
4.626128392203858
 20
0.8416181867977837
 10
4.625260613973241
 20
0.8415458719452395
 10
4.624392835742662
 20
0.8414735570926952
 10
4.623525057512066
 20
0.8414012422401507
 10
4.622657279281469
 20
0.8412566125350405
 10
4.621717186198328
 20
0.8411119828299518
 10
4.62084940796773
 20
0.8409673531248412
 10
4.619981629737133
 20
0.8408227234197527
 10
4.619113851506535
 20
0.8407504085672082
 10
4.61824607327596
 20
0.840605778862098
 10
4.617378295045361
 20
0.8404611491570094
 10
4.616438201962222
 20
0.8403165194518994
 10
4.615570423731624
 20
0.8401718897468102
 10
4.602626065125255
 20
0.8369900362346211
 10
4.602409120567623
 20
0.8382193887279614
 10
4.60255375027271
 20
0.8400995748942657
 10
4.602987639388021
 20
0.8424136501758368
 10
4.603855417618596
 20
0.8450169848676274
 10
4.604940140406846
 20
0.8476203195593976
 10
4.606386437457842
 20
0.8500790245460787
 10
4.608121993919017
 20
0.8521038404174721
 10
4.610074494937864
 20
0.8536224523210114
 10
4.611810051399038
 20
0.8544179156990423
 10
4.613617922712776
 20
0.8550687493720062
 10
4.615498108879058
 20
0.8554303236347497
 10
4.617450609897908
 20
0.8557195830449487
 10
4.619403110916757
 20
0.8557918978974932
 10
4.621427926788126
 20
0.8556472681923832
 10
4.623380427806957
 20
0.8554303236347497
 10
4.625332928825804
 20
0.8549964345194407
 10
4.627285429844632
 20
0.8544179156990423
 10
4.62909330115837
 20
0.8536947671735557
 10
4.630828857619543
 20
0.8528269889429589
 10
4.632492099228191
 20
0.8518868958598172
 10
4.634010711131731
 20
0.8508021730715871
 10
4.635457008182726
 20
0.8495728205782462
 10
4.636686360676065
 20
0.8482711532323401
 10
4.637698768611773
 20
0.846897171033911
 10
4.656789889684825
 20
0.8557195830449487
  0
LWPOLYLINE
  5
EDC
330
17
100
AcDbEntity
  8
4
  6
Continuous
100
AcDbPolyline
 90
       21
 70
     0
 43
0.0
 10
4.456892716839432
 20
0.8489219869052826
 10
4.456675772281757
 20
0.8466802264762558
 10
4.456024938608813
 20
0.844583095752319
 10
4.455012530673127
 20
0.8427752244385802
 10
4.453638548474676
 20
0.841184297682496
 10
4.451975306866071
 20
0.8398826303366108
 10
4.450095120699766
 20
0.8389425372534699
 10
4.448070304828373
 20
0.8383640184330714
 10
4.445900859251912
 20
0.8381470738754169
 10
4.431365573889459
 20
0.8381470738754169
 10
4.431365573889459
 20
0.8567319909806347
 10
4.4298469619859
 20
0.8602754187555675
 10
4.446117803809545
 20
0.8602754187555675
 10
4.448359564238592
 20
0.860058474197913
 10
4.450384380109965
 20
0.8594076405249705
 10
4.452192251423702
 20
0.8583952325892632
 10
4.453783178179809
 20
0.8570212503908336
 10
4.455084845525695
 20
0.8552856939296397
 10
4.456024938608813
 20
0.8534055077633567
 10
4.456675772281757
 20
0.8512360621868747
 10
4.456892716839432
 20
0.8489219869052826
  0
LWPOLYLINE
  5
EDD
330
17
100
AcDbEntity
  8
4
  6
Continuous
100
AcDbPolyline
 90
       61
 70
     0
 43
0.0
 10
4.457254291102156
 20
0.8325788302291128
 10
4.459351421826113
 20
0.832723459934202
 10
4.461376237697486
 20
0.8330127193444006
 10
4.463184109011224
 20
0.8334466084597098
 10
4.464847350619851
 20
0.8340251272801078
 10
4.466293647670847
 20
0.8347482758055948
 10
4.467667629869277
 20
0.8355437391836474
 10
4.468896982362617
 20
0.8364838322667884
 10
4.469981705150869
 20
0.8375685550550189
 10
4.470921798234032
 20
0.838725592695815
 10
4.471717261612063
 20
0.8399549451891559
 10
4.472368095285006
 20
0.8412566125350405
 10
4.472874299252858
 20
0.8427029095860357
 10
4.473308188368146
 20
0.8441492066370306
 10
4.473597447778346
 20
0.8456678185405699
 10
4.473742077483433
 20
0.8472587452966543
 10
4.473814392335999
 20
0.8489219869052826
 10
4.473742077483433
 20
0.8504405988088219
 10
4.473452818073258
 20
0.8519592107123617
 10
4.473091243810491
 20
0.8534055077633567
 10
4.472512724990096
 20
0.854851804814352
 10
4.471861891317152
 20
0.8562257870127814
 10
4.470994113086574
 20
0.8575274543586877
 10
4.470126334855958
 20
0.858756806852028
 10
4.469041612067726
 20
0.859913844492803
 10
4.467956889279497
 20
0.8609262524285099
 10
4.466727536786154
 20
0.8618663455116513
 10
4.465425869440271
 20
0.862661808889683
 10
4.46405188724182
 20
0.8633849574151909
 10
4.462677905043371
 20
0.8639634762355886
 10
4.461231607992396
 20
0.8643250504983321
 10
4.459712996088834
 20
0.8646143099085318
 10
4.458194384185317
 20
0.8646866247610759
 10
4.407501672548137
 20
0.8646866247610759
 10
4.408224821073623
 20
0.8641081059406779
 10
4.408875654746566
 20
0.8635295871202796
 10
4.409526488419508
 20
0.8628787534473371
 10
4.410105007239907
 20
0.8623002346269393
 10
4.410683526060306
 20
0.8617217158065413
 10
4.411262044880701
 20
0.8609985672810545
 10
4.411768248848557
 20
0.8602754187555675
 10
4.412274452816387
 20
0.8594076405249705
 10
4.412997601341897
 20
0.8578167137688863
 10
4.413576120162295
 20
0.8559365276025822
 10
4.413937694425016
 20
0.8541286562888434
 10
4.414082324130126
 20
0.8526823592378697
 10
4.414154638982691
 20
0.787671306795891
 10
4.431582518447092
 20
0.8029297406838303
 10
4.431582518447092
 20
0.8330850341969664
 10
4.439247892817356
 20
0.8331573490495106
 10
4.465353554587704
 20
0.7899130672249175
 10
4.487843473730578
 20
0.789768437519829
 10
4.486469491532148
 20
0.7905639008978599
 10
4.485095509333718
 20
0.7915039939810016
 10
4.483793841987833
 20
0.7924440870641642
 10
4.482564489494493
 20
0.7935288098523943
 10
4.481335137001153
 20
0.7945412177880802
 10
4.480178099360357
 20
0.7956982554288765
 10
4.479021061719561
 20
0.7968552930696724
 10
4.477864024078765
 20
0.7980846455630131
 10
4.457254291102156
 20
0.8325788302291128
  0
LWPOLYLINE
  5
EDE
330
17
100
AcDbEntity
  8
4
  6
Continuous
100
AcDbPolyline
 90
      205
 70
     0
 43
0.0
 10
4.325728170742718
 20
0.8562257870127814
 10
4.32377566972389
 20
0.8582506028841745
 10
4.321678538999951
 20
0.8601307890504571
 10
4.319292148865816
 20
0.8617217158065413
 10
4.31676112902659
 20
0.8630956980049917
 10
4.314085479482256
 20
0.8642527356457883
 10
4.311337515085376
 20
0.8651928287289294
 10
4.308372606130863
 20
0.865915977254416
 10
4.305407697176328
 20
0.8664221812222701
 10
4.302442788221791
 20
0.8667114406324692
 10
4.299405564414714
 20
0.8667837554850134
 10
4.296296025755092
 20
0.8665668109273585
 10
4.293331116800557
 20
0.8662052366646156
 10
4.290366207846021
 20
0.8655544029916729
 10
4.287473613744053
 20
0.8646866247610759
 10
4.284725649347175
 20
0.8635295871202796
 10
4.282049999802858
 20
0.8622279197743946
 10
4.280025183931443
 20
0.8609985672810545
 10
4.278144997765162
 20
0.8596968999351695
 10
4.276337126451423
 20
0.8581782880316302
 10
4.274673884842793
 20
0.8565873612755458
 10
4.27308295808671
 20
0.854851804814352
 10
4.271636661035739
 20
0.8530439335006132
 10
4.27033499368983
 20
0.8510914324817861
 10
4.269105641196488
 20
0.8490666166103931
 10
4.268093233260803
 20
0.8470418007389993
 10
4.267153140177642
 20
0.8448723551625175
 10
4.266429991652153
 20
0.8426305947334913
 10
4.265851472831754
 20
0.8403888343044647
 10
4.265417583716468
 20
0.8381470738754169
 10
4.265200639158813
 20
0.8358329985938466
 10
4.265056009453726
 20
0.8334466084597098
 10
4.265200639158813
 20
0.8311325331781173
 10
4.265272954011358
 20
0.8299754955373215
 10
4.265417583716468
 20
0.8287461430439806
 10
4.265562213421578
 20
0.8275891054032067
 10
4.265851472831754
 20
0.8264320677624104
 10
4.266213047094522
 20
0.8253473449741584
 10
4.266791565914918
 20
0.8243349370384724
 10
4.267514714440406
 20
0.8235394736604199
 10
4.268454807523548
 20
0.8229609548400221
 10
4.268888696638835
 20
0.8227440102823887
 10
4.269322585754143
 20
0.8225993805772784
 10
4.269828789721998
 20
0.8225270657247341
 10
4.270262678837263
 20
0.8225270657247341
 10
4.27076888280512
 20
0.8225993805772784
 10
4.271275086772972
 20
0.8225993805772784
 10
4.271781290740826
 20
0.8227440102823887
 10
4.272432124413768
 20
0.8228163251349332
 10
4.293909635620953
 20
0.826576697467499
 10
4.294849728704118
 20
0.8267213271726088
 10
4.295862136639783
 20
0.8268659568776982
 10
4.296802229722946
 20
0.8269382717302422
 10
4.297814637658631
 20
0.8270105865828082
 10
4.298754730741771
 20
0.8270105865828082
 10
4.299767138677478
 20
0.8270105865828082
 10
4.3007072317606
 20
0.8270105865828082
 10
4.301719639696305
 20
0.8269382717302422
 10
4.302659732779428
 20
0.8268659568776982
 10
4.303672140715136
 20
0.8267213271726088
 10
4.304612233798274
 20
0.826576697467499
 10
4.305552326881418
 20
0.8263597529098657
 10
4.306564734817126
 20
0.8261428083522112
 10
4.307504827900264
 20
0.8258535489420122
 10
4.308372606130863
 20
0.8255642895318132
 10
4.309312699213982
 20
0.8252027152690697
 10
4.311482144790486
 20
0.8240456776282734
 10
4.313217701251681
 20
0.8224547508721895
 10
4.314591683450109
 20
0.8205745647059066
 10
4.315459461680687
 20
0.8184774339819691
 10
4.315965665648541
 20
0.816163358700377
 10
4.31611029535365
 20
0.8137769685662401
 10
4.315821035943451
 20
0.8113905784321254
 10
4.315097887417963
 20
0.8090765031505329
 10
4.314374738892476
 20
0.8075578912469936
 10
4.313579275514404
 20
0.8061115941959986
 10
4.312566867578738
 20
0.8048099268501136
 10
4.311482144790486
 20
0.8035805743567728
 10
4.310252792297147
 20
0.8024235367159771
 10
4.308951124951262
 20
0.801411128780291
 10
4.307577142752809
 20
0.8005433505496938
 10
4.306130845701814
 20
0.7997478871716415
 10
4.304612233798274
 20
0.7990970534986991
 10
4.303021307042191
 20
0.7985908495308665
 10
4.301430380286107
 20
0.7982292752681019
 10
4.299839453530023
 20
0.7980846455630131
 10
4.298176211921373
 20
0.7980123307104683
 10
4.296512970312723
 20
0.7981569604155574
 10
4.294922043556661
 20
0.7984462198257565
 10
4.293331116800557
 20
0.798880108941066
 10
4.292029449454673
 20
0.7993863129088977
 10
4.290800096961332
 20
0.7999648317292958
 10
4.289643059320535
 20
0.8005433505496938
 10
4.288486021679736
 20
0.8012664990751808
 10
4.287328984038963
 20
0.8019896476006888
 10
4.286244261250712
 20
0.8028574258312859
 10
4.285159538462482
 20
0.8036528892093175
 10
4.284147130526775
 20
0.8045929822924588
 10
4.283207037443633
 20
0.8055330753756003
 10
4.282194629507948
 20
0.806545483311307
 10
4.281326851277349
 20
0.8075578912469936
 10
4.280459073046753
 20
0.8085702991826796
 10
4.27959129481618
 20
0.8096550219709307
 10
4.278795831438126
 20
0.810812059611727
 10
4.278000368060073
 20
0.8118967823999575
 10
4.277277219534584
 20
0.8130538200407535
 10
4.260138599480361
 20
0.8045929822924588
 10
4.261512581678792
 20
0.8023512218634323
 10
4.263103508434897
 20
0.800326405992039
 10
4.264839064896068
 20
0.7983739049732117
 10
4.266719251062353
 20
0.7965660336594738
 10
4.268744066933747
 20
0.7949751069033897
 10
4.270913512510229
 20
0.7935288098523943
 10
4.273155272939254
 20
0.7922271425065098
 10
4.275541663073392
 20
0.7911424197182578
 10
4.278000368060073
 20
0.7902023266351163
 10
4.280459073046753
 20
0.789406863257085
 10
4.283062407738523
 20
0.7888283444366869
 10
4.285665742430313
 20
0.7883944553213778
 10
4.288269077122104
 20
0.7881775107637448
 10
4.290872411813874
 20
0.7881775107637448
 10
4.293475746505666
 20
0.7883944553213778
 10
4.296079081197436
 20
0.7887560295841212
 10
4.298682415889228
 20
0.789406863257085
 10
4.301213435728453
 20
0.7902023266351163
 10
4.303599825862589
 20
0.7912147345708234
 10
4.305986215996727
 20
0.7925164019167084
 10
4.308227976425752
 20
0.7938903841151377
 10
4.310325107149692
 20
0.7954813108712218
 10
4.31234992302106
 20
0.7972168673324159
 10
4.314230109187367
 20
0.7991693683512647
 10
4.315893350795994
 20
0.8011941842226363
 10
4.317484277552099
 20
0.8032913149465738
 10
4.318858259750529
 20
0.8056053902281661
 10
4.320015297391325
 20
0.8079917803622812
 10
4.32102770532701
 20
0.8103781704964179
 10
4.321823168705064
 20
0.8129091903356647
 10
4.322401687525461
 20
0.8155125250274345
 10
4.322690946935638
 20
0.8181881745717705
 10
4.322763261788185
 20
0.8202129904431423
 10
4.322690946935638
 20
0.8222378063145349
 10
4.322474002378006
 20
0.8241903073333624
 10
4.32211242811524
 20
0.8262151232047557
 10
4.321533909294863
 20
0.8280953093710387
 10
4.3208830756219
 20
0.8299754955373215
 10
4.320015297391325
 20
0.8317833668510598
 10
4.318930574603076
 20
0.8335189233122537
 10
4.318062796372498
 20
0.8346759609530501
 10
4.317122703289334
 20
0.8356883688887361
 10
4.31611029535365
 20
0.8366284619718776
 10
4.314953257712853
 20
0.8374962402024749
 10
4.313796220072078
 20
0.8382917035805274
 10
4.312566867578738
 20
0.8389425372534699
 10
4.31126520023283
 20
0.839593370926412
 10
4.309891218034382
 20
0.8400995748942657
 10
4.30851723583595
 20
0.840605778862098
 10
4.307143253637523
 20
0.8409673531248412
 10
4.305696956586528
 20
0.8413289273876063
 10
4.304322974388075
 20
0.8416181867977837
 10
4.302876677337103
 20
0.841835131355439
 10
4.301430380286107
 20
0.841979761060549
 10
4.299984083235115
 20
0.8421243907656377
 10
4.298610101036683
 20
0.8421967056181824
 10
4.297742322806084
 20
0.8422690204707475
 10
4.296802229722946
 20
0.8422690204707475
 10
4.295934451492348
 20
0.8421967056181824
 10
4.295066673261752
 20
0.8421967056181824
 10
4.294198895031153
 20
0.8421243907656377
 10
4.293258801948011
 20
0.8420520759130932
 10
4.292391023717437
 20
0.8419074462079828
 10
4.291523245486818
 20
0.841835131355439
 10
4.290655467256241
 20
0.8416905016503497
 10
4.289787689025623
 20
0.8415458719452395
 10
4.288847595942503
 20
0.8414012422401507
 10
4.287979817711907
 20
0.8412566125350405
 10
4.287112039481311
 20
0.8411119828299518
 10
4.286244261250712
 20
0.8409673531248412
 10
4.285304168167572
 20
0.8408227234197527
 10
4.284436389936975
 20
0.8406780937146427
 10
4.271564346183171
 20
0.8375685550550189
 10
4.271275086772972
 20
0.8387979075483599
 10
4.271419716478059
 20
0.8406780937146427
 10
4.271925920445913
 20
0.8429921689962347
 10
4.272721383823967
 20
0.8455955036880258
 10
4.273878421464742
 20
0.8481988383797958
 10
4.27532471851576
 20
0.8506575433664767
 10
4.276987960124386
 20
0.8526823592378697
 10
4.278940461143213
 20
0.8542009711414094
 10
4.280676017604408
 20
0.8549964345194407
 10
4.282483888918124
 20
0.8555749533398389
 10
4.284364075084428
 20
0.856008842455148
 10
4.286316576103279
 20
0.8562257870127814
 10
4.288269077122104
 20
0.856298101865347
 10
4.290293892993478
 20
0.8562257870127814
 10
4.292246394012305
 20
0.8559365276025822
 10
4.294198895031153
 20
0.8555026384872943
 10
4.296151396050003
 20
0.8549241196668958
 10
4.297959267363742
 20
0.8542009711414094
 10
4.299767138677478
 20
0.8534055077633567
 10
4.301430380286107
 20
0.8524654146802156
 10
4.302948992189648
 20
0.8513806918919634
 10
4.304322974388075
 20
0.8501513393986233
 10
4.305552326881418
 20
0.8488496720527383
 10
4.306637049669668
 20
0.8474756898543088
 10
4.325728170742718
 20
0.8562257870127814
  0
LWPOLYLINE
  5
EDF
330
17
100
AcDbEntity
  8
4
  6
Continuous
100
AcDbPolyline
 90
      133
 70
     0
 43
0.0
 10
4.342205690097556
 20
0.8612878266912533
 10
4.340976337604218
 20
0.8599861593453681
 10
4.339819299963421
 20
0.8584675474418288
 10
4.338806892027736
 20
0.8568766206857237
 10
4.337722169239505
 20
0.8552133790770955
 10
4.336637446451254
 20
0.8536224523210114
 10
4.335480408810457
 20
0.8520315255649272
 10
4.334323371169661
 20
0.8505852285139321
 10
4.332949388971231
 20
0.8493558760205917
 10
4.332443185003377
 20
0.8489943017578481
 10
4.331936981035524
 20
0.8486327274950834
 10
4.331430777067671
 20
0.8482711532323401
 10
4.330924573099839
 20
0.8479095789695968
 10
4.330418369132005
 20
0.8475480047068533
 10
4.329839850311609
 20
0.8471864304441098
 10
4.329261331491212
 20
0.8468248561813663
 10
4.328538182965703
 20
0.8464632819186018
 10
4.354788474441184
 20
0.8464632819186018
 10
4.353631436800387
 20
0.84552318883546
 10
4.352546714012134
 20
0.844583095752319
 10
4.351534306076429
 20
0.843643002669177
 10
4.350521898140765
 20
0.8426305947334913
 10
4.349581805057601
 20
0.8415458719452395
 10
4.348641711974459
 20
0.8404611491570094
 10
4.347773933743861
 20
0.8393764263687577
 10
4.346978470365828
 20
0.8382193887279614
 10
4.346110692135211
 20
0.8369900362346211
 10
4.345387543609725
 20
0.8356883688887361
 10
4.34466439508424
 20
0.8343143866903069
 10
4.343941246558753
 20
0.8329404044918561
 10
4.343218098033267
 20
0.8314217925883163
 10
4.342567264360301
 20
0.829903180684777
 10
4.341916430687358
 20
0.8282399390761487
 10
4.341337911866959
 20
0.8265043826149547
 10
4.340325503931275
 20
0.8226716954298233
 10
4.339746985110876
 20
0.8188390082447124
 10
4.339674670258334
 20
0.8149340062070361
 10
4.340036244521055
 20
0.8110290041693604
 10
4.34083170789913
 20
0.8072686318367946
 10
4.342133375245014
 20
0.8035805743567728
 10
4.343796616853663
 20
0.800109461434406
 10
4.345966062430123
 20
0.7969276079222169
 10
4.347050785218376
 20
0.7956259405763319
 10
4.348280137711716
 20
0.7943965880829916
 10
4.349654119910146
 20
0.7931672355896509
 10
4.351172731813706
 20
0.7920825128013993
 10
4.352691343717223
 20
0.7909977900131691
 10
4.354354585325875
 20
0.789985382077462
 10
4.356090141787069
 20
0.7891176038468859
 10
4.357898013100808
 20
0.7883221404688335
 10
4.359705884414545
 20
0.7875989919433462
 10
4.361586070580829
 20
0.7869481582704041
 10
4.363393941894566
 20
0.7864419543025503
 10
4.36527412806085
 20
0.7860803800398069
 10
4.367154314227134
 20
0.7857911206296082
 10
4.368962185540871
 20
0.7857188057770422
 10
4.37077005685461
 20
0.7857188057770422
 10
4.372505613315781
 20
0.7858634354821527
 10
4.374675058892265
 20
0.7862250097448955
 10
4.376844504468769
 20
0.7866588988602051
 10
4.378941635192683
 20
0.7872374176806032
 10
4.380966451064056
 20
0.78796056620609
 10
4.382991266935471
 20
0.7887560295841212
 10
4.384871453101752
 20
0.7896961226672628
 10
4.386751639268036
 20
0.7907808454555143
 10
4.388414880876663
 20
0.792010197948855
 10
4.390078122485292
 20
0.7933841801473056
 10
4.39152441953631
 20
0.7948304771982793
 10
4.39289840173474
 20
0.7964214039543847
 10
4.39412775422808
 20
0.7981569604155574
 10
4.395212477016331
 20
0.8000371465818405
 10
4.396080255246906
 20
0.8019896476006888
 10
4.396803403772392
 20
0.8041590931771708
 10
4.397381922592791
 20
0.8064008536061976
 10
4.39579099583673
 20
0.8050268714077677
 10
4.39412775422808
 20
0.8037975189144276
 10
4.392319882914341
 20
0.8026404812736313
 10
4.390512011600603
 20
0.8017003881904898
 10
4.38863182543432
 20
0.8008326099598928
 10
4.386679324415491
 20
0.800109461434406
 10
4.384654508544099
 20
0.7995309426140082
 10
4.382629692672706
 20
0.7990970534986991
 10
4.380604876801332
 20
0.7988077940884999
 10
4.378507746077396
 20
0.7987354792359556
 10
4.376482930206003
 20
0.7987354792359556
 10
4.374458114334633
 20
0.7989524237936099
 10
4.372433298463238
 20
0.7993139980563539
 10
4.370480797444388
 20
0.7998925168767515
 10
4.368528296425561
 20
0.8006156654022383
 10
4.366648110259278
 20
0.8014834436328355
 10
4.36484023894554
 20
0.8026404812736313
 10
4.363176997336891
 20
0.8038698337669721
 10
4.361658385433373
 20
0.8053161308179671
 10
4.360212088382378
 20
0.8068347427215066
 10
4.358982735889036
 20
0.8085702991826796
 10
4.35782569824824
 20
0.8103058556438734
 10
4.3568856051651
 20
0.8121860418101562
 10
4.356017826934501
 20
0.814138542829005
 10
4.355294678408995
 20
0.816163358700377
 10
4.354788474441184
 20
0.8181881745717705
 10
4.354354585325875
 20
0.8202853052957074
 10
4.354065325915654
 20
0.8224547508721895
 10
4.353920696210565
 20
0.8245518815961272
 10
4.353920696210565
 20
0.8267213271726088
 10
4.354065325915654
 20
0.828890772749091
 10
4.354354585325875
 20
0.8309879034730286
 10
4.355150048703906
 20
0.8334466084597098
 10
4.356017826934501
 20
0.8356160540361914
 10
4.356957920017642
 20
0.8376408699075636
 10
4.358042642805896
 20
0.8395210560738677
 10
4.359199680446693
 20
0.8413289273876063
 10
4.360573662645121
 20
0.8429921689962347
 10
4.362164589401228
 20
0.8447277254574292
 10
4.363972460714965
 20
0.8463909670660573
 10
4.377712282699342
 20
0.8463909670660573
 10
4.378507746077396
 20
0.8463909670660573
 10
4.379447839160538
 20
0.8465355967711673
 10
4.380460247096222
 20
0.8466802264762558
 10
4.38147265503191
 20
0.8469694858864551
 10
4.382485062967615
 20
0.8472587452966543
 10
4.383352841198194
 20
0.8476926344119423
 10
4.384148304576267
 20
0.8481265235272513
 10
4.384726823396642
 20
0.8487050423476496
 10
4.397888126560646
 20
0.8647589396136204
 10
4.350449583288198
 20
0.8647589396136204
 10
4.349075601089748
 20
0.8646866247610759
 10
4.347918563448951
 20
0.8646143099085318
 10
4.34683384066072
 20
0.8643973653508767
 10
4.34589374757758
 20
0.8640357910881334
 10
4.344953654494438
 20
0.8636019019728241
 10
4.344085876263841
 20
0.8630233831524476
 10
4.343145783180699
 20
0.8622279197743946
 10
4.342205690097556
 20
0.8612878266912533
  0
LWPOLYLINE
  5
EE0
330
17
100
AcDbEntity
  8
4
  6
Continuous
100
AcDbPolyline
 90
      138
 70
     0
 43
0.0
 10
4.229398641159426
 20
0.8647589396136204
 10
4.230917253062965
 20
0.8636742168253901
 10
4.232146605556304
 20
0.8624448643320492
 10
4.233159013491992
 20
0.8610708821335988
 10
4.233882162017478
 20
0.8596245850826036
 10
4.234460680837877
 20
0.8581059731790642
 10
4.234822255100644
 20
0.8565150464229798
 10
4.235039199658276
 20
0.8547794899618077
 10
4.235111514510821
 20
0.8529716186480689
 10
4.235111514510821
 20
0.7986631643834108
 10
4.233809847164936
 20
0.7986631643834108
 10
4.232508179819048
 20
0.7987354792359556
 10
4.231206512473163
 20
0.798880108941066
 10
4.229977159979823
 20
0.7990970534986991
 10
4.228675492633938
 20
0.7993863129088977
 10
4.2274461401406
 20
0.7997478871716415
 10
4.226216787647257
 20
0.8001817762869505
 10
4.225059750006462
 20
0.8006156654022383
 10
4.223830397513122
 20
0.8011941842226363
 10
4.222673359872326
 20
0.8017727030430346
 10
4.221588637084074
 20
0.8024235367159771
 10
4.220503914295843
 20
0.8031466852414851
 10
4.219419191507594
 20
0.8039421486195163
 10
4.218334468719359
 20
0.8047376119975693
 10
4.217322060783656
 20
0.8056053902281661
 10
4.216381967700534
 20
0.8064731684587421
 10
4.214718726091886
 20
0.8081364100673912
 10
4.213200114188346
 20
0.80994428138113
 10
4.211826131989896
 20
0.8118244675474134
 10
4.210596779496555
 20
0.8138492834188058
 10
4.209512056708323
 20
0.8159464141427219
 10
4.208644278477725
 20
0.8180435448666598
 10
4.207921129952238
 20
0.8202853052957074
 10
4.207414925984386
 20
0.8225270657247341
 10
4.207125666574187
 20
0.8246241964486713
 10
4.206908722016533
 20
0.8267213271726088
 10
4.206908722016533
 20
0.828890772749091
 10
4.207053351721622
 20
0.8309879034730286
 10
4.207342611131841
 20
0.8330850341969664
 10
4.207776500247129
 20
0.8351821649208828
 10
4.208427333920092
 20
0.8372069807922756
 10
4.20929511215067
 20
0.8391594818111244
 10
4.209945945823611
 20
0.8403888343044647
 10
4.210596779496555
 20
0.8416181867977837
 10
4.211247613169497
 20
0.8427752244385802
 10
4.211970761695003
 20
0.843932262079376
 10
4.212621595367949
 20
0.8450892997201723
 10
4.213344743893455
 20
0.8461740225084025
 10
4.214140207271486
 20
0.8472587452966543
 10
4.214935670649517
 20
0.8482711532323401
 10
4.215731134027591
 20
0.8493558760205917
 10
4.216526597405623
 20
0.8503682839562776
 10
4.2173943756362
 20
0.8513806918919634
 10
4.218262153866819
 20
0.8523930998276711
 10
4.219202246949937
 20
0.8533331929108122
 10
4.2201423400331
 20
0.8543456008464982
 10
4.221082433116221
 20
0.8552856939296397
 10
4.222094841051928
 20
0.856298101865347
 10
4.222962619282523
 20
0.8573105098010325
 10
4.223541138102901
 20
0.8583952325892632
 10
4.223902712365664
 20
0.8594799553775152
 10
4.223975027218211
 20
0.8605646781657668
 10
4.223902712365664
 20
0.8616494009539971
 10
4.223685767808032
 20
0.8627341237422484
 10
4.223324193545268
 20
0.8637465316779342
 10
4.222817989577413
 20
0.8647589396136204
 10
4.196856957512173
 20
0.8647589396136204
 10
4.197435476332572
 20
0.8642527356457883
 10
4.198013995152972
 20
0.8637465316779342
 10
4.198592513973347
 20
0.8632403277100806
 10
4.199171032793747
 20
0.862661808889683
 10
4.199677236761578
 20
0.8620832900693059
 10
4.200183440729431
 20
0.8614324563963425
 10
4.200617329844741
 20
0.8607816227233996
 10
4.20105121896003
 20
0.8601307890504571
 10
4.201918997190626
 20
0.8581782880316302
 10
4.202352886305935
 20
0.8560811573076922
 10
4.202352886305935
 20
0.8539117117312105
 10
4.202063626895716
 20
0.851742266154728
 10
4.201485108075319
 20
0.8494281908731363
 10
4.200545014992196
 20
0.8471864304441098
 10
4.199460292203945
 20
0.8450892997201723
 10
4.198230939710605
 20
0.8430644838487793
 10
4.19692927236472
 20
0.8410396679774072
 10
4.19555529016627
 20
0.8390871669585584
 10
4.194181307967818
 20
0.8370623510871869
 10
4.192951955474478
 20
0.8350375352157936
 10
4.191939547538813
 20
0.8330127193444006
 10
4.191071769308194
 20
0.8309879034730286
 10
4.190420935635252
 20
0.828818457896547
 10
4.1899147316674
 20
0.8266490123200437
 10
4.189625472257221
 20
0.8244795667435614
 10
4.189480842552131
 20
0.8222378063145349
 10
4.189480842552131
 20
0.8199960458855088
 10
4.189697787109765
 20
0.8177542854564608
 10
4.189987046519965
 20
0.8163079884054869
 10
4.190276305930162
 20
0.814861691354492
 10
4.190710195045473
 20
0.813415394303497
 10
4.191216399013305
 20
0.8120414121050675
 10
4.191794917833703
 20
0.810667429906617
 10
4.192445751506642
 20
0.809365762560732
 10
4.193096585179587
 20
0.8079917803622812
 10
4.19389204855764
 20
0.8067624278689407
 10
4.194687511935672
 20
0.8055330753756003
 10
4.19555529016627
 20
0.8043037228822598
 10
4.196495383249411
 20
0.8031466852414851
 10
4.197507791185118
 20
0.8019896476006888
 10
4.198520199120803
 20
0.8009049248124371
 10
4.199532607056488
 20
0.7998202020242072
 10
4.200617329844741
 20
0.7988077940884999
 10
4.201774367485536
 20
0.7978677010053583
 10
4.203076034831419
 20
0.7968552930696724
 10
4.204522331882396
 20
0.7959151999865309
 10
4.205968628933413
 20
0.7950474217559341
 10
4.207487240836931
 20
0.7942519583778817
 10
4.209078167593036
 20
0.7935288098523943
 10
4.210669094349098
 20
0.7928779761794518
 10
4.21233233595775
 20
0.7922271425065098
 10
4.213995577566397
 20
0.7917209385386559
 10
4.215658819175025
 20
0.7912870494233683
 10
4.217322060783656
 20
0.7908531603080588
 10
4.219057617244848
 20
0.7904915860453153
 10
4.220793173706042
 20
0.7902746414876609
 10
4.222456415314669
 20
0.7900576969300275
 10
4.224191971775866
 20
0.7899130672249175
 10
4.225855213384495
 20
0.789768437519829
 10
4.227518454993143
 20
0.789768437519829
 10
4.251743930597212
 20
0.789768437519829
 10
4.251743930597212
 20
0.8556472681923832
 10
4.251743930597212
 20
0.8568043058331793
 10
4.251743930597212
 20
0.8579613434739755
 10
4.251888560302321
 20
0.8591906959673154
 10
4.252105504859953
 20
0.8604200484606563
 10
4.252539393975263
 20
0.8615770861014521
 10
4.253117912795659
 20
0.862661808889683
 10
4.253985691026234
 20
0.8637465316779342
 10
4.255142728667031
 20
0.8647589396136204
 10
4.229398641159426
 20
0.8647589396136204
  0
LWPOLYLINE
  5
EE1
330
17
100
AcDbEntity
  8
4
  6
Continuous
100
AcDbPolyline
 90
       21
 70
     0
 43
0.0
 10
4.490126763419943
 20
0.8647589396136204
 10
4.491500745618371
 20
0.8640357910881334
 10
4.492657783259168
 20
0.8631680128575363
 10
4.493670191194855
 20
0.8621556049218504
 10
4.494393339720362
 20
0.8609985672810545
 10
4.494971858540761
 20
0.8596968999351695
 10
4.495405747656048
 20
0.8583229177367186
 10
4.495622692213704
 20
0.8568043058331793
 10
4.495695007066246
 20
0.8552133790770955
 10
4.495695007066246
 20
0.789768437519829
 10
4.513484460793414
 20
0.789768437519829
 10
4.513484460793414
 20
0.8554303236347497
 10
4.513556775645954
 20
0.8569489355382895
 10
4.513918349908721
 20
0.8582506028841745
 10
4.51435223902401
 20
0.8595522702300595
 10
4.515075387549495
 20
0.8607093078708555
 10
4.515870850927549
 20
0.8617940306591068
 10
4.516883258863236
 20
0.8628787534473371
 10
4.517967981651463
 20
0.8638188465304793
 10
4.519269648997371
 20
0.8647589396136204
 10
4.490126763419943
 20
0.8647589396136204
  0
LWPOLYLINE
  5
EE2
330
17
100
AcDbEntity
  8
4
  6
Continuous
100
AcDbPolyline
 90
       73
 70
     0
 43
0.0
 10
3.860905861274526
 20
0.8084979843301345
 10
3.862135213767866
 20
0.8077748358046479
 10
3.863147621703575
 20
0.8068347427215066
 10
3.864015399934148
 20
0.8056777050807102
 10
3.864666233607093
 20
0.8043760377348259
 10
3.865027807869858
 20
0.8029297406838303
 10
3.865100122722401
 20
0.8014834436328355
 10
3.864883178164769
 20
0.800109461434406
 10
3.86430465934437
 20
0.7987354792359556
 10
3.863653825671428
 20
0.7979400158579241
 10
3.863002991998462
 20
0.7972168673324159
 10
3.862207528620412
 20
0.7965660336594738
 10
3.861339750389836
 20
0.7959875148390752
 10
3.860399657306674
 20
0.7955536257237874
 10
3.859387249371009
 20
0.7951920514610441
 10
3.858302526582756
 20
0.7949751069033897
 10
3.857217803794506
 20
0.7949027920508454
 10
3.830822882613956
 20
0.7949027920508454
 10
3.845068908566188
 20
0.8069793724265954
 10
3.845936686796806
 20
0.8077748358046479
 10
3.846587520469752
 20
0.8085702991826796
 10
3.847166039290127
 20
0.8092934477081874
 10
3.847527613552871
 20
0.8100165962336745
 10
3.84781687296309
 20
0.8107397447591612
 10
3.84796150266818
 20
0.8115352081372142
 10
3.848106132373268
 20
0.8122583566627008
 10
3.848106132373268
 20
0.8130538200407535
 10
3.848106132373268
 20
0.8609985672810545
 10
3.84796150266818
 20
0.8620109752167405
 10
3.847672243257979
 20
0.8630233831524476
 10
3.847166039290127
 20
0.8638188465304793
 10
3.846515205617185
 20
0.8645419950559869
 10
3.845719742239133
 20
0.8651205138763636
 10
3.844851964008555
 20
0.8655544029916729
 10
3.843839556072848
 20
0.8658436624018719
 10
3.842827148137163
 20
0.865915977254416
 10
3.827207139986479
 20
0.865915977254416
 10
3.828291862774731
 20
0.8648312544661859
 10
3.82923195585785
 20
0.8638188465304793
 10
3.830027419235903
 20
0.862661808889683
 10
3.830678252908866
 20
0.8615047712489079
 10
3.831256771729245
 20
0.8602031039030016
 10
3.831618345991988
 20
0.8588291217045721
 10
3.831835290549642
 20
0.8572381949484885
 10
3.831907605402209
 20
0.8554303236347497
 10
3.831907605402209
 20
0.8053884456705111
 10
3.819035561648383
 20
0.789768437519829
 10
3.867703457414171
 20
0.789768437519829
 10
3.868498920792224
 20
0.7898407523723729
 10
3.869366699022823
 20
0.7899130672249175
 10
3.870162162400853
 20
0.7900576969300275
 10
3.871029940631471
 20
0.7903469563402266
 10
3.871897718862046
 20
0.7906362157504258
 10
3.872693182240099
 20
0.7909977900131691
 10
3.873488645618153
 20
0.7913593642759125
 10
3.874284108996183
 20
0.7917932533912003
 10
3.875079572374216
 20
0.7922994573590536
 10
3.875802720899723
 20
0.7928056613269076
 10
3.876525869425231
 20
0.7933841801473056
 10
3.877249017950716
 20
0.7939626989676825
 10
3.877827536771116
 20
0.7945412177880802
 10
3.878478370444057
 20
0.7951920514610441
 10
3.878984574411911
 20
0.7958428851339865
 10
3.879490778379744
 20
0.7964937188069291
 10
3.880647816020538
 20
0.7988077940884999
 10
3.881370964546047
 20
0.801411128780291
 10
3.881732538808773
 20
0.8043037228822598
 10
3.881660223956226
 20
0.8072686318367946
 10
3.881154019988373
 20
0.810088911086219
 10
3.880286241757796
 20
0.81269224577801
 10
3.879056889264457
 20
0.814861691354492
 10
3.877393647655805
 20
0.8165249329631203
 10
3.860905861274526
 20
0.8084979843301345
  0
LWPOLYLINE
  5
EE3
330
17
100
AcDbEntity
  8
4
  6
Continuous
100
AcDbPolyline
 90
       21
 70
     0
 43
0.0
 10
4.023484167026508
 20
0.8646143099085318
 10
4.004393045953435
 20
0.8646143099085318
 10
4.005333139036596
 20
0.8639634762355886
 10
4.006273232119719
 20
0.8630956980049917
 10
4.00721332520288
 20
0.8622279197743946
 10
4.008008788580913
 20
0.8612155118387093
 10
4.00873193710642
 20
0.8602031039030016
 10
4.009310455926796
 20
0.8590460662622273
 10
4.009672030189562
 20
0.8578890286214308
 10
4.009816659894653
 20
0.8566596761280909
 10
4.009816659894653
 20
0.7900576969300275
 10
4.027823058179492
 20
0.7900576969300275
 10
4.027823058179492
 20
0.8602754187555675
 10
4.027750743326928
 20
0.8612878266912533
 10
4.027533798769273
 20
0.8621556049218504
 10
4.027099909653983
 20
0.8628787534473371
 10
4.026593705686153
 20
0.8635295871202796
 10
4.025942872013189
 20
0.8639634762355886
 10
4.025219723487703
 20
0.8643250504983321
 10
4.024424260109648
 20
0.8645419950559869
 10
4.023484167026508
 20
0.8646143099085318
  0
LWPOLYLINE
  5
EE4
330
17
100
AcDbEntity
  8
4
  6
Continuous
100
AcDbPolyline
 90
      133
 70
     0
 43
0.0
 10
3.948049474732384
 20
0.8659882921069609
 10
3.932646411139357
 20
0.8659882921069609
 10
3.933731133927609
 20
0.8648312544661859
 10
3.934671227010728
 20
0.8636742168253901
 10
3.935394375536236
 20
0.8625171791845938
 10
3.936045209209177
 20
0.8614324563963425
 10
3.936551413177035
 20
0.860347733608112
 10
3.936912987439774
 20
0.8592630108198605
 10
3.937202246849976
 20
0.8581059731790855
 10
3.937274561702521
 20
0.8569489355382895
 10
3.937274561702521
 20
0.817465026046262
 10
3.935972894356636
 20
0.8176096557513719
 10
3.934598912158185
 20
0.8178266003090266
 10
3.933297244812301
 20
0.8180435448666598
 10
3.931923262613868
 20
0.8183328042768589
 10
3.930621595267986
 20
0.8186943785396232
 10
3.929247613069533
 20
0.8190559528023673
 10
3.927945945723627
 20
0.8194898419176549
 10
3.926644278377743
 20
0.8199237310329428
 10
3.925414925884403
 20
0.8204299350007966
 10
3.924113258538517
 20
0.8210084538211944
 10
3.922956220897721
 20
0.8215869726415924
 10
3.921726868404381
 20
0.8222378063145349
 10
3.920569830763586
 20
0.8229609548400221
 10
3.91941279312279
 20
0.8236841033655304
 10
3.91832807033456
 20
0.8245518815961272
 10
3.917315662398872
 20
0.8254196598267027
 10
3.915435476232588
 20
0.8272998459930072
 10
3.913772234623941
 20
0.8293969767169445
 10
3.912325937572966
 20
0.8316387371459711
 10
3.911024270227058
 20
0.8340974421326521
 10
3.910011862291374
 20
0.8365561471193332
 10
3.909144084060777
 20
0.8392317966636685
 10
3.90856556524038
 20
0.8419074462079828
 10
3.908203990977635
 20
0.8446554106048628
 10
3.907987046420002
 20
0.8474033750017433
 10
3.907987046420002
 20
0.8502236542511889
 10
3.908276305830181
 20
0.8529716186480689
 10
3.90871019494549
 20
0.8557195830449487
 10
3.909361028618431
 20
0.8584675474418288
 10
3.910301121701573
 20
0.8610708821335988
 10
3.911385844489805
 20
0.8636019019728458
 10
3.912687511835687
 20
0.8659882921069609
 10
3.892945557089696
 20
0.8659882921069609
 10
3.891499260038721
 20
0.861360141543798
 10
3.890486852103013
 20
0.8568766206857237
 10
3.889980648135161
 20
0.8523930998276711
 10
3.889908333282616
 20
0.8481265235272513
 10
3.890197592692816
 20
0.843932262079376
 10
3.89099305607087
 20
0.8399549451891559
 10
3.892150093711665
 20
0.836122258004045
 10
3.893668705615183
 20
0.8324342005240028
 10
3.895621206634011
 20
0.8290354024541798
 10
3.897862967063056
 20
0.8257812340894673
 10
3.900466301754828
 20
0.8228163251349332
 10
3.903358895856819
 20
0.8200683607380533
 10
3.906613064221531
 20
0.8176819706039164
 10
3.910156491996462
 20
0.8155125250274345
 10
3.91391686432903
 20
0.8137046537136958
 10
3.917966496071813
 20
0.8121860418101562
 10
3.919123533712611
 20
0.8118244675474134
 10
3.920352886205951
 20
0.8115352081372142
 10
3.921582238699291
 20
0.8112459487270148
 10
3.922883906045176
 20
0.8109566893168159
 10
3.924113258538517
 20
0.8107397447591612
 10
3.925414925884403
 20
0.8105951150540724
 10
3.926644278377743
 20
0.8103781704964179
 10
3.927945945723627
 20
0.8103058556438734
 10
3.92917529821697
 20
0.8101612259387845
 10
3.930404650710308
 20
0.810088911086219
 10
3.931634003203648
 20
0.8100165962336745
 10
3.932791040844446
 20
0.8100165962336745
 10
3.933948078485241
 20
0.8100165962336745
 10
3.935032801273494
 20
0.8100165962336745
 10
3.936117524061745
 20
0.810088911086219
 10
3.937129931997411
 20
0.8101612259387845
 10
3.937129931997411
 20
0.8024958515685213
 10
3.929247613069533
 20
0.7980846455630131
 10
3.92765668631345
 20
0.7977230713002697
 10
3.926065759557343
 20
0.7975061267426149
 10
3.924474832801261
 20
0.7975061267426149
 10
3.923028535750266
 20
0.7977230713002697
 10
3.921509923846747
 20
0.7980123307104683
 10
3.920135941648299
 20
0.7985185346783008
 10
3.918834274302412
 20
0.7991693683512647
 10
3.917532606956506
 20
0.7998925168767515
 10
3.916303254463166
 20
0.8007602951073485
 10
3.915146216822368
 20
0.8017003881904898
 10
3.91406149403414
 20
0.8027851109787198
 10
3.913049086098453
 20
0.8038698337669721
 10
3.912108993015291
 20
0.8050991862603121
 10
3.911241214784716
 20
0.8063285387536527
 10
3.910445751406683
 20
0.8075578912469936
 10
3.909794917733741
 20
0.8088595585928782
 10
3.895910466044231
 20
0.8024235367159771
 10
3.896561299717173
 20
0.8011941842226363
 10
3.897356763095204
 20
0.7999648317292958
 10
3.898152226473255
 20
0.7986631643834108
 10
3.899020004703853
 20
0.7974338118900706
 10
3.900032412639538
 20
0.7962044593967299
 10
3.901044820575226
 20
0.7949751069033897
 10
3.902201858216022
 20
0.7938903841151377
 10
3.903358895856819
 20
0.7927333464743418
 10
3.904588248350158
 20
0.7917209385386559
 10
3.905962230548587
 20
0.7907808454555143
 10
3.907408527599604
 20
0.789985382077462
 10
3.908854824650577
 20
0.7891899186994307
 10
3.910445751406683
 20
0.7886113998790325
 10
3.912036678162746
 20
0.7881051959111787
 10
3.913772234623941
 20
0.7877436216484353
 10
3.915580105937678
 20
0.7875989919433462
 10
3.916158624758076
 20
0.7875989919433462
 10
3.916737143578476
 20
0.787671306795891
 10
3.917387977251416
 20
0.7877436216484353
 10
3.918038810924361
 20
0.7878159365009796
 10
3.918617329744757
 20
0.78796056620609
 10
3.919268163417698
 20
0.7881775107637448
 10
3.919846682238098
 20
0.7883944553213778
 10
3.920425201058496
 20
0.7886113998790325
 10
3.951737532212407
 20
0.8070516872791396
 10
3.952460680737913
 20
0.8076302060995379
 10
3.952966884705747
 20
0.8084256694775904
 10
3.953183829263423
 20
0.809365762560732
 10
3.953256144115968
 20
0.8103781704964179
 10
3.953256144115968
 20
0.8588291217045721
 10
3.953111514410858
 20
0.8604923633132004
 10
3.952822255000658
 20
0.8620109752167405
 10
3.952316051032803
 20
0.8632403277100806
 10
3.951665217359863
 20
0.8642527356457883
 10
3.950869753981832
 20
0.8649758841712751
 10
3.949929660898668
 20
0.8655544029916729
 10
3.948989567815549
 20
0.8658436624018719
 10
3.948049474732384
 20
0.8659882921069609
  0
LWPOLYLINE
  5
EE5
330
17
100
AcDbEntity
  8
4
  6
Continuous
100
AcDbPolyline
 90
       96
 70
     0
 43
0.0
 10
4.103590914257989
 20
0.789768437519829
 10
4.102433876617193
 20
0.7905639008978599
 10
4.101276838976398
 20
0.7913593642759125
 10
4.100264431040711
 20
0.7922994573590536
 10
4.099396652810114
 20
0.7932395504421952
 10
4.098673504284628
 20
0.7943242732304472
 10
4.098094985464229
 20
0.7955536257237874
 10
4.097733411201486
 20
0.7968552930696724
 10
4.097588781496376
 20
0.7982292752681019
 10
4.097588781496376
 20
0.8451616145727168
 10
4.097588781496376
 20
0.8471141155915656
 10
4.097444151791266
 20
0.8490666166103931
 10
4.097154892381088
 20
0.8511637473343306
 10
4.096576373560689
 20
0.8531885632057022
 10
4.095708595330093
 20
0.8552856939296397
 10
4.094334613131643
 20
0.8572381949484885
 10
4.092526741817903
 20
0.8591906959673154
 10
4.090068036831222
 20
0.8610708821335988
 10
4.088549424927707
 20
0.8620109752167405
 10
4.0869584981716
 20
0.8628064385947929
 10
4.085367571415517
 20
0.8634572722677358
 10
4.083632014954345
 20
0.8640357910881334
 10
4.081896458493148
 20
0.8643973653508767
 10
4.080160902031953
 20
0.8646143099085318
 10
4.078425345570761
 20
0.8647589396136204
 10
4.076617474257022
 20
0.8647589396136204
 10
4.074881917795851
 20
0.8646143099085318
 10
4.073146361334655
 20
0.8643973653508767
 10
4.071483119726027
 20
0.8641081059406779
 10
4.069819878117377
 20
0.8636742168253901
 10
4.068301266213858
 20
0.8631680128575363
 10
4.066782654310298
 20
0.8625171791845938
 10
4.065336357259326
 20
0.8618663455116513
 10
4.064034689913441
 20
0.8610708821335988
 10
4.063311541387933
 20
0.8607093078708555
 10
4.062660707714988
 20
0.860347733608112
 10
4.061937559189479
 20
0.8599861593453681
 10
4.061286725516538
 20
0.8595522702300595
 10
4.060635891843596
 20
0.8590460662622273
 10
4.059912743318109
 20
0.8585398622943735
 10
4.059261909645167
 20
0.8578890286214308
 10
4.058466446267114
 20
0.8572381949484885
 10
4.058104872004369
 20
0.858612177146918
 10
4.057526353183972
 20
0.8598415296402579
 10
4.056875519511031
 20
0.8609262524285099
 10
4.056080056133
 20
0.8619386603641958
 10
4.055212277902381
 20
0.8628064385947929
 10
4.054272184819258
 20
0.8635295871202796
 10
4.053332091736097
 20
0.8641804207932221
 10
4.052319683800409
 20
0.8646866247610759
 10
4.035759582566586
 20
0.8646866247610759
 10
4.037278194470126
 20
0.8636019019728241
 10
4.038579861816011
 20
0.8623725494794838
 10
4.039664584604262
 20
0.8610708821335988
 10
4.040604677687383
 20
0.8595522702300595
 10
4.041327826212891
 20
0.8579613434739755
 10
4.041834030180725
 20
0.8561534721602367
 10
4.042195604443487
 20
0.8542732859939539
 10
4.042267919296032
 20
0.8521761552700159
 10
4.042267919296032
 20
0.78796056620609
 10
4.059117279940077
 20
0.8009772396649822
 10
4.059117279940077
 20
0.8454508739829158
 10
4.059406539350254
 20
0.8478372641170517
 10
4.060129687875742
 20
0.8499343948409896
 10
4.061214410663993
 20
0.851742266154728
 10
4.062660707714988
 20
0.853260878058268
 10
4.064323949323616
 20
0.8544902305516082
 10
4.066131820637356
 20
0.8553580087822055
 10
4.068084321656183
 20
0.8559365276025822
 10
4.070036822675032
 20
0.8561534721602367
 10
4.071193860315828
 20
0.8561534721602367
 10
4.072350897956603
 20
0.856008842455148
 10
4.073435620744856
 20
0.8557918978974932
 10
4.074520343533105
 20
0.8555026384872943
 10
4.075532751468792
 20
0.8551410642245508
 10
4.076545159404478
 20
0.8546348602566972
 10
4.07748525248764
 20
0.8541286562888434
 10
4.078353030718215
 20
0.8534778226159014
 10
4.079220808948814
 20
0.8528269889429589
 10
4.079943957474322
 20
0.8521038404174721
 10
4.080522476294721
 20
0.8512360621868747
 10
4.081100995115096
 20
0.8504405988088219
 10
4.081534884230386
 20
0.8495005057256808
 10
4.081824143640603
 20
0.8485604126425393
 10
4.082041088198238
 20
0.8475480047068533
 10
4.082113403050783
 20
0.8464632819186018
 10
4.082113403050783
 20
0.7968552930696724
 10
4.082185717903326
 20
0.7956982554288765
 10
4.082330347608436
 20
0.7944689029355359
 10
4.082691921871181
 20
0.7933118652947396
 10
4.083198125839033
 20
0.7921548276539654
 10
4.083993589217066
 20
0.7912147345708234
 10
4.085005997152773
 20
0.7904192711927709
 10
4.086379979351202
 20
0.7899130672249175
 10
4.088115535812397
 20
0.789768437519829
 10
4.103590914257989
 20
0.789768437519829
  0
LWPOLYLINE
  5
EE6
330
17
100
AcDbEntity
  8
4
  6
Continuous
100
AcDbPolyline
 90
       34
 70
     0
 43
0.0
 10
4.13545550171027
 20
0.8589737514096611
 10
4.138275780959673
 20
0.858684491999462
 10
4.141023745356575
 20
0.8581059731790642
 10
4.143627080048346
 20
0.8570935652433782
 10
4.146158099887569
 20
0.8557195830449487
 10
4.148472175169161
 20
0.8541286562888434
 10
4.15071393559821
 20
0.8521761552700159
 10
4.152738751469581
 20
0.8500067096935346
 10
4.154618937635865
 20
0.8476203195593976
 10
4.156354494097059
 20
0.8449446700150618
 10
4.157800791148034
 20
0.8421967056181824
 10
4.159102458493919
 20
0.8392317966636685
 10
4.16018718128217
 20
0.8361945728565896
 10
4.161054959512766
 20
0.8330127193444006
 10
4.161633478333165
 20
0.8297585509796881
 10
4.162067367448451
 20
0.8265043826149547
 10
4.162139682300996
 20
0.8231778993976766
 10
4.161922737743364
 20
0.8201406755905974
 10
4.161344218922965
 20
0.8172480814886283
 10
4.160476440692367
 20
0.8144278022391826
 10
4.159319403051592
 20
0.8118244675474134
 10
4.157873106000599
 20
0.8092934477081874
 10
4.15620986439197
 20
0.8069793724265954
 10
4.154329678225662
 20
0.8048822417026578
 10
4.152377177206816
 20
0.8029297406838303
 10
4.150280046482901
 20
0.8011218693700921
 10
4.148110600906417
 20
0.7995309426140082
 10
4.145868840477393
 20
0.7981569604155574
 10
4.143699394900889
 20
0.7969999227747615
 10
4.141457634471863
 20
0.7961321445441856
 10
4.139360503747924
 20
0.7954089960186776
 10
4.137335687876553
 20
0.7949751069033897
 10
4.13545550171027
 20
0.794758162345735
 10
4.13545550171027
 20
0.8589737514096611
  0
LWPOLYLINE
  5
EE7
330
17
100
AcDbEntity
  8
4
  6
Continuous
100
AcDbPolyline
 90
       44
 70
     0
 43
0.0
 10
4.143627080048346
 20
0.8649758841712751
 10
4.111591600368926
 20
0.8649758841712751
 10
4.112604008304613
 20
0.8643973653508767
 10
4.113761045945406
 20
0.8636019019728241
 10
4.114845768733659
 20
0.8624448643320492
 10
4.115930491521912
 20
0.8611431969861435
 10
4.11687058460503
 20
0.8596245850826036
 10
4.117666047983083
 20
0.8578890286214308
 10
4.118099937098373
 20
0.8560811573076922
 10
4.118316881656048
 20
0.8541286562888434
 10
4.118316881656048
 20
0.789768437519829
 10
4.142325412702459
 20
0.789768437519829
 10
4.146375044445225
 20
0.789985382077462
 10
4.150280046482901
 20
0.7905639008978599
 10
4.154040418815466
 20
0.7915039939810016
 10
4.157583846590397
 20
0.7928056613269076
 10
4.160910329807656
 20
0.7944689029355359
 10
4.164092183319846
 20
0.7964937188069291
 10
4.166984777421813
 20
0.7987354792359556
 10
4.169660426966173
 20
0.8013388139277466
 10
4.172046817100286
 20
0.8041590931771708
 10
4.17421626267677
 20
0.8072686318367946
 10
4.176096448843051
 20
0.8105951150540724
 10
4.177615060746611
 20
0.814138542829005
 10
4.178844413239953
 20
0.8178989151615713
 10
4.179784506323073
 20
0.8218039171992471
 10
4.180290710290926
 20
0.8259258637945563
 10
4.180507654848581
 20
0.830192440094976
 10
4.180363025143471
 20
0.8338081827224531
 10
4.179784506323073
 20
0.8372792956448201
 10
4.178844413239953
 20
0.840605778862098
 10
4.177542745894045
 20
0.8437876323742873
 10
4.175951819137961
 20
0.846897171033911
 10
4.17407163297168
 20
0.8497174502833351
 10
4.171902187395176
 20
0.8523930998276711
 10
4.169443482408496
 20
0.854851804814352
 10
4.166840147716723
 20
0.8570935652433782
 10
4.163947553614733
 20
0.8591183811147713
 10
4.160910329807656
 20
0.8608539375759658
 10
4.157656161442944
 20
0.8623002346269393
 10
4.154329678225662
 20
0.8634572722677358
 10
4.150858565303299
 20
0.8643250504983321
 10
4.147242822675821
 20
0.8648312544661859
 10
4.143627080048346
 20
0.8649758841712751
  0
LWPOLYLINE
  5
EE8
330
17
100
AcDbEntity
  8
4
  6
Continuous
100
AcDbPolyline
 90
       21
 70
     0
 43
0.0
 10
3.775863338115978
 20
0.8618663455116513
 10
3.7935804769906
 20
0.8618663455116513
 10
3.795894552272168
 20
0.8616494009539971
 10
3.797991682996109
 20
0.8609985672810545
 10
3.799944184014957
 20
0.8599861593453681
 10
3.801679740476148
 20
0.858612177146918
 10
3.803053722674578
 20
0.8569489355382895
 10
3.804138445462831
 20
0.8549964345194407
 10
3.804789279135773
 20
0.852899303795503
 10
3.805006223693404
 20
0.8505852285139321
 10
3.804861593988316
 20
0.8487050423476496
 10
3.804427704873008
 20
0.8468248561813663
 10
3.803704556347522
 20
0.8451616145727168
 10
3.802764463264381
 20
0.8435706878166325
 10
3.801535110771038
 20
0.8422690204707475
 10
3.800088813720043
 20
0.8412566125350405
 10
3.798425572111395
 20
0.840605778862098
 10
3.796473071092568
 20
0.8403888343044647
 10
3.779189821333256
 20
0.8403888343044647
 10
3.779189821333256
 20
0.8579613434739755
 10
3.775863338115978
 20
0.8618663455116513
  0
LWPOLYLINE
  5
EE9
330
17
100
AcDbEntity
  8
4
  6
Continuous
100
AcDbPolyline
 90
       21
 70
     0
 43
0.0
 10
3.705854580633681
 20
0.8620109752167405
 10
3.723571719508301
 20
0.8620109752167405
 10
3.725813479937328
 20
0.8617940306591068
 10
3.727982925513809
 20
0.8611431969861435
 10
3.729863111680113
 20
0.8601307890504571
 10
3.731598668141286
 20
0.858756806852028
 10
3.732972650339736
 20
0.8570935652433782
 10
3.734057373127968
 20
0.8552133790770955
 10
3.734708206800932
 20
0.8531162483531574
 10
3.734925151358565
 20
0.8508021730715871
 10
3.734780521653476
 20
0.8489219869052826
 10
3.734346632538168
 20
0.8470418007389993
 10
3.733695798865222
 20
0.8453062442778268
 10
3.732755705782083
 20
0.8437876323742873
 10
3.731526353288741
 20
0.842485965028381
 10
3.730080056237746
 20
0.8414735570926952
 10
3.728416814629096
 20
0.8408227234197527
 10
3.72646431361027
 20
0.840605778862098
 10
3.709181063850958
 20
0.840605778862098
 10
3.709181063850958
 20
0.8581782880316302
 10
3.705854580633681
 20
0.8620109752167405
  0
LWPOLYLINE
  5
EEA
330
17
100
AcDbEntity
  8
4
  6
Continuous
100
AcDbPolyline
 90
       46
 70
     0
 43
0.0
 10
3.726319683905181
 20
0.8659882921069609
 10
3.687052718970828
 20
0.8659882921069609
 10
3.687920497201406
 20
0.8648312544661859
 10
3.688715960579438
 20
0.8635295871202796
 10
3.689511423957509
 20
0.8622279197743946
 10
3.690162257630453
 20
0.8608539375759658
 10
3.690668461598285
 20
0.8594076405249705
 10
3.691102350713573
 20
0.8579613434739755
 10
3.691391610123791
 20
0.8565873612755458
 10
3.691463924976338
 20
0.8551410642245508
 10
3.691463924976338
 20
0.7883944553213778
 10
3.70903643414587
 20
0.8052438159654013
 10
3.70903643414587
 20
0.8351821649208828
 10
3.732611076076971
 20
0.8351821649208828
 10
3.734202002833078
 20
0.8352544797734481
 10
3.735720614736596
 20
0.8353267946259926
 10
3.737239226640156
 20
0.8355437391836474
 10
3.738685523691128
 20
0.8358329985938466
 10
3.740131820742126
 20
0.8362668877091344
 10
3.741505802940575
 20
0.8368454065295319
 10
3.742807470286461
 20
0.8374962402024749
 10
3.743964507927256
 20
0.8382917035805274
 10
3.745121545568053
 20
0.8392317966636685
 10
3.746061638651172
 20
0.8403888343044647
 10
3.746929416881791
 20
0.8416181867977837
 10
3.747652565407279
 20
0.8430644838487793
 10
3.748158769375133
 20
0.8447277254574292
 10
3.748592658490421
 20
0.8465355967711673
 10
3.748809603048075
 20
0.8485604126425393
 10
3.748809603048075
 20
0.8508021730715871
 10
3.748592658490421
 20
0.8531885632057022
 10
3.748158769375133
 20
0.8552856939296397
 10
3.747435620849624
 20
0.857165880095923
 10
3.746567842619026
 20
0.8588291217045721
 10
3.745410804978233
 20
0.8602754187555675
 10
3.74418145248489
 20
0.8615047712489079
 10
3.742735155433916
 20
0.8625894940371383
 10
3.741144228677812
 20
0.8634572722677358
 10
3.739480987069183
 20
0.8641804207932221
 10
3.737673115755444
 20
0.8647589396136204
 10
3.735865244441705
 20
0.8651928287289294
 10
3.733985058275423
 20
0.8654820881391284
 10
3.732032557256575
 20
0.8657713475493276
 10
3.730080056237746
 20
0.865915977254416
 10
3.728199870071464
 20
0.8659882921069609
 10
3.726319683905181
 20
0.8659882921069609
  0
LWPOLYLINE
  5
EEB
330
17
100
AcDbEntity
  8
4
  6
Continuous
100
AcDbPolyline
 90
      104
 70
     0
 43
0.0
 10
3.654063788637807
 20
0.865915977254416
 10
3.656088604509179
 20
0.8637465316779342
 10
3.656956382739776
 20
0.8625171791845938
 10
3.657679531265261
 20
0.8612878266912533
 10
3.658330364938226
 20
0.8601307890504571
 10
3.658836568906058
 20
0.8590460662622273
 10
3.659270458021346
 20
0.8578890286214308
 10
3.659559717431568
 20
0.8567319909806347
 10
3.659704347136655
 20
0.8555749533398389
 10
3.659776661989202
 20
0.8543456008464982
 10
3.659776661989202
 20
0.7981569604155574
 10
3.657968790675461
 20
0.7983739049732117
 10
3.656160919361723
 20
0.7987354792359556
 10
3.654425362900528
 20
0.7991693683512647
 10
3.652689806439358
 20
0.7997478871716415
 10
3.651026564830726
 20
0.8004710356971497
 10
3.649363323222078
 20
0.8011941842226363
 10
3.647700081613431
 20
0.8020619624532335
 10
3.646181469709909
 20
0.8030020555363748
 10
3.644662857806349
 20
0.8040867783246261
 10
3.643216560755374
 20
0.8051715011128571
 10
3.641842578556948
 20
0.8064008536061976
 10
3.64054091121104
 20
0.8077025209520821
 10
3.639239243865155
 20
0.8090041882979884
 10
3.63808220622436
 20
0.8104504853489622
 10
3.636997483436128
 20
0.811969097252502
 10
3.635985075500423
 20
0.8134877091560417
 10
3.634394148744338
 20
0.8163803032580315
 10
3.633092481398453
 20
0.8194175270651108
 10
3.632080073462766
 20
0.8225993805772784
 10
3.631429239789826
 20
0.8258535489420122
 10
3.631139980379606
 20
0.8291800321592901
 10
3.631284610084716
 20
0.8324342005240028
 10
3.631935443757656
 20
0.8357606837412806
 10
3.633020166545888
 20
0.8389425372534699
 10
3.633598685366285
 20
0.8403165194518994
 10
3.634249519039228
 20
0.8416181867977837
 10
3.634972667564736
 20
0.8429198541436907
 10
3.635695816090243
 20
0.8441492066370306
 10
3.636491279468274
 20
0.8454508739829158
 10
3.637359057698873
 20
0.8466802264762558
 10
3.63822683592947
 20
0.8478372641170517
 10
3.639094614160044
 20
0.8490666166103931
 10
3.640034707243208
 20
0.8502236542511889
 10
3.640974800326326
 20
0.8513083770394192
 10
3.641987208262037
 20
0.8524654146802156
 10
3.642999616197721
 20
0.853550137468467
 10
3.644012024133408
 20
0.8546348602566972
 10
3.645096746921658
 20
0.8556472681923832
 10
3.646109154857367
 20
0.8566596761280909
 10
3.647193877645596
 20
0.8576720840637761
 10
3.648061655876193
 20
0.858684491999462
 10
3.648640174696593
 20
0.8598415296402579
 10
3.649001748959333
 20
0.8609985672810545
 10
3.649001748959333
 20
0.8622279197743946
 10
3.648857119254224
 20
0.8633126425626254
 10
3.648423230138936
 20
0.8643973653508767
 10
3.647917026171104
 20
0.8652651435814735
 10
3.647193877645596
 20
0.865915977254416
 10
3.621305160432879
 20
0.865915977254416
 10
3.622534512926221
 20
0.8647589396136204
 10
3.623908495124648
 20
0.8633126425626254
 10
3.625210162470556
 20
0.8615770861014521
 10
3.626294885258785
 20
0.8596968999351695
 10
3.627090348636838
 20
0.857599769211232
 10
3.627451922899584
 20
0.8554303236347497
 10
3.627162663489404
 20
0.853260878058268
 10
3.626150255553698
 20
0.8511637473343306
 10
3.618195621773256
 20
0.8372792956448201
 10
3.616243120754428
 20
0.8332296639020553
 10
3.615013768261088
 20
0.8289630876016357
 10
3.614435249440691
 20
0.8245518815961272
 10
3.614507564293233
 20
0.8200683607380533
 10
3.615230712818723
 20
0.8155848398799786
 10
3.616677009869716
 20
0.8113182635795595
 10
3.618701825741109
 20
0.8072686318367946
 10
3.621377475285424
 20
0.8036528892093175
 10
3.62267914263131
 20
0.8022065921583434
 10
3.624053124829762
 20
0.8008326099598928
 10
3.625499421880754
 20
0.7994586277614424
 10
3.627018033784294
 20
0.7981569604155574
 10
3.628536645687833
 20
0.7969999227747615
 10
3.630199887296484
 20
0.7958428851339865
 10
3.631863128905091
 20
0.794758162345735
 10
3.633598685366285
 20
0.7938180692625934
 10
3.635334241827478
 20
0.7928779761794518
 10
3.637142113141218
 20
0.7920825128013993
 10
3.638949984454955
 20
0.7914316791284568
 10
3.64083017062124
 20
0.7908531603080588
 10
3.642710356787523
 20
0.7903469563402266
 10
3.644662857806349
 20
0.7900576969300275
 10
3.646543043972656
 20
0.7898407523723729
 10
3.648495544991503
 20
0.789768437519829
 10
3.676192133517938
 20
0.789768437519829
 10
3.676192133517938
 20
0.8550687493720062
 10
3.676264448370481
 20
0.8565150464229798
 10
3.676336763223022
 20
0.8579613434739755
 10
3.67655370778068
 20
0.8593353256724045
 10
3.676842967190879
 20
0.8607816227233996
 10
3.677276856306186
 20
0.8621556049218504
 10
3.677783060274019
 20
0.8634572722677358
 10
3.678361579094418
 20
0.8646866247610759
 10
3.679012412767361
 20
0.865915977254416
 10
3.654063788637807
 20
0.865915977254416
  0
LWPOLYLINE
  5
EEC
330
17
100
AcDbEntity
  8
4
  6
Continuous
100
AcDbPolyline
 90
      213
 70
     0
 43
0.0
 10
3.597532178785384
 20
0.8615047712489079
 10
3.595868937176776
 20
0.8621556049218504
 10
3.594205695568127
 20
0.8627341237422484
 10
3.592542453959477
 20
0.8632403277100806
 10
3.590806897498305
 20
0.8636742168253901
 10
3.589071341037112
 20
0.8639634762355886
 10
3.587335784575939
 20
0.8642527356457883
 10
3.585600228114743
 20
0.8644696802034211
 10
3.583864671653549
 20
0.8646143099085318
 10
3.58205680033981
 20
0.8646866247610759
 10
3.580321243878617
 20
0.8646866247610759
 10
3.578513372564879
 20
0.8646143099085318
 10
3.576777816103707
 20
0.8644696802034211
 10
3.574969944789968
 20
0.8642527356457883
 10
3.573234388328773
 20
0.8640357910881334
 10
3.5714988318676
 20
0.8636742168253901
 10
3.569763275406406
 20
0.8633126425626254
 10
3.566726051599327
 20
0.8623725494794838
 10
3.563761142644795
 20
0.8609985672810545
 10
3.560940863395368
 20
0.8594076405249705
 10
3.558192898998488
 20
0.8574551395061217
 10
3.555661879159265
 20
0.8552856939296397
 10
3.553275489025126
 20
0.8528269889429589
 10
3.551178358301188
 20
0.8502236542511889
 10
3.549298172134904
 20
0.8474756898543088
 10
3.547779560231366
 20
0.844583095752319
 10
3.546622522590569
 20
0.8415458719452395
 10
3.545754744359973
 20
0.8385086481381605
 10
3.545393170097231
 20
0.8353991094785371
 10
3.545465484949774
 20
0.8322895708189136
 10
3.545971688917628
 20
0.8291800321592901
 10
3.546984096853336
 20
0.8261428083522112
 10
3.548575023609396
 20
0.8232502142502209
 10
3.548936597872163
 20
0.8228163251349332
 10
3.54937048698745
 20
0.8224547508721895
 10
3.54980437610274
 20
0.8221654914619907
 10
3.550310580070591
 20
0.8218762320517916
 10
3.550816784038444
 20
0.8217316023466816
 10
3.551322988006298
 20
0.8216592874941369
 10
3.551901506826697
 20
0.8216592874941369
 10
3.552480025647096
 20
0.8218039171992471
 10
3.573017443771118
 20
0.825708919236902
 10
3.574174481411914
 20
0.8259258637945563
 10
3.575331519052709
 20
0.826070493499667
 10
3.576560871546051
 20
0.8262874380572997
 10
3.577717909186848
 20
0.8263597529098657
 10
3.578947261680188
 20
0.8265043826149547
 10
3.580104299320983
 20
0.826576697467499
 10
3.581261336961779
 20
0.826576697467499
 10
3.58249068945512
 20
0.826576697467499
 10
3.583647727095916
 20
0.8265043826149547
 10
3.58480476473669
 20
0.8264320677624104
 10
3.585961802377488
 20
0.8262874380572997
 10
3.587118840018263
 20
0.826070493499667
 10
3.588203562806513
 20
0.8257812340894673
 10
3.58936060044731
 20
0.8254919746792687
 10
3.590445323235563
 20
0.8250580855639594
 10
3.59153004602379
 20
0.8246241964486713
 10
3.593988751010473
 20
0.823105584545132
 10
3.595796622324211
 20
0.8209361389686502
 10
3.597025974817553
 20
0.8184051191294035
 10
3.59774912334306
 20
0.8155125250274345
 10
3.597821438195605
 20
0.8124753012203552
 10
3.597315234227751
 20
0.809365762560732
 10
3.596302826292064
 20
0.8064731684587421
 10
3.594784214388524
 20
0.8037975189144276
 10
3.593699491600276
 20
0.8025681664210871
 10
3.592614768812022
 20
0.8013388139277466
 10
3.591313101466138
 20
0.800326405992039
 10
3.590011434120251
 20
0.7993863129088977
 10
3.588637451921823
 20
0.7985185346783008
 10
3.587118840018263
 20
0.797795386152814
 10
3.585600228114743
 20
0.7972891821849603
 10
3.584009301358641
 20
0.7968552930696724
 10
3.582129115192356
 20
0.7966383485120177
 10
3.580248929026073
 20
0.7966383485120177
 10
3.578441057712336
 20
0.7967829782171281
 10
3.576560871546051
 20
0.7972168673324159
 10
3.574825315084857
 20
0.7977230713002697
 10
3.573017443771118
 20
0.7984462198257565
 10
3.57135420216249
 20
0.7993139980563539
 10
3.569690960553863
 20
0.800326405992039
 10
3.568100033797756
 20
0.8014834436328355
 10
3.566581421894238
 20
0.8027127961261758
 10
3.565135124843221
 20
0.8040867783246261
 10
3.563761142644795
 20
0.8055330753756003
 10
3.562531790151451
 20
0.8070516872791396
 10
3.561302437658111
 20
0.808642614035245
 10
3.560217714869859
 20
0.8103058556438734
 10
3.559277621786738
 20
0.811969097252502
 10
3.542572890847806
 20
0.8043760377348259
 10
3.543440669078401
 20
0.8022065921583434
 10
3.544525391866633
 20
0.800109461434406
 10
3.545971688917628
 20
0.7982292752681019
 10
3.547634930526276
 20
0.7964214039543847
 10
3.54951511669256
 20
0.794758162345735
 10
3.551612247416477
 20
0.7932395504421952
 10
3.553854007845524
 20
0.7918655682437663
 10
3.556240397979661
 20
0.7906362157504258
 10
3.558771417818886
 20
0.7896238078147185
 10
3.561374752510656
 20
0.7887560295841212
 10
3.564122716907557
 20
0.7880328810586345
 10
3.566798366451873
 20
0.7875989919433462
 10
3.569546330848751
 20
0.7872374176806032
 10
3.572294295245631
 20
0.7871651028280377
 10
3.574969944789968
 20
0.7873097325331475
 10
3.577645594334303
 20
0.7875989919433462
 10
3.579670410205673
 20
0.7880328810586345
 10
3.581622911224502
 20
0.7886113998790325
 10
3.583575412243352
 20
0.789262233551975
 10
3.585455598409654
 20
0.7900576969300275
 10
3.587263469723373
 20
0.7909977900131691
 10
3.589071341037112
 20
0.7920825128013993
 10
3.59073458264574
 20
0.7931672355896509
 10
3.592397824254388
 20
0.7944689029355359
 10
3.593916436157926
 20
0.795770570281421
 10
3.595435048061468
 20
0.7972168673324159
 10
3.596809030259897
 20
0.7987354792359556
 10
3.598110697605783
 20
0.800398720844605
 10
3.59926773524658
 20
0.8020619624532335
 10
3.60035245803483
 20
0.8037975189144276
 10
3.60129255111797
 20
0.8056053902281661
 10
3.602160329348568
 20
0.8074855763944491
 10
3.602955792726601
 20
0.8095827071183865
 10
3.603534311546998
 20
0.8116798378423242
 10
3.603968200662305
 20
0.8137769685662401
 10
3.604329774925052
 20
0.8160187289952883
 10
3.604474404630161
 20
0.8181881745717705
 10
3.604474404630161
 20
0.8203576201482523
 10
3.604329774925052
 20
0.8225270657247341
 10
3.603968200662305
 20
0.8246965113012159
 10
3.603534311546998
 20
0.826576697467499
 10
3.602955792726601
 20
0.8283845687812377
 10
3.602232644201113
 20
0.8301201252424315
 10
3.601364865970538
 20
0.8318556817036258
 10
3.600280143182285
 20
0.8333742936071653
 10
3.599050790688945
 20
0.8348205906581387
 10
3.59760449363795
 20
0.836122258004045
 10
3.596085881734409
 20
0.8372069807922756
 10
3.595435048061468
 20
0.8376408699075636
 10
3.594711899535981
 20
0.8380747590228725
 10
3.593988751010473
 20
0.838436333285616
 10
3.593265602484964
 20
0.8387979075483599
 10
3.592542453959477
 20
0.8391594818111244
 10
3.591746990581446
 20
0.8394487412213019
 10
3.591023842055959
 20
0.8396656857789569
 10
3.590228378677908
 20
0.8398826303366108
 10
3.589432915299854
 20
0.8400995748942657
 10
3.588637451921823
 20
0.8403165194518994
 10
3.58784198854377
 20
0.8404611491570094
 10
3.587046525165717
 20
0.840605778862098
 10
3.586251061787685
 20
0.8407504085672082
 10
3.585455598409654
 20
0.8408227234197527
 10
3.584587820179036
 20
0.8409673531248412
 10
3.583792356801005
 20
0.8410396679774072
 10
3.582996893422973
 20
0.8410396679774072
 10
3.5822014300449
 20
0.8410396679774072
 10
3.581405966666868
 20
0.8411119828299518
 10
3.580610503288836
 20
0.8411119828299518
 10
3.579815039910784
 20
0.8411119828299518
 10
3.579019576532732
 20
0.841184297682496
 10
3.578151798302134
 20
0.841184297682496
 10
3.577284020071538
 20
0.841184297682496
 10
3.576416241840962
 20
0.841184297682496
 10
3.575548463610365
 20
0.8411119828299518
 10
3.574536055674678
 20
0.8410396679774072
 10
3.573595962591516
 20
0.8409673531248412
 10
3.57258355465583
 20
0.8408950382722968
 10
3.5714988318676
 20
0.8407504085672082
 10
3.570414109079348
 20
0.840533464009554
 10
3.569257071438553
 20
0.8403165194518994
 10
3.552696970204728
 20
0.8372792956448201
 10
3.552263081089421
 20
0.8387979075483599
 10
3.552046136531787
 20
0.8402442045993549
 10
3.552118451384328
 20
0.8417628165028943
 10
3.552335395941983
 20
0.8432091135538893
 10
3.552841599909816
 20
0.8446554106048628
 10
3.553420118730215
 20
0.846029392803314
 10
3.554287896960812
 20
0.8474033750017433
 10
3.555227990043953
 20
0.8486327274950834
 10
3.556312712832205
 20
0.8497897651358798
 10
3.557542065325546
 20
0.8509468027766756
 10
3.558843732671431
 20
0.8518868958598172
 10
3.560290029722424
 20
0.8527546740904142
 10
3.561808641625964
 20
0.8534778226159014
 10
3.563327253529505
 20
0.8541286562888652
 10
3.564918180285589
 20
0.854562545404153
 10
3.566581421894238
 20
0.854851804814352
 10
3.568027718945212
 20
0.8549241196668958
 10
3.569546330848751
 20
0.8549241196668958
 10
3.570992627899746
 20
0.8547794899618077
 10
3.572438924950721
 20
0.854562545404153
 10
3.573885222001738
 20
0.8542732859939539
 10
3.575331519052709
 20
0.8538393968786659
 10
3.57670550125114
 20
0.8533331929108122
 10
3.578079483449589
 20
0.8527546740904142
 10
3.57945346564804
 20
0.8521038404174721
 10
3.580827447846471
 20
0.8513806918919634
 10
3.582129115192356
 20
0.8506575433664767
 10
3.583430782538241
 20
0.8497897651358798
 10
3.58466013503158
 20
0.8489219869052826
 10
3.585889487524921
 20
0.8480542086747071
 10
3.587118840018263
 20
0.8471141155915656
 10
3.588275877659058
 20
0.8461740225084025
 10
3.607005424469386
 20
0.8549964345194407
 10
3.605993016533678
 20
0.856008842455148
 10
3.604908293745448
 20
0.8570212503908336
 10
3.603823570957219
 20
0.8579613434739755
 10
3.602594218463877
 20
0.858756806852028
 10
3.601364865970538
 20
0.8595522702300595
 10
3.600135513477196
 20
0.8602754187555675
 10
3.598833846131292
 20
0.8609262524285099
 10
3.597532178785384
 20
0.8615047712489079
  0
LWPOLYLINE
  5
EED
330
17
100
AcDbEntity
  8
4
  6
Continuous
100
AcDbPolyline
 90
       21
 70
     0
 43
0.0
 10
3.237691501069613
 20
0.8483434680849056
 10
3.237474556511978
 20
0.8461017076558583
 10
3.236823722839037
 20
0.8440045769319205
 10
3.23581131490333
 20
0.8421967056181824
 10
3.234437332704901
 20
0.840605778862098
 10
3.232774091096252
 20
0.8393041115162134
 10
3.230893904929968
 20
0.8383640184330714
 10
3.228796774206053
 20
0.8377854996126734
 10
3.226627328629546
 20
0.8375685550550189
 10
3.212092043267094
 20
0.8375685550550189
 10
3.212092043267094
 20
0.8561534721602367
 10
3.210645746216123
 20
0.8596968999351695
 10
3.226916588039745
 20
0.8596968999351695
 10
3.229086033616229
 20
0.8594799553775152
 10
3.231183164340166
 20
0.8588291217045721
 10
3.232991035653903
 20
0.8578167137688863
 10
3.23458196240999
 20
0.8564427315704357
 10
3.235883629755873
 20
0.8547071751092417
 10
3.236823722839037
 20
0.8528269889429589
 10
3.237474556511978
 20
0.8506575433664767
 10
3.237691501069613
 20
0.8483434680849056
  0
LWPOLYLINE
  5
EEE
330
17
100
AcDbEntity
  8
4
  6
Continuous
100
AcDbPolyline
 90
      114
 70
     0
 43
0.0
 10
3.413538714343063
 20
0.7891899186994307
 10
3.412743250965032
 20
0.7898407523723729
 10
3.411947787586977
 20
0.7907808454555143
 10
3.411152324208926
 20
0.7920825128013993
 10
3.410356860830896
 20
0.7936734395575047
 10
3.409633712305407
 20
0.7955536257237874
 10
3.409055193485011
 20
0.7978677010053583
 10
3.408621304369701
 20
0.8005433505496938
 10
3.408332044959522
 20
0.8035805743567728
 10
3.408332044959522
 20
0.8514530067445296
 10
3.40825973010698
 20
0.8527546740904142
 10
3.407970470696758
 20
0.8541286562888652
 10
3.407464266728906
 20
0.8555026384872943
 10
3.406741118203418
 20
0.8568043058331793
 10
3.405801025120278
 20
0.8581059731790855
 10
3.404643987479481
 20
0.8594076405249705
 10
3.403342320133595
 20
0.860636993018311
 10
3.401823708230056
 20
0.8618663455116513
 10
3.400160466621406
 20
0.8629510682998818
 10
3.398280280455123
 20
0.8639634762355886
 10
3.396183149731209
 20
0.8648312544661859
 10
3.394013704154703
 20
0.8656267178442176
 10
3.391554999168024
 20
0.8662052366646156
 10
3.389023979328797
 20
0.8667114406324692
 10
3.386276014931918
 20
0.867000700042668
 10
3.383383420829948
 20
0.8671453297477569
 10
3.380273882170325
 20
0.867000700042668
 10
3.377236658363246
 20
0.8665668109273585
 10
3.374271749408713
 20
0.8656990326967617
 10
3.371451470159267
 20
0.8646143099085318
 10
3.368775820614953
 20
0.8631680128575363
 10
3.366172485923182
 20
0.8615047712489079
 10
3.363786095789047
 20
0.8595522702300595
 10
3.361544335359996
 20
0.8573828246535772
 10
3.359519519488627
 20
0.8549964345194407
 10
3.357639333322343
 20
0.8524654146802156
 10
3.356048406566238
 20
0.8497897651358798
 10
3.354746739220353
 20
0.8469694858864551
 10
3.3536620164321
 20
0.8440045769319205
 10
3.352866553054069
 20
0.8409673531248412
 10
3.352360349086215
 20
0.8378578144652184
 10
3.352215719381128
 20
0.8346759609530501
 10
3.352215719381128
 20
0.7993863129088977
 10
3.352071089676018
 20
0.7971445524798715
 10
3.351564885708184
 20
0.7952643663135888
 10
3.350914052035242
 20
0.7936734395575047
 10
3.350046273804623
 20
0.7923717722115984
 10
3.349178495574048
 20
0.7913593642759125
 10
3.348310717343451
 20
0.7904915860453153
 10
3.347442939112853
 20
0.7898407523723729
 10
3.346792105439913
 20
0.789262233551975
 10
3.362122854180396
 20
0.789262233551975
 10
3.364147670051767
 20
0.7895514929621738
 10
3.365883226512963
 20
0.7902746414876609
 10
3.367401838416522
 20
0.7913593642759125
 10
3.368703505762406
 20
0.7928056613269076
 10
3.369788228550636
 20
0.7943965880829916
 10
3.370583691928692
 20
0.7961321445441856
 10
3.371089895896544
 20
0.7979400158579241
 10
3.371379155306721
 20
0.7997478871716415
 10
3.37152378501181
 20
0.8023512218634323
 10
3.371162210749089
 20
0.8050268714077677
 10
3.370656006781234
 20
0.8076302060995379
 10
3.370005173108292
 20
0.8101612259387845
 10
3.369137394877696
 20
0.8137769685662401
 10
3.368341931499642
 20
0.8173927111937175
 10
3.367618782974157
 20
0.8210084538211944
 10
3.36689563444867
 20
0.8246241964486713
 10
3.366244800775725
 20
0.8282399390761487
 10
3.365738596807873
 20
0.8319279965561703
 10
3.365304707692564
 20
0.8355437391836474
 10
3.365015448282385
 20
0.8392317966636685
 10
3.364943133429842
 20
0.8422690204707475
 10
3.365160077987475
 20
0.8453785591303715
 10
3.365666281955326
 20
0.8484157829374506
 10
3.366461745333359
 20
0.8513806918919847
 10
3.367618782974157
 20
0.8541286562888652
 10
3.369137394877696
 20
0.8566596761280909
 10
3.371017581043978
 20
0.8588291217045721
 10
3.373403971178114
 20
0.860636993018311
 10
3.374777953376566
 20
0.861360141543798
 10
3.37622425042754
 20
0.8618663455116513
 10
3.377742862331079
 20
0.8622279197743946
 10
3.379261474234618
 20
0.8624448643320492
 10
3.380852400990723
 20
0.8624448643320492
 10
3.382443327746788
 20
0.8622279197743946
 10
3.383961939650346
 20
0.8618663455116513
 10
3.385480551553866
 20
0.861360141543798
 10
3.386854533752318
 20
0.860636993018311
 10
3.388156201098221
 20
0.8597692147877138
 10
3.389385553591542
 20
0.858684491999462
 10
3.390397961527228
 20
0.8574551395061217
 10
3.391265739757845
 20
0.8560811573076922
 10
3.391988888283331
 20
0.8544902305516082
 10
3.392495092251185
 20
0.8527546740904142
 10
3.392712036808819
 20
0.8508744879241314
 10
3.392712036808819
 20
0.7995309426140082
 10
3.392784351661365
 20
0.7983015901206674
 10
3.393001296219018
 20
0.7972168673324159
 10
3.393362870481761
 20
0.7961321445441856
 10
3.393796759597071
 20
0.7951197366084784
 10
3.39437527841747
 20
0.7942519583778817
 10
3.395026112090413
 20
0.7933841801473056
 10
3.395749260615897
 20
0.7925887167692533
 10
3.396617038846496
 20
0.7918655682437663
 10
3.397557131929636
 20
0.7912870494233683
 10
3.398497225012778
 20
0.79070853060297
 10
3.399509632948464
 20
0.7902746414876609
 10
3.400594355736716
 20
0.7899130672249175
 10
3.401679078524968
 20
0.7895514929621738
 10
3.402836116165764
 20
0.7893345484045195
 10
3.403920838953994
 20
0.789262233551975
 10
3.40507787659477
 20
0.7891899186994307
 10
3.413538714343063
 20
0.7891899186994307
  0
LWPOLYLINE
  5
EEF
330
17
100
AcDbEntity
  8
4
  6
Continuous
100
AcDbPolyline
 90
       59
 70
     0
 43
0.0
 10
3.138051634722304
 20
0.8438599472268318
 10
3.145427749682346
 20
0.8495005057256808
 10
3.146584787323146
 20
0.8494281908731363
 10
3.147669510111394
 20
0.8492835611680471
 10
3.148754232899627
 20
0.8489943017578481
 10
3.149766640835313
 20
0.8487050423476496
 10
3.150851363623564
 20
0.8482711532323401
 10
3.151863771559271
 20
0.8477649492645081
 10
3.152803864642391
 20
0.8471864304441098
 10
3.153743957725553
 20
0.8465355967711673
 10
3.154611735956129
 20
0.8458847630982035
 10
3.155479514186728
 20
0.8451616145727168
 10
3.156347292417326
 20
0.8444384660472298
 10
3.157142755795357
 20
0.843643002669177
 10
3.157865904320863
 20
0.8428475392911456
 10
3.158589052846373
 20
0.8420520759130932
 10
3.159239886519313
 20
0.8413289273876063
 10
3.159818405339691
 20
0.840533464009554
 10
3.161843221211084
 20
0.8373516104973859
 10
3.163434147967168
 20
0.8340251272801078
 10
3.164591185607966
 20
0.8304816995051751
 10
3.165386648986015
 20
0.8268659568776982
 10
3.165892852953851
 20
0.8231778993976766
 10
3.166109797511503
 20
0.8194175270651108
 10
3.166254427216593
 20
0.8156571547325448
 10
3.166182112364047
 20
0.8118967823999575
 10
3.166037482658961
 20
0.80994428138113
 10
3.165675908396194
 20
0.8080640952148471
 10
3.165097389575796
 20
0.8062562239011086
 10
3.164374241050308
 20
0.8045206674399146
 10
3.163506462819712
 20
0.8028574258312859
 10
3.162421740031483
 20
0.8012664990751808
 10
3.161264702390687
 20
0.7998202020242072
 10
3.159963035044802
 20
0.7984462198257565
 10
3.158516737993806
 20
0.7972168673324159
 10
3.15707044094281
 20
0.7960598296916201
 10
3.155479514186728
 20
0.7950474217559341
 10
3.153888587430643
 20
0.7941073286727926
 10
3.152297660674538
 20
0.7933118652947396
 10
3.150634419065931
 20
0.7927333464743418
 10
3.148971177457282
 20
0.7922271425065098
 10
3.147380250701176
 20
0.7918655682437663
 10
3.146440157618055
 20
0.7919378830963102
 10
3.145500064534893
 20
0.792010197948855
 10
3.144559971451774
 20
0.7922271425065098
 10
3.143692193221156
 20
0.7925164019167084
 10
3.142824414990578
 20
0.7928779761794518
 10
3.142028951612526
 20
0.7933118652947396
 10
3.141233488234473
 20
0.7938903841151377
 10
3.140582654561531
 20
0.7944689029355359
 10
3.139859506036043
 20
0.7951920514610441
 10
3.139353302068189
 20
0.7959875148390752
 10
3.138919412952903
 20
0.7968552930696724
 10
3.138557838690158
 20
0.797795386152814
 10
3.138340894132503
 20
0.7987354792359556
 10
3.138196264427393
 20
0.7997478871716415
 10
3.138051634722304
 20
0.8007602951073485
 10
3.138051634722304
 20
0.8017727030430346
 10
3.138051634722304
 20
0.8438599472268318
  0
LWPOLYLINE
  5
EF0
330
17
100
AcDbEntity
  8
4
  6
Continuous
100
AcDbPolyline
 90
       61
 70
     0
 43
0.0
 10
3.237980760479834
 20
0.8320003114087144
 10
3.240077891203749
 20
0.8321449411138248
 10
3.242102707075143
 20
0.8324342005240236
 10
3.243910578388859
 20
0.8328680896393112
 10
3.245573819997509
 20
0.8334466084597098
 10
3.247020117048506
 20
0.8341697569851962
 10
3.248394099246956
 20
0.8349652203632494
 10
3.249623451740296
 20
0.8359053134463907
 10
3.250708174528528
 20
0.8369900362346211
 10
3.251648267611666
 20
0.8381470738754169
 10
3.252443730989698
 20
0.8393764263687577
 10
3.253094564662663
 20
0.8406780937146427
 10
3.253600768630496
 20
0.8421243907656377
 10
3.254034657745803
 20
0.8435706878166325
 10
3.254323917155981
 20
0.8450892997201723
 10
3.254468546861113
 20
0.8466802264762558
 10
3.254540861713658
 20
0.8483434680849056
 10
3.254468546861113
 20
0.8498620799884456
 10
3.254179287450893
 20
0.8513806918919847
 10
3.25381771318815
 20
0.8528269889429589
 10
3.253239194367751
 20
0.8542732859939539
 10
3.25258836069481
 20
0.8556472681923832
 10
3.251792897316756
 20
0.8569489355382895
 10
3.250852804233636
 20
0.8581782880316302
 10
3.249840396297929
 20
0.8593353256724258
 10
3.248683358657133
 20
0.860347733608112
 10
3.247454006163793
 20
0.8612878266912533
 10
3.246224653670451
 20
0.8620832900693059
 10
3.244850671472021
 20
0.8628064385947929
 10
3.243404374421029
 20
0.8633849574151909
 10
3.241958077370033
 20
0.8637465316779342
 10
3.240439465466513
 20
0.8640357910881334
 10
3.238920853562953
 20
0.8641081059406779
 10
3.188300456778318
 20
0.8641081059406779
 10
3.189023605303823
 20
0.8635295871202796
 10
3.189674438976768
 20
0.8629510682998818
 10
3.190325272649731
 20
0.8623002346269393
 10
3.190903791470129
 20
0.8617217158065413
 10
3.191482310290506
 20
0.8611431969861435
 10
3.192060829110904
 20
0.8604200484606563
 10
3.192567033078736
 20
0.8596968999351695
 10
3.193073237046589
 20
0.8588291217045721
 10
3.193796385572078
 20
0.8572381949484885
 10
3.194374904392474
 20
0.8553580087822055
 10
3.194736478655241
 20
0.853550137468467
 10
3.194881108360331
 20
0.8521038404174721
 10
3.194953423212872
 20
0.7870927879754932
 10
3.212381302677318
 20
0.8023512218634323
 10
3.212381302677318
 20
0.8325065153765685
 10
3.220046677047537
 20
0.8325788302291128
 10
3.246152338817906
 20
0.7893345484045195
 10
3.268642257960801
 20
0.7891899186994307
 10
3.267268275762351
 20
0.789985382077462
 10
3.265894293563921
 20
0.7909254751606249
 10
3.264592626218013
 20
0.7918655682437663
 10
3.263290958872128
 20
0.7929502910319966
 10
3.26206160637879
 20
0.7939626989676825
 10
3.260904568737994
 20
0.7951197366084784
 10
3.259747531097196
 20
0.7962767742492744
 10
3.258590493456401
 20
0.7975061267426149
 10
3.237980760479834
 20
0.8320003114087144
  0
LWPOLYLINE
  5
EF1
330
17
100
AcDbEntity
  8
4
  6
Continuous
100
AcDbPolyline
 90
       83
 70
     0
 43
0.0
 10
3.167411464857388
 20
0.856298101865347
 10
3.166254427216593
 20
0.8573828246535772
 10
3.165097389575796
 20
0.8584675474418288
 10
3.163940351935021
 20
0.8594799553775152
 10
3.162710999441681
 20
0.8604200484606563
 10
3.161409332095774
 20
0.8612155118387093
 10
3.159963035044802
 20
0.8619386603641958
 10
3.158372108288697
 20
0.8625894940371383
 10
3.156564236974958
 20
0.8630233831524476
 10
3.122865515686911
 20
0.8443661511946856
 10
3.122720885981823
 20
0.7962767742492744
 10
3.122793200834365
 20
0.7954813108712431
 10
3.122937830539453
 20
0.794613532640646
 10
3.123227089949676
 20
0.7938903841151377
 10
3.123588664212397
 20
0.7931672355896509
 10
3.124022553327706
 20
0.7925164019167084
 10
3.12452875729556
 20
0.7918655682437663
 10
3.125107276115959
 20
0.7913593642759125
 10
3.1257581097889
 20
0.7908531603080588
 10
3.126842832577153
 20
0.7902023266351163
 10
3.127999870217926
 20
0.7896238078147185
 10
3.129156907858723
 20
0.7891176038468859
 10
3.130386260352063
 20
0.788683714731577
 10
3.131615612845403
 20
0.7883944553213778
 10
3.132844965338744
 20
0.7881051959111787
 10
3.134146632684631
 20
0.7878882513535457
 10
3.135448300030537
 20
0.787671306795891
 10
3.136749967376419
 20
0.7875989919433462
 10
3.138051634722304
 20
0.7875266770907809
 10
3.139353302068189
 20
0.7875266770907809
 10
3.14072728426662
 20
0.7875989919433462
 10
3.142028951612526
 20
0.787671306795891
 10
3.143330618958433
 20
0.7878159365009796
 10
3.144632286304318
 20
0.78796056620609
 10
3.1459339536502
 20
0.7881775107637448
 10
3.147452565553741
 20
0.7883944553213778
 10
3.148971177457282
 20
0.7887560295841212
 10
3.150417474508254
 20
0.7891176038468859
 10
3.151863771559271
 20
0.7895514929621738
 10
3.153310068610244
 20
0.7900576969300275
 10
3.154756365661218
 20
0.7906362157504258
 10
3.15613034785969
 20
0.7912870494233683
 10
3.157504330058122
 20
0.7919378830963102
 10
3.158805997404004
 20
0.7926610316217975
 10
3.160179979602435
 20
0.79345649499985
 10
3.161409332095774
 20
0.7943242732304472
 10
3.162710999441681
 20
0.7951920514610441
 10
3.163940351935021
 20
0.7961321445441856
 10
3.165097389575796
 20
0.7970722376273267
 10
3.166254427216593
 20
0.7980846455630131
 10
3.167411464857388
 20
0.7990970534986991
 10
3.169219336171128
 20
0.8009772396649822
 10
3.170882577779776
 20
0.8029297406838303
 10
3.172473504535861
 20
0.8049545565552023
 10
3.173847486734312
 20
0.8071240021317059
 10
3.175149154080198
 20
0.8094380774132762
 10
3.176306191720992
 20
0.8117521526948683
 10
3.177246284804111
 20
0.814138542829005
 10
3.178114063034732
 20
0.8165972478156858
 10
3.178764896707671
 20
0.8190559528023673
 10
3.179271100675506
 20
0.8216592874941369
 10
3.179632674938248
 20
0.8241903073333624
 10
3.179849619495906
 20
0.8267936420251537
 10
3.179921934348446
 20
0.829324661864379
 10
3.179777304643339
 20
0.8319279965561703
 10
3.17948804523316
 20
0.8345313312479396
 10
3.179054156117851
 20
0.8370623510871869
 10
3.178692581855108
 20
0.838436333285616
 10
3.178331007592364
 20
0.8398103154840669
 10
3.177897118477056
 20
0.841184297682496
 10
3.177390914509223
 20
0.842485965028381
 10
3.176812395688825
 20
0.8437876323742873
 10
3.176161562015883
 20
0.8450892997201723
 10
3.175510728342918
 20
0.8463186522135124
 10
3.17478757981743
 20
0.8475480047068533
 10
3.173992116439399
 20
0.8487773572001938
 10
3.173124338208803
 20
0.8499343948409896
 10
3.172256559978205
 20
0.8510914324817861
 10
3.17138878174761
 20
0.8521761552700159
 10
3.170448688664468
 20
0.853260878058268
 10
3.169436280728781
 20
0.8542732859939539
 10
3.168423872793094
 20
0.8552856939296397
 10
3.167411464857388
 20
0.856298101865347
  0
LWPOLYLINE
  5
EF2
330
17
100
AcDbEntity
  8
4
  6
Continuous
100
AcDbPolyline
 90
      271
 70
     0
 43
0.0
 10
3.326939514269433
 20
0.8352544797734481
 10
3.325927106333746
 20
0.8358329985938466
 10
3.324914698398038
 20
0.8363392025616786
 10
3.323829975609808
 20
0.8367730916769875
 10
3.322817567674122
 20
0.8372069807922756
 10
3.321732844885871
 20
0.8376408699075636
 10
3.320648122097621
 20
0.8379301293177626
 10
3.319563399309388
 20
0.8382917035805274
 10
3.318478676521158
 20
0.8385809629907264
 10
3.317321638880365
 20
0.8387979075483599
 10
3.316236916092111
 20
0.8389425372534699
 10
3.315007563598771
 20
0.8390871669585584
 10
3.313850525957975
 20
0.8392317966636685
 10
3.312621173464636
 20
0.8393041115162134
 10
3.311391820971292
 20
0.8393041115162134
 10
3.310162468477952
 20
0.8393041115162134
 10
3.308860801132068
 20
0.8392317966636685
 10
3.29179449593039
 20
0.8240456776282734
 10
3.293096163276276
 20
0.8243349370384724
 10
3.29439783062216
 20
0.8246241964486713
 10
3.295699497968064
 20
0.8249134558588707
 10
3.297001165313973
 20
0.8251304004165254
 10
3.298302832659858
 20
0.8253473449741584
 10
3.299604500005743
 20
0.8254919746792687
 10
3.300906167351628
 20
0.8256366043843579
 10
3.302280149550056
 20
0.825708919236902
 10
3.303581816895941
 20
0.8257812340894673
 10
3.304883484241848
 20
0.8257812340894673
 10
3.306185151587756
 20
0.8257812340894673
 10
3.307486818933639
 20
0.825708919236902
 10
3.308788486279524
 20
0.8255642895318132
 10
3.310090153625408
 20
0.8253473449741584
 10
3.311391820971292
 20
0.8251304004165254
 10
3.312693488317178
 20
0.8248411410063262
 10
3.313561266547798
 20
0.8245518815961272
 10
3.314501359630917
 20
0.8243349370384724
 10
3.315369137861513
 20
0.8239733627757289
 10
3.316236916092111
 20
0.8236841033655304
 10
3.31710469432271
 20
0.8233225291027864
 10
3.317972472553305
 20
0.8229609548400221
 10
3.318767935931334
 20
0.8225270657247341
 10
3.319635714161956
 20
0.8220931766094462
 10
3.320431177539986
 20
0.8215869726415924
 10
3.321154326065475
 20
0.8210807686737391
 10
3.32187747459096
 20
0.8205745647059066
 10
3.322600623116468
 20
0.8199960458855088
 10
3.323251456789412
 20
0.8193452122125663
 10
3.323902290462353
 20
0.8186943785396232
 10
3.324480809282751
 20
0.8179712300141153
 10
3.325059328103149
 20
0.8172480814886283
 10
3.325927106333746
 20
0.8159464141427219
 10
3.326650254859232
 20
0.8145001170917485
 10
3.327156458827087
 20
0.8130538200407535
 10
3.32751803308983
 20
0.8114628932846699
 10
3.327734977647486
 20
0.80994428138113
 10
3.327662662794941
 20
0.8083533546250459
 10
3.327301088532176
 20
0.8068347427215066
 10
3.32672256971178
 20
0.8053884456705111
 10
3.325854791481201
 20
0.8040867783246261
 10
3.324842383545495
 20
0.8030020555363748
 10
3.323685345904698
 20
0.8020619624532335
 10
3.322311363706268
 20
0.8012664990751808
 10
3.320865066655296
 20
0.8006156654022383
 10
3.319418769604281
 20
0.800109461434406
 10
3.317827842848216
 20
0.7996755723190973
 10
3.316309230944656
 20
0.7993863129088977
 10
3.315586082419171
 20
0.7993139980563539
 10
3.314790619041138
 20
0.7991693683512647
 10
3.314067470515629
 20
0.7990970534986991
 10
3.313272007137576
 20
0.7990970534986991
 10
3.312476543759546
 20
0.7990247386461542
 10
3.31175339523406
 20
0.7990247386461542
 10
3.310957931855986
 20
0.7990247386461542
 10
3.310162468477952
 20
0.7990247386461542
 10
3.309439319952466
 20
0.7990247386461542
 10
3.308643856574435
 20
0.7990970534986991
 10
3.307848393196361
 20
0.7990970534986991
 10
3.30705292981833
 20
0.7992416832038094
 10
3.306329781292841
 20
0.7993139980563539
 10
3.305534317914791
 20
0.7994586277614637
 10
3.304811169389281
 20
0.7996032574665524
 10
3.30401570601125
 20
0.7997478871716415
 10
3.303147927780676
 20
0.7999648317292958
 10
3.302280149550056
 20
0.8001817762869505
 10
3.301484686172026
 20
0.8004710356971497
 10
3.300616907941428
 20
0.8007602951073485
 10
3.299821444563376
 20
0.8011218693700921
 10
3.299025981185343
 20
0.8014834436328355
 10
3.298230517807291
 20
0.8019173327481446
 10
3.297435054429239
 20
0.8023512218634323
 10
3.296711905903751
 20
0.8027851109787198
 10
3.295916442525721
 20
0.8032913149465738
 10
3.295193294000213
 20
0.8037975189144276
 10
3.294470145474703
 20
0.8043037228822598
 10
3.293746996949216
 20
0.8048099268501136
 10
3.293096163276276
 20
0.8053884456705111
 10
3.292373014750789
 20
0.8059669644909096
 10
3.291722181077846
 20
0.806545483311307
 10
3.290637458289593
 20
0.8076302060995379
 10
3.289625050353907
 20
0.8087872437403341
 10
3.288612642418221
 20
0.80994428138113
 10
3.287600234482515
 20
0.8111013190219258
 10
3.286660141399396
 20
0.8122583566627008
 10
3.285792363168776
 20
0.8134877091560417
 10
3.284852270085655
 20
0.8147893765019475
 10
3.284056806707583
 20
0.8160187289952883
 10
3.283261343329551
 20
0.8173203963411733
 10
3.282538194804062
 20
0.8186943785396232
 10
3.281887361131122
 20
0.8199960458855088
 10
3.28123652745818
 20
0.8213700280839383
 10
3.280658008637781
 20
0.8228163251349332
 10
3.280224119522473
 20
0.8241903073333624
 10
3.279790230407185
 20
0.825708919236902
 10
3.279428656144443
 20
0.8271552162878972
 10
3.278922452176588
 20
0.8304816995051751
 10
3.278705507618953
 20
0.8339528124275419
 10
3.278922452176588
 20
0.8374239253499307
 10
3.279500970996986
 20
0.8407504085672082
 10
3.280513378932672
 20
0.843932262079376
 10
3.282031990836211
 20
0.8468248561813663
 10
3.283984491855037
 20
0.8494281908731363
 10
3.28644319684172
 20
0.8515253215970739
 10
3.287310975072336
 20
0.8520315255649272
 10
3.288178753302913
 20
0.8524654146802156
 10
3.289118846386076
 20
0.852899303795503
 10
3.289986624616652
 20
0.853260878058268
 10
3.290926717699816
 20
0.853550137468467
 10
3.291939125635477
 20
0.8538393968786659
 10
3.292879218718641
 20
0.8540563414362996
 10
3.293891626654327
 20
0.8542009711414094
 10
3.294831719737468
 20
0.8543456008464982
 10
3.295844127673176
 20
0.8544179156990423
 10
3.296856535608839
 20
0.8544179156990423
 10
3.297868943544548
 20
0.8544179156990423
 10
3.298881351480256
 20
0.8544179156990423
 10
3.299893759415921
 20
0.8543456008464982
 10
3.300833852499083
 20
0.8542009711414094
 10
3.30184626043477
 20
0.8540563414362996
 10
3.303147927780676
 20
0.8538393968786659
 10
3.30444959512656
 20
0.853550137468467
 10
3.305751262472446
 20
0.853260878058268
 10
3.306980614965786
 20
0.8528269889429589
 10
3.308209967459124
 20
0.8523930998276711
 10
3.309439319952466
 20
0.8518868958598172
 10
3.310668672445806
 20
0.8513806918919847
 10
3.311898024939146
 20
0.8508021730715871
 10
3.313055062579943
 20
0.8501513393986233
 10
3.314139785368196
 20
0.8495005057256808
 10
3.315296823008971
 20
0.8487050423476496
 10
3.316381545797201
 20
0.8479818938221409
 10
3.317466268585451
 20
0.8471141155915656
 10
3.318478676521158
 20
0.8463186522135124
 10
3.319491084456843
 20
0.8453785591303715
 10
3.320431177539986
 20
0.8444384660472298
 10
3.333809425261645
 20
0.8516699513021631
 10
3.332941647031026
 20
0.853260878058268
 10
3.33192923909536
 20
0.8547071751092417
 10
3.330772201454563
 20
0.8560811573076922
 10
3.329470534108678
 20
0.8573105098010325
 10
3.328096551910228
 20
0.8584675474418288
 10
3.326577940006687
 20
0.8594799553775152
 10
3.325059328103149
 20
0.8604200484606563
 10
3.323468401347065
 20
0.8612878266912533
 10
3.322239048853725
 20
0.8618663455116513
 10
3.320937381507841
 20
0.8624448643320492
 10
3.319708029014498
 20
0.8629510682998818
 10
3.318406361668613
 20
0.8633849574151909
 10
3.317032379470143
 20
0.8638188465304793
 10
3.315730712124258
 20
0.8641081059406779
 10
3.314356729925827
 20
0.8643973653508767
 10
3.312982747727398
 20
0.8646143099085318
 10
3.311608765528948
 20
0.8647589396136204
 10
3.310234783330498
 20
0.8648312544661859
 10
3.308788486279524
 20
0.8649035693187304
 10
3.307414504081093
 20
0.8649035693187304
 10
3.306040521882622
 20
0.8648312544661859
 10
3.304666539684192
 20
0.8646866247610759
 10
3.303292557485763
 20
0.8644696802034211
 10
3.301918575287313
 20
0.8641804207932221
 10
3.300616907941428
 20
0.8638911613830233
 10
3.299387555448088
 20
0.8634572722677358
 10
3.298085888102183
 20
0.8630233831524476
 10
3.296856535608839
 20
0.8625894940371383
 10
3.295699497968064
 20
0.8620109752167405
 10
3.294470145474703
 20
0.8614324563963425
 10
3.293313107833928
 20
0.8607816227233996
 10
3.292156070193153
 20
0.8601307890504571
 10
3.290999032552357
 20
0.8594076405249705
 10
3.289914309764106
 20
0.858684491999462
 10
3.288829586975857
 20
0.8578890286214308
 10
3.287744864187623
 20
0.8570935652433782
 10
3.286660141399396
 20
0.8562257870127814
 10
3.285647733463687
 20
0.8553580087822055
 10
3.284563010675435
 20
0.8544902305516082
 10
3.283550602739751
 20
0.8536224523210114
 10
3.282104305688755
 20
0.8523207849751264
 10
3.280730323490326
 20
0.8510191176292201
 10
3.279356341291896
 20
0.8496451354307906
 10
3.278054673945988
 20
0.8481988383797958
 10
3.276753006600103
 20
0.8467525413288008
 10
3.275523654106763
 20
0.8453062442778268
 10
3.274366616465968
 20
0.8437876323742873
 10
3.273209578825193
 20
0.8421967056181824
 10
3.272197170889485
 20
0.840605778862098
 10
3.271184762953779
 20
0.8389425372534699
 10
3.27024466987066
 20
0.8372792956448201
 10
3.269449206492585
 20
0.8355437391836474
 10
3.268726057967096
 20
0.8338081827224531
 10
3.268075224294156
 20
0.8320003114087144
 10
3.267496705473758
 20
0.830192440094976
 10
3.26706281635847
 20
0.8283122539286932
 10
3.266628927243181
 20
0.8257812340894673
 10
3.266411982685526
 20
0.8231778993976766
 10
3.266339667832961
 20
0.8206468795584509
 10
3.266411982685526
 20
0.8180435448666598
 10
3.266701242095727
 20
0.8155125250274345
 10
3.267207446063581
 20
0.8129815051882092
 10
3.267858279736523
 20
0.8104504853489833
 10
3.268726057967096
 20
0.8080640952148471
 10
3.269304576787496
 20
0.8067624278689407
 10
3.269955410460439
 20
0.8054607605230557
 10
3.27060624413338
 20
0.8042314080297153
 10
3.271401707511456
 20
0.8030743703889189
 10
3.272197170889485
 20
0.8019173327481446
 10
3.273064949120063
 20
0.8007602951073485
 10
3.274005042203223
 20
0.7996755723190973
 10
3.274945135286366
 20
0.7986631643834108
 10
3.275957543222053
 20
0.7976507564477254
 10
3.277042266010303
 20
0.7967106633645839
 10
3.278126988798556
 20
0.795770570281421
 10
3.279211711586763
 20
0.7949027920508454
 10
3.28036874922756
 20
0.7941073286727926
 10
3.281598101720899
 20
0.7933841801473056
 10
3.282827454214241
 20
0.7926610316217975
 10
3.284056806707583
 20
0.792010197948855
 10
3.286949400809573
 20
0.7907808454555143
 10
3.289914309764106
 20
0.789768437519829
 10
3.292951533571187
 20
0.7890452889943203
 10
3.296061072230811
 20
0.7884667701739434
 10
3.299170610890434
 20
0.7881775107637448
 10
3.302280149550056
 20
0.7880328810586345
 10
3.30538968820968
 20
0.7881775107637448
 10
3.308571541721868
 20
0.7885390850264879
 10
3.311608765528948
 20
0.7891176038468859
 10
3.314573674483462
 20
0.7899130672249175
 10
3.317538583437996
 20
0.7909977900131691
 10
3.320358862687443
 20
0.7922271425065098
 10
3.323034512231754
 20
0.7937457544100491
 10
3.325565532070982
 20
0.7954813108712431
 10
3.327951922205118
 20
0.7974338118900706
 10
3.330193682634165
 20
0.7996032574665524
 10
3.331856924242817
 20
0.8015557584853798
 10
3.333375536146333
 20
0.8036528892093175
 10
3.334749518344763
 20
0.8057500199332546
 10
3.335906555985558
 20
0.8080640952148471
 10
3.336918963921266
 20
0.8103781704964179
 10
3.337714427299298
 20
0.8127645606305545
 10
3.338220631267152
 20
0.8152232656172353
 10
3.338582205529916
 20
0.8177542854564608
 10
3.338654520382459
 20
0.8197791013278541
 10
3.338509890677352
 20
0.8217316023466816
 10
3.338148316414606
 20
0.8236841033655304
 10
3.337497482741665
 20
0.8256366043843579
 10
3.336629704511068
 20
0.8272275311404413
 10
3.335617296575381
 20
0.8286738281914365
 10
3.334387944082041
 20
0.8300478103898869
 10
3.333086276736134
 20
0.8312771628832273
 10
3.331639979685138
 20
0.8323618856714585
 10
3.330121367781623
 20
0.8334466084597098
 10
3.328530441025517
 20
0.8343867015428511
 10
3.326939514269433
 20
0.8352544797734481
  0
LWPOLYLINE
  5
EF3
330
17
100
AcDbEntity
  8
4
  6
Continuous
 62
     4
100
AcDbPolyline
 90
       96
 70
     0
 43
0.0
 10
3.491516090685436
 20
0.789262233551975
 10
3.490359053044642
 20
0.789985382077462
 10
3.4891297005513
 20
0.7908531603080588
 10
3.487828033205414
 20
0.7919378830963102
 10
3.486670995564621
 20
0.7931672355896509
 10
3.485586272776368
 20
0.7945412177880802
 10
3.48471849454579
 20
0.7962044593967299
 10
3.484139975725393
 20
0.7980123307104683
 10
3.483923031167718
 20
0.800109461434406
 10
3.483923031167718
 20
0.8480542086747071
 10
3.483778401462631
 20
0.8500790245460787
 10
3.483489142052429
 20
0.8519592107123617
 10
3.482910623232053
 20
0.8537670820260998
 10
3.482187474706546
 20
0.8554303236347497
 10
3.481319696475948
 20
0.8570935652433782
 10
3.480234973687696
 20
0.8585398622943735
 10
3.479005621194356
 20
0.859913844492803
 10
3.477631638995928
 20
0.8612155118387093
 10
3.476185341944955
 20
0.8623725494794838
 10
3.474594415188848
 20
0.8633849574151909
 10
3.472931173580198
 20
0.8642527356457883
 10
3.471267931971589
 20
0.8650481990238192
 10
3.469460060657852
 20
0.8656267178442176
 10
3.467652189344113
 20
0.8660606069595267
 10
3.465772003177829
 20
0.8664221812222701
 10
3.463891817011526
 20
0.8665668109273585
 10
3.46259014966562
 20
0.8665668109273585
 10
3.461288482319734
 20
0.8665668109273585
 10
3.460059129826396
 20
0.8664221812222701
 10
3.458757462480508
 20
0.8662775515171594
 10
3.457528109987171
 20
0.8660606069595267
 10
3.456226442641286
 20
0.8656990326967617
 10
3.454997090147946
 20
0.8653374584340184
 10
3.453767737654603
 20
0.8649758841712751
 10
3.452538385161263
 20
0.8644696802034211
 10
3.451381347520467
 20
0.8639634762355886
 10
3.450224309879672
 20
0.8633849574151909
 10
3.449067272238876
 20
0.8628064385947929
 10
3.447910234598078
 20
0.8620832900693059
 10
3.446825511809868
 20
0.8614324563963425
 10
3.44574078902162
 20
0.8607093078708555
 10
3.444728381085912
 20
0.859913844492803
 10
3.444294491970623
 20
0.8609262524285099
 10
3.443715973150225
 20
0.8620109752167405
 10
3.442920509772172
 20
0.8630233831524476
 10
3.442052731541595
 20
0.8639634762355886
 10
3.44118495331098
 20
0.8647589396136204
 10
3.440317175080402
 20
0.8654097732865629
 10
3.439521711702371
 20
0.8658436624018719
 10
3.438943192881973
 20
0.8659882921069609
 10
3.421226054007353
 20
0.8659882921069609
 10
3.422310776795582
 20
0.8649758841712751
 10
3.423540129288923
 20
0.8638188465304793
 10
3.424914111487375
 20
0.8624448643320492
 10
3.42621577883326
 20
0.8608539375759658
 10
3.4274451313266
 20
0.8590460662622273
 10
3.428385224409741
 20
0.857165880095923
 10
3.429108372935249
 20
0.8550687493720062
 10
3.429325317492883
 20
0.852899303795503
 10
3.429325317492883
 20
0.7893345484045195
 10
3.445596159316531
 20
0.8024958515685213
 10
3.445596159316531
 20
0.8484880977899948
 10
3.445668474169075
 20
0.8496451354307906
 10
3.445885418726708
 20
0.8507298582190209
 10
3.446319307842016
 20
0.851742266154728
 10
3.446825511809868
 20
0.8527546740904142
 10
3.447404030630246
 20
0.8537670820260998
 10
3.448127179155756
 20
0.8546348602566972
 10
3.44899495738633
 20
0.8555026384872943
 10
3.449862735616928
 20
0.856298101865347
 10
3.450875143552613
 20
0.8569489355382895
 10
3.451887551488321
 20
0.8575274543586877
 10
3.452972274276572
 20
0.8581059731790855
 10
3.454056997064803
 20
0.8584675474418288
 10
3.455214034705578
 20
0.8588291217045721
 10
3.456371072346373
 20
0.8589737514096611
 10
3.457455795134626
 20
0.8591183811147713
 10
3.458612832775421
 20
0.8590460662622273
 10
3.460420704089161
 20
0.858756806852028
 10
3.462156260550353
 20
0.8581782880316302
 10
3.463819502158982
 20
0.8573828246535772
 10
3.465265799209976
 20
0.856298101865347
 10
3.466495151703318
 20
0.8549964345194407
 10
3.467435244786437
 20
0.8534778226159014
 10
3.468013763606836
 20
0.8516699513021631
 10
3.468230708164512
 20
0.8496451354307906
 10
3.468230708164512
 20
0.7983015901206674
 10
3.468447652722144
 20
0.7964214039543847
 10
3.469026171542545
 20
0.7946858474931906
 10
3.46989394977314
 20
0.7931672355896509
 10
3.471123302266458
 20
0.7918655682437663
 10
3.472569599317474
 20
0.7907808454555143
 10
3.474232840926106
 20
0.7899130672249175
 10
3.476040712239845
 20
0.789406863257085
 10
3.477993213258669
 20
0.789262233551975
 10
3.491516090685436
 20
0.789262233551975
  0
LWPOLYLINE
  5
EF4
330
17
100
AcDbEntity
  8
4
  6
Continuous
100
AcDbPolyline
 90
       46
 70
     0
 43
0.0
 10
3.796328441387478
 20
0.8657713475493276
 10
3.757061476453126
 20
0.8657713475493276
 10
3.757929254683703
 20
0.8646143099085318
 10
3.758797032914301
 20
0.8633126425626254
 10
3.759520181439808
 20
0.8620109752167405
 10
3.760171015112751
 20
0.860636993018311
 10
3.760749533933147
 20
0.8591906959673154
 10
3.761183423048413
 20
0.8577443989163207
 10
3.761472682458636
 20
0.8563704167178912
 10
3.761544997311178
 20
0.8549241196668958
 10
3.761544997311178
 20
0.7881775107637448
 10
3.779045191628148
 20
0.8050268714077677
 10
3.779045191628148
 20
0.8349652203632494
 10
3.802619833559268
 20
0.8349652203632494
 10
3.804138445462831
 20
0.8350375352157936
 10
3.805729372218893
 20
0.8351098500683383
 10
3.807175669269908
 20
0.8353267946259926
 10
3.808694281173428
 20
0.8356160540361914
 10
3.810068263371857
 20
0.8360499431514796
 10
3.811442245570308
 20
0.8366284619718776
 10
3.812743912916213
 20
0.8372792956448201
 10
3.813973265409553
 20
0.8380747590228725
 10
3.815057988197786
 20
0.8390148521060144
 10
3.815998081280924
 20
0.8401718897468102
 10
3.816865859511523
 20
0.8414012422401507
 10
3.817589008037031
 20
0.8428475392911456
 10
3.818095212004863
 20
0.8445107808997747
 10
3.818529101120152
 20
0.8463186522135124
 10
3.818746045677806
 20
0.8483434680849056
 10
3.818746045677806
 20
0.8505852285139321
 10
3.818529101120152
 20
0.8529716186480689
 10
3.818095212004863
 20
0.8551410642245508
 10
3.817372063479356
 20
0.8570212503908336
 10
3.816504285248781
 20
0.858684491999462
 10
3.815347247607983
 20
0.8601307890504571
 10
3.814117895114646
 20
0.861360141543798
 10
3.81267159806365
 20
0.8623725494794838
 10
3.811152986160109
 20
0.8632403277100806
 10
3.809417429698916
 20
0.8639634762355886
 10
3.807681873237743
 20
0.8645419950559869
 10
3.805874001924003
 20
0.8649758841712751
 10
3.803993815757721
 20
0.8652651435814735
 10
3.802041314738871
 20
0.8655544029916729
 10
3.800088813720043
 20
0.8656990326967617
 10
3.798208627553761
 20
0.8657713475493276
 10
3.796328441387478
 20
0.8657713475493276
  0
LWPOLYLINE
  5
EF5
330
17
100
AcDbEntity
  8
4
  6
Continuous
100
AcDbPolyline
 90
       88
 70
     0
 43
0.0
 10
4.574638777266248
 20
0.8646866247610759
 10
4.52727254884637
 20
0.8646866247610759
 10
4.528574216192255
 20
0.8636742168253901
 10
4.529875883538139
 20
0.8625171791845938
 10
4.531032921178934
 20
0.8612155118387093
 10
4.532117643967167
 20
0.859913844492803
 10
4.532985422197763
 20
0.8583952325892632
 10
4.533636255870705
 20
0.8568766206857237
 10
4.534070144986014
 20
0.8551410642245508
 10
4.534287089543648
 20
0.8534055077633567
 10
4.534287089543648
 20
0.8031466852414851
 10
4.522065879462786
 20
0.789768437519829
 10
4.565671735550123
 20
0.789768437519829
 10
4.566539513780718
 20
0.789768437519829
 10
4.567407292011298
 20
0.7899130672249175
 10
4.568275070241915
 20
0.789985382077462
 10
4.569070533619946
 20
0.7902023266351163
 10
4.569938311850544
 20
0.7904192711927709
 10
4.57080609008114
 20
0.79070853060297
 10
4.571601553459172
 20
0.7909977900131691
 10
4.572469331689767
 20
0.7914316791284568
 10
4.573264795067823
 20
0.7917932533912003
 10
4.574060258445851
 20
0.7922271425065098
 10
4.57478340697136
 20
0.7927333464743418
 10
4.57550655549687
 20
0.7932395504421952
 10
4.576229704022356
 20
0.7938180692625934
 10
4.576952852547843
 20
0.7943965880829916
 10
4.577531371368241
 20
0.7949751069033897
 10
4.578182205041181
 20
0.7956259405763319
 10
4.579917761502376
 20
0.797795386152814
 10
4.581291743700806
 20
0.800326405992039
 10
4.582304151636514
 20
0.8030020555363748
 10
4.582882670456911
 20
0.8057500199332546
 10
4.582954985309456
 20
0.8085702991826796
 10
4.582521096194146
 20
0.8111736338744702
 10
4.581436373405896
 20
0.8136323388611517
 10
4.579773131797288
 20
0.8158017844376338
 10
4.564008493941495
 20
0.8090041882979884
 10
4.564803957319528
 20
0.8078471506571926
 10
4.565454790992469
 20
0.806545483311307
 10
4.565960994960322
 20
0.8052438159654013
 10
4.566322569223068
 20
0.8038698337669721
 10
4.566539513780718
 20
0.8024958515685213
 10
4.566539513780718
 20
0.8011218693700921
 10
4.566322569223068
 20
0.7997478871716415
 10
4.565888680107778
 20
0.7984462198257565
 10
4.56531016128738
 20
0.7975061267426149
 10
4.564659327614438
 20
0.7966383485120177
 10
4.563791549383842
 20
0.7958428851339865
 10
4.562923771153244
 20
0.7952643663135888
 10
4.561911363217538
 20
0.794758162345735
 10
4.560898955281873
 20
0.7943242732304472
 10
4.55981423249362
 20
0.7941073286727926
 10
4.558729509705369
 20
0.7940350138202481
 10
4.534070144986014
 20
0.7940350138202481
 10
4.550413301662183
 20
0.8109566893168159
 10
4.550413301662183
 20
0.8274444756980956
 10
4.569649052440344
 20
0.8274444756980956
 10
4.569649052440344
 20
0.8332296639020553
 10
4.550702561072381
 20
0.8332296639020553
 10
4.550702561072381
 20
0.8552133790770955
 10
4.547303763002561
 20
0.8604923633132004
 10
4.558223305737514
 20
0.8604923633132004
 10
4.560682010724196
 20
0.860347733608112
 10
4.56270682659561
 20
0.8597692147877138
 10
4.564297753351671
 20
0.8588291217045721
 10
4.565454790992469
 20
0.8575274543586877
 10
4.566105624665413
 20
0.856008842455148
 10
4.566322569223068
 20
0.8542732859939539
 10
4.566033309812866
 20
0.8523207849751264
 10
4.565237846434833
 20
0.8503682839562776
 10
4.582159521931404
 20
0.845233929425261
 10
4.5833165595722
 20
0.8464632819186018
 10
4.584184337802796
 20
0.8478372641170517
 10
4.58483517147574
 20
0.8493558760205917
 10
4.585196745738483
 20
0.8508744879241314
 10
4.585341375443592
 20
0.8524654146802156
 10
4.585196745738483
 20
0.8541286562888434
 10
4.584907486328285
 20
0.8557195830449487
 10
4.584401282360431
 20
0.8573105098010325
 10
4.583750448687487
 20
0.858756806852028
 10
4.582882670456911
 20
0.8602031039030016
 10
4.581870262521205
 20
0.8614324563963425
 10
4.580640910027865
 20
0.8625171791845938
 10
4.57933924268198
 20
0.8634572722677358
 10
4.577892945630982
 20
0.8641081059406779
 10
4.576302018874901
 20
0.8645419950559869
 10
4.574638777266248
 20
0.8646866247610759
  0
LWPOLYLINE
  5
EF6
330
17
100
AcDbEntity
  8
4
  6
Continuous
100
AcDbPolyline
 90
       21
 70
     0
 43
0.0
 10
3.07403696102042
 20
0.8858508415124376
 10
3.07403696102042
 20
0.8009363613548599
 10
3.077356488581318
 20
0.7680078334963856
 10
3.081298427559873
 20
0.8009363613548599
 10
3.081298427559873
 20
0.8857026483177508
 10
3.081209511643076
 20
0.8869178325141502
 10
3.080972402531574
 20
0.8879848235158631
 10
3.08061673886433
 20
0.8888739826839644
 10
3.080172159280288
 20
0.8896149486573783
 10
3.079609025140486
 20
0.8901780827971808
 10
3.078986613722814
 20
0.8905930237422746
 10
3.078334563666214
 20
0.8908301328537785
 10
3.077682513609618
 20
0.8909190487705732
 10
3.077000824914076
 20
0.8908597714927029
 10
3.076348774857477
 20
0.8906226623812203
 10
3.075726363439804
 20
0.8902077214361053
 10
3.075163229300023
 20
0.8896742259352489
 10
3.074718649715963
 20
0.8889628986007807
 10
3.07436298604874
 20
0.8880737394326796
 10
3.074125876937236
 20
0.8870363870698918
 10
3.07403696102042
 20
0.8858508415124376
  0
LWPOLYLINE
  5
EF7
330
17
100
AcDbEntity
  8
4
  6
Continuous
100
AcDbPolyline
 90
       21
 70
     0
 43
0.0
 10
3.061706131775084
 20
0.8737129893063459
 10
3.061706131775084
 20
0.8009659999938062
 10
3.065351684364259
 20
0.7680078334963856
 10
3.069115791509203
 20
0.8008178067991188
 10
3.069115791509203
 20
0.8739797370567741
 10
3.069026875592386
 20
0.8751652826142278
 10
3.068789766480903
 20
0.8761729963380702
 10
3.068434102813657
 20
0.8770325168672258
 10
3.067959884590674
 20
0.877743844201715
 10
3.067396750450868
 20
0.8782477010636251
 10
3.066774339033218
 20
0.8786330033697947
 10
3.066092650337676
 20
0.8788404738423523
 10
3.065410961642133
 20
0.8788997511202229
 10
3.064729272946589
 20
0.878781196564482
 10
3.064047584251043
 20
0.8785144488140538
 10
3.063425172833393
 20
0.8780995078689382
 10
3.062862038693593
 20
0.877536373729157
 10
3.062387820470626
 20
0.876795407755743
 10
3.062032156803361
 20
0.8759358872265663
 10
3.061795047691879
 20
0.8748985348637996
 10
3.061706131775084
 20
0.8737129893063459
  0
LINE
  5
EF8
330
17
100
AcDbEntity
  8
0
100
AcDbLine
 10
3.023453708637739
 20
0.3999999999999781
 30
0.0
 11
3.023453708637739
 21
0.9079899383900292
 31
0.0
  0
LWPOLYLINE
  5
EF9
330
17
100
AcDbEntity
  8
4
  6
Continuous
100
AcDbPolyline
 90
       21
 70
     0
 43
0.0
 10
3.086041765237478
 20
0.8788026905970486
 10
3.086041765237478
 20
0.8009363613548599
 10
3.089361292798358
 20
0.7680078334963856
 10
3.093303231776932
 20
0.8009363613548599
 10
3.093303231776932
 20
0.8786544974023616
 10
3.093214315860113
 20
0.8798696815987614
 10
3.092977206748611
 20
0.8809366726004741
 10
3.092621543081386
 20
0.8818258317685753
 10
3.092176963497326
 20
0.8825667977419895
 10
3.091613829357544
 20
0.8831299318817919
 10
3.090991417939873
 20
0.8835448728269073
 10
3.090339367883273
 20
0.883781981938389
 10
3.089687317826677
 20
0.8838708978552061
 10
3.089005629131133
 20
0.8838116205773353
 10
3.088353579074535
 20
0.8835745114658315
 10
3.087731167656863
 20
0.8831595705207162
 10
3.087168033517081
 20
0.8826260750198603
 10
3.086723453933021
 20
0.8819147476853919
 10
3.086367790265776
 20
0.8810255885172907
 10
3.086130681154273
 20
0.879988236154524
 10
3.086041765237478
 20
0.8788026905970486
  0
LINE
  5
EFA
330
17
100
AcDbEntity
  8
0
100
AcDbLine
 10
3.023453708637739
 20
0.5674612305743733
 30
0.0
 11
4.386742347626951
 21
0.5674612305743733
 31
0.0
  0
TEXT
  5
EFB
330
17
100
AcDbEntity
  8
3
100
AcDbText
 10
3.043253008279623
 20
0.5930385316707488
 30
0.0
 40
0.0195380745534632
  1
FILE PATH:
  7
SIMPLEX
100
AcDbText
  0
TEXT
  5
EFC
330
17
100
AcDbEntity
  8
3
100
AcDbText
 10
3.040137464097638
 20
0.5244943552773444
 30
0.0
 40
0.0195380745534632
  1
MAT'L DESCRIPTION:
  7
SIMPLEX
100
AcDbText
  0
TEXT
  5
EFD
330
17
100
AcDbEntity
  8
3
100
AcDbText
 10
3.044302834263338
 20
0.7126091928553993
 30
0.0
 40
0.0195380745534632
  1
NAME:
  7
SIMPLEX
100
AcDbText
  0
LWPOLYLINE
  5
EFE
330
17
100
AcDbEntity
  8
4
  6
Continuous
100
AcDbPolyline
 90
       18
 70
     0
 43
0.0
 10
3.079786856974098
 20
0.8008770840769891
 10
3.079757218335173
 20
0.8004028658540034
 10
3.079697941057303
 20
0.7999286476310177
 10
3.079549747862616
 20
0.7995137066859024
 10
3.079371916028983
 20
0.7991284043797329
 10
3.079075529639631
 20
0.7987727407125096
 10
3.078719865972388
 20
0.7985059929620602
 10
3.07830492502727
 20
0.7983281611284485
 10
3.077771429526413
 20
0.7982392452116322
 10
3.077267572664502
 20
0.7982688838505779
 10
3.076793354441518
 20
0.798417077045265
 10
3.076437690774274
 20
0.7986838247956931
 10
3.076141304384921
 20
0.7990394884629377
 10
3.075904195273417
 20
0.7994544294080317
 10
3.075726363439804
 20
0.7998990089920928
 10
3.075607808884062
 20
0.800373227215079
 10
3.07557817024514
 20
0.8008770840769891
 10
3.079786856974098
 20
0.8008770840769891
  0
LWPOLYLINE
  5
EFF
330
17
100
AcDbEntity
  8
4
  6
Continuous
100
AcDbPolyline
 90
       18
 70
     0
 43
0.0
 10
3.075548531606195
 20
0.8026257637742455
 10
3.075518892967247
 20
0.8039002252485158
 10
3.075518892967247
 20
0.8052932412785276
 10
3.075518892967247
 20
0.8068048118643016
 10
3.075637447522988
 20
0.8084349370057957
 10
3.075844917995568
 20
0.8101539780641271
 10
3.076230220301736
 20
0.8119915736781791
 10
3.076822993080464
 20
0.8139180852090682
 10
3.077682513609618
 20
0.8159335126567523
 10
3.07839384094411
 20
0.8140366397648094
 10
3.078956975083889
 20
0.8121694055118119
 10
3.079371916028983
 20
0.8103614485366851
 10
3.079668302418359
 20
0.8086127688394284
 10
3.079846134251991
 20
0.8069233664200428
 10
3.079905411529861
 20
0.8053821571953442
 10
3.079905411529861
 20
0.8039298638874621
 10
3.079846134251991
 20
0.8026257637742455
 10
3.075548531606195
 20
0.8026257637742455
  0
LWPOLYLINE
  5
F00
330
17
100
AcDbEntity
  8
4
  6
Continuous
100
AcDbPolyline
 90
       18
 70
     0
 43
0.0
 10
3.062950954610408
 20
0.8025072092185045
 10
3.062921315971484
 20
0.8042262502768149
 10
3.063039870527225
 20
0.8060045686130173
 10
3.06324734099976
 20
0.8077828869491979
 10
3.063543727389133
 20
0.8095315666464543
 10
3.063929029695305
 20
0.811191330426894
 10
3.064373609279366
 20
0.8126732623737225
 10
3.064877466141276
 20
0.8139773624869386
 10
3.065440600281078
 20
0.8149850762107806
 10
3.065914818504043
 20
0.8140070011258631
 10
3.066389036727051
 20
0.8127621782905388
 10
3.06683361631109
 20
0.8112506077047648
 10
3.06721891861726
 20
0.8095612052854001
 10
3.067544943645558
 20
0.8077828869491979
 10
3.067782052757061
 20
0.8059749299740708
 10
3.067900607312803
 20
0.8041966116378901
 10
3.067900607312803
 20
0.8025072092185045
 10
3.062950954610408
 20
0.8025072092185045
  0
LWPOLYLINE
  5
F01
330
17
100
AcDbEntity
  8
4
  6
Continuous
100
AcDbPolyline
 90
       18
 70
     0
 43
0.0
 10
3.067841330034933
 20
0.8008770840769891
 10
3.067841330034933
 20
0.8004028658540034
 10
3.067782052757061
 20
0.7999286476310177
 10
3.067633859562374
 20
0.7994840680469775
 10
3.067396750450868
 20
0.7990394884629377
 10
3.067100364061518
 20
0.7986541861567475
 10
3.066685423116403
 20
0.7983577997673943
 10
3.066211204893417
 20
0.7981503292948366
 10
3.065618432114691
 20
0.7980910520169662
 10
3.065025659335963
 20
0.7981799679337615
 10
3.064521802474051
 20
0.7983577997673943
 10
3.064077222889991
 20
0.7986245475178225
 10
3.063691920583821
 20
0.7990098498239922
 10
3.063425172833393
 20
0.7994247907691073
 10
3.063188063721912
 20
0.799869370353147
 10
3.063069509166148
 20
0.800373227215079
 10
3.063010231888278
 20
0.8008770840769891
 10
3.067841330034933
 20
0.8008770840769891
  0
LWPOLYLINE
  5
F02
330
17
100
AcDbEntity
  8
4
  6
Continuous
100
AcDbPolyline
 90
       18
 70
     0
 43
0.0
 10
3.087553335823252
 20
0.8026257637742455
 10
3.087523697184304
 20
0.8039002252485158
 10
3.087523697184304
 20
0.8052932412785276
 10
3.087523697184304
 20
0.8068048118643016
 10
3.087642251740048
 20
0.8084349370057957
 10
3.087849722212606
 20
0.8101539780641271
 10
3.088235024518795
 20
0.8119915736781791
 10
3.088827797297502
 20
0.8139180852090682
 10
3.089687317826677
 20
0.8159335126567523
 10
3.090398645161143
 20
0.8140366397648094
 10
3.090961779300926
 20
0.8121694055118119
 10
3.09137672024604
 20
0.8103614485366851
 10
3.091673106635416
 20
0.8086127688394284
 10
3.091850938469048
 20
0.8069233664200428
 10
3.091910215746898
 20
0.8053821571953442
 10
3.091910215746898
 20
0.8039298638874621
 10
3.091850938469048
 20
0.8026257637742455
 10
3.087553335823252
 20
0.8026257637742455
  0
LWPOLYLINE
  5
F03
330
17
100
AcDbEntity
  8
4
  6
Continuous
100
AcDbPolyline
 90
       18
 70
     0
 43
0.0
 10
3.091791661191158
 20
0.8008770840769891
 10
3.091762022552232
 20
0.8004028658540034
 10
3.091702745274361
 20
0.7999286476310177
 10
3.091554552079673
 20
0.7995137066859024
 10
3.09137672024604
 20
0.7991284043797329
 10
3.091080333856688
 20
0.7987727407125096
 10
3.090724670189446
 20
0.7985059929620602
 10
3.090309729244328
 20
0.7983281611284485
 10
3.089776233743473
 20
0.7982392452116322
 10
3.089272376881561
 20
0.7982688838505779
 10
3.088798158658576
 20
0.798417077045265
 10
3.088442494991332
 20
0.7986838247956931
 10
3.088146108601956
 20
0.7990394884629377
 10
3.087908999490476
 20
0.7994544294080317
 10
3.087731167656863
 20
0.7998990089920928
 10
3.087612613101101
 20
0.800373227215079
 10
3.087582974462176
 20
0.8008770840769891
 10
3.091791661191158
 20
0.8008770840769891
  0
LWPOLYLINE
  5
F04
330
17
100
AcDbEntity
  8
4
  6
Continuous
100
AcDbPolyline
 90
        5
 70
     0
 43
0.0
 10
3.390614906084904
 20
0.8272275311404413
 10
3.369426654287894
 20
0.8407504085672082
 10
3.369426654287894
 20
0.8275167905506407
 10
3.390687220937446
 20
0.8160910438478325
 10
3.390614906084904
 20
0.8272275311404413
  0
TEXT
  5
F05
330
17
100
AcDbEntity
  8
3
100
AcDbText
 10
3.269915196420176
 20
0.4457883764645078
 30
0.0
 40
0.0290726549355533
  1
MATERIAL: .0201 (24 GA) SILVER WIRE
  7
SIMPLEX
 72
     1
 11
3.705312814383582
 21
0.4457883764645078
 31
0.0
100
AcDbText
  0
TEXT
  5
F06
330
17
100
AcDbEntity
  8
3
100
AcDbText
 10
3.450964582628681
 20
0.5863608505722211
 30
0.0
 40
0.0290726549355533
  1
DWG/PART NO/022054
  7
SIMPLEX
 72
     1
 11
3.707080828489508
 21
0.5863608505722211
 31
0.0
100
AcDbText
  0
TEXT
  5
F07
330
17
100
AcDbEntity
  8
3
100
AcDbText
 10
4.40529491002648
 20
0.5077942279632879
 30
0.0
 40
0.0195380745534632
  1
PART/DWG. NO.
  7
SIMPLEX
100
AcDbText
  0
LINE
  5
F08
330
17
100
AcDbEntity
  8
0
100
AcDbLine
 10
4.386742347626951
 20
0.3999999999999781
 30
0.0
 11
4.386742347626951
 21
0.6344568946415388
 31
0.0
  0
TEXT
  5
F09
330
17
100
AcDbEntity
  8
3
100
AcDbText
 10
3.823945926920222
 20
0.6555745713440233
 30
0.0
 40
0.0390761491069264
  1
CONTACT WIRES
  7
SIMPLEX
 72
     1
 11
4.055611668054143
 21
0.6555745713440233
 31
0.0
100
AcDbText
  0
TEXT
  5
F0A
330
17
100
AcDbEntity
  8
3
100
AcDbText
 10
4.616012085940513
 20
0.5808757110786713
 30
0.0
 40
0.0193817699570355
  1
OF
  7
SIMPLEX
100
AcDbText
  0
TEXT
  5
F0B
330
17
100
AcDbEntity
  8
3
100
AcDbText
 10
4.415369994580626
 20
0.5810417607120339
 30
0.0
 40
0.0193817699570355
  1
SHEET
  7
SIMPLEX
100
AcDbText
  0
TEXT
  5
F0C
330
17
100
AcDbEntity
  8
3
100
AcDbText
 10
4.547953593100948
 20
0.5703496723007852
 30
0.0
 40
0.0390761491069264
  1
1
  7
SIMPLEX
100
AcDbText
  0
TEXT
  5
F0D
330
17
100
AcDbEntity
  8
3
100
AcDbText
 10
4.700213043047613
 20
0.5703496723007852
 30
0.0
 40
0.0390761491069264
  1
1
  7
SIMPLEX
100
AcDbText
  0
LINE
  5
F0E
330
17
100
AcDbEntity
  8
0
100
AcDbLine
 10
4.750001827106558
 20
0.544418568244936
 30
0.0
 11
4.750001827106558
 21
0.6344568946415388
 31
0.0
  0
LINE
  5
F10
330
17
100
AcDbEntity
  8
0
100
AcDbLine
 10
3.077609008992713
 20
0.8909126570647657
 30
0.0
 11
3.077609008992713
 21
0.8909126570647657
 31
0.0
  0
LINE
  5
F16
330
17
100
AcDbEntity
  8
0
100
AcDbLine
 10
4.919877395704181
 20
0.3999999999999994
 30
0.0
 11
4.919877395704181
 21
0.544418568244936
 31
0.0
  0
TEXT
  5
F17
330
17
100
AcDbEntity
  8
3
100
AcDbText
 10
4.99559590166987
 20
0.4294761699672533
 30
0.0
 40
0.0437652869997576
  1
*
  7
SIMPLEX
 72
     1
 11
5.006016208098384
 21
0.4294761699672533
 31
0.0
100
AcDbText
  0
TEXT
  5
F18
330
17
100
AcDbEntity
  8
3
100
AcDbText
 10
4.978968976002731
 20
0.5076734181816667
 30
0.0
 40
0.0195380745534632
  1
REV.
  7
SIMPLEX
100
AcDbText
  0
TEXT
  5
F19
330
17
100
AcDbEntity
  8
3
100
AcDbText
 10
4.95090336104415
 20
0.5741210261090735
 30
0.0
 40
0.0267906078277087
  1
2=1
  7
SIMPLEX
 72
     1
 11
4.983434813406367
 21
0.5741210261090735
 31
0.0
100
AcDbText
  0
TEXT
  5
F1A
330
17
100
AcDbEntity
  8
2
100
AcDbText
 10
3.931940368805913
 20
3.786279509760205
 30
0.0
 40
0.039
  1
E
  7
SIMPLEX
 72
     1
 11
3.944011797377342
 21
3.786279509760205
 31
0.0
100
AcDbText
  0
TEXT
  5
F1B
330
17
100
AcDbEntity
  8
2
100
AcDbText
 10
3.165885682344001
 20
3.786279509760205
 30
0.0
 40
0.039
  1
D
  7
SIMPLEX
 72
     1
 11
3.178885682344001
 21
3.786279509760205
 31
0.0
100
AcDbText
  0
LINE
  5
F1C
330
17
100
AcDbEntity
  8
3
100
AcDbLine
 10
3.578903951402174
 20
3.787563112303041
 30
0.0
 11
3.578903951402174
 21
3.85
 31
0.0
  0
LINE
  5
F1D
330
17
100
AcDbEntity
  8
3
100
AcDbLine
 10
4.333201975701086
 20
3.787563112303041
 30
0.0
 11
4.333201975701086
 21
3.85
 31
0.0
  0
TEXT
  5
F1E
330
17
100
AcDbEntity
  8
2
100
AcDbText
 10
4.686136110767352
 20
3.786279509760205
 30
0.0
 40
0.039
  1
F
  7
SIMPLEX
 72
     1
 11
4.698207539338781
 21
3.786279509760205
 31
0.0
100
AcDbText
  0
LINE
  5
F1F
330
17
100
AcDbEntity
  8
4
100
AcDbLine
 10
5.524999999999997
 20
4.25
 30
0.0
 11
0.0000000000000001
 21
4.249999999999999
 31
0.0
  0
LINE
  5
F22
330
17
100
AcDbEntity
  8
0
100
AcDbLine
 10
2.431980873009345
 20
2.549685396051553
 30
0.0
 11
1.254530873009344
 21
2.549685396051553
 31
0.0
  0
LINE
  5
F23
330
17
100
AcDbEntity
  8
0
100
AcDbLine
 10
2.431980873009345
 20
2.529585396051553
 30
0.0
 11
2.431980873009345
 21
2.549685396051553
 31
0.0
  0
LINE
  5
F24
330
17
100
AcDbEntity
  8
0
100
AcDbLine
 10
2.431980873009345
 20
2.529585396051553
 30
0.0
 11
1.234430873009346
 21
2.529585396051553
 31
0.0
  0
LINE
  5
F25
330
17
100
AcDbEntity
  8
0
100
AcDbLine
 10
1.234430873009346
 20
2.842085396051551
 30
0.0
 11
1.234430873009346
 21
2.529585396051553
 31
0.0
  0
LINE
  5
F26
330
17
100
AcDbEntity
  8
0
100
AcDbLine
 10
1.254530873009346
 20
2.842085396051551
 30
0.0
 11
1.254530873009344
 21
2.549685396051553
 31
0.0
  0
LINE
  5
F27
330
17
100
AcDbEntity
  8
0
100
AcDbLine
 10
1.254530873009346
 20
2.842085396051551
 30
0.0
 11
1.234430873009346
 21
2.842085396051551
 31
0.0
  0
LINE
  5
F28
330
17
100
AcDbEntity
  8
0
100
AcDbLine
 10
4.430409817128508
 20
2.529585396051553
 30
0.0
 11
3.326609817128507
 21
2.529585396051553
 31
0.0
  0
LINE
  5
F29
330
17
100
AcDbEntity
  8
0
100
AcDbLine
 10
4.430409817128508
 20
2.549685396051553
 30
0.0
 11
3.346709817128508
 21
2.549685396051553
 31
0.0
  0
LINE
  5
F2A
330
17
100
AcDbEntity
  8
0
100
AcDbLine
 10
3.326609817128507
 20
2.842085396051553
 30
0.0
 11
3.326609817128507
 21
2.529585396051553
 31
0.0
  0
LINE
  5
F2B
330
17
100
AcDbEntity
  8
0
100
AcDbLine
 10
3.346709817128508
 20
2.842085396051553
 30
0.0
 11
3.346709817128508
 21
2.549685396051553
 31
0.0
  0
LINE
  5
F2C
330
17
100
AcDbEntity
  8
0
100
AcDbLine
 10
3.346709817128508
 20
2.842085396051553
 30
0.0
 11
3.326609817128507
 21
2.842085396051551
 31
0.0
  0
LINE
  5
F2D
330
17
100
AcDbEntity
  8
0
100
AcDbLine
 10
4.430409817128508
 20
2.529585396051553
 30
0.0
 11
4.430409817128508
 21
2.549685396051553
 31
0.0
  0
DIMENSION
  5
F2E
330
17
100
AcDbEntity
  8
3
100
AcDbDimension
  2
*D0
 10
0.9775158195912075
 20
2.529585396051553
 30
0.0
 11
0.773111057686446
 21
2.685835396051553
 31
0.0
 70
    32
 71
     5
 42
-1.0
  3
STANDARD
100
AcDbAlignedDimension
 13
1.234430873009346
 23
2.842085396051551
 33
0.0
 14
1.234430873009346
 24
2.529585396051553
 34
0.0
 50
90.0
100
AcDbRotatedDimension
1001
ACAD
1000
DSTYLE
1002
{
1070
    40
1040
0.5
1070
    41
1040
0.125
1070
    44
1040
0.0625
1070
    78
1070
     4
1070
   140
1040
0.125
1070
   141
1040
-0.125
1070
   271
1070
     5
1070
   272
1070
     3
1070
   276
1070
     2
1070
   277
1070
     5
1070
   279
1070
     2
1070
   284
1070
     4
1070
   285
1070
     4
1070
   286
1070
     4
1070
   340
1005
1C
1002
}
  0
DIMENSION
  5
F2F
330
17
100
AcDbEntity
  8
3
100
AcDbDimension
  2
*D1
 10
4.430409817128508
 20
2.256690095649814
 30
0.0
 11
3.878509817128506
 21
2.256690095649814
 31
0.0
 70
    32
 71
     5
 42
-1.0
  3
STANDARD
100
AcDbAlignedDimension
 13
3.326609817128507
 23
2.529585396051553
 33
0.0
 14
4.430409817128508
 24
2.529585396051553
 34
0.0
100
AcDbRotatedDimension
1001
ACAD
1000
DSTYLE
1002
{
1070
    40
1040
0.5
1070
    41
1040
0.125
1070
    44
1040
0.0625
1070
    78
1070
     4
1070
   140
1040
0.125
1070
   141
1040
-0.125
1070
   271
1070
     5
1070
   272
1070
     3
1070
   276
1070
     2
1070
   277
1070
     5
1070
   279
1070
     2
1070
   284
1070
     4
1070
   285
1070
     4
1070
   286
1070
     4
1070
   340
1005
1C
1002
}
  0
DIMENSION
  5
F30
330
17
100
AcDbEntity
  8
3
100
AcDbDimension
  2
*D2
 10
2.431980873009345
 20
2.256690095649814
 30
0.0
 11
1.833205873009345
 21
2.256690095649814
 31
0.0
 70
    32
 71
     5
 42
-1.0
  3
STANDARD
100
AcDbAlignedDimension
 13
1.234430873009346
 23
2.529585396051553
 33
0.0
 14
2.431980873009345
 24
2.529585396051553
 34
0.0
100
AcDbRotatedDimension
1001
ACAD
1000
DSTYLE
1002
{
1070
    40
1040
0.5
1070
    41
1040
0.125
1070
    44
1040
0.0625
1070
    78
1070
     4
1070
   140
1040
0.125
1070
   141
1040
-0.125
1070
   271
1070
     5
1070
   272
1070
     3
1070
   276
1070
     2
1070
   277
1070
     5
1070
   279
1070
     2
1070
   284
1070
     4
1070
   285
1070
     4
1070
   286
1070
     4
1070
   340
1005
1C
1002
}
  0
DIMENSION
  5
F35
330
17
100
AcDbEntity
  8
3
100
AcDbDimension
  2
*D3
 10
3.089737292402678
 20
2.529585396051553
 30
0.0
 11
2.885332530497917
 21
2.685835396051553
 31
0.0
 70
    33
 71
     5
 42
-1.0
  3
STANDARD
100
AcDbAlignedDimension
 13
3.326609817128507
 23
2.842085396051551
 33
0.0
 14
3.326609817128507
 24
2.529585396051553
 34
0.0
1001
ACAD
1000
DSTYLE
1002
{
1070
    40
1040
0.5
1070
    41
1040
0.125
1070
    44
1040
0.0625
1070
    78
1070
     4
1070
   140
1040
0.125
1070
   141
1040
-0.125
1070
   271
1070
     5
1070
   272
1070
     3
1070
   276
1070
     2
1070
   277
1070
     5
1070
   279
1070
     2
1070
   284
1070
     4
1070
   285
1070
     4
1070
   286
1070
     4
1070
   340
1005
1C
1002
}
  0
ENDSEC
  0
SECTION
  2
OBJECTS
  0
DICTIONARY
  5
C
330
0
100
AcDbDictionary
281
     1
  3
ACAD_CIP_PREVIOUS_PRODUCT_INFO
350
FC5
  3
ACAD_COLOR
350
FA3
  3
ACAD_DETAILVIEWSTYLE
350
FBC
  3
ACAD_GROUP
350
D
  3
ACAD_LAYOUT
350
FBE
  3
ACAD_MATERIAL
350
F71
  3
ACAD_MLEADERSTYLE
350
FB8
  3
ACAD_MLINESTYLE
350
1A
  3
ACAD_PLOTSETTINGS
350
FBF
  3
ACAD_PLOTSTYLENAME
350
F6F
  3
ACAD_SCALELIST
350
FA6
  3
ACAD_SECTIONVIEWSTYLE
350
FBA
  3
ACAD_TABLESTYLE
350
FA4
  3
ACAD_VISUALSTYLE
350
F8A
  3
ACDB_RECOMPOSE_DATA
350
104C
  3
ACDBVARIABLEDICTIONARY
350
2B
  3
AcDsDecomposeData
350
1053
  3
DWGPROPS
350
104D
  0
DICTIONARY
  5
FD8
330
2
100
AcDbDictionary
280
     1
281
     1
  3
ACAD_LAYERSTATES
360
FD9
  0
DICTIONARY
  5
FCD
330
E
100
AcDbDictionary
280
     1
281
     1
  3
ADSK_XREC_LAYER_RECONCILED
360
FCE
  0
DICTIONARY
  5
FCF
330
24
100
AcDbDictionary
280
     1
281
     1
  3
ADSK_XREC_LAYER_RECONCILED
360
FD0
  0
DICTIONARY
  5
FD1
330
CF5
100
AcDbDictionary
280
     1
281
     1
  3
ADSK_XREC_LAYER_RECONCILED
360
FD2
  0
DICTIONARY
  5
FD3
330
CF6
100
AcDbDictionary
280
     1
281
     1
  3
ADSK_XREC_LAYER_RECONCILED
360
FD4
  0
XRECORD
  5
FC5
102
{ACAD_REACTORS
330
C
102
}
330
C
100
AcDbXrecord
280
     1
300
AMECH_PP
300
2015
300
PDSU_F_S
  0
DICTIONARY
  5
FA3
102
{ACAD_REACTORS
330
C
102
}
330
C
100
AcDbDictionary
281
     1
  0
DICTIONARY
  5
FBC
102
{ACAD_REACTORS
330
C
102
}
330
C
100
AcDbDictionary
281
     1
  3
Imperial24
350
FBD
  0
DICTIONARY
  5
D
102
{ACAD_REACTORS
330
C
102
}
330
C
100
AcDbDictionary
281
     1
  0
DICTIONARY
  5
FBE
102
{ACAD_REACTORS
330
C
102
}
330
C
100
AcDbDictionary
281
     1
  3
Layout1
350
FC1
  3
Model
350
FC0
  0
DICTIONARY
  5
F71
102
{ACAD_REACTORS
330
C
102
}
330
C
100
AcDbDictionary
281
     1
  3
ByBlock
350
F7A
  3
ByLayer
350
F72
  3
Global
350
F82
  0
DICTIONARY
  5
FB8
102
{ACAD_REACTORS
330
C
102
}
330
C
100
AcDbDictionary
281
     1
  3
Standard
350
FB9
  0
DICTIONARY
  5
1A
102
{ACAD_REACTORS
330
C
102
}
330
C
100
AcDbDictionary
281
     1
  3
STANDARD
350
1B
  0
DICTIONARY
  5
FBF
102
{ACAD_REACTORS
330
C
102
}
330
C
100
AcDbDictionary
281
     1
  0
ACDBDICTIONARYWDFLT
  5
F6F
102
{ACAD_REACTORS
330
C
102
}
330
C
100
AcDbDictionary
281
     1
  3
Normal
350
F70
100
AcDbDictionaryWithDefault
340
F70
  0
DICTIONARY
  5
FA6
102
{ACAD_REACTORS
330
C
102
}
330
C
100
AcDbDictionary
281
     1
  3
A0
350
FA7
  3
A1
350
FA8
  3
A2
350
FA9
  3
A3
350
FAA
  3
A4
350
FAB
  3
A5
350
FAC
  3
A6
350
FAD
  3
A7
350
FAE
  3
A8
350
FAF
  3
A9
350
FB0
  3
B0
350
FB1
  3
B1
350
FB2
  3
B2
350
FB3
  3
B3
350
FB4
  3
B4
350
FB5
  3
B5
350
FB6
  3
B6
350
FB7
  0
DICTIONARY
  5
FBA
102
{ACAD_REACTORS
330
C
102
}
330
C
100
AcDbDictionary
281
     1
  3
Imperial24
350
FBB
  0
DICTIONARY
  5
FA4
102
{ACAD_REACTORS
330
C
102
}
330
C
100
AcDbDictionary
281
     1
  3
Standard
350
FA5
  0
DICTIONARY
  5
F8A
102
{ACAD_REACTORS
330
C
102
}
330
C
100
AcDbDictionary
281
     1
  3
2dWireframe
350
F90
  3
Basic
350
F8F
  3
Brighten
350
F96
  3
ColorChange
350
F9A
  3
Conceptual
350
F93
  3
Dim
350
F95
  3
EdgeColorOff
350
FA2
  3
Facepattern
350
F99
  3
Flat
350
F8B
  3
FlatWithEdges
350
F8C
  3
Gouraud
350
F8D
  3
GouraudWithEdges
350
F8E
  3
Hidden
350
F92
  3
JitterOff
350
FA0
  3
Linepattern
350
F98
  3
OverhangOff
350
FA1
  3
Realistic
350
F94
  3
Shaded
350
F9F
  3
Shaded with edges
350
F9E
  3
Shades of Gray
350
F9B
  3
Sketchy
350
F9C
  3
Thicken
350
F97
  3
Wireframe
350
F91
  3
X-Ray
350
F9D
  0
XRECORD
  5
104C
102
{ACAD_REACTORS
330
C
102
}
330
C
100
AcDbXrecord
280
     1
 90
        1
330
FA5
  0
DICTIONARY
  5
2B
102
{ACAD_REACTORS
330
C
102
}
330
C
100
AcDbDictionary
281
     1
  3
CANNOSCALE
350
1034
  3
CMLEADERSTYLE
350
1030
  3
CTABLESTYLE
350
102F
  3
CVIEWDETAILSTYLE
350
1031
  3
CVIEWSECTIONSTYLE
350
1032
  3
DIMADEC
350
2C
  3
DIMASSOC
350
1046
  3
INDEXCTL
350
1045
  3
LAYEREVAL
350
1036
  3
LAYERNOTIFY
350
1037
  3
LIGHTINGUNITS
350
1035
  3
LOFTANG1
350
1047
  3
LOFTANG2
350
1048
  3
LONGITUDE
350
1049
  3
MSLTSCALE
350
1033
  3
SORTENTS
350
1044
  3
XCLIPFRAME
350
104A
  0
DICTIONARY
  5
1053
102
{ACAD_REACTORS
330
C
102
}
330
C
100
AcDbDictionary
281
     1
  3
AcDsRecords
350
1055
  3
AcDsSchemas
350
1054
1001
ACAD
1070
     2
  0
XRECORD
  5
104D
102
{ACAD_REACTORS
330
C
102
}
330
C
100
AcDbXrecord
280
     1
  1
DWGPROPS COOKIE
  2

  3

  4

  6

  7

  8
jmilewski
  9

300
=
301
=
302
=
303
=
304
=
305
=
306
=
307
=
308
=
309
=
 40
0.2312508333333333
 41
2449051.539295139
 42
2457155.534567929
  1

 90
        0
  0
DICTIONARY
  5
FD9
102
{ACAD_REACTORS
330
FD8
102
}
330
FD8
100
AcDbDictionary
281
     1
  0
XRECORD
  5
FCE
102
{ACAD_REACTORS
330
FCD
102
}
330
FCD
100
AcDbXrecord
280
     1
290
     1
  0
XRECORD
  5
FD0
102
{ACAD_REACTORS
330
FCF
102
}
330
FCF
100
AcDbXrecord
280
     1
290
     1
  0
XRECORD
  5
FD2
102
{ACAD_REACTORS
330
FD1
102
}
330
FD1
100
AcDbXrecord
280
     1
290
     1
  0
XRECORD
  5
FD4
102
{ACAD_REACTORS
330
FD3
102
}
330
FD3
100
AcDbXrecord
280
     1
290
     1
  0
ACDBDETAILVIEWSTYLE
  5
FBD
102
{ACAD_XDICTIONARY
360
103C
102
}
102
{ACAD_REACTORS
330
FBC
102
}
330
FBC
100
AcDbModelDocViewStyle
 70
     0
  3
Imperial24
290
     0
100
AcDbDetailViewStyle
 70
     0
 71
     0
 90
        3
 71
     1
340
F
 40
0.24
340
0
 40
0.24
300

 40
0.36
280
     3
 71
     2
340
13
 90
       25
 71
     3
340
F
 40
0.24
 90
        1
 40
0.75
 90
        1
300
%<\AcVar ViewType \f "%tc1">% %<\AcVar ViewDetailId>%\PSCALE %<\AcVar ViewScale \f "%sn">%
 71
     4
340
13
 90
       25
340
13
 90
       25
280
     0
  0
LAYOUT
  5
FC1
102
{ACAD_XDICTIONARY
360
1091
102
}
102
{ACAD_REACTORS
330
FBE
102
}
330
FBE
100
AcDbPlotSettings
  1

  2
TOSHIBA e-STUDIO351c PS3
  4

  6

 40
0.0
 41
0.0
 42
0.0
 43
0.0
 44
0.0
 45
0.0
 46
0.0
 47
0.0
 48
0.0
 49
0.0
140
0.0
141
0.0
142
1.0
143
1.0
 70
   688
 72
     0
 73
     0
 74
     5
  7
monochrome.ctb
 75
    16
147
1.0
148
0.0
149
0.0
100
AcDbLayout
  1
Layout1
 70
     0
 71
     1
 10
0.0
 20
0.0
 11
12.0
 21
9.0
 12
0.0
 22
0.0
 32
0.0
 14
1.000000000000000E+20
 24
1.000000000000000E+20
 34
1.000000000000000E+20
 15
-1.000000000000000E+20
 25
-1.000000000000000E+20
 35
-1.000000000000000E+20
146
0.0
 13
0.0
 23
0.0
 33
0.0
 16
1.0
 26
0.0
 36
0.0
 17
0.0
 27
1.0
 37
0.0
 76
     0
330
14
  0
LAYOUT
  5
FC0
102
{ACAD_XDICTIONARY
360
108F
102
}
102
{ACAD_REACTORS
330
FBE
102
}
330
FBE
100
AcDbPlotSettings
  1

  2
TOSHIBA e-STUDIO351c PS3
  4

  6

 40
0.0
 41
0.0
 42
0.0
 43
0.0
 44
0.0
 45
0.0
 46
0.0
 47
0.0
 48
0.0
 49
0.0
140
0.0
141
0.0
142
1.0
143
1.0
 70
  1712
 72
     0
 73
     0
 74
     0
  7
monochrome.ctb
 75
     0
147
1.0
148
0.0
149
0.0
100
AcDbLayout
  1
Model
 70
     1
 71
     0
 10
0.0
 20
0.0
 11
12.0
 21
9.0
 12
0.0
 22
0.0
 32
0.0
 14
0.0
 24
0.0
 34
0.0
 15
0.0
 25
0.0
 35
0.0
146
0.0
 13
0.0
 23
0.0
 33
0.0
 16
1.0
 26
0.0
 36
0.0
 17
0.0
 27
1.0
 37
0.0
 76
     0
330
17
331
F6D
  0
MATERIAL
  5
F7A
102
{ACAD_XDICTIONARY
360
F7B
102
}
102
{ACAD_REACTORS
330
F71
102
}
330
F71
100
AcDbMaterial
  1
ByBlock
 72
     0
 43
0.0208333333333333
 43
0.0
 43
0.0
 43
0.0
 43
0.0
 43
0.0208333333333333
 43
0.0
 43
0.0
 43
0.0
 43
0.0
 43
1.0
 43
0.0
 43
0.0
 43
0.0
 43
0.0
 43
1.0
 77
     0
 47
0.0208333333333333
 47
0.0
 47
0.0
 47
0.0
 47
0.0
 47
0.0208333333333333
 47
0.0
 47
0.0
 47
0.0
 47
0.0
 47
1.0
 47
0.0
 47
0.0
 47
0.0
 47
0.0
 47
1.0
171
     0
 49
0.0208333333333333
 49
0.0
 49
0.0
 49
0.0
 49
0.0
 49
0.0208333333333333
 49
0.0
 49
0.0
 49
0.0
 49
0.0
 49
1.0
 49
0.0
 49
0.0
 49
0.0
 49
0.0
 49
1.0
175
     0
142
0.0208333333333333
142
0.0
142
0.0
142
0.0
142
0.0
142
0.0208333333333333
142
0.0
142
0.0
142
0.0
142
0.0
142
1.0
142
0.0
142
0.0
142
0.0
142
0.0
142
1.0
179
     0
144
0.0208333333333333
144
0.0
144
0.0
144
0.0
144
0.0
144
0.0208333333333333
144
0.0
144
0.0
144
0.0
144
0.0
144
1.0
144
0.0
144
0.0
144
0.0
144
0.0
144
1.0
147
0.0208333333333333
147
0.0
147
0.0
147
0.0
147
0.0
147
0.0208333333333333
147
0.0
147
0.0
147
0.0
147
0.0
147
1.0
147
0.0
147
0.0
147
0.0
147
0.0
147
1.0
  0
MATERIAL
  5
F72
102
{ACAD_XDICTIONARY
360
F73
102
}
102
{ACAD_REACTORS
330
F71
102
}
330
F71
100
AcDbMaterial
  1
ByLayer
 72
     0
 43
0.0208333333333333
 43
0.0
 43
0.0
 43
0.0
 43
0.0
 43
0.0208333333333333
 43
0.0
 43
0.0
 43
0.0
 43
0.0
 43
1.0
 43
0.0
 43
0.0
 43
0.0
 43
0.0
 43
1.0
 77
     0
 47
0.0208333333333333
 47
0.0
 47
0.0
 47
0.0
 47
0.0
 47
0.0208333333333333
 47
0.0
 47
0.0
 47
0.0
 47
0.0
 47
1.0
 47
0.0
 47
0.0
 47
0.0
 47
0.0
 47
1.0
171
     0
 49
0.0208333333333333
 49
0.0
 49
0.0
 49
0.0
 49
0.0
 49
0.0208333333333333
 49
0.0
 49
0.0
 49
0.0
 49
0.0
 49
1.0
 49
0.0
 49
0.0
 49
0.0
 49
0.0
 49
1.0
175
     0
142
0.0208333333333333
142
0.0
142
0.0
142
0.0
142
0.0
142
0.0208333333333333
142
0.0
142
0.0
142
0.0
142
0.0
142
1.0
142
0.0
142
0.0
142
0.0
142
0.0
142
1.0
179
     0
144
0.0208333333333333
144
0.0
144
0.0
144
0.0
144
0.0
144
0.0208333333333333
144
0.0
144
0.0
144
0.0
144
0.0
144
1.0
144
0.0
144
0.0
144
0.0
144
0.0
144
1.0
147
0.0208333333333333
147
0.0
147
0.0
147
0.0
147
0.0
147
0.0208333333333333
147
0.0
147
0.0
147
0.0
147
0.0
147
1.0
147
0.0
147
0.0
147
0.0
147
0.0
147
1.0
  0
MATERIAL
  5
F82
102
{ACAD_XDICTIONARY
360
F83
102
}
102
{ACAD_REACTORS
330
F71
102
}
330
F71
100
AcDbMaterial
  1
Global
 72
     0
 43
0.0208333333333333
 43
0.0
 43
0.0
 43
0.0
 43
0.0
 43
0.0208333333333333
 43
0.0
 43
0.0
 43
0.0
 43
0.0
 43
1.0
 43
0.0
 43
0.0
 43
0.0
 43
0.0
 43
1.0
 77
     0
 47
0.0208333333333333
 47
0.0
 47
0.0
 47
0.0
 47
0.0
 47
0.0208333333333333
 47
0.0
 47
0.0
 47
0.0
 47
0.0
 47
1.0
 47
0.0
 47
0.0
 47
0.0
 47
0.0
 47
1.0
171
     0
 49
0.0208333333333333
 49
0.0
 49
0.0
 49
0.0
 49
0.0
 49
0.0208333333333333
 49
0.0
 49
0.0
 49
0.0
 49
0.0
 49
1.0
 49
0.0
 49
0.0
 49
0.0
 49
0.0
 49
1.0
175
     0
142
0.0208333333333333
142
0.0
142
0.0
142
0.0
142
0.0
142
0.0208333333333333
142
0.0
142
0.0
142
0.0
142
0.0
142
1.0
142
0.0
142
0.0
142
0.0
142
0.0
142
1.0
179
     0
144
0.0208333333333333
144
0.0
144
0.0
144
0.0
144
0.0
144
0.0208333333333333
144
0.0
144
0.0
144
0.0
144
0.0
144
1.0
144
0.0
144
0.0
144
0.0
144
0.0
144
1.0
147
0.0208333333333333
147
0.0
147
0.0
147
0.0
147
0.0
147
0.0208333333333333
147
0.0
147
0.0
147
0.0
147
0.0
147
1.0
147
0.0
147
0.0
147
0.0
147
0.0
147
1.0
  0
MLEADERSTYLE
  5
FB9
102
{ACAD_XDICTIONARY
360
108B
102
}
102
{ACAD_REACTORS
330
FB8
102
}
330
FB8
100
AcDbMLeaderStyle
170
     2
171
     1
172
     0
 90
        2
 40
0.0
 41
0.0
173
     1
 91
-1056964608
340
11
 92
       -2
290
     1
 42
0.09
291
     1
 43
0.36
  3
Standard
 44
0.18
300

342
F
174
     1
178
     6
175
     1
176
     0
 93
-1056964608
 45
0.18
292
     0
297
     0
 46
0.18
 94
-1056964608
 47
1.0
 49
1.0
140
1.0
293
     1
141
0.0
294
     1
177
     0
142
1.0
295
     0
296
     0
143
0.125
1001
ACAD_MLEADERVER
1070
     2
  0
MLINESTYLE
  5
1B
102
{ACAD_REACTORS
330
1A
102
}
330
1A
100
AcDbMlineStyle
  2
STANDARD
 70
     0
  3

 62
   256
 51
90.0
 52
90.0
 71
     2
 49
0.5
 62
   256
  6
BYLAYER
 49
-0.5
 62
   256
  6
BYLAYER
  0
ACDBPLACEHOLDER
  5
F70
102
{ACAD_REACTORS
330
F6F
102
}
330
F6F
  0
SCALE
  5
FA7
102
{ACAD_REACTORS
330
FA6
102
}
330
FA6
100
AcDbScale
 70
     0
300
1:1
140
1.0
141
1.0
290
     1
  0
SCALE
  5
FA8
102
{ACAD_REACTORS
330
FA6
102
}
330
FA6
100
AcDbScale
 70
     0
300
1/128" = 1'-0"
140
0.0078125
141
12.0
290
     0
  0
SCALE
  5
FA9
102
{ACAD_REACTORS
330
FA6
102
}
330
FA6
100
AcDbScale
 70
     0
300
1/64" = 1'-0"
140
0.015625
141
12.0
290
     0
  0
SCALE
  5
FAA
102
{ACAD_REACTORS
330
FA6
102
}
330
FA6
100
AcDbScale
 70
     0
300
1/32" = 1'-0"
140
0.03125
141
12.0
290
     0
  0
SCALE
  5
FAB
102
{ACAD_REACTORS
330
FA6
102
}
330
FA6
100
AcDbScale
 70
     0
300
1/16" = 1'-0"
140
0.0625
141
12.0
290
     0
  0
SCALE
  5
FAC
102
{ACAD_REACTORS
330
FA6
102
}
330
FA6
100
AcDbScale
 70
     0
300
3/32" = 1'-0"
140
0.09375
141
12.0
290
     0
  0
SCALE
  5
FAD
102
{ACAD_REACTORS
330
FA6
102
}
330
FA6
100
AcDbScale
 70
     0
300
1/8" = 1'-0"
140
0.125
141
12.0
290
     0
  0
SCALE
  5
FAE
102
{ACAD_REACTORS
330
FA6
102
}
330
FA6
100
AcDbScale
 70
     0
300
3/16" = 1'-0"
140
0.1875
141
12.0
290
     0
  0
SCALE
  5
FAF
102
{ACAD_REACTORS
330
FA6
102
}
330
FA6
100
AcDbScale
 70
     0
300
1/4" = 1'-0"
140
0.25
141
12.0
290
     0
  0
SCALE
  5
FB0
102
{ACAD_REACTORS
330
FA6
102
}
330
FA6
100
AcDbScale
 70
     0
300
3/8" = 1'-0"
140
0.375
141
12.0
290
     0
  0
SCALE
  5
FB1
102
{ACAD_REACTORS
330
FA6
102
}
330
FA6
100
AcDbScale
 70
     0
300
1/2" = 1'-0"
140
0.5
141
12.0
290
     0
  0
SCALE
  5
FB2
102
{ACAD_REACTORS
330
FA6
102
}
330
FA6
100
AcDbScale
 70
     0
300
3/4" = 1'-0"
140
0.75
141
12.0
290
     0
  0
SCALE
  5
FB3
102
{ACAD_REACTORS
330
FA6
102
}
330
FA6
100
AcDbScale
 70
     0
300
1" = 1'-0"
140
1.0
141
12.0
290
     0
  0
SCALE
  5
FB4
102
{ACAD_REACTORS
330
FA6
102
}
330
FA6
100
AcDbScale
 70
     0
300
1-1/2" = 1'-0"
140
1.5
141
12.0
290
     0
  0
SCALE
  5
FB5
102
{ACAD_REACTORS
330
FA6
102
}
330
FA6
100
AcDbScale
 70
     0
300
3" = 1'-0"
140
3.0
141
12.0
290
     0
  0
SCALE
  5
FB6
102
{ACAD_REACTORS
330
FA6
102
}
330
FA6
100
AcDbScale
 70
     0
300
6" = 1'-0"
140
6.0
141
12.0
290
     0
  0
SCALE
  5
FB7
102
{ACAD_REACTORS
330
FA6
102
}
330
FA6
100
AcDbScale
 70
     0
300
1'-0" = 1'-0"
140
12.0
141
12.0
290
     0
  0
ACDBSECTIONVIEWSTYLE
  5
FBB
102
{ACAD_XDICTIONARY
360
103A
102
}
102
{ACAD_REACTORS
330
FBA
102
}
330
FBA
100
AcDbModelDocViewStyle
 70
     0
  3
Imperial24
290
     0
100
AcDbSectionViewStyle
 70
     0
 71
     0
 90
       78
 71
     1
340
F
 40
0.24
340
0
340
0
 40
0.24
300
I, O, Q, S, X, Z
 40
0.48
 90
        3
 40
0.18
 90
        1
 71
     2
340
13
 90
       25
340
13
 90
       50
 40
0.24
 40
0.0
 40
0.24
 71
     3
340
F
 40
0.24
 90
        1
 40
0.75
 90
        1
300
%<\AcVar ViewType \f "%tc1">% %<\AcVar ViewSectionStartId>%-%<\AcVar ViewSectionEndId>%\PSCALE %<\AcVar ViewScale \f "%sn">%
 71
     4
300
ANSI31
 40
1.0
 90
        0
290
     0
290
     0
 90
        6
 40
0.0
 40
1.570796326794896
 40
0.2617993877991494
 40
1.308996938995747
 40
-0.2617993877991494
 40
1.832595714594045
  0
TABLESTYLE
  5
FA5
102
{ACAD_XDICTIONARY
360
1038
102
}
102
{ACAD_REACTORS
330
FA4
102
}
330
FA4
100
AcDbTableStyle
  3
Standard
 70
     0
 71
     0
 40
0.06
 41
0.06
280
     0
281
     0
  7
STANDARD
140
0.18
170
     2
 62
     0
 63
     7
283
     0
274
    -2
284
     1
 64
     0
275
    -2
285
     1
 65
     0
276
    -2
286
     1
 66
     0
277
    -2
287
     1
 67
     0
278
    -2
288
     1
 68
     0
279
    -2
289
     1
 69
     0
  7
STANDARD
140
0.25
170
     5
 62
     0
 63
     7
283
     0
274
    -2
284
     1
 64
     0
275
    -2
285
     1
 65
     0
276
    -2
286
     1
 66
     0
277
    -2
287
     1
 67
     0
278
    -2
288
     1
 68
     0
279
    -2
289
     1
 69
     0
  7
STANDARD
140
0.18
170
     5
 62
     0
 63
     7
283
     0
274
    -2
284
     1
 64
     0
275
    -2
285
     1
 65
     0
276
    -2
286
     1
 66
     0
277
    -2
287
     1
 67
     0
278
    -2
288
     1
 68
     0
279
    -2
289
     1
 69
     0
  0
VISUALSTYLE
  5
F90
102
{ACAD_XDICTIONARY
360
1063
102
}
102
{ACAD_REACTORS
330
F8A
102
}
330
F8A
100
AcDbVisualStyle
  2
2dWireframe
 70
     4
 71
     0
 72
     2
 73
     0
 90
        0
 40
-0.6
 41
-30.0
 62
     5
 63
     7
 74
     1
 91
        4
 64
     7
 65
   257
 75
     1
175
     1
 42
1.0
 92
        0
 66
   257
 43
1.0
 76
     1
 77
     6
 78
     2
 67
     7
 79
     5
170
     0
171
     0
290
     0
174
     0
 93
        1
 44
0.0
173
     0
291
     0
 45
0.0
1001
ACAD
1000
AcDbSavedByObjectVersion
1070
     0
  0
VISUALSTYLE
  5
F8F
102
{ACAD_XDICTIONARY
360
1061
102
}
102
{ACAD_REACTORS
330
F8A
102
}
330
F8A
100
AcDbVisualStyle
  2
Basic
 70
     7
 71
     1
 72
     0
 73
     1
 90
        0
 40
-0.6
 41
-30.0
 62
     5
 63
     7
 74
     0
 91
        4
 64
     7
 65
   257
 75
     1
175
     1
 42
1.0
 92
        8
 66
     7
 43
1.0
 76
     1
 77
     6
 78
     2
 67
     7
 79
     5
170
     0
171
     0
290
     0
174
     0
 93
        1
 44
0.0
173
     0
291
     1
 45
0.0
1001
ACAD
1000
AcDbSavedByObjectVersion
1070
     0
  0
VISUALSTYLE
  5
F96
102
{ACAD_XDICTIONARY
360
106F
102
}
102
{ACAD_REACTORS
330
F8A
102
}
330
F8A
100
AcDbVisualStyle
  2
Brighten
 70
    12
 71
     2
 72
     2
 73
     0
 90
        0
 40
-0.6
 41
-30.0
 62
     5
 63
     7
 74
     1
 91
        4
 64
     7
 65
   257
 75
     1
175
     1
 42
1.0
 92
        8
 66
     7
 43
1.0
 76
     1
 77
     6
 78
     2
 67
     7
 79
     5
170
     0
171
     0
290
     0
174
     0
 93
        1
 44
50.0
173
     0
291
     1
 45
0.0
1001
ACAD
1000
AcDbSavedByObjectVersion
1070
     0
  0
VISUALSTYLE
  5
F9A
102
{ACAD_XDICTIONARY
360
1077
102
}
102
{ACAD_REACTORS
330
F8A
102
}
330
F8A
100
AcDbVisualStyle
  2
ColorChange
 70
    16
 71
     2
 72
     2
 73
     3
 90
        0
 40
-0.6
 41
-30.0
 62
     5
 63
     8
 74
     1
 91
        4
 64
     7
 65
   257
 75
     1
175
     1
 42
1.0
 92
        8
 66
     8
 43
1.0
 76
     1
 77
     6
 78
     2
 67
     7
 79
     5
170
     0
171
     0
290
     0
174
     0
 93
        1
 44
0.0
173
     0
291
     1
 45
0.0
1001
ACAD
1000
AcDbSavedByObjectVersion
1070
     0
  0
VISUALSTYLE
  5
F93
102
{ACAD_XDICTIONARY
360
1069
102
}
102
{ACAD_REACTORS
330
F8A
102
}
330
F8A
100
AcDbVisualStyle
  2
Conceptual
 70
     9
 71
     3
 72
     2
 73
     0
 90
        0
 40
-0.6
 41
-30.0
 62
     5
 63
     7
 74
     2
 91
        2
 64
     7
 65
   257
 75
     1
175
     1
 42
179.0
 92
        8
 66
     7
 43
1.0
 76
     1
 77
     6
 78
     2
 67
     7
 79
     3
170
     0
171
     0
290
     0
174
     0
 93
        1
 44
0.0
173
     0
291
     0
 45
0.0
1001
ACAD
1000
AcDbSavedByObjectVersion
1070
     0
  0
VISUALSTYLE
  5
F95
102
{ACAD_XDICTIONARY
360
106D
102
}
102
{ACAD_REACTORS
330
F8A
102
}
330
F8A
100
AcDbVisualStyle
  2
Dim
 70
    11
 71
     2
 72
     2
 73
     0
 90
        0
 40
-0.6
 41
-30.0
 62
     5
 63
     7
 74
     1
 91
        4
 64
     7
 65
   257
 75
     1
175
     1
 42
1.0
 92
        8
 66
     7
 43
1.0
 76
     1
 77
     6
 78
     2
 67
     7
 79
     5
170
     0
171
     0
290
     0
174
     0
 93
        1
 44
-50.0
173
     0
291
     1
 45
0.0
1001
ACAD
1000
AcDbSavedByObjectVersion
1070
     0
  0
VISUALSTYLE
  5
FA2
102
{ACAD_XDICTIONARY
360
1087
102
}
102
{ACAD_REACTORS
330
F8A
102
}
330
F8A
100
AcDbVisualStyle
  2
EdgeColorOff
 70
    22
 71
     2
 72
     2
 73
     0
 90
        0
 40
-0.6
 41
-30.0
 62
     5
 63
     7
 74
     1
 91
        4
 64
     7
 65
   257
 75
     1
175
     1
 42
1.0
 92
        8
 66
     7
 43
1.0
 76
     1
 77
     6
 78
     2
 67
     7
 79
     5
170
     0
171
     0
290
     0
174
     0
 93
        1
 44
0.0
173
     0
291
     1
 45
0.0
1001
ACAD
1000
AcDbSavedByObjectVersion
1070
     0
  0
VISUALSTYLE
  5
F99
102
{ACAD_XDICTIONARY
360
1075
102
}
102
{ACAD_REACTORS
330
F8A
102
}
330
F8A
100
AcDbVisualStyle
  2
Facepattern
 70
    15
 71
     2
 72
     2
 73
     0
 90
        0
 40
-0.6
 41
-30.0
 62
     5
 63
     7
 74
     1
 91
        4
 64
     7
 65
   257
 75
     1
175
     1
 42
1.0
 92
        8
 66
     7
 43
1.0
 76
     1
 77
     6
 78
     2
 67
     7
 79
     5
170
     0
171
     0
290
     0
174
     0
 93
        1
 44
0.0
173
     0
291
     1
 45
0.0
1001
ACAD
1000
AcDbSavedByObjectVersion
1070
     0
  0
VISUALSTYLE
  5
F8B
102
{ACAD_XDICTIONARY
360
1059
102
}
102
{ACAD_REACTORS
330
F8A
102
}
330
F8A
100
AcDbVisualStyle
  2
Flat
 70
     0
 71
     2
 72
     1
 73
     1
 90
        2
 40
-0.6
 41
30.0
 62
     5
 63
     7
 74
     0
 91
        0
 64
     7
 65
   257
 75
     1
175
     1
 42
1.0
 92
        8
 66
     7
 43
1.0
 76
     1
 77
     6
 78
     2
 67
     7
 79
     5
170
     0
171
     0
290
     0
174
     0
 93
       13
 44
0.0
173
     0
291
     1
 45
0.0
1001
ACAD
1000
AcDbSavedByObjectVersion
1070
     0
  0
VISUALSTYLE
  5
F8C
102
{ACAD_XDICTIONARY
360
105B
102
}
102
{ACAD_REACTORS
330
F8A
102
}
330
F8A
100
AcDbVisualStyle
  2
FlatWithEdges
 70
     1
 71
     2
 72
     1
 73
     1
 90
        2
 40
-0.6
 41
30.0
 62
     5
 63
     7
 74
     1
 91
        0
 64
     7
 65
   257
 75
     1
175
     1
 42
1.0
 92
        0
 66
   257
 43
1.0
 76
     1
 77
     6
 78
     2
 67
     7
 79
     5
170
     0
171
     0
290
     0
174
     0
 93
       13
 44
0.0
173
     0
291
     1
 45
0.0
1001
ACAD
1000
AcDbSavedByObjectVersion
1070
     0
  0
VISUALSTYLE
  5
F8D
102
{ACAD_XDICTIONARY
360
105D
102
}
102
{ACAD_REACTORS
330
F8A
102
}
330
F8A
100
AcDbVisualStyle
  2
Gouraud
 70
     2
 71
     2
 72
     2
 73
     1
 90
        2
 40
-0.6
 41
30.0
 62
     5
 63
     7
 74
     0
 91
        0
 64
     7
 65
   257
 75
     1
175
     1
 42
1.0
 92
        0
 66
     7
 43
1.0
 76
     1
 77
     6
 78
     2
 67
     7
 79
     5
170
     0
171
     0
290
     0
174
     0
 93
       13
 44
0.0
173
     0
291
     1
 45
0.0
1001
ACAD
1000
AcDbSavedByObjectVersion
1070
     0
  0
VISUALSTYLE
  5
F8E
102
{ACAD_XDICTIONARY
360
105F
102
}
102
{ACAD_REACTORS
330
F8A
102
}
330
F8A
100
AcDbVisualStyle
  2
GouraudWithEdges
 70
     3
 71
     2
 72
     2
 73
     1
 90
        2
 40
-0.6
 41
30.0
 62
     5
 63
     7
 74
     1
 91
        0
 64
     7
 65
   257
 75
     1
175
     1
 42
1.0
 92
        0
 66
   257
 43
1.0
 76
     1
 77
     6
 78
     2
 67
     7
 79
     5
170
     0
171
     0
290
     0
174
     0
 93
       13
 44
0.0
173
     0
291
     1
 45
0.0
1001
ACAD
1000
AcDbSavedByObjectVersion
1070
     0
  0
VISUALSTYLE
  5
F92
102
{ACAD_XDICTIONARY
360
1067
102
}
102
{ACAD_REACTORS
330
F8A
102
}
330
F8A
100
AcDbVisualStyle
  2
Hidden
 70
     6
 71
     1
 72
     2
 73
     2
 90
        0
 40
-0.6
 41
-30.0
 62
     5
 63
     7
 74
     2
 91
        2
 64
     7
 65
   257
 75
     2
175
     1
 42
40.0
 92
        0
 66
   257
 43
1.0
 76
     1
 77
     6
 78
     2
 67
     7
 79
     3
170
     0
171
     0
290
     0
174
     0
 93
        1
 44
0.0
173
     0
291
     0
 45
0.0
1001
ACAD
1000
AcDbSavedByObjectVersion
1070
     0
  0
VISUALSTYLE
  5
FA0
102
{ACAD_XDICTIONARY
360
1083
102
}
102
{ACAD_REACTORS
330
F8A
102
}
330
F8A
100
AcDbVisualStyle
  2
JitterOff
 70
    20
 71
     2
 72
     2
 73
     0
 90
        0
 40
-0.6
 41
-30.0
 62
     5
 63
     7
 74
     1
 91
        4
 64
     7
 65
   257
 75
     1
175
     1
 42
1.0
 92
       10
 66
     7
 43
1.0
 76
     1
 77
     6
 78
     2
 67
     7
 79
     5
170
     0
171
     0
290
     0
174
     0
 93
        1
 44
0.0
173
     0
291
     1
 45
0.0
1001
ACAD
1000
AcDbSavedByObjectVersion
1070
     0
  0
VISUALSTYLE
  5
F98
102
{ACAD_XDICTIONARY
360
1073
102
}
102
{ACAD_REACTORS
330
F8A
102
}
330
F8A
100
AcDbVisualStyle
  2
Linepattern
 70
    14
 71
     2
 72
     2
 73
     0
 90
        0
 40
-0.6
 41
-30.0
 62
     5
 63
     7
 74
     1
 91
        4
 64
     7
 65
   257
 75
     7
175
     7
 42
1.0
 92
        8
 66
     7
 43
1.0
 76
     1
 77
     6
 78
     2
 67
     7
 79
     5
170
     0
171
     0
290
     0
174
     0
 93
        1
 44
0.0
173
     0
291
     1
 45
0.0
1001
ACAD
1000
AcDbSavedByObjectVersion
1070
     0
  0
VISUALSTYLE
  5
FA1
102
{ACAD_XDICTIONARY
360
1085
102
}
102
{ACAD_REACTORS
330
F8A
102
}
330
F8A
100
AcDbVisualStyle
  2
OverhangOff
 70
    21
 71
     2
 72
     2
 73
     0
 90
        0
 40
-0.6
 41
-30.0
 62
     5
 63
     7
 74
     1
 91
        4
 64
     7
 65
   257
 75
     1
175
     1
 42
1.0
 92
        9
 66
     7
 43
1.0
 76
     1
 77
     6
 78
     2
 67
     7
 79
     5
170
     0
171
     0
290
     0
174
     0
 93
        1
 44
0.0
173
     0
291
     1
 45
0.0
1001
ACAD
1000
AcDbSavedByObjectVersion
1070
     0
  0
VISUALSTYLE
  5
F94
102
{ACAD_XDICTIONARY
360
106B
102
}
102
{ACAD_REACTORS
330
F8A
102
}
330
F8A
100
AcDbVisualStyle
  2
Realistic
 70
     8
 71
     2
 72
     3
 73
     0
 90
        2
 40
-0.6
 41
30.0
 62
     5
 63
     7
 74
     0
 91
        0
 64
     7
 65
   257
 75
     1
175
     1
 42
1.0
 92
        8
 66
   257
 43
1.0
 76
     1
 77
     6
 78
     2
 67
     7
 79
     3
170
     0
171
     0
290
     0
174
     0
 93
       13
 44
0.0
173
     0
291
     0
 45
0.0
1001
ACAD
1000
AcDbSavedByObjectVersion
1070
     0
  0
VISUALSTYLE
  5
F9F
102
{ACAD_XDICTIONARY
360
1081
102
}
102
{ACAD_REACTORS
330
F8A
102
}
330
F8A
100
AcDbVisualStyle
  2
Shaded
 70
    27
 71
     2
 72
     2
 73
     1
 90
        2
 40
-0.6
 41
30.0
 62
     5
 63
     7
 74
     0
 91
        4
 64
     7
 65
   257
 75
     1
175
     1
 42
1.0
 92
        8
 66
   257
 43
1.0
 76
     1
 77
     6
 78
     2
 67
     8
 79
     3
170
     0
171
     0
290
     0
174
     0
 93
        5
 44
0.0
173
     0
291
     0
 45
0.0
1001
ACAD
1000
AcDbSavedByObjectVersion
1070
     0
  0
VISUALSTYLE
  5
F9E
102
{ACAD_XDICTIONARY
360
107F
102
}
102
{ACAD_REACTORS
330
F8A
102
}
330
F8A
100
AcDbVisualStyle
  2
Shaded with edges
 70
    26
 71
     2
 72
     2
 73
     1
 90
        2
 40
-0.6
 41
30.0
 62
     5
 63
     7
 74
     1
 91
       10
 64
     7
 65
   257
 75
     2
175
     1
 42
1.0
 92
        8
 66
   257
 43
1.0
 76
     1
 77
     6
 78
     2
 67
     7
 79
     3
170
     0
171
     0
290
     0
174
     0
 93
        5
 44
0.0
173
     0
291
     0
 45
0.0
1001
ACAD
1000
AcDbSavedByObjectVersion
1070
     0
  0
VISUALSTYLE
  5
F9B
102
{ACAD_XDICTIONARY
360
1079
102
}
102
{ACAD_REACTORS
330
F8A
102
}
330
F8A
100
AcDbVisualStyle
  2
Shades of Gray
 70
    23
 71
     2
 72
     2
 73
     3
 90
        0
 40
-0.6
 41
-30.0
 62
     5
 63
     7
 74
     2
 91
        2
 64
     7
 65
     7
 75
     1
175
     1
 42
40.0
 92
        8
 66
     7
 43
1.0
 76
     1
 77
     6
 78
     2
 67
     7
 79
     3
170
     0
171
     0
290
     0
174
     0
 93
        1
 44
0.0
173
     0
291
     0
 45
0.0
1001
ACAD
1000
AcDbSavedByObjectVersion
1070
     0
  0
VISUALSTYLE
  5
F9C
102
{ACAD_XDICTIONARY
360
107B
102
}
102
{ACAD_REACTORS
330
F8A
102
}
330
F8A
100
AcDbVisualStyle
  2
Sketchy
 70
    24
 71
     1
 72
     2
 73
     2
 90
        0
 40
-0.6
 41
-30.0
 62
     5
 63
     7
 74
     2
 91
        2
 64
     7
 65
     7
 75
     1
175
     1
 42
40.0
 92
       11
 66
     7
 43
1.0
 76
     1
 77
     6
 78
     2
 67
     7
 79
     6
170
     0
171
     0
290
     0
174
     0
 93
        1
 44
0.0
173
     0
291
     0
 45
0.0
1001
ACAD
1000
AcDbSavedByObjectVersion
1070
     0
  0
VISUALSTYLE
  5
F97
102
{ACAD_XDICTIONARY
360
1071
102
}
102
{ACAD_REACTORS
330
F8A
102
}
330
F8A
100
AcDbVisualStyle
  2
Thicken
 70
    13
 71
     2
 72
     2
 73
     0
 90
        0
 40
-0.6
 41
-30.0
 62
     5
 63
     7
 74
     1
 91
        4
 64
     7
 65
   257
 75
     1
175
     1
 42
1.0
 92
       12
 66
     7
 43
1.0
 76
     1
 77
     6
 78
     2
 67
     7
 79
     5
170
     0
171
     0
290
     0
174
     0
 93
        1
 44
0.0
173
     0
291
     1
 45
0.0
1001
ACAD
1000
AcDbSavedByObjectVersion
1070
     0
  0
VISUALSTYLE
  5
F91
102
{ACAD_XDICTIONARY
360
1065
102
}
102
{ACAD_REACTORS
330
F8A
102
}
330
F8A
100
AcDbVisualStyle
  2
Wireframe
 70
     5
 71
     0
 72
     2
 73
     0
 90
        0
 40
-0.6
 41
-30.0
 62
     5
 63
     7
 74
     1
 91
        4
 64
     7
 65
   257
 75
     1
175
     1
 42
1.0
 92
        0
 66
   257
 43
1.0
 76
     1
 77
     6
 78
     2
 67
     7
 79
     3
170
     0
171
     0
290
     0
174
     0
 93
        1
 44
0.0
173
     0
291
     0
 45
0.0
1001
ACAD
1000
AcDbSavedByObjectVersion
1070
     0
  0
VISUALSTYLE
  5
F9D
102
{ACAD_XDICTIONARY
360
107D
102
}
102
{ACAD_REACTORS
330
F8A
102
}
330
F8A
100
AcDbVisualStyle
  2
X-Ray
 70
    25
 71
     2
 72
     2
 73
     1
 90
        1
 40
0.5
 41
-30.0
 62
     5
 63
     7
 74
     1
 91
        0
 64
     7
 65
   257
 75
     1
175
     1
 42
1.0
 92
        8
 66
     7
 43
1.0
 76
     1
 77
     6
 78
     2
 67
     7
 79
     3
170
     0
171
     0
290
     0
174
     0
 93
       13
 44
0.0
173
     0
291
     0
 45
0.0
1001
ACAD
1000
AcDbSavedByObjectVersion
1070
     0
  0
DICTIONARYVAR
  5
1034
102
{ACAD_REACTORS
330
2B
102
}
330
2B
100
DictionaryVariables
280
     0
  1
1:1
  0
DICTIONARYVAR
  5
1030
102
{ACAD_REACTORS
330
2B
102
}
330
2B
100
DictionaryVariables
280
     0
  1
STANDARD
  0
DICTIONARYVAR
  5
102F
102
{ACAD_REACTORS
330
2B
102
}
330
2B
100
DictionaryVariables
280
     0
  1
STANDARD
  0
DICTIONARYVAR
  5
1031
102
{ACAD_REACTORS
330
2B
102
}
330
2B
100
DictionaryVariables
280
     0
  1
Imperial24
  0
DICTIONARYVAR
  5
1032
102
{ACAD_REACTORS
330
2B
102
}
330
2B
100
DictionaryVariables
280
     0
  1
Imperial24
  0
DICTIONARYVAR
  5
2C
102
{ACAD_REACTORS
330
2B
102
}
330
2B
100
DictionaryVariables
280
     0
  1
2
  0
DICTIONARYVAR
  5
1046
102
{ACAD_REACTORS
330
2B
102
}
330
2B
100
DictionaryVariables
280
     0
  1
1
  0
DICTIONARYVAR
  5
1045
102
{ACAD_REACTORS
330
2B
102
}
330
2B
100
DictionaryVariables
280
     0
  1
0
  0
DICTIONARYVAR
  5
1036
102
{ACAD_REACTORS
330
2B
102
}
330
2B
100
DictionaryVariables
280
     0
  1
1
  0
DICTIONARYVAR
  5
1037
102
{ACAD_REACTORS
330
2B
102
}
330
2B
100
DictionaryVariables
280
     0
  1
15
  0
DICTIONARYVAR
  5
1035
102
{ACAD_REACTORS
330
2B
102
}
330
2B
100
DictionaryVariables
280
     0
  1
0
  0
DICTIONARYVAR
  5
1047
102
{ACAD_REACTORS
330
2B
102
}
330
2B
100
DictionaryVariables
280
     0
  1
1.570796
  0
DICTIONARYVAR
  5
1048
102
{ACAD_REACTORS
330
2B
102
}
330
2B
100
DictionaryVariables
280
     0
  1
1.570796
  0
DICTIONARYVAR
  5
1049
102
{ACAD_REACTORS
330
2B
102
}
330
2B
100
DictionaryVariables
280
     0
  1
-122.394000
  0
DICTIONARYVAR
  5
1033
102
{ACAD_REACTORS
330
2B
102
}
330
2B
100
DictionaryVariables
280
     0
  1
0
  0
DICTIONARYVAR
  5
1044
102
{ACAD_REACTORS
330
2B
102
}
330
2B
100
DictionaryVariables
280
     0
  1
127
  0
DICTIONARYVAR
  5
104A
102
{ACAD_REACTORS
330
2B
102
}
330
2B
100
DictionaryVariables
280
     0
  1
2
  0
DICTIONARY
  5
1055
102
{ACAD_REACTORS
330
1053
102
}
330
1053
100
AcDbDictionary
281
     1
  0
DICTIONARY
  5
1054
102
{ACAD_REACTORS
330
1053
102
}
330
1053
100
AcDbDictionary
281
     1
  3
8796088182240
350
104E
  3
8796088182256
350
104F
  3
8796088182272
350
1050
  3
8796088182288
350
1051
  3
8796088182304
350
1052
  0
DICTIONARY
  5
103C
330
FBD
100
AcDbDictionary
280
     1
281
     1
  3
ACAD_XREC_ROUNDTRIP
360
108E
  0
DICTIONARY
  5
1091
330
FC1
100
AcDbDictionary
280
     1
281
     1
  3
ACAD_XREC_ROUNDTRIP
360
1092
  0
DICTIONARY
  5
108F
330
FC0
100
AcDbDictionary
280
     1
281
     1
  3
ACAD_XREC_ROUNDTRIP
360
1090
  0
DICTIONARY
  5
F7B
330
F7A
100
AcDbDictionary
280
     1
281
     1
  3
ACAD_XREC_ROUNDTRIP
360
1057
  3
BUMPTILE
360
F7D
  3
DIFFUSETILE
360
F7C
  3
OPACITYTILE
360
F80
  3
REFLECTIONTILE
360
F7F
  3
REFRACTIONTILE
360
F81
  3
SPECULARTILE
360
F7E
  0
DICTIONARY
  5
F73
330
F72
100
AcDbDictionary
280
     1
281
     1
  3
ACAD_XREC_ROUNDTRIP
360
1056
  3
BUMPTILE
360
F75
  3
DIFFUSETILE
360
F74
  3
OPACITYTILE
360
F78
  3
REFLECTIONTILE
360
F77
  3
REFRACTIONTILE
360
F79
  3
SPECULARTILE
360
F76
  0
DICTIONARY
  5
F83
330
F82
100
AcDbDictionary
280
     1
281
     1
  3
ACAD_XREC_ROUNDTRIP
360
1058
  3
BUMPTILE
360
F85
  3
DIFFUSETILE
360
F84
  3
OPACITYTILE
360
F88
  3
REFLECTIONTILE
360
F87
  3
REFRACTIONTILE
360
F89
  3
SPECULARTILE
360
F86
  0
DICTIONARY
  5
108B
330
FB9
100
AcDbDictionary
280
     1
281
     1
  3
ACAD_XREC_ROUNDTRIP
360
108C
  0
DICTIONARY
  5
103A
330
FBB
100
AcDbDictionary
280
     1
281
     1
  3
ACAD_XREC_ROUNDTRIP
360
108D
  0
DICTIONARY
  5
1038
330
FA5
100
AcDbDictionary
280
     1
281
     1
  3
ACAD_ROUNDTRIP_2008_TABLESTYLE_CELLSTYLEMAP
360
104B
  3
ACAD_XREC_ROUNDTRIP
360
1089
  0
DICTIONARY
  5
1063
330
F90
100
AcDbDictionary
280
     1
281
     1
  3
ACAD_XREC_ROUNDTRIP
360
1064
  0
DICTIONARY
  5
1061
330
F8F
100
AcDbDictionary
280
     1
281
     1
  3
ACAD_XREC_ROUNDTRIP
360
1062
  0
DICTIONARY
  5
106F
330
F96
100
AcDbDictionary
280
     1
281
     1
  3
ACAD_XREC_ROUNDTRIP
360
1070
  0
DICTIONARY
  5
1077
330
F9A
100
AcDbDictionary
280
     1
281
     1
  3
ACAD_XREC_ROUNDTRIP
360
1078
  0
DICTIONARY
  5
1069
330
F93
100
AcDbDictionary
280
     1
281
     1
  3
ACAD_XREC_ROUNDTRIP
360
106A
  0
DICTIONARY
  5
106D
330
F95
100
AcDbDictionary
280
     1
281
     1
  3
ACAD_XREC_ROUNDTRIP
360
106E
  0
DICTIONARY
  5
1087
330
FA2
100
AcDbDictionary
280
     1
281
     1
  3
ACAD_XREC_ROUNDTRIP
360
1088
  0
DICTIONARY
  5
1075
330
F99
100
AcDbDictionary
280
     1
281
     1
  3
ACAD_XREC_ROUNDTRIP
360
1076
  0
DICTIONARY
  5
1059
330
F8B
100
AcDbDictionary
280
     1
281
     1
  3
ACAD_XREC_ROUNDTRIP
360
105A
  0
DICTIONARY
  5
105B
330
F8C
100
AcDbDictionary
280
     1
281
     1
  3
ACAD_XREC_ROUNDTRIP
360
105C
  0
DICTIONARY
  5
105D
330
F8D
100
AcDbDictionary
280
     1
281
     1
  3
ACAD_XREC_ROUNDTRIP
360
105E
  0
DICTIONARY
  5
105F
330
F8E
100
AcDbDictionary
280
     1
281
     1
  3
ACAD_XREC_ROUNDTRIP
360
1060
  0
DICTIONARY
  5
1067
330
F92
100
AcDbDictionary
280
     1
281
     1
  3
ACAD_XREC_ROUNDTRIP
360
1068
  0
DICTIONARY
  5
1083
330
FA0
100
AcDbDictionary
280
     1
281
     1
  3
ACAD_XREC_ROUNDTRIP
360
1084
  0
DICTIONARY
  5
1073
330
F98
100
AcDbDictionary
280
     1
281
     1
  3
ACAD_XREC_ROUNDTRIP
360
1074
  0
DICTIONARY
  5
1085
330
FA1
100
AcDbDictionary
280
     1
281
     1
  3
ACAD_XREC_ROUNDTRIP
360
1086
  0
DICTIONARY
  5
106B
330
F94
100
AcDbDictionary
280
     1
281
     1
  3
ACAD_XREC_ROUNDTRIP
360
106C
  0
DICTIONARY
  5
1081
330
F9F
100
AcDbDictionary
280
     1
281
     1
  3
ACAD_XREC_ROUNDTRIP
360
1082
  0
DICTIONARY
  5
107F
330
F9E
100
AcDbDictionary
280
     1
281
     1
  3
ACAD_XREC_ROUNDTRIP
360
1080
  0
DICTIONARY
  5
1079
330
F9B
100
AcDbDictionary
280
     1
281
     1
  3
ACAD_XREC_ROUNDTRIP
360
107A
  0
DICTIONARY
  5
107B
330
F9C
100
AcDbDictionary
280
     1
281
     1
  3
ACAD_XREC_ROUNDTRIP
360
107C
  0
DICTIONARY
  5
1071
330
F97
100
AcDbDictionary
280
     1
281
     1
  3
ACAD_XREC_ROUNDTRIP
360
1072
  0
DICTIONARY
  5
1065
330
F91
100
AcDbDictionary
280
     1
281
     1
  3
ACAD_XREC_ROUNDTRIP
360
1066
  0
DICTIONARY
  5
107D
330
F9D
100
AcDbDictionary
280
     1
281
     1
  3
ACAD_XREC_ROUNDTRIP
360
107E
  0
XRECORD
  5
104E
102
{ACAD_REACTORS
330
1054
102
}
330
1054
100
AcDbXrecord
280
     1
  1
AcDb_Thumbnail_Schema
102
{ATTRRECORD
341
104F
  2
AcDbDs::TreatedAsObjectData
280
     1
291
     1
102
ATTRRECORD}
102
{ATTRRECORD
341
1050
  2
AcDbDs::Legacy
280
     1
291
     1
102
ATTRRECORD}
  2
AcDbDs::ID
280
    10
 91
        8
102
{ATTRRECORD
341
1051
  2
AcDs:Indexable
280
     1
291
     1
102
ATTRRECORD}
102
{ATTRRECORD
341
1052
  2
AcDbDs::HandleAttribute
280
     7
282
     1
102
ATTRRECORD}
  2
Thumbnail_Data
280
    15
 91
        0
  0
XRECORD
  5
104F
102
{ACAD_REACTORS
330
1054
102
}
330
1054
100
AcDbXrecord
280
     1
  1
AcDbDs::TreatedAsObjectDataSchema
  2
AcDbDs::TreatedAsObjectData
280
     1
 91
        0
  0
XRECORD
  5
1050
102
{ACAD_REACTORS
330
1054
102
}
330
1054
100
AcDbXrecord
280
     1
  1
AcDbDs::LegacySchema
  2
AcDbDs::Legacy
280
     1
 91
        0
  0
XRECORD
  5
1051
102
{ACAD_REACTORS
330
1054
102
}
330
1054
100
AcDbXrecord
280
     1
  1
AcDbDs::IndexedPropertySchema
  2
AcDs:Indexable
280
     1
 91
        0
  0
XRECORD
  5
1052
102
{ACAD_REACTORS
330
1054
102
}
330
1054
100
AcDbXrecord
280
     1
  1
AcDbDs::HandleAttributeSchema
  2
AcDbDs::HandleAttribute
280
     7
 91
        1
284
     1
  0
XRECORD
  5
108E
102
{ACAD_REACTORS
330
103C
102
}
330
103C
100
AcDbXrecord
280
     1
102
DISPLAYNAME
  1
Imperial24
102
FLAGS
 90
        0
  0
XRECORD
  5
1092
102
{ACAD_REACTORS
330
1091
102
}
330
1091
100
AcDbXrecord
280
     1
102
SHADEPLOT
 70
     0
102
SHADEPLOTRESLEVEL
 70
     2
102
SHADEPLOTCUSTOMDPI
 70
   300
  0
XRECORD
  5
1090
102
{ACAD_REACTORS
330
108F
102
}
330
108F
100
AcDbXrecord
280
     1
102
SHADEPLOT
 70
     0
102
SHADEPLOTRESLEVEL
 70
     2
102
SHADEPLOTCUSTOMDPI
 70
   300
  0
XRECORD
  5
1057
102
{ACAD_REACTORS
330
F7B
102
}
330
F7B
100
AcDbXrecord
280
     1
102
MATERIAL
148
0.0
149
0.0
149
0.0
 93
        0
 94
      127
282
     0
 72
     0
 77
     0
171
     0
175
     0
179
     0
273
     0
  0
XRECORD
  5
F7D
102
{ACAD_REACTORS
330
F7B
102
}
330
F7B
100
AcDbXrecord
280
     1
270
     1
271
     1
  0
XRECORD
  5
F7C
102
{ACAD_REACTORS
330
F7B
102
}
330
F7B
100
AcDbXrecord
280
     1
270
     1
271
     1
  0
XRECORD
  5
F80
102
{ACAD_REACTORS
330
F7B
102
}
330
F7B
100
AcDbXrecord
280
     1
270
     1
271
     1
  0
XRECORD
  5
F7F
102
{ACAD_REACTORS
330
F7B
102
}
330
F7B
100
AcDbXrecord
280
     1
270
     1
271
     1
  0
XRECORD
  5
F81
102
{ACAD_REACTORS
330
F7B
102
}
330
F7B
100
AcDbXrecord
280
     1
270
     1
271
     1
  0
XRECORD
  5
F7E
102
{ACAD_REACTORS
330
F7B
102
}
330
F7B
100
AcDbXrecord
280
     1
270
     1
271
     1
  0
XRECORD
  5
1056
102
{ACAD_REACTORS
330
F73
102
}
330
F73
100
AcDbXrecord
280
     1
102
MATERIAL
148
0.0
149
0.0
149
0.0
 93
        0
 94
      127
282
     0
 72
     0
 77
     0
171
     0
175
     0
179
     0
273
     0
  0
XRECORD
  5
F75
102
{ACAD_REACTORS
330
F73
102
}
330
F73
100
AcDbXrecord
280
     1
270
     1
271
     1
  0
XRECORD
  5
F74
102
{ACAD_REACTORS
330
F73
102
}
330
F73
100
AcDbXrecord
280
     1
270
     1
271
     1
  0
XRECORD
  5
F78
102
{ACAD_REACTORS
330
F73
102
}
330
F73
100
AcDbXrecord
280
     1
270
     1
271
     1
  0
XRECORD
  5
F77
102
{ACAD_REACTORS
330
F73
102
}
330
F73
100
AcDbXrecord
280
     1
270
     1
271
     1
  0
XRECORD
  5
F79
102
{ACAD_REACTORS
330
F73
102
}
330
F73
100
AcDbXrecord
280
     1
270
     1
271
     1
  0
XRECORD
  5
F76
102
{ACAD_REACTORS
330
F73
102
}
330
F73
100
AcDbXrecord
280
     1
270
     1
271
     1
  0
XRECORD
  5
1058
102
{ACAD_REACTORS
330
F83
102
}
330
F83
100
AcDbXrecord
280
     1
102
MATERIAL
148
0.0
149
0.0
149
0.0
 93
        0
 94
      127
282
     0
 72
     0
 77
     0
171
     0
175
     0
179
     0
273
     0
  0
XRECORD
  5
F85
102
{ACAD_REACTORS
330
F83
102
}
330
F83
100
AcDbXrecord
280
     1
270
     1
271
     1
  0
XRECORD
  5
F84
102
{ACAD_REACTORS
330
F83
102
}
330
F83
100
AcDbXrecord
280
     1
270
     1
271
     1
  0
XRECORD
  5
F88
102
{ACAD_REACTORS
330
F83
102
}
330
F83
100
AcDbXrecord
280
     1
270
     1
271
     1
  0
XRECORD
  5
F87
102
{ACAD_REACTORS
330
F83
102
}
330
F83
100
AcDbXrecord
280
     1
270
     1
271
     1
  0
XRECORD
  5
F89
102
{ACAD_REACTORS
330
F83
102
}
330
F83
100
AcDbXrecord
280
     1
270
     1
271
     1
  0
XRECORD
  5
F86
102
{ACAD_REACTORS
330
F83
102
}
330
F83
100
AcDbXrecord
280
     1
270
     1
271
     1
  0
XRECORD
  5
108C
102
{ACAD_REACTORS
330
108B
102
}
330
108B
100
AcDbXrecord
280
     1
102
ACAD_ROUNDTRIP_2012_MLEADER_STYLE
298
     1
  0
XRECORD
  5
108D
102
{ACAD_REACTORS
330
103A
102
}
330
103A
100
AcDbXrecord
280
     1
102
DISPLAYNAME
  1
Imperial24
102
FLAGS
 90
        0
  0
CELLSTYLEMAP
  5
104B
102
{ACAD_REACTORS
330
1038
102
}
330
1038
100
AcDbCellStyleMap
 90
        3
300
CELLSTYLE
  1
TABLEFORMAT_BEGIN
 90
        5
170
     1
 91
        0
 92
    32768
 62
   257
 93
        1
300
CONTENTFORMAT
  1
CONTENTFORMAT_BEGIN
 90
        0
 91
        0
 92
      512
 93
        0
300

 40
0.0
140
1.0
 94
        5
 62
     0
340
F
144
0.25
309
CONTENTFORMAT_END
171
     1
301
MARGIN
  1
CELLMARGIN_BEGIN
 40
0.06
 40
0.06
 40
0.06
 40
0.06
 40
0.18
 40
0.18
309
CELLMARGIN_END
 94
        6
 95
        1
302
GRIDFORMAT
  1
GRIDFORMAT_BEGIN
 90
        0
 91
        1
 62
     0
 92
       -2
340
0
 93
        0
 40
0.045
309
GRIDFORMAT_END
 95
        2
302
GRIDFORMAT
  1
GRIDFORMAT_BEGIN
 90
        0
 91
        1
 62
     0
 92
       -2
340
0
 93
        0
 40
0.045
309
GRIDFORMAT_END
 95
        4
302
GRIDFORMAT
  1
GRIDFORMAT_BEGIN
 90
        0
 91
        1
 62
     0
 92
       -2
340
0
 93
        0
 40
0.045
309
GRIDFORMAT_END
 95
        8
302
GRIDFORMAT
  1
GRIDFORMAT_BEGIN
 90
        0
 91
        1
 62
     0
 92
       -2
340
0
 93
        0
 40
0.045
309
GRIDFORMAT_END
 95
       16
302
GRIDFORMAT
  1
GRIDFORMAT_BEGIN
 90
        0
 91
        1
 62
     0
 92
       -2
340
0
 93
        0
 40
0.045
309
GRIDFORMAT_END
 95
       32
302
GRIDFORMAT
  1
GRIDFORMAT_BEGIN
 90
        0
 91
        1
 62
     0
 92
       -2
340
0
 93
        0
 40
0.045
309
GRIDFORMAT_END
309
TABLEFORMAT_END
  1
CELLSTYLE_BEGIN
 90
        1
 91
        1
300
_TITLE
309
CELLSTYLE_END
300
CELLSTYLE
  1
TABLEFORMAT_BEGIN
 90
        5
170
     1
 91
        0
 92
        0
 62
   257
 93
        1
300
CONTENTFORMAT
  1
CONTENTFORMAT_BEGIN
 90
        0
 91
        0
 92
      512
 93
        0
300

 40
0.0
140
1.0
 94
        5
 62
     0
340
F
144
0.18
309
CONTENTFORMAT_END
171
     1
301
MARGIN
  1
CELLMARGIN_BEGIN
 40
0.06
 40
0.06
 40
0.06
 40
0.06
 40
0.18
 40
0.18
309
CELLMARGIN_END
 94
        6
 95
        1
302
GRIDFORMAT
  1
GRIDFORMAT_BEGIN
 90
        0
 91
        1
 62
     0
 92
       -2
340
0
 93
        0
 40
0.045
309
GRIDFORMAT_END
 95
        2
302
GRIDFORMAT
  1
GRIDFORMAT_BEGIN
 90
        0
 91
        1
 62
     0
 92
       -2
340
0
 93
        0
 40
0.045
309
GRIDFORMAT_END
 95
        4
302
GRIDFORMAT
  1
GRIDFORMAT_BEGIN
 90
        0
 91
        1
 62
     0
 92
       -2
340
0
 93
        0
 40
0.045
309
GRIDFORMAT_END
 95
        8
302
GRIDFORMAT
  1
GRIDFORMAT_BEGIN
 90
        0
 91
        1
 62
     0
 92
       -2
340
0
 93
        0
 40
0.045
309
GRIDFORMAT_END
 95
       16
302
GRIDFORMAT
  1
GRIDFORMAT_BEGIN
 90
        0
 91
        1
 62
     0
 92
       -2
340
0
 93
        0
 40
0.045
309
GRIDFORMAT_END
 95
       32
302
GRIDFORMAT
  1
GRIDFORMAT_BEGIN
 90
        0
 91
        1
 62
     0
 92
       -2
340
0
 93
        0
 40
0.045
309
GRIDFORMAT_END
309
TABLEFORMAT_END
  1
CELLSTYLE_BEGIN
 90
        2
 91
        1
300
_HEADER
309
CELLSTYLE_END
300
CELLSTYLE
  1
TABLEFORMAT_BEGIN
 90
        5
170
     1
 91
        0
 92
        0
 62
   257
 93
        1
300
CONTENTFORMAT
  1
CONTENTFORMAT_BEGIN
 90
        0
 91
        0
 92
      512
 93
        0
300

 40
0.0
140
1.0
 94
        2
 62
     0
340
F
144
0.18
309
CONTENTFORMAT_END
171
     1
301
MARGIN
  1
CELLMARGIN_BEGIN
 40
0.06
 40
0.06
 40
0.06
 40
0.06
 40
0.18
 40
0.18
309
CELLMARGIN_END
 94
        6
 95
        1
302
GRIDFORMAT
  1
GRIDFORMAT_BEGIN
 90
        0
 91
        1
 62
     0
 92
       -2
340
0
 93
        0
 40
0.045
309
GRIDFORMAT_END
 95
        2
302
GRIDFORMAT
  1
GRIDFORMAT_BEGIN
 90
        0
 91
        1
 62
     0
 92
       -2
340
0
 93
        0
 40
0.045
309
GRIDFORMAT_END
 95
        4
302
GRIDFORMAT
  1
GRIDFORMAT_BEGIN
 90
        0
 91
        1
 62
     0
 92
       -2
340
0
 93
        0
 40
0.045
309
GRIDFORMAT_END
 95
        8
302
GRIDFORMAT
  1
GRIDFORMAT_BEGIN
 90
        0
 91
        1
 62
     0
 92
       -2
340
0
 93
        0
 40
0.045
309
GRIDFORMAT_END
 95
       16
302
GRIDFORMAT
  1
GRIDFORMAT_BEGIN
 90
        0
 91
        1
 62
     0
 92
       -2
340
0
 93
        0
 40
0.045
309
GRIDFORMAT_END
 95
       32
302
GRIDFORMAT
  1
GRIDFORMAT_BEGIN
 90
        0
 91
        1
 62
     0
 92
       -2
340
0
 93
        0
 40
0.045
309
GRIDFORMAT_END
309
TABLEFORMAT_END
  1
CELLSTYLE_BEGIN
 90
        3
 91
        2
300
_DATA
309
CELLSTYLE_END
  0
XRECORD
  5
1089
102
{ACAD_REACTORS
330
1038
102
}
330
1038
100
AcDbXrecord
280
     1
102
ACAD_ROUNDTRIP_PRE2007_TABLESTYLE
 90
      512
 91
        0
  1

 92
      512
 93
        0
  2

 94
      512
 95
        0
  3

  0
XRECORD
  5
1064
102
{ACAD_REACTORS
330
1063
102
}
330
1063
100
AcDbXrecord
280
     1
102
RTVSPost2010Prop28
280
     1
102
RTVSPost2010PropOp28
 70
     1
102
RTVSPost2010Prop29
280
     1
102
RTVSPost2010PropOp29
 70
     1
102
RTVSPost2010Prop30
280
     0
102
RTVSPost2010PropOp30
 70
     1
102
RTVSPost2010Prop31
280
     0
102
RTVSPost2010PropOp31
 70
     1
102
RTVSPost2010Prop32
280
     0
102
RTVSPost2010PropOp32
 70
     1
102
RTVSPost2010Prop33
280
     0
102
RTVSPost2010PropOp33
 70
     1
102
RTVSPost2010Prop34
280
     0
102
RTVSPost2010PropOp34
 70
     1
102
RTVSPost2010Prop35
280
     0
102
RTVSPost2010PropOp35
 70
     1
102
RTVSPost2010Prop36
280
     0
102
RTVSPost2010PropOp36
 70
     1
102
RTVSPost2010Prop37
 90
       50
102
RTVSPost2010PropOp37
 70
     1
102
RTVSPost2010Prop38
140
0.0
102
RTVSPost2010PropOp38
 70
     1
102
RTVSPost2010Prop39
140
1.0
102
RTVSPost2010PropOp39
 70
     1
102
RTVSPost2010Prop40
 90
        0
102
RTVSPost2010PropOp40
 70
     1
102
RTVSPost2010Prop41ColorIndex
 90
       18
102
RTVSPost2010Prop41ColorRGB
 90
-16777216
102
RTVSPost2010PropOp41
 70
     1
102
RTVSPost2010Prop42
 90
       50
102
RTVSPost2010PropOp42
 70
     1
102
RTVSPost2010Prop43
 90
        3
102
RTVSPost2010PropOp43
 70
     1
102
RTVSPost2010Prop44ColorIndex
 90
        5
102
RTVSPost2010Prop44ColorRGB
 90
      255
102
RTVSPost2010PropOp44
 70
     1
102
RTVSPost2010Prop45
280
     0
102
RTVSPost2010PropOp45
 70
     1
102
RTVSPost2010Prop46
 90
       50
102
RTVSPost2010PropOp46
 70
     1
102
RTVSPost2010Prop47
 90
       50
102
RTVSPost2010PropOp47
 70
     1
102
RTVSPost2010Prop48
 90
       50
102
RTVSPost2010PropOp48
 70
     1
102
RTVSPost2010Prop49
280
     0
102
RTVSPost2010PropOp49
 70
     1
102
RTVSPost2010Prop50
 90
       50
102
RTVSPost2010PropOp50
 70
     1
102
RTVSPost2010Prop51ColorIndex
 90
      256
102
RTVSPost2010Prop51ColorRGB
 90
-16777216
102
RTVSPost2010PropOp51
 70
     0
102
RTVSPost2010Prop52
140
1.0
102
RTVSPost2010PropOp52
 70
     0
102
RTVSPost2010Prop53
 90
        2
102
RTVSPost2010PropOp53
 70
     1
102
RTVSPost2010Prop54
  1
strokes_ogs.tif
102
RTVSPost2010PropOp54
 70
     1
102
RTVSPost2010Prop55
280
     0
102
RTVSPost2010PropOp55
 70
     1
102
RTVSPost2010Prop56
140
1.0
102
RTVSPost2010PropOp56
 70
     1
102
RTVSPost2010Prop57
140
1.0
102
RTVSPost2010PropOp57
 70
     1
102
RTVSPropertyOp0
 70
     1
102
RTVSPropertyOp1
 70
     1
102
RTVSPropertyOp2
 70
     1
102
RTVSPropertyOp3
 70
     1
102
RTVSPropertyOp4
 70
     1
102
RTVSPropertyOp5
 70
     1
102
RTVSPropertyOp6
 70
     1
102
RTVSPropertyOp7
 70
     1
102
RTVSPropertyOp8
 70
     1
102
RTVSPropertyOp9
 70
     1
102
RTVSPropertyOp10
 70
     1
102
RTVSPropertyOp11
 70
     1
102
RTVSPropertyOp12
 70
     1
102
RTVSPropertyOp13
 70
     1
102
RTVSPropertyOp14
 70
     1
102
RTVSPropertyOp15
 70
     1
102
RTVSPropertyOp16
 70
     1
102
RTVSPropertyOp17
 70
     1
102
RTVSPropertyOp18
 70
     1
102
RTVSPropertyOp19
 70
     1
102
RTVSPropertyOp20
 70
     1
102
RTVSPropertyOp21
 70
     1
102
RTVSPropertyOp22
 70
     1
102
RTVSPropertyOp23
 70
     1
102
RTVSPropertyOp24
 70
     1
102
RTVSPropertyOp25
 70
     1
102
RTVSPropertyOp26
 70
     1
102
RTVSPropertyOp27
 70
     1
102
RTVSPropertyOp28
 70
     1
102
RTVSPropertyOp29
 70
     1
102
RTVSPropertyOp30
 70
     1
102
RTVSPropertyOp31
 70
     1
102
RTVSPropertyOp32
 70
     1
102
RTVSPropertyOp33
 70
     1
102
RTVSPropertyOp34
 70
     1
102
RTVSPropertyOp35
 70
     1
102
RTVSPropertyOp36
 70
     1
102
RTVSPropertyOp37
 70
     1
102
RTVSPropertyOp38
 70
     1
102
RTVSPropertyOp39
 70
     1
102
RTVSPropertyOp40
 70
     1
102
RTVSPropertyOp41
 70
     1
102
RTVSPropertyOp42
 70
     1
102
RTVSPropertyOp43
 70
     1
102
RTVSPropertyOp44
 70
     1
102
RTVSPropertyOp45
 70
     1
102
RTVSPropertyOp46
 70
     1
102
RTVSPropertyOp47
 70
     1
102
RTVSPropertyOp48
 70
     1
102
RTVSPropertyOp49
 70
     1
102
RTVSPropertyOp50
 70
     1
102
RTVSPropertyOp51
 70
     0
102
RTVSPropertyOp52
 70
     0
102
RTVSPropertyOp53
 70
     1
102
RTVSPropertyOp54
 70
     1
102
RTVSPropertyOp55
 70
     1
102
RTVSPropertyOp56
 70
     1
102
RTVSPropertyOp57
 70
     1
102
RTVSPropertyOp58
 70
     1
102
RTVSPropertyOp59
 70
     1
102
RTVSPropertyOp60
 70
     1
102
RTVSPropertyOp61
 70
     1
102
RTVSPropertyOp62
 70
     1
  0
XRECORD
  5
1062
102
{ACAD_REACTORS
330
1061
102
}
330
1061
100
AcDbXrecord
280
     1
102
RTVSPost2010Prop28
280
     0
102
RTVSPost2010PropOp28
 70
     1
102
RTVSPost2010Prop29
280
     1
102
RTVSPost2010PropOp29
 70
     1
102
RTVSPost2010Prop30
280
     1
102
RTVSPost2010PropOp30
 70
     1
102
RTVSPost2010Prop31
280
     0
102
RTVSPost2010PropOp31
 70
     1
102
RTVSPost2010Prop32
280
     0
102
RTVSPost2010PropOp32
 70
     1
102
RTVSPost2010Prop33
280
     0
102
RTVSPost2010PropOp33
 70
     1
102
RTVSPost2010Prop34
280
     0
102
RTVSPost2010PropOp34
 70
     1
102
RTVSPost2010Prop35
280
     0
102
RTVSPost2010PropOp35
 70
     1
102
RTVSPost2010Prop36
280
     0
102
RTVSPost2010PropOp36
 70
     1
102
RTVSPost2010Prop37
 90
       50
102
RTVSPost2010PropOp37
 70
     1
102
RTVSPost2010Prop38
140
0.0
102
RTVSPost2010PropOp38
 70
     1
102
RTVSPost2010Prop39
140
1.0
102
RTVSPost2010PropOp39
 70
     1
102
RTVSPost2010Prop40
 90
        0
102
RTVSPost2010PropOp40
 70
     1
102
RTVSPost2010Prop41ColorIndex
 90
       18
102
RTVSPost2010Prop41ColorRGB
 90
-16777216
102
RTVSPost2010PropOp41
 70
     1
102
RTVSPost2010Prop42
 90
       50
102
RTVSPost2010PropOp42
 70
     1
102
RTVSPost2010Prop43
 90
        3
102
RTVSPost2010PropOp43
 70
     1
102
RTVSPost2010Prop44ColorIndex
 90
        5
102
RTVSPost2010Prop44ColorRGB
 90
      255
102
RTVSPost2010PropOp44
 70
     1
102
RTVSPost2010Prop45
280
     0
102
RTVSPost2010PropOp45
 70
     1
102
RTVSPost2010Prop46
 90
       50
102
RTVSPost2010PropOp46
 70
     1
102
RTVSPost2010Prop47
 90
       50
102
RTVSPost2010PropOp47
 70
     1
102
RTVSPost2010Prop48
 90
       50
102
RTVSPost2010PropOp48
 70
     1
102
RTVSPost2010Prop49
280
     0
102
RTVSPost2010PropOp49
 70
     1
102
RTVSPost2010Prop50
 90
       50
102
RTVSPost2010PropOp50
 70
     1
102
RTVSPost2010Prop51ColorIndex
 90
      256
102
RTVSPost2010Prop51ColorRGB
 90
-16777216
102
RTVSPost2010PropOp51
 70
     0
102
RTVSPost2010Prop52
140
1.0
102
RTVSPost2010PropOp52
 70
     0
102
RTVSPost2010Prop53
 90
        2
102
RTVSPost2010PropOp53
 70
     1
102
RTVSPost2010Prop54
  1
strokes_ogs.tif
102
RTVSPost2010PropOp54
 70
     1
102
RTVSPost2010Prop55
280
     0
102
RTVSPost2010PropOp55
 70
     1
102
RTVSPost2010Prop56
140
1.0
102
RTVSPost2010PropOp56
 70
     1
102
RTVSPost2010Prop57
140
1.0
102
RTVSPost2010PropOp57
 70
     1
102
RTVSPropertyOp0
 70
     1
102
RTVSPropertyOp1
 70
     1
102
RTVSPropertyOp2
 70
     1
102
RTVSPropertyOp3
 70
     1
102
RTVSPropertyOp4
 70
     1
102
RTVSPropertyOp5
 70
     1
102
RTVSPropertyOp6
 70
     1
102
RTVSPropertyOp7
 70
     1
102
RTVSPropertyOp8
 70
     1
102
RTVSPropertyOp9
 70
     1
102
RTVSPropertyOp10
 70
     1
102
RTVSPropertyOp11
 70
     1
102
RTVSPropertyOp12
 70
     1
102
RTVSPropertyOp13
 70
     1
102
RTVSPropertyOp14
 70
     1
102
RTVSPropertyOp15
 70
     1
102
RTVSPropertyOp16
 70
     1
102
RTVSPropertyOp17
 70
     1
102
RTVSPropertyOp18
 70
     1
102
RTVSPropertyOp19
 70
     1
102
RTVSPropertyOp20
 70
     1
102
RTVSPropertyOp21
 70
     1
102
RTVSPropertyOp22
 70
     1
102
RTVSPropertyOp23
 70
     1
102
RTVSPropertyOp24
 70
     1
102
RTVSPropertyOp25
 70
     1
102
RTVSPropertyOp26
 70
     1
102
RTVSPropertyOp27
 70
     1
102
RTVSPropertyOp28
 70
     1
102
RTVSPropertyOp29
 70
     1
102
RTVSPropertyOp30
 70
     1
102
RTVSPropertyOp31
 70
     1
102
RTVSPropertyOp32
 70
     1
102
RTVSPropertyOp33
 70
     1
102
RTVSPropertyOp34
 70
     1
102
RTVSPropertyOp35
 70
     1
102
RTVSPropertyOp36
 70
     1
102
RTVSPropertyOp37
 70
     1
102
RTVSPropertyOp38
 70
     1
102
RTVSPropertyOp39
 70
     1
102
RTVSPropertyOp40
 70
     1
102
RTVSPropertyOp41
 70
     1
102
RTVSPropertyOp42
 70
     1
102
RTVSPropertyOp43
 70
     1
102
RTVSPropertyOp44
 70
     1
102
RTVSPropertyOp45
 70
     1
102
RTVSPropertyOp46
 70
     1
102
RTVSPropertyOp47
 70
     1
102
RTVSPropertyOp48
 70
     1
102
RTVSPropertyOp49
 70
     1
102
RTVSPropertyOp50
 70
     1
102
RTVSPropertyOp51
 70
     0
102
RTVSPropertyOp52
 70
     0
102
RTVSPropertyOp53
 70
     1
102
RTVSPropertyOp54
 70
     1
102
RTVSPropertyOp55
 70
     1
102
RTVSPropertyOp56
 70
     1
102
RTVSPropertyOp57
 70
     1
102
RTVSPropertyOp58
 70
     1
102
RTVSPropertyOp59
 70
     1
102
RTVSPropertyOp60
 70
     1
102
RTVSPropertyOp61
 70
     1
102
RTVSPropertyOp62
 70
     1
  0
XRECORD
  5
1070
102
{ACAD_REACTORS
330
106F
102
}
330
106F
100
AcDbXrecord
280
     1
102
RTVSPost2010Prop28
280
     0
102
RTVSPost2010PropOp28
 70
     1
102
RTVSPost2010Prop29
280
     1
102
RTVSPost2010PropOp29
 70
     1
102
RTVSPost2010Prop30
280
     1
102
RTVSPost2010PropOp30
 70
     1
102
RTVSPost2010Prop31
280
     0
102
RTVSPost2010PropOp31
 70
     1
102
RTVSPost2010Prop32
280
     0
102
RTVSPost2010PropOp32
 70
     1
102
RTVSPost2010Prop33
280
     0
102
RTVSPost2010PropOp33
 70
     1
102
RTVSPost2010Prop34
280
     0
102
RTVSPost2010PropOp34
 70
     1
102
RTVSPost2010Prop35
280
     0
102
RTVSPost2010PropOp35
 70
     1
102
RTVSPost2010Prop36
280
     0
102
RTVSPost2010PropOp36
 70
     1
102
RTVSPost2010Prop37
 90
       50
102
RTVSPost2010PropOp37
 70
     1
102
RTVSPost2010Prop38
140
0.0
102
RTVSPost2010PropOp38
 70
     1
102
RTVSPost2010Prop39
140
1.0
102
RTVSPost2010PropOp39
 70
     1
102
RTVSPost2010Prop40
 90
        0
102
RTVSPost2010PropOp40
 70
     1
102
RTVSPost2010Prop41ColorIndex
 90
       18
102
RTVSPost2010Prop41ColorRGB
 90
-16777216
102
RTVSPost2010PropOp41
 70
     1
102
RTVSPost2010Prop42
 90
       50
102
RTVSPost2010PropOp42
 70
     1
102
RTVSPost2010Prop43
 90
        3
102
RTVSPost2010PropOp43
 70
     1
102
RTVSPost2010Prop44ColorIndex
 90
        5
102
RTVSPost2010Prop44ColorRGB
 90
      255
102
RTVSPost2010PropOp44
 70
     1
102
RTVSPost2010Prop45
280
     0
102
RTVSPost2010PropOp45
 70
     1
102
RTVSPost2010Prop46
 90
       50
102
RTVSPost2010PropOp46
 70
     1
102
RTVSPost2010Prop47
 90
       50
102
RTVSPost2010PropOp47
 70
     1
102
RTVSPost2010Prop48
 90
       50
102
RTVSPost2010PropOp48
 70
     1
102
RTVSPost2010Prop49
280
     0
102
RTVSPost2010PropOp49
 70
     1
102
RTVSPost2010Prop50
 90
       50
102
RTVSPost2010PropOp50
 70
     1
102
RTVSPost2010Prop51ColorIndex
 90
      256
102
RTVSPost2010Prop51ColorRGB
 90
-16777216
102
RTVSPost2010PropOp51
 70
     0
102
RTVSPost2010Prop52
140
1.0
102
RTVSPost2010PropOp52
 70
     0
102
RTVSPost2010Prop53
 90
        2
102
RTVSPost2010PropOp53
 70
     1
102
RTVSPost2010Prop54
  1
strokes_ogs.tif
102
RTVSPost2010PropOp54
 70
     1
102
RTVSPost2010Prop55
280
     0
102
RTVSPost2010PropOp55
 70
     1
102
RTVSPost2010Prop56
140
1.0
102
RTVSPost2010PropOp56
 70
     1
102
RTVSPost2010Prop57
140
1.0
102
RTVSPost2010PropOp57
 70
     1
102
RTVSPropertyOp0
 70
     1
102
RTVSPropertyOp1
 70
     1
102
RTVSPropertyOp2
 70
     1
102
RTVSPropertyOp3
 70
     1
102
RTVSPropertyOp4
 70
     1
102
RTVSPropertyOp5
 70
     1
102
RTVSPropertyOp6
 70
     1
102
RTVSPropertyOp7
 70
     1
102
RTVSPropertyOp8
 70
     1
102
RTVSPropertyOp9
 70
     1
102
RTVSPropertyOp10
 70
     1
102
RTVSPropertyOp11
 70
     1
102
RTVSPropertyOp12
 70
     1
102
RTVSPropertyOp13
 70
     1
102
RTVSPropertyOp14
 70
     1
102
RTVSPropertyOp15
 70
     1
102
RTVSPropertyOp16
 70
     1
102
RTVSPropertyOp17
 70
     1
102
RTVSPropertyOp18
 70
     1
102
RTVSPropertyOp19
 70
     1
102
RTVSPropertyOp20
 70
     1
102
RTVSPropertyOp21
 70
     1
102
RTVSPropertyOp22
 70
     1
102
RTVSPropertyOp23
 70
     1
102
RTVSPropertyOp24
 70
     1
102
RTVSPropertyOp25
 70
     1
102
RTVSPropertyOp26
 70
     1
102
RTVSPropertyOp27
 70
     1
102
RTVSPropertyOp28
 70
     1
102
RTVSPropertyOp29
 70
     1
102
RTVSPropertyOp30
 70
     1
102
RTVSPropertyOp31
 70
     1
102
RTVSPropertyOp32
 70
     1
102
RTVSPropertyOp33
 70
     1
102
RTVSPropertyOp34
 70
     1
102
RTVSPropertyOp35
 70
     1
102
RTVSPropertyOp36
 70
     1
102
RTVSPropertyOp37
 70
     1
102
RTVSPropertyOp38
 70
     1
102
RTVSPropertyOp39
 70
     1
102
RTVSPropertyOp40
 70
     1
102
RTVSPropertyOp41
 70
     1
102
RTVSPropertyOp42
 70
     1
102
RTVSPropertyOp43
 70
     1
102
RTVSPropertyOp44
 70
     1
102
RTVSPropertyOp45
 70
     1
102
RTVSPropertyOp46
 70
     1
102
RTVSPropertyOp47
 70
     1
102
RTVSPropertyOp48
 70
     1
102
RTVSPropertyOp49
 70
     1
102
RTVSPropertyOp50
 70
     1
102
RTVSPropertyOp51
 70
     0
102
RTVSPropertyOp52
 70
     0
102
RTVSPropertyOp53
 70
     1
102
RTVSPropertyOp54
 70
     1
102
RTVSPropertyOp55
 70
     1
102
RTVSPropertyOp56
 70
     1
102
RTVSPropertyOp57
 70
     1
102
RTVSPropertyOp58
 70
     1
102
RTVSPropertyOp59
 70
     1
102
RTVSPropertyOp60
 70
     1
102
RTVSPropertyOp61
 70
     1
102
RTVSPropertyOp62
 70
     1
  0
XRECORD
  5
1078
102
{ACAD_REACTORS
330
1077
102
}
330
1077
100
AcDbXrecord
280
     1
102
RTVSPost2010Prop28
280
     0
102
RTVSPost2010PropOp28
 70
     1
102
RTVSPost2010Prop29
280
     1
102
RTVSPost2010PropOp29
 70
     1
102
RTVSPost2010Prop30
280
     1
102
RTVSPost2010PropOp30
 70
     1
102
RTVSPost2010Prop31
280
     0
102
RTVSPost2010PropOp31
 70
     1
102
RTVSPost2010Prop32
280
     0
102
RTVSPost2010PropOp32
 70
     1
102
RTVSPost2010Prop33
280
     0
102
RTVSPost2010PropOp33
 70
     1
102
RTVSPost2010Prop34
280
     0
102
RTVSPost2010PropOp34
 70
     1
102
RTVSPost2010Prop35
280
     0
102
RTVSPost2010PropOp35
 70
     1
102
RTVSPost2010Prop36
280
     0
102
RTVSPost2010PropOp36
 70
     1
102
RTVSPost2010Prop37
 90
       50
102
RTVSPost2010PropOp37
 70
     1
102
RTVSPost2010Prop38
140
0.0
102
RTVSPost2010PropOp38
 70
     1
102
RTVSPost2010Prop39
140
1.0
102
RTVSPost2010PropOp39
 70
     1
102
RTVSPost2010Prop40
 90
        0
102
RTVSPost2010PropOp40
 70
     1
102
RTVSPost2010Prop41ColorIndex
 90
       18
102
RTVSPost2010Prop41ColorRGB
 90
-16777216
102
RTVSPost2010PropOp41
 70
     1
102
RTVSPost2010Prop42
 90
       50
102
RTVSPost2010PropOp42
 70
     1
102
RTVSPost2010Prop43
 90
        3
102
RTVSPost2010PropOp43
 70
     1
102
RTVSPost2010Prop44ColorIndex
 90
        5
102
RTVSPost2010Prop44ColorRGB
 90
      255
102
RTVSPost2010PropOp44
 70
     1
102
RTVSPost2010Prop45
280
     0
102
RTVSPost2010PropOp45
 70
     1
102
RTVSPost2010Prop46
 90
       50
102
RTVSPost2010PropOp46
 70
     1
102
RTVSPost2010Prop47
 90
       50
102
RTVSPost2010PropOp47
 70
     1
102
RTVSPost2010Prop48
 90
       50
102
RTVSPost2010PropOp48
 70
     1
102
RTVSPost2010Prop49
280
     0
102
RTVSPost2010PropOp49
 70
     1
102
RTVSPost2010Prop50
 90
       50
102
RTVSPost2010PropOp50
 70
     1
102
RTVSPost2010Prop51ColorIndex
 90
      256
102
RTVSPost2010Prop51ColorRGB
 90
-16777216
102
RTVSPost2010PropOp51
 70
     0
102
RTVSPost2010Prop52
140
1.0
102
RTVSPost2010PropOp52
 70
     0
102
RTVSPost2010Prop53
 90
        2
102
RTVSPost2010PropOp53
 70
     1
102
RTVSPost2010Prop54
  1
strokes_ogs.tif
102
RTVSPost2010PropOp54
 70
     1
102
RTVSPost2010Prop55
280
     0
102
RTVSPost2010PropOp55
 70
     1
102
RTVSPost2010Prop56
140
1.0
102
RTVSPost2010PropOp56
 70
     1
102
RTVSPost2010Prop57
140
1.0
102
RTVSPost2010PropOp57
 70
     1
102
RTVSPropertyOp0
 70
     1
102
RTVSPropertyOp1
 70
     1
102
RTVSPropertyOp2
 70
     1
102
RTVSPropertyOp3
 70
     1
102
RTVSPropertyOp4
 70
     1
102
RTVSPropertyOp5
 70
     1
102
RTVSPropertyOp6
 70
     1
102
RTVSPropertyOp7
 70
     1
102
RTVSPropertyOp8
 70
     1
102
RTVSPropertyOp9
 70
     1
102
RTVSPropertyOp10
 70
     1
102
RTVSPropertyOp11
 70
     1
102
RTVSPropertyOp12
 70
     1
102
RTVSPropertyOp13
 70
     1
102
RTVSPropertyOp14
 70
     1
102
RTVSPropertyOp15
 70
     1
102
RTVSPropertyOp16
 70
     1
102
RTVSPropertyOp17
 70
     1
102
RTVSPropertyOp18
 70
     1
102
RTVSPropertyOp19
 70
     1
102
RTVSPropertyOp20
 70
     1
102
RTVSPropertyOp21
 70
     1
102
RTVSPropertyOp22
 70
     1
102
RTVSPropertyOp23
 70
     1
102
RTVSPropertyOp24
 70
     1
102
RTVSPropertyOp25
 70
     1
102
RTVSPropertyOp26
 70
     1
102
RTVSPropertyOp27
 70
     1
102
RTVSPropertyOp28
 70
     1
102
RTVSPropertyOp29
 70
     1
102
RTVSPropertyOp30
 70
     1
102
RTVSPropertyOp31
 70
     1
102
RTVSPropertyOp32
 70
     1
102
RTVSPropertyOp33
 70
     1
102
RTVSPropertyOp34
 70
     1
102
RTVSPropertyOp35
 70
     1
102
RTVSPropertyOp36
 70
     1
102
RTVSPropertyOp37
 70
     1
102
RTVSPropertyOp38
 70
     1
102
RTVSPropertyOp39
 70
     1
102
RTVSPropertyOp40
 70
     1
102
RTVSPropertyOp41
 70
     1
102
RTVSPropertyOp42
 70
     1
102
RTVSPropertyOp43
 70
     1
102
RTVSPropertyOp44
 70
     1
102
RTVSPropertyOp45
 70
     1
102
RTVSPropertyOp46
 70
     1
102
RTVSPropertyOp47
 70
     1
102
RTVSPropertyOp48
 70
     1
102
RTVSPropertyOp49
 70
     1
102
RTVSPropertyOp50
 70
     1
102
RTVSPropertyOp51
 70
     0
102
RTVSPropertyOp52
 70
     0
102
RTVSPropertyOp53
 70
     1
102
RTVSPropertyOp54
 70
     1
102
RTVSPropertyOp55
 70
     1
102
RTVSPropertyOp56
 70
     1
102
RTVSPropertyOp57
 70
     1
102
RTVSPropertyOp58
 70
     1
102
RTVSPropertyOp59
 70
     1
102
RTVSPropertyOp60
 70
     1
102
RTVSPropertyOp61
 70
     1
102
RTVSPropertyOp62
 70
     1
  0
XRECORD
  5
106A
102
{ACAD_REACTORS
330
1069
102
}
330
1069
100
AcDbXrecord
280
     1
102
RTVSPost2010Prop28
280
     0
102
RTVSPost2010PropOp28
 70
     1
102
RTVSPost2010Prop29
280
     1
102
RTVSPost2010PropOp29
 70
     1
102
RTVSPost2010Prop30
280
     1
102
RTVSPost2010PropOp30
 70
     1
102
RTVSPost2010Prop31
280
     0
102
RTVSPost2010PropOp31
 70
     1
102
RTVSPost2010Prop32
280
     0
102
RTVSPost2010PropOp32
 70
     1
102
RTVSPost2010Prop33
280
     0
102
RTVSPost2010PropOp33
 70
     1
102
RTVSPost2010Prop34
280
     0
102
RTVSPost2010PropOp34
 70
     1
102
RTVSPost2010Prop35
280
     0
102
RTVSPost2010PropOp35
 70
     1
102
RTVSPost2010Prop36
280
     0
102
RTVSPost2010PropOp36
 70
     1
102
RTVSPost2010Prop37
 90
       50
102
RTVSPost2010PropOp37
 70
     1
102
RTVSPost2010Prop38
140
0.0
102
RTVSPost2010PropOp38
 70
     1
102
RTVSPost2010Prop39
140
1.0
102
RTVSPost2010PropOp39
 70
     1
102
RTVSPost2010Prop40
 90
        0
102
RTVSPost2010PropOp40
 70
     1
102
RTVSPost2010Prop41ColorIndex
 90
       18
102
RTVSPost2010Prop41ColorRGB
 90
-16777216
102
RTVSPost2010PropOp41
 70
     1
102
RTVSPost2010Prop42
 90
       50
102
RTVSPost2010PropOp42
 70
     1
102
RTVSPost2010Prop43
 90
        3
102
RTVSPost2010PropOp43
 70
     1
102
RTVSPost2010Prop44ColorIndex
 90
        5
102
RTVSPost2010Prop44ColorRGB
 90
      255
102
RTVSPost2010PropOp44
 70
     1
102
RTVSPost2010Prop45
280
     0
102
RTVSPost2010PropOp45
 70
     1
102
RTVSPost2010Prop46
 90
       50
102
RTVSPost2010PropOp46
 70
     1
102
RTVSPost2010Prop47
 90
       50
102
RTVSPost2010PropOp47
 70
     1
102
RTVSPost2010Prop48
 90
       50
102
RTVSPost2010PropOp48
 70
     1
102
RTVSPost2010Prop49
280
     0
102
RTVSPost2010PropOp49
 70
     1
102
RTVSPost2010Prop50
 90
       50
102
RTVSPost2010PropOp50
 70
     1
102
RTVSPost2010Prop51ColorIndex
 90
      256
102
RTVSPost2010Prop51ColorRGB
 90
-16777216
102
RTVSPost2010PropOp51
 70
     0
102
RTVSPost2010Prop52
140
1.0
102
RTVSPost2010PropOp52
 70
     0
102
RTVSPost2010Prop53
 90
        2
102
RTVSPost2010PropOp53
 70
     1
102
RTVSPost2010Prop54
  1
strokes_ogs.tif
102
RTVSPost2010PropOp54
 70
     1
102
RTVSPost2010Prop55
280
     0
102
RTVSPost2010PropOp55
 70
     1
102
RTVSPost2010Prop56
140
1.0
102
RTVSPost2010PropOp56
 70
     1
102
RTVSPost2010Prop57
140
1.0
102
RTVSPost2010PropOp57
 70
     1
102
RTVSPropertyOp0
 70
     1
102
RTVSPropertyOp1
 70
     1
102
RTVSPropertyOp2
 70
     1
102
RTVSPropertyOp3
 70
     1
102
RTVSPropertyOp4
 70
     1
102
RTVSPropertyOp5
 70
     1
102
RTVSPropertyOp6
 70
     1
102
RTVSPropertyOp7
 70
     1
102
RTVSPropertyOp8
 70
     1
102
RTVSPropertyOp9
 70
     1
102
RTVSPropertyOp10
 70
     1
102
RTVSPropertyOp11
 70
     1
102
RTVSPropertyOp12
 70
     1
102
RTVSPropertyOp13
 70
     1
102
RTVSPropertyOp14
 70
     1
102
RTVSPropertyOp15
 70
     1
102
RTVSPropertyOp16
 70
     1
102
RTVSPropertyOp17
 70
     1
102
RTVSPropertyOp18
 70
     1
102
RTVSPropertyOp19
 70
     1
102
RTVSPropertyOp20
 70
     1
102
RTVSPropertyOp21
 70
     1
102
RTVSPropertyOp22
 70
     1
102
RTVSPropertyOp23
 70
     1
102
RTVSPropertyOp24
 70
     1
102
RTVSPropertyOp25
 70
     1
102
RTVSPropertyOp26
 70
     1
102
RTVSPropertyOp27
 70
     1
102
RTVSPropertyOp28
 70
     1
102
RTVSPropertyOp29
 70
     1
102
RTVSPropertyOp30
 70
     1
102
RTVSPropertyOp31
 70
     1
102
RTVSPropertyOp32
 70
     1
102
RTVSPropertyOp33
 70
     1
102
RTVSPropertyOp34
 70
     1
102
RTVSPropertyOp35
 70
     1
102
RTVSPropertyOp36
 70
     1
102
RTVSPropertyOp37
 70
     1
102
RTVSPropertyOp38
 70
     1
102
RTVSPropertyOp39
 70
     1
102
RTVSPropertyOp40
 70
     1
102
RTVSPropertyOp41
 70
     1
102
RTVSPropertyOp42
 70
     1
102
RTVSPropertyOp43
 70
     1
102
RTVSPropertyOp44
 70
     1
102
RTVSPropertyOp45
 70
     1
102
RTVSPropertyOp46
 70
     1
102
RTVSPropertyOp47
 70
     1
102
RTVSPropertyOp48
 70
     1
102
RTVSPropertyOp49
 70
     1
102
RTVSPropertyOp50
 70
     1
102
RTVSPropertyOp51
 70
     0
102
RTVSPropertyOp52
 70
     0
102
RTVSPropertyOp53
 70
     1
102
RTVSPropertyOp54
 70
     1
102
RTVSPropertyOp55
 70
     1
102
RTVSPropertyOp56
 70
     1
102
RTVSPropertyOp57
 70
     1
102
RTVSPropertyOp58
 70
     1
102
RTVSPropertyOp59
 70
     1
102
RTVSPropertyOp60
 70
     1
102
RTVSPropertyOp61
 70
     1
102
RTVSPropertyOp62
 70
     1
  0
XRECORD
  5
106E
102
{ACAD_REACTORS
330
106D
102
}
330
106D
100
AcDbXrecord
280
     1
102
RTVSPost2010Prop28
280
     0
102
RTVSPost2010PropOp28
 70
     1
102
RTVSPost2010Prop29
280
     1
102
RTVSPost2010PropOp29
 70
     1
102
RTVSPost2010Prop30
280
     1
102
RTVSPost2010PropOp30
 70
     1
102
RTVSPost2010Prop31
280
     0
102
RTVSPost2010PropOp31
 70
     1
102
RTVSPost2010Prop32
280
     0
102
RTVSPost2010PropOp32
 70
     1
102
RTVSPost2010Prop33
280
     0
102
RTVSPost2010PropOp33
 70
     1
102
RTVSPost2010Prop34
280
     0
102
RTVSPost2010PropOp34
 70
     1
102
RTVSPost2010Prop35
280
     0
102
RTVSPost2010PropOp35
 70
     1
102
RTVSPost2010Prop36
280
     0
102
RTVSPost2010PropOp36
 70
     1
102
RTVSPost2010Prop37
 90
       50
102
RTVSPost2010PropOp37
 70
     1
102
RTVSPost2010Prop38
140
0.0
102
RTVSPost2010PropOp38
 70
     1
102
RTVSPost2010Prop39
140
1.0
102
RTVSPost2010PropOp39
 70
     1
102
RTVSPost2010Prop40
 90
        0
102
RTVSPost2010PropOp40
 70
     1
102
RTVSPost2010Prop41ColorIndex
 90
       18
102
RTVSPost2010Prop41ColorRGB
 90
-16777216
102
RTVSPost2010PropOp41
 70
     1
102
RTVSPost2010Prop42
 90
       50
102
RTVSPost2010PropOp42
 70
     1
102
RTVSPost2010Prop43
 90
        3
102
RTVSPost2010PropOp43
 70
     1
102
RTVSPost2010Prop44ColorIndex
 90
        5
102
RTVSPost2010Prop44ColorRGB
 90
      255
102
RTVSPost2010PropOp44
 70
     1
102
RTVSPost2010Prop45
280
     0
102
RTVSPost2010PropOp45
 70
     1
102
RTVSPost2010Prop46
 90
       50
102
RTVSPost2010PropOp46
 70
     1
102
RTVSPost2010Prop47
 90
       50
102
RTVSPost2010PropOp47
 70
     1
102
RTVSPost2010Prop48
 90
       50
102
RTVSPost2010PropOp48
 70
     1
102
RTVSPost2010Prop49
280
     0
102
RTVSPost2010PropOp49
 70
     1
102
RTVSPost2010Prop50
 90
       50
102
RTVSPost2010PropOp50
 70
     1
102
RTVSPost2010Prop51ColorIndex
 90
      256
102
RTVSPost2010Prop51ColorRGB
 90
-16777216
102
RTVSPost2010PropOp51
 70
     0
102
RTVSPost2010Prop52
140
1.0
102
RTVSPost2010PropOp52
 70
     0
102
RTVSPost2010Prop53
 90
        2
102
RTVSPost2010PropOp53
 70
     1
102
RTVSPost2010Prop54
  1
strokes_ogs.tif
102
RTVSPost2010PropOp54
 70
     1
102
RTVSPost2010Prop55
280
     0
102
RTVSPost2010PropOp55
 70
     1
102
RTVSPost2010Prop56
140
1.0
102
RTVSPost2010PropOp56
 70
     1
102
RTVSPost2010Prop57
140
1.0
102
RTVSPost2010PropOp57
 70
     1
102
RTVSPropertyOp0
 70
     1
102
RTVSPropertyOp1
 70
     1
102
RTVSPropertyOp2
 70
     1
102
RTVSPropertyOp3
 70
     1
102
RTVSPropertyOp4
 70
     1
102
RTVSPropertyOp5
 70
     1
102
RTVSPropertyOp6
 70
     1
102
RTVSPropertyOp7
 70
     1
102
RTVSPropertyOp8
 70
     1
102
RTVSPropertyOp9
 70
     1
102
RTVSPropertyOp10
 70
     1
102
RTVSPropertyOp11
 70
     1
102
RTVSPropertyOp12
 70
     1
102
RTVSPropertyOp13
 70
     1
102
RTVSPropertyOp14
 70
     1
102
RTVSPropertyOp15
 70
     1
102
RTVSPropertyOp16
 70
     1
102
RTVSPropertyOp17
 70
     1
102
RTVSPropertyOp18
 70
     1
102
RTVSPropertyOp19
 70
     1
102
RTVSPropertyOp20
 70
     1
102
RTVSPropertyOp21
 70
     1
102
RTVSPropertyOp22
 70
     1
102
RTVSPropertyOp23
 70
     1
102
RTVSPropertyOp24
 70
     1
102
RTVSPropertyOp25
 70
     1
102
RTVSPropertyOp26
 70
     1
102
RTVSPropertyOp27
 70
     1
102
RTVSPropertyOp28
 70
     1
102
RTVSPropertyOp29
 70
     1
102
RTVSPropertyOp30
 70
     1
102
RTVSPropertyOp31
 70
     1
102
RTVSPropertyOp32
 70
     1
102
RTVSPropertyOp33
 70
     1
102
RTVSPropertyOp34
 70
     1
102
RTVSPropertyOp35
 70
     1
102
RTVSPropertyOp36
 70
     1
102
RTVSPropertyOp37
 70
     1
102
RTVSPropertyOp38
 70
     1
102
RTVSPropertyOp39
 70
     1
102
RTVSPropertyOp40
 70
     1
102
RTVSPropertyOp41
 70
     1
102
RTVSPropertyOp42
 70
     1
102
RTVSPropertyOp43
 70
     1
102
RTVSPropertyOp44
 70
     1
102
RTVSPropertyOp45
 70
     1
102
RTVSPropertyOp46
 70
     1
102
RTVSPropertyOp47
 70
     1
102
RTVSPropertyOp48
 70
     1
102
RTVSPropertyOp49
 70
     1
102
RTVSPropertyOp50
 70
     1
102
RTVSPropertyOp51
 70
     0
102
RTVSPropertyOp52
 70
     0
102
RTVSPropertyOp53
 70
     1
102
RTVSPropertyOp54
 70
     1
102
RTVSPropertyOp55
 70
     1
102
RTVSPropertyOp56
 70
     1
102
RTVSPropertyOp57
 70
     1
102
RTVSPropertyOp58
 70
     1
102
RTVSPropertyOp59
 70
     1
102
RTVSPropertyOp60
 70
     1
102
RTVSPropertyOp61
 70
     1
102
RTVSPropertyOp62
 70
     1
  0
XRECORD
  5
1088
102
{ACAD_REACTORS
330
1087
102
}
330
1087
100
AcDbXrecord
280
     1
102
RTVSPost2010Prop28
280
     0
102
RTVSPost2010PropOp28
 70
     0
102
RTVSPost2010Prop29
280
     1
102
RTVSPost2010PropOp29
 70
     0
102
RTVSPost2010Prop30
280
     1
102
RTVSPost2010PropOp30
 70
     0
102
RTVSPost2010Prop31
280
     0
102
RTVSPost2010PropOp31
 70
     0
102
RTVSPost2010Prop32
280
     0
102
RTVSPost2010PropOp32
 70
     0
102
RTVSPost2010Prop33
280
     0
102
RTVSPost2010PropOp33
 70
     0
102
RTVSPost2010Prop34
280
     0
102
RTVSPost2010PropOp34
 70
     0
102
RTVSPost2010Prop35
280
     0
102
RTVSPost2010PropOp35
 70
     0
102
RTVSPost2010Prop36
280
     0
102
RTVSPost2010PropOp36
 70
     0
102
RTVSPost2010Prop37
 90
       50
102
RTVSPost2010PropOp37
 70
     0
102
RTVSPost2010Prop38
140
0.0
102
RTVSPost2010PropOp38
 70
     0
102
RTVSPost2010Prop39
140
1.0
102
RTVSPost2010PropOp39
 70
     0
102
RTVSPost2010Prop40
 90
        0
102
RTVSPost2010PropOp40
 70
     0
102
RTVSPost2010Prop41ColorIndex
 90
       18
102
RTVSPost2010Prop41ColorRGB
 90
-16777216
102
RTVSPost2010PropOp41
 70
     0
102
RTVSPost2010Prop42
 90
       50
102
RTVSPost2010PropOp42
 70
     0
102
RTVSPost2010Prop43
 90
        3
102
RTVSPost2010PropOp43
 70
     0
102
RTVSPost2010Prop44ColorIndex
 90
        5
102
RTVSPost2010Prop44ColorRGB
 90
      255
102
RTVSPost2010PropOp44
 70
     0
102
RTVSPost2010Prop45
280
     0
102
RTVSPost2010PropOp45
 70
     0
102
RTVSPost2010Prop46
 90
       50
102
RTVSPost2010PropOp46
 70
     0
102
RTVSPost2010Prop47
 90
       50
102
RTVSPost2010PropOp47
 70
     0
102
RTVSPost2010Prop48
 90
       50
102
RTVSPost2010PropOp48
 70
     0
102
RTVSPost2010Prop49
280
     0
102
RTVSPost2010PropOp49
 70
     0
102
RTVSPost2010Prop50
 90
       50
102
RTVSPost2010PropOp50
 70
     0
102
RTVSPost2010Prop51ColorIndex
 90
      256
102
RTVSPost2010Prop51ColorRGB
 90
-16777216
102
RTVSPost2010PropOp51
 70
     0
102
RTVSPost2010Prop52
140
1.0
102
RTVSPost2010PropOp52
 70
     0
102
RTVSPost2010Prop53
 90
        2
102
RTVSPost2010PropOp53
 70
     0
102
RTVSPost2010Prop54
  1
strokes_ogs.tif
102
RTVSPost2010PropOp54
 70
     0
102
RTVSPost2010Prop55
280
     0
102
RTVSPost2010PropOp55
 70
     0
102
RTVSPost2010Prop56
140
1.0
102
RTVSPost2010PropOp56
 70
     0
102
RTVSPost2010Prop57
140
1.0
102
RTVSPost2010PropOp57
 70
     0
102
RTVSPropertyOp0
 70
     0
102
RTVSPropertyOp1
 70
     0
102
RTVSPropertyOp2
 70
     0
102
RTVSPropertyOp3
 70
     0
102
RTVSPropertyOp4
 70
     0
102
RTVSPropertyOp5
 70
     0
102
RTVSPropertyOp6
 70
     0
102
RTVSPropertyOp7
 70
     0
102
RTVSPropertyOp8
 70
     0
102
RTVSPropertyOp9
 70
     0
102
RTVSPropertyOp10
 70
     0
102
RTVSPropertyOp11
 70
     0
102
RTVSPropertyOp12
 70
     0
102
RTVSPropertyOp13
 70
     0
102
RTVSPropertyOp14
 70
     2
102
RTVSPropertyOp15
 70
     0
102
RTVSPropertyOp16
 70
     0
102
RTVSPropertyOp17
 70
     0
102
RTVSPropertyOp18
 70
     0
102
RTVSPropertyOp19
 70
     0
102
RTVSPropertyOp20
 70
     0
102
RTVSPropertyOp21
 70
     0
102
RTVSPropertyOp22
 70
     0
102
RTVSPropertyOp23
 70
     0
102
RTVSPropertyOp24
 70
     0
102
RTVSPropertyOp25
 70
     0
102
RTVSPropertyOp26
 70
     0
102
RTVSPropertyOp27
 70
     0
102
RTVSPropertyOp28
 70
     0
102
RTVSPropertyOp29
 70
     0
102
RTVSPropertyOp30
 70
     0
102
RTVSPropertyOp31
 70
     0
102
RTVSPropertyOp32
 70
     0
102
RTVSPropertyOp33
 70
     0
102
RTVSPropertyOp34
 70
     0
102
RTVSPropertyOp35
 70
     0
102
RTVSPropertyOp36
 70
     0
102
RTVSPropertyOp37
 70
     0
102
RTVSPropertyOp38
 70
     0
102
RTVSPropertyOp39
 70
     0
102
RTVSPropertyOp40
 70
     0
102
RTVSPropertyOp41
 70
     0
102
RTVSPropertyOp42
 70
     0
102
RTVSPropertyOp43
 70
     0
102
RTVSPropertyOp44
 70
     0
102
RTVSPropertyOp45
 70
     0
102
RTVSPropertyOp46
 70
     0
102
RTVSPropertyOp47
 70
     0
102
RTVSPropertyOp48
 70
     0
102
RTVSPropertyOp49
 70
     0
102
RTVSPropertyOp50
 70
     0
102
RTVSPropertyOp51
 70
     0
102
RTVSPropertyOp52
 70
     0
102
RTVSPropertyOp53
 70
     0
102
RTVSPropertyOp54
 70
     0
102
RTVSPropertyOp55
 70
     0
102
RTVSPropertyOp56
 70
     0
102
RTVSPropertyOp57
 70
     0
102
RTVSPropertyOp58
 70
     1
102
RTVSPropertyOp59
 70
     1
102
RTVSPropertyOp60
 70
     1
102
RTVSPropertyOp61
 70
     1
102
RTVSPropertyOp62
 70
     1
  0
XRECORD
  5
1076
102
{ACAD_REACTORS
330
1075
102
}
330
1075
100
AcDbXrecord
280
     1
102
RTVSPost2010Prop28
280
     0
102
RTVSPost2010PropOp28
 70
     1
102
RTVSPost2010Prop29
280
     1
102
RTVSPost2010PropOp29
 70
     1
102
RTVSPost2010Prop30
280
     1
102
RTVSPost2010PropOp30
 70
     1
102
RTVSPost2010Prop31
280
     0
102
RTVSPost2010PropOp31
 70
     1
102
RTVSPost2010Prop32
280
     0
102
RTVSPost2010PropOp32
 70
     1
102
RTVSPost2010Prop33
280
     0
102
RTVSPost2010PropOp33
 70
     1
102
RTVSPost2010Prop34
280
     0
102
RTVSPost2010PropOp34
 70
     1
102
RTVSPost2010Prop35
280
     0
102
RTVSPost2010PropOp35
 70
     1
102
RTVSPost2010Prop36
280
     0
102
RTVSPost2010PropOp36
 70
     1
102
RTVSPost2010Prop37
 90
       50
102
RTVSPost2010PropOp37
 70
     1
102
RTVSPost2010Prop38
140
0.0
102
RTVSPost2010PropOp38
 70
     1
102
RTVSPost2010Prop39
140
1.0
102
RTVSPost2010PropOp39
 70
     1
102
RTVSPost2010Prop40
 90
        0
102
RTVSPost2010PropOp40
 70
     1
102
RTVSPost2010Prop41ColorIndex
 90
       18
102
RTVSPost2010Prop41ColorRGB
 90
-16777216
102
RTVSPost2010PropOp41
 70
     1
102
RTVSPost2010Prop42
 90
       50
102
RTVSPost2010PropOp42
 70
     1
102
RTVSPost2010Prop43
 90
        3
102
RTVSPost2010PropOp43
 70
     1
102
RTVSPost2010Prop44ColorIndex
 90
        5
102
RTVSPost2010Prop44ColorRGB
 90
      255
102
RTVSPost2010PropOp44
 70
     1
102
RTVSPost2010Prop45
280
     0
102
RTVSPost2010PropOp45
 70
     1
102
RTVSPost2010Prop46
 90
       50
102
RTVSPost2010PropOp46
 70
     1
102
RTVSPost2010Prop47
 90
       50
102
RTVSPost2010PropOp47
 70
     1
102
RTVSPost2010Prop48
 90
       50
102
RTVSPost2010PropOp48
 70
     1
102
RTVSPost2010Prop49
280
     0
102
RTVSPost2010PropOp49
 70
     1
102
RTVSPost2010Prop50
 90
       50
102
RTVSPost2010PropOp50
 70
     1
102
RTVSPost2010Prop51ColorIndex
 90
      256
102
RTVSPost2010Prop51ColorRGB
 90
-16777216
102
RTVSPost2010PropOp51
 70
     0
102
RTVSPost2010Prop52
140
1.0
102
RTVSPost2010PropOp52
 70
     0
102
RTVSPost2010Prop53
 90
        2
102
RTVSPost2010PropOp53
 70
     1
102
RTVSPost2010Prop54
  1
strokes_ogs.tif
102
RTVSPost2010PropOp54
 70
     1
102
RTVSPost2010Prop55
280
     0
102
RTVSPost2010PropOp55
 70
     1
102
RTVSPost2010Prop56
140
1.0
102
RTVSPost2010PropOp56
 70
     1
102
RTVSPost2010Prop57
140
1.0
102
RTVSPost2010PropOp57
 70
     1
102
RTVSPropertyOp0
 70
     1
102
RTVSPropertyOp1
 70
     1
102
RTVSPropertyOp2
 70
     1
102
RTVSPropertyOp3
 70
     1
102
RTVSPropertyOp4
 70
     1
102
RTVSPropertyOp5
 70
     1
102
RTVSPropertyOp6
 70
     1
102
RTVSPropertyOp7
 70
     1
102
RTVSPropertyOp8
 70
     1
102
RTVSPropertyOp9
 70
     1
102
RTVSPropertyOp10
 70
     1
102
RTVSPropertyOp11
 70
     1
102
RTVSPropertyOp12
 70
     1
102
RTVSPropertyOp13
 70
     1
102
RTVSPropertyOp14
 70
     1
102
RTVSPropertyOp15
 70
     1
102
RTVSPropertyOp16
 70
     1
102
RTVSPropertyOp17
 70
     1
102
RTVSPropertyOp18
 70
     1
102
RTVSPropertyOp19
 70
     1
102
RTVSPropertyOp20
 70
     1
102
RTVSPropertyOp21
 70
     1
102
RTVSPropertyOp22
 70
     1
102
RTVSPropertyOp23
 70
     1
102
RTVSPropertyOp24
 70
     1
102
RTVSPropertyOp25
 70
     1
102
RTVSPropertyOp26
 70
     1
102
RTVSPropertyOp27
 70
     1
102
RTVSPropertyOp28
 70
     1
102
RTVSPropertyOp29
 70
     1
102
RTVSPropertyOp30
 70
     1
102
RTVSPropertyOp31
 70
     1
102
RTVSPropertyOp32
 70
     1
102
RTVSPropertyOp33
 70
     1
102
RTVSPropertyOp34
 70
     1
102
RTVSPropertyOp35
 70
     1
102
RTVSPropertyOp36
 70
     1
102
RTVSPropertyOp37
 70
     1
102
RTVSPropertyOp38
 70
     1
102
RTVSPropertyOp39
 70
     1
102
RTVSPropertyOp40
 70
     1
102
RTVSPropertyOp41
 70
     1
102
RTVSPropertyOp42
 70
     1
102
RTVSPropertyOp43
 70
     1
102
RTVSPropertyOp44
 70
     1
102
RTVSPropertyOp45
 70
     1
102
RTVSPropertyOp46
 70
     1
102
RTVSPropertyOp47
 70
     1
102
RTVSPropertyOp48
 70
     1
102
RTVSPropertyOp49
 70
     1
102
RTVSPropertyOp50
 70
     1
102
RTVSPropertyOp51
 70
     0
102
RTVSPropertyOp52
 70
     0
102
RTVSPropertyOp53
 70
     1
102
RTVSPropertyOp54
 70
     1
102
RTVSPropertyOp55
 70
     1
102
RTVSPropertyOp56
 70
     1
102
RTVSPropertyOp57
 70
     1
102
RTVSPropertyOp58
 70
     1
102
RTVSPropertyOp59
 70
     1
102
RTVSPropertyOp60
 70
     1
102
RTVSPropertyOp61
 70
     1
102
RTVSPropertyOp62
 70
     1
  0
XRECORD
  5
105A
102
{ACAD_REACTORS
330
1059
102
}
330
1059
100
AcDbXrecord
280
     1
102
RTVSPost2010Prop28
280
     0
102
RTVSPost2010PropOp28
 70
     1
102
RTVSPost2010Prop29
280
     1
102
RTVSPost2010PropOp29
 70
     1
102
RTVSPost2010Prop30
280
     1
102
RTVSPost2010PropOp30
 70
     1
102
RTVSPost2010Prop31
280
     0
102
RTVSPost2010PropOp31
 70
     1
102
RTVSPost2010Prop32
280
     0
102
RTVSPost2010PropOp32
 70
     1
102
RTVSPost2010Prop33
280
     0
102
RTVSPost2010PropOp33
 70
     1
102
RTVSPost2010Prop34
280
     0
102
RTVSPost2010PropOp34
 70
     1
102
RTVSPost2010Prop35
280
     0
102
RTVSPost2010PropOp35
 70
     1
102
RTVSPost2010Prop36
280
     0
102
RTVSPost2010PropOp36
 70
     1
102
RTVSPost2010Prop37
 90
       50
102
RTVSPost2010PropOp37
 70
     1
102
RTVSPost2010Prop38
140
0.0
102
RTVSPost2010PropOp38
 70
     1
102
RTVSPost2010Prop39
140
1.0
102
RTVSPost2010PropOp39
 70
     1
102
RTVSPost2010Prop40
 90
        0
102
RTVSPost2010PropOp40
 70
     1
102
RTVSPost2010Prop41ColorIndex
 90
       18
102
RTVSPost2010Prop41ColorRGB
 90
-16777216
102
RTVSPost2010PropOp41
 70
     1
102
RTVSPost2010Prop42
 90
       50
102
RTVSPost2010PropOp42
 70
     1
102
RTVSPost2010Prop43
 90
        3
102
RTVSPost2010PropOp43
 70
     1
102
RTVSPost2010Prop44ColorIndex
 90
        5
102
RTVSPost2010Prop44ColorRGB
 90
      255
102
RTVSPost2010PropOp44
 70
     1
102
RTVSPost2010Prop45
280
     0
102
RTVSPost2010PropOp45
 70
     1
102
RTVSPost2010Prop46
 90
       50
102
RTVSPost2010PropOp46
 70
     1
102
RTVSPost2010Prop47
 90
       50
102
RTVSPost2010PropOp47
 70
     1
102
RTVSPost2010Prop48
 90
       50
102
RTVSPost2010PropOp48
 70
     1
102
RTVSPost2010Prop49
280
     0
102
RTVSPost2010PropOp49
 70
     1
102
RTVSPost2010Prop50
 90
       50
102
RTVSPost2010PropOp50
 70
     1
102
RTVSPost2010Prop51ColorIndex
 90
      256
102
RTVSPost2010Prop51ColorRGB
 90
-16777216
102
RTVSPost2010PropOp51
 70
     0
102
RTVSPost2010Prop52
140
1.0
102
RTVSPost2010PropOp52
 70
     0
102
RTVSPost2010Prop53
 90
        2
102
RTVSPost2010PropOp53
 70
     1
102
RTVSPost2010Prop54
  1
strokes_ogs.tif
102
RTVSPost2010PropOp54
 70
     1
102
RTVSPost2010Prop55
280
     0
102
RTVSPost2010PropOp55
 70
     1
102
RTVSPost2010Prop56
140
1.0
102
RTVSPost2010PropOp56
 70
     1
102
RTVSPost2010Prop57
140
1.0
102
RTVSPost2010PropOp57
 70
     1
102
RTVSPropertyOp0
 70
     1
102
RTVSPropertyOp1
 70
     1
102
RTVSPropertyOp2
 70
     1
102
RTVSPropertyOp3
 70
     1
102
RTVSPropertyOp4
 70
     1
102
RTVSPropertyOp5
 70
     1
102
RTVSPropertyOp6
 70
     1
102
RTVSPropertyOp7
 70
     1
102
RTVSPropertyOp8
 70
     1
102
RTVSPropertyOp9
 70
     1
102
RTVSPropertyOp10
 70
     1
102
RTVSPropertyOp11
 70
     1
102
RTVSPropertyOp12
 70
     1
102
RTVSPropertyOp13
 70
     1
102
RTVSPropertyOp14
 70
     1
102
RTVSPropertyOp15
 70
     1
102
RTVSPropertyOp16
 70
     1
102
RTVSPropertyOp17
 70
     1
102
RTVSPropertyOp18
 70
     1
102
RTVSPropertyOp19
 70
     1
102
RTVSPropertyOp20
 70
     1
102
RTVSPropertyOp21
 70
     1
102
RTVSPropertyOp22
 70
     1
102
RTVSPropertyOp23
 70
     1
102
RTVSPropertyOp24
 70
     1
102
RTVSPropertyOp25
 70
     1
102
RTVSPropertyOp26
 70
     1
102
RTVSPropertyOp27
 70
     1
102
RTVSPropertyOp28
 70
     1
102
RTVSPropertyOp29
 70
     1
102
RTVSPropertyOp30
 70
     1
102
RTVSPropertyOp31
 70
     1
102
RTVSPropertyOp32
 70
     1
102
RTVSPropertyOp33
 70
     1
102
RTVSPropertyOp34
 70
     1
102
RTVSPropertyOp35
 70
     1
102
RTVSPropertyOp36
 70
     1
102
RTVSPropertyOp37
 70
     1
102
RTVSPropertyOp38
 70
     1
102
RTVSPropertyOp39
 70
     1
102
RTVSPropertyOp40
 70
     1
102
RTVSPropertyOp41
 70
     1
102
RTVSPropertyOp42
 70
     1
102
RTVSPropertyOp43
 70
     1
102
RTVSPropertyOp44
 70
     1
102
RTVSPropertyOp45
 70
     1
102
RTVSPropertyOp46
 70
     1
102
RTVSPropertyOp47
 70
     1
102
RTVSPropertyOp48
 70
     1
102
RTVSPropertyOp49
 70
     1
102
RTVSPropertyOp50
 70
     1
102
RTVSPropertyOp51
 70
     0
102
RTVSPropertyOp52
 70
     0
102
RTVSPropertyOp53
 70
     1
102
RTVSPropertyOp54
 70
     1
102
RTVSPropertyOp55
 70
     1
102
RTVSPropertyOp56
 70
     1
102
RTVSPropertyOp57
 70
     1
102
RTVSPropertyOp58
 70
     1
102
RTVSPropertyOp59
 70
     1
102
RTVSPropertyOp60
 70
     1
102
RTVSPropertyOp61
 70
     1
102
RTVSPropertyOp62
 70
     1
  0
XRECORD
  5
105C
102
{ACAD_REACTORS
330
105B
102
}
330
105B
100
AcDbXrecord
280
     1
102
RTVSPost2010Prop28
280
     0
102
RTVSPost2010PropOp28
 70
     1
102
RTVSPost2010Prop29
280
     1
102
RTVSPost2010PropOp29
 70
     1
102
RTVSPost2010Prop30
280
     1
102
RTVSPost2010PropOp30
 70
     1
102
RTVSPost2010Prop31
280
     0
102
RTVSPost2010PropOp31
 70
     1
102
RTVSPost2010Prop32
280
     0
102
RTVSPost2010PropOp32
 70
     1
102
RTVSPost2010Prop33
280
     0
102
RTVSPost2010PropOp33
 70
     1
102
RTVSPost2010Prop34
280
     0
102
RTVSPost2010PropOp34
 70
     1
102
RTVSPost2010Prop35
280
     0
102
RTVSPost2010PropOp35
 70
     1
102
RTVSPost2010Prop36
280
     0
102
RTVSPost2010PropOp36
 70
     1
102
RTVSPost2010Prop37
 90
       50
102
RTVSPost2010PropOp37
 70
     1
102
RTVSPost2010Prop38
140
0.0
102
RTVSPost2010PropOp38
 70
     1
102
RTVSPost2010Prop39
140
1.0
102
RTVSPost2010PropOp39
 70
     1
102
RTVSPost2010Prop40
 90
        0
102
RTVSPost2010PropOp40
 70
     1
102
RTVSPost2010Prop41ColorIndex
 90
       18
102
RTVSPost2010Prop41ColorRGB
 90
-16777216
102
RTVSPost2010PropOp41
 70
     1
102
RTVSPost2010Prop42
 90
       50
102
RTVSPost2010PropOp42
 70
     1
102
RTVSPost2010Prop43
 90
        3
102
RTVSPost2010PropOp43
 70
     1
102
RTVSPost2010Prop44ColorIndex
 90
        5
102
RTVSPost2010Prop44ColorRGB
 90
      255
102
RTVSPost2010PropOp44
 70
     1
102
RTVSPost2010Prop45
280
     0
102
RTVSPost2010PropOp45
 70
     1
102
RTVSPost2010Prop46
 90
       50
102
RTVSPost2010PropOp46
 70
     1
102
RTVSPost2010Prop47
 90
       50
102
RTVSPost2010PropOp47
 70
     1
102
RTVSPost2010Prop48
 90
       50
102
RTVSPost2010PropOp48
 70
     1
102
RTVSPost2010Prop49
280
     0
102
RTVSPost2010PropOp49
 70
     1
102
RTVSPost2010Prop50
 90
       50
102
RTVSPost2010PropOp50
 70
     1
102
RTVSPost2010Prop51ColorIndex
 90
      256
102
RTVSPost2010Prop51ColorRGB
 90
-16777216
102
RTVSPost2010PropOp51
 70
     0
102
RTVSPost2010Prop52
140
1.0
102
RTVSPost2010PropOp52
 70
     0
102
RTVSPost2010Prop53
 90
        2
102
RTVSPost2010PropOp53
 70
     1
102
RTVSPost2010Prop54
  1
strokes_ogs.tif
102
RTVSPost2010PropOp54
 70
     1
102
RTVSPost2010Prop55
280
     0
102
RTVSPost2010PropOp55
 70
     1
102
RTVSPost2010Prop56
140
1.0
102
RTVSPost2010PropOp56
 70
     1
102
RTVSPost2010Prop57
140
1.0
102
RTVSPost2010PropOp57
 70
     1
102
RTVSPropertyOp0
 70
     1
102
RTVSPropertyOp1
 70
     1
102
RTVSPropertyOp2
 70
     1
102
RTVSPropertyOp3
 70
     1
102
RTVSPropertyOp4
 70
     1
102
RTVSPropertyOp5
 70
     1
102
RTVSPropertyOp6
 70
     1
102
RTVSPropertyOp7
 70
     1
102
RTVSPropertyOp8
 70
     1
102
RTVSPropertyOp9
 70
     1
102
RTVSPropertyOp10
 70
     1
102
RTVSPropertyOp11
 70
     1
102
RTVSPropertyOp12
 70
     1
102
RTVSPropertyOp13
 70
     1
102
RTVSPropertyOp14
 70
     1
102
RTVSPropertyOp15
 70
     1
102
RTVSPropertyOp16
 70
     1
102
RTVSPropertyOp17
 70
     1
102
RTVSPropertyOp18
 70
     1
102
RTVSPropertyOp19
 70
     1
102
RTVSPropertyOp20
 70
     1
102
RTVSPropertyOp21
 70
     1
102
RTVSPropertyOp22
 70
     1
102
RTVSPropertyOp23
 70
     1
102
RTVSPropertyOp24
 70
     1
102
RTVSPropertyOp25
 70
     1
102
RTVSPropertyOp26
 70
     1
102
RTVSPropertyOp27
 70
     1
102
RTVSPropertyOp28
 70
     1
102
RTVSPropertyOp29
 70
     1
102
RTVSPropertyOp30
 70
     1
102
RTVSPropertyOp31
 70
     1
102
RTVSPropertyOp32
 70
     1
102
RTVSPropertyOp33
 70
     1
102
RTVSPropertyOp34
 70
     1
102
RTVSPropertyOp35
 70
     1
102
RTVSPropertyOp36
 70
     1
102
RTVSPropertyOp37
 70
     1
102
RTVSPropertyOp38
 70
     1
102
RTVSPropertyOp39
 70
     1
102
RTVSPropertyOp40
 70
     1
102
RTVSPropertyOp41
 70
     1
102
RTVSPropertyOp42
 70
     1
102
RTVSPropertyOp43
 70
     1
102
RTVSPropertyOp44
 70
     1
102
RTVSPropertyOp45
 70
     1
102
RTVSPropertyOp46
 70
     1
102
RTVSPropertyOp47
 70
     1
102
RTVSPropertyOp48
 70
     1
102
RTVSPropertyOp49
 70
     1
102
RTVSPropertyOp50
 70
     1
102
RTVSPropertyOp51
 70
     0
102
RTVSPropertyOp52
 70
     0
102
RTVSPropertyOp53
 70
     1
102
RTVSPropertyOp54
 70
     1
102
RTVSPropertyOp55
 70
     1
102
RTVSPropertyOp56
 70
     1
102
RTVSPropertyOp57
 70
     1
102
RTVSPropertyOp58
 70
     1
102
RTVSPropertyOp59
 70
     1
102
RTVSPropertyOp60
 70
     1
102
RTVSPropertyOp61
 70
     1
102
RTVSPropertyOp62
 70
     1
  0
XRECORD
  5
105E
102
{ACAD_REACTORS
330
105D
102
}
330
105D
100
AcDbXrecord
280
     1
102
RTVSPost2010Prop28
280
     0
102
RTVSPost2010PropOp28
 70
     1
102
RTVSPost2010Prop29
280
     1
102
RTVSPost2010PropOp29
 70
     1
102
RTVSPost2010Prop30
280
     1
102
RTVSPost2010PropOp30
 70
     1
102
RTVSPost2010Prop31
280
     0
102
RTVSPost2010PropOp31
 70
     1
102
RTVSPost2010Prop32
280
     0
102
RTVSPost2010PropOp32
 70
     1
102
RTVSPost2010Prop33
280
     0
102
RTVSPost2010PropOp33
 70
     1
102
RTVSPost2010Prop34
280
     0
102
RTVSPost2010PropOp34
 70
     1
102
RTVSPost2010Prop35
280
     0
102
RTVSPost2010PropOp35
 70
     1
102
RTVSPost2010Prop36
280
     0
102
RTVSPost2010PropOp36
 70
     1
102
RTVSPost2010Prop37
 90
       50
102
RTVSPost2010PropOp37
 70
     1
102
RTVSPost2010Prop38
140
0.0
102
RTVSPost2010PropOp38
 70
     1
102
RTVSPost2010Prop39
140
1.0
102
RTVSPost2010PropOp39
 70
     1
102
RTVSPost2010Prop40
 90
        0
102
RTVSPost2010PropOp40
 70
     1
102
RTVSPost2010Prop41ColorIndex
 90
       18
102
RTVSPost2010Prop41ColorRGB
 90
-16777216
102
RTVSPost2010PropOp41
 70
     1
102
RTVSPost2010Prop42
 90
       50
102
RTVSPost2010PropOp42
 70
     1
102
RTVSPost2010Prop43
 90
        3
102
RTVSPost2010PropOp43
 70
     1
102
RTVSPost2010Prop44ColorIndex
 90
        5
102
RTVSPost2010Prop44ColorRGB
 90
      255
102
RTVSPost2010PropOp44
 70
     1
102
RTVSPost2010Prop45
280
     0
102
RTVSPost2010PropOp45
 70
     1
102
RTVSPost2010Prop46
 90
       50
102
RTVSPost2010PropOp46
 70
     1
102
RTVSPost2010Prop47
 90
       50
102
RTVSPost2010PropOp47
 70
     1
102
RTVSPost2010Prop48
 90
       50
102
RTVSPost2010PropOp48
 70
     1
102
RTVSPost2010Prop49
280
     0
102
RTVSPost2010PropOp49
 70
     1
102
RTVSPost2010Prop50
 90
       50
102
RTVSPost2010PropOp50
 70
     1
102
RTVSPost2010Prop51ColorIndex
 90
      256
102
RTVSPost2010Prop51ColorRGB
 90
-16777216
102
RTVSPost2010PropOp51
 70
     0
102
RTVSPost2010Prop52
140
1.0
102
RTVSPost2010PropOp52
 70
     0
102
RTVSPost2010Prop53
 90
        2
102
RTVSPost2010PropOp53
 70
     1
102
RTVSPost2010Prop54
  1
strokes_ogs.tif
102
RTVSPost2010PropOp54
 70
     1
102
RTVSPost2010Prop55
280
     0
102
RTVSPost2010PropOp55
 70
     1
102
RTVSPost2010Prop56
140
1.0
102
RTVSPost2010PropOp56
 70
     1
102
RTVSPost2010Prop57
140
1.0
102
RTVSPost2010PropOp57
 70
     1
102
RTVSPropertyOp0
 70
     1
102
RTVSPropertyOp1
 70
     1
102
RTVSPropertyOp2
 70
     1
102
RTVSPropertyOp3
 70
     1
102
RTVSPropertyOp4
 70
     1
102
RTVSPropertyOp5
 70
     1
102
RTVSPropertyOp6
 70
     1
102
RTVSPropertyOp7
 70
     1
102
RTVSPropertyOp8
 70
     1
102
RTVSPropertyOp9
 70
     1
102
RTVSPropertyOp10
 70
     1
102
RTVSPropertyOp11
 70
     1
102
RTVSPropertyOp12
 70
     1
102
RTVSPropertyOp13
 70
     1
102
RTVSPropertyOp14
 70
     1
102
RTVSPropertyOp15
 70
     1
102
RTVSPropertyOp16
 70
     1
102
RTVSPropertyOp17
 70
     1
102
RTVSPropertyOp18
 70
     1
102
RTVSPropertyOp19
 70
     1
102
RTVSPropertyOp20
 70
     1
102
RTVSPropertyOp21
 70
     1
102
RTVSPropertyOp22
 70
     1
102
RTVSPropertyOp23
 70
     1
102
RTVSPropertyOp24
 70
     1
102
RTVSPropertyOp25
 70
     1
102
RTVSPropertyOp26
 70
     1
102
RTVSPropertyOp27
 70
     1
102
RTVSPropertyOp28
 70
     1
102
RTVSPropertyOp29
 70
     1
102
RTVSPropertyOp30
 70
     1
102
RTVSPropertyOp31
 70
     1
102
RTVSPropertyOp32
 70
     1
102
RTVSPropertyOp33
 70
     1
102
RTVSPropertyOp34
 70
     1
102
RTVSPropertyOp35
 70
     1
102
RTVSPropertyOp36
 70
     1
102
RTVSPropertyOp37
 70
     1
102
RTVSPropertyOp38
 70
     1
102
RTVSPropertyOp39
 70
     1
102
RTVSPropertyOp40
 70
     1
102
RTVSPropertyOp41
 70
     1
102
RTVSPropertyOp42
 70
     1
102
RTVSPropertyOp43
 70
     1
102
RTVSPropertyOp44
 70
     1
102
RTVSPropertyOp45
 70
     1
102
RTVSPropertyOp46
 70
     1
102
RTVSPropertyOp47
 70
     1
102
RTVSPropertyOp48
 70
     1
102
RTVSPropertyOp49
 70
     1
102
RTVSPropertyOp50
 70
     1
102
RTVSPropertyOp51
 70
     0
102
RTVSPropertyOp52
 70
     0
102
RTVSPropertyOp53
 70
     1
102
RTVSPropertyOp54
 70
     1
102
RTVSPropertyOp55
 70
     1
102
RTVSPropertyOp56
 70
     1
102
RTVSPropertyOp57
 70
     1
102
RTVSPropertyOp58
 70
     1
102
RTVSPropertyOp59
 70
     1
102
RTVSPropertyOp60
 70
     1
102
RTVSPropertyOp61
 70
     1
102
RTVSPropertyOp62
 70
     1
  0
XRECORD
  5
1060
102
{ACAD_REACTORS
330
105F
102
}
330
105F
100
AcDbXrecord
280
     1
102
RTVSPost2010Prop28
280
     0
102
RTVSPost2010PropOp28
 70
     1
102
RTVSPost2010Prop29
280
     1
102
RTVSPost2010PropOp29
 70
     1
102
RTVSPost2010Prop30
280
     1
102
RTVSPost2010PropOp30
 70
     1
102
RTVSPost2010Prop31
280
     0
102
RTVSPost2010PropOp31
 70
     1
102
RTVSPost2010Prop32
280
     0
102
RTVSPost2010PropOp32
 70
     1
102
RTVSPost2010Prop33
280
     0
102
RTVSPost2010PropOp33
 70
     1
102
RTVSPost2010Prop34
280
     0
102
RTVSPost2010PropOp34
 70
     1
102
RTVSPost2010Prop35
280
     0
102
RTVSPost2010PropOp35
 70
     1
102
RTVSPost2010Prop36
280
     0
102
RTVSPost2010PropOp36
 70
     1
102
RTVSPost2010Prop37
 90
       50
102
RTVSPost2010PropOp37
 70
     1
102
RTVSPost2010Prop38
140
0.0
102
RTVSPost2010PropOp38
 70
     1
102
RTVSPost2010Prop39
140
1.0
102
RTVSPost2010PropOp39
 70
     1
102
RTVSPost2010Prop40
 90
        0
102
RTVSPost2010PropOp40
 70
     1
102
RTVSPost2010Prop41ColorIndex
 90
       18
102
RTVSPost2010Prop41ColorRGB
 90
-16777216
102
RTVSPost2010PropOp41
 70
     1
102
RTVSPost2010Prop42
 90
       50
102
RTVSPost2010PropOp42
 70
     1
102
RTVSPost2010Prop43
 90
        3
102
RTVSPost2010PropOp43
 70
     1
102
RTVSPost2010Prop44ColorIndex
 90
        5
102
RTVSPost2010Prop44ColorRGB
 90
      255
102
RTVSPost2010PropOp44
 70
     1
102
RTVSPost2010Prop45
280
     0
102
RTVSPost2010PropOp45
 70
     1
102
RTVSPost2010Prop46
 90
       50
102
RTVSPost2010PropOp46
 70
     1
102
RTVSPost2010Prop47
 90
       50
102
RTVSPost2010PropOp47
 70
     1
102
RTVSPost2010Prop48
 90
       50
102
RTVSPost2010PropOp48
 70
     1
102
RTVSPost2010Prop49
280
     0
102
RTVSPost2010PropOp49
 70
     1
102
RTVSPost2010Prop50
 90
       50
102
RTVSPost2010PropOp50
 70
     1
102
RTVSPost2010Prop51ColorIndex
 90
      256
102
RTVSPost2010Prop51ColorRGB
 90
-16777216
102
RTVSPost2010PropOp51
 70
     0
102
RTVSPost2010Prop52
140
1.0
102
RTVSPost2010PropOp52
 70
     0
102
RTVSPost2010Prop53
 90
        2
102
RTVSPost2010PropOp53
 70
     1
102
RTVSPost2010Prop54
  1
strokes_ogs.tif
102
RTVSPost2010PropOp54
 70
     1
102
RTVSPost2010Prop55
280
     0
102
RTVSPost2010PropOp55
 70
     1
102
RTVSPost2010Prop56
140
1.0
102
RTVSPost2010PropOp56
 70
     1
102
RTVSPost2010Prop57
140
1.0
102
RTVSPost2010PropOp57
 70
     1
102
RTVSPropertyOp0
 70
     1
102
RTVSPropertyOp1
 70
     1
102
RTVSPropertyOp2
 70
     1
102
RTVSPropertyOp3
 70
     1
102
RTVSPropertyOp4
 70
     1
102
RTVSPropertyOp5
 70
     1
102
RTVSPropertyOp6
 70
     1
102
RTVSPropertyOp7
 70
     1
102
RTVSPropertyOp8
 70
     1
102
RTVSPropertyOp9
 70
     1
102
RTVSPropertyOp10
 70
     1
102
RTVSPropertyOp11
 70
     1
102
RTVSPropertyOp12
 70
     1
102
RTVSPropertyOp13
 70
     1
102
RTVSPropertyOp14
 70
     1
102
RTVSPropertyOp15
 70
     1
102
RTVSPropertyOp16
 70
     1
102
RTVSPropertyOp17
 70
     1
102
RTVSPropertyOp18
 70
     1
102
RTVSPropertyOp19
 70
     1
102
RTVSPropertyOp20
 70
     1
102
RTVSPropertyOp21
 70
     1
102
RTVSPropertyOp22
 70
     1
102
RTVSPropertyOp23
 70
     1
102
RTVSPropertyOp24
 70
     1
102
RTVSPropertyOp25
 70
     1
102
RTVSPropertyOp26
 70
     1
102
RTVSPropertyOp27
 70
     1
102
RTVSPropertyOp28
 70
     1
102
RTVSPropertyOp29
 70
     1
102
RTVSPropertyOp30
 70
     1
102
RTVSPropertyOp31
 70
     1
102
RTVSPropertyOp32
 70
     1
102
RTVSPropertyOp33
 70
     1
102
RTVSPropertyOp34
 70
     1
102
RTVSPropertyOp35
 70
     1
102
RTVSPropertyOp36
 70
     1
102
RTVSPropertyOp37
 70
     1
102
RTVSPropertyOp38
 70
     1
102
RTVSPropertyOp39
 70
     1
102
RTVSPropertyOp40
 70
     1
102
RTVSPropertyOp41
 70
     1
102
RTVSPropertyOp42
 70
     1
102
RTVSPropertyOp43
 70
     1
102
RTVSPropertyOp44
 70
     1
102
RTVSPropertyOp45
 70
     1
102
RTVSPropertyOp46
 70
     1
102
RTVSPropertyOp47
 70
     1
102
RTVSPropertyOp48
 70
     1
102
RTVSPropertyOp49
 70
     1
102
RTVSPropertyOp50
 70
     1
102
RTVSPropertyOp51
 70
     0
102
RTVSPropertyOp52
 70
     0
102
RTVSPropertyOp53
 70
     1
102
RTVSPropertyOp54
 70
     1
102
RTVSPropertyOp55
 70
     1
102
RTVSPropertyOp56
 70
     1
102
RTVSPropertyOp57
 70
     1
102
RTVSPropertyOp58
 70
     1
102
RTVSPropertyOp59
 70
     1
102
RTVSPropertyOp60
 70
     1
102
RTVSPropertyOp61
 70
     1
102
RTVSPropertyOp62
 70
     1
  0
XRECORD
  5
1068
102
{ACAD_REACTORS
330
1067
102
}
330
1067
100
AcDbXrecord
280
     1
102
RTVSPost2010Prop28
280
     0
102
RTVSPost2010PropOp28
 70
     1
102
RTVSPost2010Prop29
280
     1
102
RTVSPost2010PropOp29
 70
     1
102
RTVSPost2010Prop30
280
     1
102
RTVSPost2010PropOp30
 70
     1
102
RTVSPost2010Prop31
280
     0
102
RTVSPost2010PropOp31
 70
     1
102
RTVSPost2010Prop32
280
     0
102
RTVSPost2010PropOp32
 70
     1
102
RTVSPost2010Prop33
280
     0
102
RTVSPost2010PropOp33
 70
     1
102
RTVSPost2010Prop34
280
     0
102
RTVSPost2010PropOp34
 70
     1
102
RTVSPost2010Prop35
280
     0
102
RTVSPost2010PropOp35
 70
     1
102
RTVSPost2010Prop36
280
     0
102
RTVSPost2010PropOp36
 70
     1
102
RTVSPost2010Prop37
 90
       50
102
RTVSPost2010PropOp37
 70
     1
102
RTVSPost2010Prop38
140
0.0
102
RTVSPost2010PropOp38
 70
     1
102
RTVSPost2010Prop39
140
1.0
102
RTVSPost2010PropOp39
 70
     1
102
RTVSPost2010Prop40
 90
        0
102
RTVSPost2010PropOp40
 70
     1
102
RTVSPost2010Prop41ColorIndex
 90
       18
102
RTVSPost2010Prop41ColorRGB
 90
-16777216
102
RTVSPost2010PropOp41
 70
     1
102
RTVSPost2010Prop42
 90
       50
102
RTVSPost2010PropOp42
 70
     1
102
RTVSPost2010Prop43
 90
        3
102
RTVSPost2010PropOp43
 70
     1
102
RTVSPost2010Prop44ColorIndex
 90
        5
102
RTVSPost2010Prop44ColorRGB
 90
      255
102
RTVSPost2010PropOp44
 70
     1
102
RTVSPost2010Prop45
280
     0
102
RTVSPost2010PropOp45
 70
     1
102
RTVSPost2010Prop46
 90
       50
102
RTVSPost2010PropOp46
 70
     1
102
RTVSPost2010Prop47
 90
       50
102
RTVSPost2010PropOp47
 70
     1
102
RTVSPost2010Prop48
 90
       50
102
RTVSPost2010PropOp48
 70
     1
102
RTVSPost2010Prop49
280
     0
102
RTVSPost2010PropOp49
 70
     1
102
RTVSPost2010Prop50
 90
       50
102
RTVSPost2010PropOp50
 70
     1
102
RTVSPost2010Prop51ColorIndex
 90
      256
102
RTVSPost2010Prop51ColorRGB
 90
-16777216
102
RTVSPost2010PropOp51
 70
     0
102
RTVSPost2010Prop52
140
1.0
102
RTVSPost2010PropOp52
 70
     0
102
RTVSPost2010Prop53
 90
        2
102
RTVSPost2010PropOp53
 70
     1
102
RTVSPost2010Prop54
  1
strokes_ogs.tif
102
RTVSPost2010PropOp54
 70
     1
102
RTVSPost2010Prop55
280
     0
102
RTVSPost2010PropOp55
 70
     1
102
RTVSPost2010Prop56
140
1.0
102
RTVSPost2010PropOp56
 70
     1
102
RTVSPost2010Prop57
140
1.0
102
RTVSPost2010PropOp57
 70
     1
102
RTVSPropertyOp0
 70
     1
102
RTVSPropertyOp1
 70
     1
102
RTVSPropertyOp2
 70
     1
102
RTVSPropertyOp3
 70
     1
102
RTVSPropertyOp4
 70
     1
102
RTVSPropertyOp5
 70
     1
102
RTVSPropertyOp6
 70
     1
102
RTVSPropertyOp7
 70
     1
102
RTVSPropertyOp8
 70
     1
102
RTVSPropertyOp9
 70
     1
102
RTVSPropertyOp10
 70
     1
102
RTVSPropertyOp11
 70
     1
102
RTVSPropertyOp12
 70
     1
102
RTVSPropertyOp13
 70
     1
102
RTVSPropertyOp14
 70
     1
102
RTVSPropertyOp15
 70
     1
102
RTVSPropertyOp16
 70
     1
102
RTVSPropertyOp17
 70
     1
102
RTVSPropertyOp18
 70
     1
102
RTVSPropertyOp19
 70
     1
102
RTVSPropertyOp20
 70
     1
102
RTVSPropertyOp21
 70
     1
102
RTVSPropertyOp22
 70
     1
102
RTVSPropertyOp23
 70
     1
102
RTVSPropertyOp24
 70
     1
102
RTVSPropertyOp25
 70
     1
102
RTVSPropertyOp26
 70
     1
102
RTVSPropertyOp27
 70
     1
102
RTVSPropertyOp28
 70
     1
102
RTVSPropertyOp29
 70
     1
102
RTVSPropertyOp30
 70
     1
102
RTVSPropertyOp31
 70
     1
102
RTVSPropertyOp32
 70
     1
102
RTVSPropertyOp33
 70
     1
102
RTVSPropertyOp34
 70
     1
102
RTVSPropertyOp35
 70
     1
102
RTVSPropertyOp36
 70
     1
102
RTVSPropertyOp37
 70
     1
102
RTVSPropertyOp38
 70
     1
102
RTVSPropertyOp39
 70
     1
102
RTVSPropertyOp40
 70
     1
102
RTVSPropertyOp41
 70
     1
102
RTVSPropertyOp42
 70
     1
102
RTVSPropertyOp43
 70
     1
102
RTVSPropertyOp44
 70
     1
102
RTVSPropertyOp45
 70
     1
102
RTVSPropertyOp46
 70
     1
102
RTVSPropertyOp47
 70
     1
102
RTVSPropertyOp48
 70
     1
102
RTVSPropertyOp49
 70
     1
102
RTVSPropertyOp50
 70
     1
102
RTVSPropertyOp51
 70
     0
102
RTVSPropertyOp52
 70
     0
102
RTVSPropertyOp53
 70
     1
102
RTVSPropertyOp54
 70
     1
102
RTVSPropertyOp55
 70
     1
102
RTVSPropertyOp56
 70
     1
102
RTVSPropertyOp57
 70
     1
102
RTVSPropertyOp58
 70
     1
102
RTVSPropertyOp59
 70
     1
102
RTVSPropertyOp60
 70
     1
102
RTVSPropertyOp61
 70
     1
102
RTVSPropertyOp62
 70
     1
  0
XRECORD
  5
1084
102
{ACAD_REACTORS
330
1083
102
}
330
1083
100
AcDbXrecord
280
     1
102
RTVSPost2010Prop28
280
     0
102
RTVSPost2010PropOp28
 70
     0
102
RTVSPost2010Prop29
280
     1
102
RTVSPost2010PropOp29
 70
     0
102
RTVSPost2010Prop30
280
     1
102
RTVSPost2010PropOp30
 70
     0
102
RTVSPost2010Prop31
280
     0
102
RTVSPost2010PropOp31
 70
     0
102
RTVSPost2010Prop32
280
     0
102
RTVSPost2010PropOp32
 70
     0
102
RTVSPost2010Prop33
280
     0
102
RTVSPost2010PropOp33
 70
     0
102
RTVSPost2010Prop34
280
     0
102
RTVSPost2010PropOp34
 70
     0
102
RTVSPost2010Prop35
280
     0
102
RTVSPost2010PropOp35
 70
     0
102
RTVSPost2010Prop36
280
     0
102
RTVSPost2010PropOp36
 70
     0
102
RTVSPost2010Prop37
 90
       50
102
RTVSPost2010PropOp37
 70
     0
102
RTVSPost2010Prop38
140
0.0
102
RTVSPost2010PropOp38
 70
     0
102
RTVSPost2010Prop39
140
1.0
102
RTVSPost2010PropOp39
 70
     0
102
RTVSPost2010Prop40
 90
        0
102
RTVSPost2010PropOp40
 70
     0
102
RTVSPost2010Prop41ColorIndex
 90
       18
102
RTVSPost2010Prop41ColorRGB
 90
-16777216
102
RTVSPost2010PropOp41
 70
     0
102
RTVSPost2010Prop42
 90
       50
102
RTVSPost2010PropOp42
 70
     0
102
RTVSPost2010Prop43
 90
        3
102
RTVSPost2010PropOp43
 70
     0
102
RTVSPost2010Prop44ColorIndex
 90
        5
102
RTVSPost2010Prop44ColorRGB
 90
      255
102
RTVSPost2010PropOp44
 70
     0
102
RTVSPost2010Prop45
280
     0
102
RTVSPost2010PropOp45
 70
     0
102
RTVSPost2010Prop46
 90
       50
102
RTVSPost2010PropOp46
 70
     0
102
RTVSPost2010Prop47
 90
       50
102
RTVSPost2010PropOp47
 70
     0
102
RTVSPost2010Prop48
 90
       50
102
RTVSPost2010PropOp48
 70
     0
102
RTVSPost2010Prop49
280
     0
102
RTVSPost2010PropOp49
 70
     0
102
RTVSPost2010Prop50
 90
       50
102
RTVSPost2010PropOp50
 70
     0
102
RTVSPost2010Prop51ColorIndex
 90
      256
102
RTVSPost2010Prop51ColorRGB
 90
-16777216
102
RTVSPost2010PropOp51
 70
     0
102
RTVSPost2010Prop52
140
1.0
102
RTVSPost2010PropOp52
 70
     0
102
RTVSPost2010Prop53
 90
        2
102
RTVSPost2010PropOp53
 70
     0
102
RTVSPost2010Prop54
  1
strokes_ogs.tif
102
RTVSPost2010PropOp54
 70
     0
102
RTVSPost2010Prop55
280
     0
102
RTVSPost2010PropOp55
 70
     0
102
RTVSPost2010Prop56
140
1.0
102
RTVSPost2010PropOp56
 70
     0
102
RTVSPost2010Prop57
140
1.0
102
RTVSPost2010PropOp57
 70
     0
102
RTVSPropertyOp0
 70
     0
102
RTVSPropertyOp1
 70
     0
102
RTVSPropertyOp2
 70
     0
102
RTVSPropertyOp3
 70
     0
102
RTVSPropertyOp4
 70
     0
102
RTVSPropertyOp5
 70
     0
102
RTVSPropertyOp6
 70
     0
102
RTVSPropertyOp7
 70
     0
102
RTVSPropertyOp8
 70
     0
102
RTVSPropertyOp9
 70
     0
102
RTVSPropertyOp10
 70
     0
102
RTVSPropertyOp11
 70
     0
102
RTVSPropertyOp12
 70
     0
102
RTVSPropertyOp13
 70
     0
102
RTVSPropertyOp14
 70
     2
102
RTVSPropertyOp15
 70
     0
102
RTVSPropertyOp16
 70
     0
102
RTVSPropertyOp17
 70
     0
102
RTVSPropertyOp18
 70
     0
102
RTVSPropertyOp19
 70
     0
102
RTVSPropertyOp20
 70
     0
102
RTVSPropertyOp21
 70
     0
102
RTVSPropertyOp22
 70
     0
102
RTVSPropertyOp23
 70
     0
102
RTVSPropertyOp24
 70
     0
102
RTVSPropertyOp25
 70
     0
102
RTVSPropertyOp26
 70
     0
102
RTVSPropertyOp27
 70
     0
102
RTVSPropertyOp28
 70
     0
102
RTVSPropertyOp29
 70
     0
102
RTVSPropertyOp30
 70
     0
102
RTVSPropertyOp31
 70
     0
102
RTVSPropertyOp32
 70
     0
102
RTVSPropertyOp33
 70
     0
102
RTVSPropertyOp34
 70
     0
102
RTVSPropertyOp35
 70
     0
102
RTVSPropertyOp36
 70
     0
102
RTVSPropertyOp37
 70
     0
102
RTVSPropertyOp38
 70
     0
102
RTVSPropertyOp39
 70
     0
102
RTVSPropertyOp40
 70
     0
102
RTVSPropertyOp41
 70
     0
102
RTVSPropertyOp42
 70
     0
102
RTVSPropertyOp43
 70
     0
102
RTVSPropertyOp44
 70
     0
102
RTVSPropertyOp45
 70
     0
102
RTVSPropertyOp46
 70
     0
102
RTVSPropertyOp47
 70
     0
102
RTVSPropertyOp48
 70
     0
102
RTVSPropertyOp49
 70
     0
102
RTVSPropertyOp50
 70
     0
102
RTVSPropertyOp51
 70
     0
102
RTVSPropertyOp52
 70
     0
102
RTVSPropertyOp53
 70
     0
102
RTVSPropertyOp54
 70
     0
102
RTVSPropertyOp55
 70
     0
102
RTVSPropertyOp56
 70
     0
102
RTVSPropertyOp57
 70
     0
102
RTVSPropertyOp58
 70
     1
102
RTVSPropertyOp59
 70
     1
102
RTVSPropertyOp60
 70
     1
102
RTVSPropertyOp61
 70
     1
102
RTVSPropertyOp62
 70
     1
  0
XRECORD
  5
1074
102
{ACAD_REACTORS
330
1073
102
}
330
1073
100
AcDbXrecord
280
     1
102
RTVSPost2010Prop28
280
     0
102
RTVSPost2010PropOp28
 70
     1
102
RTVSPost2010Prop29
280
     1
102
RTVSPost2010PropOp29
 70
     1
102
RTVSPost2010Prop30
280
     1
102
RTVSPost2010PropOp30
 70
     1
102
RTVSPost2010Prop31
280
     0
102
RTVSPost2010PropOp31
 70
     1
102
RTVSPost2010Prop32
280
     0
102
RTVSPost2010PropOp32
 70
     1
102
RTVSPost2010Prop33
280
     0
102
RTVSPost2010PropOp33
 70
     1
102
RTVSPost2010Prop34
280
     0
102
RTVSPost2010PropOp34
 70
     1
102
RTVSPost2010Prop35
280
     0
102
RTVSPost2010PropOp35
 70
     1
102
RTVSPost2010Prop36
280
     0
102
RTVSPost2010PropOp36
 70
     1
102
RTVSPost2010Prop37
 90
       50
102
RTVSPost2010PropOp37
 70
     1
102
RTVSPost2010Prop38
140
0.0
102
RTVSPost2010PropOp38
 70
     1
102
RTVSPost2010Prop39
140
1.0
102
RTVSPost2010PropOp39
 70
     1
102
RTVSPost2010Prop40
 90
        0
102
RTVSPost2010PropOp40
 70
     1
102
RTVSPost2010Prop41ColorIndex
 90
       18
102
RTVSPost2010Prop41ColorRGB
 90
-16777216
102
RTVSPost2010PropOp41
 70
     1
102
RTVSPost2010Prop42
 90
       50
102
RTVSPost2010PropOp42
 70
     1
102
RTVSPost2010Prop43
 90
        3
102
RTVSPost2010PropOp43
 70
     1
102
RTVSPost2010Prop44ColorIndex
 90
        5
102
RTVSPost2010Prop44ColorRGB
 90
      255
102
RTVSPost2010PropOp44
 70
     1
102
RTVSPost2010Prop45
280
     0
102
RTVSPost2010PropOp45
 70
     1
102
RTVSPost2010Prop46
 90
       50
102
RTVSPost2010PropOp46
 70
     1
102
RTVSPost2010Prop47
 90
       50
102
RTVSPost2010PropOp47
 70
     1
102
RTVSPost2010Prop48
 90
       50
102
RTVSPost2010PropOp48
 70
     1
102
RTVSPost2010Prop49
280
     0
102
RTVSPost2010PropOp49
 70
     1
102
RTVSPost2010Prop50
 90
       50
102
RTVSPost2010PropOp50
 70
     1
102
RTVSPost2010Prop51ColorIndex
 90
      256
102
RTVSPost2010Prop51ColorRGB
 90
-16777216
102
RTVSPost2010PropOp51
 70
     0
102
RTVSPost2010Prop52
140
1.0
102
RTVSPost2010PropOp52
 70
     0
102
RTVSPost2010Prop53
 90
        2
102
RTVSPost2010PropOp53
 70
     1
102
RTVSPost2010Prop54
  1
strokes_ogs.tif
102
RTVSPost2010PropOp54
 70
     1
102
RTVSPost2010Prop55
280
     0
102
RTVSPost2010PropOp55
 70
     1
102
RTVSPost2010Prop56
140
1.0
102
RTVSPost2010PropOp56
 70
     1
102
RTVSPost2010Prop57
140
1.0
102
RTVSPost2010PropOp57
 70
     1
102
RTVSPropertyOp0
 70
     1
102
RTVSPropertyOp1
 70
     1
102
RTVSPropertyOp2
 70
     1
102
RTVSPropertyOp3
 70
     1
102
RTVSPropertyOp4
 70
     1
102
RTVSPropertyOp5
 70
     1
102
RTVSPropertyOp6
 70
     1
102
RTVSPropertyOp7
 70
     1
102
RTVSPropertyOp8
 70
     1
102
RTVSPropertyOp9
 70
     1
102
RTVSPropertyOp10
 70
     1
102
RTVSPropertyOp11
 70
     1
102
RTVSPropertyOp12
 70
     1
102
RTVSPropertyOp13
 70
     1
102
RTVSPropertyOp14
 70
     1
102
RTVSPropertyOp15
 70
     1
102
RTVSPropertyOp16
 70
     1
102
RTVSPropertyOp17
 70
     1
102
RTVSPropertyOp18
 70
     1
102
RTVSPropertyOp19
 70
     1
102
RTVSPropertyOp20
 70
     1
102
RTVSPropertyOp21
 70
     1
102
RTVSPropertyOp22
 70
     1
102
RTVSPropertyOp23
 70
     1
102
RTVSPropertyOp24
 70
     1
102
RTVSPropertyOp25
 70
     1
102
RTVSPropertyOp26
 70
     1
102
RTVSPropertyOp27
 70
     1
102
RTVSPropertyOp28
 70
     1
102
RTVSPropertyOp29
 70
     1
102
RTVSPropertyOp30
 70
     1
102
RTVSPropertyOp31
 70
     1
102
RTVSPropertyOp32
 70
     1
102
RTVSPropertyOp33
 70
     1
102
RTVSPropertyOp34
 70
     1
102
RTVSPropertyOp35
 70
     1
102
RTVSPropertyOp36
 70
     1
102
RTVSPropertyOp37
 70
     1
102
RTVSPropertyOp38
 70
     1
102
RTVSPropertyOp39
 70
     1
102
RTVSPropertyOp40
 70
     1
102
RTVSPropertyOp41
 70
     1
102
RTVSPropertyOp42
 70
     1
102
RTVSPropertyOp43
 70
     1
102
RTVSPropertyOp44
 70
     1
102
RTVSPropertyOp45
 70
     1
102
RTVSPropertyOp46
 70
     1
102
RTVSPropertyOp47
 70
     1
102
RTVSPropertyOp48
 70
     1
102
RTVSPropertyOp49
 70
     1
102
RTVSPropertyOp50
 70
     1
102
RTVSPropertyOp51
 70
     0
102
RTVSPropertyOp52
 70
     0
102
RTVSPropertyOp53
 70
     1
102
RTVSPropertyOp54
 70
     1
102
RTVSPropertyOp55
 70
     1
102
RTVSPropertyOp56
 70
     1
102
RTVSPropertyOp57
 70
     1
102
RTVSPropertyOp58
 70
     1
102
RTVSPropertyOp59
 70
     1
102
RTVSPropertyOp60
 70
     1
102
RTVSPropertyOp61
 70
     1
102
RTVSPropertyOp62
 70
     1
  0
XRECORD
  5
1086
102
{ACAD_REACTORS
330
1085
102
}
330
1085
100
AcDbXrecord
280
     1
102
RTVSPost2010Prop28
280
     0
102
RTVSPost2010PropOp28
 70
     0
102
RTVSPost2010Prop29
280
     1
102
RTVSPost2010PropOp29
 70
     0
102
RTVSPost2010Prop30
280
     1
102
RTVSPost2010PropOp30
 70
     0
102
RTVSPost2010Prop31
280
     0
102
RTVSPost2010PropOp31
 70
     0
102
RTVSPost2010Prop32
280
     0
102
RTVSPost2010PropOp32
 70
     0
102
RTVSPost2010Prop33
280
     0
102
RTVSPost2010PropOp33
 70
     0
102
RTVSPost2010Prop34
280
     0
102
RTVSPost2010PropOp34
 70
     0
102
RTVSPost2010Prop35
280
     0
102
RTVSPost2010PropOp35
 70
     0
102
RTVSPost2010Prop36
280
     0
102
RTVSPost2010PropOp36
 70
     0
102
RTVSPost2010Prop37
 90
       50
102
RTVSPost2010PropOp37
 70
     0
102
RTVSPost2010Prop38
140
0.0
102
RTVSPost2010PropOp38
 70
     0
102
RTVSPost2010Prop39
140
1.0
102
RTVSPost2010PropOp39
 70
     0
102
RTVSPost2010Prop40
 90
        0
102
RTVSPost2010PropOp40
 70
     0
102
RTVSPost2010Prop41ColorIndex
 90
       18
102
RTVSPost2010Prop41ColorRGB
 90
-16777216
102
RTVSPost2010PropOp41
 70
     0
102
RTVSPost2010Prop42
 90
       50
102
RTVSPost2010PropOp42
 70
     0
102
RTVSPost2010Prop43
 90
        3
102
RTVSPost2010PropOp43
 70
     0
102
RTVSPost2010Prop44ColorIndex
 90
        5
102
RTVSPost2010Prop44ColorRGB
 90
      255
102
RTVSPost2010PropOp44
 70
     0
102
RTVSPost2010Prop45
280
     0
102
RTVSPost2010PropOp45
 70
     0
102
RTVSPost2010Prop46
 90
       50
102
RTVSPost2010PropOp46
 70
     0
102
RTVSPost2010Prop47
 90
       50
102
RTVSPost2010PropOp47
 70
     0
102
RTVSPost2010Prop48
 90
       50
102
RTVSPost2010PropOp48
 70
     0
102
RTVSPost2010Prop49
280
     0
102
RTVSPost2010PropOp49
 70
     0
102
RTVSPost2010Prop50
 90
       50
102
RTVSPost2010PropOp50
 70
     0
102
RTVSPost2010Prop51ColorIndex
 90
      256
102
RTVSPost2010Prop51ColorRGB
 90
-16777216
102
RTVSPost2010PropOp51
 70
     0
102
RTVSPost2010Prop52
140
1.0
102
RTVSPost2010PropOp52
 70
     0
102
RTVSPost2010Prop53
 90
        2
102
RTVSPost2010PropOp53
 70
     0
102
RTVSPost2010Prop54
  1
strokes_ogs.tif
102
RTVSPost2010PropOp54
 70
     0
102
RTVSPost2010Prop55
280
     0
102
RTVSPost2010PropOp55
 70
     0
102
RTVSPost2010Prop56
140
1.0
102
RTVSPost2010PropOp56
 70
     0
102
RTVSPost2010Prop57
140
1.0
102
RTVSPost2010PropOp57
 70
     0
102
RTVSPropertyOp0
 70
     0
102
RTVSPropertyOp1
 70
     0
102
RTVSPropertyOp2
 70
     0
102
RTVSPropertyOp3
 70
     0
102
RTVSPropertyOp4
 70
     0
102
RTVSPropertyOp5
 70
     0
102
RTVSPropertyOp6
 70
     0
102
RTVSPropertyOp7
 70
     0
102
RTVSPropertyOp8
 70
     0
102
RTVSPropertyOp9
 70
     0
102
RTVSPropertyOp10
 70
     0
102
RTVSPropertyOp11
 70
     0
102
RTVSPropertyOp12
 70
     0
102
RTVSPropertyOp13
 70
     0
102
RTVSPropertyOp14
 70
     2
102
RTVSPropertyOp15
 70
     0
102
RTVSPropertyOp16
 70
     0
102
RTVSPropertyOp17
 70
     0
102
RTVSPropertyOp18
 70
     0
102
RTVSPropertyOp19
 70
     0
102
RTVSPropertyOp20
 70
     0
102
RTVSPropertyOp21
 70
     0
102
RTVSPropertyOp22
 70
     0
102
RTVSPropertyOp23
 70
     0
102
RTVSPropertyOp24
 70
     0
102
RTVSPropertyOp25
 70
     0
102
RTVSPropertyOp26
 70
     0
102
RTVSPropertyOp27
 70
     0
102
RTVSPropertyOp28
 70
     0
102
RTVSPropertyOp29
 70
     0
102
RTVSPropertyOp30
 70
     0
102
RTVSPropertyOp31
 70
     0
102
RTVSPropertyOp32
 70
     0
102
RTVSPropertyOp33
 70
     0
102
RTVSPropertyOp34
 70
     0
102
RTVSPropertyOp35
 70
     0
102
RTVSPropertyOp36
 70
     0
102
RTVSPropertyOp37
 70
     0
102
RTVSPropertyOp38
 70
     0
102
RTVSPropertyOp39
 70
     0
102
RTVSPropertyOp40
 70
     0
102
RTVSPropertyOp41
 70
     0
102
RTVSPropertyOp42
 70
     0
102
RTVSPropertyOp43
 70
     0
102
RTVSPropertyOp44
 70
     0
102
RTVSPropertyOp45
 70
     0
102
RTVSPropertyOp46
 70
     0
102
RTVSPropertyOp47
 70
     0
102
RTVSPropertyOp48
 70
     0
102
RTVSPropertyOp49
 70
     0
102
RTVSPropertyOp50
 70
     0
102
RTVSPropertyOp51
 70
     0
102
RTVSPropertyOp52
 70
     0
102
RTVSPropertyOp53
 70
     0
102
RTVSPropertyOp54
 70
     0
102
RTVSPropertyOp55
 70
     0
102
RTVSPropertyOp56
 70
     0
102
RTVSPropertyOp57
 70
     0
102
RTVSPropertyOp58
 70
     1
102
RTVSPropertyOp59
 70
     1
102
RTVSPropertyOp60
 70
     1
102
RTVSPropertyOp61
 70
     1
102
RTVSPropertyOp62
 70
     1
  0
XRECORD
  5
106C
102
{ACAD_REACTORS
330
106B
102
}
330
106B
100
AcDbXrecord
280
     1
102
RTVSPost2010Prop28
280
     0
102
RTVSPost2010PropOp28
 70
     1
102
RTVSPost2010Prop29
280
     1
102
RTVSPost2010PropOp29
 70
     1
102
RTVSPost2010Prop30
280
     1
102
RTVSPost2010PropOp30
 70
     1
102
RTVSPost2010Prop31
280
     0
102
RTVSPost2010PropOp31
 70
     1
102
RTVSPost2010Prop32
280
     0
102
RTVSPost2010PropOp32
 70
     1
102
RTVSPost2010Prop33
280
     0
102
RTVSPost2010PropOp33
 70
     1
102
RTVSPost2010Prop34
280
     0
102
RTVSPost2010PropOp34
 70
     1
102
RTVSPost2010Prop35
280
     0
102
RTVSPost2010PropOp35
 70
     1
102
RTVSPost2010Prop36
280
     0
102
RTVSPost2010PropOp36
 70
     1
102
RTVSPost2010Prop37
 90
       50
102
RTVSPost2010PropOp37
 70
     1
102
RTVSPost2010Prop38
140
0.0
102
RTVSPost2010PropOp38
 70
     1
102
RTVSPost2010Prop39
140
1.0
102
RTVSPost2010PropOp39
 70
     1
102
RTVSPost2010Prop40
 90
        0
102
RTVSPost2010PropOp40
 70
     1
102
RTVSPost2010Prop41ColorIndex
 90
       18
102
RTVSPost2010Prop41ColorRGB
 90
-16777216
102
RTVSPost2010PropOp41
 70
     1
102
RTVSPost2010Prop42
 90
       50
102
RTVSPost2010PropOp42
 70
     1
102
RTVSPost2010Prop43
 90
        3
102
RTVSPost2010PropOp43
 70
     1
102
RTVSPost2010Prop44ColorIndex
 90
        5
102
RTVSPost2010Prop44ColorRGB
 90
      255
102
RTVSPost2010PropOp44
 70
     1
102
RTVSPost2010Prop45
280
     0
102
RTVSPost2010PropOp45
 70
     1
102
RTVSPost2010Prop46
 90
       50
102
RTVSPost2010PropOp46
 70
     1
102
RTVSPost2010Prop47
 90
       50
102
RTVSPost2010PropOp47
 70
     1
102
RTVSPost2010Prop48
 90
       50
102
RTVSPost2010PropOp48
 70
     1
102
RTVSPost2010Prop49
280
     0
102
RTVSPost2010PropOp49
 70
     1
102
RTVSPost2010Prop50
 90
       50
102
RTVSPost2010PropOp50
 70
     1
102
RTVSPost2010Prop51ColorIndex
 90
      256
102
RTVSPost2010Prop51ColorRGB
 90
-16777216
102
RTVSPost2010PropOp51
 70
     0
102
RTVSPost2010Prop52
140
1.0
102
RTVSPost2010PropOp52
 70
     0
102
RTVSPost2010Prop53
 90
        2
102
RTVSPost2010PropOp53
 70
     1
102
RTVSPost2010Prop54
  1
strokes_ogs.tif
102
RTVSPost2010PropOp54
 70
     1
102
RTVSPost2010Prop55
280
     0
102
RTVSPost2010PropOp55
 70
     1
102
RTVSPost2010Prop56
140
1.0
102
RTVSPost2010PropOp56
 70
     1
102
RTVSPost2010Prop57
140
1.0
102
RTVSPost2010PropOp57
 70
     1
102
RTVSPropertyOp0
 70
     1
102
RTVSPropertyOp1
 70
     1
102
RTVSPropertyOp2
 70
     1
102
RTVSPropertyOp3
 70
     1
102
RTVSPropertyOp4
 70
     1
102
RTVSPropertyOp5
 70
     1
102
RTVSPropertyOp6
 70
     1
102
RTVSPropertyOp7
 70
     1
102
RTVSPropertyOp8
 70
     1
102
RTVSPropertyOp9
 70
     1
102
RTVSPropertyOp10
 70
     1
102
RTVSPropertyOp11
 70
     1
102
RTVSPropertyOp12
 70
     1
102
RTVSPropertyOp13
 70
     1
102
RTVSPropertyOp14
 70
     1
102
RTVSPropertyOp15
 70
     1
102
RTVSPropertyOp16
 70
     1
102
RTVSPropertyOp17
 70
     1
102
RTVSPropertyOp18
 70
     1
102
RTVSPropertyOp19
 70
     1
102
RTVSPropertyOp20
 70
     1
102
RTVSPropertyOp21
 70
     1
102
RTVSPropertyOp22
 70
     1
102
RTVSPropertyOp23
 70
     1
102
RTVSPropertyOp24
 70
     1
102
RTVSPropertyOp25
 70
     1
102
RTVSPropertyOp26
 70
     1
102
RTVSPropertyOp27
 70
     1
102
RTVSPropertyOp28
 70
     1
102
RTVSPropertyOp29
 70
     1
102
RTVSPropertyOp30
 70
     1
102
RTVSPropertyOp31
 70
     1
102
RTVSPropertyOp32
 70
     1
102
RTVSPropertyOp33
 70
     1
102
RTVSPropertyOp34
 70
     1
102
RTVSPropertyOp35
 70
     1
102
RTVSPropertyOp36
 70
     1
102
RTVSPropertyOp37
 70
     1
102
RTVSPropertyOp38
 70
     1
102
RTVSPropertyOp39
 70
     1
102
RTVSPropertyOp40
 70
     1
102
RTVSPropertyOp41
 70
     1
102
RTVSPropertyOp42
 70
     1
102
RTVSPropertyOp43
 70
     1
102
RTVSPropertyOp44
 70
     1
102
RTVSPropertyOp45
 70
     1
102
RTVSPropertyOp46
 70
     1
102
RTVSPropertyOp47
 70
     1
102
RTVSPropertyOp48
 70
     1
102
RTVSPropertyOp49
 70
     1
102
RTVSPropertyOp50
 70
     1
102
RTVSPropertyOp51
 70
     0
102
RTVSPropertyOp52
 70
     0
102
RTVSPropertyOp53
 70
     1
102
RTVSPropertyOp54
 70
     1
102
RTVSPropertyOp55
 70
     1
102
RTVSPropertyOp56
 70
     1
102
RTVSPropertyOp57
 70
     1
102
RTVSPropertyOp58
 70
     1
102
RTVSPropertyOp59
 70
     1
102
RTVSPropertyOp60
 70
     1
102
RTVSPropertyOp61
 70
     1
102
RTVSPropertyOp62
 70
     1
  0
XRECORD
  5
1082
102
{ACAD_REACTORS
330
1081
102
}
330
1081
100
AcDbXrecord
280
     1
102
RTVSPost2010Prop28
280
     0
102
RTVSPost2010PropOp28
 70
     1
102
RTVSPost2010Prop29
280
     1
102
RTVSPost2010PropOp29
 70
     1
102
RTVSPost2010Prop30
280
     1
102
RTVSPost2010PropOp30
 70
     1
102
RTVSPost2010Prop31
280
     0
102
RTVSPost2010PropOp31
 70
     1
102
RTVSPost2010Prop32
280
     0
102
RTVSPost2010PropOp32
 70
     1
102
RTVSPost2010Prop33
280
     0
102
RTVSPost2010PropOp33
 70
     1
102
RTVSPost2010Prop34
280
     0
102
RTVSPost2010PropOp34
 70
     1
102
RTVSPost2010Prop35
280
     0
102
RTVSPost2010PropOp35
 70
     1
102
RTVSPost2010Prop36
280
     0
102
RTVSPost2010PropOp36
 70
     1
102
RTVSPost2010Prop37
 90
       50
102
RTVSPost2010PropOp37
 70
     1
102
RTVSPost2010Prop38
140
0.0
102
RTVSPost2010PropOp38
 70
     1
102
RTVSPost2010Prop39
140
1.0
102
RTVSPost2010PropOp39
 70
     1
102
RTVSPost2010Prop40
 90
        0
102
RTVSPost2010PropOp40
 70
     1
102
RTVSPost2010Prop41ColorIndex
 90
       18
102
RTVSPost2010Prop41ColorRGB
 90
-16777216
102
RTVSPost2010PropOp41
 70
     1
102
RTVSPost2010Prop42
 90
       50
102
RTVSPost2010PropOp42
 70
     1
102
RTVSPost2010Prop43
 90
        3
102
RTVSPost2010PropOp43
 70
     1
102
RTVSPost2010Prop44ColorIndex
 90
        5
102
RTVSPost2010Prop44ColorRGB
 90
      255
102
RTVSPost2010PropOp44
 70
     1
102
RTVSPost2010Prop45
280
     0
102
RTVSPost2010PropOp45
 70
     1
102
RTVSPost2010Prop46
 90
       50
102
RTVSPost2010PropOp46
 70
     1
102
RTVSPost2010Prop47
 90
       50
102
RTVSPost2010PropOp47
 70
     1
102
RTVSPost2010Prop48
 90
       50
102
RTVSPost2010PropOp48
 70
     1
102
RTVSPost2010Prop49
280
     0
102
RTVSPost2010PropOp49
 70
     1
102
RTVSPost2010Prop50
 90
       50
102
RTVSPost2010PropOp50
 70
     1
102
RTVSPost2010Prop51ColorIndex
 90
      256
102
RTVSPost2010Prop51ColorRGB
 90
-16777216
102
RTVSPost2010PropOp51
 70
     0
102
RTVSPost2010Prop52
140
1.0
102
RTVSPost2010PropOp52
 70
     0
102
RTVSPost2010Prop53
 90
        2
102
RTVSPost2010PropOp53
 70
     1
102
RTVSPost2010Prop54
  1
strokes_ogs.tif
102
RTVSPost2010PropOp54
 70
     1
102
RTVSPost2010Prop55
280
     0
102
RTVSPost2010PropOp55
 70
     1
102
RTVSPost2010Prop56
140
1.0
102
RTVSPost2010PropOp56
 70
     1
102
RTVSPost2010Prop57
140
1.0
102
RTVSPost2010PropOp57
 70
     1
102
RTVSPropertyOp0
 70
     1
102
RTVSPropertyOp1
 70
     1
102
RTVSPropertyOp2
 70
     1
102
RTVSPropertyOp3
 70
     1
102
RTVSPropertyOp4
 70
     1
102
RTVSPropertyOp5
 70
     1
102
RTVSPropertyOp6
 70
     1
102
RTVSPropertyOp7
 70
     1
102
RTVSPropertyOp8
 70
     1
102
RTVSPropertyOp9
 70
     1
102
RTVSPropertyOp10
 70
     1
102
RTVSPropertyOp11
 70
     1
102
RTVSPropertyOp12
 70
     1
102
RTVSPropertyOp13
 70
     1
102
RTVSPropertyOp14
 70
     1
102
RTVSPropertyOp15
 70
     1
102
RTVSPropertyOp16
 70
     1
102
RTVSPropertyOp17
 70
     1
102
RTVSPropertyOp18
 70
     1
102
RTVSPropertyOp19
 70
     1
102
RTVSPropertyOp20
 70
     1
102
RTVSPropertyOp21
 70
     1
102
RTVSPropertyOp22
 70
     1
102
RTVSPropertyOp23
 70
     1
102
RTVSPropertyOp24
 70
     1
102
RTVSPropertyOp25
 70
     1
102
RTVSPropertyOp26
 70
     1
102
RTVSPropertyOp27
 70
     1
102
RTVSPropertyOp28
 70
     1
102
RTVSPropertyOp29
 70
     1
102
RTVSPropertyOp30
 70
     1
102
RTVSPropertyOp31
 70
     1
102
RTVSPropertyOp32
 70
     1
102
RTVSPropertyOp33
 70
     1
102
RTVSPropertyOp34
 70
     1
102
RTVSPropertyOp35
 70
     1
102
RTVSPropertyOp36
 70
     1
102
RTVSPropertyOp37
 70
     1
102
RTVSPropertyOp38
 70
     1
102
RTVSPropertyOp39
 70
     1
102
RTVSPropertyOp40
 70
     1
102
RTVSPropertyOp41
 70
     1
102
RTVSPropertyOp42
 70
     1
102
RTVSPropertyOp43
 70
     1
102
RTVSPropertyOp44
 70
     1
102
RTVSPropertyOp45
 70
     1
102
RTVSPropertyOp46
 70
     1
102
RTVSPropertyOp47
 70
     1
102
RTVSPropertyOp48
 70
     1
102
RTVSPropertyOp49
 70
     1
102
RTVSPropertyOp50
 70
     1
102
RTVSPropertyOp51
 70
     0
102
RTVSPropertyOp52
 70
     0
102
RTVSPropertyOp53
 70
     1
102
RTVSPropertyOp54
 70
     1
102
RTVSPropertyOp55
 70
     1
102
RTVSPropertyOp56
 70
     1
102
RTVSPropertyOp57
 70
     1
102
RTVSPropertyOp58
 70
     1
102
RTVSPropertyOp59
 70
     1
102
RTVSPropertyOp60
 70
     1
102
RTVSPropertyOp61
 70
     1
102
RTVSPropertyOp62
 70
     1
  0
XRECORD
  5
1080
102
{ACAD_REACTORS
330
107F
102
}
330
107F
100
AcDbXrecord
280
     1
102
RTVSPost2010Prop28
280
     0
102
RTVSPost2010PropOp28
 70
     1
102
RTVSPost2010Prop29
280
     1
102
RTVSPost2010PropOp29
 70
     1
102
RTVSPost2010Prop30
280
     1
102
RTVSPost2010PropOp30
 70
     1
102
RTVSPost2010Prop31
280
     0
102
RTVSPost2010PropOp31
 70
     1
102
RTVSPost2010Prop32
280
     0
102
RTVSPost2010PropOp32
 70
     1
102
RTVSPost2010Prop33
280
     0
102
RTVSPost2010PropOp33
 70
     1
102
RTVSPost2010Prop34
280
     0
102
RTVSPost2010PropOp34
 70
     1
102
RTVSPost2010Prop35
280
     0
102
RTVSPost2010PropOp35
 70
     1
102
RTVSPost2010Prop36
280
     0
102
RTVSPost2010PropOp36
 70
     1
102
RTVSPost2010Prop37
 90
       50
102
RTVSPost2010PropOp37
 70
     1
102
RTVSPost2010Prop38
140
0.0
102
RTVSPost2010PropOp38
 70
     1
102
RTVSPost2010Prop39
140
1.0
102
RTVSPost2010PropOp39
 70
     1
102
RTVSPost2010Prop40
 90
        0
102
RTVSPost2010PropOp40
 70
     1
102
RTVSPost2010Prop41ColorIndex
 90
       18
102
RTVSPost2010Prop41ColorRGB
 90
-16777216
102
RTVSPost2010PropOp41
 70
     1
102
RTVSPost2010Prop42
 90
       50
102
RTVSPost2010PropOp42
 70
     1
102
RTVSPost2010Prop43
 90
        3
102
RTVSPost2010PropOp43
 70
     1
102
RTVSPost2010Prop44ColorIndex
 90
        5
102
RTVSPost2010Prop44ColorRGB
 90
      255
102
RTVSPost2010PropOp44
 70
     1
102
RTVSPost2010Prop45
280
     0
102
RTVSPost2010PropOp45
 70
     1
102
RTVSPost2010Prop46
 90
       50
102
RTVSPost2010PropOp46
 70
     1
102
RTVSPost2010Prop47
 90
       50
102
RTVSPost2010PropOp47
 70
     1
102
RTVSPost2010Prop48
 90
       50
102
RTVSPost2010PropOp48
 70
     1
102
RTVSPost2010Prop49
280
     0
102
RTVSPost2010PropOp49
 70
     1
102
RTVSPost2010Prop50
 90
       50
102
RTVSPost2010PropOp50
 70
     1
102
RTVSPost2010Prop51ColorIndex
 90
      256
102
RTVSPost2010Prop51ColorRGB
 90
-16777216
102
RTVSPost2010PropOp51
 70
     0
102
RTVSPost2010Prop52
140
1.0
102
RTVSPost2010PropOp52
 70
     0
102
RTVSPost2010Prop53
 90
        2
102
RTVSPost2010PropOp53
 70
     1
102
RTVSPost2010Prop54
  1
strokes_ogs.tif
102
RTVSPost2010PropOp54
 70
     1
102
RTVSPost2010Prop55
280
     0
102
RTVSPost2010PropOp55
 70
     1
102
RTVSPost2010Prop56
140
1.0
102
RTVSPost2010PropOp56
 70
     1
102
RTVSPost2010Prop57
140
1.0
102
RTVSPost2010PropOp57
 70
     1
102
RTVSPropertyOp0
 70
     1
102
RTVSPropertyOp1
 70
     1
102
RTVSPropertyOp2
 70
     1
102
RTVSPropertyOp3
 70
     1
102
RTVSPropertyOp4
 70
     1
102
RTVSPropertyOp5
 70
     1
102
RTVSPropertyOp6
 70
     1
102
RTVSPropertyOp7
 70
     1
102
RTVSPropertyOp8
 70
     1
102
RTVSPropertyOp9
 70
     1
102
RTVSPropertyOp10
 70
     1
102
RTVSPropertyOp11
 70
     1
102
RTVSPropertyOp12
 70
     1
102
RTVSPropertyOp13
 70
     1
102
RTVSPropertyOp14
 70
     1
102
RTVSPropertyOp15
 70
     1
102
RTVSPropertyOp16
 70
     1
102
RTVSPropertyOp17
 70
     1
102
RTVSPropertyOp18
 70
     1
102
RTVSPropertyOp19
 70
     1
102
RTVSPropertyOp20
 70
     1
102
RTVSPropertyOp21
 70
     1
102
RTVSPropertyOp22
 70
     1
102
RTVSPropertyOp23
 70
     1
102
RTVSPropertyOp24
 70
     1
102
RTVSPropertyOp25
 70
     1
102
RTVSPropertyOp26
 70
     1
102
RTVSPropertyOp27
 70
     1
102
RTVSPropertyOp28
 70
     1
102
RTVSPropertyOp29
 70
     1
102
RTVSPropertyOp30
 70
     1
102
RTVSPropertyOp31
 70
     1
102
RTVSPropertyOp32
 70
     1
102
RTVSPropertyOp33
 70
     1
102
RTVSPropertyOp34
 70
     1
102
RTVSPropertyOp35
 70
     1
102
RTVSPropertyOp36
 70
     1
102
RTVSPropertyOp37
 70
     1
102
RTVSPropertyOp38
 70
     1
102
RTVSPropertyOp39
 70
     1
102
RTVSPropertyOp40
 70
     1
102
RTVSPropertyOp41
 70
     1
102
RTVSPropertyOp42
 70
     1
102
RTVSPropertyOp43
 70
     1
102
RTVSPropertyOp44
 70
     1
102
RTVSPropertyOp45
 70
     1
102
RTVSPropertyOp46
 70
     1
102
RTVSPropertyOp47
 70
     1
102
RTVSPropertyOp48
 70
     1
102
RTVSPropertyOp49
 70
     1
102
RTVSPropertyOp50
 70
     1
102
RTVSPropertyOp51
 70
     0
102
RTVSPropertyOp52
 70
     0
102
RTVSPropertyOp53
 70
     1
102
RTVSPropertyOp54
 70
     1
102
RTVSPropertyOp55
 70
     1
102
RTVSPropertyOp56
 70
     1
102
RTVSPropertyOp57
 70
     1
102
RTVSPropertyOp58
 70
     1
102
RTVSPropertyOp59
 70
     1
102
RTVSPropertyOp60
 70
     1
102
RTVSPropertyOp61
 70
     1
102
RTVSPropertyOp62
 70
     1
  0
XRECORD
  5
107A
102
{ACAD_REACTORS
330
1079
102
}
330
1079
100
AcDbXrecord
280
     1
102
RTVSPost2010Prop28
280
     0
102
RTVSPost2010PropOp28
 70
     1
102
RTVSPost2010Prop29
280
     1
102
RTVSPost2010PropOp29
 70
     1
102
RTVSPost2010Prop30
280
     1
102
RTVSPost2010PropOp30
 70
     1
102
RTVSPost2010Prop31
280
     0
102
RTVSPost2010PropOp31
 70
     1
102
RTVSPost2010Prop32
280
     0
102
RTVSPost2010PropOp32
 70
     1
102
RTVSPost2010Prop33
280
     0
102
RTVSPost2010PropOp33
 70
     1
102
RTVSPost2010Prop34
280
     0
102
RTVSPost2010PropOp34
 70
     1
102
RTVSPost2010Prop35
280
     0
102
RTVSPost2010PropOp35
 70
     1
102
RTVSPost2010Prop36
280
     0
102
RTVSPost2010PropOp36
 70
     1
102
RTVSPost2010Prop37
 90
       50
102
RTVSPost2010PropOp37
 70
     1
102
RTVSPost2010Prop38
140
0.0
102
RTVSPost2010PropOp38
 70
     1
102
RTVSPost2010Prop39
140
1.0
102
RTVSPost2010PropOp39
 70
     1
102
RTVSPost2010Prop40
 90
        0
102
RTVSPost2010PropOp40
 70
     1
102
RTVSPost2010Prop41ColorIndex
 90
       18
102
RTVSPost2010Prop41ColorRGB
 90
-16777216
102
RTVSPost2010PropOp41
 70
     1
102
RTVSPost2010Prop42
 90
       50
102
RTVSPost2010PropOp42
 70
     1
102
RTVSPost2010Prop43
 90
        3
102
RTVSPost2010PropOp43
 70
     1
102
RTVSPost2010Prop44ColorIndex
 90
        5
102
RTVSPost2010Prop44ColorRGB
 90
      255
102
RTVSPost2010PropOp44
 70
     1
102
RTVSPost2010Prop45
280
     0
102
RTVSPost2010PropOp45
 70
     1
102
RTVSPost2010Prop46
 90
       50
102
RTVSPost2010PropOp46
 70
     1
102
RTVSPost2010Prop47
 90
       50
102
RTVSPost2010PropOp47
 70
     1
102
RTVSPost2010Prop48
 90
       50
102
RTVSPost2010PropOp48
 70
     1
102
RTVSPost2010Prop49
280
     0
102
RTVSPost2010PropOp49
 70
     1
102
RTVSPost2010Prop50
 90
       50
102
RTVSPost2010PropOp50
 70
     1
102
RTVSPost2010Prop51ColorIndex
 90
      256
102
RTVSPost2010Prop51ColorRGB
 90
-16777216
102
RTVSPost2010PropOp51
 70
     0
102
RTVSPost2010Prop52
140
1.0
102
RTVSPost2010PropOp52
 70
     0
102
RTVSPost2010Prop53
 90
        2
102
RTVSPost2010PropOp53
 70
     1
102
RTVSPost2010Prop54
  1
strokes_ogs.tif
102
RTVSPost2010PropOp54
 70
     1
102
RTVSPost2010Prop55
280
     0
102
RTVSPost2010PropOp55
 70
     1
102
RTVSPost2010Prop56
140
1.0
102
RTVSPost2010PropOp56
 70
     1
102
RTVSPost2010Prop57
140
1.0
102
RTVSPost2010PropOp57
 70
     1
102
RTVSPropertyOp0
 70
     1
102
RTVSPropertyOp1
 70
     1
102
RTVSPropertyOp2
 70
     1
102
RTVSPropertyOp3
 70
     1
102
RTVSPropertyOp4
 70
     1
102
RTVSPropertyOp5
 70
     1
102
RTVSPropertyOp6
 70
     1
102
RTVSPropertyOp7
 70
     1
102
RTVSPropertyOp8
 70
     1
102
RTVSPropertyOp9
 70
     1
102
RTVSPropertyOp10
 70
     1
102
RTVSPropertyOp11
 70
     1
102
RTVSPropertyOp12
 70
     1
102
RTVSPropertyOp13
 70
     1
102
RTVSPropertyOp14
 70
     1
102
RTVSPropertyOp15
 70
     1
102
RTVSPropertyOp16
 70
     1
102
RTVSPropertyOp17
 70
     1
102
RTVSPropertyOp18
 70
     1
102
RTVSPropertyOp19
 70
     1
102
RTVSPropertyOp20
 70
     1
102
RTVSPropertyOp21
 70
     1
102
RTVSPropertyOp22
 70
     1
102
RTVSPropertyOp23
 70
     1
102
RTVSPropertyOp24
 70
     1
102
RTVSPropertyOp25
 70
     1
102
RTVSPropertyOp26
 70
     1
102
RTVSPropertyOp27
 70
     1
102
RTVSPropertyOp28
 70
     1
102
RTVSPropertyOp29
 70
     1
102
RTVSPropertyOp30
 70
     1
102
RTVSPropertyOp31
 70
     1
102
RTVSPropertyOp32
 70
     1
102
RTVSPropertyOp33
 70
     1
102
RTVSPropertyOp34
 70
     1
102
RTVSPropertyOp35
 70
     1
102
RTVSPropertyOp36
 70
     1
102
RTVSPropertyOp37
 70
     1
102
RTVSPropertyOp38
 70
     1
102
RTVSPropertyOp39
 70
     1
102
RTVSPropertyOp40
 70
     1
102
RTVSPropertyOp41
 70
     1
102
RTVSPropertyOp42
 70
     1
102
RTVSPropertyOp43
 70
     1
102
RTVSPropertyOp44
 70
     1
102
RTVSPropertyOp45
 70
     1
102
RTVSPropertyOp46
 70
     1
102
RTVSPropertyOp47
 70
     1
102
RTVSPropertyOp48
 70
     1
102
RTVSPropertyOp49
 70
     1
102
RTVSPropertyOp50
 70
     1
102
RTVSPropertyOp51
 70
     0
102
RTVSPropertyOp52
 70
     0
102
RTVSPropertyOp53
 70
     1
102
RTVSPropertyOp54
 70
     1
102
RTVSPropertyOp55
 70
     1
102
RTVSPropertyOp56
 70
     1
102
RTVSPropertyOp57
 70
     1
102
RTVSPropertyOp58
 70
     1
102
RTVSPropertyOp59
 70
     1
102
RTVSPropertyOp60
 70
     1
102
RTVSPropertyOp61
 70
     1
102
RTVSPropertyOp62
 70
     1
  0
XRECORD
  5
107C
102
{ACAD_REACTORS
330
107B
102
}
330
107B
100
AcDbXrecord
280
     1
102
RTVSPost2010Prop28
280
     0
102
RTVSPost2010PropOp28
 70
     1
102
RTVSPost2010Prop29
280
     1
102
RTVSPost2010PropOp29
 70
     1
102
RTVSPost2010Prop30
280
     1
102
RTVSPost2010PropOp30
 70
     1
102
RTVSPost2010Prop31
280
     0
102
RTVSPost2010PropOp31
 70
     1
102
RTVSPost2010Prop32
280
     0
102
RTVSPost2010PropOp32
 70
     1
102
RTVSPost2010Prop33
280
     0
102
RTVSPost2010PropOp33
 70
     1
102
RTVSPost2010Prop34
280
     0
102
RTVSPost2010PropOp34
 70
     1
102
RTVSPost2010Prop35
280
     0
102
RTVSPost2010PropOp35
 70
     1
102
RTVSPost2010Prop36
280
     0
102
RTVSPost2010PropOp36
 70
     1
102
RTVSPost2010Prop37
 90
       50
102
RTVSPost2010PropOp37
 70
     1
102
RTVSPost2010Prop38
140
0.0
102
RTVSPost2010PropOp38
 70
     1
102
RTVSPost2010Prop39
140
1.0
102
RTVSPost2010PropOp39
 70
     1
102
RTVSPost2010Prop40
 90
        0
102
RTVSPost2010PropOp40
 70
     1
102
RTVSPost2010Prop41ColorIndex
 90
       18
102
RTVSPost2010Prop41ColorRGB
 90
-16777216
102
RTVSPost2010PropOp41
 70
     1
102
RTVSPost2010Prop42
 90
       50
102
RTVSPost2010PropOp42
 70
     1
102
RTVSPost2010Prop43
 90
        3
102
RTVSPost2010PropOp43
 70
     1
102
RTVSPost2010Prop44ColorIndex
 90
        5
102
RTVSPost2010Prop44ColorRGB
 90
      255
102
RTVSPost2010PropOp44
 70
     1
102
RTVSPost2010Prop45
280
     0
102
RTVSPost2010PropOp45
 70
     1
102
RTVSPost2010Prop46
 90
       50
102
RTVSPost2010PropOp46
 70
     1
102
RTVSPost2010Prop47
 90
       50
102
RTVSPost2010PropOp47
 70
     1
102
RTVSPost2010Prop48
 90
       50
102
RTVSPost2010PropOp48
 70
     1
102
RTVSPost2010Prop49
280
     0
102
RTVSPost2010PropOp49
 70
     1
102
RTVSPost2010Prop50
 90
       50
102
RTVSPost2010PropOp50
 70
     1
102
RTVSPost2010Prop51ColorIndex
 90
      256
102
RTVSPost2010Prop51ColorRGB
 90
-16777216
102
RTVSPost2010PropOp51
 70
     0
102
RTVSPost2010Prop52
140
1.0
102
RTVSPost2010PropOp52
 70
     0
102
RTVSPost2010Prop53
 90
        2
102
RTVSPost2010PropOp53
 70
     1
102
RTVSPost2010Prop54
  1
strokes_ogs.tif
102
RTVSPost2010PropOp54
 70
     1
102
RTVSPost2010Prop55
280
     0
102
RTVSPost2010PropOp55
 70
     1
102
RTVSPost2010Prop56
140
1.0
102
RTVSPost2010PropOp56
 70
     1
102
RTVSPost2010Prop57
140
1.0
102
RTVSPost2010PropOp57
 70
     1
102
RTVSPropertyOp0
 70
     1
102
RTVSPropertyOp1
 70
     1
102
RTVSPropertyOp2
 70
     1
102
RTVSPropertyOp3
 70
     1
102
RTVSPropertyOp4
 70
     1
102
RTVSPropertyOp5
 70
     1
102
RTVSPropertyOp6
 70
     1
102
RTVSPropertyOp7
 70
     1
102
RTVSPropertyOp8
 70
     1
102
RTVSPropertyOp9
 70
     1
102
RTVSPropertyOp10
 70
     1
102
RTVSPropertyOp11
 70
     1
102
RTVSPropertyOp12
 70
     1
102
RTVSPropertyOp13
 70
     1
102
RTVSPropertyOp14
 70
     1
102
RTVSPropertyOp15
 70
     1
102
RTVSPropertyOp16
 70
     1
102
RTVSPropertyOp17
 70
     1
102
RTVSPropertyOp18
 70
     1
102
RTVSPropertyOp19
 70
     1
102
RTVSPropertyOp20
 70
     1
102
RTVSPropertyOp21
 70
     1
102
RTVSPropertyOp22
 70
     1
102
RTVSPropertyOp23
 70
     1
102
RTVSPropertyOp24
 70
     1
102
RTVSPropertyOp25
 70
     1
102
RTVSPropertyOp26
 70
     1
102
RTVSPropertyOp27
 70
     1
102
RTVSPropertyOp28
 70
     1
102
RTVSPropertyOp29
 70
     1
102
RTVSPropertyOp30
 70
     1
102
RTVSPropertyOp31
 70
     1
102
RTVSPropertyOp32
 70
     1
102
RTVSPropertyOp33
 70
     1
102
RTVSPropertyOp34
 70
     1
102
RTVSPropertyOp35
 70
     1
102
RTVSPropertyOp36
 70
     1
102
RTVSPropertyOp37
 70
     1
102
RTVSPropertyOp38
 70
     1
102
RTVSPropertyOp39
 70
     1
102
RTVSPropertyOp40
 70
     1
102
RTVSPropertyOp41
 70
     1
102
RTVSPropertyOp42
 70
     1
102
RTVSPropertyOp43
 70
     1
102
RTVSPropertyOp44
 70
     1
102
RTVSPropertyOp45
 70
     1
102
RTVSPropertyOp46
 70
     1
102
RTVSPropertyOp47
 70
     1
102
RTVSPropertyOp48
 70
     1
102
RTVSPropertyOp49
 70
     1
102
RTVSPropertyOp50
 70
     1
102
RTVSPropertyOp51
 70
     0
102
RTVSPropertyOp52
 70
     0
102
RTVSPropertyOp53
 70
     1
102
RTVSPropertyOp54
 70
     1
102
RTVSPropertyOp55
 70
     1
102
RTVSPropertyOp56
 70
     1
102
RTVSPropertyOp57
 70
     1
102
RTVSPropertyOp58
 70
     1
102
RTVSPropertyOp59
 70
     1
102
RTVSPropertyOp60
 70
     1
102
RTVSPropertyOp61
 70
     1
102
RTVSPropertyOp62
 70
     1
  0
XRECORD
  5
1072
102
{ACAD_REACTORS
330
1071
102
}
330
1071
100
AcDbXrecord
280
     1
102
RTVSPost2010Prop28
280
     0
102
RTVSPost2010PropOp28
 70
     1
102
RTVSPost2010Prop29
280
     1
102
RTVSPost2010PropOp29
 70
     1
102
RTVSPost2010Prop30
280
     1
102
RTVSPost2010PropOp30
 70
     1
102
RTVSPost2010Prop31
280
     0
102
RTVSPost2010PropOp31
 70
     1
102
RTVSPost2010Prop32
280
     0
102
RTVSPost2010PropOp32
 70
     1
102
RTVSPost2010Prop33
280
     0
102
RTVSPost2010PropOp33
 70
     1
102
RTVSPost2010Prop34
280
     0
102
RTVSPost2010PropOp34
 70
     1
102
RTVSPost2010Prop35
280
     0
102
RTVSPost2010PropOp35
 70
     1
102
RTVSPost2010Prop36
280
     0
102
RTVSPost2010PropOp36
 70
     1
102
RTVSPost2010Prop37
 90
       50
102
RTVSPost2010PropOp37
 70
     1
102
RTVSPost2010Prop38
140
0.0
102
RTVSPost2010PropOp38
 70
     1
102
RTVSPost2010Prop39
140
1.0
102
RTVSPost2010PropOp39
 70
     1
102
RTVSPost2010Prop40
 90
        0
102
RTVSPost2010PropOp40
 70
     1
102
RTVSPost2010Prop41ColorIndex
 90
       18
102
RTVSPost2010Prop41ColorRGB
 90
-16777216
102
RTVSPost2010PropOp41
 70
     1
102
RTVSPost2010Prop42
 90
       50
102
RTVSPost2010PropOp42
 70
     1
102
RTVSPost2010Prop43
 90
        3
102
RTVSPost2010PropOp43
 70
     1
102
RTVSPost2010Prop44ColorIndex
 90
        5
102
RTVSPost2010Prop44ColorRGB
 90
      255
102
RTVSPost2010PropOp44
 70
     1
102
RTVSPost2010Prop45
280
     0
102
RTVSPost2010PropOp45
 70
     1
102
RTVSPost2010Prop46
 90
       50
102
RTVSPost2010PropOp46
 70
     1
102
RTVSPost2010Prop47
 90
       50
102
RTVSPost2010PropOp47
 70
     1
102
RTVSPost2010Prop48
 90
       50
102
RTVSPost2010PropOp48
 70
     1
102
RTVSPost2010Prop49
280
     0
102
RTVSPost2010PropOp49
 70
     1
102
RTVSPost2010Prop50
 90
       50
102
RTVSPost2010PropOp50
 70
     1
102
RTVSPost2010Prop51ColorIndex
 90
      256
102
RTVSPost2010Prop51ColorRGB
 90
-16777216
102
RTVSPost2010PropOp51
 70
     0
102
RTVSPost2010Prop52
140
1.0
102
RTVSPost2010PropOp52
 70
     0
102
RTVSPost2010Prop53
 90
        2
102
RTVSPost2010PropOp53
 70
     1
102
RTVSPost2010Prop54
  1
strokes_ogs.tif
102
RTVSPost2010PropOp54
 70
     1
102
RTVSPost2010Prop55
280
     0
102
RTVSPost2010PropOp55
 70
     1
102
RTVSPost2010Prop56
140
1.0
102
RTVSPost2010PropOp56
 70
     1
102
RTVSPost2010Prop57
140
1.0
102
RTVSPost2010PropOp57
 70
     1
102
RTVSPropertyOp0
 70
     1
102
RTVSPropertyOp1
 70
     1
102
RTVSPropertyOp2
 70
     1
102
RTVSPropertyOp3
 70
     1
102
RTVSPropertyOp4
 70
     1
102
RTVSPropertyOp5
 70
     1
102
RTVSPropertyOp6
 70
     1
102
RTVSPropertyOp7
 70
     1
102
RTVSPropertyOp8
 70
     1
102
RTVSPropertyOp9
 70
     1
102
RTVSPropertyOp10
 70
     1
102
RTVSPropertyOp11
 70
     1
102
RTVSPropertyOp12
 70
     1
102
RTVSPropertyOp13
 70
     1
102
RTVSPropertyOp14
 70
     1
102
RTVSPropertyOp15
 70
     1
102
RTVSPropertyOp16
 70
     1
102
RTVSPropertyOp17
 70
     1
102
RTVSPropertyOp18
 70
     1
102
RTVSPropertyOp19
 70
     1
102
RTVSPropertyOp20
 70
     1
102
RTVSPropertyOp21
 70
     1
102
RTVSPropertyOp22
 70
     1
102
RTVSPropertyOp23
 70
     1
102
RTVSPropertyOp24
 70
     1
102
RTVSPropertyOp25
 70
     1
102
RTVSPropertyOp26
 70
     1
102
RTVSPropertyOp27
 70
     1
102
RTVSPropertyOp28
 70
     1
102
RTVSPropertyOp29
 70
     1
102
RTVSPropertyOp30
 70
     1
102
RTVSPropertyOp31
 70
     1
102
RTVSPropertyOp32
 70
     1
102
RTVSPropertyOp33
 70
     1
102
RTVSPropertyOp34
 70
     1
102
RTVSPropertyOp35
 70
     1
102
RTVSPropertyOp36
 70
     1
102
RTVSPropertyOp37
 70
     1
102
RTVSPropertyOp38
 70
     1
102
RTVSPropertyOp39
 70
     1
102
RTVSPropertyOp40
 70
     1
102
RTVSPropertyOp41
 70
     1
102
RTVSPropertyOp42
 70
     1
102
RTVSPropertyOp43
 70
     1
102
RTVSPropertyOp44
 70
     1
102
RTVSPropertyOp45
 70
     1
102
RTVSPropertyOp46
 70
     1
102
RTVSPropertyOp47
 70
     1
102
RTVSPropertyOp48
 70
     1
102
RTVSPropertyOp49
 70
     1
102
RTVSPropertyOp50
 70
     1
102
RTVSPropertyOp51
 70
     0
102
RTVSPropertyOp52
 70
     0
102
RTVSPropertyOp53
 70
     1
102
RTVSPropertyOp54
 70
     1
102
RTVSPropertyOp55
 70
     1
102
RTVSPropertyOp56
 70
     1
102
RTVSPropertyOp57
 70
     1
102
RTVSPropertyOp58
 70
     1
102
RTVSPropertyOp59
 70
     1
102
RTVSPropertyOp60
 70
     1
102
RTVSPropertyOp61
 70
     1
102
RTVSPropertyOp62
 70
     1
  0
XRECORD
  5
1066
102
{ACAD_REACTORS
330
1065
102
}
330
1065
100
AcDbXrecord
280
     1
102
RTVSPost2010Prop28
280
     0
102
RTVSPost2010PropOp28
 70
     1
102
RTVSPost2010Prop29
280
     1
102
RTVSPost2010PropOp29
 70
     1
102
RTVSPost2010Prop30
280
     1
102
RTVSPost2010PropOp30
 70
     1
102
RTVSPost2010Prop31
280
     0
102
RTVSPost2010PropOp31
 70
     1
102
RTVSPost2010Prop32
280
     0
102
RTVSPost2010PropOp32
 70
     1
102
RTVSPost2010Prop33
280
     0
102
RTVSPost2010PropOp33
 70
     1
102
RTVSPost2010Prop34
280
     0
102
RTVSPost2010PropOp34
 70
     1
102
RTVSPost2010Prop35
280
     0
102
RTVSPost2010PropOp35
 70
     1
102
RTVSPost2010Prop36
280
     0
102
RTVSPost2010PropOp36
 70
     1
102
RTVSPost2010Prop37
 90
       50
102
RTVSPost2010PropOp37
 70
     1
102
RTVSPost2010Prop38
140
0.0
102
RTVSPost2010PropOp38
 70
     1
102
RTVSPost2010Prop39
140
1.0
102
RTVSPost2010PropOp39
 70
     1
102
RTVSPost2010Prop40
 90
        0
102
RTVSPost2010PropOp40
 70
     1
102
RTVSPost2010Prop41ColorIndex
 90
       18
102
RTVSPost2010Prop41ColorRGB
 90
-16777216
102
RTVSPost2010PropOp41
 70
     1
102
RTVSPost2010Prop42
 90
       50
102
RTVSPost2010PropOp42
 70
     1
102
RTVSPost2010Prop43
 90
        3
102
RTVSPost2010PropOp43
 70
     1
102
RTVSPost2010Prop44ColorIndex
 90
        5
102
RTVSPost2010Prop44ColorRGB
 90
      255
102
RTVSPost2010PropOp44
 70
     1
102
RTVSPost2010Prop45
280
     0
102
RTVSPost2010PropOp45
 70
     1
102
RTVSPost2010Prop46
 90
       50
102
RTVSPost2010PropOp46
 70
     1
102
RTVSPost2010Prop47
 90
       50
102
RTVSPost2010PropOp47
 70
     1
102
RTVSPost2010Prop48
 90
       50
102
RTVSPost2010PropOp48
 70
     1
102
RTVSPost2010Prop49
280
     0
102
RTVSPost2010PropOp49
 70
     1
102
RTVSPost2010Prop50
 90
       50
102
RTVSPost2010PropOp50
 70
     1
102
RTVSPost2010Prop51ColorIndex
 90
      256
102
RTVSPost2010Prop51ColorRGB
 90
-16777216
102
RTVSPost2010PropOp51
 70
     0
102
RTVSPost2010Prop52
140
1.0
102
RTVSPost2010PropOp52
 70
     0
102
RTVSPost2010Prop53
 90
        2
102
RTVSPost2010PropOp53
 70
     1
102
RTVSPost2010Prop54
  1
strokes_ogs.tif
102
RTVSPost2010PropOp54
 70
     1
102
RTVSPost2010Prop55
280
     0
102
RTVSPost2010PropOp55
 70
     1
102
RTVSPost2010Prop56
140
1.0
102
RTVSPost2010PropOp56
 70
     1
102
RTVSPost2010Prop57
140
1.0
102
RTVSPost2010PropOp57
 70
     1
102
RTVSPropertyOp0
 70
     1
102
RTVSPropertyOp1
 70
     1
102
RTVSPropertyOp2
 70
     1
102
RTVSPropertyOp3
 70
     1
102
RTVSPropertyOp4
 70
     1
102
RTVSPropertyOp5
 70
     1
102
RTVSPropertyOp6
 70
     1
102
RTVSPropertyOp7
 70
     1
102
RTVSPropertyOp8
 70
     1
102
RTVSPropertyOp9
 70
     1
102
RTVSPropertyOp10
 70
     1
102
RTVSPropertyOp11
 70
     1
102
RTVSPropertyOp12
 70
     1
102
RTVSPropertyOp13
 70
     1
102
RTVSPropertyOp14
 70
     1
102
RTVSPropertyOp15
 70
     1
102
RTVSPropertyOp16
 70
     1
102
RTVSPropertyOp17
 70
     1
102
RTVSPropertyOp18
 70
     1
102
RTVSPropertyOp19
 70
     1
102
RTVSPropertyOp20
 70
     1
102
RTVSPropertyOp21
 70
     1
102
RTVSPropertyOp22
 70
     1
102
RTVSPropertyOp23
 70
     1
102
RTVSPropertyOp24
 70
     1
102
RTVSPropertyOp25
 70
     1
102
RTVSPropertyOp26
 70
     1
102
RTVSPropertyOp27
 70
     1
102
RTVSPropertyOp28
 70
     1
102
RTVSPropertyOp29
 70
     1
102
RTVSPropertyOp30
 70
     1
102
RTVSPropertyOp31
 70
     1
102
RTVSPropertyOp32
 70
     1
102
RTVSPropertyOp33
 70
     1
102
RTVSPropertyOp34
 70
     1
102
RTVSPropertyOp35
 70
     1
102
RTVSPropertyOp36
 70
     1
102
RTVSPropertyOp37
 70
     1
102
RTVSPropertyOp38
 70
     1
102
RTVSPropertyOp39
 70
     1
102
RTVSPropertyOp40
 70
     1
102
RTVSPropertyOp41
 70
     1
102
RTVSPropertyOp42
 70
     1
102
RTVSPropertyOp43
 70
     1
102
RTVSPropertyOp44
 70
     1
102
RTVSPropertyOp45
 70
     1
102
RTVSPropertyOp46
 70
     1
102
RTVSPropertyOp47
 70
     1
102
RTVSPropertyOp48
 70
     1
102
RTVSPropertyOp49
 70
     1
102
RTVSPropertyOp50
 70
     1
102
RTVSPropertyOp51
 70
     0
102
RTVSPropertyOp52
 70
     0
102
RTVSPropertyOp53
 70
     1
102
RTVSPropertyOp54
 70
     1
102
RTVSPropertyOp55
 70
     1
102
RTVSPropertyOp56
 70
     1
102
RTVSPropertyOp57
 70
     1
102
RTVSPropertyOp58
 70
     1
102
RTVSPropertyOp59
 70
     1
102
RTVSPropertyOp60
 70
     1
102
RTVSPropertyOp61
 70
     1
102
RTVSPropertyOp62
 70
     1
  0
XRECORD
  5
107E
102
{ACAD_REACTORS
330
107D
102
}
330
107D
100
AcDbXrecord
280
     1
102
RTVSPost2010Prop28
280
     0
102
RTVSPost2010PropOp28
 70
     1
102
RTVSPost2010Prop29
280
     1
102
RTVSPost2010PropOp29
 70
     1
102
RTVSPost2010Prop30
280
     1
102
RTVSPost2010PropOp30
 70
     1
102
RTVSPost2010Prop31
280
     0
102
RTVSPost2010PropOp31
 70
     1
102
RTVSPost2010Prop32
280
     0
102
RTVSPost2010PropOp32
 70
     1
102
RTVSPost2010Prop33
280
     0
102
RTVSPost2010PropOp33
 70
     1
102
RTVSPost2010Prop34
280
     0
102
RTVSPost2010PropOp34
 70
     1
102
RTVSPost2010Prop35
280
     0
102
RTVSPost2010PropOp35
 70
     1
102
RTVSPost2010Prop36
280
     0
102
RTVSPost2010PropOp36
 70
     1
102
RTVSPost2010Prop37
 90
       50
102
RTVSPost2010PropOp37
 70
     1
102
RTVSPost2010Prop38
140
0.0
102
RTVSPost2010PropOp38
 70
     1
102
RTVSPost2010Prop39
140
1.0
102
RTVSPost2010PropOp39
 70
     1
102
RTVSPost2010Prop40
 90
        0
102
RTVSPost2010PropOp40
 70
     1
102
RTVSPost2010Prop41ColorIndex
 90
       18
102
RTVSPost2010Prop41ColorRGB
 90
-16777216
102
RTVSPost2010PropOp41
 70
     1
102
RTVSPost2010Prop42
 90
       50
102
RTVSPost2010PropOp42
 70
     1
102
RTVSPost2010Prop43
 90
        3
102
RTVSPost2010PropOp43
 70
     1
102
RTVSPost2010Prop44ColorIndex
 90
        5
102
RTVSPost2010Prop44ColorRGB
 90
      255
102
RTVSPost2010PropOp44
 70
     1
102
RTVSPost2010Prop45
280
     0
102
RTVSPost2010PropOp45
 70
     1
102
RTVSPost2010Prop46
 90
       50
102
RTVSPost2010PropOp46
 70
     1
102
RTVSPost2010Prop47
 90
       50
102
RTVSPost2010PropOp47
 70
     1
102
RTVSPost2010Prop48
 90
       50
102
RTVSPost2010PropOp48
 70
     1
102
RTVSPost2010Prop49
280
     0
102
RTVSPost2010PropOp49
 70
     1
102
RTVSPost2010Prop50
 90
       50
102
RTVSPost2010PropOp50
 70
     1
102
RTVSPost2010Prop51ColorIndex
 90
      256
102
RTVSPost2010Prop51ColorRGB
 90
-16777216
102
RTVSPost2010PropOp51
 70
     0
102
RTVSPost2010Prop52
140
1.0
102
RTVSPost2010PropOp52
 70
     0
102
RTVSPost2010Prop53
 90
        2
102
RTVSPost2010PropOp53
 70
     1
102
RTVSPost2010Prop54
  1
strokes_ogs.tif
102
RTVSPost2010PropOp54
 70
     1
102
RTVSPost2010Prop55
280
     0
102
RTVSPost2010PropOp55
 70
     1
102
RTVSPost2010Prop56
140
1.0
102
RTVSPost2010PropOp56
 70
     1
102
RTVSPost2010Prop57
140
1.0
102
RTVSPost2010PropOp57
 70
     1
102
RTVSPropertyOp0
 70
     1
102
RTVSPropertyOp1
 70
     1
102
RTVSPropertyOp2
 70
     1
102
RTVSPropertyOp3
 70
     1
102
RTVSPropertyOp4
 70
     1
102
RTVSPropertyOp5
 70
     1
102
RTVSPropertyOp6
 70
     1
102
RTVSPropertyOp7
 70
     1
102
RTVSPropertyOp8
 70
     1
102
RTVSPropertyOp9
 70
     1
102
RTVSPropertyOp10
 70
     1
102
RTVSPropertyOp11
 70
     1
102
RTVSPropertyOp12
 70
     1
102
RTVSPropertyOp13
 70
     1
102
RTVSPropertyOp14
 70
     1
102
RTVSPropertyOp15
 70
     1
102
RTVSPropertyOp16
 70
     1
102
RTVSPropertyOp17
 70
     1
102
RTVSPropertyOp18
 70
     1
102
RTVSPropertyOp19
 70
     1
102
RTVSPropertyOp20
 70
     1
102
RTVSPropertyOp21
 70
     1
102
RTVSPropertyOp22
 70
     1
102
RTVSPropertyOp23
 70
     1
102
RTVSPropertyOp24
 70
     1
102
RTVSPropertyOp25
 70
     1
102
RTVSPropertyOp26
 70
     1
102
RTVSPropertyOp27
 70
     1
102
RTVSPropertyOp28
 70
     1
102
RTVSPropertyOp29
 70
     1
102
RTVSPropertyOp30
 70
     1
102
RTVSPropertyOp31
 70
     1
102
RTVSPropertyOp32
 70
     1
102
RTVSPropertyOp33
 70
     1
102
RTVSPropertyOp34
 70
     1
102
RTVSPropertyOp35
 70
     1
102
RTVSPropertyOp36
 70
     1
102
RTVSPropertyOp37
 70
     1
102
RTVSPropertyOp38
 70
     1
102
RTVSPropertyOp39
 70
     1
102
RTVSPropertyOp40
 70
     1
102
RTVSPropertyOp41
 70
     1
102
RTVSPropertyOp42
 70
     1
102
RTVSPropertyOp43
 70
     1
102
RTVSPropertyOp44
 70
     1
102
RTVSPropertyOp45
 70
     1
102
RTVSPropertyOp46
 70
     1
102
RTVSPropertyOp47
 70
     1
102
RTVSPropertyOp48
 70
     1
102
RTVSPropertyOp49
 70
     1
102
RTVSPropertyOp50
 70
     1
102
RTVSPropertyOp51
 70
     0
102
RTVSPropertyOp52
 70
     0
102
RTVSPropertyOp53
 70
     1
102
RTVSPropertyOp54
 70
     1
102
RTVSPropertyOp55
 70
     1
102
RTVSPropertyOp56
 70
     1
102
RTVSPropertyOp57
 70
     1
102
RTVSPropertyOp58
 70
     1
102
RTVSPropertyOp59
 70
     1
102
RTVSPropertyOp60
 70
     1
102
RTVSPropertyOp61
 70
     1
102
RTVSPropertyOp62
 70
     1
  0
ENDSEC
  0
EOF
