  0
SECTION
  2
HEADER
  9
$ACADVER
  1
AC1015
  9
$ACADMAINTVER
 70
    20
  9
$DWGCODEPAGE
  3
ANSI_1252
  9
$INSBASE
 10
0.0
 20
0.0
 30
0.0
  9
$EXTMIN
 10
0.0
 20
-0.0000000000000013
 30
0.0
  9
$EXTMAX
 10
11.05
 20
8.5
 30
0.0
  9
$LIMMIN
 10
0.0
 20
0.0
  9
$LIMMAX
 10
12.0
 20
9.0
  9
$ORTHOMODE
 70
     0
  9
$REGENMODE
 70
     1
  9
$FILLMODE
 70
     1
  9
$QTEXTMODE
 70
     0
  9
$MIRRTEXT
 70
     1
  9
$LTSCALE
 40
0.25
  9
$ATTMODE
 70
     1
  9
$TEXTSIZE
 40
0.078
  9
$TRACEWID
 40
0.05
  9
$TEXTSTYLE
  7
SIMPLEX
  9
$CLAYER
  8
3
  9
$CELTYPE
  6
BYLAYER
  9
$CECOLOR
 62
   256
  9
$CELTSCALE
 40
1.0
  9
$DISPSILH
 70
     0
  9
$DIMSCALE
 40
1.0
  9
$DIMASZ
 40
0.125
  9
$DIMEXO
 40
0.0625
  9
$DIMDLI
 40
0.38
  9
$DIMRND
 40
0.0
  9
$DIMDLE
 40
0.0
  9
$DIMEXE
 40
0.0625
  9
$DIMTP
 40
0.0
  9
$DIMTM
 40
0.0
  9
$DIMTXT
 40
0.125
  9
$DIMCEN
 40
-0.125
  9
$DIMTSZ
 40
0.0
  9
$DIMTOL
 70
     0
  9
$DIMLIM
 70
     0
  9
$DIMTIH
 70
     1
  9
$DIMTOH
 70
     1
  9
$DIMSE1
 70
     0
  9
$DIMSE2
 70
     0
  9
$DIMTAD
 70
     0
  9
$DIMZIN
 70
     4
  9
$DIMBLK
  1

  9
$DIMASO
 70
     1
  9
$DIMSHO
 70
     0
  9
$DIMPOST
  1

  9
$DIMAPOST
  1

  9
$DIMALT
 70
     0
  9
$DIMALTD
 70
     2
  9
$DIMALTF
 40
25.4
  9
$DIMLFAC
 40
1.0
  9
$DIMTOFL
 70
     0
  9
$DIMTVP
 40
0.0
  9
$DIMTIX
 70
     0
  9
$DIMSOXD
 70
     0
  9
$DIMSAH
 70
     0
  9
$DIMBLK1
  1

  9
$DIMBLK2
  1

  9
$DIMSTYLE
  2
STANDARD
  9
$DIMCLRD
 70
     0
  9
$DIMCLRE
 70
     0
  9
$DIMCLRT
 70
     0
  9
$DIMTFAC
 40
1.0
  9
$DIMGAP
 40
0.09
  9
$DIMJUST
 70
     0
  9
$DIMSD1
 70
     0
  9
$DIMSD2
 70
     0
  9
$DIMTOLJ
 70
     1
  9
$DIMTZIN
 70
     4
  9
$DIMALTZ
 70
     4
  9
$DIMALTTZ
 70
     4
  9
$DIMUPT
 70
     0
  9
$DIMDEC
 70
     2
  9
$DIMTDEC
 70
     3
  9
$DIMALTU
 70
     2
  9
$DIMALTTD
 70
     2
  9
$DIMTXSTY
  7
SIMPLEX
  9
$DIMAUNIT
 70
     0
  9
$DIMADEC
 70
     0
  9
$DIMALTRND
 40
0.0
  9
$DIMAZIN
 70
     0
  9
$DIMDSEP
 70
    46
  9
$DIMATFIT
 70
     3
  9
$DIMFRAC
 70
     0
  9
$DIMLDRBLK
  1

  9
$DIMLUNIT
 70
     2
  9
$DIMLWD
 70
    -2
  9
$DIMLWE
 70
    -2
  9
$DIMTMOVE
 70
     2
  9
$LUNITS
 70
     2
  9
$LUPREC
 70
     4
  9
$SKETCHINC
 40
0.1
  9
$FILLETRAD
 40
0.06
  9
$AUNITS
 70
     0
  9
$AUPREC
 70
     2
  9
$MENU
  1
ACAD
  9
$ELEVATION
 40
0.0
  9
$PELEVATION
 40
0.0
  9
$THICKNESS
 40
0.0
  9
$LIMCHECK
 70
     0
  9
$CHAMFERA
 40
0.0
  9
$CHAMFERB
 40
0.0
  9
$CHAMFERC
 40
0.0
  9
$CHAMFERD
 40
0.0
  9
$SKPOLY
 70
     0
  9
$TDCREATE
 40
2449051.539295139
  9
$TDUCREATE
 40
2449051.705961806
  9
$TDUPDATE
 40
2457155.411521933
  9
$TDUUPDATE
 40
2457155.578188600
  9
$TDINDWG
 40
0.2666795833
  9
$TDUSRTIMER
 40
0.2666795718
  9
$USRTIMER
 70
     1
  9
$ANGBASE
 50
0.0
  9
$ANGDIR
 70
     0
  9
$PDMODE
 70
     0
  9
$PDSIZE
 40
0.0
  9
$PLINEWID
 40
0.0
  9
$SPLFRAME
 70
     0
  9
$SPLINETYPE
 70
     6
  9
$SPLINESEGS
 70
     8
  9
$HANDSEED
  5
1008
  9
$SURFTAB1
 70
     6
  9
$SURFTAB2
 70
     6
  9
$SURFTYPE
 70
     6
  9
$SURFU
 70
     6
  9
$SURFV
 70
     6
  9
$UCSBASE
  2

  9
$UCSNAME
  2

  9
$UCSORG
 10
0.0
 20
0.0
 30
0.0
  9
$UCSXDIR
 10
1.0
 20
0.0
 30
0.0
  9
$UCSYDIR
 10
0.0
 20
1.0
 30
0.0
  9
$UCSORTHOREF
  2

  9
$UCSORTHOVIEW
 70
     0
  9
$UCSORGTOP
 10
0.0
 20
0.0
 30
0.0
  9
$UCSORGBOTTOM
 10
0.0
 20
0.0
 30
0.0
  9
$UCSORGLEFT
 10
0.0
 20
0.0
 30
0.0
  9
$UCSORGRIGHT
 10
0.0
 20
0.0
 30
0.0
  9
$UCSORGFRONT
 10
0.0
 20
0.0
 30
0.0
  9
$UCSORGBACK
 10
0.0
 20
0.0
 30
0.0
  9
$PUCSBASE
  2

  9
$PUCSNAME
  2

  9
$PUCSORG
 10
0.0
 20
0.0
 30
0.0
  9
$PUCSXDIR
 10
1.0
 20
0.0
 30
0.0
  9
$PUCSYDIR
 10
0.0
 20
1.0
 30
0.0
  9
$PUCSORTHOREF
  2

  9
$PUCSORTHOVIEW
 70
     0
  9
$PUCSORGTOP
 10
0.0
 20
0.0
 30
0.0
  9
$PUCSORGBOTTOM
 10
0.0
 20
0.0
 30
0.0
  9
$PUCSORGLEFT
 10
0.0
 20
0.0
 30
0.0
  9
$PUCSORGRIGHT
 10
0.0
 20
0.0
 30
0.0
  9
$PUCSORGFRONT
 10
0.0
 20
0.0
 30
0.0
  9
$PUCSORGBACK
 10
0.0
 20
0.0
 30
0.0
  9
$USERI1
 70
     0
  9
$USERI2
 70
     0
  9
$USERI3
 70
     0
  9
$USERI4
 70
     0
  9
$USERI5
 70
     0
  9
$USERR1
 40
0.0
  9
$USERR2
 40
0.0
  9
$USERR3
 40
0.0
  9
$USERR4
 40
0.0
  9
$USERR5
 40
0.0
  9
$WORLDVIEW
 70
     1
  9
$SHADEDGE
 70
     3
  9
$SHADEDIF
 70
    70
  9
$TILEMODE
 70
     1
  9
$MAXACTVP
 70
    16
  9
$PINSBASE
 10
0.0
 20
0.0
 30
0.0
  9
$PLIMCHECK
 70
     0
  9
$PEXTMIN
 10
1.000000000000000E+20
 20
1.000000000000000E+20
 30
1.000000000000000E+20
  9
$PEXTMAX
 10
-1.000000000000000E+20
 20
-1.000000000000000E+20
 30
-1.000000000000000E+20
  9
$PLIMMIN
 10
0.0
 20
0.0
  9
$PLIMMAX
 10
12.0
 20
9.0
  9
$UNITMODE
 70
     0
  9
$VISRETAIN
 70
     0
  9
$PLINEGEN
 70
     0
  9
$PSLTSCALE
 70
     0
  9
$TREEDEPTH
 70
  3020
  9
$CMLSTYLE
  2
STANDARD
  9
$CMLJUST
 70
     0
  9
$CMLSCALE
 40
1.0
  9
$PROXYGRAPHICS
 70
     1
  9
$MEASUREMENT
 70
     0
  9
$CELWEIGHT
370
    -1
  9
$ENDCAPS
280
     0
  9
$JOINSTYLE
280
     0
  9
$LWDISPLAY
290
     0
  9
$INSUNITS
 70
     0
  9
$HYPERLINKBASE
  1

  9
$STYLESHEET
  1
MONOCHROME.CTB
  9
$XEDIT
290
     1
  9
$CEPSNTYPE
380
     0
  9
$PSTYLEMODE
290
     1
  9
$FINGERPRINTGUID
  2
{DB380EEC-3A54-414C-BC3E-D7B9D9912442}
  9
$VERSIONGUID
  2
{C785AF40-2784-4F68-8329-B837C36B0AB6}
  9
$EXTNAMES
290
     1
  9
$PSVPSCALE
 40
0.0
  9
$OLESTARTUP
290
     0
  0
ENDSEC
  0
SECTION
  2
CLASSES
  0
CLASS
  1
DICTIONARYVAR
  2
AcDbDictionaryVar
  3
ObjectDBX Classes
 90
        0
280
     0
281
     0
  0
CLASS
  1
ACDBDICTIONARYWDFLT
  2
AcDbDictionaryWithDefault
  3
ObjectDBX Classes
 90
        0
280
     0
281
     0
  0
CLASS
  1
MATERIAL
  2
AcDbMaterial
  3
ObjectDBX Classes
 90
     1153
280
     0
281
     0
  0
CLASS
  1
VISUALSTYLE
  2
AcDbVisualStyle
  3
ObjectDBX Classes
 90
     4095
280
     0
281
     0
  0
CLASS
  1
TABLESTYLE
  2
AcDbTableStyle
  3
ObjectDBX Classes
 90
     4095
280
     0
281
     0
  0
CLASS
  1
SCALE
  2
AcDbScale
  3
ObjectDBX Classes
 90
     1153
280
     0
281
     0
  0
CLASS
  1
MLEADERSTYLE
  2
AcDbMLeaderStyle
  3
ACDB_MLEADERSTYLE_CLASS
 90
     4095
280
     0
281
     0
  0
CLASS
  1
ACDBSECTIONVIEWSTYLE
  2
AcDbSectionViewStyle
  3
ObjectDBX Classes
 90
     1025
280
     0
281
     0
  0
CLASS
  1
ACDBDETAILVIEWSTYLE
  2
AcDbDetailViewStyle
  3
ObjectDBX Classes
 90
     1025
280
     0
281
     0
  0
CLASS
  1
CELLSTYLEMAP
  2
AcDbCellStyleMap
  3
ObjectDBX Classes
 90
     1152
280
     0
281
     0
  0
CLASS
  1
ACDBPLACEHOLDER
  2
AcDbPlaceHolder
  3
ObjectDBX Classes
 90
        0
280
     0
281
     0
  0
CLASS
  1
LAYOUT
  2
AcDbLayout
  3
ObjectDBX Classes
 90
        0
280
     0
281
     0
  0
ENDSEC
  0
SECTION
  2
TABLES
  0
TABLE
  2
VPORT
  5
8
330
0
100
AcDbSymbolTable
 70
     1
  0
VPORT
  5
E99
330
8
100
AcDbSymbolTableRecord
100
AcDbViewportTableRecord
  2
*ACTIVE
 70
     0
 10
0.0
 20
0.0
 11
1.0
 21
1.0
 12
6.77833165900461
 22
4.302370519918468
 13
0.0
 23
0.0
 14
1.0
 24
1.0
 15
0.0
 25
0.0
 16
0.0
 26
0.0
 36
1.0
 17
0.0
 27
0.0
 37
0.0
 40
14.19246242892619
 41
2.080545229244113
 42
50.0
 43
0.0
 44
0.0
 50
0.0
 51
0.0
 71
     0
 72
   250
 73
     1
 74
     0
 75
     0
 76
     0
 77
     0
 78
     0
281
     0
 65
     1
110
0.0
120
0.0
130
0.0
111
1.0
121
0.0
131
0.0
112
0.0
122
1.0
132
0.0
 79
     0
146
0.0
1001
ACAD_NAV_VCDISPLAY
1070
     3
  0
ENDTAB
  0
TABLE
  2
LTYPE
  5
5
330
0
100
AcDbSymbolTable
 70
     3
  0
LTYPE
  5
11
330
5
100
AcDbSymbolTableRecord
100
AcDbLinetypeTableRecord
  2
BYBLOCK
 70
     0
  3

 72
    65
 73
     0
 40
0.0
  0
LTYPE
  5
12
330
5
100
AcDbSymbolTableRecord
100
AcDbLinetypeTableRecord
  2
BYLAYER
 70
     0
  3

 72
    65
 73
     0
 40
0.0
  0
LTYPE
  5
13
330
5
100
AcDbSymbolTableRecord
100
AcDbLinetypeTableRecord
  2
CONTINUOUS
 70
     0
  3
Solid line
 72
    65
 73
     0
 40
0.0
  0
LTYPE
  5
B7B
330
5
100
AcDbSymbolTableRecord
100
AcDbLinetypeTableRecord
  2
CENTER
 70
     0
  3
____ _ ____ _ ____ _ ____ _ ____ _ ____ _ ____
 72
    65
 73
     4
 40
2.0
 49
1.25
 74
     0
 49
-0.25
 74
     0
 49
0.25
 74
     0
 49
-0.25
 74
     0
  0
LTYPE
  5
C86
330
5
100
AcDbSymbolTableRecord
100
AcDbLinetypeTableRecord
  2
HIDDEN
 70
     0
  3
_ _ _ _ _ _ _ _ _ _ _ _ _ _ _ _ _ _ _ _ _ _ _
 72
    65
 73
     2
 40
0.375
 49
0.25
 74
     0
 49
-0.125
 74
     0
  0
ENDTAB
  0
TABLE
  2
LAYER
  5
2
102
{ACAD_XDICTIONARY
360
F1A
102
}
330
0
100
AcDbSymbolTable
 70
     5
  0
LAYER
  5
E
102
{ACAD_XDICTIONARY
360
F0F
102
}
330
2
100
AcDbSymbolTableRecord
100
AcDbLayerTableRecord
  2
0
 70
     0
 62
     7
  6
CONTINUOUS
370
    -3
390
E9C
  0
LAYER
  5
23
102
{ACAD_XDICTIONARY
360
F11
102
}
330
2
100
AcDbSymbolTableRecord
100
AcDbLayerTableRecord
  2
2
 70
     0
 62
     2
  6
CONTINUOUS
370
    -3
390
E9C
  0
LAYER
  5
24
102
{ACAD_XDICTIONARY
360
F13
102
}
330
2
100
AcDbSymbolTableRecord
100
AcDbLayerTableRecord
  2
3
 70
     0
 62
     3
  6
CONTINUOUS
370
    -3
390
E9C
  0
LAYER
  5
25
102
{ACAD_XDICTIONARY
360
F15
102
}
330
2
100
AcDbSymbolTableRecord
100
AcDbLayerTableRecord
  2
4
 70
     0
 62
     4
  6
CONTINUOUS
370
    -3
390
E9C
  0
LAYER
  5
B7C
330
2
100
AcDbSymbolTableRecord
100
AcDbLayerTableRecord
  2
DEFPOINTS
 70
     0
 62
    -7
  6
CONTINUOUS
290
     0
370
    -3
390
E9C
  0
ENDTAB
  0
TABLE
  2
STYLE
  5
3
330
0
100
AcDbSymbolTable
 70
     5
  0
STYLE
  5
F
330
3
100
AcDbSymbolTableRecord
100
AcDbTextStyleTableRecord
  2
STANDARD
 70
     0
 40
0.0
 41
1.0
 50
0.0
 71
     0
 42
0.2
  3
txt
  4

  0
STYLE
  5
1C
330
3
100
AcDbSymbolTableRecord
100
AcDbTextStyleTableRecord
  2
SIMPLEX
 70
     0
 40
0.0
 41
1.0
 50
0.0
 71
     0
 42
0.078
  3
SIMPLEX.shx
  4

  0
STYLE
  5
1E
330
3
100
AcDbSymbolTableRecord
100
AcDbTextStyleTableRecord
  2
T
 70
     0
 40
0.0
 41
1.0
 50
0.0
 71
     0
 42
1.0
  3
ROMI____.PFB
  4

  0
STYLE
  5
B81
330
3
100
AcDbSymbolTableRecord
100
AcDbTextStyleTableRecord
  2
ITALICT
 70
     0
 40
0.1875
 41
1.0
 50
0.0
 71
     0
 42
0.1875
  3
italict
  4

  0
STYLE
  5
C8C
330
3
100
AcDbSymbolTableRecord
100
AcDbTextStyleTableRecord
  2
ROMANS
 70
     0
 40
0.125
 41
1.0
 50
0.0
 71
     0
 42
0.125
  3
Romans
  4

  0
ENDTAB
  0
TABLE
  2
VIEW
  5
6
330
0
100
AcDbSymbolTable
 70
     0
  0
ENDTAB
  0
TABLE
  2
UCS
  5
7
330
0
100
AcDbSymbolTable
 70
     0
  0
ENDTAB
  0
TABLE
  2
APPID
  5
9
330
0
100
AcDbSymbolTable
 70
     6
  0
APPID
  5
10
330
9
100
AcDbSymbolTableRecord
100
AcDbRegAppTableRecord
  2
ACAD
 70
     0
  0
APPID
  5
F02
330
9
100
AcDbSymbolTableRecord
100
AcDbRegAppTableRecord
  2
AcadAnnoMonitorAlertIconDisabled
 70
     0
  0
APPID
  5
F03
330
9
100
AcDbSymbolTableRecord
100
AcDbRegAppTableRecord
  2
ACAD_EXEMPT_FROM_CAD_STANDARDS
 70
     0
  0
APPID
  5
F20
330
9
100
AcDbSymbolTableRecord
100
AcDbRegAppTableRecord
  2
ACAD_NAV_VCDISPLAY
 70
     0
  0
APPID
  5
F8E
330
9
100
AcDbSymbolTableRecord
100
AcDbRegAppTableRecord
  2
ACAD_PSEXT
 70
     0
  0
APPID
  5
FFF
330
9
100
AcDbSymbolTableRecord
100
AcDbRegAppTableRecord
  2
ACAD_MLEADERVER
 70
     0
  0
ENDTAB
  0
TABLE
  2
DIMSTYLE
  5
A
330
0
100
AcDbSymbolTable
 70
     1
100
AcDbDimStyleTable
 71
     1
340
B05
  0
DIMSTYLE
105
B05
102
{ACAD_REACTORS
330
D69
330
DC8
330
EF4
330
F98
102
}
330
A
100
AcDbSymbolTableRecord
100
AcDbDimStyleTableRecord
  2
STANDARD
 70
     0
340
F
  0
ENDTAB
  0
TABLE
  2
BLOCK_RECORD
  5
1
330
0
100
AcDbSymbolTable
 70
     7
  0
BLOCK_RECORD
  5
17
330
1
100
AcDbSymbolTableRecord
100
AcDbBlockTableRecord
  2
*MODEL_SPACE
340
EEC
  0
BLOCK_RECORD
  5
14
330
1
100
AcDbSymbolTableRecord
100
AcDbBlockTableRecord
  2
*PAPER_SPACE
340
EED
  0
BLOCK_RECORD
  5
D32
330
1
100
AcDbSymbolTableRecord
100
AcDbBlockTableRecord
  2
*D0
340
0
  0
BLOCK_RECORD
  5
D5B
330
1
100
AcDbSymbolTableRecord
100
AcDbBlockTableRecord
  2
*D1
340
0
  0
BLOCK_RECORD
  5
D8B
330
1
100
AcDbSymbolTableRecord
100
AcDbBlockTableRecord
  2
*D2
340
0
  0
BLOCK_RECORD
  5
DBB
330
1
100
AcDbSymbolTableRecord
100
AcDbBlockTableRecord
  2
*D3
340
0
  0
BLOCK_RECORD
  5
E12
330
1
100
AcDbSymbolTableRecord
100
AcDbBlockTableRecord
  2
*D4
340
0
  0
BLOCK_RECORD
  5
EF5
330
1
100
AcDbSymbolTableRecord
100
AcDbBlockTableRecord
  2
*D5
340
0
  0
BLOCK_RECORD
  5
F99
330
1
100
AcDbSymbolTableRecord
100
AcDbBlockTableRecord
  2
*D6
340
0
  0
ENDTAB
  0
ENDSEC
  0
SECTION
  2
BLOCKS
  0
BLOCK
  5
29
330
17
100
AcDbEntity
  8
0
100
AcDbBlockBegin
  2
*MODEL_SPACE
 70
     0
 10
0.0
 20
0.0
 30
0.0
  3
*MODEL_SPACE
  1

  0
ENDBLK
  5
2A
330
17
100
AcDbEntity
  8
0
100
AcDbBlockEnd
  0
BLOCK
  5
27
330
14
100
AcDbEntity
 67
     1
  8
0
100
AcDbBlockBegin
  2
*PAPER_SPACE
 70
     0
 10
0.0
 20
0.0
 30
0.0
  3
*PAPER_SPACE
  1

  0
ENDBLK
  5
28
330
14
100
AcDbEntity
 67
     1
  8
0
100
AcDbBlockEnd
  0
BLOCK
  5
D33
330
D32
100
AcDbEntity
  8
0
100
AcDbBlockBegin
  2
*D0
 70
     1
 10
0.0
 20
0.0
 30
0.0
  3
*D0
  1

  0
LINE
  5
D34
330
D32
100
AcDbEntity
  8
0
  6
ByBlock
 62
     0
100
AcDbLine
 10
19.85646138249898
 20
4.801648043363631
 30
0.0
 11
19.85646138249898
 21
5.130135719179937
 31
0.0
  0
LINE
  5
D35
330
D32
100
AcDbEntity
  8
0
  6
ByBlock
 62
     0
100
AcDbLine
 10
20.23146138249899
 20
4.801648043363631
 30
0.0
 11
20.23146138249899
 21
5.130135719179937
 31
0.0
  0
LINE
  5
D36
330
D32
100
AcDbEntity
  8
0
  6
ByBlock
 62
     0
100
AcDbLine
 10
19.73146138249898
 20
5.067635719179937
 30
0.0
 11
19.60646138249898
 21
5.067635719179937
 31
0.0
  0
LINE
  5
D37
330
D32
100
AcDbEntity
  8
0
  6
ByBlock
 62
     0
100
AcDbLine
 10
20.35646138249898
 20
5.067635719179937
 30
0.0
 11
20.48146138249899
 21
5.067635719179937
 31
0.0
  0
MTEXT
  5
D38
330
D32
100
AcDbEntity
  8
0
  6
ByBlock
 62
     0
100
AcDbMText
 10
20.04396138249898
 20
5.36037381441803
 30
0.0
 40
0.125
 41
0.0
 71
     5
 72
     1
  1
\A1;3/8"
  7
SIMPLEX
 73
     1
 44
1.0
1001
ACAD
1000
MTEXTBEGIN
1070
    73
1070
     1
1070
    44
1040
1.0
1070
    74
1070
     0
1000
MTEXTEND
  0
LINE
  5
D39
330
D32
100
AcDbEntity
  8
0
  6
ByBlock
 62
     0
100
AcDbLine
 10
19.85646138249898
 20
5.067635719179937
 30
0.0
 11
20.23146138249899
 21
5.067635719179937
 31
0.0
  0
SOLID
  5
D3A
330
D32
100
AcDbEntity
  8
0
  6
ByBlock
 62
     0
100
AcDbTrace
 10
19.73146138249898
 20
5.08846905251327
 30
0.0
 11
19.73146138249898
 21
5.046802385846603
 31
0.0
 12
19.85646138249898
 22
5.067635719179937
 32
0.0
 13
19.85646138249898
 23
5.067635719179937
 33
0.0
  0
SOLID
  5
D3B
330
D32
100
AcDbEntity
  8
0
  6
ByBlock
 62
     0
100
AcDbTrace
 10
20.35646138249898
 20
5.08846905251327
 30
0.0
 11
20.35646138249898
 21
5.046802385846603
 31
0.0
 12
20.23146138249899
 22
5.067635719179937
 32
0.0
 13
20.23146138249899
 23
5.067635719179937
 33
0.0
  0
POINT
  5
D3C
330
D32
100
AcDbEntity
  8
DEFPOINTS
  6
ByBlock
 62
     0
100
AcDbPoint
 10
19.85646138249898
 20
4.739148043363631
 30
0.0
  0
POINT
  5
D3D
330
D32
100
AcDbEntity
  8
DEFPOINTS
  6
ByBlock
 62
     0
100
AcDbPoint
 10
20.23146138249899
 20
4.739148043363631
 30
0.0
  0
POINT
  5
D3E
330
D32
100
AcDbEntity
  8
DEFPOINTS
  6
ByBlock
 62
     0
100
AcDbPoint
 10
20.23146138249899
 20
5.067635719179937
 30
0.0
  0
ENDBLK
  5
D3F
330
D32
100
AcDbEntity
  8
0
100
AcDbBlockEnd
  0
BLOCK
  5
D5C
330
D5B
100
AcDbEntity
  8
0
100
AcDbBlockBegin
  2
*D1
 70
     1
 10
0.0
 20
0.0
 30
0.0
  3
*D1
  1

  0
LINE
  5
D5D
330
D5B
100
AcDbEntity
  8
0
  6
ByBlock
 62
     0
100
AcDbLine
 10
6.288025635482827
 20
6.51657716814112
 30
0.0
 11
6.899688735245018
 21
6.51657716814112
 31
0.0
  0
LINE
  5
D5E
330
D5B
100
AcDbEntity
  8
0
  6
ByBlock
 62
     0
100
AcDbLine
 10
6.288025635482827
 20
6.57907716814112
 30
0.0
 11
6.899688735245018
 21
6.57907716814112
 31
0.0
  0
LINE
  5
D5F
330
D5B
100
AcDbEntity
  8
0
  6
ByBlock
 62
     0
100
AcDbLine
 10
6.837188735245018
 20
6.39157716814112
 30
0.0
 11
6.837188735245018
 21
6.26657716814112
 31
0.0
  0
LINE
  5
D60
330
D5B
100
AcDbEntity
  8
0
  6
ByBlock
 62
     0
100
AcDbLine
 10
6.837188735245018
 20
6.70407716814112
 30
0.0
 11
6.837188735245018
 21
6.82907716814112
 31
0.0
  0
MTEXT
  5
D61
330
D5B
100
AcDbEntity
  8
0
  6
ByBlock
 62
     0
100
AcDbMText
 10
7.162664925721205
 20
6.54782716814112
 30
0.0
 40
0.125
 41
0.0
 71
     5
 72
     1
  1
\A1;.06
  7
SIMPLEX
 73
     1
 44
1.0
1001
ACAD
1000
MTEXTBEGIN
1070
    73
1070
     1
1070
    44
1040
1.0
1070
    74
1070
     0
1000
MTEXTEND
  0
LINE
  5
D62
330
D5B
100
AcDbEntity
  8
0
  6
ByBlock
 62
     0
100
AcDbLine
 10
6.837188735245018
 20
6.51657716814112
 30
0.0
 11
6.837188735245018
 21
6.57907716814112
 31
0.0
  0
SOLID
  5
D63
330
D5B
100
AcDbEntity
  8
0
  6
ByBlock
 62
     0
100
AcDbTrace
 10
6.816355401911683
 20
6.39157716814112
 30
0.0
 11
6.858022068578351
 21
6.39157716814112
 31
0.0
 12
6.837188735245018
 22
6.51657716814112
 32
0.0
 13
6.837188735245018
 23
6.51657716814112
 33
0.0
  0
SOLID
  5
D64
330
D5B
100
AcDbEntity
  8
0
  6
ByBlock
 62
     0
100
AcDbTrace
 10
6.816355401911683
 20
6.70407716814112
 30
0.0
 11
6.858022068578351
 21
6.70407716814112
 31
0.0
 12
6.837188735245018
 22
6.57907716814112
 32
0.0
 13
6.837188735245018
 23
6.57907716814112
 33
0.0
  0
POINT
  5
D65
330
D5B
100
AcDbEntity
  8
DEFPOINTS
  6
ByBlock
 62
     0
100
AcDbPoint
 10
6.225525635482827
 20
6.51657716814112
 30
0.0
  0
POINT
  5
D66
330
D5B
100
AcDbEntity
  8
DEFPOINTS
  6
ByBlock
 62
     0
100
AcDbPoint
 10
6.225525635482827
 20
6.57907716814112
 30
0.0
  0
POINT
  5
D67
330
D5B
100
AcDbEntity
  8
DEFPOINTS
  6
ByBlock
 62
     0
100
AcDbPoint
 10
6.837188735245018
 20
6.57907716814112
 30
0.0
  0
ENDBLK
  5
D68
330
D5B
100
AcDbEntity
  8
0
100
AcDbBlockEnd
  0
BLOCK
  5
DEA
330
D8B
100
AcDbEntity
  8
0
100
AcDbBlockBegin
  2
*D2
 70
     1
 10
0.0
 20
0.0
 30
0.0
  3
*D2
  1

  0
LINE
  5
DEB
330
D8B
100
AcDbEntity
  8
0
  6
ByBlock
 62
     0
100
AcDbLine
 10
2.450950707780951
 20
4.130498714550729
 30
0.0
 11
1.984717901959685
 21
4.130498714550729
 31
0.0
  0
LINE
  5
DEC
330
D8B
100
AcDbEntity
  8
0
  6
ByBlock
 62
     0
100
AcDbLine
 10
2.45095070778095
 20
4.755498714550726
 30
0.0
 11
1.984717901959685
 21
4.755498714550726
 31
0.0
  0
LINE
  5
DED
330
D8B
100
AcDbEntity
  8
0
  6
ByBlock
 62
     0
100
AcDbLine
 10
2.047217901959685
 20
4.255498714550729
 30
0.0
 11
2.047217901959685
 21
4.345498714550728
 31
0.0
  0
LINE
  5
DEE
330
D8B
100
AcDbEntity
  8
0
  6
ByBlock
 62
     0
100
AcDbLine
 10
2.047217901959685
 20
4.630498714550726
 30
0.0
 11
2.047217901959685
 21
4.540498714550726
 31
0.0
  0
MTEXT
  5
DEF
330
D8B
100
AcDbEntity
  8
0
  6
ByBlock
 62
     0
100
AcDbMText
 10
2.026384568626353
 20
4.462773246607254
 30
0.0
 40
0.125
 41
0.0
 71
     5
 72
     1
  1
\A1;5/8
  7
SIMPLEX
 73
     1
 44
1.0
1001
ACAD
1000
MTEXTBEGIN
1070
    73
1070
     1
1070
    44
1040
1.0
1070
    74
1070
     0
1000
MTEXTEND
  0
SOLID
  5
DF0
330
D8B
100
AcDbEntity
  8
0
  6
ByBlock
 62
     0
100
AcDbTrace
 10
2.026384568626353
 20
4.255498714550729
 30
0.0
 11
2.068051235293018
 21
4.255498714550729
 31
0.0
 12
2.047217901959685
 22
4.130498714550729
 32
0.0
 13
2.047217901959685
 23
4.130498714550729
 33
0.0
  0
SOLID
  5
DF1
330
D8B
100
AcDbEntity
  8
0
  6
ByBlock
 62
     0
100
AcDbTrace
 10
2.026384568626353
 20
4.630498714550726
 30
0.0
 11
2.068051235293018
 21
4.630498714550726
 31
0.0
 12
2.047217901959685
 22
4.755498714550726
 32
0.0
 13
2.047217901959685
 23
4.755498714550726
 33
0.0
  0
POINT
  5
DF2
330
D8B
100
AcDbEntity
  8
DEFPOINTS
  6
ByBlock
 62
     0
100
AcDbPoint
 10
2.513450707780951
 20
4.130498714550729
 30
0.0
  0
POINT
  5
DF3
330
D8B
100
AcDbEntity
  8
DEFPOINTS
  6
ByBlock
 62
     0
100
AcDbPoint
 10
2.51345070778095
 20
4.755498714550726
 30
0.0
  0
POINT
  5
DF4
330
D8B
100
AcDbEntity
  8
DEFPOINTS
  6
ByBlock
 62
     0
100
AcDbPoint
 10
2.047217901959685
 20
4.755498714550726
 30
0.0
  0
ENDBLK
  5
DF5
330
D8B
100
AcDbEntity
  8
0
100
AcDbBlockEnd
  0
BLOCK
  5
E02
330
DBB
100
AcDbEntity
  8
0
100
AcDbBlockBegin
  2
*D3
 70
     1
 10
0.0
 20
0.0
 30
0.0
  3
*D3
  1

  0
LINE
  5
E03
330
DBB
100
AcDbEntity
  8
0
  6
ByBlock
 62
     0
100
AcDbLine
 10
3.32595070778095
 20
4.067998714550727
 30
0.0
 11
1.443920341813774
 21
4.067998714550727
 31
0.0
  0
LINE
  5
E04
330
DBB
100
AcDbEntity
  8
0
  6
ByBlock
 62
     0
100
AcDbLine
 10
3.325950707780953
 20
4.817998714550729
 30
0.0
 11
1.443920341813774
 21
4.817998714550729
 31
0.0
  0
LINE
  5
E05
330
DBB
100
AcDbEntity
  8
0
  6
ByBlock
 62
     0
100
AcDbLine
 10
1.506420341813774
 20
4.192998714550727
 30
0.0
 11
1.506420341813774
 21
4.282998714550727
 31
0.0
  0
LINE
  5
E06
330
DBB
100
AcDbEntity
  8
0
  6
ByBlock
 62
     0
100
AcDbLine
 10
1.506420341813774
 20
4.692998714550729
 30
0.0
 11
1.506420341813774
 21
4.602998714550729
 31
0.0
  0
MTEXT
  5
E07
330
DBB
100
AcDbEntity
  8
0
  6
ByBlock
 62
     0
100
AcDbMText
 10
1.492221685902475
 20
4.442998714550729
 30
0.0
 40
0.125
 41
0.0
 71
     5
 72
     1
  1
\A1;3/4
  7
SIMPLEX
 73
     1
 44
1.0
1001
ACAD
1000
MTEXTBEGIN
1070
    73
1070
     1
1070
    44
1040
1.0
1070
    74
1070
     0
1000
MTEXTEND
  0
SOLID
  5
E08
330
DBB
100
AcDbEntity
  8
0
  6
ByBlock
 62
     0
100
AcDbTrace
 10
1.485587008480441
 20
4.192998714550727
 30
0.0
 11
1.527253675147109
 21
4.192998714550727
 31
0.0
 12
1.506420341813774
 22
4.067998714550727
 32
0.0
 13
1.506420341813774
 23
4.067998714550727
 33
0.0
  0
SOLID
  5
E09
330
DBB
100
AcDbEntity
  8
0
  6
ByBlock
 62
     0
100
AcDbTrace
 10
1.485587008480441
 20
4.692998714550729
 30
0.0
 11
1.527253675147109
 21
4.692998714550729
 31
0.0
 12
1.506420341813774
 22
4.817998714550729
 32
0.0
 13
1.506420341813774
 23
4.817998714550729
 33
0.0
  0
POINT
  5
E0A
330
DBB
100
AcDbEntity
  8
DEFPOINTS
  6
ByBlock
 62
     0
100
AcDbPoint
 10
3.38845070778095
 20
4.067998714550727
 30
0.0
  0
POINT
  5
E0B
330
DBB
100
AcDbEntity
  8
DEFPOINTS
  6
ByBlock
 62
     0
100
AcDbPoint
 10
3.388450707780953
 20
4.817998714550729
 30
0.0
  0
POINT
  5
E0C
330
DBB
100
AcDbEntity
  8
DEFPOINTS
  6
ByBlock
 62
     0
100
AcDbPoint
 10
1.506420341813774
 20
4.817998714550729
 30
0.0
  0
ENDBLK
  5
E0D
330
DBB
100
AcDbEntity
  8
0
100
AcDbBlockEnd
  0
BLOCK
  5
E88
330
E12
100
AcDbEntity
  8
0
100
AcDbBlockBegin
  2
*D4
 70
     1
 10
0.0
 20
0.0
 30
0.0
  3
*D4
  1

  0
LINE
  5
E89
330
E12
100
AcDbEntity
  8
0
  6
ByBlock
 62
     0
100
AcDbLine
 10
6.288025635482827
 20
4.130498714550728
 30
0.0
 11
7.005989794222879
 21
4.130498714550728
 31
0.0
  0
LINE
  5
E8A
330
E12
100
AcDbEntity
  8
0
  6
ByBlock
 62
     0
100
AcDbLine
 10
6.195775517002882
 20
4.442998714550726
 30
0.0
 11
7.005989794222879
 21
4.442998714550726
 31
0.0
  0
LINE
  5
E8B
330
E12
100
AcDbEntity
  8
0
  6
ByBlock
 62
     0
100
AcDbLine
 10
6.943489794222879
 20
4.005498714550728
 30
0.0
 11
6.943489794222879
 21
3.880498714550725
 31
0.0
  0
LINE
  5
E8C
330
E12
100
AcDbEntity
  8
0
  6
ByBlock
 62
     0
100
AcDbLine
 10
6.943489794222879
 20
4.567998714550726
 30
0.0
 11
6.943489794222879
 21
4.692998714550726
 31
0.0
  0
MTEXT
  5
E8D
330
E12
100
AcDbEntity
  8
0
  6
ByBlock
 62
     0
100
AcDbMText
 10
6.947667226172784
 20
4.982097735651326
 30
0.0
 40
0.125
 41
0.0
 71
     5
 72
     1
  1
\A1;5/16\P(TYP)
  7
SIMPLEX
 73
     1
 44
1.0
1001
ACAD
1000
MTEXTBEGIN
1070
    73
1070
     1
1070
    44
1040
1.0
1070
    74
1070
     0
1000
MTEXTEND
  0
LINE
  5
E8E
330
E12
100
AcDbEntity
  8
0
  6
ByBlock
 62
     0
100
AcDbLine
 10
6.943489794222879
 20
4.130498714550728
 30
0.0
 11
6.943489794222879
 21
4.442998714550726
 31
0.0
  0
SOLID
  5
E8F
330
E12
100
AcDbEntity
  8
0
  6
ByBlock
 62
     0
100
AcDbTrace
 10
6.922656460889547
 20
4.005498714550728
 30
0.0
 11
6.964323127556212
 21
4.005498714550728
 31
0.0
 12
6.943489794222879
 22
4.130498714550728
 32
0.0
 13
6.943489794222879
 23
4.130498714550728
 33
0.0
  0
SOLID
  5
E90
330
E12
100
AcDbEntity
  8
0
  6
ByBlock
 62
     0
100
AcDbTrace
 10
6.922656460889547
 20
4.567998714550726
 30
0.0
 11
6.964323127556212
 21
4.567998714550726
 31
0.0
 12
6.943489794222879
 22
4.442998714550726
 32
0.0
 13
6.943489794222879
 23
4.442998714550726
 33
0.0
  0
POINT
  5
E91
330
E12
100
AcDbEntity
  8
DEFPOINTS
  6
ByBlock
 62
     0
100
AcDbPoint
 10
6.225525635482827
 20
4.130498714550728
 30
0.0
  0
POINT
  5
E92
330
E12
100
AcDbEntity
  8
DEFPOINTS
  6
ByBlock
 62
     0
100
AcDbPoint
 10
6.133275517002882
 20
4.442998714550726
 30
0.0
  0
POINT
  5
E93
330
E12
100
AcDbEntity
  8
DEFPOINTS
  6
ByBlock
 62
     0
100
AcDbPoint
 10
6.943489794222879
 20
4.442998714550726
 30
0.0
  0
ENDBLK
  5
E94
330
E12
100
AcDbEntity
  8
0
100
AcDbBlockEnd
  0
BLOCK
  5
EF6
330
EF5
100
AcDbEntity
  8
0
100
AcDbBlockBegin
  2
*D5
 70
     1
 10
0.0
 20
0.0
 30
0.0
  3
*D5
  1

  0
LINE
  5
F05
330
EF5
100
AcDbEntity
  8
3
 62
     0
370
    -2
100
AcDbLine
 10
2.45095070778095
 20
6.51657716814112
 30
0.0
 11
1.983537353598824
 21
6.516577168141122
 31
0.0
  0
LINE
  5
F06
330
EF5
100
AcDbEntity
  8
3
 62
     0
370
    -2
100
AcDbLine
 10
3.32595070778095
 20
6.89157716814112
 30
0.0
 11
1.983537353598824
 21
6.891577168141122
 31
0.0
  0
LINE
  5
F07
330
EF5
100
AcDbEntity
  8
3
 62
     0
370
    -2
100
AcDbLine
 10
2.046037353598824
 20
6.39157716814112
 30
0.0
 11
2.046037353598824
 21
6.26657716814112
 31
0.0
  0
LINE
  5
F08
330
EF5
100
AcDbEntity
  8
3
 62
     0
370
    -2
100
AcDbLine
 10
2.046037353598825
 20
7.01657716814112
 30
0.0
 11
2.046037353598825
 21
7.14157716814112
 31
0.0
  0
SOLID
  5
F09
330
EF5
100
AcDbEntity
  8
3
 62
     0
100
AcDbTrace
 10
2.025204020265493
 20
6.39157716814112
 30
0.0
 11
2.066870686932158
 21
6.39157716814112
 31
0.0
 12
2.046037353598824
 22
6.51657716814112
 32
0.0
 13
2.046037353598824
 23
6.51657716814112
 33
0.0
  0
SOLID
  5
F0A
330
EF5
100
AcDbEntity
  8
3
 62
     0
100
AcDbTrace
 10
2.025204020265493
 20
7.01657716814112
 30
0.0
 11
2.066870686932158
 21
7.01657716814112
 31
0.0
 12
2.046037353598824
 22
6.89157716814112
 32
0.0
 13
2.046037353598824
 23
6.89157716814112
 33
0.0
  0
MTEXT
  5
F0B
330
EF5
100
AcDbEntity
  8
3
 62
     0
100
AcDbMText
 10
2.046037353598823
 20
6.704077168141122
 30
0.0
 40
0.125
 41
0.0
 71
     5
 72
     1
  1
\A1;.38
  7
SIMPLEX
 73
     1
 44
1.0
1001
ACAD
1000
MTEXTBEGIN
1070
    73
1070
     1
1070
    44
1040
1.0
1070
    74
1070
     0
1000
MTEXTEND
  0
POINT
  5
F0C
330
EF5
100
AcDbEntity
  8
DEFPOINTS
 62
     0
100
AcDbPoint
 10
2.51345070778095
 20
6.51657716814112
 30
0.0
  0
POINT
  5
F0D
330
EF5
100
AcDbEntity
  8
DEFPOINTS
 62
     0
100
AcDbPoint
 10
3.38845070778095
 20
6.89157716814112
 30
0.0
  0
POINT
  5
F0E
330
EF5
100
AcDbEntity
  8
DEFPOINTS
 62
     0
100
AcDbPoint
 10
2.046037353598824
 20
6.89157716814112
 30
0.0
  0
ENDBLK
  5
EF7
330
EF5
100
AcDbEntity
  8
0
100
AcDbBlockEnd
  0
BLOCK
  5
F9A
330
F99
100
AcDbEntity
  8
0
100
AcDbBlockBegin
  2
*D6
 70
     1
 10
0.0
 20
0.0
 30
0.0
  3
*D6
  1

  0
LINE
  5
F9C
330
F99
100
AcDbEntity
  8
3
 62
     0
370
    -2
100
AcDbLine
 10
8.513980966596726
 20
4.065498714550725
 30
0.0
 11
8.513980966596726
 21
3.675002803082417
 31
0.0
  0
LINE
  5
F9D
330
F99
100
AcDbEntity
  8
3
 62
     0
370
    -2
100
AcDbLine
 10
8.138980966596728
 20
4.005498714550727
 30
0.0
 11
8.138980966596728
 21
3.675002803082417
 31
0.0
  0
LINE
  5
F9E
330
F99
100
AcDbEntity
  8
3
 62
     0
370
    -2
100
AcDbLine
 10
8.638980966596726
 20
3.737502803082417
 30
0.0
 11
8.763980966596726
 21
3.737502803082417
 31
0.0
  0
LINE
  5
F9F
330
F99
100
AcDbEntity
  8
3
 62
     0
370
    -2
100
AcDbLine
 10
8.013980966596728
 20
3.737502803082417
 30
0.0
 11
7.888980966596727
 21
3.737502803082417
 31
0.0
  0
MTEXT
  5
FA0
330
F99
100
AcDbEntity
  8
3
 62
     0
100
AcDbMText
 10
8.326480966596726
 20
3.380002803082417
 30
0.0
 40
0.125
 41
0.0
 71
     5
 72
     1
  1
\A1;.38
  7
SIMPLEX
 73
     1
 44
1.0
1001
ACAD
1000
MTEXTBEGIN
1070
    73
1070
     1
1070
    44
1040
1.0
1070
    74
1070
     0
1000
MTEXTEND
  0
SOLID
  5
FA1
330
F99
100
AcDbEntity
  8
3
 62
     0
100
AcDbTrace
 10
8.638980966596726
 20
3.758336136415751
 30
0.0
 11
8.638980966596726
 21
3.716669469749084
 31
0.0
 12
8.513980966596726
 22
3.737502803082417
 32
0.0
 13
8.513980966596726
 23
3.737502803082417
 33
0.0
  0
SOLID
  5
FA2
330
F99
100
AcDbEntity
  8
3
 62
     0
100
AcDbTrace
 10
8.013980966596728
 20
3.758336136415751
 30
0.0
 11
8.013980966596728
 21
3.716669469749084
 31
0.0
 12
8.138980966596728
 22
3.737502803082417
 32
0.0
 13
8.138980966596728
 23
3.737502803082417
 33
0.0
  0
POINT
  5
FA3
330
F99
100
AcDbEntity
  8
DEFPOINTS
 62
     0
100
AcDbPoint
 10
8.513980966596726
 20
4.127998714550725
 30
0.0
  0
POINT
  5
FA4
330
F99
100
AcDbEntity
  8
DEFPOINTS
 62
     0
100
AcDbPoint
 10
8.138980966596728
 20
4.067998714550727
 30
0.0
  0
POINT
  5
FA5
330
F99
100
AcDbEntity
  8
DEFPOINTS
 62
     0
100
AcDbPoint
 10
8.138980966596728
 20
3.737502803082417
 30
0.0
  0
ENDBLK
  5
F9B
330
F99
100
AcDbEntity
  8
0
100
AcDbBlockEnd
  0
ENDSEC
  0
SECTION
  2
ENTITIES
  0
LINE
  5
2D
330
17
100
AcDbEntity
  8
0
100
AcDbLine
 10
5.030927540495335
 20
1.581522982138519
 30
0.0
 11
6.046907417275479
 21
1.581522982138519
 31
0.0
  0
LINE
  5
2E
330
17
100
AcDbEntity
  8
0
100
AcDbLine
 10
5.030927540495335
 20
1.698751429459288
 30
0.0
 11
6.046907417275479
 21
1.698751429459288
 31
0.0
  0
TEXT
  5
2F
330
17
100
AcDbEntity
  8
3
100
AcDbText
 10
5.061498189592095
 20
1.617010761484773
 30
0.0
 40
0.0495371109926942
  1
DIMENSIONS ARE IN INCHES
 41
0.9163641132346459
  7
SIMPLEX
 72
     5
 11
6.01477283611965
 21
1.617010761484773
 31
0.0
100
AcDbText
  0
TEXT
  5
31
330
17
100
AcDbEntity
  8
3
100
AcDbText
 10
5.061498189592095
 20
1.73724471124794
 30
0.0
 40
0.0495371109926942
  1
UNLESS OTHERWISE SPECIFIED
 41
0.8436671689696845
  7
SIMPLEX
 72
     5
 11
6.01477283611965
 21
1.73724471124794
 31
0.0
100
AcDbText
  0
LINE
  5
32
330
17
100
AcDbEntity
  8
0
100
AcDbLine
 10
5.030927540495335
 20
0.940730428956474
 30
0.0
 11
6.046907417275479
 21
0.940730428956474
 31
0.0
  0
LINE
  5
33
330
17
100
AcDbEntity
  8
0
100
AcDbLine
 10
5.030927540495335
 20
1.816000699999956
 30
0.0
 11
10.175
 21
1.816000699999956
 31
0.0
  0
LINE
  5
36
330
17
100
AcDbEntity
  8
4
100
AcDbLine
 10
11.05
 20
-0.0000000000000013
 30
0.0
 11
0.0
 21
0.0
 31
0.0
  0
LINE
  5
37
330
17
100
AcDbEntity
  8
4
100
AcDbLine
 10
10.175
 20
0.799999999999999
 30
0.0
 11
0.8750000000000001
 21
0.8
 31
0.0
  0
LINE
  5
38
330
17
100
AcDbEntity
  8
4
100
AcDbLine
 10
10.175
 20
7.699999999999997
 30
0.0
 11
0.8750000000000001
 21
7.699999999999997
 31
0.0
  0
LINE
  5
39
330
17
100
AcDbEntity
  8
4
100
AcDbLine
 10
0.0
 20
0.0
 30
0.0
 11
0.0000000000000002
 21
8.499999999999998
 31
0.0
  0
LINE
  5
3A
330
17
100
AcDbEntity
  8
4
100
AcDbLine
 10
0.8750000000000001
 20
0.8
 30
0.0
 11
0.8750000000000001
 21
7.699999999999997
 31
0.0
  0
LINE
  5
3F
330
17
100
AcDbEntity
  8
3
100
AcDbLine
 10
0.999508247262103
 20
1.971874999999999
 30
0.0
 11
0.8750000000000001
 21
1.971874999999999
 31
0.0
  0
TEXT
  5
40
330
17
100
AcDbEntity
  8
2
100
AcDbText
 10
0.9031253662046617
 20
2.65450903161502
 30
0.0
 40
0.078
  1
4
  7
SIMPLEX
 72
     1
 11
0.9309825090618046
 21
2.65450903161502
 31
0.0
100
AcDbText
  0
LINE
  5
41
330
17
100
AcDbEntity
  8
3
100
AcDbLine
 10
0.999508247262103
 20
3.403906249999999
 30
0.0
 11
0.8750000000000001
 21
3.403906249999999
 31
0.0
  0
TEXT
  5
42
330
17
100
AcDbEntity
  8
2
100
AcDbText
 10
0.9049825090618027
 20
4.030574231773566
 30
0.0
 40
0.078
  1
3
  7
SIMPLEX
 72
     1
 11
0.9309825090618028
 21
4.030574231773566
 31
0.0
100
AcDbText
  0
LINE
  5
43
330
17
100
AcDbEntity
  8
4
100
AcDbLine
 10
5.030927540495335
 20
1.816000699999956
 30
0.0
 11
5.030927540495335
 21
0.7999999999999563
 31
0.0
  0
TEXT
  5
4F
330
17
100
AcDbEntity
  8
3
100
AcDbText
 10
5.207290074512327
 20
0.9675806143738499
 30
0.0
 40
0.0618196890168171
  1
HOLES %%P .005
  7
SIMPLEX
 72
     1
 11
5.542882672032191
 21
0.9675806143738499
 31
0.0
100
AcDbText
  0
TEXT
  5
50
330
17
100
AcDbEntity
  8
3
100
AcDbText
 10
5.297950889448269
 20
0.8780150085737686
 30
0.0
 40
0.0420373885314357
  1
DO NOT SCALE
  7
SIMPLEX
 72
     1
 11
5.534160977386813
 21
0.8780150085737686
 31
0.0
100
AcDbText
  0
TEXT
  5
51
330
17
100
AcDbEntity
  8
3
100
AcDbText
 10
5.26191884213561
 20
0.8181221239476908
 30
0.0
 40
0.0420373885314357
  1
READ ALL NOTES
  7
SIMPLEX
 72
     1
 11
5.534160977386813
 21
0.8181221239476908
 31
0.0
100
AcDbText
  0
TEXT
  5
52
330
17
100
AcDbEntity
  8
3
100
AcDbText
 10
5.255862687311254
 20
1.487547199255823
 30
0.0
 40
0.0618196890168171
  1
TOLERANCES
  7
SIMPLEX
 72
     1
 11
5.542882672032191
 21
1.487547199255823
 31
0.0
100
AcDbText
  0
TEXT
  5
53
330
17
100
AcDbEntity
  8
3
100
AcDbText
 10
5.286772531819663
 20
1.391487053346329
 30
0.0
 40
0.0618196890168171
  1
.XX %%P .010
  7
SIMPLEX
 72
     1
 11
5.542882672032191
 21
1.391487053346329
 31
0.0
100
AcDbText
  0
TEXT
  5
54
330
17
100
AcDbEntity
  8
3
100
AcDbText
 10
5.214649561300043
 20
1.285510443603197
 30
0.0
 40
0.0618196890168171
  1
.XXX %%P .005 
  7
SIMPLEX
 72
     1
 11
5.542882672032191
 21
1.285510443603197
 31
0.0
100
AcDbText
  0
TEXT
  5
55
330
17
100
AcDbEntity
  8
3
100
AcDbText
 10
5.179324024719004
 20
1.073557224116978
 30
0.0
 40
0.0618196890168171
  1
ANGLES %%P 1/2%%D
  7
SIMPLEX
 72
     1
 11
5.542882672032191
 21
1.073557224116978
 31
0.0
100
AcDbText
  0
TEXT
  5
56
330
17
100
AcDbEntity
  8
3
100
AcDbText
 10
5.089538285908865
 20
1.17953383386011
 30
0.0
 40
0.0618196890168171
  1
FRACTIONS %%P 1/32
  7
SIMPLEX
 72
     1
 11
5.542882672032191
 21
1.17953383386011
 31
0.0
100
AcDbText
  0
LINE
  5
59
330
17
100
AcDbEntity
  8
3
100
AcDbLine
 10
0.999508247262103
 20
4.8359375
 30
0.0
 11
0.8750000000000001
 21
4.8359375
 31
0.0
  0
TEXT
  5
5A
330
17
100
AcDbEntity
  8
2
100
AcDbText
 10
0.9155696056437514
 20
5.457521318574992
 30
0.0
 40
0.078
  1
2
  7
SIMPLEX
 72
     1
 11
0.9415696056437516
 21
5.457521318574992
 31
0.0
100
AcDbText
  0
LINE
  5
5B
330
17
100
AcDbEntity
  8
3
100
AcDbLine
 10
0.999508247262103
 20
6.267968749999997
 30
0.0
 11
0.8750000000000001
 21
6.267968749999997
 31
0.0
  0
TEXT
  5
5C
330
17
100
AcDbEntity
  8
2
100
AcDbText
 10
0.9216967947760903
 20
6.896081873965396
 30
0.0
 40
0.078
  1
1
  7
SIMPLEX
 72
     1
 11
0.9309825090618046
 21
6.896081873965396
 31
0.0
100
AcDbText
  0
TEXT
  5
5D
330
17
100
AcDbEntity
  8
2
100
AcDbText
 10
1.846604119492712
 20
7.572559019520411
 30
0.0
 40
0.078
  1
A
  7
SIMPLEX
 72
     1
 11
1.876318405206997
 21
7.572559019520411
 31
0.0
100
AcDbText
  0
LINE
  5
5E
330
17
100
AcDbEntity
  8
3
100
AcDbLine
 10
2.632019757010883
 20
7.575126224606082
 30
0.0
 11
2.632019757010883
 21
7.7
 31
0.0
  0
TEXT
  5
5F
330
17
100
AcDbEntity
  8
2
100
AcDbText
 10
3.369640262201778
 20
7.572559019520411
 30
0.0
 40
0.078
  1
B
  7
SIMPLEX
 72
     1
 11
3.395640262201778
 21
7.572559019520411
 31
0.0
100
AcDbText
  0
LINE
  5
60
330
17
100
AcDbEntity
  8
3
100
AcDbLine
 10
4.140615805608705
 20
7.575126224606082
 30
0.0
 11
4.140615805608705
 21
7.7
 31
0.0
  0
TEXT
  5
61
330
17
100
AcDbEntity
  8
2
100
AcDbText
 10
4.843383484051793
 20
7.572559019520411
 30
0.0
 40
0.078
  1
C
  7
SIMPLEX
 72
     1
 11
4.871240626908936
 21
7.572559019520411
 31
0.0
100
AcDbText
  0
LINE
  5
62
330
17
100
AcDbEntity
  8
3
100
AcDbLine
 10
5.649211854206527
 20
7.575126224606082
 30
0.0
 11
5.649211854206527
 21
7.7
 31
0.0
  0
LINE
  5
63
330
17
100
AcDbEntity
  8
4
100
AcDbLine
 10
11.04999999999999
 20
8.5
 30
0.0
 11
11.05
 21
-0.0000000000000013
 31
0.0
  0
LINE
  5
64
330
17
100
AcDbEntity
  8
4
100
AcDbLine
 10
10.175
 20
7.699999999999997
 30
0.0
 11
10.175
 21
0.8000000000000005
 31
0.0
  0
TEXT
  5
65
330
17
100
AcDbEntity
  8
4
100
AcDbText
 10
9.385786919138793
 20
1.577369927989765
 30
0.0
 40
0.094
  1
inc., erie, pa.
  7
T
100
AcDbText
  0
TEXT
  5
67
330
17
100
AcDbEntity
  8
3
100
AcDbText
 10
9.604944096898279
 20
1.15613944390253
 30
0.0
 40
0.0390761491069264
  1
SCALE:
  7
SIMPLEX
100
AcDbText
  0
TEXT
  5
68
330
17
100
AcDbEntity
  8
3
100
AcDbText
 10
9.093640744210206
 20
0.8589523399345065
 30
0.0
 40
0.0875305739995151
  1
209.00
  7
SIMPLEX
 72
     1
 11
9.310383117923292
 21
0.8589523399345065
 31
0.0
100
AcDbText
  0
LINE
  5
69
330
17
100
AcDbEntity
  8
0
100
AcDbLine
 10
8.773484695253902
 20
1.088837136489871
 30
0.0
 11
10.175
 21
1.088837136489871
 31
0.0
  0
LINE
  5
6A
330
17
100
AcDbEntity
  8
0
100
AcDbLine
 10
6.046907417275437
 20
1.506851047390886
 30
0.0
 11
10.175
 21
1.506851047390886
 31
0.0
  0
LINE
  5
6B
330
17
100
AcDbEntity
  8
0
100
AcDbLine
 10
6.046907417275437
 20
1.268913789283077
 30
0.0
 11
10.175
 21
1.268913789283077
 31
0.0
  0
LWPOLYLINE
  5
6C
330
17
100
AcDbEntity
  8
4
  6
Continuous
 62
     4
100
AcDbPolyline
 90
      205
 70
     0
 43
0.0
 10
9.31357977936965
 20
1.711439166089895
 10
9.309674777331995
 20
1.715488797832639
 10
9.305480515884076
 20
1.719104540460119
 10
9.300707735615846
 20
1.722286393972285
 10
9.295645695937349
 20
1.725178988074275
 10
9.290294396848725
 20
1.727493063355868
 10
9.284798468054923
 20
1.72937324952215
 10
9.279013279850984
 20
1.730819546573125
 10
9.273083461941958
 20
1.731831954508831
 10
9.2670090143278
 20
1.73226584362414
 10
9.26093456671364
 20
1.732410473329229
 10
9.254860119099486
 20
1.732121213919053
 10
9.248785671485324
 20
1.731253435688435
 10
9.242855853576255
 20
1.72995176834255
 10
9.237070665372275
 20
1.728216211881355
 10
9.231574736578556
 20
1.726046766304895
 10
9.226223437489846
 20
1.723443431613081
 10
9.2221738057471
 20
1.720984726626399
 10
9.218413433414539
 20
1.718236762229542
 10
9.214797690787056
 20
1.71534416812755
 10
9.21147120756976
 20
1.712162314615384
 10
9.208289354057635
 20
1.708691201692995
 10
9.205396759955599
 20
1.704930829360429
 10
9.202648795558744
 20
1.701170457027864
 10
9.200334720277151
 20
1.697120825285078
 10
9.198165274700693
 20
1.692926563837203
 10
9.196285088534406
 20
1.688587672684239
 10
9.194838791483432
 20
1.684248781531274
 10
9.193681753842636
 20
1.67976526067322
 10
9.192813975612015
 20
1.675137110110035
 10
9.192235456791616
 20
1.670508959546894
 10
9.192090827086532
 20
1.66588080898371
 10
9.192380086496752
 20
1.66125265842057
 10
9.192524716201836
 20
1.658793953433889
 10
9.192813975612015
 20
1.656479878152295
 10
9.193103235022196
 20
1.654021173165616
 10
9.193681753842636
 20
1.651707097884024
 10
9.19454953207321
 20
1.649537652307521
 10
9.195561940008881
 20
1.647512836436149
 10
9.19715286676498
 20
1.645921909680044
 10
9.199033052931266
 20
1.64476487203929
 10
9.199900831161883
 20
1.64433098292398
 10
9.200768609392456
 20
1.644041723513758
 10
9.201781017328167
 20
1.644041723513758
 10
9.202648795558744
 20
1.644041723513758
 10
9.203661203494448
 20
1.644041723513758
 10
9.204673611430155
 20
1.64418635321889
 10
9.205830649070952
 20
1.64447561262907
 10
9.207132316416835
 20
1.644620242334158
 10
9.25008733883121
 20
1.652140986999331
 10
9.251967524997496
 20
1.652430246409509
 10
9.253992340868862
 20
1.652574876114599
 10
9.25587252703519
 20
1.65286413552482
 10
9.257897342906519
 20
1.65286413552482
 10
9.259777529072843
 20
1.653008765229909
 10
9.261802344944216
 20
1.653008765229909
 10
9.263682531110504
 20
1.65286413552482
 10
9.265707346981916
 20
1.652719505819731
 10
9.267587533148155
 20
1.652574876114599
 10
9.26961234901957
 20
1.652285616704421
 10
9.271492535185851
 20
1.6519963572942
 10
9.273372721352135
 20
1.651562468178934
 10
9.275252907518419
 20
1.651128579063624
 10
9.2771330936847
 20
1.650694689948315
 10
9.279013279850984
 20
1.650116171127916
 10
9.280748836312179
 20
1.64939302260243
 10
9.285087727465183
 20
1.64707894732084
 10
9.288703470092617
 20
1.64389709380867
 10
9.291306804784431
 20
1.640136721476106
 10
9.293186990950671
 20
1.63579783032314
 10
9.294199398886382
 20
1.631314309465088
 10
9.294344028591472
 20
1.626541529196814
 10
9.293765509771112
 20
1.621768748928543
 10
9.292319212720096
 20
1.616995968660269
 10
9.29087291566908
 20
1.613958744853188
 10
9.289281988913018
 20
1.6110661507512
 10
9.287257173041606
 20
1.608462816059429
 10
9.285087727465183
 20
1.606004111072748
 10
9.282773652183596
 20
1.603690035791156
 10
9.280170317491782
 20
1.601665219919784
 10
9.277277723389792
 20
1.59992966345859
 10
9.274385129287843
 20
1.598338736702529
 10
9.271347905480761
 20
1.5970370693566
 10
9.268310681673684
 20
1.596169291126025
 10
9.264984198456382
 20
1.595446142600539
 10
9.261802344944216
 20
1.595012253485229
 10
9.258620491432052
 20
1.59486762378014
 10
9.25529400821475
 20
1.595156883190318
 10
9.252112154702583
 20
1.595735402010715
 10
9.248930301190412
 20
1.596747809946423
 10
9.246326966498642
 20
1.597760217882129
 10
9.243868261511966
 20
1.598917255522884
 10
9.241409556525283
 20
1.600074293163681
 10
9.239095481243687
 20
1.601520590214695
 10
9.236781405962098
 20
1.602966887265669
 10
9.234611960385599
 20
1.604557814021774
 10
9.232587144514264
 20
1.606293370482968
 10
9.23041769893776
 20
1.60817355664925
 10
9.228537512771435
 20
1.610053742815534
 10
9.226657326605199
 20
1.611933928981819
 10
9.224777140438867
 20
1.613958744853188
 10
9.223041583977721
 20
1.616128190429694
 10
9.221306027516483
 20
1.618297636006154
 10
9.219715100760419
 20
1.620467081582658
 10
9.218124174004362
 20
1.622636527159118
 10
9.216677876953344
 20
1.62495060244071
 10
9.182256007139807
 20
1.60817355664925
 10
9.185003971536666
 20
1.603690035791156
 10
9.188185825048837
 20
1.599495774343282
 10
9.19165693797122
 20
1.595590772305626
 10
9.195417310303787
 20
1.592119659383239
 10
9.199466942046576
 20
1.588793176165983
 10
9.203805833199542
 20
1.585900582063993
 10
9.208433983762724
 20
1.583297247372223
 10
9.213062134325863
 20
1.581127801795718
 10
9.217979544299264
 20
1.579247615629436
 10
9.223041583977721
 20
1.577656688873371
 10
9.228248253361259
 20
1.576499651232578
 10
9.233454922744801
 20
1.57577650270709
 10
9.23866159212838
 20
1.57534261359178
 10
9.243868261511966
 20
1.57534261359178
 10
9.249074930895506
 20
1.575631873001958
 10
9.254281600279043
 20
1.576499651232578
 10
9.259488269662668
 20
1.577656688873371
 10
9.264550309341119
 20
1.579392245334524
 10
9.269323089609393
 20
1.581417061205939
 10
9.274095869877623
 20
1.58387576619262
 10
9.278579390735675
 20
1.586768360294609
 10
9.282918281888683
 20
1.589950213806779
 10
9.286823283926334
 20
1.593421326729123
 10
9.290583656258903
 20
1.597181699061732
 10
9.294054769181286
 20
1.601231330804474
 10
9.297091992988367
 20
1.60557022195744
 10
9.299839957385273
 20
1.610053742815534
 10
9.302298662371908
 20
1.614826523083809
 10
9.304178848538192
 20
1.619743933057169
 10
9.305769775294296
 20
1.62480597273562
 10
9.306926812935095
 20
1.630012642119161
 10
9.307505331755493
 20
1.635219311502743
 10
9.30779459116567
 20
1.63926894324553
 10
9.30764996146058
 20
1.643318574988273
 10
9.307216072345315
 20
1.64736820673106
 10
9.306492923819778
 20
1.651273208768714
 10
9.30533588617899
 20
1.655178210806413
 10
9.303889589128015
 20
1.658938583138976
 10
9.302154032666823
 20
1.662554325766454
 10
9.29998458709036
 20
1.6660254386888
 10
9.298249030629124
 20
1.668194884265303
 10
9.296368844462882
 20
1.670364329841764
 10
9.294344028591472
 20
1.67224451600809
 10
9.292174583015011
 20
1.673835442764153
 10
9.289715878028282
 20
1.675426369520256
 10
9.287257173041606
 20
1.676872666571232
 10
9.284653838349836
 20
1.678029704212026
 10
9.282050503658062
 20
1.679186741852824
 10
9.279302539261202
 20
1.680054520083399
 10
9.276554574864302
 20
1.680922298314016
 10
9.273661980762316
 20
1.681645446839504
 10
9.270769386660363
 20
1.682223965659901
 10
9.267876792558377
 20
1.682657854775211
 10
9.264984198456382
 20
1.682947114185389
 10
9.262091604354438
 20
1.683236373595565
 10
9.259343639957537
 20
1.683381003300699
 10
9.257608083496343
 20
1.683381003300699
 10
9.255727897330059
 20
1.683381003300699
 10
9.253992340868862
 20
1.683381003300699
 10
9.252256784407716
 20
1.683236373595565
 10
9.250521227946482
 20
1.683091743890478
 10
9.248785671485324
 20
1.682947114185389
 10
9.247050115024132
 20
1.682802484480301
 10
9.245314558562938
 20
1.68251322507008
 10
9.243434372396656
 20
1.682223965659901
 10
9.24169881593546
 20
1.681934706249682
 10
9.239963259474267
 20
1.681645446839504
 10
9.238227703013071
 20
1.681500817134416
 10
9.23649214655192
 20
1.681211557724195
 10
9.234756590090723
 20
1.680922298314016
 10
9.232876403924443
 20
1.680633038903798
 10
9.231140847463253
 20
1.68034377949362
 10
9.20525213025051
 20
1.673980072469241
 10
9.204818241135246
 20
1.67643877745592
 10
9.205107500545423
 20
1.680199149788531
 10
9.205975278776042
 20
1.684827300351673
 10
9.207710835237193
 20
1.690033969735253
 10
9.209880280813695
 20
1.695240639118793
 10
9.212772874915684
 20
1.700158049092155
 10
9.216243987838034
 20
1.704207680834944
 10
9.220148989875733
 20
1.707244904642021
 10
9.223620102798076
 20
1.708835831398085
 10
9.227235845425553
 20
1.71013749874401
 10
9.230996217758116
 20
1.710860647269498
 10
9.234901219795821
 20
1.711439166089895
 10
9.238806221833515
 20
1.711583795794985
 10
9.242855853576255
 20
1.711294536384764
 10
9.246760855613914
 20
1.710860647269498
 10
9.250665857651608
 20
1.709992869038879
 10
9.254570859689263
 20
1.708835831398085
 10
9.25818660231674
 20
1.707389534347111
 10
9.261657715239087
 20
1.705653977885917
 10
9.264984198456382
 20
1.703773791719632
 10
9.268021422263462
 20
1.701604346143174
 10
9.270914016365452
 20
1.699145641156492
 10
9.273372721352135
 20
1.696542306464678
 10
9.275397537223547
 20
1.69379434206782
 10
9.31357977936965
 20
1.711439166089895
  0
LWPOLYLINE
  5
13B
330
17
100
AcDbEntity
  8
4
  6
Continuous
100
AcDbPolyline
 90
       21
 70
     0
 43
0.0
 10
8.913785433678865
 20
1.697843973810563
 10
8.913351544563514
 20
1.693360452952511
 10
8.912049877217629
 20
1.689166191504638
 10
8.910025061346257
 20
1.685550448877159
 10
8.907277096949352
 20
1.682368595364992
 10
8.903950613732142
 20
1.67976526067322
 10
8.900190241399535
 20
1.67788507450694
 10
8.896140609656747
 20
1.676728036866141
 10
8.891801718503824
 20
1.676294147750834
 10
8.862731147778918
 20
1.676294147750834
 10
8.862731147778918
 20
1.713463981961269
 10
8.8596939239718
 20
1.720550837511135
 10
8.89223560761909
 20
1.720550837511135
 10
8.896719128477187
 20
1.720116948395823
 10
8.900768760219929
 20
1.718815281049939
 10
8.904384502847404
 20
1.716790465178524
 10
8.907566356359618
 20
1.714042500781665
 10
8.91016969105139
 20
1.710571387859278
 10
8.912049877217629
 20
1.706811015526713
 10
8.913351544563514
 20
1.702472124373747
 10
8.913785433678865
 20
1.697843973810563
  0
LWPOLYLINE
  5
152
330
17
100
AcDbEntity
  8
4
  6
Continuous
100
AcDbPolyline
 90
       61
 70
     0
 43
0.0
 10
8.914508582204312
 20
1.665157660458224
 10
8.918702843652226
 20
1.665446919868401
 10
8.922752475394972
 20
1.6660254386888
 10
8.926368218022448
 20
1.66689321691942
 10
8.929694701239702
 20
1.668050254560215
 10
8.932587295341697
 20
1.669496551611189
 10
8.935335259738554
 20
1.671087478367294
 10
8.937793964725234
 20
1.672967664533576
 10
8.939963410301738
 20
1.675137110110035
 10
8.941843596468064
 20
1.677451185391628
 10
8.943434523224127
 20
1.67990989037831
 10
8.944736190570015
 20
1.68251322507008
 10
8.945748598505716
 20
1.685405819172069
 10
8.946616376736292
 20
1.688298413274061
 10
8.947194895556695
 20
1.691335637081138
 10
8.947484154966867
 20
1.694517490593308
 10
8.947628784671998
 20
1.697843973810563
 10
8.947484154966867
 20
1.700881197617643
 10
8.946905636146517
 20
1.703918421424723
 10
8.946182487620982
 20
1.706811015526713
 10
8.945025449980192
 20
1.709703609628704
 10
8.943723782634304
 20
1.71245157402556
 10
8.941988226173148
 20
1.715054908717375
 10
8.940252669711917
 20
1.717513613704054
 10
8.938083224135453
 20
1.719827688985605
 10
8.935913778558994
 20
1.72185250485702
 10
8.933455073572309
 20
1.7237326910233
 10
8.930851738880543
 20
1.725323617779364
 10
8.92810377448364
 20
1.726769914830381
 10
8.925355810086742
 20
1.727926952471175
 10
8.922463215984793
 20
1.728650100996664
 10
8.919425992177668
 20
1.729228619817063
 10
8.916388768370634
 20
1.72937324952215
 10
8.815003345096274
 20
1.72937324952215
 10
8.816449642147247
 20
1.728216211881355
 10
8.817751309493132
 20
1.727059174240558
 10
8.819052976839017
 20
1.725757506894673
 10
8.820210014479814
 20
1.724600469253878
 10
8.821367052120612
 20
1.723443431613081
 10
8.822524089761403
 20
1.721997134562109
 10
8.823536497697114
 20
1.720550837511135
 10
8.824548905632777
 20
1.718815281049939
 10
8.825995202683794
 20
1.71563342753777
 10
8.82715224032459
 20
1.711873055205163
 10
8.827875388850035
 20
1.708257312577686
 10
8.828164648260255
 20
1.705364718475738
 10
8.828309277965383
 20
1.57534261359178
 10
8.863165036894187
 20
1.605859481367659
 10
8.863165036894187
 20
1.666170068393933
 10
8.878495785634713
 20
1.666314698099021
 10
8.930707109175411
 20
1.579826134449833
 10
8.975686947461156
 20
1.579536875039655
 10
8.972938983064299
 20
1.581127801795718
 10
8.970191018667437
 20
1.583007987962003
 10
8.967587683975667
 20
1.584888174128328
 10
8.965128978988987
 20
1.587057619704788
 10
8.962670274002306
 20
1.589082435576159
 10
8.960356198720715
 20
1.591396510857753
 10
8.958042123439122
 20
1.593710586139343
 10
8.955728048157531
 20
1.596169291126025
 10
8.914508582204312
 20
1.665157660458224
  0
LWPOLYLINE
  5
191
330
17
100
AcDbEntity
  8
4
  6
Continuous
100
AcDbPolyline
 90
      205
 70
     0
 43
0.0
 10
8.651456341485435
 20
1.71245157402556
 10
8.64755133944778
 20
1.716501205768349
 10
8.643357077999905
 20
1.720261578100914
 10
8.638584297731632
 20
1.723443431613081
 10
8.633522258053181
 20
1.726191396009983
 10
8.628170958964512
 20
1.728505471291574
 10
8.622675030170752
 20
1.730385657457856
 10
8.616745212261726
 20
1.731831954508831
 10
8.610815394352659
 20
1.73284436244454
 10
8.604885576443585
 20
1.733422881264938
 10
8.598811128829431
 20
1.733567510970025
 10
8.592592051510184
 20
1.733133621854715
 10
8.586662233601114
 20
1.732410473329229
 10
8.580732415692043
 20
1.731108805983343
 10
8.574947227488106
 20
1.72937324952215
 10
8.56945129869435
 20
1.727059174240558
 10
8.564099999605719
 20
1.724455839548789
 10
8.560050367862887
 20
1.721997134562109
 10
8.556289995530324
 20
1.719393799870339
 10
8.552674252902846
 20
1.71635657606326
 10
8.549347769685589
 20
1.71317472255109
 10
8.546165916173421
 20
1.709703609628704
 10
8.543273322071478
 20
1.706087867001226
 10
8.54066998737966
 20
1.702182864963571
 10
8.538211282392976
 20
1.698133233220785
 10
8.536186466521606
 20
1.694083601477996
 10
8.534306280355284
 20
1.689744710325034
 10
8.532859983304309
 20
1.685261189466983
 10
8.531702945663511
 20
1.680777668608928
 10
8.530835167432936
 20
1.676294147750834
 10
8.530401278317629
 20
1.671665997187693
 10
8.530112018907452
 20
1.66689321691942
 10
8.530401278317629
 20
1.662265066356234
 10
8.530545908022716
 20
1.659950991074643
 10
8.530835167432936
 20
1.657492286087959
 10
8.531124426843156
 20
1.655178210806413
 10
8.531702945663511
 20
1.65286413552482
 10
8.532426094189045
 20
1.650694689948315
 10
8.533583131829839
 20
1.648669874076944
 10
8.535029428880815
 20
1.64707894732084
 10
8.536909615047097
 20
1.645921909680044
 10
8.537777393277671
 20
1.645488020564777
 10
8.538645171508289
 20
1.645198761154554
 10
8.539657579443996
 20
1.645054131449468
 10
8.540525357674527
 20
1.645054131449468
 10
8.54153776561024
 20
1.645198761154554
 10
8.542550173545944
 20
1.645198761154554
 10
8.543562581481655
 20
1.645488020564777
 10
8.544864248827536
 20
1.645632650269865
 10
8.587819271241905
 20
1.653153394934998
 10
8.589699457408237
 20
1.653442654345216
 10
8.591724273279567
 20
1.653731913755396
 10
8.593604459445892
 20
1.653876543460484
 10
8.595629275317262
 20
1.654021173165616
 10
8.597509461483543
 20
1.654021173165616
 10
8.599534277354957
 20
1.654021173165616
 10
8.601414463521201
 20
1.654021173165616
 10
8.60343927939261
 20
1.653876543460484
 10
8.605319465558856
 20
1.653731913755396
 10
8.607344281430272
 20
1.653442654345216
 10
8.609224467596551
 20
1.653153394934998
 10
8.611104653762836
 20
1.652719505819731
 10
8.613129469634252
 20
1.652285616704421
 10
8.615009655800529
 20
1.651707097884024
 10
8.616745212261726
 20
1.651128579063624
 10
8.618625398427964
 20
1.650405430538139
 10
8.622964289580972
 20
1.648091355256545
 10
8.626435402503362
 20
1.644909501744379
 10
8.629183366900218
 20
1.641149129411813
 10
8.630918923361374
 20
1.636954867963938
 10
8.631931331297082
 20
1.632326717400753
 10
8.6322205907073
 20
1.627553937132478
 10
8.631642071886901
 20
1.62278115686425
 10
8.630195774835929
 20
1.618153006301065
 10
8.628749477784952
 20
1.615115782493985
 10
8.627158551028808
 20
1.612223188391995
 10
8.625133735157476
 20
1.609619853700225
 10
8.622964289580972
 20
1.607161148713544
 10
8.620505584594294
 20
1.604847073431954
 10
8.617902249902524
 20
1.602822257560581
 10
8.615154285505621
 20
1.601086701099385
 10
8.612261691403631
 20
1.599495774343282
 10
8.609224467596551
 20
1.598194106997395
 10
8.606042614084383
 20
1.597181699061732
 10
8.602860760572214
 20
1.596458550536203
 10
8.599678907060049
 20
1.596169291126025
 10
8.596352423842747
 20
1.596024661420934
 10
8.593025940625445
 20
1.596313920831114
 10
8.589844087113322
 20
1.59689243965151
 10
8.586662233601114
 20
1.597760217882129
 10
8.584058898909347
 20
1.598772625817793
 10
8.581600193922664
 20
1.59992966345859
 10
8.579286118641071
 20
1.601086701099385
 10
8.576972043359475
 20
1.602532998150359
 10
8.574657968077929
 20
1.603979295201376
 10
8.572488522501425
 20
1.605714851662571
 10
8.570319076924967
 20
1.607305778418635
 10
8.56829426105355
 20
1.609185964584917
 10
8.566414074887266
 20
1.6110661507512
 10
8.564389259015896
 20
1.613090966622612
 10
8.562653702554701
 20
1.615115782493985
 10
8.560918146093509
 20
1.617140598365359
 10
8.55918258963236
 20
1.61931004394186
 10
8.557591662876253
 20
1.621624119223453
 10
8.556000736120147
 20
1.623793564799913
 10
8.554554439069171
 20
1.626107640081505
 10
8.520277198960723
 20
1.609185964584917
 10
8.523025163357587
 20
1.604702443726864
 10
8.526207016869797
 20
1.600652811984076
 10
8.529678129792136
 20
1.596747809946423
 10
8.533438502124706
 20
1.593132067318946
 10
8.537488133867494
 20
1.589950213806779
 10
8.541827025020458
 20
1.587057619704788
 10
8.546310545878508
 20
1.584454285013019
 10
8.551083326146784
 20
1.582284839436514
 10
8.556000736120147
 20
1.580404653270232
 10
8.560918146093509
 20
1.578813726514169
 10
8.566124815477046
 20
1.577656688873371
 10
8.571331484860627
 20
1.576788910642755
 10
8.576538154244211
 20
1.576355021527489
 10
8.581744823627751
 20
1.576355021527489
 10
8.586951493011332
 20
1.576788910642755
 10
8.592158162394872
 20
1.57751205916824
 10
8.597364831778456
 20
1.578813726514169
 10
8.602426871456906
 20
1.580404653270232
 10
8.607199651725178
 20
1.582429469141646
 10
8.611972431993454
 20
1.585032803833416
 10
8.616455952851504
 20
1.587780768230274
 10
8.620650214299384
 20
1.590962621742443
 10
8.624699846042121
 20
1.594433734664831
 10
8.628460218374737
 20
1.598338736702529
 10
8.631786701591988
 20
1.60238836844527
 10
8.634968555104201
 20
1.606582629893147
 10
8.637716519501058
 20
1.611210780456331
 10
8.640030594782651
 20
1.61598356072456
 10
8.642055410654021
 20
1.620756340992834
 10
8.643646337410128
 20
1.625818380671329
 10
8.644803375050923
 20
1.631025050054868
 10
8.645381893871277
 20
1.636376349143541
 10
8.645526523576371
 20
1.640425980886284
 10
8.645381893871277
 20
1.64447561262907
 10
8.644948004756013
 20
1.648380614666725
 10
8.644224856230481
 20
1.652430246409509
 10
8.643067818589727
 20
1.656190618742075
 10
8.641766151243801
 20
1.659950991074643
 10
8.640030594782651
 20
1.663566733702118
 10
8.637861149206152
 20
1.667037846624505
 10
8.636125592744999
 20
1.6693519219061
 10
8.634245406578671
 20
1.67137673777747
 10
8.6322205907073
 20
1.673256923943755
 10
8.629906515425709
 20
1.67499248040495
 10
8.627592440144159
 20
1.676583407161053
 10
8.625133735157476
 20
1.67788507450694
 10
8.622530400465661
 20
1.679186741852824
 10
8.619782436068764
 20
1.680199149788531
 10
8.617034471671901
 20
1.681211557724195
 10
8.614286507275046
 20
1.681934706249682
 10
8.611393913173056
 20
1.682657854775211
 10
8.60864594877615
 20
1.683236373595565
 10
8.605753354674206
 20
1.683670262710878
 10
8.602860760572214
 20
1.683959522121098
 10
8.59996816647023
 20
1.684248781531274
 10
8.597220202073366
 20
1.684393411236363
 10
8.595484645612168
 20
1.684538040941494
 10
8.593604459445892
 20
1.684538040941494
 10
8.591868902984696
 20
1.684393411236363
 10
8.590133346523504
 20
1.684393411236363
 10
8.588397790062307
 20
1.684248781531274
 10
8.586517603896023
 20
1.684104151826186
 10
8.584782047434874
 20
1.683814892415965
 10
8.583046490973636
 20
1.683670262710878
 10
8.581310934512483
 20
1.683381003300699
 10
8.579575378051249
 20
1.683091743890478
 10
8.577695191885009
 20
1.682802484480301
 10
8.575959635423814
 20
1.68251322507008
 10
8.574224078962622
 20
1.682223965659901
 10
8.572488522501425
 20
1.681934706249682
 10
8.570608336335144
 20
1.681645446839504
 10
8.568872779873951
 20
1.681356187429285
 10
8.543128692366343
 20
1.675137110110035
 10
8.542550173545944
 20
1.677595815096719
 10
8.542839432956121
 20
1.681356187429285
 10
8.543851840891829
 20
1.685984337992469
 10
8.545442767647934
 20
1.69119100737605
 10
8.547756842929484
 20
1.69639767675959
 10
8.55064943703152
 20
1.701315086732953
 10
8.553975920248772
 20
1.705364718475738
 10
8.557880922286427
 20
1.708401942282819
 10
8.561352035208816
 20
1.709992869038879
 10
8.564967777836251
 20
1.711149906679675
 10
8.568728150168857
 20
1.712017684910295
 10
8.572633152206559
 20
1.71245157402556
 10
8.576538154244211
 20
1.712596203730694
 10
8.580587785986956
 20
1.71245157402556
 10
8.584492788024611
 20
1.711873055205163
 10
8.588397790062307
 20
1.711005276974589
 10
8.592302792100007
 20
1.709848239333791
 10
8.595918534727484
 20
1.708401942282819
 10
8.599534277354957
 20
1.706811015526713
 10
8.602860760572214
 20
1.704930829360429
 10
8.605897984379296
 20
1.702761383783926
 10
8.60864594877615
 20
1.700302678797245
 10
8.611104653762836
 20
1.697699344105474
 10
8.613274099339339
 20
1.694951379708617
 10
8.651456341485435
 20
1.71245157402556
  0
LWPOLYLINE
  5
260
330
17
100
AcDbEntity
  8
4
  6
Continuous
100
AcDbPolyline
 90
      133
 70
     0
 43
0.0
 10
8.684411380195115
 20
1.722575653382505
 10
8.681952675208439
 20
1.719972318690735
 10
8.679638599926843
 20
1.716935094883655
 10
8.677613784055472
 20
1.713753241371446
 10
8.67544433847901
 20
1.710426758154189
 10
8.673274892902508
 20
1.707244904642021
 10
8.670960817620915
 20
1.704063051129853
 10
8.668646742339323
 20
1.701170457027864
 10
8.665898777942462
 20
1.698711752041183
 10
8.664886370006755
 20
1.697988603515694
 10
8.663873962071049
 20
1.697265454990167
 10
8.662861554135343
 20
1.696542306464678
 10
8.661849146199678
 20
1.695819157939193
 10
8.660836738264011
 20
1.695096009413705
 10
8.659679700623218
 20
1.694372860888218
 10
8.658522662982424
 20
1.693649712362732
 10
8.657076365931406
 20
1.692926563837203
 10
8.709576948882368
 20
1.692926563837203
 10
8.707262873600775
 20
1.691046377670919
 10
8.705093428024268
 20
1.689166191504638
 10
8.703068612152858
 20
1.687286005338354
 10
8.701043796281531
 20
1.685261189466983
 10
8.699163610115203
 20
1.683091743890478
 10
8.697283423948919
 20
1.680922298314016
 10
8.695547867487725
 20
1.678752852737515
 10
8.693956940731659
 20
1.67643877745592
 10
8.692221384270425
 20
1.673980072469241
 10
8.690775087219451
 20
1.67137673777747
 10
8.689328790168481
 20
1.668628773380613
 10
8.687882493117506
 20
1.66588080898371
 10
8.686436196066534
 20
1.662843585176631
 10
8.685134528720602
 20
1.659806361369554
 10
8.683832861374717
 20
1.656479878152295
 10
8.682675823733918
 20
1.653008765229909
 10
8.68065100786255
 20
1.645343390859645
 10
8.679493970221752
 20
1.637678016489424
 10
8.679349340516669
 20
1.62986801241407
 10
8.68007248904211
 20
1.622058008338719
 10
8.681663415798261
 20
1.614537263673589
 10
8.684266750490028
 20
1.607161148713544
 10
8.687593233707326
 20
1.60021892286881
 10
8.691932124860247
 20
1.593855215844433
 10
8.694101570436753
 20
1.591251881152663
 10
8.696560275423433
 20
1.588793176165983
 10
8.699308239820293
 20
1.586334471179299
 10
8.702345463627413
 20
1.584165025602798
 10
8.705382687434447
 20
1.581995580026338
 10
8.708709170651751
 20
1.579970764154921
 10
8.712180283574138
 20
1.578235207693771
 10
8.715796026201616
 20
1.576644280937665
 10
8.71941176882909
 20
1.57519798388669
 10
8.723172141161658
 20
1.573896316540808
 10
8.726787883789132
 20
1.5728839086051
 10
8.7305482561217
 20
1.572160760079611
 10
8.734308628454268
 20
1.571582241259215
 10
8.737924371081742
 20
1.571437611554084
 10
8.74154011370922
 20
1.571437611554084
 10
8.745011226631563
 20
1.571726870964304
 10
8.74935011778453
 20
1.572450019489791
 10
8.753689008937538
 20
1.57331779772041
 10
8.757883270385367
 20
1.574474835361205
 10
8.761932902128112
 20
1.57592113241218
 10
8.765982533870943
 20
1.57751205916824
 10
8.769742906203507
 20
1.579392245334524
 10
8.773503278536072
 20
1.581561690911028
 10
8.776829761753326
 20
1.584020395897709
 10
8.780156244970587
 20
1.586768360294609
 10
8.78304883907262
 20
1.589660954396558
 10
8.78579680346948
 20
1.592842807908767
 10
8.78825550845616
 20
1.596313920831114
 10
8.790424954032662
 20
1.600074293163681
 10
8.792160510493815
 20
1.603979295201376
 10
8.793606807544787
 20
1.60831818635434
 10
8.794763845185585
 20
1.612801707212395
 10
8.79158199167346
 20
1.610053742815534
 10
8.78825550845616
 20
1.607595037828853
 10
8.784639765828682
 20
1.605280962547261
 10
8.781024023201204
 20
1.603400776380979
 10
8.77726365086864
 20
1.601665219919784
 10
8.773358648830985
 20
1.60021892286881
 10
8.769309017088199
 20
1.599061885228015
 10
8.765259385345412
 20
1.598194106997395
 10
8.761209753602667
 20
1.597615588176999
 10
8.757015492154792
 20
1.59747095847191
 10
8.752965860412007
 20
1.59747095847191
 10
8.748916228669266
 20
1.597904847587217
 10
8.744866596926476
 20
1.598627996112706
 10
8.740961594888776
 20
1.599785033753502
 10
8.737056592851125
 20
1.601231330804474
 10
8.733296220518557
 20
1.602966887265669
 10
8.729680477891081
 20
1.605280962547261
 10
8.726353994673782
 20
1.607739667533943
 10
8.723316770866745
 20
1.610632261635934
 10
8.720424176764757
 20
1.613669485443013
 10
8.717965471778075
 20
1.617140598365359
 10
8.715651396496481
 20
1.620611711287745
 10
8.7137712103302
 20
1.624372083620311
 10
8.712035653869005
 20
1.62827708565801
 10
8.71058935681799
 20
1.632326717400753
 10
8.709576948882368
 20
1.636376349143541
 10
8.708709170651751
 20
1.640570610591415
 10
8.708130651831311
 20
1.644909501744379
 10
8.70784139242113
 20
1.649103763192254
 10
8.70784139242113
 20
1.653442654345216
 10
8.708130651831311
 20
1.65778154549818
 10
8.708709170651751
 20
1.661975806946055
 10
8.710300097407813
 20
1.66689321691942
 10
8.712035653869005
 20
1.67123210807238
 10
8.713915840035287
 20
1.675281739815126
 10
8.716085285611793
 20
1.679042112147735
 10
8.718399360893386
 20
1.682657854775211
 10
8.721147325290242
 20
1.685984337992469
 10
8.724329178802456
 20
1.689455450914858
 10
8.72794492142993
 20
1.692781934132113
 10
8.755424565398687
 20
1.692781934132113
 10
8.757015492154792
 20
1.692781934132113
 10
8.758895678321076
 20
1.693071193542333
 10
8.760920494192447
 20
1.693360452952511
 10
8.76294531006382
 20
1.69393897177291
 10
8.764970125935231
 20
1.694517490593308
 10
8.766705682396388
 20
1.695385268823884
 10
8.768296609152535
 20
1.696253047054502
 10
8.769453646793285
 20
1.697410084695297
 10
8.795776253121292
 20
1.72951787922724
 10
8.700899166576396
 20
1.72951787922724
 10
8.698151202179499
 20
1.72937324952215
 10
8.695837126897902
 20
1.729228619817063
 10
8.693667681321441
 20
1.728794730701753
 10
8.691787495155161
 20
1.728071582176266
 10
8.689907308988876
 20
1.727203803945648
 10
8.688171752527683
 20
1.726046766304895
 10
8.686291566361401
 20
1.724455839548789
 10
8.684411380195115
 20
1.722575653382505
  0
LWPOLYLINE
  5
2E7
330
17
100
AcDbEntity
  8
4
  6
Continuous
100
AcDbPolyline
 90
      138
 70
     0
 43
0.0
 10
8.458797282318855
 20
1.72951787922724
 10
8.461834506125931
 20
1.72734843365078
 10
8.464293211112611
 20
1.724889728664098
 10
8.466318026983984
 20
1.722141764267196
 10
8.467764324034959
 20
1.719249170165206
 10
8.468921361675757
 20
1.716211946358128
 10
8.469644510201288
 20
1.713030092845959
 10
8.470078399316552
 20
1.709558979923613
 10
8.470223029021642
 20
1.705943237296136
 10
8.470223029021642
 20
1.597326328766821
 10
8.467619694329872
 20
1.597326328766821
 10
8.465016359638099
 20
1.59747095847191
 10
8.462413024946329
 20
1.597760217882129
 10
8.459954319959649
 20
1.598194106997395
 10
8.457350985267879
 20
1.598772625817793
 10
8.4548922802812
 20
1.599495774343282
 10
8.452433575294515
 20
1.600363552573899
 10
8.450119500012924
 20
1.601231330804474
 10
8.447660795026244
 20
1.60238836844527
 10
8.445346719744655
 20
1.603545406086069
 10
8.443177274168148
 20
1.604847073431954
 10
8.441007828591686
 20
1.606293370482968
 10
8.438838383015188
 20
1.607884297239032
 10
8.436668937438721
 20
1.609475223995138
 10
8.434644121567313
 20
1.611210780456331
 10
8.432763935401068
 20
1.612946336917484
 10
8.429437452183773
 20
1.61627282013478
 10
8.426400228376692
 20
1.61988856276226
 10
8.423652263979793
 20
1.623648935094825
 10
8.42119355899311
 20
1.62769856683761
 10
8.419024113416647
 20
1.631892828285444
 10
8.417288556955451
 20
1.63608708973332
 10
8.415842259904477
 20
1.640570610591415
 10
8.414829851968772
 20
1.645054131449468
 10
8.414251333148374
 20
1.649248392897341
 10
8.413817444033067
 20
1.653442654345216
 10
8.413817444033067
 20
1.65778154549818
 10
8.414106703443245
 20
1.661975806946055
 10
8.414685222263683
 20
1.666170068393933
 10
8.415553000494258
 20
1.670364329841764
 10
8.416854667840187
 20
1.674413961584551
 10
8.41859022430134
 20
1.678318963622248
 10
8.419891891647225
 20
1.680777668608928
 10
8.42119355899311
 20
1.683236373595565
 10
8.422495226338995
 20
1.685550448877159
 10
8.423941523390007
 20
1.687864524158752
 10
8.425243190735898
 20
1.690178599440343
 10
8.42668948778691
 20
1.692348045016804
 10
8.428280414542975
 20
1.694517490593308
 10
8.429871341299037
 20
1.696542306464678
 10
8.431462268055183
 20
1.698711752041183
 10
8.433053194811247
 20
1.700736567912555
 10
8.4347887512724
 20
1.702761383783926
 10
8.436524307733638
 20
1.70478619965534
 10
8.438404493899877
 20
1.706666385821622
 10
8.4402846800662
 20
1.708691201692995
 10
8.442164866232442
 20
1.710571387859278
 10
8.444189682103857
 20
1.712596203730694
 10
8.445925238565049
 20
1.714621019602065
 10
8.447082276205803
 20
1.716790465178524
 10
8.447805424731331
 20
1.718959910755029
 10
8.447950054436422
 20
1.721129356331533
 10
8.447805424731331
 20
1.723298801907994
 10
8.447371535616067
 20
1.725468247484496
 10
8.446648387090537
 20
1.727493063355868
 10
8.445635979154829
 20
1.72951787922724
 10
8.393713915024347
 20
1.72951787922724
 10
8.394870952665147
 20
1.728505471291574
 10
8.396027990305945
 20
1.727493063355868
 10
8.397185027946697
 20
1.726480655420159
 10
8.398342065587495
 20
1.725323617779364
 10
8.399354473523157
 20
1.72416658013861
 10
8.400366881458865
 20
1.722864912792684
 10
8.401234659689482
 20
1.721563245446799
 10
8.40210243792006
 20
1.720261578100914
 10
8.403837994381252
 20
1.71635657606326
 10
8.404705772611871
 20
1.712162314615384
 10
8.404705772611871
 20
1.707823423462419
 10
8.404127253791433
 20
1.703484532309456
 10
8.402970216150638
 20
1.698856381746271
 10
8.401090029984393
 20
1.694372860888218
 10
8.398920584407891
 20
1.690178599440343
 10
8.39646187942121
 20
1.686128967697558
 10
8.393858544729441
 20
1.682079335954813
 10
8.39111058033254
 20
1.678174333917116
 10
8.388362615935637
 20
1.674124702174371
 10
8.385903910948957
 20
1.670075070431585
 10
8.383879095077627
 20
1.6660254386888
 10
8.382143538616389
 20
1.661975806946055
 10
8.380841871270504
 20
1.657636915793093
 10
8.3798294633348
 20
1.653298024640085
 10
8.379250944514442
 20
1.648959133487123
 10
8.378961685104265
 20
1.64447561262907
 10
8.378961685104265
 20
1.639992091771015
 10
8.379395574219531
 20
1.63550857091292
 10
8.37997409303993
 20
1.632615976810973
 10
8.380552611860327
 20
1.629723382708983
 10
8.381420390090946
 20
1.626830788606993
 10
8.382432798026611
 20
1.624082824210135
 10
8.383589835667407
 20
1.621334859813233
 10
8.384891503013289
 20
1.618731525121464
 10
8.386193170359177
 20
1.61598356072456
 10
8.387784097115281
 20
1.613524855737879
 10
8.389375023871345
 20
1.6110661507512
 10
8.39111058033254
 20
1.608607445764518
 10
8.392990766498822
 20
1.606293370482968
 10
8.395015582370236
 20
1.603979295201376
 10
8.397040398241607
 20
1.601809849624874
 10
8.399065214112976
 20
1.599640404048414
 10
8.401234659689482
 20
1.597615588176999
 10
8.403548734971073
 20
1.595735402010715
 10
8.406152069662839
 20
1.593710586139343
 10
8.409044663764792
 20
1.591830399973061
 10
8.411937257866826
 20
1.590094843511868
 10
8.414974481673862
 20
1.588503916755763
 10
8.418156335186072
 20
1.587057619704788
 10
8.421338188698197
 20
1.585755952358903
 10
8.4246646719155
 20
1.584454285013019
 10
8.427991155132797
 20
1.583441877077309
 10
8.43131763835005
 20
1.582574098846736
 10
8.434644121567313
 20
1.581706320616115
 10
8.438115234489696
 20
1.580983172090629
 10
8.441586347412087
 20
1.580549282975321
 10
8.444912830629339
 20
1.580115393860054
 10
8.448383943551732
 20
1.579826134449833
 10
8.45171042676899
 20
1.579536875039655
 10
8.455036909986286
 20
1.579536875039655
 10
8.503487861194424
 20
1.579536875039655
 10
8.503487861194424
 20
1.711294536384764
 10
8.503487861194424
 20
1.713608611666358
 10
8.503487861194424
 20
1.715922686947948
 10
8.503777120604642
 20
1.71838139193463
 10
8.504211009719906
 20
1.720840096921311
 10
8.505078787950527
 20
1.723154172202904
 10
8.506235825591321
 20
1.725323617779364
 10
8.507971382052469
 20
1.727493063355868
 10
8.510285457334063
 20
1.72951787922724
 10
8.458797282318855
 20
1.72951787922724
  0
LWPOLYLINE
  5
373
330
17
100
AcDbEntity
  8
4
  6
Continuous
100
AcDbPolyline
 90
       21
 70
     0
 43
0.0
 10
8.980253526839886
 20
1.72951787922724
 10
8.983001491236743
 20
1.728071582176266
 10
8.985315566518337
 20
1.726336025715071
 10
8.98734038238971
 20
1.724311209843699
 10
8.988786679440725
 20
1.721997134562109
 10
8.989943717081523
 20
1.719393799870339
 10
8.990811495312097
 20
1.716645835473436
 10
8.991245384427408
 20
1.713608611666358
 10
8.991390014132493
 20
1.710426758154189
 10
8.991390014132493
 20
1.579536875039655
 10
9.026968921586828
 20
1.579536875039655
 10
9.026968921586828
 20
1.710860647269498
 10
9.027113551291911
 20
1.713897871076579
 10
9.027836699817443
 20
1.716501205768349
 10
9.02870447804802
 20
1.719104540460119
 10
9.030150775098991
 20
1.721418615741708
 10
9.031741701855098
 20
1.723588061318213
 10
9.033766517726473
 20
1.725757506894673
 10
9.035935963302927
 20
1.727637693060958
 10
9.038539297994743
 20
1.72951787922724
 10
8.980253526839886
 20
1.72951787922724
  0
LWPOLYLINE
  5
38A
330
17
100
AcDbEntity
  8
4
  6
Continuous
100
AcDbPolyline
 90
       73
 70
     0
 43
0.0
 10
7.721811722549055
 20
1.616995968660269
 10
7.724270427535735
 20
1.615549671609293
 10
7.72629524340715
 20
1.613669485443013
 10
7.728030799868299
 20
1.611355410161418
 10
7.729332467214187
 20
1.60875207546965
 10
7.730055615739717
 20
1.605859481367659
 10
7.730200245444803
 20
1.602966887265669
 10
7.729766356329538
 20
1.60021892286881
 10
7.72860931868874
 20
1.59747095847191
 10
7.727307651342856
 20
1.595880031715847
 10
7.726005983996928
 20
1.594433734664831
 10
7.724415057240824
 20
1.593132067318946
 10
7.722679500779673
 20
1.591975029678149
 10
7.720799314613348
 20
1.591107251447573
 10
7.718774498742018
 20
1.590384102922087
 10
7.716605053165513
 20
1.589950213806779
 10
7.714435607589012
 20
1.589805584101688
 10
7.661645765227913
 20
1.589805584101688
 10
7.690137817132377
 20
1.613958744853188
 10
7.691873373593613
 20
1.615549671609293
 10
7.693175040939504
 20
1.617140598365359
 10
7.694332078580254
 20
1.618586895416375
 10
7.695055227105743
 20
1.620033192467349
 10
7.69563374592618
 20
1.621479489518321
 10
7.695923005336361
 20
1.623070416274428
 10
7.696212264746537
 20
1.624516713325401
 10
7.696212264746537
 20
1.626107640081505
 10
7.696212264746537
 20
1.721997134562109
 10
7.695923005336361
 20
1.724021950433479
 10
7.695344486515959
 20
1.726046766304895
 10
7.694332078580254
 20
1.727637693060958
 10
7.693030411234371
 20
1.729083990111973
 10
7.691439484478266
 20
1.730241027752725
 10
7.68970392801711
 20
1.731108805983343
 10
7.687679112145696
 20
1.731687324803741
 10
7.685654296274329
 20
1.731831954508831
 10
7.654414279972961
 20
1.731831954508831
 10
7.656583725549462
 20
1.72966250893237
 10
7.6584639117157
 20
1.727637693060958
 10
7.660054838471807
 20
1.725323617779364
 10
7.661356505817733
 20
1.723009542497814
 10
7.662513543458491
 20
1.720406207806003
 10
7.663236691983977
 20
1.717658243409144
 10
7.663670581099284
 20
1.714476389896977
 10
7.663815210804417
 20
1.710860647269498
 10
7.663815210804417
 20
1.61077689134102
 10
7.638071123296767
 20
1.579536875039655
 10
7.735406914828343
 20
1.579536875039655
 10
7.736997841584448
 20
1.579681504744745
 10
7.738733398045646
 20
1.579826134449833
 10
7.740324324801707
 20
1.580115393860054
 10
7.742059881262942
 20
1.580693912680453
 10
7.743795437724092
 20
1.581272431500849
 10
7.745386364480199
 20
1.581995580026338
 10
7.746977291236309
 20
1.582718728551824
 10
7.748568217992367
 20
1.583586506782399
 10
7.750159144748432
 20
1.584598914718107
 10
7.751605441799447
 20
1.585611322653813
 10
7.753051738850462
 20
1.586768360294609
 10
7.754498035901431
 20
1.587925397935364
 10
7.755655073542232
 20
1.589082435576159
 10
7.756956740888117
 20
1.590384102922087
 10
7.757969148823825
 20
1.591685770267972
 10
7.758981556759488
 20
1.592987437613856
 10
7.761295632041077
 20
1.597615588176999
 10
7.762741929092097
 20
1.602822257560581
 10
7.763465077617546
 20
1.608607445764518
 10
7.763320447912452
 20
1.614537263673589
 10
7.762308039976747
 20
1.620177822172438
 10
7.760572483515595
 20
1.62538449155602
 10
7.758113778528914
 20
1.629723382708983
 10
7.754787295311611
 20
1.633049865926238
 10
7.721811722549055
 20
1.616995968660269
  0
LWPOLYLINE
  5
3D5
330
17
100
AcDbEntity
  8
4
  6
Continuous
100
AcDbPolyline
 90
       21
 70
     0
 43
0.0
 10
8.046968334053016
 20
1.729228619817063
 10
8.00878609190687
 20
1.729228619817063
 10
8.010666278073195
 20
1.727926952471175
 10
8.012546464239438
 20
1.726191396009983
 10
8.014426650405761
 20
1.724455839548789
 10
8.016017577161829
 20
1.722431023677418
 10
8.01746387421284
 20
1.720406207806003
 10
8.018620911853595
 20
1.718092132524454
 10
8.019344060379124
 20
1.71577805724286
 10
8.019633319789306
 20
1.71331935225618
 10
8.019633319789306
 20
1.580115393860054
 10
8.055646116358985
 20
1.580115393860054
 10
8.055646116358985
 20
1.720550837511135
 10
8.055501486653856
 20
1.722575653382505
 10
8.055067597538549
 20
1.724311209843699
 10
8.054199819307967
 20
1.725757506894673
 10
8.053187411372306
 20
1.727059174240558
 10
8.051885744026378
 20
1.727926952471175
 10
8.050439446975406
 20
1.728650100996664
 10
8.048848520219296
 20
1.729083990111973
 10
8.046968334053016
 20
1.729228619817063
  0
LWPOLYLINE
  5
3EC
330
17
100
AcDbEntity
  8
4
  6
Continuous
100
AcDbPolyline
 90
      133
 70
     0
 43
0.0
 10
7.896098949464771
 20
1.731976584213922
 10
7.865292822278714
 20
1.731976584213922
 10
7.867462267855218
 20
1.72966250893237
 10
7.869342454021456
 20
1.72734843365078
 10
7.870788751072472
 20
1.725034358369185
 10
7.872090418418355
 20
1.722864912792684
 10
7.87310282635407
 20
1.720695467216224
 10
7.873825974879549
 20
1.71852602163972
 10
7.874404493699952
 20
1.716211946358169
 10
7.874549123405042
 20
1.713897871076579
 10
7.874549123405042
 20
1.634930052092523
 10
7.871945788713272
 20
1.635219311502743
 10
7.869197824316371
 20
1.635653200618053
 10
7.866594489624603
 20
1.63608708973332
 10
7.863846525227737
 20
1.636665608553718
 10
7.861243190535971
 20
1.637388757079245
 10
7.858495226139067
 20
1.638111905604734
 10
7.855891891447257
 20
1.63897968383531
 10
7.853288556755487
 20
1.639847462065885
 10
7.850829851768807
 20
1.640859870001591
 10
7.848226517077035
 20
1.642016907642388
 10
7.845912441795442
 20
1.643173945283185
 10
7.843453736808765
 20
1.64447561262907
 10
7.841139661527172
 20
1.645921909680044
 10
7.83882558624558
 20
1.64736820673106
 10
7.83665614066912
 20
1.649103763192254
 10
7.834631324797745
 20
1.650839319653405
 10
7.830870952465177
 20
1.654599691986014
 10
7.827544469247881
 20
1.658793953433889
 10
7.824651875145933
 20
1.66327747429194
 10
7.822048540454119
 20
1.668194884265303
 10
7.820023724582749
 20
1.673112294238666
 10
7.818288168121552
 20
1.678463593327335
 10
7.81713113048076
 20
1.683814892415965
 10
7.816407981955271
 20
1.689310821209725
 10
7.815974092840002
 20
1.694806750003485
 10
7.815974092840002
 20
1.700447308502377
 10
7.816552611660362
 20
1.705943237296136
 10
7.817420389890981
 20
1.711439166089895
 10
7.818722057236866
 20
1.716935094883655
 10
7.820602243403147
 20
1.722141764267196
 10
7.82277168897961
 20
1.727203803945689
 10
7.825375023671377
 20
1.731976584213922
 10
7.785891114179393
 20
1.731976584213922
 10
7.782998520077445
 20
1.722720283087595
 10
7.780973704206027
 20
1.713753241371446
 10
7.779961296270323
 20
1.70478619965534
 10
7.779816666565236
 20
1.696253047054502
 10
7.780395185385632
 20
1.687864524158752
 10
7.781986112141741
 20
1.67990989037831
 10
7.78430018742333
 20
1.67224451600809
 10
7.787337411230367
 20
1.664868401048003
 10
7.791242413268022
 20
1.658070804908359
 10
7.795725934126112
 20
1.651562468178934
 10
7.800932603509657
 20
1.645632650269865
 10
7.806717791713642
 20
1.640136721476106
 10
7.813226128443062
 20
1.635363941207831
 10
7.820312983992928
 20
1.631025050054868
 10
7.82783372865806
 20
1.62740930742739
 10
7.835932992143627
 20
1.624372083620311
 10
7.838247067425223
 20
1.623648935094825
 10
7.840705772411902
 20
1.623070416274428
 10
7.843164477398581
 20
1.622491897454028
 10
7.845767812090352
 20
1.62191337863363
 10
7.848226517077035
 20
1.621479489518321
 10
7.850829851768807
 20
1.621190230108144
 10
7.853288556755487
 20
1.620756340992834
 10
7.855891891447257
 20
1.620611711287745
 10
7.85835059643394
 20
1.620322451877568
 10
7.860809301420619
 20
1.620177822172438
 10
7.863268006407299
 20
1.620033192467349
 10
7.865582081688892
 20
1.620033192467349
 10
7.867896156970481
 20
1.620033192467349
 10
7.870065602546988
 20
1.620033192467349
 10
7.87223504812349
 20
1.620177822172438
 10
7.874259863994822
 20
1.620322451877568
 10
7.874259863994822
 20
1.604991703137041
 10
7.858495226139067
 20
1.596169291126025
 10
7.855313372626901
 20
1.595446142600539
 10
7.852131519114687
 20
1.595012253485229
 10
7.848949665602525
 20
1.595012253485229
 10
7.846057071500535
 20
1.595446142600539
 10
7.843019847693494
 20
1.596024661420934
 10
7.840271883296598
 20
1.5970370693566
 10
7.837668548604824
 20
1.598338736702529
 10
7.835065213913015
 20
1.599785033753502
 10
7.832606508926332
 20
1.601520590214695
 10
7.830292433644737
 20
1.603400776380979
 10
7.82812298806828
 20
1.60557022195744
 10
7.826098172196906
 20
1.607739667533943
 10
7.824217986030582
 20
1.610198372520624
 10
7.822482429569432
 20
1.612657077507303
 10
7.820891502813366
 20
1.615115782493985
 10
7.819589835467485
 20
1.617719117185754
 10
7.791820932088463
 20
1.604847073431954
 10
7.793122599434346
 20
1.60238836844527
 10
7.794713526190409
 20
1.59992966345859
 10
7.796304452946511
 20
1.597326328766821
 10
7.798040009407706
 20
1.59486762378014
 10
7.800064825279079
 20
1.592408918793458
 10
7.802089641150452
 20
1.589950213806779
 10
7.804403716432044
 20
1.587780768230274
 10
7.806717791713642
 20
1.585466692948683
 10
7.809176496700318
 20
1.583441877077309
 10
7.811924461097177
 20
1.581561690911028
 10
7.814817055199209
 20
1.579970764154921
 10
7.817709649301155
 20
1.57837983739886
 10
7.820891502813366
 20
1.577222799758065
 10
7.824073356325492
 20
1.576210391822356
 10
7.827544469247881
 20
1.57548724329687
 10
7.831160211875356
 20
1.57519798388669
 10
7.832317249516155
 20
1.57519798388669
 10
7.833474287156952
 20
1.57534261359178
 10
7.834775954502831
 20
1.57548724329687
 10
7.836077621848723
 20
1.575631873001958
 10
7.837234659489515
 20
1.57592113241218
 10
7.838536326835397
 20
1.576355021527489
 10
7.839693364476196
 20
1.576788910642755
 10
7.840850402116993
 20
1.577222799758065
 10
7.903475064424814
 20
1.614103374558277
 10
7.904921361475827
 20
1.615260412199075
 10
7.905933769411497
 20
1.616851338955178
 10
7.906367658526844
 20
1.618731525121464
 10
7.906512288231938
 20
1.620756340992834
 10
7.906512288231938
 20
1.717658243409144
 10
7.906223028821717
 20
1.720984726626399
 10
7.905644510001317
 20
1.724021950433479
 10
7.904632102065606
 20
1.726480655420159
 10
7.903330434719727
 20
1.728505471291574
 10
7.901739507963664
 20
1.72995176834255
 10
7.899859321797336
 20
1.731108805983343
 10
7.897979135631098
 20
1.731687324803741
 10
7.896098949464771
 20
1.731976584213922
  0
LWPOLYLINE
  5
473
330
17
100
AcDbEntity
  8
4
  6
Continuous
100
AcDbPolyline
 90
       96
 70
     0
 43
0.0
 10
8.207181828515981
 20
1.579536875039655
 10
8.204867753234386
 20
1.581127801795718
 10
8.202553677952796
 20
1.582718728551824
 10
8.200528862081423
 20
1.584598914718107
 10
8.198793305620231
 20
1.586479100884389
 10
8.197347008569257
 20
1.588648546460894
 10
8.196189970928459
 20
1.591107251447573
 10
8.195466822402973
 20
1.593710586139343
 10
8.195177562992752
 20
1.596458550536203
 10
8.195177562992752
 20
1.690323229145433
 10
8.195177562992752
 20
1.694228231183129
 10
8.194888303582532
 20
1.698133233220785
 10
8.194309784762179
 20
1.70232749466866
 10
8.193152747121381
 20
1.706377126411403
 10
8.191417190660187
 20
1.710571387859278
 10
8.188669226263286
 20
1.714476389896977
 10
8.185053483635806
 20
1.71838139193463
 10
8.180136073662449
 20
1.722141764267196
 10
8.177098849855415
 20
1.724021950433479
 10
8.173916996343201
 20
1.725612877189584
 10
8.170735142831034
 20
1.72691454453547
 10
8.16726402990869
 20
1.728071582176266
 10
8.163792916986299
 20
1.728794730701753
 10
8.160321804063906
 20
1.729228619817063
 10
8.156850691141521
 20
1.72951787922724
 10
8.153234948514047
 20
1.72951787922724
 10
8.149763835591702
 20
1.729228619817063
 10
8.146292722669311
 20
1.728794730701753
 10
8.142966239452054
 20
1.728216211881355
 10
8.139639756234757
 20
1.72734843365078
 10
8.136602532427717
 20
1.726336025715071
 10
8.133565308620596
 20
1.725034358369185
 10
8.130672714518652
 20
1.7237326910233
 10
8.128069379826882
 20
1.722141764267196
 10
8.126623082775866
 20
1.721418615741708
 10
8.125321415429976
 20
1.720695467216224
 10
8.123875118378961
 20
1.719972318690735
 10
8.122573451033076
 20
1.719104540460119
 10
8.121271783687195
 20
1.718092132524454
 10
8.119825486636219
 20
1.717079724588745
 10
8.118523819290334
 20
1.71577805724286
 10
8.116932892534228
 20
1.714476389896977
 10
8.116209744008738
 20
1.717224354293833
 10
8.115052706367944
 20
1.719683059280515
 10
8.113751039022062
 20
1.72185250485702
 10
8.112160112266
 20
1.72387732072839
 10
8.110424555804762
 20
1.725612877189584
 10
8.108544369638517
 20
1.727059174240558
 10
8.106664183472194
 20
1.728360841586443
 10
8.104639367600821
 20
1.72937324952215
 10
8.071519165133175
 20
1.72937324952215
 10
8.074556388940253
 20
1.727203803945648
 10
8.077159723632025
 20
1.724745098958965
 10
8.079329169208527
 20
1.722141764267196
 10
8.081209355374767
 20
1.719104540460119
 10
8.082655652425785
 20
1.715922686947948
 10
8.08366806036145
 20
1.712306944320473
 10
8.084391208886977
 20
1.708546571987906
 10
8.084535838592064
 20
1.704352310540032
 10
8.084535838592064
 20
1.57592113241218
 10
8.118234559880157
 20
1.601954479329964
 10
8.118234559880157
 20
1.690901747965831
 10
8.118813078700508
 20
1.695674528234103
 10
8.120259375751484
 20
1.699868789681979
 10
8.122428821327986
 20
1.703484532309456
 10
8.125321415429976
 20
1.706521756116536
 10
8.128647898647232
 20
1.708980461103215
 10
8.132263641274715
 20
1.71071601756441
 10
8.136168643312366
 20
1.711873055205163
 10
8.140073645350067
 20
1.712306944320473
 10
8.142387720631656
 20
1.712306944320473
 10
8.144701795913206
 20
1.712017684910295
 10
8.146871241489712
 20
1.711583795794985
 10
8.149040687066211
 20
1.711005276974589
 10
8.151065502937584
 20
1.7102821284491
 10
8.153090318808956
 20
1.709269720513394
 10
8.154970504975281
 20
1.708257312577686
 10
8.15670606143643
 20
1.7069556452318
 10
8.158441617897628
 20
1.705653977885917
 10
8.159887914948644
 20
1.704207680834944
 10
8.161044952589442
 20
1.702472124373747
 10
8.162201990230192
 20
1.700881197617643
 10
8.163069768460772
 20
1.69900101145136
 10
8.163648287281207
 20
1.697120825285078
 10
8.164082176396476
 20
1.695096009413705
 10
8.164226806101567
 20
1.692926563837203
 10
8.164226806101567
 20
1.593710586139343
 10
8.164371435806652
 20
1.591396510857753
 10
8.164660695216872
 20
1.588937805871069
 10
8.165383843742365
 20
1.586623730589477
 10
8.166396251678069
 20
1.584309655307928
 10
8.167987178434135
 20
1.582429469141646
 10
8.170011994305546
 20
1.58083854238554
 10
8.172759958702407
 20
1.579826134449833
 10
8.176231071624794
 20
1.579536875039655
 10
8.207181828515981
 20
1.579536875039655
  0
LWPOLYLINE
  5
4D5
330
17
100
AcDbEntity
  8
4
  6
Continuous
100
AcDbPolyline
 90
       34
 70
     0
 43
0.0
 10
8.27091100342054
 20
1.717947502819321
 10
8.276551561919347
 20
1.717368983998924
 10
8.28204749071315
 20
1.716211946358128
 10
8.287254160096692
 20
1.714187130486754
 10
8.292316199775138
 20
1.711439166089895
 10
8.296944350338325
 20
1.708257312577686
 10
8.30142787119642
 20
1.704352310540032
 10
8.305477502939162
 20
1.700013419387069
 10
8.30923787527173
 20
1.695240639118793
 10
8.312708988194119
 20
1.689889340030122
 10
8.315601582296068
 20
1.684393411236363
 10
8.318204916987838
 20
1.678463593327335
 10
8.32037436256434
 20
1.672389145713178
 10
8.322109919025532
 20
1.6660254386888
 10
8.32326695666633
 20
1.659517101959376
 10
8.324134734896905
 20
1.653008765229909
 10
8.324279364601995
 20
1.646355798795353
 10
8.323845475486731
 20
1.640281351181195
 10
8.322688437845931
 20
1.634496162977255
 10
8.320952881384737
 20
1.628855604478363
 10
8.318638806103187
 20
1.623648935094825
 10
8.315746212001201
 20
1.618586895416375
 10
8.31241972878394
 20
1.613958744853188
 10
8.308659356451329
 20
1.609764483405315
 10
8.304754354413635
 20
1.605859481367659
 10
8.300560092965802
 20
1.602243738740184
 10
8.296221201812837
 20
1.599061885228015
 10
8.291737680954787
 20
1.596313920831114
 10
8.287398789801779
 20
1.593999845549523
 10
8.282915268943726
 20
1.59226428908837
 10
8.278721007495848
 20
1.590817992037354
 10
8.274671375753106
 20
1.589950213806779
 10
8.27091100342054
 20
1.589516324691467
 10
8.27091100342054
 20
1.717947502819321
  0
LWPOLYLINE
  5
4F9
330
17
100
AcDbEntity
  8
4
  6
Continuous
100
AcDbPolyline
 90
       44
 70
     0
 43
0.0
 10
8.287254160096692
 20
1.72995176834255
 10
8.223183200737853
 20
1.72995176834255
 10
8.225208016609226
 20
1.728794730701753
 10
8.227522091890815
 20
1.727203803945648
 10
8.229691537467321
 20
1.724889728664098
 10
8.231860983043825
 20
1.722286393972285
 10
8.233741169210061
 20
1.719249170165206
 10
8.235332095966167
 20
1.71577805724286
 10
8.236199874196746
 20
1.712162314615384
 10
8.236633763312099
 20
1.708257312577686
 10
8.236633763312099
 20
1.579536875039655
 10
8.284650825404918
 20
1.579536875039655
 10
8.29275008889045
 20
1.579970764154921
 10
8.300560092965802
 20
1.581127801795718
 10
8.308080837630932
 20
1.583007987962003
 10
8.315167693180795
 20
1.585611322653813
 10
8.321820659615312
 20
1.588937805871069
 10
8.328184366639693
 20
1.592987437613856
 10
8.333969554843626
 20
1.59747095847191
 10
8.339320853932346
 20
1.602677627855493
 10
8.344093634200575
 20
1.60831818635434
 10
8.34843252535354
 20
1.614537263673589
 10
8.352192897686105
 20
1.621190230108144
 10
8.355230121493223
 20
1.62827708565801
 10
8.357688826479906
 20
1.63579783032314
 10
8.359569012646147
 20
1.643607834398494
 10
8.360581420581855
 20
1.651851727589113
 10
8.361015309697165
 20
1.66038488018995
 10
8.360726050286942
 20
1.667616365444906
 10
8.359569012646147
 20
1.674558591289639
 10
8.357688826479906
 20
1.681211557724195
 10
8.35508549178809
 20
1.687575264748573
 10
8.351903638275922
 20
1.69379434206782
 10
8.34814326594336
 20
1.69943490056667
 10
8.343804374790352
 20
1.70478619965534
 10
8.338886964816992
 20
1.709703609628704
 10
8.333680295433449
 20
1.714187130486754
 10
8.327895107229469
 20
1.718236762229542
 10
8.321820659615312
 20
1.721707875151929
 10
8.315312322885889
 20
1.724600469253878
 10
8.308659356451329
 20
1.72691454453547
 10
8.301717130606601
 20
1.728650100996664
 10
8.294485645351642
 20
1.72966250893237
 10
8.287254160096692
 20
1.72995176834255
  0
LWPOLYLINE
  5
527
330
17
100
AcDbEntity
  8
4
  6
Continuous
100
AcDbPolyline
 90
       21
 70
     0
 43
0.0
 10
7.551726676231956
 20
1.7237326910233
 10
7.5871609539812
 20
1.7237326910233
 10
7.591789104544337
 20
1.723298801907994
 10
7.595983365992218
 20
1.721997134562109
 10
7.599888368029914
 20
1.719972318690735
 10
7.603359480952297
 20
1.717224354293833
 10
7.606107445349159
 20
1.713897871076579
 10
7.608276890925663
 20
1.709992869038879
 10
7.609578558271547
 20
1.705798607591004
 10
7.610012447386812
 20
1.701170457027864
 10
7.609723187976633
 20
1.697410084695297
 10
7.608855409746015
 20
1.693649712362732
 10
7.607409112695044
 20
1.690323229145433
 10
7.605528926528762
 20
1.687141375633264
 10
7.603070221542079
 20
1.684538040941494
 10
7.600177627440087
 20
1.68251322507008
 10
7.596851144222791
 20
1.681211557724195
 10
7.592946142185136
 20
1.680777668608928
 10
7.558379642666512
 20
1.680777668608928
 10
7.558379642666512
 20
1.715922686947948
 10
7.551726676231956
 20
1.7237326910233
  0
LWPOLYLINE
  5
53E
330
17
100
AcDbEntity
  8
4
  6
Continuous
100
AcDbPolyline
 90
       21
 70
     0
 43
0.0
 10
7.411709161267363
 20
1.724021950433479
 10
7.447143439016602
 20
1.724021950433479
 10
7.451626959874657
 20
1.723588061318213
 10
7.455965851027618
 20
1.722286393972285
 10
7.459726223360227
 20
1.720261578100914
 10
7.463197336282572
 20
1.717513613704054
 10
7.465945300679473
 20
1.714187130486754
 10
7.468114746255937
 20
1.710426758154189
 10
7.469416413601865
 20
1.706232496706314
 10
7.46985030271713
 20
1.701604346143174
 10
7.469561043306952
 20
1.697843973810563
 10
7.468693265076336
 20
1.694083601477996
 10
7.467391597730447
 20
1.690612488555653
 10
7.465511411564167
 20
1.687575264748573
 10
7.463052706577485
 20
1.684971930056762
 10
7.460160112475495
 20
1.682947114185389
 10
7.456833629258195
 20
1.681645446839504
 10
7.45292862722054
 20
1.681211557724195
 10
7.418362127701917
 20
1.681211557724195
 10
7.418362127701917
 20
1.71635657606326
 10
7.411709161267363
 20
1.724021950433479
  0
LWPOLYLINE
  5
555
330
17
100
AcDbEntity
  8
4
  6
Continuous
100
AcDbPolyline
 90
       46
 70
     0
 43
0.0
 10
7.452639367810362
 20
1.731976584213922
 10
7.374105437941657
 20
1.731976584213922
 10
7.375840994402812
 20
1.72966250893237
 10
7.377431921158876
 20
1.727059174240558
 10
7.379022847915019
 20
1.724455839548789
 10
7.380324515260907
 20
1.721707875151929
 10
7.38133692319657
 20
1.718815281049939
 10
7.382204701427149
 20
1.715922686947948
 10
7.382783220247583
 20
1.71317472255109
 10
7.382927849952677
 20
1.7102821284491
 10
7.382927849952677
 20
1.576788910642755
 10
7.418072868291741
 20
1.610487631930801
 10
7.418072868291741
 20
1.670364329841764
 10
7.465222152153945
 20
1.670364329841764
 10
7.468404005666156
 20
1.670508959546894
 10
7.471441229473192
 20
1.670653589251985
 10
7.474478453280313
 20
1.671087478367294
 10
7.477371047382259
 20
1.671665997187693
 10
7.480263641484253
 20
1.672533775418268
 10
7.48301160588115
 20
1.673690813059063
 10
7.485614940572923
 20
1.67499248040495
 10
7.487929015854513
 20
1.676583407161053
 10
7.490243091136107
 20
1.678463593327335
 10
7.492123277302347
 20
1.680777668608928
 10
7.493858833763583
 20
1.683236373595565
 10
7.495305130814561
 20
1.686128967697558
 10
7.496317538750266
 20
1.689455450914858
 10
7.497185316980842
 20
1.693071193542333
 10
7.497619206096151
 20
1.697120825285078
 10
7.497619206096151
 20
1.701604346143174
 10
7.497185316980842
 20
1.706377126411403
 10
7.496317538750266
 20
1.710571387859278
 10
7.494871241699248
 20
1.714331760191845
 10
7.493135685238055
 20
1.717658243409144
 10
7.490821609956466
 20
1.720550837511135
 10
7.488362904969781
 20
1.723009542497814
 10
7.485470310867833
 20
1.725178988074275
 10
7.482288457355624
 20
1.72691454453547
 10
7.478961974138367
 20
1.728360841586443
 10
7.475346231510888
 20
1.72951787922724
 10
7.471730488883411
 20
1.730385657457856
 10
7.467970116550847
 20
1.730964176278255
 10
7.46406511451315
 20
1.731542695098655
 10
7.460160112475495
 20
1.731831954508831
 10
7.456399740142932
 20
1.731976584213922
 10
7.452639367810362
 20
1.731976584213922
  0
LWPOLYLINE
  5
585
330
17
100
AcDbEntity
  8
4
  6
Continuous
100
AcDbPolyline
 90
      104
 70
     0
 43
0.0
 10
7.308127577275614
 20
1.731831954508831
 10
7.312177209018358
 20
1.727493063355868
 10
7.313912765479552
 20
1.725034358369185
 10
7.315359062530525
 20
1.722575653382505
 10
7.316660729876452
 20
1.720261578100914
 10
7.317673137812117
 20
1.718092132524454
 10
7.318540916042692
 20
1.71577805724286
 10
7.319119434863138
 20
1.713463981961269
 10
7.319408694273311
 20
1.711149906679675
 10
7.319553323978404
 20
1.708691201692995
 10
7.319553323978404
 20
1.596313920831114
 10
7.315937581350922
 20
1.596747809946423
 10
7.312321838723446
 20
1.59747095847191
 10
7.308850725801057
 20
1.598338736702529
 10
7.305379612878716
 20
1.599495774343282
 10
7.302053129661453
 20
1.600942071394299
 10
7.298726646444157
 20
1.60238836844527
 10
7.295400163226862
 20
1.604123924906465
 10
7.292362939419818
 20
1.606004111072748
 10
7.289325715612701
 20
1.60817355664925
 10
7.286433121510748
 20
1.610343002225714
 10
7.283685157113898
 20
1.612801707212395
 10
7.281081822422081
 20
1.615405041904162
 10
7.278478487730311
 20
1.618008376595977
 10
7.276164412448721
 20
1.620900970697924
 10
7.273994966872257
 20
1.623938194505003
 10
7.271970151000846
 20
1.626975418312081
 10
7.268788297488677
 20
1.632760606516063
 10
7.266184962796906
 20
1.638835054130221
 10
7.264160146925532
 20
1.645198761154554
 10
7.262858479579652
 20
1.651707097884024
 10
7.262279960759213
 20
1.65836006431858
 10
7.262569220169432
 20
1.664868401048003
 10
7.263870887515312
 20
1.671521367482561
 10
7.266040333091776
 20
1.67788507450694
 10
7.267197370732571
 20
1.680633038903798
 10
7.268499038078456
 20
1.683236373595565
 10
7.269945335129473
 20
1.685839708287379
 10
7.271391632180487
 20
1.688298413274061
 10
7.272982558936549
 20
1.690901747965831
 10
7.274718115397746
 20
1.693360452952511
 10
7.27645367185894
 20
1.695674528234103
 10
7.278189228320091
 20
1.698133233220785
 10
7.280069414486417
 20
1.700447308502377
 10
7.281949600652655
 20
1.702616754078838
 10
7.283974416524074
 20
1.704930829360429
 10
7.285999232395442
 20
1.707100274936934
 10
7.288024048266816
 20
1.709269720513394
 10
7.290193493843315
 20
1.711294536384764
 10
7.292218309714735
 20
1.71331935225618
 10
7.294387755291192
 20
1.71534416812755
 10
7.296123311752387
 20
1.717368983998924
 10
7.297280349393187
 20
1.719683059280515
 10
7.298003497918667
 20
1.721997134562109
 10
7.298003497918667
 20
1.724455839548789
 10
7.297714238508451
 20
1.726625285125249
 10
7.296846460277872
 20
1.728794730701753
 10
7.295834052342209
 20
1.730530287162946
 10
7.294387755291192
 20
1.731831954508831
 10
7.242610320865762
 20
1.731831954508831
 10
7.245069025852441
 20
1.72951787922724
 10
7.247816990249297
 20
1.726625285125249
 10
7.250420324941111
 20
1.723154172202904
 10
7.252589770517571
 20
1.719393799870339
 10
7.254180697273677
 20
1.715199538422464
 10
7.254903845799169
 20
1.710860647269498
 10
7.254325326978809
 20
1.706521756116536
 10
7.252300511107397
 20
1.70232749466866
 10
7.236391243546512
 20
1.674558591289639
 10
7.232486241508857
 20
1.666459327804109
 10
7.230027536522177
 20
1.657926175203271
 10
7.228870498881382
 20
1.649103763192254
 10
7.229015128586467
 20
1.640136721476106
 10
7.230461425637447
 20
1.631169679759955
 10
7.233354019739432
 20
1.622636527159118
 10
7.237403651482222
 20
1.614537263673589
 10
7.242754950570851
 20
1.607305778418635
 10
7.245358285262621
 20
1.604413184316686
 10
7.248106249659524
 20
1.601665219919784
 10
7.250998843761513
 20
1.598917255522884
 10
7.254036067568589
 20
1.596313920831114
 10
7.257073291375667
 20
1.593999845549523
 10
7.260399774592968
 20
1.591685770267972
 10
7.263726257810182
 20
1.589516324691467
 10
7.267197370732571
 20
1.587636138525186
 10
7.270668483654955
 20
1.585755952358903
 10
7.274284226282436
 20
1.584165025602798
 10
7.277899968909911
 20
1.582863358256913
 10
7.281660341242481
 20
1.581706320616115
 10
7.285420713575046
 20
1.580693912680453
 10
7.289325715612701
 20
1.580115393860054
 10
7.293086087945312
 20
1.579681504744745
 10
7.296991089983007
 20
1.579536875039655
 10
7.352384267035876
 20
1.579536875039655
 10
7.352384267035876
 20
1.71013749874401
 10
7.352528896740963
 20
1.713030092845959
 10
7.352673526446044
 20
1.715922686947948
 10
7.35310741556136
 20
1.718670651344807
 10
7.353685934381761
 20
1.721563245446799
 10
7.354553712612375
 20
1.724311209843699
 10
7.355566120548038
 20
1.72691454453547
 10
7.356723158188837
 20
1.72937324952215
 10
7.358024825534722
 20
1.731831954508831
 10
7.308127577275614
 20
1.731831954508831
  0
LWPOLYLINE
  5
5EF
330
17
100
AcDbEntity
  8
4
  6
Continuous
100
AcDbPolyline
 90
      213
 70
     0
 43
0.0
 10
7.195064357570769
 20
1.723009542497814
 10
7.191737874353552
 20
1.724311209843699
 10
7.188411391136255
 20
1.725468247484496
 10
7.185084907918954
 20
1.726480655420159
 10
7.181613794996611
 20
1.72734843365078
 10
7.178142682074224
 20
1.727926952471175
 10
7.174671569151878
 20
1.728505471291574
 10
7.171200456229487
 20
1.72893936040684
 10
7.167729343307101
 20
1.729228619817063
 10
7.16411360067962
 20
1.72937324952215
 10
7.160642487757235
 20
1.72937324952215
 10
7.157026745129758
 20
1.729228619817063
 10
7.153555632207414
 20
1.72893936040684
 10
7.149939889579936
 20
1.728505471291574
 10
7.146468776657549
 20
1.728071582176266
 10
7.142997663735201
 20
1.72734843365078
 10
7.139526550812813
 20
1.726625285125249
 10
7.133452103198655
 20
1.724745098958965
 10
7.12752228528959
 20
1.721997134562109
 10
7.121881726790737
 20
1.718815281049939
 10
7.116385797996977
 20
1.714910279012243
 10
7.11132375831853
 20
1.710571387859278
 10
7.106550978050253
 20
1.705653977885917
 10
7.102356716602377
 20
1.700447308502377
 10
7.098596344269812
 20
1.694951379708617
 10
7.095559120462731
 20
1.689166191504638
 10
7.093245045181141
 20
1.683091743890478
 10
7.091509488719946
 20
1.677017296276321
 10
7.090786340194462
 20
1.670798218957074
 10
7.090930969899548
 20
1.664579141637825
 10
7.091943377835256
 20
1.65836006431858
 10
7.093968193706673
 20
1.652285616704421
 10
7.097150047218792
 20
1.646500428500439
 10
7.097873195744327
 20
1.645632650269865
 10
7.098740973974901
 20
1.644909501744379
 10
7.09960875220548
 20
1.64433098292398
 10
7.100621160141183
 20
1.643752464103583
 10
7.101633568076891
 20
1.643463204693363
 10
7.102645976012596
 20
1.643318574988273
 10
7.103803013653394
 20
1.643318574988273
 10
7.104960051294192
 20
1.643607834398494
 10
7.146034887542237
 20
1.651417838473804
 10
7.148348962823829
 20
1.651851727589113
 10
7.150663038105419
 20
1.652140986999331
 10
7.153121743092103
 20
1.652574876114599
 10
7.155435818373696
 20
1.652719505819731
 10
7.157894523360376
 20
1.653008765229909
 10
7.160208598641967
 20
1.653153394934998
 10
7.162522673923561
 20
1.653153394934998
 10
7.164981378910241
 20
1.653153394934998
 10
7.167295454191832
 20
1.653008765229909
 10
7.169609529473381
 20
1.65286413552482
 10
7.171923604754976
 20
1.652574876114599
 10
7.174237680036527
 20
1.652140986999331
 10
7.176407125613027
 20
1.651562468178934
 10
7.178721200894621
 20
1.650983949358536
 10
7.180890646471128
 20
1.650116171127916
 10
7.18306009204758
 20
1.649248392897341
 10
7.187977502020949
 20
1.646211169090264
 10
7.191593244648423
 20
1.641872277937298
 10
7.194051949635106
 20
1.636810238258805
 10
7.195498246686121
 20
1.631025050054868
 10
7.19564287639121
 20
1.62495060244071
 10
7.194630468455502
 20
1.618731525121464
 10
7.192605652584131
 20
1.612946336917484
 10
7.189568428777048
 20
1.607595037828853
 10
7.187398983200552
 20
1.605136332842174
 10
7.185229537624044
 20
1.602677627855493
 10
7.182626202932278
 20
1.600652811984076
 10
7.180022868240502
 20
1.598772625817793
 10
7.177274903843647
 20
1.5970370693566
 10
7.174237680036527
 20
1.595590772305626
 10
7.171200456229487
 20
1.594578364369918
 10
7.168018602717283
 20
1.593710586139343
 10
7.164258230384713
 20
1.593276697024034
 10
7.160497858052146
 20
1.593276697024034
 10
7.156882115424672
 20
1.593565956434255
 10
7.153121743092103
 20
1.594433734664831
 10
7.149650630169714
 20
1.595446142600539
 10
7.146034887542237
 20
1.59689243965151
 10
7.142708404324981
 20
1.598627996112706
 10
7.139381921107727
 20
1.600652811984076
 10
7.136200067595512
 20
1.602966887265669
 10
7.133162843788476
 20
1.60542559225235
 10
7.130270249686442
 20
1.60817355664925
 10
7.12752228528959
 20
1.6110661507512
 10
7.125063580302902
 20
1.614103374558277
 10
7.122604875316222
 20
1.61728522807049
 10
7.120435429739721
 20
1.620611711287745
 10
7.118555243573477
 20
1.623938194505003
 10
7.085145781695612
 20
1.60875207546965
 10
7.086881338156802
 20
1.604413184316686
 10
7.089050783733267
 20
1.60021892286881
 10
7.091943377835256
 20
1.596458550536203
 10
7.095269861052552
 20
1.592842807908767
 10
7.09903023338512
 20
1.589516324691467
 10
7.103224494832954
 20
1.586479100884389
 10
7.107708015691049
 20
1.583731136487531
 10
7.112480795959322
 20
1.581272431500849
 10
7.117542835637771
 20
1.579247615629436
 10
7.122749505021312
 20
1.57751205916824
 10
7.128245433815115
 20
1.576065762117268
 10
7.133596732903747
 20
1.57519798388669
 10
7.139092661697503
 20
1.574474835361205
 10
7.144588590491262
 20
1.574330205656073
 10
7.149939889579936
 20
1.574619465066295
 10
7.155291188668606
 20
1.57519798388669
 10
7.159340820411347
 20
1.576065762117268
 10
7.163245822449004
 20
1.577222799758065
 10
7.167150824486707
 20
1.57852446710395
 10
7.170911196819311
 20
1.580115393860054
 10
7.174526939446746
 20
1.581995580026338
 10
7.178142682074224
 20
1.584165025602798
 10
7.18146916529148
 20
1.586334471179299
 10
7.184795648508777
 20
1.588937805871069
 10
7.187832872315855
 20
1.59154114056284
 10
7.190870096122937
 20
1.594433734664831
 10
7.193618060519795
 20
1.59747095847191
 10
7.196221395211567
 20
1.600797441689208
 10
7.198535470493161
 20
1.604123924906465
 10
7.200704916069661
 20
1.607595037828853
 10
7.202585102235941
 20
1.611210780456331
 10
7.204320658697137
 20
1.614971152788898
 10
7.205911585453202
 20
1.619165414236773
 10
7.207068623093997
 20
1.623359675684648
 10
7.207936401324611
 20
1.627553937132478
 10
7.208659549850104
 20
1.632037457990576
 10
7.208948809260322
 20
1.636376349143541
 10
7.208948809260322
 20
1.640715240296504
 10
7.208659549850104
 20
1.645054131449468
 10
7.207936401324611
 20
1.64939302260243
 10
7.207068623093997
 20
1.653153394934998
 10
7.205911585453202
 20
1.656769137562475
 10
7.204465288402227
 20
1.660240250484863
 10
7.202729731941076
 20
1.66371136340725
 10
7.20056028636457
 20
1.66674858721433
 10
7.198101581377891
 20
1.669641181316275
 10
7.195208987275901
 20
1.67224451600809
 10
7.192171763468818
 20
1.674413961584551
 10
7.190870096122937
 20
1.675281739815126
 10
7.189423799071962
 20
1.676149518045745
 10
7.187977502020949
 20
1.676872666571232
 10
7.186531204969933
 20
1.677595815096719
 10
7.185084907918954
 20
1.678318963622248
 10
7.183493981162892
 20
1.678897482442603
 10
7.182047684111918
 20
1.679331371557913
 10
7.180456757355816
 20
1.67976526067322
 10
7.178865830599709
 20
1.680199149788531
 10
7.177274903843647
 20
1.680633038903798
 10
7.17568397708754
 20
1.680922298314016
 10
7.174093050331434
 20
1.681211557724195
 10
7.172502123575371
 20
1.681500817134416
 10
7.170911196819311
 20
1.681645446839504
 10
7.169175640358072
 20
1.681934706249682
 10
7.16758471360201
 20
1.682079335954813
 10
7.165993786845947
 20
1.682079335954813
 10
7.1644028600898
 20
1.682079335954813
 10
7.162811933333737
 20
1.682223965659901
 10
7.161221006577672
 20
1.682223965659901
 10
7.159630079821571
 20
1.682223965659901
 10
7.158039153065464
 20
1.682368595364992
 10
7.156303596604271
 20
1.682368595364992
 10
7.154568040143077
 20
1.682368595364992
 10
7.152832483681923
 20
1.682368595364992
 10
7.151096927220732
 20
1.682223965659901
 10
7.149072111349357
 20
1.682079335954813
 10
7.147191925183032
 20
1.681934706249682
 10
7.14516710931166
 20
1.681790076544593
 10
7.142997663735201
 20
1.681500817134416
 10
7.140828218158699
 20
1.681066928019108
 10
7.138514142877106
 20
1.680633038903798
 10
7.105393940409456
 20
1.674558591289639
 10
7.104526162178842
 20
1.677595815096719
 10
7.104092273063574
 20
1.68048840919871
 10
7.104236902768657
 20
1.683525633005786
 10
7.104670791883967
 20
1.686418227107778
 10
7.105683199819632
 20
1.689310821209725
 10
7.106840237460431
 20
1.692058785606628
 10
7.108575793921628
 20
1.694806750003485
 10
7.110455980087909
 20
1.697265454990167
 10
7.11262542566441
 20
1.699579530271759
 10
7.115084130651092
 20
1.70189360555335
 10
7.117687465342863
 20
1.703773791719632
 10
7.120580059444852
 20
1.705509348180828
 10
7.123617283251931
 20
1.7069556452318
 10
7.126654507059011
 20
1.70825731257773
 10
7.129836360571178
 20
1.709125090808304
 10
7.133162843788476
 20
1.709703609628704
 10
7.136055437890425
 20
1.709848239333791
 10
7.139092661697503
 20
1.709848239333791
 10
7.141985255799492
 20
1.709558979923613
 10
7.144877849901442
 20
1.709125090808304
 10
7.147770444003477
 20
1.708546571987906
 10
7.150663038105419
 20
1.707678793757331
 10
7.153411002502281
 20
1.706666385821622
 10
7.156158966899178
 20
1.705509348180828
 10
7.158906931296081
 20
1.704207680834944
 10
7.161654895692942
 20
1.702761383783926
 10
7.164258230384713
 20
1.701315086732953
 10
7.166861565076482
 20
1.699579530271759
 10
7.169320270063161
 20
1.697843973810563
 10
7.171778975049842
 20
1.696108417349412
 10
7.174237680036527
 20
1.694228231183129
 10
7.176551755318119
 20
1.692348045016804
 10
7.214010848938772
 20
1.709992869038879
 10
7.211986033067357
 20
1.712017684910295
 10
7.209816587490895
 20
1.714042500781665
 10
7.207647141914438
 20
1.715922686947948
 10
7.205188436927755
 20
1.717513613704054
 10
7.202729731941076
 20
1.719104540460119
 10
7.200271026954392
 20
1.720550837511135
 10
7.197667692262584
 20
1.72185250485702
 10
7.195064357570769
 20
1.723009542497814
  0
LWPOLYLINE
  5
6C6
330
17
100
AcDbEntity
  8
4
  6
Continuous
100
AcDbPolyline
 90
       21
 70
     0
 43
0.0
 10
6.475383002139227
 20
1.696686936169809
 10
6.474949113023956
 20
1.692203415311714
 10
6.473647445678075
 20
1.68800915386384
 10
6.47162262980666
 20
1.684393411236363
 10
6.468874665409802
 20
1.681211557724195
 10
6.465548182192504
 20
1.678608223032425
 10
6.461787809859937
 20
1.676728036866141
 10
6.457593548412106
 20
1.675570999225347
 10
6.453254657259092
 20
1.675137110110035
 10
6.424184086534189
 20
1.675137110110035
 10
6.424184086534189
 20
1.712306944320473
 10
6.421291492432246
 20
1.719393799870339
 10
6.453833176079491
 20
1.719393799870339
 10
6.458172067232458
 20
1.718959910755029
 10
6.462366328680335
 20
1.717658243409144
 10
6.465982071307807
 20
1.71563342753777
 10
6.46916392481998
 20
1.71288546314087
 10
6.471767259511747
 20
1.709414350218483
 10
6.473647445678075
 20
1.705653977885917
 10
6.474949113023956
 20
1.701315086732953
 10
6.475383002139227
 20
1.696686936169809
  0
LWPOLYLINE
  5
6DD
330
17
100
AcDbEntity
  8
4
  6
Continuous
100
AcDbPolyline
 90
      114
 70
     0
 43
0.0
 10
6.827077428686127
 20
1.57837983739886
 10
6.825486501930065
 20
1.579681504744745
 10
6.823895575173954
 20
1.581561690911028
 10
6.822304648417855
 20
1.584165025602798
 10
6.820713721661793
 20
1.587346879115008
 10
6.819267424610817
 20
1.591107251447573
 10
6.818110386970023
 20
1.595735402010715
 10
6.817242608739403
 20
1.601086701099385
 10
6.816664089919047
 20
1.607161148713544
 10
6.816664089919047
 20
1.702906013489059
 10
6.81651946021396
 20
1.705509348180828
 10
6.815940941393517
 20
1.70825731257773
 10
6.814928533457812
 20
1.711005276974589
 10
6.813482236406837
 20
1.713608611666358
 10
6.811602050240557
 20
1.716211946358169
 10
6.809287974958963
 20
1.718815281049939
 10
6.80668464026719
 20
1.721273986036622
 10
6.803647416460115
 20
1.7237326910233
 10
6.800320933242815
 20
1.725902136599763
 10
6.796560560910247
 20
1.727926952471175
 10
6.792366299462418
 20
1.72966250893237
 10
6.788027408309407
 20
1.731253435688435
 10
6.783109998336048
 20
1.732410473329229
 10
6.778047958657595
 20
1.733422881264938
 10
6.772552029863837
 20
1.734001400085334
 10
6.766766841659897
 20
1.734290659495513
 10
6.760547764340651
 20
1.734001400085334
 10
6.754473316726492
 20
1.733133621854715
 10
6.748543498817426
 20
1.731398065393523
 10
6.742902940318535
 20
1.729228619817063
 10
6.737551641229906
 20
1.726336025715071
 10
6.732344971846364
 20
1.723009542497814
 10
6.727572191578094
 20
1.719104540460119
 10
6.723088670719995
 20
1.714765649307154
 10
6.719039038977258
 20
1.709992869038879
 10
6.715278666644687
 20
1.704930829360429
 10
6.712096813132477
 20
1.699579530271759
 10
6.709493478440709
 20
1.69393897177291
 10
6.7073240328642
 20
1.68800915386384
 10
6.705733106108142
 20
1.681934706249682
 10
6.704720698172431
 20
1.675715628930436
 10
6.704431438762256
 20
1.6693519219061
 10
6.704431438762256
 20
1.598772625817793
 10
6.704142179352036
 20
1.594289104959741
 10
6.703129771416369
 20
1.590528732627175
 10
6.701828104070485
 20
1.587346879115008
 10
6.700092547609245
 20
1.584743544423196
 10
6.698356991148099
 20
1.582718728551824
 10
6.696621434686902
 20
1.580983172090629
 10
6.694885878225705
 20
1.579681504744745
 10
6.693584210879826
 20
1.57852446710395
 10
6.724245708360792
 20
1.57852446710395
 10
6.728295340103535
 20
1.579102985924347
 10
6.731766453025926
 20
1.580549282975321
 10
6.734803676833045
 20
1.582718728551824
 10
6.737407011524815
 20
1.585611322653813
 10
6.739576457101275
 20
1.588793176165983
 10
6.741167383857384
 20
1.59226428908837
 10
6.742179791793088
 20
1.595880031715847
 10
6.742758310613442
 20
1.599495774343282
 10
6.74304757002362
 20
1.604702443726864
 10
6.742324421498178
 20
1.610053742815534
 10
6.741312013562468
 20
1.615260412199075
 10
6.740010346216584
 20
1.620322451877568
 10
6.738274789755392
 20
1.627553937132478
 10
6.736683862999285
 20
1.634785422387435
 10
6.735237565948317
 20
1.642016907642388
 10
6.73379126889734
 20
1.649248392897341
 10
6.732489601551451
 20
1.656479878152295
 10
6.731477193615749
 20
1.663855993112339
 10
6.730609415385128
 20
1.671087478367294
 10
6.730030896564771
 20
1.678463593327335
 10
6.729886266859684
 20
1.684538040941494
 10
6.730320155974951
 20
1.690757118260743
 10
6.731332563910655
 20
1.6968315658749
 10
6.732923490666721
 20
1.702761383783968
 10
6.735237565948317
 20
1.70825731257773
 10
6.738274789755392
 20
1.71331935225618
 10
6.742035162087955
 20
1.717658243409144
 10
6.746807942356229
 20
1.721273986036622
 10
6.749555906753132
 20
1.722720283087595
 10
6.752448500855081
 20
1.7237326910233
 10
6.755485724662159
 20
1.724455839548789
 10
6.758522948469237
 20
1.724889728664098
 10
6.761704801981446
 20
1.724889728664098
 10
6.764886655493576
 20
1.724455839548789
 10
6.767923879300695
 20
1.7237326910233
 10
6.770961103107732
 20
1.722720283087595
 10
6.773709067504637
 20
1.721273986036622
 10
6.776312402196442
 20
1.719538429575425
 10
6.778771107183084
 20
1.717368983998924
 10
6.780795923054455
 20
1.714910279012243
 10
6.782531479515691
 20
1.712162314615384
 10
6.783977776566665
 20
1.708980461103215
 10
6.784990184502371
 20
1.705509348180828
 10
6.785424073617638
 20
1.701748975848262
 10
6.785424073617638
 20
1.599061885228015
 10
6.785568703322731
 20
1.596603180241332
 10
6.786002592438037
 20
1.594433734664831
 10
6.786725740963525
 20
1.59226428908837
 10
6.787593519194142
 20
1.590239473216955
 10
6.788750556834941
 20
1.588503916755763
 10
6.790052224180826
 20
1.586768360294609
 10
6.791498521231797
 20
1.585177433538504
 10
6.793234077692992
 20
1.583731136487531
 10
6.795114263859272
 20
1.582574098846736
 10
6.796994450025557
 20
1.581417061205939
 10
6.799019265896927
 20
1.580549282975321
 10
6.801188711473432
 20
1.579826134449833
 10
6.803358157049935
 20
1.579102985924347
 10
6.805672232331531
 20
1.578669096809038
 10
6.807841677907988
 20
1.57852446710395
 10
6.81015575318954
 20
1.57837983739886
 10
6.827077428686127
 20
1.57837983739886
  0
LWPOLYLINE
  5
751
330
17
100
AcDbEntity
  8
4
  6
Continuous
100
AcDbPolyline
 90
       59
 70
     0
 43
0.0
 10
6.276103269444611
 20
1.687719894453663
 10
6.290855499364695
 20
1.69900101145136
 10
6.293169574646293
 20
1.698856381746271
 10
6.295339020222789
 20
1.698567122336094
 10
6.297508465799257
 20
1.697988603515694
 10
6.299533281670626
 20
1.697410084695297
 10
6.301702727247128
 20
1.696542306464678
 10
6.303727543118542
 20
1.695529898529014
 10
6.305607729284782
 20
1.694372860888218
 10
6.307487915451106
 20
1.693071193542333
 10
6.309223471912261
 20
1.691769526196407
 10
6.310959028373456
 20
1.690323229145433
 10
6.312694584834652
 20
1.688876932094458
 10
6.314285511590714
 20
1.687286005338354
 10
6.315731808641727
 20
1.685695078582291
 10
6.317178105692746
 20
1.684104151826186
 10
6.318479773038627
 20
1.682657854775211
 10
6.319636810679383
 20
1.681066928019108
 10
6.323686442422168
 20
1.674703220994771
 10
6.326868295934337
 20
1.668050254560215
 10
6.329182371215932
 20
1.66096339901035
 10
6.330773297972031
 20
1.653731913755396
 10
6.331785705907702
 20
1.646355798795353
 10
6.332219595023007
 20
1.638835054130221
 10
6.332508854433186
 20
1.631314309465088
 10
6.332364224728094
 20
1.623793564799913
 10
6.332074965317922
 20
1.61988856276226
 10
6.331351816792388
 20
1.616128190429694
 10
6.330194779151592
 20
1.612512447802215
 10
6.328748482100616
 20
1.609041334879828
 10
6.327012925639424
 20
1.605714851662571
 10
6.324843480062966
 20
1.602532998150359
 10
6.322529404781374
 20
1.599640404048414
 10
6.319926070089604
 20
1.59689243965151
 10
6.317033475987612
 20
1.594433734664831
 10
6.31414088188562
 20
1.592119659383239
 10
6.310959028373456
 20
1.590094843511868
 10
6.307777174861286
 20
1.588214657345583
 10
6.304595321349076
 20
1.586623730589477
 10
6.301268838131862
 20
1.585466692948683
 10
6.297942354914564
 20
1.584454285013019
 10
6.294760501402352
 20
1.583731136487531
 10
6.292880315236112
 20
1.58387576619262
 10
6.291000129069789
 20
1.584020395897709
 10
6.289119942903548
 20
1.584454285013019
 10
6.287384386442312
 20
1.585032803833416
 10
6.285648829981157
 20
1.585755952358903
 10
6.284057903225052
 20
1.586623730589477
 10
6.282466976468949
 20
1.587780768230274
 10
6.281165309123062
 20
1.588937805871069
 10
6.279719012072089
 20
1.590384102922087
 10
6.278706604136381
 20
1.591975029678149
 10
6.277838825905806
 20
1.593710586139343
 10
6.277115677380317
 20
1.595590772305626
 10
6.276681788265007
 20
1.59747095847191
 10
6.276392528854787
 20
1.599495774343282
 10
6.276103269444611
 20
1.601520590214695
 10
6.276103269444611
 20
1.603545406086069
 10
6.276103269444611
 20
1.687719894453663
  0
LWPOLYLINE
  5
78E
330
17
100
AcDbEntity
  8
4
  6
Continuous
100
AcDbPolyline
 90
       61
 70
     0
 43
0.0
 10
6.475961520959668
 20
1.664000622817429
 10
6.480155782407499
 20
1.664289882227649
 10
6.484205414150285
 20
1.664868401048047
 10
6.487821156777719
 20
1.665736179278622
 10
6.491147639995018
 20
1.66689321691942
 10
6.494040234097012
 20
1.66833951397039
 10
6.496788198493912
 20
1.669930440726498
 10
6.499246903480592
 20
1.671810626892781
 10
6.501416349057056
 20
1.673980072469241
 10
6.503296535223331
 20
1.676294147750834
 10
6.504887461979397
 20
1.678752852737515
 10
6.506189129325326
 20
1.681356187429285
 10
6.507201537260992
 20
1.684248781531274
 10
6.508069315491606
 20
1.687141375633264
 10
6.508647834311963
 20
1.690178599440343
 10
6.508937093722227
 20
1.693360452952511
 10
6.509081723427317
 20
1.696686936169809
 10
6.508937093722227
 20
1.699724159976891
 10
6.508358574901786
 20
1.702761383783968
 10
6.5076354263763
 20
1.705653977885917
 10
6.506478388735505
 20
1.708546571987906
 10
6.50517672138962
 20
1.711294536384764
 10
6.503585794633512
 20
1.713897871076579
 10
6.501705608467275
 20
1.71635657606326
 10
6.499680792595858
 20
1.71867065134485
 10
6.497366717314267
 20
1.720695467216224
 10
6.494908012327587
 20
1.722575653382505
 10
6.492449307340905
 20
1.72416658013861
 10
6.489701342944043
 20
1.725612877189584
 10
6.486808748842058
 20
1.726769914830381
 10
6.483916154740067
 20
1.727493063355868
 10
6.480878930933027
 20
1.728071582176266
 10
6.477841707125906
 20
1.728216211881355
 10
6.376600913556636
 20
1.728216211881355
 10
6.378047210607648
 20
1.727059174240558
 10
6.379348877953537
 20
1.725902136599763
 10
6.380650545299463
 20
1.724600469253878
 10
6.381807582940261
 20
1.723443431613081
 10
6.382964620581012
 20
1.722286393972285
 10
6.384121658221809
 20
1.720840096921311
 10
6.385134066157472
 20
1.719393799870339
 10
6.386146474093178
 20
1.717658243409144
 10
6.387592771144156
 20
1.714476389896977
 10
6.388749808784949
 20
1.71071601756441
 10
6.389472957310482
 20
1.707100274936934
 10
6.389762216720662
 20
1.704207680834944
 10
6.389906846425745
 20
1.574185575950985
 10
6.424762605354636
 20
1.604702443726864
 10
6.424762605354636
 20
1.665013030753135
 10
6.440093354095075
 20
1.665157660458224
 10
6.492304677635813
 20
1.578669096809038
 10
6.537284515921605
 20
1.57837983739886
 10
6.534536551524702
 20
1.579970764154921
 10
6.531788587127845
 20
1.581850950321249
 10
6.529185252436027
 20
1.583731136487531
 10
6.526581917744257
 20
1.585900582063993
 10
6.524123212757581
 20
1.587925397935364
 10
6.521809137475989
 20
1.590239473216955
 10
6.519495062194392
 20
1.592553548498548
 10
6.517180986912803
 20
1.595012253485229
 10
6.475961520959668
 20
1.664000622817429
  0
LWPOLYLINE
  5
7CD
330
17
100
AcDbEntity
  8
4
  6
Continuous
100
AcDbPolyline
 90
       83
 70
     0
 43
0.0
 10
6.334822929714777
 20
1.712596203730694
 10
6.332508854433186
 20
1.714765649307154
 10
6.330194779151592
 20
1.716935094883655
 10
6.327880703870042
 20
1.718959910755029
 10
6.325421998883362
 20
1.720840096921311
 10
6.322818664191551
 20
1.722431023677418
 10
6.319926070089604
 20
1.72387732072839
 10
6.316744216577394
 20
1.725178988074275
 10
6.313128473949916
 20
1.726046766304895
 10
6.245731031373825
 20
1.68873230238937
 10
6.245441771963647
 20
1.592553548498548
 10
6.24558640166873
 20
1.590962621742485
 10
6.245875661078907
 20
1.58922706528129
 10
6.246454179899353
 20
1.587780768230274
 10
6.247177328424798
 20
1.586334471179299
 10
6.248045106655411
 20
1.585032803833416
 10
6.249057514591121
 20
1.583731136487531
 10
6.250214552231918
 20
1.582718728551824
 10
6.2515162195778
 20
1.581706320616115
 10
6.253685665154308
 20
1.580404653270232
 10
6.255999740435853
 20
1.579247615629436
 10
6.258313815717446
 20
1.578235207693771
 10
6.260772520704126
 20
1.577367429463153
 10
6.263231225690806
 20
1.576788910642755
 10
6.265689930677488
 20
1.576210391822356
 10
6.268293265369262
 20
1.57577650270709
 10
6.270896600061075
 20
1.57534261359178
 10
6.273499934752839
 20
1.57519798388669
 10
6.276103269444611
 20
1.575053354181561
 10
6.278706604136381
 20
1.575053354181561
 10
6.281454568533241
 20
1.57519798388669
 10
6.284057903225052
 20
1.57534261359178
 10
6.286661237916868
 20
1.575631873001958
 10
6.289264572608638
 20
1.57592113241218
 10
6.291867907300401
 20
1.576355021527489
 10
6.294905131107483
 20
1.576788910642755
 10
6.297942354914564
 20
1.57751205916824
 10
6.300834949016511
 20
1.578235207693771
 10
6.303727543118542
 20
1.579102985924347
 10
6.306620137220491
 20
1.580115393860054
 10
6.309512731322437
 20
1.581272431500849
 10
6.31226069571938
 20
1.582574098846736
 10
6.315008660116244
 20
1.58387576619262
 10
6.317611994808012
 20
1.585322063243592
 10
6.320359959204871
 20
1.586912989999698
 10
6.322818664191551
 20
1.588648546460894
 10
6.325421998883362
 20
1.590384102922087
 10
6.327880703870042
 20
1.59226428908837
 10
6.330194779151592
 20
1.594144475254653
 10
6.332508854433186
 20
1.596169291126025
 10
6.334822929714777
 20
1.598194106997395
 10
6.338438672342256
 20
1.601954479329964
 10
6.341765155559553
 20
1.605859481367659
 10
6.344947009071723
 20
1.609909113110403
 10
6.347694973468628
 20
1.614248004263409
 10
6.350298308160398
 20
1.618876154826551
 10
6.352612383441985
 20
1.623504305389735
 10
6.354492569608225
 20
1.62827708565801
 10
6.356228126069468
 20
1.63319449563137
 10
6.357529793415343
 20
1.638111905604734
 10
6.358542201351013
 20
1.643318574988273
 10
6.359265349876495
 20
1.648380614666725
 10
6.359699238991812
 20
1.653587284050305
 10
6.359843868696893
 20
1.658649323728758
 10
6.359554609286679
 20
1.663855993112339
 10
6.35897609046632
 20
1.669062662495879
 10
6.358108312235702
 20
1.674124702174371
 10
6.357385163710217
 20
1.676872666571232
 10
6.356662015184728
 20
1.679620630968131
 10
6.355794236954111
 20
1.682368595364992
 10
6.354781829018449
 20
1.684971930056762
 10
6.353624791377651
 20
1.687575264748573
 10
6.352323124031766
 20
1.690178599440343
 10
6.351021456685837
 20
1.692637304427025
 10
6.34957515963486
 20
1.695096009413705
 10
6.347984232878798
 20
1.697554714400387
 10
6.346248676417607
 20
1.699868789681979
 10
6.344513119956411
 20
1.702182864963571
 10
6.342777563495221
 20
1.704352310540032
 10
6.340897377328936
 20
1.706521756116536
 10
6.338872561457562
 20
1.708546571987906
 10
6.336847745586188
 20
1.710571387859278
 10
6.334822929714777
 20
1.712596203730694
  0
LWPOLYLINE
  5
822
330
17
100
AcDbEntity
  8
4
  6
Continuous
100
AcDbPolyline
 90
      271
 70
     0
 43
0.0
 10
6.653879028538867
 20
1.670508959546894
 10
6.651854212667492
 20
1.671665997187693
 10
6.649829396796079
 20
1.672678405123356
 10
6.647659951219619
 20
1.673546183353975
 10
6.645635135348245
 20
1.674413961584551
 10
6.643465689771741
 20
1.675281739815126
 10
6.641296244195242
 20
1.675860258635524
 10
6.639126798618776
 20
1.676583407161053
 10
6.636957353042317
 20
1.677161925981453
 10
6.634643277760731
 20
1.677595815096719
 10
6.632473832184222
 20
1.67788507450694
 10
6.630015127197543
 20
1.678174333917116
 10
6.62770105191595
 20
1.678463593327335
 10
6.625242346929272
 20
1.678608223032425
 10
6.622783641942584
 20
1.678608223032425
 10
6.620324936955904
 20
1.678608223032425
 10
6.617721602264137
 20
1.678463593327335
 10
6.58358899186078
 20
1.648091355256545
 10
6.586192326552553
 20
1.648669874076944
 10
6.58879566124432
 20
1.649248392897341
 10
6.591398995936128
 20
1.649826911717739
 10
6.594002330627946
 20
1.650260800833049
 10
6.596605665319717
 20
1.650694689948315
 10
6.599209000011486
 20
1.650983949358536
 10
6.601812334703258
 20
1.651273208768714
 10
6.604560299100111
 20
1.651417838473804
 10
6.607163633791882
 20
1.651562468178934
 10
6.609766968483697
 20
1.651562468178934
 10
6.612370303175512
 20
1.651562468178934
 10
6.614973637867278
 20
1.651417838473804
 10
6.617576972559048
 20
1.651128579063624
 10
6.620180307250817
 20
1.650694689948315
 10
6.622783641942584
 20
1.650260800833049
 10
6.625386976634357
 20
1.64968228201265
 10
6.627122533095597
 20
1.649103763192254
 10
6.629002719261838
 20
1.648669874076944
 10
6.630738275723026
 20
1.647946725551456
 10
6.632473832184222
 20
1.64736820673106
 10
6.63420938864542
 20
1.646645058205573
 10
6.635944945106611
 20
1.645921909680044
 10
6.637535871862668
 20
1.645054131449468
 10
6.639271428323912
 20
1.64418635321889
 10
6.640862355079972
 20
1.643173945283185
 10
6.64230865213095
 20
1.642161537347478
 10
6.643754949181921
 20
1.641149129411813
 10
6.645201246232936
 20
1.639992091771015
 10
6.646502913578824
 20
1.63869042442513
 10
6.647804580924706
 20
1.637388757079245
 10
6.648961618565503
 20
1.635942460028229
 10
6.650118656206299
 20
1.634496162977255
 10
6.651854212667492
 20
1.631892828285444
 10
6.653300509718464
 20
1.629000234183495
 10
6.654312917654178
 20
1.626107640081505
 10
6.65503606617966
 20
1.622925786569338
 10
6.655469955294972
 20
1.61988856276226
 10
6.655325325589883
 20
1.616706709250092
 10
6.654602177064352
 20
1.613669485443013
 10
6.65344513942356
 20
1.61077689134102
 10
6.651709582962402
 20
1.60817355664925
 10
6.649684767090991
 20
1.606004111072748
 10
6.647370691809397
 20
1.604123924906465
 10
6.644622727412537
 20
1.602532998150359
 10
6.641730133310593
 20
1.601231330804474
 10
6.638837539208562
 20
1.60021892286881
 10
6.635655685696432
 20
1.599351144638194
 10
6.632618461889316
 20
1.598772625817793
 10
6.631172164838342
 20
1.598627996112706
 10
6.629581238082277
 20
1.598338736702529
 10
6.628134941031259
 20
1.598194106997395
 10
6.626544014275152
 20
1.598194106997395
 10
6.624953087519092
 20
1.598049477292308
 10
6.62350679046812
 20
1.598049477292308
 10
6.621915863711972
 20
1.598049477292308
 10
6.620324936955904
 20
1.598049477292308
 10
6.618878639904933
 20
1.598049477292308
 10
6.617287713148871
 20
1.598194106997395
 10
6.615696786392722
 20
1.598194106997395
 10
6.61410585963666
 20
1.598483366407618
 10
6.612659562585682
 20
1.598627996112706
 10
6.611068635829582
 20
1.598917255522926
 10
6.609622338778562
 20
1.599206514933102
 10
6.6080314120225
 20
1.599495774343282
 10
6.606295855561352
 20
1.59992966345859
 10
6.604560299100111
 20
1.600363552573899
 10
6.602969372344053
 20
1.600942071394299
 10
6.601233815882856
 20
1.601520590214695
 10
6.599642889126752
 20
1.602243738740184
 10
6.598051962370687
 20
1.602966887265669
 10
6.596461035614582
 20
1.603834665496289
 10
6.594870108858478
 20
1.604702443726864
 10
6.593423811807502
 20
1.60557022195744
 10
6.591832885051442
 20
1.606582629893147
 10
6.590386588000427
 20
1.607595037828853
 10
6.588940290949407
 20
1.608607445764518
 10
6.587493993898432
 20
1.609619853700225
 10
6.586192326552553
 20
1.61077689134102
 10
6.584746029501578
 20
1.611933928981819
 10
6.583444362155692
 20
1.613090966622612
 10
6.581274916579187
 20
1.615260412199075
 10
6.579250100707817
 20
1.617574487480668
 10
6.577225284836442
 20
1.61988856276226
 10
6.57520046896503
 20
1.622202638043851
 10
6.573320282798793
 20
1.624516713325401
 10
6.571584726337553
 20
1.626975418312081
 10
6.569704540171311
 20
1.629578753003895
 10
6.568113613415168
 20
1.632037457990576
 10
6.566522686659106
 20
1.634640792682344
 10
6.565076389608124
 20
1.637388757079245
 10
6.563774722262245
 20
1.639992091771015
 10
6.56247305491636
 20
1.642740056167876
 10
6.561316017275562
 20
1.645632650269865
 10
6.560448239044947
 20
1.648380614666725
 10
6.55958046081437
 20
1.651417838473804
 10
6.558857312288886
 20
1.654310432575793
 10
6.557844904353177
 20
1.66096339901035
 10
6.557411015237907
 20
1.667905624855084
 10
6.557844904353177
 20
1.67484785069986
 10
6.559001941993972
 20
1.681500817134416
 10
6.561026757865344
 20
1.687864524158752
 10
6.564063981672422
 20
1.693649712362732
 10
6.567968983710075
 20
1.698856381746271
 10
6.57288639368344
 20
1.703050643194147
 10
6.574621950144672
 20
1.704063051129853
 10
6.576357506605826
 20
1.704930829360429
 10
6.578237692772152
 20
1.705798607591004
 10
6.579973249233304
 20
1.706521756116536
 10
6.581853435399632
 20
1.707100274936934
 10
6.583878251270954
 20
1.707678793757331
 10
6.585758437437283
 20
1.708112682872599
 10
6.587783253308657
 20
1.708401942282819
 10
6.589663439474938
 20
1.708691201692995
 10
6.591688255346355
 20
1.708835831398085
 10
6.593713071217679
 20
1.708835831398085
 10
6.595737887089097
 20
1.708835831398085
 10
6.597762702960512
 20
1.708835831398085
 10
6.599787518831843
 20
1.708691201692995
 10
6.601667704998167
 20
1.708401942282819
 10
6.60369252086954
 20
1.708112682872599
 10
6.606295855561352
 20
1.707678793757331
 10
6.60889919025312
 20
1.707100274936934
 10
6.611502524944893
 20
1.706521756116536
 10
6.613961229931573
 20
1.705653977885917
 10
6.616419934918249
 20
1.70478619965534
 10
6.618878639904933
 20
1.703773791719632
 10
6.621337344891612
 20
1.702761383783968
 10
6.623796049878293
 20
1.701604346143174
 10
6.626110125159888
 20
1.700302678797245
 10
6.628279570736392
 20
1.69900101145136
 10
6.630593646017942
 20
1.697410084695297
 10
6.632763091594402
 20
1.695963787644281
 10
6.634932537170902
 20
1.694228231183129
 10
6.636957353042317
 20
1.692637304427025
 10
6.638982168913687
 20
1.690757118260743
 10
6.640862355079972
 20
1.688876932094458
 10
6.66761885052329
 20
1.703339902604326
 10
6.665883294062052
 20
1.706521756116536
 10
6.663858478190721
 20
1.709414350218483
 10
6.661544402909127
 20
1.712162314615384
 10
6.658941068217357
 20
1.714621019602065
 10
6.656193103820457
 20
1.716935094883655
 10
6.653155880013374
 20
1.718959910755029
 10
6.650118656206299
 20
1.720840096921311
 10
6.64693680269413
 20
1.722575653382505
 10
6.644478097707451
 20
1.7237326910233
 10
6.641874763015683
 20
1.724889728664098
 10
6.639416058028999
 20
1.725902136599763
 10
6.636812723337227
 20
1.726769914830381
 10
6.634064758940287
 20
1.727637693060958
 10
6.631461424248517
 20
1.728216211881355
 10
6.628713459851654
 20
1.728794730701753
 10
6.625965495454797
 20
1.729228619817063
 10
6.623217531057896
 20
1.72951787922724
 10
6.620469566660996
 20
1.72966250893237
 10
6.617576972559048
 20
1.729807138637458
 10
6.614829008162187
 20
1.729807138637458
 10
6.612081043765247
 20
1.72966250893237
 10
6.609333079368385
 20
1.72937324952215
 10
6.606585114971526
 20
1.72893936040684
 10
6.603837150574626
 20
1.728360841586443
 10
6.601233815882856
 20
1.727782322766045
 10
6.598775110896177
 20
1.72691454453547
 10
6.596171776204366
 20
1.726046766304895
 10
6.593713071217679
 20
1.725178988074275
 10
6.591398995936128
 20
1.724021950433479
 10
6.588940290949407
 20
1.722864912792684
 10
6.586626215667856
 20
1.721563245446799
 10
6.584312140386307
 20
1.720261578100914
 10
6.581998065104714
 20
1.718815281049939
 10
6.579828619528212
 20
1.717368983998924
 10
6.577659173951714
 20
1.71577805724286
 10
6.575489728375249
 20
1.714187130486754
 10
6.573320282798793
 20
1.71245157402556
 10
6.571295466927377
 20
1.71071601756441
 10
6.569126021350871
 20
1.708980461103215
 10
6.567101205479502
 20
1.707244904642021
 10
6.564208611377511
 20
1.704641569950251
 10
6.561460646980652
 20
1.70203823525844
 10
6.558712682583793
 20
1.699290270861579
 10
6.556109347891977
 20
1.69639767675959
 10
6.553506013200209
 20
1.6935050826576
 10
6.551047308213527
 20
1.690612488555653
 10
6.548733232931937
 20
1.687575264748573
 10
6.546419157650387
 20
1.684393411236363
 10
6.544394341778971
 20
1.681211557724195
 10
6.542369525907558
 20
1.67788507450694
 10
6.54048933974132
 20
1.674558591289639
 10
6.538898412985171
 20
1.671087478367294
 10
6.537452115934192
 20
1.667616365444906
 10
6.536150448588313
 20
1.664000622817429
 10
6.534993410947516
 20
1.66038488018995
 10
6.534125632716941
 20
1.656624507857384
 10
6.533257854486365
 20
1.651562468178934
 10
6.532823965371052
 20
1.646355798795353
 10
6.532679335665923
 20
1.641293759116899
 10
6.532823965371052
 20
1.63608708973332
 10
6.533402484191454
 20
1.631025050054868
 10
6.534414892127162
 20
1.625963010376418
 10
6.535716559473047
 20
1.620900970697966
 10
6.537452115934192
 20
1.616128190429694
 10
6.538609153574993
 20
1.613524855737879
 10
6.539910820920878
 20
1.61092152104611
 10
6.541212488266761
 20
1.608462816059429
 10
6.542803415022912
 20
1.606148740777838
 10
6.544394341778971
 20
1.603834665496289
 10
6.546129898240127
 20
1.601520590214695
 10
6.548010084406449
 20
1.599351144638194
 10
6.549890270572735
 20
1.597326328766821
 10
6.551915086444107
 20
1.595301512895449
 10
6.554084532020606
 20
1.593421326729167
 10
6.556253977597112
 20
1.59154114056284
 10
6.558423423173527
 20
1.589805584101688
 10
6.560737498455121
 20
1.588214657345583
 10
6.563196203441799
 20
1.586768360294609
 10
6.565654908428482
 20
1.585322063243592
 10
6.568113613415168
 20
1.584020395897709
 10
6.573898801619146
 20
1.581561690911028
 10
6.579828619528212
 20
1.579536875039655
 10
6.585903067142374
 20
1.578090577988639
 10
6.592122144461622
 20
1.576933540347886
 10
6.598341221780868
 20
1.576355021527489
 10
6.604560299100111
 20
1.576065762117268
 10
6.610779376419361
 20
1.576355021527489
 10
6.617143083443736
 20
1.577078170052975
 10
6.623217531057896
 20
1.578235207693771
 10
6.629147348966924
 20
1.579826134449833
 10
6.635077166875992
 20
1.581995580026338
 10
6.640717725374888
 20
1.584454285013019
 10
6.646069024463509
 20
1.587491508820098
 10
6.651131064141964
 20
1.590962621742485
 10
6.655903844410236
 20
1.59486762378014
 10
6.66038736526833
 20
1.599206514933102
 10
6.663713848485634
 20
1.603111516970758
 10
6.666751072292667
 20
1.607305778418635
 10
6.669499036689526
 20
1.611500039866509
 10
6.671813111971117
 20
1.616128190429694
 10
6.673837927842532
 20
1.620756340992834
 10
6.675428854598596
 20
1.625529121261108
 10
6.676441262534305
 20
1.630446531234469
 10
6.677164411059832
 20
1.63550857091292
 10
6.677309040764919
 20
1.639558202655706
 10
6.677019781354704
 20
1.643463204693363
 10
6.676296632829212
 20
1.64736820673106
 10
6.67499496548333
 20
1.651273208768714
 10
6.673259409022136
 20
1.654455062280883
 10
6.671234593150762
 20
1.657347656382873
 10
6.668775888164081
 20
1.660095620779774
 10
6.666172553472271
 20
1.662554325766454
 10
6.663279959370276
 20
1.664723771342917
 10
6.660242735563246
 20
1.66689321691942
 10
6.657060882051034
 20
1.6687734030857
 10
6.653879028538867
 20
1.670508959546894
  0
LWPOLYLINE
  5
933
330
17
100
AcDbEntity
  8
4
  6
Continuous
 62
     4
100
AcDbPolyline
 90
       96
 70
     0
 43
0.0
 10
6.983032181370872
 20
1.57852446710395
 10
6.980718106089284
 20
1.579970764154921
 10
6.978259401102601
 20
1.581706320616115
 10
6.975656066410831
 20
1.58387576619262
 10
6.973341991129242
 20
1.586334471179299
 10
6.971172545552736
 20
1.589082435576159
 10
6.969436989091581
 20
1.592408918793458
 10
6.968279951450789
 20
1.596024661420934
 10
6.967846062335437
 20
1.60021892286881
 10
6.967846062335437
 20
1.696108417349412
 10
6.967556802925262
 20
1.700158049092155
 10
6.966978284104859
 20
1.703918421424723
 10
6.965821246464106
 20
1.707534164052198
 10
6.964374949413093
 20
1.710860647269498
 10
6.962639392951897
 20
1.714187130486754
 10
6.960469947375393
 20
1.717079724588745
 10
6.958011242388713
 20
1.719827688985605
 10
6.955263277991857
 20
1.722431023677418
 10
6.95237068388991
 20
1.724745098958965
 10
6.949188830377696
 20
1.726769914830381
 10
6.945862347160396
 20
1.728505471291574
 10
6.942535863943182
 20
1.730096398047638
 10
6.938920121315707
 20
1.731253435688435
 10
6.935304378688227
 20
1.732121213919053
 10
6.931544006355661
 20
1.73284436244454
 10
6.927783634023052
 20
1.733133621854715
 10
6.92518029933124
 20
1.733133621854715
 10
6.922576964639471
 20
1.733133621854715
 10
6.920118259652793
 20
1.73284436244454
 10
6.917514924961017
 20
1.732555103034318
 10
6.915056219974342
 20
1.732121213919053
 10
6.912452885282572
 20
1.731398065393523
 10
6.909994180295893
 20
1.730674916868037
 10
6.907535475309206
 20
1.72995176834255
 10
6.905076770322526
 20
1.72893936040684
 10
6.902762695040934
 20
1.727926952471175
 10
6.900448619759345
 20
1.726769914830381
 10
6.898134544477752
 20
1.725612877189584
 10
6.895820469196156
 20
1.72416658013861
 10
6.893651023619739
 20
1.722864912792684
 10
6.89148157804324
 20
1.721418615741708
 10
6.889456762171825
 20
1.719827688985605
 10
6.888588983941247
 20
1.72185250485702
 10
6.887431946300451
 20
1.724021950433479
 10
6.885841019544344
 20
1.726046766304895
 10
6.884105463083191
 20
1.727926952471175
 10
6.88236990662196
 20
1.72951787922724
 10
6.880634350160807
 20
1.730819546573125
 10
6.879043423404745
 20
1.731687324803741
 10
6.877886385763947
 20
1.731976584213922
 10
6.842452108014707
 20
1.731976584213922
 10
6.844621553591167
 20
1.72995176834255
 10
6.847080258577847
 20
1.727637693060958
 10
6.84982822297475
 20
1.724889728664098
 10
6.85243155766652
 20
1.721707875151929
 10
6.8548902626532
 20
1.718092132524454
 10
6.856770448819482
 20
1.714331760191845
 10
6.858216745870499
 20
1.71013749874401
 10
6.858650634985767
 20
1.705798607591004
 10
6.858650634985767
 20
1.578669096809038
 10
6.891192318633063
 20
1.604991703137041
 10
6.891192318633063
 20
1.696976195579988
 10
6.891336948338151
 20
1.699290270861579
 10
6.891770837453417
 20
1.70145971643804
 10
6.892638615684035
 20
1.703484532309456
 10
6.893651023619739
 20
1.705509348180828
 10
6.894808061260491
 20
1.707534164052198
 10
6.896254358311512
 20
1.709269720513394
 10
6.897989914772661
 20
1.711005276974589
 10
6.899725471233858
 20
1.712596203730694
 10
6.901750287105226
 20
1.713897871076579
 10
6.903775102976642
 20
1.715054908717375
 10
6.905944548553147
 20
1.716211946358169
 10
6.908113994129607
 20
1.716935094883655
 10
6.910428069411157
 20
1.717658243409144
 10
6.912742144692749
 20
1.717947502819321
 10
6.914911590269253
 20
1.718236762229542
 10
6.917225665550842
 20
1.718092132524454
 10
6.920841408178322
 20
1.717513613704054
 10
6.924312521100709
 20
1.71635657606326
 10
6.927639004317968
 20
1.714765649307154
 10
6.930531598419952
 20
1.712596203730694
 10
6.932990303406636
 20
1.709992869038879
 10
6.934870489572875
 20
1.7069556452318
 10
6.936027527213671
 20
1.703339902604326
 10
6.936461416329027
 20
1.699290270861579
 10
6.936461416329027
 20
1.596603180241332
 10
6.936895305444291
 20
1.592842807908767
 10
6.93805234308509
 20
1.589371694986381
 10
6.93978789954628
 20
1.586334471179299
 10
6.942246604532917
 20
1.583731136487531
 10
6.945139198634951
 20
1.581561690911028
 10
6.948465681852213
 20
1.579826134449833
 10
6.952081424479692
 20
1.578813726514169
 10
6.955986426517339
 20
1.57852446710395
 10
6.983032181370872
 20
1.57852446710395
  0
LWPOLYLINE
  5
995
330
17
100
AcDbEntity
  8
4
  6
Continuous
100
AcDbPolyline
 90
       46
 70
     0
 43
0.0
 10
7.592656882774956
 20
1.731542695098655
 10
7.514122952906252
 20
1.731542695098655
 10
7.515858509367407
 20
1.729228619817063
 10
7.517594065828602
 20
1.726625285125249
 10
7.519040362879617
 20
1.724021950433479
 10
7.520342030225503
 20
1.721273986036622
 10
7.521499067866297
 20
1.71838139193463
 10
7.522366846096827
 20
1.715488797832639
 10
7.522945364917272
 20
1.71274083343578
 10
7.523089994622356
 20
1.709848239333791
 10
7.523089994622356
 20
1.576355021527489
 10
7.558090383256296
 20
1.610053742815534
 10
7.558090383256296
 20
1.669930440726498
 10
7.605239667118537
 20
1.669930440726498
 10
7.608276890925663
 20
1.670075070431585
 10
7.611458744437785
 20
1.670219700136676
 10
7.614351338539817
 20
1.670653589251985
 10
7.617388562346858
 20
1.67123210807238
 10
7.620136526743717
 20
1.672099886302959
 10
7.622884491140617
 20
1.673256923943755
 10
7.625487825832427
 20
1.674558591289639
 10
7.627946530819107
 20
1.676149518045745
 10
7.630115976395572
 20
1.678029704212026
 10
7.631996162561851
 20
1.68034377949362
 10
7.633731719023046
 20
1.682802484480301
 10
7.635178016074062
 20
1.685695078582291
 10
7.636190424009726
 20
1.689021561799549
 10
7.637058202240307
 20
1.692637304427025
 10
7.637492091355611
 20
1.696686936169809
 10
7.637492091355611
 20
1.701170457027864
 10
7.637058202240307
 20
1.705943237296136
 10
7.636190424009726
 20
1.7102821284491
 10
7.634744126958715
 20
1.714042500781665
 10
7.633008570497563
 20
1.717368983998924
 10
7.630694495215967
 20
1.720261578100914
 10
7.628235790229292
 20
1.722720283087595
 10
7.6253431961273
 20
1.724745098958965
 10
7.622305972320218
 20
1.726480655420159
 10
7.618834859397832
 20
1.727926952471175
 10
7.615363746475487
 20
1.729083990111973
 10
7.611748003848004
 20
1.72995176834255
 10
7.607987631515442
 20
1.730530287162946
 10
7.604082629477741
 20
1.731108805983343
 10
7.600177627440087
 20
1.731398065393523
 10
7.596417255107525
 20
1.731542695098655
 10
7.592656882774956
 20
1.731542695098655
  0
LWPOLYLINE
  5
9C5
330
17
100
AcDbEntity
  8
4
  6
Continuous
100
AcDbPolyline
 90
       88
 70
     0
 43
0.0
 10
9.149277554532501
 20
1.72937324952215
 10
9.05454509769274
 20
1.72937324952215
 10
9.057148432384511
 20
1.72734843365078
 10
9.059751767076278
 20
1.725034358369185
 10
9.062065842357872
 20
1.722431023677418
 10
9.064235287934334
 20
1.719827688985605
 10
9.065970844395527
 20
1.716790465178524
 10
9.067272511741411
 20
1.713753241371446
 10
9.068140289972028
 20
1.7102821284491
 10
9.068574179087296
 20
1.706811015526713
 10
9.068574179087296
 20
1.606293370482968
 10
9.044131758925573
 20
1.579536875039655
 10
9.131343471100247
 20
1.579536875039655
 10
9.133079027561439
 20
1.579536875039655
 10
9.134814584022596
 20
1.579826134449833
 10
9.13655014048383
 20
1.579970764154921
 10
9.138141067239892
 20
1.580404653270232
 10
9.139876623701088
 20
1.58083854238554
 10
9.14161218016228
 20
1.581417061205939
 10
9.143203106918344
 20
1.581995580026338
 10
9.144938663379535
 20
1.582863358256913
 10
9.146529590135646
 20
1.583586506782399
 10
9.148120516891703
 20
1.584454285013019
 10
9.149566813942724
 20
1.585466692948683
 10
9.151013110993741
 20
1.586479100884389
 10
9.152459408044713
 20
1.587636138525186
 10
9.153905705095684
 20
1.588793176165983
 10
9.155062742736483
 20
1.589950213806779
 10
9.156364410082362
 20
1.591251881152663
 10
9.159835523004755
 20
1.595590772305626
 10
9.162583487401617
 20
1.600652811984076
 10
9.164608303273027
 20
1.606004111072748
 10
9.165765340913823
 20
1.611500039866509
 10
9.165909970618912
 20
1.617140598365359
 10
9.165042192388296
 20
1.622347267748939
 10
9.162872746811792
 20
1.627264677722303
 10
9.159546263594576
 20
1.631603568875265
 10
9.12801698788299
 20
1.618008376595977
 10
9.129607914639056
 20
1.615694301314384
 10
9.130909581984939
 20
1.613090966622612
 10
9.131921989920645
 20
1.610487631930801
 10
9.132645138446136
 20
1.607739667533943
 10
9.133079027561439
 20
1.604991703137041
 10
9.133079027561439
 20
1.602243738740184
 10
9.132645138446136
 20
1.599495774343282
 10
9.131777360215556
 20
1.59689243965151
 10
9.130620322574763
 20
1.595012253485229
 10
9.129318655228876
 20
1.593276697024034
 10
9.127583098767683
 20
1.591685770267972
 10
9.125847542306491
 20
1.590528732627175
 10
9.123822726435076
 20
1.589516324691467
 10
9.121797910563746
 20
1.588648546460894
 10
9.11962846498724
 20
1.588214657345583
 10
9.117459019410738
 20
1.588070027640496
 10
9.068140289972028
 20
1.588070027640496
 10
9.100826603324366
 20
1.62191337863363
 10
9.100826603324366
 20
1.654888951396189
 10
9.139298104880687
 20
1.654888951396189
 10
9.139298104880687
 20
1.666459327804109
 10
9.101405122144763
 20
1.666459327804109
 10
9.101405122144763
 20
1.710426758154189
 10
9.094607526005122
 20
1.720984726626399
 10
9.116446611475028
 20
1.720984726626399
 10
9.121364021448393
 20
1.720695467216224
 10
9.12541365319122
 20
1.719538429575425
 10
9.128595506703343
 20
1.717658243409144
 10
9.130909581984939
 20
1.715054908717375
 10
9.132211249330826
 20
1.712017684910295
 10
9.132645138446136
 20
1.708546571987906
 10
9.132066619625735
 20
1.704641569950251
 10
9.130475692869667
 20
1.700736567912555
 10
9.164319043862812
 20
1.690467858850522
 10
9.1666331191444
 20
1.692926563837203
 10
9.168368675605595
 20
1.695674528234103
 10
9.16967034295148
 20
1.698711752041183
 10
9.170393491476966
 20
1.701748975848262
 10
9.170682750887184
 20
1.704930829360429
 10
9.170393491476966
 20
1.708257312577686
 10
9.16981497265657
 20
1.711439166089895
 10
9.168802564720863
 20
1.714621019602065
 10
9.167500897374974
 20
1.717513613704054
 10
9.165765340913823
 20
1.720406207806003
 10
9.163740525042411
 20
1.722864912792684
 10
9.16128182005573
 20
1.725034358369185
 10
9.15867848536396
 20
1.72691454453547
 10
9.155785891261961
 20
1.728216211881355
 10
9.152604037749803
 20
1.729083990111973
 10
9.149277554532501
 20
1.72937324952215
  0
LWPOLYLINE
  5
A1F
330
17
100
AcDbEntity
  8
4
  6
Continuous
100
AcDbPolyline
 90
       21
 70
     0
 43
0.0
 10
6.14807392204084
 20
1.771701683024874
 10
6.14807392204084
 20
1.601872722709718
 10
6.154712977162637
 20
1.53601566699277
 10
6.162596855119747
 20
1.601872722709718
 10
6.162596855119747
 20
1.771405296635501
 10
6.162419023286155
 20
1.7738356650283
 10
6.161944805063148
 20
1.775969647031724
 10
6.161233477728661
 20
1.777747965367929
 10
6.160344318560579
 20
1.779229897314755
 10
6.159218050280972
 20
1.78035616559436
 10
6.157973227445628
 20
1.781186047484547
 10
6.156669127332429
 20
1.781660265707554
 10
6.155365027219237
 20
1.781838097541146
 10
6.154001649828152
 20
1.781719542985405
 10
6.152697549714954
 20
1.78124532476244
 10
6.151452726879609
 20
1.780415442872208
 10
6.150326458600047
 20
1.779348451870498
 10
6.149437299431927
 20
1.77792579720156
 10
6.14872597209748
 20
1.776147478865359
 10
6.148251753874472
 20
1.774072774139781
 10
6.14807392204084
 20
1.771701683024874
  0
LWPOLYLINE
  5
A36
330
17
100
AcDbEntity
  8
4
  6
Continuous
100
AcDbPolyline
 90
       21
 70
     0
 43
0.0
 10
6.123412263550168
 20
1.74742597861269
 10
6.123412263550168
 20
1.60193199998761
 10
6.130703368728521
 20
1.53601566699277
 10
6.138231583018406
 20
1.601635613598235
 10
6.138231583018406
 20
1.747959474113548
 10
6.138053751184772
 20
1.750330565228455
 10
6.137579532961807
 20
1.752345992676139
 10
6.136868205627314
 20
1.75406503373445
 10
6.135919769181348
 20
1.755487688403429
 10
6.134793500901737
 20
1.75649540212725
 10
6.133548678066436
 20
1.757266006739587
 10
6.132185300675352
 20
1.757680947684704
 10
6.130821923284266
 20
1.757799502240446
 10
6.129458545893179
 20
1.757562393128964
 10
6.128095168502087
 20
1.757028897628105
 10
6.126850345666787
 20
1.756199015737875
 10
6.125724077387186
 20
1.755072747458314
 10
6.124775640941255
 20
1.753590815511484
 10
6.124064313606722
 20
1.751871774453133
 10
6.123590095383762
 20
1.749797069727599
 10
6.123412263550168
 20
1.74742597861269
  0
LINE
  5
A4D
330
17
100
AcDbEntity
  8
0
100
AcDbLine
 10
6.046907417275479
 20
0.7999999999999563
 30
0.0
 11
6.046907417275479
 21
1.815979876780058
 31
0.0
  0
LWPOLYLINE
  5
A4E
330
17
100
AcDbEntity
  8
4
  6
Continuous
100
AcDbPolyline
 90
       21
 70
     0
 43
0.0
 10
6.172083530474957
 20
1.757605381194095
 10
6.172083530474957
 20
1.601872722709718
 10
6.178722585596716
 20
1.53601566699277
 10
6.186606463553864
 20
1.601872722709718
 10
6.186606463553864
 20
1.757308994804723
 10
6.186428631720226
 20
1.759739363197523
 10
6.185954413497222
 20
1.761873345200948
 10
6.185243086162771
 20
1.763651663537149
 10
6.184353926994652
 20
1.765133595483979
 10
6.183227658715088
 20
1.766259863763582
 10
6.181982835879746
 20
1.767089745653814
 10
6.180678735766547
 20
1.767563963876778
 10
6.179374635653354
 20
1.767741795710412
 10
6.178011258262267
 20
1.767623241154668
 10
6.176707158149071
 20
1.767149022931663
 10
6.175462335313727
 20
1.766319141041432
 10
6.174336067034163
 20
1.76525215003972
 10
6.173446907866042
 20
1.763829495370783
 10
6.172735580531552
 20
1.762051177034581
 10
6.172261362308546
 20
1.759976472309045
 10
6.172083530474957
 20
1.757605381194095
  0
LINE
  5
A65
330
17
100
AcDbEntity
  8
0
100
AcDbLine
 10
6.046907417275479
 20
1.134922461148745
 30
0.0
 11
8.773484695253902
 21
1.134922461148745
 31
0.0
  0
TEXT
  5
A66
330
17
100
AcDbEntity
  8
3
100
AcDbText
 10
6.086506016559245
 20
1.186077063341495
 30
0.0
 40
0.0390761491069264
  1
FILE PATH:
  7
SIMPLEX
100
AcDbText
  0
TEXT
  5
A67
330
17
100
AcDbEntity
  8
3
100
AcDbText
 10
6.080274928195279
 20
1.048988710554688
 30
0.0
 40
0.0390761491069264
  1
MAT'L DESCRIPTION:
  7
SIMPLEX
100
AcDbText
  0
TEXT
  5
A68
330
17
100
AcDbEntity
  8
3
100
AcDbText
 10
6.088605668526677
 20
1.425218385710798
 30
0.0
 40
0.0390761491069264
  1
NAME:
  7
SIMPLEX
100
AcDbText
  0
LWPOLYLINE
  5
A69
330
17
100
AcDbEntity
  8
4
  6
Continuous
100
AcDbPolyline
 90
       18
 70
     0
 43
0.0
 10
6.159573713948197
 20
1.601754168153976
 10
6.159514436670347
 20
1.600805731708005
 10
6.159395882114607
 20
1.599857295262034
 10
6.159099495725232
 20
1.599027413371804
 10
6.158743832057965
 20
1.598256808759465
 10
6.158151059279263
 20
1.597545481425018
 10
6.157439731944776
 20
1.59701198592412
 10
6.15660985005454
 20
1.596656322256897
 10
6.155542859052827
 20
1.596478490423264
 10
6.154535145329004
 20
1.596537767701154
 10
6.153586708883036
 20
1.596834154090529
 10
6.152875381548549
 20
1.597367649591386
 10
6.152282608769842
 20
1.598078976925874
 10
6.151808390546834
 20
1.598908858816063
 10
6.151452726879609
 20
1.599798017984183
 10
6.151215617768125
 20
1.600746454430158
 10
6.151156340490281
 20
1.601754168153976
 10
6.159573713948197
 20
1.601754168153976
  0
LWPOLYLINE
  5
A7D
330
17
100
AcDbEntity
  8
4
  6
Continuous
100
AcDbPolyline
 90
       18
 70
     0
 43
0.0
 10
6.15109706321239
 20
1.605251527548491
 10
6.151037785934494
 20
1.60780045049703
 10
6.151037785934494
 20
1.610586482557055
 10
6.151037785934494
 20
1.613609623728603
 10
6.151274895045979
 20
1.61686987401159
 10
6.151689835991137
 20
1.620307956128254
 10
6.152460440603473
 20
1.623983147356358
 10
6.153645986160931
 20
1.627836170418136
 10
6.155365027219237
 20
1.631867025313504
 10
6.156787681888221
 20
1.628073279529616
 10
6.157913950167781
 20
1.624338811023623
 10
6.158743832057965
 20
1.62072289707337
 10
6.159336604836719
 20
1.617225537678856
 10
6.159692268503981
 20
1.613846732840084
 10
6.159810823059723
 20
1.610764314390688
 10
6.159810823059723
 20
1.607859727774924
 10
6.159692268503981
 20
1.605251527548491
 10
6.15109706321239
 20
1.605251527548491
  0
LWPOLYLINE
  5
A91
330
17
100
AcDbEntity
  8
4
  6
Continuous
100
AcDbPolyline
 90
       18
 70
     0
 43
0.0
 10
6.125901909220815
 20
1.605014418437009
 10
6.125842631942968
 20
1.60845250055363
 10
6.12607974105445
 20
1.612009137226034
 10
6.12649468199952
 20
1.615565773898395
 10
6.127087454778266
 20
1.619063133292906
 10
6.127858059390611
 20
1.622382660853786
 10
6.128747218558732
 20
1.625346524747445
 10
6.129754932282555
 20
1.627954724973877
 10
6.130881200562157
 20
1.629970152421561
 10
6.131829637008087
 20
1.628014002251725
 10
6.132778073454105
 20
1.625524356581077
 10
6.133667232622181
 20
1.622501215409528
 10
6.13443783723452
 20
1.619122410570799
 10
6.135089887291119
 20
1.615565773898395
 10
6.135564105514122
 20
1.611949859948141
 10
6.135801214625607
 20
1.60839322327578
 10
6.135801214625607
 20
1.605014418437009
 10
6.125901909220815
 20
1.605014418437009
  0
LWPOLYLINE
  5
AA5
330
17
100
AcDbEntity
  8
4
  6
Continuous
100
AcDbPolyline
 90
       18
 70
     0
 43
0.0
 10
6.135682660069867
 20
1.601754168153976
 10
6.135682660069867
 20
1.600805731708005
 10
6.135564105514122
 20
1.599857295262034
 10
6.135267719124749
 20
1.598968136093954
 10
6.134793500901737
 20
1.598078976925874
 10
6.134200728123036
 20
1.597308372313493
 10
6.133370846232807
 20
1.596715599534788
 10
6.132422409786838
 20
1.59630065858967
 10
6.131236864229382
 20
1.59618210403393
 10
6.130051318671927
 20
1.59635993586752
 10
6.129043604948106
 20
1.596715599534788
 10
6.128154445779983
 20
1.597249095035644
 10
6.127383841167643
 20
1.598019699647981
 10
6.126850345666787
 20
1.598849581538213
 10
6.126376127443824
 20
1.599738740706293
 10
6.126139018332297
 20
1.600746454430158
 10
6.126020463776557
 20
1.601754168153976
 10
6.135682660069867
 20
1.601754168153976
  0
LWPOLYLINE
  5
AB9
330
17
100
AcDbEntity
  8
4
  6
Continuous
100
AcDbPolyline
 90
       18
 70
     0
 43
0.0
 10
6.175106671646504
 20
1.605251527548491
 10
6.175047394368611
 20
1.60780045049703
 10
6.175047394368611
 20
1.610586482557055
 10
6.175047394368611
 20
1.613609623728603
 10
6.175284503480098
 20
1.61686987401159
 10
6.175699444425212
 20
1.620307956128254
 10
6.17647004903759
 20
1.623983147356358
 10
6.177655594595004
 20
1.627836170418136
 10
6.179374635653354
 20
1.631867025313504
 10
6.180797290322287
 20
1.628073279529616
 10
6.181923558601853
 20
1.624338811023623
 10
6.182753440492081
 20
1.62072289707337
 10
6.183346213270832
 20
1.617225537678856
 10
6.183701876938097
 20
1.613846732840084
 10
6.183820431493797
 20
1.610764314390688
 10
6.183820431493797
 20
1.607859727774924
 10
6.183701876938097
 20
1.605251527548491
 10
6.175106671646504
 20
1.605251527548491
  0
LWPOLYLINE
  5
ACD
330
17
100
AcDbEntity
  8
4
  6
Continuous
100
AcDbPolyline
 90
       18
 70
     0
 43
0.0
 10
6.183583322382317
 20
1.601754168153976
 10
6.183524045104464
 20
1.600805731708005
 10
6.183405490548723
 20
1.599857295262034
 10
6.183109104159349
 20
1.599027413371804
 10
6.182753440492081
 20
1.598256808759465
 10
6.182160667713377
 20
1.597545481425018
 10
6.181449340378892
 20
1.59701198592412
 10
6.180619458488656
 20
1.596656322256897
 10
6.179552467486946
 20
1.596478490423264
 10
6.178544753763122
 20
1.596537767701154
 10
6.177596317317152
 20
1.596834154090529
 10
6.176884989982664
 20
1.597367649591386
 10
6.176292217203915
 20
1.598078976925874
 10
6.175817998980952
 20
1.598908858816063
 10
6.175462335313727
 20
1.599798017984183
 10
6.175225226202202
 20
1.600746454430158
 10
6.175165948924355
 20
1.601754168153976
 10
6.183583322382317
 20
1.601754168153976
  0
LWPOLYLINE
  5
AE1
330
17
100
AcDbEntity
  8
4
  6
Continuous
100
AcDbPolyline
 90
        5
 70
     0
 43
0.0
 10
6.781229812169808
 20
1.654455062280883
 10
6.738853308575791
 20
1.681500817134416
 10
6.738853308575791
 20
1.655033581101281
 10
6.781374441874895
 20
1.632182087695665
 10
6.781229812169808
 20
1.654455062280883
  0
TEXT
  5
AE8
330
17
100
AcDbEntity
  8
3
100
AcDbText
 10
7.384321798111187
 20
0.8915767529290155
 30
0.0
 40
0.0581453098711065
  1
 
  7
SIMPLEX
 72
     1
 11
7.410625628767164
 21
0.8915767529290155
 31
0.0
100
AcDbText
  0
TEXT
  5
AE9
330
17
100
AcDbEntity
  8
3
100
AcDbText
 10
6.903313577397152
 20
1.172721701144442
 30
0.0
 40
0.0581453098711065
  1
DWG/PART NO/020900
  7
SIMPLEX
 72
     1
 11
7.414161656979016
 21
1.172721701144442
 31
0.0
100
AcDbText
  0
TEXT
  5
AEA
330
17
100
AcDbEntity
  8
3
100
AcDbText
 10
8.81058982005296
 20
1.015588455926574
 30
0.0
 40
0.0390761491069264
  1
PART/DWG. NO.
  7
SIMPLEX
100
AcDbText
  0
LINE
  5
AEB
330
17
100
AcDbEntity
  8
0
100
AcDbLine
 10
8.773484695253902
 20
0.7999999999999563
 30
0.0
 11
8.773484695253902
 21
1.268913789283077
 31
0.0
  0
TEXT
  5
AEC
330
17
100
AcDbEntity
  8
3
100
AcDbText
 10
7.450650339300721
 20
1.311149142688044
 30
0.0
 40
0.0781522982138528
  1
MAGNETIC TOUCH BAR
  7
SIMPLEX
 72
     1
 11
8.111223336108286
 21
1.311149142688044
 31
0.0
100
AcDbText
  0
TEXT
  5
AED
330
17
100
AcDbEntity
  8
3
100
AcDbText
 10
9.232024171881027
 20
1.16175142215734
 30
0.0
 40
0.038763539914071
  1
OF
  7
SIMPLEX
100
AcDbText
  0
TEXT
  5
AEE
330
17
100
AcDbEntity
  8
3
100
AcDbText
 10
8.830739989161255
 20
1.162083521424067
 30
0.0
 40
0.038763539914071
  1
SHEET
  7
SIMPLEX
100
AcDbText
  0
TEXT
  5
AEF
330
17
100
AcDbEntity
  8
3
100
AcDbText
 10
9.095907186201896
 20
1.14069934460157
 30
0.0
 40
0.0781522982138528
  1
1
  7
SIMPLEX
100
AcDbText
  0
TEXT
  5
AF0
330
17
100
AcDbEntity
  8
3
100
AcDbText
 10
9.400426086095226
 20
1.14069934460157
 30
0.0
 40
0.0781522982138528
  1
1
  7
SIMPLEX
100
AcDbText
  0
LINE
  5
AF1
330
17
100
AcDbEntity
  8
0
100
AcDbLine
 10
9.500003654213116
 20
1.088837136489871
 30
0.0
 11
9.500003654213116
 21
1.268913789283077
 31
0.0
  0
LINE
  5
AF3
330
17
100
AcDbEntity
  8
0
100
AcDbLine
 10
6.155218017985427
 20
1.781825314129531
 30
0.0
 11
6.155218017985427
 21
1.781825314129531
 31
0.0
  0
LINE
  5
AF9
330
17
100
AcDbEntity
  8
0
100
AcDbLine
 10
9.839754791408363
 20
0.799999999999999
 30
0.0
 11
9.839754791408363
 21
1.088837136489871
 31
0.0
  0
TEXT
  5
AFA
330
17
100
AcDbEntity
  8
3
100
AcDbText
 10
9.982855558196931
 20
0.8589523399345065
 30
0.0
 40
0.0875305739995151
  1
B
  7
SIMPLEX
 72
     1
 11
10.01203241619677
 21
0.8589523399345065
 31
0.0
100
AcDbText
  0
TEXT
  5
AFB
330
17
100
AcDbEntity
  8
3
100
AcDbText
 10
9.957937952005462
 20
1.015346836363333
 30
0.0
 40
0.0390761491069264
  1
REV.
  7
SIMPLEX
100
AcDbText
  0
TEXT
  5
AFC
330
17
100
AcDbEntity
  8
3
100
AcDbText
 10
9.906909695007863
 20
1.148242052218146
 30
0.0
 40
0.0535812156554175
  1
1=1
  7
SIMPLEX
 72
     1
 11
9.966869626812735
 21
1.148242052218146
 31
0.0
100
AcDbText
  0
TEXT
  5
AFD
330
17
100
AcDbEntity
  8
2
100
AcDbText
 10
7.863880737611827
 20
7.572559019520411
 30
0.0
 40
0.078
  1
E
  7
SIMPLEX
 72
     1
 11
7.888023594754685
 21
7.572559019520411
 31
0.0
100
AcDbText
  0
TEXT
  5
AFE
330
17
100
AcDbEntity
  8
2
100
AcDbText
 10
6.331771364688003
 20
7.572559019520411
 30
0.0
 40
0.078
  1
D
  7
SIMPLEX
 72
     1
 11
6.357771364688002
 21
7.572559019520411
 31
0.0
100
AcDbText
  0
LINE
  5
AFF
330
17
100
AcDbEntity
  8
3
100
AcDbLine
 10
7.157807902804348
 20
7.575126224606082
 30
0.0
 11
7.157807902804348
 21
7.7
 31
0.0
  0
LINE
  5
B00
330
17
100
AcDbEntity
  8
3
100
AcDbLine
 10
8.666403951402173
 20
7.575126224606082
 30
0.0
 11
8.666403951402173
 21
7.7
 31
0.0
  0
TEXT
  5
B01
330
17
100
AcDbEntity
  8
2
100
AcDbText
 10
9.372272221534707
 20
7.572559019520411
 30
0.0
 40
0.078
  1
F
  7
SIMPLEX
 72
     1
 11
9.396415078677565
 21
7.572559019520411
 31
0.0
100
AcDbText
  0
LINE
  5
B02
330
17
100
AcDbEntity
  8
4
100
AcDbLine
 10
11.04999999999999
 20
8.5
 30
0.0
 11
0.0000000000000002
 21
8.499999999999998
 31
0.0
  0
LINE
  5
C8D
330
17
100
AcDbEntity
  8
0
100
AcDbLine
 10
4.134095395494108
 20
4.817998714550729
 30
0.0
 11
3.388450707780953
 21
4.817998714550729
 31
0.0
  0
LINE
  5
C8E
330
17
100
AcDbEntity
  8
0
100
AcDbLine
 10
3.38845070778095
 20
4.067998714550727
 30
0.0
 11
4.013369635037371
 21
4.067998714550728
 31
0.0
  0
LINE
  5
C8F
330
17
100
AcDbEntity
  8
0
100
AcDbLine
 10
2.51345070778095
 20
6.579077168141119
 30
0.0
 11
2.51345070778095
 21
6.51657716814112
 31
0.0
  0
LINE
  5
C90
330
17
100
AcDbEntity
  8
3
100
AcDbLine
 10
4.1737523199577
 20
5.064364471412954
 30
0.0
 11
3.959055728893373
 21
3.730577525784686
 31
0.0
  0
LINE
  5
C91
330
17
100
AcDbEntity
  8
0
100
AcDbLine
 10
6.225525635482827
 20
6.57907716814112
 30
0.0
 11
6.225525635482827
 21
6.51657716814112
 31
0.0
  0
LINE
  5
C92
330
17
100
AcDbEntity
  8
0
 62
     7
100
AcDbLine
 10
8.453980966596725
 20
4.067998714550727
 30
0.0
 11
8.138980966596728
 21
4.067998714550727
 31
0.0
  0
LINE
  5
C93
330
17
100
AcDbEntity
  8
0
100
AcDbLine
 10
4.421337470392668
 20
4.817998714550729
 30
0.0
 11
5.350525635482829
 21
4.817998714550729
 31
0.0
  0
LINE
  5
C94
330
17
100
AcDbEntity
  8
3
100
AcDbLine
 10
4.460994394856252
 20
5.064364471412954
 30
0.0
 11
4.246297803791929
 21
3.730577525784686
 31
0.0
  0
LINE
  5
CA4
330
17
100
AcDbEntity
  8
0
 62
     7
100
AcDbLine
 10
8.513980966596722
 20
4.757998714550723
 30
0.0
 11
8.513980966596726
 21
4.127998714550725
 31
0.0
  0
LINE
  5
CA5
330
17
100
AcDbEntity
  8
0
 62
     7
100
AcDbLine
 10
8.138980966596722
 20
4.817998714550721
 30
0.0
 11
8.138980966596726
 21
4.067998714550727
 31
0.0
  0
LINE
  5
CA6
330
17
100
AcDbEntity
  8
0
 62
     7
100
AcDbLine
 10
8.138980966596722
 20
4.817998714550721
 30
0.0
 11
8.453980966596722
 21
4.817998714550721
 31
0.0
  0
LINE
  5
CA7
330
17
100
AcDbEntity
  8
0
100
AcDbLine
 10
5.350525635482828
 20
4.067998714550727
 30
0.0
 11
4.300611709935925
 21
4.067998714550728
 31
0.0
  0
POINT
  5
CAA
330
17
100
AcDbEntity
  8
DEFPOINTS
  6
ByBlock
 62
     0
100
AcDbPoint
 10
8.388980966596726
 20
4.067998714550727
 30
0.0
  0
LINE
  5
CBF
330
17
100
AcDbEntity
  8
3
100
AcDbLine
 10
8.651053422057858
 20
4.442998714550722
 30
0.0
 11
8.294615463733965
 21
4.442998714550722
 31
0.0
  0
LINE
  5
CC2
330
17
100
AcDbEntity
  8
0
 62
     7
100
AcDbLine
 10
8.138980966596722
 20
4.755498714550721
 30
0.0
 11
8.421480966596726
 21
4.755498714550721
 31
0.0
  0
LINE
  5
CC3
330
17
100
AcDbEntity
  8
0
 62
     7
100
AcDbLine
 10
8.138980966596726
 20
4.130498714550727
 30
0.0
 11
8.421480966596726
 21
4.130498714550727
 31
0.0
  0
CIRCLE
  5
CC8
330
17
100
AcDbEntity
  8
0
100
AcDbCircle
 10
2.883200826260898
 20
4.442998714550729
 30
0.0
 40
0.156
  0
CIRCLE
  5
CCA
330
17
100
AcDbEntity
  8
0
100
AcDbCircle
 10
5.855775517002886
 20
4.442998714550726
 30
0.0
 40
0.156
  0
LINE
  5
CCB
330
17
100
AcDbEntity
  8
0
  6
Continuous
100
AcDbLine
 10
5.350525635482828
 20
6.89157716814112
 30
0.0
 11
5.350525635482828
 21
6.516577168141122
 31
0.0
  0
LINE
  5
CCC
330
17
100
AcDbEntity
  8
0
  6
Continuous
100
AcDbLine
 10
3.38845070778095
 20
6.89157716814112
 30
0.0
 11
3.388450707780953
 21
6.51657716814112
 31
0.0
  0
POINT
  5
CD5
330
17
100
AcDbEntity
  8
DEFPOINTS
  6
ByBlock
 62
     0
100
AcDbPoint
 10
3.38845070778095
 20
4.817998714550729
 30
0.0
  0
POINT
  5
CD6
330
17
100
AcDbEntity
  8
DEFPOINTS
  6
ByBlock
 62
     0
100
AcDbPoint
 10
5.350525635482828
 20
4.817998714550729
 30
0.0
  0
LINE
  5
CD8
330
17
100
AcDbEntity
  8
3
  6
ByBlock
100
AcDbLine
 10
2.51345070778095
 20
4.880498714550729
 30
0.0
 11
2.51345070778095
 21
5.995631159452099
 31
0.0
  0
LINE
  5
CD9
330
17
100
AcDbEntity
  8
3
  6
ByBlock
100
AcDbLine
 10
6.225525635482827
 20
4.880498714550729
 30
0.0
 11
6.225525635482827
 21
5.995631159452099
 31
0.0
  0
LINE
  5
CDA
330
17
100
AcDbEntity
  8
3
  6
ByBlock
100
AcDbLine
 10
2.69345070778095
 20
5.815631159452101
 30
0.0
 11
3.808535790679508
 21
5.815631159452101
 31
0.0
  0
LINE
  5
CDB
330
17
100
AcDbEntity
  8
3
  6
ByBlock
100
AcDbLine
 10
6.045525635482827
 20
5.815631159452101
 30
0.0
 11
4.930440552584271
 21
5.815631159452101
 31
0.0
  0
SOLID
  5
CDC
330
17
100
AcDbEntity
  8
3
  6
ByBlock
100
AcDbTrace
 10
2.69345070778095
 20
5.785631159452099
 30
0.0
 11
2.69345070778095
 21
5.845631159452102
 31
0.0
 12
2.51345070778095
 22
5.815631159452101
 32
0.0
 13
2.51345070778095
 23
5.815631159452101
 33
0.0
  0
SOLID
  5
CDD
330
17
100
AcDbEntity
  8
3
  6
ByBlock
100
AcDbTrace
 10
6.045525635482827
 20
5.785631159452099
 30
0.0
 11
6.045525635482827
 21
5.845631159452102
 31
0.0
 12
6.225525635482827
 22
5.815631159452101
 32
0.0
 13
6.225525635482827
 23
5.815631159452101
 33
0.0
  0
TEXT
  5
CDE
330
17
100
AcDbEntity
  8
3
  6
ByBlock
100
AcDbText
 10
3.988535790679509
 20
5.753131159452101
 30
0.0
 40
0.125
  1
35 1/4"
  7
ROMANS
100
AcDbText
  0
POINT
  5
CE1
330
17
100
AcDbEntity
  8
3
  6
ByBlock
100
AcDbPoint
 10
6.225525635482827
 20
5.815631159452101
 30
0.0
  0
SOLID
  5
CE2
330
17
100
AcDbEntity
  8
3
  6
ByBlock
100
AcDbTrace
 10
2.336644770725423
 20
5.375084208162935
 30
0.0
 11
2.336644770725423
 21
5.435084208162934
 31
0.0
 12
2.516644770725423
 22
5.405084208162936
 32
0.0
 13
2.516644770725423
 23
5.405084208162936
 33
0.0
  0
LINE
  5
CE3
330
17
100
AcDbEntity
  8
3
  6
ByBlock
100
AcDbLine
 10
2.336644770725423
 20
5.405084208162936
 30
0.0
 11
2.096559687826863
 21
5.405084208162936
 31
0.0
  0
LINE
  5
CE5
330
17
100
AcDbEntity
  8
0
100
AcDbLine
 10
3.38845070778095
 20
6.89157716814112
 30
0.0
 11
4.127485908083513
 21
6.89157716814112
 31
0.0
  0
LINE
  5
CE6
330
17
100
AcDbEntity
  8
0
100
AcDbLine
 10
2.51345070778095
 20
6.51657716814112
 30
0.0
 11
4.067123027855142
 21
6.51657716814112
 31
0.0
  0
LINE
  5
CE7
330
17
100
AcDbEntity
  8
0
100
AcDbLine
 10
6.225525635482827
 20
4.755498714550729
 30
0.0
 11
6.225525635482827
 21
4.130498714550728
 31
0.0
  0
LINE
  5
CE8
330
17
100
AcDbEntity
  8
0
100
AcDbLine
 10
2.51345070778095
 20
4.755498714550726
 30
0.0
 11
2.513450707780951
 21
4.130498714550729
 31
0.0
  0
LINE
  5
CE9
330
17
100
AcDbEntity
  8
0
100
AcDbLine
 10
3.388450707780953
 20
4.817998714550729
 30
0.0
 11
3.38845070778095
 21
4.067998714550727
 31
0.0
  0
LINE
  5
CEA
330
17
100
AcDbEntity
  8
0
100
AcDbLine
 10
5.350525635482829
 20
4.817998714550729
 30
0.0
 11
5.350525635482828
 21
4.067998714550727
 31
0.0
  0
LINE
  5
CEB
330
17
100
AcDbEntity
  8
0
100
AcDbLine
 10
4.1737523199577
 20
7.179003884480382
 30
0.0
 11
4.028343596924537
 21
6.275662775985558
 31
0.0
  0
LINE
  5
CEC
330
17
100
AcDbEntity
  8
0
100
AcDbLine
 10
4.460994394856252
 20
7.179003884480382
 30
0.0
 11
4.315585671823093
 21
6.275662775985558
 31
0.0
  0
LINE
  5
CED
330
17
100
AcDbEntity
  8
0
100
AcDbLine
 10
4.414727982982068
 20
6.89157716814112
 30
0.0
 11
5.350525635482828
 21
6.89157716814112
 31
0.0
  0
LINE
  5
CEE
330
17
100
AcDbEntity
  8
0
100
AcDbLine
 10
4.354365102753696
 20
6.51657716814112
 30
0.0
 11
6.225525635482827
 21
6.516577168141122
 31
0.0
  0
LINE
  5
CF3
330
17
100
AcDbEntity
  8
0
 62
     7
100
AcDbLine
 10
8.451480966596726
 20
4.755498714550721
 30
0.0
 11
8.451480966596726
 21
4.130498714550727
 31
0.0
  0
LINE
  5
CF4
330
17
100
AcDbEntity
  8
0
100
AcDbLine
 10
5.35052563548283
 20
6.57907716814112
 30
0.0
 11
6.225525635482827
 21
6.57907716814112
 31
0.0
  0
LINE
  5
CF5
330
17
100
AcDbEntity
  8
0
100
AcDbLine
 10
2.51345070778095
 20
6.579077168141119
 30
0.0
 11
3.388450707780953
 21
6.579077168141119
 31
0.0
  0
LINE
  5
D23
330
17
100
AcDbEntity
  8
3
100
AcDbLine
 10
2.883200826260898
 20
6.39157716814112
 30
0.0
 11
2.883200826260898
 21
6.704077168141119
 31
0.0
  0
LINE
  5
D24
330
17
100
AcDbEntity
  8
3
100
AcDbLine
 10
5.855775517002886
 20
6.391577168141122
 30
0.0
 11
5.855775517002882
 21
6.70407716814112
 31
0.0
  0
LINE
  5
D25
330
17
100
AcDbEntity
  8
3
100
AcDbLine
 10
5.765775517002882
 20
4.442998714550726
 30
0.0
 11
5.945775517002882
 21
4.442998714550726
 31
0.0
  0
LINE
  5
D26
330
17
100
AcDbEntity
  8
3
100
AcDbLine
 10
5.855775517002886
 20
4.352998714550727
 30
0.0
 11
5.855775517002886
 21
4.532998714550726
 31
0.0
  0
LINE
  5
D27
330
17
100
AcDbEntity
  8
3
100
AcDbLine
 10
5.675775517002886
 20
4.442998714550726
 30
0.0
 11
5.57827551700288
 21
4.442998714550726
 31
0.0
  0
LINE
  5
D28
330
17
100
AcDbEntity
  8
3
100
AcDbLine
 10
6.035775517002885
 20
4.442998714550726
 30
0.0
 11
6.133275517002882
 21
4.442998714550726
 31
0.0
  0
LINE
  5
D29
330
17
100
AcDbEntity
  8
3
100
AcDbLine
 10
5.855775517002886
 20
4.262998714550725
 30
0.0
 11
5.855775517002886
 21
4.165498714550727
 31
0.0
  0
LINE
  5
D2A
330
17
100
AcDbEntity
  8
3
100
AcDbLine
 10
5.855775517002886
 20
4.622998714550726
 30
0.0
 11
5.855775517002886
 21
4.720498714550726
 31
0.0
  0
LINE
  5
D2B
330
17
100
AcDbEntity
  8
3
100
AcDbLine
 10
2.793200826260898
 20
4.442998714550729
 30
0.0
 11
2.973200826260898
 21
4.442998714550729
 31
0.0
  0
LINE
  5
D2C
330
17
100
AcDbEntity
  8
3
100
AcDbLine
 10
2.883200826260898
 20
4.352998714550729
 30
0.0
 11
2.883200826260898
 21
4.532998714550728
 31
0.0
  0
LINE
  5
D2D
330
17
100
AcDbEntity
  8
3
100
AcDbLine
 10
2.703200826260898
 20
4.442998714550729
 30
0.0
 11
2.605700826260898
 21
4.442998714550729
 31
0.0
  0
LINE
  5
D2E
330
17
100
AcDbEntity
  8
3
100
AcDbLine
 10
3.063200826260898
 20
4.442998714550729
 30
0.0
 11
3.160700826260898
 21
4.442998714550729
 31
0.0
  0
LINE
  5
D2F
330
17
100
AcDbEntity
  8
3
100
AcDbLine
 10
2.883200826260898
 20
4.262998714550728
 30
0.0
 11
2.883200826260898
 21
4.165498714550729
 31
0.0
  0
LINE
  5
D30
330
17
100
AcDbEntity
  8
3
100
AcDbLine
 10
2.883200826260898
 20
4.622998714550728
 30
0.0
 11
2.883200826260898
 21
4.720498714550728
 31
0.0
  0
LINE
  5
D47
330
17
100
AcDbEntity
  8
3
  6
HIDDEN
100
AcDbLine
 10
3.388450707780953
 20
6.579077168141119
 30
0.0
 11
4.081336474052916
 21
6.579077168141119
 31
0.0
  0
LINE
  5
D48
330
17
100
AcDbEntity
  8
3
  6
HIDDEN
100
AcDbLine
 10
4.368578548951471
 20
6.57907716814112
 30
0.0
 11
5.35052563548283
 21
6.57907716814112
 31
0.0
  0
LINE
  5
D55
330
17
100
AcDbEntity
  8
0
100
AcDbLine
 10
4.411276990354601
 20
4.755498714550729
 30
0.0
 11
6.225525635482827
 21
4.755498714550729
 31
0.0
  0
LINE
  5
D56
330
17
100
AcDbEntity
  8
0
100
AcDbLine
 10
6.225525635482827
 20
4.130498714550728
 30
0.0
 11
4.310672189973987
 21
4.130498714550727
 31
0.0
  0
LINE
  5
D57
330
17
100
AcDbEntity
  8
0
100
AcDbLine
 10
2.513450707780951
 20
4.130498714550729
 30
0.0
 11
4.023430115075433
 21
4.130498714550727
 31
0.0
  0
LINE
  5
D58
330
17
100
AcDbEntity
  8
0
100
AcDbLine
 10
4.124034915456047
 20
4.755498714550729
 30
0.0
 11
2.51345070778095
 21
4.755498714550726
 31
0.0
  0
DIMENSION
  5
D69
330
17
100
AcDbEntity
  8
3
100
AcDbDimension
  2
*D1
 10
6.837188735245018
 20
6.57907716814112
 30
0.0
 11
7.162664925721205
 21
6.54782716814112
 31
0.0
 70
    33
 71
     5
 42
-1.0
  3
STANDARD
100
AcDbAlignedDimension
 13
6.225525635482827
 23
6.51657716814112
 33
0.0
 14
6.225525635482827
 24
6.57907716814112
 34
0.0
1001
ACAD
1000
DSTYLE
1002
{
1070
    41
1040
0.125
1070
    44
1040
0.0625
1070
    78
1070
     4
1070
   140
1040
0.125
1070
   141
1040
-0.125
1070
   271
1070
     2
1070
   272
1070
     3
1070
   279
1070
     2
1070
   284
1070
     4
1070
   285
1070
     4
1070
   286
1070
     4
1070
   340
1005
1C
1002
}
  0
LINE
  5
DAE
330
17
100
AcDbEntity
  8
2
  6
HIDDEN
100
AcDbLine
 10
8.513980966596726
 20
4.599248714550723
 30
0.0
 11
8.451480966596726
 21
4.599248714550726
 31
0.0
  0
LINE
  5
DAF
330
17
100
AcDbEntity
  8
2
  6
HIDDEN
100
AcDbLine
 10
8.513980966596728
 20
4.286748714550725
 30
0.0
 11
8.451480966596726
 21
4.286748714550725
 31
0.0
  0
LINE
  5
DB0
330
17
100
AcDbEntity
  8
3
100
AcDbLine
 10
8.451480966596726
 20
4.755498714550721
 30
0.0
 11
8.51398096659672
 21
4.755498714550721
 31
0.0
  0
LINE
  5
DB1
330
17
100
AcDbEntity
  8
3
100
AcDbLine
 10
8.451480966596726
 20
4.130498714550727
 30
0.0
 11
8.513980966596726
 21
4.130498714550727
 31
0.0
  0
LINE
  5
DB2
330
17
100
AcDbEntity
  8
2
  6
HIDDEN
100
AcDbLine
 10
5.709900635482827
 20
6.57907716814112
 30
0.0
 11
5.709900635482827
 21
6.51657716814112
 31
0.0
  0
LINE
  5
DB3
330
17
100
AcDbEntity
  8
2
  6
HIDDEN
100
AcDbLine
 10
5.991150635482827
 20
6.57907716814112
 30
0.0
 11
5.991150635482827
 21
6.51657716814112
 31
0.0
  0
LINE
  5
DB4
330
17
100
AcDbEntity
  8
2
  6
HIDDEN
100
AcDbLine
 10
2.74782570778095
 20
6.579077168141119
 30
0.0
 11
2.74782570778095
 21
6.516577168141122
 31
0.0
  0
LINE
  5
DB5
330
17
100
AcDbEntity
  8
2
  6
HIDDEN
100
AcDbLine
 10
3.02907570778095
 20
6.579077168141119
 30
0.0
 11
3.02907570778095
 21
6.516577168141122
 31
0.0
  0
DIMENSION
  5
DC8
330
17
100
AcDbEntity
  8
3
100
AcDbDimension
  2
*D3
 10
1.506420341813774
 20
4.817998714550729
 30
0.0
 11
1.492221685902475
 21
4.442998714550729
 31
0.0
 70
   160
 71
     5
 42
-1.0
  3
STANDARD
100
AcDbAlignedDimension
 13
3.38845070778095
 23
4.067998714550727
 33
0.0
 14
3.388450707780953
 24
4.817998714550729
 34
0.0
 50
90.0
100
AcDbRotatedDimension
1001
ACAD
1000
DSTYLE
1002
{
1070
    41
1040
0.125
1070
    44
1040
0.0625
1070
    78
1070
     4
1070
   140
1040
0.125
1070
   141
1040
-0.125
1070
   271
1070
     5
1070
   272
1070
     3
1070
   276
1070
     2
1070
   277
1070
     5
1070
   279
1070
     2
1070
   284
1070
     4
1070
   285
1070
     4
1070
   286
1070
     4
1070
   340
1005
1C
1002
}
  0
ARC
  5
E95
330
17
100
AcDbEntity
  8
0
 62
     7
100
AcDbCircle
 10
8.421480966596726
 20
4.725498714550721
 30
0.0
 40
0.03
100
AcDbArc
 50
0.0
 51
90.0
  0
ARC
  5
E96
330
17
100
AcDbEntity
  8
0
 62
     7
100
AcDbCircle
 10
8.421480966596726
 20
4.160498714550725
 30
0.0
 40
0.03
100
AcDbArc
 50
270.0
 51
0.0
  0
ARC
  5
E97
330
17
100
AcDbEntity
  8
0
 62
     7
100
AcDbCircle
 10
8.453980966596722
 20
4.757998714550723
 30
0.0
 40
0.06
100
AcDbArc
 50
0.0000000000002544
 51
89.99999999999987
  0
ARC
  5
E98
330
17
100
AcDbEntity
  8
0
 62
     7
100
AcDbCircle
 10
8.453980966596725
 20
4.127998714550725
 30
0.0
 40
0.06
100
AcDbArc
 50
269.9999999999999
 51
0.0000000000002926
  0
DIMENSION
  5
EF4
330
17
100
AcDbEntity
  8
3
100
AcDbDimension
  2
*D5
 10
2.046037353598824
 20
6.89157716814112
 30
0.0
 11
2.046037353598823
 21
6.704077168141122
 31
0.0
 70
    32
 71
     5
 42
0.375
  3
STANDARD
100
AcDbAlignedDimension
 13
2.51345070778095
 23
6.51657716814112
 33
0.0
 14
3.38845070778095
 24
6.89157716814112
 34
0.0
 50
90.0
100
AcDbRotatedDimension
1001
ACAD
1000
DSTYLE
1002
{
1070
    41
1040
0.125
1070
    44
1040
0.0625
1070
    78
1070
     4
1070
   140
1040
0.125
1070
   141
1040
-0.125
1070
   271
1070
     2
1070
   272
1070
     3
1070
   279
1070
     2
1070
   284
1070
     4
1070
   285
1070
     4
1070
   286
1070
     4
1070
   340
1005
1C
1002
}
  0
DIMENSION
  5
F98
330
17
100
AcDbEntity
  8
3
100
AcDbDimension
  2
*D6
 10
8.138980966596728
 20
3.737502803082417
 30
0.0
 11
8.326480966596726
 21
3.380002803082417
 31
0.0
 70
    32
 71
     5
 42
0.3749999999999982
  3
STANDARD
100
AcDbAlignedDimension
 13
8.513980966596726
 23
4.127998714550725
 33
0.0
 14
8.138980966596728
 24
4.067998714550727
 34
0.0
100
AcDbRotatedDimension
1001
ACAD
1000
DSTYLE
1002
{
1070
    41
1040
0.125
1070
    44
1040
0.0625
1070
    78
1070
     4
1070
   140
1040
0.125
1070
   141
1040
-0.125
1070
   271
1070
     2
1070
   272
1070
     3
1070
   279
1070
     2
1070
   284
1070
     4
1070
   285
1070
     4
1070
   286
1070
     4
1070
   340
1005
1C
1002
}
  0
ENDSEC
  0
SECTION
  2
OBJECTS
  0
DICTIONARY
  5
C
330
0
100
AcDbDictionary
281
     1
  3
ACAD_CIP_PREVIOUS_PRODUCT_INFO
350
EF3
  3
ACAD_COLOR
350
ECF
  3
ACAD_DETAILVIEWSTYLE
350
EE8
  3
ACAD_GROUP
350
D
  3
ACAD_LAYOUT
350
EEA
  3
ACAD_MATERIAL
350
E9D
  3
ACAD_MLEADERSTYLE
350
EE4
  3
ACAD_MLINESTYLE
350
1A
  3
ACAD_PLOTSETTINGS
350
EEB
  3
ACAD_PLOTSTYLENAME
350
E9B
  3
ACAD_SCALELIST
350
ED2
  3
ACAD_SECTIONVIEWSTYLE
350
EE6
  3
ACAD_TABLESTYLE
350
ED0
  3
ACAD_VISUALSTYLE
350
EB6
  3
ACDB_RECOMPOSE_DATA
350
FC1
  3
ACDBVARIABLEDICTIONARY
350
2B
  3
AcDsDecomposeData
350
FC8
  3
DWGPROPS
350
FC2
  0
DICTIONARY
  5
F1A
330
2
100
AcDbDictionary
280
     1
281
     1
  3
ACAD_LAYERSTATES
360
F1B
  0
DICTIONARY
  5
F0F
330
E
100
AcDbDictionary
280
     1
281
     1
  3
ADSK_XREC_LAYER_RECONCILED
360
F10
  0
DICTIONARY
  5
F11
330
23
100
AcDbDictionary
280
     1
281
     1
  3
ADSK_XREC_LAYER_RECONCILED
360
F12
  0
DICTIONARY
  5
F13
330
24
100
AcDbDictionary
280
     1
281
     1
  3
ADSK_XREC_LAYER_RECONCILED
360
F14
  0
DICTIONARY
  5
F15
330
25
100
AcDbDictionary
280
     1
281
     1
  3
ADSK_XREC_LAYER_RECONCILED
360
F16
  0
XRECORD
  5
EF3
102
{ACAD_REACTORS
330
C
102
}
330
C
100
AcDbXrecord
280
     1
300
AMECH_PP
300
2015
300
PDSU_F_S
  0
DICTIONARY
  5
ECF
102
{ACAD_REACTORS
330
C
102
}
330
C
100
AcDbDictionary
281
     1
  0
DICTIONARY
  5
EE8
102
{ACAD_REACTORS
330
C
102
}
330
C
100
AcDbDictionary
281
     1
  3
Imperial24
350
EE9
  0
DICTIONARY
  5
D
102
{ACAD_REACTORS
330
C
102
}
330
C
100
AcDbDictionary
281
     1
  0
DICTIONARY
  5
EEA
102
{ACAD_REACTORS
330
C
102
}
330
C
100
AcDbDictionary
281
     1
  3
Layout1
350
EED
  3
Model
350
EEC
  0
DICTIONARY
  5
E9D
102
{ACAD_REACTORS
330
C
102
}
330
C
100
AcDbDictionary
281
     1
  3
ByBlock
350
EA6
  3
ByLayer
350
E9E
  3
Global
350
EAE
  0
DICTIONARY
  5
EE4
102
{ACAD_REACTORS
330
C
102
}
330
C
100
AcDbDictionary
281
     1
  3
Standard
350
EE5
  0
DICTIONARY
  5
1A
102
{ACAD_REACTORS
330
C
102
}
330
C
100
AcDbDictionary
281
     1
  3
STANDARD
350
1B
  0
DICTIONARY
  5
EEB
102
{ACAD_REACTORS
330
C
102
}
330
C
100
AcDbDictionary
281
     1
  0
ACDBDICTIONARYWDFLT
  5
E9B
102
{ACAD_REACTORS
330
C
102
}
330
C
100
AcDbDictionary
281
     1
  3
Normal
350
E9C
100
AcDbDictionaryWithDefault
340
E9C
  0
DICTIONARY
  5
ED2
102
{ACAD_REACTORS
330
C
102
}
330
C
100
AcDbDictionary
281
     1
  3
A0
350
ED3
  3
A1
350
ED4
  3
A2
350
ED5
  3
A3
350
ED6
  3
A4
350
ED7
  3
A5
350
ED8
  3
A6
350
ED9
  3
A7
350
EDA
  3
A8
350
EDB
  3
A9
350
EDC
  3
B0
350
EDD
  3
B1
350
EDE
  3
B2
350
EDF
  3
B3
350
EE0
  3
B4
350
EE1
  3
B5
350
EE2
  3
B6
350
EE3
  0
DICTIONARY
  5
EE6
102
{ACAD_REACTORS
330
C
102
}
330
C
100
AcDbDictionary
281
     1
  3
Imperial24
350
EE7
  0
DICTIONARY
  5
ED0
102
{ACAD_REACTORS
330
C
102
}
330
C
100
AcDbDictionary
281
     1
  3
Standard
350
ED1
  0
DICTIONARY
  5
EB6
102
{ACAD_REACTORS
330
C
102
}
330
C
100
AcDbDictionary
281
     1
  3
2dWireframe
350
EBC
  3
Basic
350
EBB
  3
Brighten
350
EC2
  3
ColorChange
350
EC6
  3
Conceptual
350
EBF
  3
Dim
350
EC1
  3
EdgeColorOff
350
ECE
  3
Facepattern
350
EC5
  3
Flat
350
EB7
  3
FlatWithEdges
350
EB8
  3
Gouraud
350
EB9
  3
GouraudWithEdges
350
EBA
  3
Hidden
350
EBE
  3
JitterOff
350
ECC
  3
Linepattern
350
EC4
  3
OverhangOff
350
ECD
  3
Realistic
350
EC0
  3
Shaded
350
ECB
  3
Shaded with edges
350
ECA
  3
Shades of Gray
350
EC7
  3
Sketchy
350
EC8
  3
Thicken
350
EC3
  3
Wireframe
350
EBD
  3
X-Ray
350
EC9
  0
XRECORD
  5
FC1
102
{ACAD_REACTORS
330
C
102
}
330
C
100
AcDbXrecord
280
     1
 90
        1
330
ED1
  0
DICTIONARY
  5
2B
102
{ACAD_REACTORS
330
C
102
}
330
C
100
AcDbDictionary
281
     1
  3
CANNOSCALE
350
F76
  3
CMLEADERSTYLE
350
F72
  3
CTABLESTYLE
350
F71
  3
CVIEWDETAILSTYLE
350
F73
  3
CVIEWSECTIONSTYLE
350
F74
  3
DIMADEC
350
2C
  3
DIMASSOC
350
FBB
  3
INDEXCTL
350
FBA
  3
LAYEREVAL
350
F78
  3
LAYERNOTIFY
350
F79
  3
LIGHTINGUNITS
350
F77
  3
LOFTANG1
350
FBC
  3
LOFTANG2
350
FBD
  3
LONGITUDE
350
FBE
  3
MSLTSCALE
350
F75
  3
SORTENTS
350
FB9
  3
XCLIPFRAME
350
FBF
  0
DICTIONARY
  5
FC8
102
{ACAD_REACTORS
330
C
102
}
330
C
100
AcDbDictionary
281
     1
  3
AcDsRecords
350
FCA
  3
AcDsSchemas
350
FC9
1001
ACAD
1070
     2
  0
XRECORD
  5
FC2
102
{ACAD_REACTORS
330
C
102
}
330
C
100
AcDbXrecord
280
     1
  1
DWGPROPS COOKIE
  2

  3

  4

  6

  7

  8
jmilewski
  9

300
=
301
=
302
=
303
=
304
=
305
=
306
=
307
=
308
=
309
=
 40
0.2666780787037037
 41
2449051.539295139
 42
2457155.411521933
  1

 90
        0
  0
DICTIONARY
  5
F1B
102
{ACAD_REACTORS
330
F1A
102
}
330
F1A
100
AcDbDictionary
281
     1
  0
XRECORD
  5
F10
102
{ACAD_REACTORS
330
F0F
102
}
330
F0F
100
AcDbXrecord
280
     1
290
     1
  0
XRECORD
  5
F12
102
{ACAD_REACTORS
330
F11
102
}
330
F11
100
AcDbXrecord
280
     1
290
     1
  0
XRECORD
  5
F14
102
{ACAD_REACTORS
330
F13
102
}
330
F13
100
AcDbXrecord
280
     1
290
     1
  0
XRECORD
  5
F16
102
{ACAD_REACTORS
330
F15
102
}
330
F15
100
AcDbXrecord
280
     1
290
     1
  0
ACDBDETAILVIEWSTYLE
  5
EE9
102
{ACAD_XDICTIONARY
360
F7E
102
}
102
{ACAD_REACTORS
330
EE8
102
}
330
EE8
100
AcDbModelDocViewStyle
 70
     0
  3
Imperial24
290
     0
100
AcDbDetailViewStyle
 70
     0
 71
     0
 90
        3
 71
     1
340
F
 40
0.24
340
0
 40
0.24
300

 40
0.36
280
     3
 71
     2
340
13
 90
       25
 71
     3
340
F
 40
0.24
 90
        1
 40
0.75
 90
        1
300
%<\AcVar ViewType \f "%tc1">% %<\AcVar ViewDetailId>%\PSCALE %<\AcVar ViewScale \f "%sn">%
 71
     4
340
13
 90
       25
340
13
 90
       25
280
     0
  0
LAYOUT
  5
EED
102
{ACAD_XDICTIONARY
360
1006
102
}
102
{ACAD_REACTORS
330
EEA
102
}
330
EEA
100
AcDbPlotSettings
  1

  2
TOSHIBA e-STUDIO351c PS3
  4

  6

 40
0.0
 41
0.0
 42
0.0
 43
0.0
 44
0.0
 45
0.0
 46
0.0
 47
0.0
 48
0.0
 49
0.0
140
0.0
141
0.0
142
1.0
143
1.0
 70
   688
 72
     0
 73
     0
 74
     5
  7
monochrome.ctb
 75
    16
147
1.0
148
0.0
149
0.0
100
AcDbLayout
  1
Layout1
 70
     0
 71
     1
 10
0.0
 20
0.0
 11
12.0
 21
9.0
 12
0.0
 22
0.0
 32
0.0
 14
1.000000000000000E+20
 24
1.000000000000000E+20
 34
1.000000000000000E+20
 15
-1.000000000000000E+20
 25
-1.000000000000000E+20
 35
-1.000000000000000E+20
146
0.0
 13
0.0
 23
0.0
 33
0.0
 16
1.0
 26
0.0
 36
0.0
 17
0.0
 27
1.0
 37
0.0
 76
     0
330
14
  0
LAYOUT
  5
EEC
102
{ACAD_XDICTIONARY
360
1004
102
}
102
{ACAD_REACTORS
330
EEA
102
}
330
EEA
100
AcDbPlotSettings
  1

  2
TOSHIBA e-STUDIO351c PS3
  4
Letter
  6

 40
6.085416316986081
 41
6.085418701171875
 42
5.746749877929687
 43
6.424072265625
 44
215.8999938964844
 45
279.3999938964844
 46
0.0
 47
0.0
 48
0.0
 49
0.0
140
0.0
141
0.0
142
1.0
143
1.757059341421486
 70
 11952
 72
     0
 73
     1
 74
     0
  7
monochrome.ctb
 75
     0
147
0.5691327415219712
148
94.12703768717859
149
0.8339199407362203
100
AcDbLayout
  1
Model
 70
     1
 71
     0
 10
0.0
 20
0.0
 11
12.0
 21
9.0
 12
0.0
 22
0.0
 32
0.0
 14
0.0
 24
0.0
 34
0.0
 15
0.0
 25
0.0
 35
0.0
146
0.0
 13
0.0
 23
0.0
 33
0.0
 16
1.0
 26
0.0
 36
0.0
 17
0.0
 27
1.0
 37
0.0
 76
     0
330
17
331
E99
1001
ACAD_PSEXT
1000
TOSHIBA e-STUDIO351c PS3
1000
TOSHIBA e-STUDIO351c PS3
1000
192.168.1.30
1000

1070
     0
  0
MATERIAL
  5
EA6
102
{ACAD_XDICTIONARY
360
EA7
102
}
102
{ACAD_REACTORS
330
E9D
102
}
330
E9D
100
AcDbMaterial
  1
ByBlock
 72
     0
 43
0.0208333333333333
 43
0.0
 43
0.0
 43
0.0
 43
0.0
 43
0.0208333333333333
 43
0.0
 43
0.0
 43
0.0
 43
0.0
 43
1.0
 43
0.0
 43
0.0
 43
0.0
 43
0.0
 43
1.0
 77
     0
 47
0.0208333333333333
 47
0.0
 47
0.0
 47
0.0
 47
0.0
 47
0.0208333333333333
 47
0.0
 47
0.0
 47
0.0
 47
0.0
 47
1.0
 47
0.0
 47
0.0
 47
0.0
 47
0.0
 47
1.0
171
     0
 49
0.0208333333333333
 49
0.0
 49
0.0
 49
0.0
 49
0.0
 49
0.0208333333333333
 49
0.0
 49
0.0
 49
0.0
 49
0.0
 49
1.0
 49
0.0
 49
0.0
 49
0.0
 49
0.0
 49
1.0
175
     0
142
0.0208333333333333
142
0.0
142
0.0
142
0.0
142
0.0
142
0.0208333333333333
142
0.0
142
0.0
142
0.0
142
0.0
142
1.0
142
0.0
142
0.0
142
0.0
142
0.0
142
1.0
179
     0
144
0.0208333333333333
144
0.0
144
0.0
144
0.0
144
0.0
144
0.0208333333333333
144
0.0
144
0.0
144
0.0
144
0.0
144
1.0
144
0.0
144
0.0
144
0.0
144
0.0
144
1.0
147
0.0208333333333333
147
0.0
147
0.0
147
0.0
147
0.0
147
0.0208333333333333
147
0.0
147
0.0
147
0.0
147
0.0
147
1.0
147
0.0
147
0.0
147
0.0
147
0.0
147
1.0
  0
MATERIAL
  5
E9E
102
{ACAD_XDICTIONARY
360
E9F
102
}
102
{ACAD_REACTORS
330
E9D
102
}
330
E9D
100
AcDbMaterial
  1
ByLayer
 72
     0
 43
0.0208333333333333
 43
0.0
 43
0.0
 43
0.0
 43
0.0
 43
0.0208333333333333
 43
0.0
 43
0.0
 43
0.0
 43
0.0
 43
1.0
 43
0.0
 43
0.0
 43
0.0
 43
0.0
 43
1.0
 77
     0
 47
0.0208333333333333
 47
0.0
 47
0.0
 47
0.0
 47
0.0
 47
0.0208333333333333
 47
0.0
 47
0.0
 47
0.0
 47
0.0
 47
1.0
 47
0.0
 47
0.0
 47
0.0
 47
0.0
 47
1.0
171
     0
 49
0.0208333333333333
 49
0.0
 49
0.0
 49
0.0
 49
0.0
 49
0.0208333333333333
 49
0.0
 49
0.0
 49
0.0
 49
0.0
 49
1.0
 49
0.0
 49
0.0
 49
0.0
 49
0.0
 49
1.0
175
     0
142
0.0208333333333333
142
0.0
142
0.0
142
0.0
142
0.0
142
0.0208333333333333
142
0.0
142
0.0
142
0.0
142
0.0
142
1.0
142
0.0
142
0.0
142
0.0
142
0.0
142
1.0
179
     0
144
0.0208333333333333
144
0.0
144
0.0
144
0.0
144
0.0
144
0.0208333333333333
144
0.0
144
0.0
144
0.0
144
0.0
144
1.0
144
0.0
144
0.0
144
0.0
144
0.0
144
1.0
147
0.0208333333333333
147
0.0
147
0.0
147
0.0
147
0.0
147
0.0208333333333333
147
0.0
147
0.0
147
0.0
147
0.0
147
1.0
147
0.0
147
0.0
147
0.0
147
0.0
147
1.0
  0
MATERIAL
  5
EAE
102
{ACAD_XDICTIONARY
360
EAF
102
}
102
{ACAD_REACTORS
330
E9D
102
}
330
E9D
100
AcDbMaterial
  1
Global
 72
     0
 43
0.0208333333333333
 43
0.0
 43
0.0
 43
0.0
 43
0.0
 43
0.0208333333333333
 43
0.0
 43
0.0
 43
0.0
 43
0.0
 43
1.0
 43
0.0
 43
0.0
 43
0.0
 43
0.0
 43
1.0
 77
     0
 47
0.0208333333333333
 47
0.0
 47
0.0
 47
0.0
 47
0.0
 47
0.0208333333333333
 47
0.0
 47
0.0
 47
0.0
 47
0.0
 47
1.0
 47
0.0
 47
0.0
 47
0.0
 47
0.0
 47
1.0
171
     0
 49
0.0208333333333333
 49
0.0
 49
0.0
 49
0.0
 49
0.0
 49
0.0208333333333333
 49
0.0
 49
0.0
 49
0.0
 49
0.0
 49
1.0
 49
0.0
 49
0.0
 49
0.0
 49
0.0
 49
1.0
175
     0
142
0.0208333333333333
142
0.0
142
0.0
142
0.0
142
0.0
142
0.0208333333333333
142
0.0
142
0.0
142
0.0
142
0.0
142
1.0
142
0.0
142
0.0
142
0.0
142
0.0
142
1.0
179
     0
144
0.0208333333333333
144
0.0
144
0.0
144
0.0
144
0.0
144
0.0208333333333333
144
0.0
144
0.0
144
0.0
144
0.0
144
1.0
144
0.0
144
0.0
144
0.0
144
0.0
144
1.0
147
0.0208333333333333
147
0.0
147
0.0
147
0.0
147
0.0
147
0.0208333333333333
147
0.0
147
0.0
147
0.0
147
0.0
147
1.0
147
0.0
147
0.0
147
0.0
147
0.0
147
1.0
  0
MLEADERSTYLE
  5
EE5
102
{ACAD_XDICTIONARY
360
1000
102
}
102
{ACAD_REACTORS
330
EE4
102
}
330
EE4
100
AcDbMLeaderStyle
170
     2
171
     1
172
     0
 90
        2
 40
0.0
 41
0.0
173
     1
 91
-1056964608
340
11
 92
       -2
290
     1
 42
0.09
291
     1
 43
0.36
  3
Standard
 44
0.18
300

342
F
174
     1
178
     6
175
     1
176
     0
 93
-1056964608
 45
0.18
292
     0
297
     0
 46
0.18
 94
-1056964608
 47
1.0
 49
1.0
140
1.0
293
     1
141
0.0
294
     1
177
     0
142
1.0
295
     0
296
     0
143
0.125
1001
ACAD_MLEADERVER
1070
     2
  0
MLINESTYLE
  5
1B
102
{ACAD_REACTORS
330
1A
102
}
330
1A
100
AcDbMlineStyle
  2
STANDARD
 70
     0
  3

 62
   256
 51
90.0
 52
90.0
 71
     2
 49
0.5
 62
   256
  6
BYLAYER
 49
-0.5
 62
   256
  6
BYLAYER
  0
ACDBPLACEHOLDER
  5
E9C
102
{ACAD_REACTORS
330
E9B
102
}
330
E9B
  0
SCALE
  5
ED3
102
{ACAD_REACTORS
330
ED2
102
}
330
ED2
100
AcDbScale
 70
     0
300
1:1
140
1.0
141
1.0
290
     1
  0
SCALE
  5
ED4
102
{ACAD_REACTORS
330
ED2
102
}
330
ED2
100
AcDbScale
 70
     0
300
1/128" = 1'-0"
140
0.0078125
141
12.0
290
     0
  0
SCALE
  5
ED5
102
{ACAD_REACTORS
330
ED2
102
}
330
ED2
100
AcDbScale
 70
     0
300
1/64" = 1'-0"
140
0.015625
141
12.0
290
     0
  0
SCALE
  5
ED6
102
{ACAD_REACTORS
330
ED2
102
}
330
ED2
100
AcDbScale
 70
     0
300
1/32" = 1'-0"
140
0.03125
141
12.0
290
     0
  0
SCALE
  5
ED7
102
{ACAD_REACTORS
330
ED2
102
}
330
ED2
100
AcDbScale
 70
     0
300
1/16" = 1'-0"
140
0.0625
141
12.0
290
     0
  0
SCALE
  5
ED8
102
{ACAD_REACTORS
330
ED2
102
}
330
ED2
100
AcDbScale
 70
     0
300
3/32" = 1'-0"
140
0.09375
141
12.0
290
     0
  0
SCALE
  5
ED9
102
{ACAD_REACTORS
330
ED2
102
}
330
ED2
100
AcDbScale
 70
     0
300
1/8" = 1'-0"
140
0.125
141
12.0
290
     0
  0
SCALE
  5
EDA
102
{ACAD_REACTORS
330
ED2
102
}
330
ED2
100
AcDbScale
 70
     0
300
3/16" = 1'-0"
140
0.1875
141
12.0
290
     0
  0
SCALE
  5
EDB
102
{ACAD_REACTORS
330
ED2
102
}
330
ED2
100
AcDbScale
 70
     0
300
1/4" = 1'-0"
140
0.25
141
12.0
290
     0
  0
SCALE
  5
EDC
102
{ACAD_REACTORS
330
ED2
102
}
330
ED2
100
AcDbScale
 70
     0
300
3/8" = 1'-0"
140
0.375
141
12.0
290
     0
  0
SCALE
  5
EDD
102
{ACAD_REACTORS
330
ED2
102
}
330
ED2
100
AcDbScale
 70
     0
300
1/2" = 1'-0"
140
0.5
141
12.0
290
     0
  0
SCALE
  5
EDE
102
{ACAD_REACTORS
330
ED2
102
}
330
ED2
100
AcDbScale
 70
     0
300
3/4" = 1'-0"
140
0.75
141
12.0
290
     0
  0
SCALE
  5
EDF
102
{ACAD_REACTORS
330
ED2
102
}
330
ED2
100
AcDbScale
 70
     0
300
1" = 1'-0"
140
1.0
141
12.0
290
     0
  0
SCALE
  5
EE0
102
{ACAD_REACTORS
330
ED2
102
}
330
ED2
100
AcDbScale
 70
     0
300
1-1/2" = 1'-0"
140
1.5
141
12.0
290
     0
  0
SCALE
  5
EE1
102
{ACAD_REACTORS
330
ED2
102
}
330
ED2
100
AcDbScale
 70
     0
300
3" = 1'-0"
140
3.0
141
12.0
290
     0
  0
SCALE
  5
EE2
102
{ACAD_REACTORS
330
ED2
102
}
330
ED2
100
AcDbScale
 70
     0
300
6" = 1'-0"
140
6.0
141
12.0
290
     0
  0
SCALE
  5
EE3
102
{ACAD_REACTORS
330
ED2
102
}
330
ED2
100
AcDbScale
 70
     0
300
1'-0" = 1'-0"
140
12.0
141
12.0
290
     0
  0
ACDBSECTIONVIEWSTYLE
  5
EE7
102
{ACAD_XDICTIONARY
360
F7C
102
}
102
{ACAD_REACTORS
330
EE6
102
}
330
EE6
100
AcDbModelDocViewStyle
 70
     0
  3
Imperial24
290
     0
100
AcDbSectionViewStyle
 70
     0
 71
     0
 90
       78
 71
     1
340
F
 40
0.24
340
0
340
0
 40
0.24
300
I, O, Q, S, X, Z
 40
0.48
 90
        3
 40
0.18
 90
        1
 71
     2
340
13
 90
       25
340
13
 90
       50
 40
0.24
 40
0.0
 40
0.24
 71
     3
340
F
 40
0.24
 90
        1
 40
0.75
 90
        1
300
%<\AcVar ViewType \f "%tc1">% %<\AcVar ViewSectionStartId>%-%<\AcVar ViewSectionEndId>%\PSCALE %<\AcVar ViewScale \f "%sn">%
 71
     4
300
ANSI31
 40
1.0
 90
        0
290
     0
290
     0
 90
        6
 40
0.0
 40
1.570796326794896
 40
0.2617993877991494
 40
1.308996938995747
 40
-0.2617993877991494
 40
1.832595714594044
  0
TABLESTYLE
  5
ED1
102
{ACAD_XDICTIONARY
360
F7A
102
}
102
{ACAD_REACTORS
330
ED0
102
}
330
ED0
100
AcDbTableStyle
  3
Standard
 70
     0
 71
     0
 40
0.06
 41
0.06
280
     0
281
     0
  7
STANDARD
140
0.18
170
     2
 62
     0
 63
     7
283
     0
274
    -2
284
     1
 64
     0
275
    -2
285
     1
 65
     0
276
    -2
286
     1
 66
     0
277
    -2
287
     1
 67
     0
278
    -2
288
     1
 68
     0
279
    -2
289
     1
 69
     0
  7
STANDARD
140
0.25
170
     5
 62
     0
 63
     7
283
     0
274
    -2
284
     1
 64
     0
275
    -2
285
     1
 65
     0
276
    -2
286
     1
 66
     0
277
    -2
287
     1
 67
     0
278
    -2
288
     1
 68
     0
279
    -2
289
     1
 69
     0
  7
STANDARD
140
0.18
170
     5
 62
     0
 63
     7
283
     0
274
    -2
284
     1
 64
     0
275
    -2
285
     1
 65
     0
276
    -2
286
     1
 66
     0
277
    -2
287
     1
 67
     0
278
    -2
288
     1
 68
     0
279
    -2
289
     1
 69
     0
  0
VISUALSTYLE
  5
EBC
102
{ACAD_XDICTIONARY
360
FD8
102
}
102
{ACAD_REACTORS
330
EB6
102
}
330
EB6
100
AcDbVisualStyle
  2
2dWireframe
 70
     4
 71
     0
 72
     2
 73
     0
 90
        0
 40
-0.6
 41
-30.0
 62
     5
 63
     7
 74
     1
 91
        4
 64
     7
 65
   257
 75
     1
175
     1
 42
1.0
 92
        0
 66
   257
 43
1.0
 76
     1
 77
     6
 78
     2
 67
     7
 79
     5
170
     0
171
     0
290
     0
174
     0
 93
        1
 44
0.0
173
     0
291
     0
 45
0.0
1001
ACAD
1000
AcDbSavedByObjectVersion
1070
     0
  0
VISUALSTYLE
  5
EBB
102
{ACAD_XDICTIONARY
360
FD6
102
}
102
{ACAD_REACTORS
330
EB6
102
}
330
EB6
100
AcDbVisualStyle
  2
Basic
 70
     7
 71
     1
 72
     0
 73
     1
 90
        0
 40
-0.6
 41
-30.0
 62
     5
 63
     7
 74
     0
 91
        4
 64
     7
 65
   257
 75
     1
175
     1
 42
1.0
 92
        8
 66
     7
 43
1.0
 76
     1
 77
     6
 78
     2
 67
     7
 79
     5
170
     0
171
     0
290
     0
174
     0
 93
        1
 44
0.0
173
     0
291
     1
 45
0.0
1001
ACAD
1000
AcDbSavedByObjectVersion
1070
     0
  0
VISUALSTYLE
  5
EC2
102
{ACAD_XDICTIONARY
360
FE4
102
}
102
{ACAD_REACTORS
330
EB6
102
}
330
EB6
100
AcDbVisualStyle
  2
Brighten
 70
    12
 71
     2
 72
     2
 73
     0
 90
        0
 40
-0.6
 41
-30.0
 62
     5
 63
     7
 74
     1
 91
        4
 64
     7
 65
   257
 75
     1
175
     1
 42
1.0
 92
        8
 66
     7
 43
1.0
 76
     1
 77
     6
 78
     2
 67
     7
 79
     5
170
     0
171
     0
290
     0
174
     0
 93
        1
 44
50.0
173
     0
291
     1
 45
0.0
1001
ACAD
1000
AcDbSavedByObjectVersion
1070
     0
  0
VISUALSTYLE
  5
EC6
102
{ACAD_XDICTIONARY
360
FEC
102
}
102
{ACAD_REACTORS
330
EB6
102
}
330
EB6
100
AcDbVisualStyle
  2
ColorChange
 70
    16
 71
     2
 72
     2
 73
     3
 90
        0
 40
-0.6
 41
-30.0
 62
     5
 63
     8
 74
     1
 91
        4
 64
     7
 65
   257
 75
     1
175
     1
 42
1.0
 92
        8
 66
     8
 43
1.0
 76
     1
 77
     6
 78
     2
 67
     7
 79
     5
170
     0
171
     0
290
     0
174
     0
 93
        1
 44
0.0
173
     0
291
     1
 45
0.0
1001
ACAD
1000
AcDbSavedByObjectVersion
1070
     0
  0
VISUALSTYLE
  5
EBF
102
{ACAD_XDICTIONARY
360
FDE
102
}
102
{ACAD_REACTORS
330
EB6
102
}
330
EB6
100
AcDbVisualStyle
  2
Conceptual
 70
     9
 71
     3
 72
     2
 73
     0
 90
        0
 40
-0.6
 41
-30.0
 62
     5
 63
     7
 74
     2
 91
        2
 64
     7
 65
   257
 75
     1
175
     1
 42
179.0
 92
        8
 66
     7
 43
1.0
 76
     1
 77
     6
 78
     2
 67
     7
 79
     3
170
     0
171
     0
290
     0
174
     0
 93
        1
 44
0.0
173
     0
291
     0
 45
0.0
1001
ACAD
1000
AcDbSavedByObjectVersion
1070
     0
  0
VISUALSTYLE
  5
EC1
102
{ACAD_XDICTIONARY
360
FE2
102
}
102
{ACAD_REACTORS
330
EB6
102
}
330
EB6
100
AcDbVisualStyle
  2
Dim
 70
    11
 71
     2
 72
     2
 73
     0
 90
        0
 40
-0.6
 41
-30.0
 62
     5
 63
     7
 74
     1
 91
        4
 64
     7
 65
   257
 75
     1
175
     1
 42
1.0
 92
        8
 66
     7
 43
1.0
 76
     1
 77
     6
 78
     2
 67
     7
 79
     5
170
     0
171
     0
290
     0
174
     0
 93
        1
 44
-50.0
173
     0
291
     1
 45
0.0
1001
ACAD
1000
AcDbSavedByObjectVersion
1070
     0
  0
VISUALSTYLE
  5
ECE
102
{ACAD_XDICTIONARY
360
FFC
102
}
102
{ACAD_REACTORS
330
EB6
102
}
330
EB6
100
AcDbVisualStyle
  2
EdgeColorOff
 70
    22
 71
     2
 72
     2
 73
     0
 90
        0
 40
-0.6
 41
-30.0
 62
     5
 63
     7
 74
     1
 91
        4
 64
     7
 65
   257
 75
     1
175
     1
 42
1.0
 92
        8
 66
     7
 43
1.0
 76
     1
 77
     6
 78
     2
 67
     7
 79
     5
170
     0
171
     0
290
     0
174
     0
 93
        1
 44
0.0
173
     0
291
     1
 45
0.0
1001
ACAD
1000
AcDbSavedByObjectVersion
1070
     0
  0
VISUALSTYLE
  5
EC5
102
{ACAD_XDICTIONARY
360
FEA
102
}
102
{ACAD_REACTORS
330
EB6
102
}
330
EB6
100
AcDbVisualStyle
  2
Facepattern
 70
    15
 71
     2
 72
     2
 73
     0
 90
        0
 40
-0.6
 41
-30.0
 62
     5
 63
     7
 74
     1
 91
        4
 64
     7
 65
   257
 75
     1
175
     1
 42
1.0
 92
        8
 66
     7
 43
1.0
 76
     1
 77
     6
 78
     2
 67
     7
 79
     5
170
     0
171
     0
290
     0
174
     0
 93
        1
 44
0.0
173
     0
291
     1
 45
0.0
1001
ACAD
1000
AcDbSavedByObjectVersion
1070
     0
  0
VISUALSTYLE
  5
EB7
102
{ACAD_XDICTIONARY
360
FCE
102
}
102
{ACAD_REACTORS
330
EB6
102
}
330
EB6
100
AcDbVisualStyle
  2
Flat
 70
     0
 71
     2
 72
     1
 73
     1
 90
        2
 40
-0.6
 41
30.0
 62
     5
 63
     7
 74
     0
 91
        0
 64
     7
 65
   257
 75
     1
175
     1
 42
1.0
 92
        8
 66
     7
 43
1.0
 76
     1
 77
     6
 78
     2
 67
     7
 79
     5
170
     0
171
     0
290
     0
174
     0
 93
       13
 44
0.0
173
     0
291
     1
 45
0.0
1001
ACAD
1000
AcDbSavedByObjectVersion
1070
     0
  0
VISUALSTYLE
  5
EB8
102
{ACAD_XDICTIONARY
360
FD0
102
}
102
{ACAD_REACTORS
330
EB6
102
}
330
EB6
100
AcDbVisualStyle
  2
FlatWithEdges
 70
     1
 71
     2
 72
     1
 73
     1
 90
        2
 40
-0.6
 41
30.0
 62
     5
 63
     7
 74
     1
 91
        0
 64
     7
 65
   257
 75
     1
175
     1
 42
1.0
 92
        0
 66
   257
 43
1.0
 76
     1
 77
     6
 78
     2
 67
     7
 79
     5
170
     0
171
     0
290
     0
174
     0
 93
       13
 44
0.0
173
     0
291
     1
 45
0.0
1001
ACAD
1000
AcDbSavedByObjectVersion
1070
     0
  0
VISUALSTYLE
  5
EB9
102
{ACAD_XDICTIONARY
360
FD2
102
}
102
{ACAD_REACTORS
330
EB6
102
}
330
EB6
100
AcDbVisualStyle
  2
Gouraud
 70
     2
 71
     2
 72
     2
 73
     1
 90
        2
 40
-0.6
 41
30.0
 62
     5
 63
     7
 74
     0
 91
        0
 64
     7
 65
   257
 75
     1
175
     1
 42
1.0
 92
        0
 66
     7
 43
1.0
 76
     1
 77
     6
 78
     2
 67
     7
 79
     5
170
     0
171
     0
290
     0
174
     0
 93
       13
 44
0.0
173
     0
291
     1
 45
0.0
1001
ACAD
1000
AcDbSavedByObjectVersion
1070
     0
  0
VISUALSTYLE
  5
EBA
102
{ACAD_XDICTIONARY
360
FD4
102
}
102
{ACAD_REACTORS
330
EB6
102
}
330
EB6
100
AcDbVisualStyle
  2
GouraudWithEdges
 70
     3
 71
     2
 72
     2
 73
     1
 90
        2
 40
-0.6
 41
30.0
 62
     5
 63
     7
 74
     1
 91
        0
 64
     7
 65
   257
 75
     1
175
     1
 42
1.0
 92
        0
 66
   257
 43
1.0
 76
     1
 77
     6
 78
     2
 67
     7
 79
     5
170
     0
171
     0
290
     0
174
     0
 93
       13
 44
0.0
173
     0
291
     1
 45
0.0
1001
ACAD
1000
AcDbSavedByObjectVersion
1070
     0
  0
VISUALSTYLE
  5
EBE
102
{ACAD_XDICTIONARY
360
FDC
102
}
102
{ACAD_REACTORS
330
EB6
102
}
330
EB6
100
AcDbVisualStyle
  2
Hidden
 70
     6
 71
     1
 72
     2
 73
     2
 90
        0
 40
-0.6
 41
-30.0
 62
     5
 63
     7
 74
     2
 91
        2
 64
     7
 65
   257
 75
     2
175
     1
 42
40.0
 92
        0
 66
   257
 43
1.0
 76
     1
 77
     6
 78
     2
 67
     7
 79
     3
170
     0
171
     0
290
     0
174
     0
 93
        1
 44
0.0
173
     0
291
     0
 45
0.0
1001
ACAD
1000
AcDbSavedByObjectVersion
1070
     0
  0
VISUALSTYLE
  5
ECC
102
{ACAD_XDICTIONARY
360
FF8
102
}
102
{ACAD_REACTORS
330
EB6
102
}
330
EB6
100
AcDbVisualStyle
  2
JitterOff
 70
    20
 71
     2
 72
     2
 73
     0
 90
        0
 40
-0.6
 41
-30.0
 62
     5
 63
     7
 74
     1
 91
        4
 64
     7
 65
   257
 75
     1
175
     1
 42
1.0
 92
       10
 66
     7
 43
1.0
 76
     1
 77
     6
 78
     2
 67
     7
 79
     5
170
     0
171
     0
290
     0
174
     0
 93
        1
 44
0.0
173
     0
291
     1
 45
0.0
1001
ACAD
1000
AcDbSavedByObjectVersion
1070
     0
  0
VISUALSTYLE
  5
EC4
102
{ACAD_XDICTIONARY
360
FE8
102
}
102
{ACAD_REACTORS
330
EB6
102
}
330
EB6
100
AcDbVisualStyle
  2
Linepattern
 70
    14
 71
     2
 72
     2
 73
     0
 90
        0
 40
-0.6
 41
-30.0
 62
     5
 63
     7
 74
     1
 91
        4
 64
     7
 65
   257
 75
     7
175
     7
 42
1.0
 92
        8
 66
     7
 43
1.0
 76
     1
 77
     6
 78
     2
 67
     7
 79
     5
170
     0
171
     0
290
     0
174
     0
 93
        1
 44
0.0
173
     0
291
     1
 45
0.0
1001
ACAD
1000
AcDbSavedByObjectVersion
1070
     0
  0
VISUALSTYLE
  5
ECD
102
{ACAD_XDICTIONARY
360
FFA
102
}
102
{ACAD_REACTORS
330
EB6
102
}
330
EB6
100
AcDbVisualStyle
  2
OverhangOff
 70
    21
 71
     2
 72
     2
 73
     0
 90
        0
 40
-0.6
 41
-30.0
 62
     5
 63
     7
 74
     1
 91
        4
 64
     7
 65
   257
 75
     1
175
     1
 42
1.0
 92
        9
 66
     7
 43
1.0
 76
     1
 77
     6
 78
     2
 67
     7
 79
     5
170
     0
171
     0
290
     0
174
     0
 93
        1
 44
0.0
173
     0
291
     1
 45
0.0
1001
ACAD
1000
AcDbSavedByObjectVersion
1070
     0
  0
VISUALSTYLE
  5
EC0
102
{ACAD_XDICTIONARY
360
FE0
102
}
102
{ACAD_REACTORS
330
EB6
102
}
330
EB6
100
AcDbVisualStyle
  2
Realistic
 70
     8
 71
     2
 72
     3
 73
     0
 90
        2
 40
-0.6
 41
30.0
 62
     5
 63
     7
 74
     0
 91
        0
 64
     7
 65
   257
 75
     1
175
     1
 42
1.0
 92
        8
 66
   257
 43
1.0
 76
     1
 77
     6
 78
     2
 67
     7
 79
     3
170
     0
171
     0
290
     0
174
     0
 93
       13
 44
0.0
173
     0
291
     0
 45
0.0
1001
ACAD
1000
AcDbSavedByObjectVersion
1070
     0
  0
VISUALSTYLE
  5
ECB
102
{ACAD_XDICTIONARY
360
FF6
102
}
102
{ACAD_REACTORS
330
EB6
102
}
330
EB6
100
AcDbVisualStyle
  2
Shaded
 70
    27
 71
     2
 72
     2
 73
     1
 90
        2
 40
-0.6
 41
30.0
 62
     5
 63
     7
 74
     0
 91
        4
 64
     7
 65
   257
 75
     1
175
     1
 42
1.0
 92
        8
 66
   257
 43
1.0
 76
     1
 77
     6
 78
     2
 67
     8
 79
     3
170
     0
171
     0
290
     0
174
     0
 93
        5
 44
0.0
173
     0
291
     0
 45
0.0
1001
ACAD
1000
AcDbSavedByObjectVersion
1070
     0
  0
VISUALSTYLE
  5
ECA
102
{ACAD_XDICTIONARY
360
FF4
102
}
102
{ACAD_REACTORS
330
EB6
102
}
330
EB6
100
AcDbVisualStyle
  2
Shaded with edges
 70
    26
 71
     2
 72
     2
 73
     1
 90
        2
 40
-0.6
 41
30.0
 62
     5
 63
     7
 74
     1
 91
       10
 64
     7
 65
   257
 75
     2
175
     1
 42
1.0
 92
        8
 66
   257
 43
1.0
 76
     1
 77
     6
 78
     2
 67
     7
 79
     3
170
     0
171
     0
290
     0
174
     0
 93
        5
 44
0.0
173
     0
291
     0
 45
0.0
1001
ACAD
1000
AcDbSavedByObjectVersion
1070
     0
  0
VISUALSTYLE
  5
EC7
102
{ACAD_XDICTIONARY
360
FEE
102
}
102
{ACAD_REACTORS
330
EB6
102
}
330
EB6
100
AcDbVisualStyle
  2
Shades of Gray
 70
    23
 71
     2
 72
     2
 73
     3
 90
        0
 40
-0.6
 41
-30.0
 62
     5
 63
     7
 74
     2
 91
        2
 64
     7
 65
     7
 75
     1
175
     1
 42
40.0
 92
        8
 66
     7
 43
1.0
 76
     1
 77
     6
 78
     2
 67
     7
 79
     3
170
     0
171
     0
290
     0
174
     0
 93
        1
 44
0.0
173
     0
291
     0
 45
0.0
1001
ACAD
1000
AcDbSavedByObjectVersion
1070
     0
  0
VISUALSTYLE
  5
EC8
102
{ACAD_XDICTIONARY
360
FF0
102
}
102
{ACAD_REACTORS
330
EB6
102
}
330
EB6
100
AcDbVisualStyle
  2
Sketchy
 70
    24
 71
     1
 72
     2
 73
     2
 90
        0
 40
-0.6
 41
-30.0
 62
     5
 63
     7
 74
     2
 91
        2
 64
     7
 65
     7
 75
     1
175
     1
 42
40.0
 92
       11
 66
     7
 43
1.0
 76
     1
 77
     6
 78
     2
 67
     7
 79
     6
170
     0
171
     0
290
     0
174
     0
 93
        1
 44
0.0
173
     0
291
     0
 45
0.0
1001
ACAD
1000
AcDbSavedByObjectVersion
1070
     0
  0
VISUALSTYLE
  5
EC3
102
{ACAD_XDICTIONARY
360
FE6
102
}
102
{ACAD_REACTORS
330
EB6
102
}
330
EB6
100
AcDbVisualStyle
  2
Thicken
 70
    13
 71
     2
 72
     2
 73
     0
 90
        0
 40
-0.6
 41
-30.0
 62
     5
 63
     7
 74
     1
 91
        4
 64
     7
 65
   257
 75
     1
175
     1
 42
1.0
 92
       12
 66
     7
 43
1.0
 76
     1
 77
     6
 78
     2
 67
     7
 79
     5
170
     0
171
     0
290
     0
174
     0
 93
        1
 44
0.0
173
     0
291
     1
 45
0.0
1001
ACAD
1000
AcDbSavedByObjectVersion
1070
     0
  0
VISUALSTYLE
  5
EBD
102
{ACAD_XDICTIONARY
360
FDA
102
}
102
{ACAD_REACTORS
330
EB6
102
}
330
EB6
100
AcDbVisualStyle
  2
Wireframe
 70
     5
 71
     0
 72
     2
 73
     0
 90
        0
 40
-0.6
 41
-30.0
 62
     5
 63
     7
 74
     1
 91
        4
 64
     7
 65
   257
 75
     1
175
     1
 42
1.0
 92
        0
 66
   257
 43
1.0
 76
     1
 77
     6
 78
     2
 67
     7
 79
     3
170
     0
171
     0
290
     0
174
     0
 93
        1
 44
0.0
173
     0
291
     0
 45
0.0
1001
ACAD
1000
AcDbSavedByObjectVersion
1070
     0
  0
VISUALSTYLE
  5
EC9
102
{ACAD_XDICTIONARY
360
FF2
102
}
102
{ACAD_REACTORS
330
EB6
102
}
330
EB6
100
AcDbVisualStyle
  2
X-Ray
 70
    25
 71
     2
 72
     2
 73
     1
 90
        1
 40
0.5
 41
-30.0
 62
     5
 63
     7
 74
     1
 91
        0
 64
     7
 65
   257
 75
     1
175
     1
 42
1.0
 92
        8
 66
     7
 43
1.0
 76
     1
 77
     6
 78
     2
 67
     7
 79
     3
170
     0
171
     0
290
     0
174
     0
 93
       13
 44
0.0
173
     0
291
     0
 45
0.0
1001
ACAD
1000
AcDbSavedByObjectVersion
1070
     0
  0
DICTIONARYVAR
  5
F76
102
{ACAD_REACTORS
330
2B
102
}
330
2B
100
DictionaryVariables
280
     0
  1
1:1
  0
DICTIONARYVAR
  5
F72
102
{ACAD_REACTORS
330
2B
102
}
330
2B
100
DictionaryVariables
280
     0
  1
STANDARD
  0
DICTIONARYVAR
  5
F71
102
{ACAD_REACTORS
330
2B
102
}
330
2B
100
DictionaryVariables
280
     0
  1
STANDARD
  0
DICTIONARYVAR
  5
F73
102
{ACAD_REACTORS
330
2B
102
}
330
2B
100
DictionaryVariables
280
     0
  1
Imperial24
  0
DICTIONARYVAR
  5
F74
102
{ACAD_REACTORS
330
2B
102
}
330
2B
100
DictionaryVariables
280
     0
  1
Imperial24
  0
DICTIONARYVAR
  5
2C
102
{ACAD_REACTORS
330
2B
102
}
330
2B
100
DictionaryVariables
280
     0
  1
2
  0
DICTIONARYVAR
  5
FBB
102
{ACAD_REACTORS
330
2B
102
}
330
2B
100
DictionaryVariables
280
     0
  1
1
  0
DICTIONARYVAR
  5
FBA
102
{ACAD_REACTORS
330
2B
102
}
330
2B
100
DictionaryVariables
280
     0
  1
0
  0
DICTIONARYVAR
  5
F78
102
{ACAD_REACTORS
330
2B
102
}
330
2B
100
DictionaryVariables
280
     0
  1
1
  0
DICTIONARYVAR
  5
F79
102
{ACAD_REACTORS
330
2B
102
}
330
2B
100
DictionaryVariables
280
     0
  1
15
  0
DICTIONARYVAR
  5
F77
102
{ACAD_REACTORS
330
2B
102
}
330
2B
100
DictionaryVariables
280
     0
  1
0
  0
DICTIONARYVAR
  5
FBC
102
{ACAD_REACTORS
330
2B
102
}
330
2B
100
DictionaryVariables
280
     0
  1
1.570796
  0
DICTIONARYVAR
  5
FBD
102
{ACAD_REACTORS
330
2B
102
}
330
2B
100
DictionaryVariables
280
     0
  1
1.570796
  0
DICTIONARYVAR
  5
FBE
102
{ACAD_REACTORS
330
2B
102
}
330
2B
100
DictionaryVariables
280
     0
  1
-122.394000
  0
DICTIONARYVAR
  5
F75
102
{ACAD_REACTORS
330
2B
102
}
330
2B
100
DictionaryVariables
280
     0
  1
0
  0
DICTIONARYVAR
  5
FB9
102
{ACAD_REACTORS
330
2B
102
}
330
2B
100
DictionaryVariables
280
     0
  1
127
  0
DICTIONARYVAR
  5
FBF
102
{ACAD_REACTORS
330
2B
102
}
330
2B
100
DictionaryVariables
280
     0
  1
2
  0
DICTIONARY
  5
FCA
102
{ACAD_REACTORS
330
FC8
102
}
330
FC8
100
AcDbDictionary
281
     1
  0
DICTIONARY
  5
FC9
102
{ACAD_REACTORS
330
FC8
102
}
330
FC8
100
AcDbDictionary
281
     1
  3
8796088192176
350
FC3
  3
8796088192192
350
FC4
  3
8796088192208
350
FC5
  3
8796088192224
350
FC6
  3
8796088192240
350
FC7
  0
DICTIONARY
  5
F7E
330
EE9
100
AcDbDictionary
280
     1
281
     1
  3
ACAD_XREC_ROUNDTRIP
360
1003
  0
DICTIONARY
  5
1006
330
EED
100
AcDbDictionary
280
     1
281
     1
  3
ACAD_XREC_ROUNDTRIP
360
1007
  0
DICTIONARY
  5
1004
330
EEC
100
AcDbDictionary
280
     1
281
     1
  3
ACAD_XREC_ROUNDTRIP
360
1005
  0
DICTIONARY
  5
EA7
330
EA6
100
AcDbDictionary
280
     1
281
     1
  3
ACAD_XREC_ROUNDTRIP
360
FCC
  3
BUMPTILE
360
EA9
  3
DIFFUSETILE
360
EA8
  3
OPACITYTILE
360
EAC
  3
REFLECTIONTILE
360
EAB
  3
REFRACTIONTILE
360
EAD
  3
SPECULARTILE
360
EAA
  0
DICTIONARY
  5
E9F
330
E9E
100
AcDbDictionary
280
     1
281
     1
  3
ACAD_XREC_ROUNDTRIP
360
FCB
  3
BUMPTILE
360
EA1
  3
DIFFUSETILE
360
EA0
  3
OPACITYTILE
360
EA4
  3
REFLECTIONTILE
360
EA3
  3
REFRACTIONTILE
360
EA5
  3
SPECULARTILE
360
EA2
  0
DICTIONARY
  5
EAF
330
EAE
100
AcDbDictionary
280
     1
281
     1
  3
ACAD_XREC_ROUNDTRIP
360
FCD
  3
BUMPTILE
360
EB1
  3
DIFFUSETILE
360
EB0
  3
FBXASSET
360
F97
  3
OPACITYTILE
360
EB4
  3
REFLECTIONTILE
360
EB3
  3
REFRACTIONTILE
360
EB5
  3
SPECULARTILE
360
EB2
  0
DICTIONARY
  5
1000
330
EE5
100
AcDbDictionary
280
     1
281
     1
  3
ACAD_XREC_ROUNDTRIP
360
1001
  0
DICTIONARY
  5
F7C
330
EE7
100
AcDbDictionary
280
     1
281
     1
  3
ACAD_XREC_ROUNDTRIP
360
1002
  0
DICTIONARY
  5
F7A
330
ED1
100
AcDbDictionary
280
     1
281
     1
  3
ACAD_ROUNDTRIP_2008_TABLESTYLE_CELLSTYLEMAP
360
FC0
  3
ACAD_XREC_ROUNDTRIP
360
FFE
  0
DICTIONARY
  5
FD8
330
EBC
100
AcDbDictionary
280
     1
281
     1
  3
ACAD_XREC_ROUNDTRIP
360
FD9
  0
DICTIONARY
  5
FD6
330
EBB
100
AcDbDictionary
280
     1
281
     1
  3
ACAD_XREC_ROUNDTRIP
360
FD7
  0
DICTIONARY
  5
FE4
330
EC2
100
AcDbDictionary
280
     1
281
     1
  3
ACAD_XREC_ROUNDTRIP
360
FE5
  0
DICTIONARY
  5
FEC
330
EC6
100
AcDbDictionary
280
     1
281
     1
  3
ACAD_XREC_ROUNDTRIP
360
FED
  0
DICTIONARY
  5
FDE
330
EBF
100
AcDbDictionary
280
     1
281
     1
  3
ACAD_XREC_ROUNDTRIP
360
FDF
  0
DICTIONARY
  5
FE2
330
EC1
100
AcDbDictionary
280
     1
281
     1
  3
ACAD_XREC_ROUNDTRIP
360
FE3
  0
DICTIONARY
  5
FFC
330
ECE
100
AcDbDictionary
280
     1
281
     1
  3
ACAD_XREC_ROUNDTRIP
360
FFD
  0
DICTIONARY
  5
FEA
330
EC5
100
AcDbDictionary
280
     1
281
     1
  3
ACAD_XREC_ROUNDTRIP
360
FEB
  0
DICTIONARY
  5
FCE
330
EB7
100
AcDbDictionary
280
     1
281
     1
  3
ACAD_XREC_ROUNDTRIP
360
FCF
  0
DICTIONARY
  5
FD0
330
EB8
100
AcDbDictionary
280
     1
281
     1
  3
ACAD_XREC_ROUNDTRIP
360
FD1
  0
DICTIONARY
  5
FD2
330
EB9
100
AcDbDictionary
280
     1
281
     1
  3
ACAD_XREC_ROUNDTRIP
360
FD3
  0
DICTIONARY
  5
FD4
330
EBA
100
AcDbDictionary
280
     1
281
     1
  3
ACAD_XREC_ROUNDTRIP
360
FD5
  0
DICTIONARY
  5
FDC
330
EBE
100
AcDbDictionary
280
     1
281
     1
  3
ACAD_XREC_ROUNDTRIP
360
FDD
  0
DICTIONARY
  5
FF8
330
ECC
100
AcDbDictionary
280
     1
281
     1
  3
ACAD_XREC_ROUNDTRIP
360
FF9
  0
DICTIONARY
  5
FE8
330
EC4
100
AcDbDictionary
280
     1
281
     1
  3
ACAD_XREC_ROUNDTRIP
360
FE9
  0
DICTIONARY
  5
FFA
330
ECD
100
AcDbDictionary
280
     1
281
     1
  3
ACAD_XREC_ROUNDTRIP
360
FFB
  0
DICTIONARY
  5
FE0
330
EC0
100
AcDbDictionary
280
     1
281
     1
  3
ACAD_XREC_ROUNDTRIP
360
FE1
  0
DICTIONARY
  5
FF6
330
ECB
100
AcDbDictionary
280
     1
281
     1
  3
ACAD_XREC_ROUNDTRIP
360
FF7
  0
DICTIONARY
  5
FF4
330
ECA
100
AcDbDictionary
280
     1
281
     1
  3
ACAD_XREC_ROUNDTRIP
360
FF5
  0
DICTIONARY
  5
FEE
330
EC7
100
AcDbDictionary
280
     1
281
     1
  3
ACAD_XREC_ROUNDTRIP
360
FEF
  0
DICTIONARY
  5
FF0
330
EC8
100
AcDbDictionary
280
     1
281
     1
  3
ACAD_XREC_ROUNDTRIP
360
FF1
  0
DICTIONARY
  5
FE6
330
EC3
100
AcDbDictionary
280
     1
281
     1
  3
ACAD_XREC_ROUNDTRIP
360
FE7
  0
DICTIONARY
  5
FDA
330
EBD
100
AcDbDictionary
280
     1
281
     1
  3
ACAD_XREC_ROUNDTRIP
360
FDB
  0
DICTIONARY
  5
FF2
330
EC9
100
AcDbDictionary
280
     1
281
     1
  3
ACAD_XREC_ROUNDTRIP
360
FF3
  0
XRECORD
  5
FC3
102
{ACAD_REACTORS
330
FC9
102
}
330
FC9
100
AcDbXrecord
280
     1
  1
AcDb_Thumbnail_Schema
102
{ATTRRECORD
341
FC4
  2
AcDbDs::TreatedAsObjectData
280
     1
291
     1
102
ATTRRECORD}
102
{ATTRRECORD
341
FC5
  2
AcDbDs::Legacy
280
     1
291
     1
102
ATTRRECORD}
  2
AcDbDs::ID
280
    10
 91
        8
102
{ATTRRECORD
341
FC6
  2
AcDs:Indexable
280
     1
291
     1
102
ATTRRECORD}
102
{ATTRRECORD
341
FC7
  2
AcDbDs::HandleAttribute
280
     7
282
     1
102
ATTRRECORD}
  2
Thumbnail_Data
280
    15
 91
        0
  0
XRECORD
  5
FC4
102
{ACAD_REACTORS
330
FC9
102
}
330
FC9
100
AcDbXrecord
280
     1
  1
AcDbDs::TreatedAsObjectDataSchema
  2
AcDbDs::TreatedAsObjectData
280
     1
 91
        0
  0
XRECORD
  5
FC5
102
{ACAD_REACTORS
330
FC9
102
}
330
FC9
100
AcDbXrecord
280
     1
  1
AcDbDs::LegacySchema
  2
AcDbDs::Legacy
280
     1
 91
        0
  0
XRECORD
  5
FC6
102
{ACAD_REACTORS
330
FC9
102
}
330
FC9
100
AcDbXrecord
280
     1
  1
AcDbDs::IndexedPropertySchema
  2
AcDs:Indexable
280
     1
 91
        0
  0
XRECORD
  5
FC7
102
{ACAD_REACTORS
330
FC9
102
}
330
FC9
100
AcDbXrecord
280
     1
  1
AcDbDs::HandleAttributeSchema
  2
AcDbDs::HandleAttribute
280
     7
 91
        1
284
     1
  0
XRECORD
  5
1003
102
{ACAD_REACTORS
330
F7E
102
}
330
F7E
100
AcDbXrecord
280
     1
102
DISPLAYNAME
  1
Imperial24
102
FLAGS
 90
        0
  0
XRECORD
  5
1007
102
{ACAD_REACTORS
330
1006
102
}
330
1006
100
AcDbXrecord
280
     1
102
SHADEPLOT
 70
     0
102
SHADEPLOTRESLEVEL
 70
     2
102
SHADEPLOTCUSTOMDPI
 70
   300
  0
XRECORD
  5
1005
102
{ACAD_REACTORS
330
1004
102
}
330
1004
100
AcDbXrecord
280
     1
102
SHADEPLOT
 70
     0
102
SHADEPLOTRESLEVEL
 70
     2
102
SHADEPLOTCUSTOMDPI
 70
   300
  0
XRECORD
  5
FCC
102
{ACAD_REACTORS
330
EA7
102
}
330
EA7
100
AcDbXrecord
280
     1
102
MATERIAL
148
0.0
149
0.0
149
0.0
 93
        0
 94
      127
282
     0
 72
     0
 77
     0
171
     0
175
     0
179
     0
273
     0
  0
XRECORD
  5
EA9
102
{ACAD_REACTORS
330
EA7
102
}
330
EA7
100
AcDbXrecord
280
     1
270
     1
271
     1
  0
XRECORD
  5
EA8
102
{ACAD_REACTORS
330
EA7
102
}
330
EA7
100
AcDbXrecord
280
     1
270
     1
271
     1
  0
XRECORD
  5
EAC
102
{ACAD_REACTORS
330
EA7
102
}
330
EA7
100
AcDbXrecord
280
     1
270
     1
271
     1
  0
XRECORD
  5
EAB
102
{ACAD_REACTORS
330
EA7
102
}
330
EA7
100
AcDbXrecord
280
     1
270
     1
271
     1
  0
XRECORD
  5
EAD
102
{ACAD_REACTORS
330
EA7
102
}
330
EA7
100
AcDbXrecord
280
     1
270
     1
271
     1
  0
XRECORD
  5
EAA
102
{ACAD_REACTORS
330
EA7
102
}
330
EA7
100
AcDbXrecord
280
     1
270
     1
271
     1
  0
XRECORD
  5
FCB
102
{ACAD_REACTORS
330
E9F
102
}
330
E9F
100
AcDbXrecord
280
     1
102
MATERIAL
148
0.0
149
0.0
149
0.0
 93
        0
 94
      127
282
     0
 72
     0
 77
     0
171
     0
175
     0
179
     0
273
     0
  0
XRECORD
  5
EA1
102
{ACAD_REACTORS
330
E9F
102
}
330
E9F
100
AcDbXrecord
280
     1
270
     1
271
     1
  0
XRECORD
  5
EA0
102
{ACAD_REACTORS
330
E9F
102
}
330
E9F
100
AcDbXrecord
280
     1
270
     1
271
     1
  0
XRECORD
  5
EA4
102
{ACAD_REACTORS
330
E9F
102
}
330
E9F
100
AcDbXrecord
280
     1
270
     1
271
     1
  0
XRECORD
  5
EA3
102
{ACAD_REACTORS
330
E9F
102
}
330
E9F
100
AcDbXrecord
280
     1
270
     1
271
     1
  0
XRECORD
  5
EA5
102
{ACAD_REACTORS
330
E9F
102
}
330
E9F
100
AcDbXrecord
280
     1
270
     1
271
     1
  0
XRECORD
  5
EA2
102
{ACAD_REACTORS
330
E9F
102
}
330
E9F
100
AcDbXrecord
280
     1
270
     1
271
     1
  0
XRECORD
  5
FCD
102
{ACAD_REACTORS
330
EAF
102
}
330
EAF
100
AcDbXrecord
280
     1
102
MATERIAL
148
0.0
149
0.0
149
0.0
 93
        0
 94
      127
282
     0
 72
     0
 77
     0
171
     0
175
     0
179
     0
273
     0
  0
XRECORD
  5
EB1
102
{ACAD_REACTORS
330
EAF
102
}
330
EAF
100
AcDbXrecord
280
     1
270
     1
271
     1
  0
XRECORD
  5
EB0
102
{ACAD_REACTORS
330
EAF
102
}
330
EAF
100
AcDbXrecord
280
     1
270
     1
271
     1
  0
XRECORD
  5
F97
102
{ACAD_REACTORS
330
EAF
102
}
330
EAF
100
AcDbXrecord
280
     1
 70
     1
 90
652598616
 71
     1
  1
E0D35718-6DEC-44F5-929D-A1B229B8E657
311
504B030414000608080035708D4633613881D9000000200100004F00000034373146424646342D333341382D344142342D384137312D3430463543343932333945382F4173736574446174612F446566696E6974696F6E4974657261746F7250726F706572746965732E62696E454E3D4FC33010350C200686FE83AABBF1C5
311
31691BB54554314C748189A5BA3AD712C949AA38911819F9D77016453DE9DDBBCF77F72D84F8391987E282F1C5FE96F9991AEA2AF7EA3EA84671152BBEDDA1BF3EF72E398C69417B1C7C1FB75EAAE0C87B6CA81DC2E83C3AAEB16739F47771E986F15F0851E1F0772CDEDF30E24B91B13CE60F1802F54BB5DF7DAA69F6349D
311
5B93CAC2665A1A585B39D3EB42DACCC223CC00B2B9561D8576E81C05A5156C4FCADB6373A8CAD5A2AF6A1A3758D372E23AE29FCAC94A43722FC1C8247D4B4C0E496ED2F7858A93BF504B030414000608080035708D462C4E0CE415010000300200004500000034373146424646342D333341382D344142342D384137312D34
311
30463543343932333945382F4173736574446174612F496E7374616E636550726F706572746965732E62696EEB606060F80F0540260323103700495E20ED9E9A975A94991C9C9C919A9BA8021470357031363537B4D035737175D635317133D5B534B274D17534743232B274B270353335674768046931363471713532B5D4
311
35353131D635313332D475727372D13534373670367376B67474B5042A03DBCBA019D37FE8ABC6157B20CD04146B0062181F4C03F940F0C11EA29A8141C08141002C0426541C106CAC2CA046088033B02A030AC2157C6006F21A8018AAF50194E6010A610250382264E08660284CD9E98021862280A91564B406929A0FF62C
311
401E28B6F88038B83CB1243943D7A928312F2535052473813DDB164831387042E80D5C105A8107424FE085D00CFC10BA4000423F1084D001C210FA800884361083D000504B030414000608080035708D4628BB58AF800100009E0500003D00000034373146424646342D333341382D344142342D384137312D343046354334
311
3932333945382F536368656D61732F436F6D6D6F6E536368656D612E786D6CBD544D4FC23018BEFB2B96DE15493C78601010A34B880709DEDFB52FD0D8B54BD70DF6EFED3AC0B12E6442E2716BFB3CEFF3D18E26FB440405EA8C2B1992E1C323095052C5B8DC842437EBFB673219DF8DA659866649B798C078B48AE6410122
311
242F2A4994AC7F93815DF85C049C8564CA0A901499DD886B2EB9B1E02448F358701A9235880C49A0119892A20C89D1B9FD768815CAD268CB5E0355B40B1E47F3E37A2020464BED06AA57CE8FCC20C3C3446D46761A2632A8C1283D07031EFF2AE7CCB1BFEEE916E406DFAC8E36FFD99A9D60A6944090EEDC3B670C7DC13DE8
311
6B6B2C5C240D6E503BB85ACD579D513F1B9F9A69DC9CC22AFA80C426D40AF0B21EA168559156B6276F0F726A6BFF04DCD513A87A62CAD41FB24FCB2858B3952E3D852084DA25B9303C15687973CC8E8AAE11DF2836C38C6A9E765E8C1BA1BFB1DC29CDFE518C8B5A7655A4ED7E77291ABEB80DBD82EC866ADE1B8D05AF9E35
311
CF09D7A061F38A986D9EC412B8F0F65E5D81534D9B231D1E5A8FE577A241F3A5FD01504B030414000608080035708D462CCEBD668A040000E01200003E00000034373146424646342D333341382D344142342D384137312D3430463543343932333945382F536368656D61732F47656E65726963536368656D612E786D6CD5
311
586D6FDB380CFE7EBF42F0F7A649B70E1B90744856B4970F450FCD7A5F05459613EDE4174872DADCAF3F522F8ED3B88D2F1D06AC4050DBA2493EE4438AF2F8EB73AEC8466823CB62928C06C384888297A92C5693A4B6D9D9E7E4EBD51FE3A931C22EF85AE4EC6AFC38BF261BA626C9AD288496DC3F4FCEAFC63366845F7A10
311
452AF41DB320C0D44EC26EAB20918735565582695670811A6A49643A49A6E9069FA4604A64B29016DC4B48552F95E4932463CA888468C1D2B250DB4962750DF7CE273069CE8363F1FF4EDB00E0A21999574AE4A2B00C353B93F3BD4777B8A61ED8F604ABFEDD79CE56A2B7BDFBDBC50996E0ADDE16FED26223C5D30956C29B
311
DF4A55EA686E5E58B112DA45CE67F76F4FA27EFA3FB672FD7372FC388FAECDCA5209E693CAD167BADCD272F943701B3812F8A3D852008B1D2E32DB927B2F833C6EA95879925356D254582695095A3CE982924720BE5774A3CB9CDCDB350427D2DF20DA1B5532EBE2D5D6288D75D4F7E4FD9890A0EF8E3D93EBB8F8BA475815
311
8EF6FB90A6F9520281C93DE7AAC6D24607DA296BB96018123F821A7D6A5C5884050C475DA4865442732C8B95684A50165CBB3A32F25F783A4A480ED59AD7F924B968AEA50131F46303223E6A397B0E52976030DC1DCA81D7E7C1EDEEA42C19FF27635C505E2BD5198A599020DF50A2330FCB3AAF28CB0124108429553EF1B2
311
28802E2265D8F7CC2401042B155BCC7070F1E5C55F13B4A9577362CCCE46C32174E010C3C378C44841A4BDA00FE3A12006CE11EE6AEC59894D3526DDE1CD59D503ECC324017F8061B7F162162FA62EDD81AE3308617770796DCBDAD2B2625C5AE8A63DE20B2C8AA5E95E76E5730823955956E33E705425A2187C185D36489A
311
1B44D3DCEC2172F6BA2105C3546287A7194B2331768EBBE64F6E70A9930ABE0ADEA89E9E2C38523B810287AD67A54A039C1606EAFE68F8304610BB9093DBDDABC0B2AE4E290DCDA15376D7E39F72B556F0B32EAB5D3D498B4C41ABADEC3A1434C422D87E8025A84BDCB2B1417ED750FAE4DA8976863974C577C7F902D3F156
311
AD354DEA3540DE6BEAE2BEA52F7A2EB4CA43802ECE5BF2CE2EDC9347179FFB023CE412E60BE16DA0BE29B374988A553F561DC04615DD35F7D2C8979F60E5955CE93DF29DED8AFA1EE6642D53418086C03C47C377910F75F7E8F5EF665F70B60FFB22AEDF897D119E8423C773E819A3C1E55E550599EE6EDCA34D0C86FD7205
311
7DF2CD46F16A470682471C164E4346D5306BF12D7D12D82CFF673D41636C347443FEB51B50D72EA171A8E4A58623A4A16E0FA2B8B10A0D23268D87C33896EE8FB73305A74BF224EDBADFA0BD674AB354D63DB7BD5D83426761C077DE767728235446A552754EB93B755891C3C4CC6CADE37CF0E912A7BB38DBA010F9DE1282
311
EDF470CA69A9CDA482E334C4A6EA4107987980B17E72F31730EBF88BBD39E7C629F56797A3C0009C2C5AE7951D9A05A02773440F02EEB4DE396A3B6A570C72CCFBCD823B0B8ED3F1D5CEDDFED772FA70236C83FB7D86C385D570B87107535572A60A96035F8F7C6A7192F13007246BBE0521855E6AC46F3E27689CEE7D186A
311
6FD679D98CDCAD13333E04EBE7ED6F55FF01504B030414000608080035708D466180134D5F0100006B0300004500000034373146424646342D333341382D344142342D384137312D3430463543343932333945382F536368656D61732F52656E6465724D6174657269616C536368656D612E786D6CA5934D6FC2300C86EFFB
311
1551EEE343DBA41D1A103009551ADAD40EAE28A4A68D9426284961FCFBE5A340113B2071746D3F765EBF4DC6BFB5407BD0862B49F0B037C0082453059725C18DDD3EBFE3F1E829991803366715D474942CD30FB4A782E00C64017A412D684E454CE3FE28995203B162A6EA5AC94B66997D225E109CD63B0135484BAD1B3C07
311
E9080CA35DB3119C11BCA5C200461A68A1A438126C75E3E230D40FF81FB3F03C91D1E3A3A0AF79FE28E25BC39EC3E17E4C2A2D94A0833A51AF55BCCA7D88572FCBAC529C4140B020FC3AAFA886621DCED7EAD7664CC86024E806DC297DA1BB393E4156543457A4537DB8817349A70F8ACBF09B3EEE2CB2F33E91B65D60786E
311
4E3B39B77E3FEEEF5650424525DA657FB8B46BE6BF064646F0A0F7327C0BC1BC1B4CBBC1C419FA3CCB23500007872A2580CAAE5461865565294E4EDB4617B62FF579DF9A5B2F54E834076A597573A020912FED777F9B3F504B030414000608080035708D46B3DBAE1951000000570000004700000034373146424646342D33
311
3341382D344142342D384137312D3430463543343932333945382F4173736574446174612F41737365745461626C654F66436F6E74656E74732E62696E5361606070357031363537B4D035737175D635317133D5B534B274D17534743232B274B2703533351702AACB4D2C492DCA4CCC492C28484D2C4ACC4B4E050A82012F
311
90744FCD03CA26072767A4E6260200504B030414000608080035708D46F865834058000000680000004500000034373146424646342D333341382D344142342D384137312D3430463543343932333945382F4173736574446174612F53747265616D56657273696F6E5461626C652E696E66558CBD0A80300C06F73E4B117F
311
B66E451741D041DC5BF98480A492E4FDD18EAEC7DD4555D89EF28DF51A0B1BD8340C4DE7DD848B988C0ACF0649566493F2408C508DDEBB99D5129FF8F1AF8CF5B9503E20FAE5A16B5AF702504B030414000608080035708D46E56BA502340100009A0400003600000034373146424646342D333341382D344142342D384137
311
312D3430463543343932333945382F4173736574446174612F636E782E786D6CCD94314FC3301085FF4AE43D76428B842AC71582A51348540C6C57E752AC3A76645F10FC7BEC3603A8882943D6F3BBF3F327BF93DBCFDE161F18A2F1AE6135AF58814EFBD6B863C346EACA3B566C950CDED30F192B1CF4D8B05C664A1E831F
311
87A9D46207A3CD556BDC692ADEC788B48783C5A7EEC13B42479115DA428C0D8BFA1D7BE030926F319E780B04BCE601A31F83C634894C8FD3241D10085BA66EAAFAB6ACD665BDDAD7EB4D556FD6AB3729B252C983F776D29B7459F043A12FB7325549918F951C839934F92D4CFDE5911F8C932229958C141293A983BE86D401
311
C3608D064AE884D784542611422FC545ACA4C80C7E9178C4CE38935B76C918900FCFC91E0632B83822FF799D9FCCCE4502A771B93CAE1DCE4FE1E5FC835E2F813C27666939B976C88DEB66488938AF91149ABC55D437504B030414000608080035708D46277B2295080100004F0300003400000034373146424646342D3333
311
41382D344142342D384137312D3430463543343932333945382F536368656D61732F636E782E786D6CCD93BD4E042114855F6542BF30B86362360C5B5858D9A8951DC2DD952C7027FC187D7B61A4D84DECB4D80E0E5FC839878BD87F7A377C404C16C34C381DC90041A3B1E13893920F9B3B32ECA58888F90C2343501E66D2
311
6422C5316259BA64E0A08A6BAAB3E1D4C57BF41EC3B37E07AFC8A09D4A692669DD5255321A48276A545694D308094BD4506FC8D643BF414750190C913723BFDD8CD3866F5FF8B41BF96EDABE0AD64829DE105DE76DC810711934D645A87646C1DAB11425DACEB40C449E7BA3B50DC12A2145CAB176D0C9FCB554522D8BB35A
311
E55A155BC11F460AD6A25E047E8000D1EAEB4C7C61EEDF223F4130101FEB2B45ABDC7526FFCDE3DF0A60EBECD711685F417E03504B030414000608080035708D46410A3D5871000000A40000002C00000034373146424646342D333341382D344142342D384137312D3430463543343932333945382F636E782E786D6C55CC
311
4D0E82301086E1AB34B31774E7A22D31F1069E60020334B633A63FC6E34B0909B07DDE2F9FEE7EC1AB2FC5E4840DDC9A2B28E25E06C7938192C7CB1D54677514C9871928C640062A83D55394F2D968A0118BAFEA1DBF377CA444F98919176EAB9FEAAB9F2960DA5BBB1E2ED3FA6FFF504B030414000608080035708D462413
311
54F07E000000A300000007000000636E782E786D6C4D8CD10AC22018465F45FE7B6B4E630ED4E122DF63343724A761337AFC3476D1D50787EF1C317C368FDE36BD5C0C12C8A90164C33DCE2EAC12F2BE600E685022C5B8FFDD008569B3122A0625D614F3F340B35DA6EC2BF52E3C0EC83A62466318A65473CCF4C830D71DC1
311
AC31972BEB5BDADF7831CE5529F3EB95AD79F505504B030414000608080035708D4616E99B5DA600000035010000130000005B436F6E74656E745F54797065735D2E786D6C9590410E82301045AFD2740F4517C6180A0BF5065E60AC53688469D30E066F6F91AD9AB89CF9FFFD3F99BA9DC7413C3026E749CB4D59498164FC
311
CD51A7E5C4B6D84BD136F5E5193089ECA5A465CF1C0E4A25D3E308A9F401292BD6C711388FB15301CC1D3A54DBAADA29E38991B8E0254336F5092D4C038BF39CD76B6FC6A538AEBEA54A4B08617006389FA516557DE4AE8E7E70DE30729138228C5F021CD93F02D4FB0DCD0B504B030414000608080035708D463DEE336E64
311
000000790000001B0000006175746F6465736B2D64657369676E2D7061636B6167652E786D6C35CBC10E83200C00D05F21DCA56CA76D41FC96062B120735B69A7DBE268BB7777961F8D5AF396893C2ADB70FE7ADA196782C2DF776D7A97B5933C430F15651E5469C55D70F80A4992A3ADC954792C525AE70A1E4D6AD9816CC
311
044FEFDF01FE3FDE907802504B030414000608080035708D462D480C67F9000000960100003700000034373146424646342D333341382D344142342D384137312D3430463543343932333945382F4173736574446174612F636F72652E786D6C8550CB6E833010FC15B47783CD43249171440AF9829E7AB38C43AC041BF951
311
F5F36B072AB5A79E76353B33BB3BF4FCB53CB34F699D32BA039263C8A41666527AEE20F81B3A407666D41AE37FD120D37C911D2418189DAD09EB0E09A3BDD409D566923BC89D931E32F18C4D074EDCE5C2731E7C64B847BE72F1E0B3CC49BEF1180D414DBB544DD14DDD94B4C08EC737D20FD5158D3D19513DB6181DDA06A3
311
B16C9B76B85CFB0B696991C48C7AB5FC6C1756722F276025260DC23522D53BA94F989CEAEA831689C9A8F336FEBC2F4DDF01EBD3D503F79C16DBF48F6B58A7FF5D83D2BE2A77D74DE1809178E46BC06891528AE51561AC2951F60D504B030414000608080035708D46559FD675F80000009401000035000000343731464246
311
46342D333341382D344142342D384137312D3430463543343932333945382F536368656D61732F636F72652E786D6C8550CB6E833010FC15B47783CD43249171441AF203EDA937CB38D44AB0911F553FBF3650A93DF5B4ABD999D9DDA1E7AFF9997D4AEB94D11D901C4326B530A3D25307C1DFD101B233A3D618FF8B0699E6
311
B3EC20C1C0E8644D58764818EDA54EA836A3DC41EE9CF49089676C3A70E243CE3CE7C147867BE40B170F3EC99CE41B8FD110D4B84BD518DDD45D490BEC787C21FDB5BAA1A12703AA8716A343DB6034946DD35E2FB7FE425A5A2431A35ECD3FDB8595DCCB1158894983708D48F546EA1326A7BA7AA7456232EABC8D3FEF4BD3
311
77C05ED73B1D2DB6D91FCFB08CFF7B06A57D55EE9E9BC20123F1C475C06891328A650D30D69427FB06504B030414000608080035708D460C5BB3FF01010000D70100002D00000034373146424646342D333341382D344142342D384137312D3430463543343932333945382F636F72652E786D6C9591C16E842010865F85CC
311
1D15C5ACBB41366E539FA0A7DEA8CC5AB22B18C0A68F5FAC366D6FED09F2F3FD33FC33E2FC3EDDC91BFA609C6D81650510B483D3C68E2D2CF14A1B206729BC73F10706C4AA095B58659062F46E9977697036A25D55EB34EEA20A012390E19E2E2D84E1152795A9252622DCB2590D373562C6B28D93229AE9CB3A78541135C8
311
B260352D3865D513E3A7829D78F52CF2959462313656E5DE0CA717D4C4CD314502598B7C7B4DD462F4CE189DFE68AE063D487E60FDA5EF39ADAAAEA1BCBB70DA74074679D1D70FFC5856C7C7261549662942F469327B9175067FB56FC65FC99659FF33D9E60820D977A87C1DB314F9E70ED2B9AE447E00504B030414000608
311
080035708D46FE813A3708010000B201000008000000636F72652E786D6C8D50CB6EC32010FC15B4776CF0434E224CE434CE17F4D41B35C445B1C1021CB57F5F485CA9BDF5B4686676671876FC9C277457CE6B6B5AA01901A4CC60A536630B6BB8E21DA02367CEDAF04B06C88859B59060E06C74765D3668B02628935063A5
311
DA40E1BD0A8086293E5AF0C3879A4526D61015FE962D62B8895165347BEA380B7AFE591D9C124149E005A1352615A6E52BAD0E841EAAF28DE549C9D9BA6AB9596919DDF5552B077CBF7FA1DDB9BCE0BEA33DAEFA86E05D5313DC174DDD9C4F97EE441B96A765CE7C70F1CFDB919833202FEEC997E54F8AB3776BA74D104349
311
64CDF4059CB03C117F42AF8BFC47686D42596C079F1B1E388D811E44344E0DC6F1A837CED436FF06504B0102140014000608080035708D4633613881D9000000200100004F000000000000000000000000000000000034373146424646342D333341382D344142342D384137312D3430463543343932333945382F41737365
311
74446174612F446566696E6974696F6E4974657261746F7250726F706572746965732E62696E504B0102140014000608080035708D462C4E0CE4150100003002000045000000000000000000000000004601000034373146424646342D333341382D344142342D384137312D3430463543343932333945382F417373657444
311
6174612F496E7374616E636550726F706572746965732E62696E504B0102140014000608080035708D4628BB58AF800100009E0500003D00000000000000000000000000BE02000034373146424646342D333341382D344142342D384137312D3430463543343932333945382F536368656D61732F436F6D6D6F6E53636865
311
6D612E786D6C504B0102140014000608080035708D462CCEBD668A040000E01200003E000000000000000000000000009904000034373146424646342D333341382D344142342D384137312D3430463543343932333945382F536368656D61732F47656E65726963536368656D612E786D6C504B0102140014000608080035
311
708D466180134D5F0100006B03000045000000000000000000000000007F09000034373146424646342D333341382D344142342D384137312D3430463543343932333945382F536368656D61732F52656E6465724D6174657269616C536368656D612E786D6C504B0102140014000608080035708D46B3DBAE195100000057
311
0000004700000000000000000000000000410B000034373146424646342D333341382D344142342D384137312D3430463543343932333945382F4173736574446174612F41737365745461626C654F66436F6E74656E74732E62696E504B0102140014000608080035708D46F8658340580000006800000045000000000000
311
00000000000000F70B000034373146424646342D333341382D344142342D384137312D3430463543343932333945382F4173736574446174612F53747265616D56657273696F6E5461626C652E696E66504B0102140014000608080035708D46E56BA502340100009A0400003600000000000000000000000000B20C000034
311
373146424646342D333341382D344142342D384137312D3430463543343932333945382F4173736574446174612F636E782E786D6C504B0102140014000608080035708D46277B2295080100004F03000034000000000000000000000000003A0E000034373146424646342D333341382D344142342D384137312D34304635
311
43343932333945382F536368656D61732F636E782E786D6C504B0102140014000608080035708D46410A3D5871000000A40000002C00000000000000000000000000940F000034373146424646342D333341382D344142342D384137312D3430463543343932333945382F636E782E786D6C504B0102140014000608080035
311
708D46241354F07E000000A300000007000000000000000000000000004F100000636E782E786D6C504B0102140014000608080035708D4616E99B5DA6000000350100001300000000000000000000000000F21000005B436F6E74656E745F54797065735D2E786D6C504B0102140014000608080035708D463DEE336E6400
311
0000790000001B00000000000000000000000000C91100006175746F6465736B2D64657369676E2D7061636B6167652E786D6C504B0102140014000608080035708D462D480C67F90000009601000037000000000000000000000000006612000034373146424646342D333341382D344142342D384137312D343046354334
311
3932333945382F4173736574446174612F636F72652E786D6C504B0102140014000608080035708D46559FD675F8000000940100003500000000000000000000000000B413000034373146424646342D333341382D344142342D384137312D3430463543343932333945382F536368656D61732F636F72652E786D6C504B01
311
02140014000608080035708D460C5BB3FF01010000D70100002D00000000000000000000000000FF14000034373146424646342D333341382D344142342D384137312D3430463543343932333945382F636F72652E786D6C504B0102140014000608080035708D46FE813A3708010000B20100000800000000000000000000
311
0000004B160000636F72652E786D6C504B050600000000110011005A060000791700000000
310
504B030414000608080035708D46000000000000000000000000370000006662782F34453732363632322D353337462D343134422D423441342D3644464144323635414243372F617474726962757465732E62696E504B030414000608080035708D46000000000000000000000000350000006662782F3445373236363232
310
2D353337462D343134422D423441342D3644464144323635414243372F76657274696365732E62696E504B030414000608080035708D46F270F1330600000004000000360000006662782F34453732363632322D353337462D343134422D423441342D3644464144323635414243372F747269616E676C65732E62696E6366
310
60600000504B030414000608080035708D4651464CB48900000043010000360000006662782F34453732363632322D353337462D343134422D423441342D3644464144323635414243372F6469726563746F72792E786D6C9D8F310EC2300C45AF127987122606C71DD918B841D4B851A43646695A717C52A85029031293A5
310
A76FBF6FACEF7DA7264E43906840EF0FA03836E242F406C6DCEE4EA06AC22492573150D1F66C60C640E8938CB705396EEDD86DE9B5042FE27813D640EA63BB001C722AF6E55CB61E4863F58284D5D3F53DD715CE1C3985E63FD7F1B7EBDD617E9F1E504B030414000608080035708D46EBF41C2138070000201C0000340000
310
006662782F34453732363632322D353337462D343134422D423441342D3644464144323635414243372F6F626A656374732E786D6CDD59DB6EDB3810FD1542FBB2FB60DD7C895D282E12DB298C226D50A38B7D13689976B8D10DA49438FBF53BA4485992655BC9B640B10990380C359C3933736638F23EEEA3103D13C66912
310
5F1B8E691B88C441B2A1F1EEDAC8B36D6F6CA08F53E4B124C92AFB0C14E3885C1B62D9987A3B96E4A95ADA902DCEC3E6EADDED5F88072426060A42CCF9B5C18347126113E759B221FCC9DCE00C9BBBEDDE74CC62635DEC8EE1F4B171548A1989335015D66390A23470EA7F8249D6D4B3C486DA36B7DBB6FE996D9634BCAE28
310
8D7986E3E048AB861CB79B567D67305FB8C3496F3818F47B8391EBF46EEF6EE73DE7AA6FCF46B3D9E4663131D0D45B2749583A2025F106BCF86A4C1DCF12FF29CD5728B4E91D24714C028566DB860D517229E14D4C6AC03AD2B48A430A5B2B0BFD8EC69FD8D609949A4A35B4B571FA77357A93F5DF0002EF12A58C1311E53C
310
63E06B857D910FB66715AB35BF508E229C1146718842BA66988183606BE1A09A18912D42141298492F6A79555D21B02FE7529B96DB3C0C45FE1A5399693EE423C9B8D48CFE43D841FBEA69A013589BD3381B2B63B3D714444C3C4B2E16FFEBBBEA9F0590681BE21D440B982936F5DD065E33C105CBB931FD7CB7DEAF043FB4
310
1F9EB224252C1391279359E59DF66025B420F83A8052E05AF7DD01956F00FD1740BED40579E03946F783FD40DBCE70CCB7098BC03BC8463D1B7ED8487C3CFAE459E5C353846A5C790A5348DB1F8469CD8CDAD91548A7DE33047DC2FACAB855804388E97B1A8B3C87404161024BC0F7DBF5DE982E814C61119EC221580FDF9E
310
253E22F855C801BE6978A88D7E3B384A274C33CF0EBEFA0431C36850BAAA66E3297C873F04DF9BF9EAF32A675B1C907B95D873B2A531CDA098B62B5403BD96F2DF975F64461ED953DB15C039BB4410478B5F56CA2F483A06541175B8708D5CB9A790EE61886392E45CADB71155908409F3D7AF7E91C3AD67FDA983A0380CF2
310
5B44402B9941750F184D0528C654995732A179C049F0A00AC05DE1547F8D832701AF1F0063BD470F885ACC9A42F328F57194E4B1A0EFE3F06E9A66F66DF9E53813D79EB8E3C9481BCBA5789D3D9A1A4AE5C539114E4F1C32AB794BB186965CE4D100D8B2CD82007AA63CF3931407346B8F8586112A4301ECB32A6FE8769B73
310
20F556581A1A9B7D6788ECCACFF290F3DAAB437C1AE11DF1B75854B8D6F36A0095C2B505ADC8ECC284731A132E3B9423E66AA0629B400445DC6AA92D4148B91F910CBF27FE64C96B841F23DBD0875E2A13DDECE5E8D30AAAEA794AA2E8DC92D897F6BFFA1C4769587469973070DCC609ADB80AA5C511CF106F3ECE7C7B4364
310
D37D497AC90B1ADF4ED227EF167F021E867F3A3CFA080AAD37D4C8CB9E75CCA133115F632095D1D0E95F69475CC24A1F95891E24CCA16B0A5EFD1742778FDD08ADD3399C845B9F86611EF9453DC848042D18CE72D6295F4743FBC8F98A171A095139694B4368903B93A6EC3D74F70156C9E6E31469568E01A3680C77B44E86
310
1C59D11AC2D217F23E2AAE5D97BDFF76A9FF992FABF79427F2FA92B04DABA6F536427760BA611074A92A5C194752F2D4AB265F242F2E97711868218ADF8A5B828A10469EA9184CC81B50EBFD81BFE02C00225DC9DFBD5BC8880DD91C7A8A9A3835E630A670A896A6FBD4EA4D07C84E948F5AE3B514841AC1B4010B9EBD171F
310
C26F185C0D9D1FB754576315EB4B51D84C18AC1CF43823EBEBA755430AAC747EFA4160445E1A12D4EA4C347267447D5F1EFAD5860465D1F7E599C7B3C73C5AC7988ACA28C2026FD20F1FE55DF2DA828B827535BABB9A2C606C315F8CDCDEC0BE5DF4C62ECC2E16A3857D638F6D7B34712D467892B38070CBB56C5FF74E69BC
310
D3815140D7E546015385CB573F1DCF4D07FF8F6F1461B2C6A762F157BD5094ED9E68C81AB9D8F542D14AD4EBB775FFCE1151B717B13775CEC5AC4007F8F9B20564A4EB7DF7D6428BD69D44BBCE958AF8C6C27BF2B6F2D36B4C8DD05BEB436D471BE5D7B918664F2D554ADF6E25AF2DEC797F78E58C7BA3F962D61B0CEE86BD
310
893B99F76E9C5BD79DDC8E17A3E1A17753B5B06B5DF92538542B5B19A3C13498272185A13CD9A01D49E0060453870EFCCA22C2E5CD061A0055C6F51B810E4F3F1733D50CAF43FD74F08861301DAA8A9C073014855BC7B5A1D6D16F3006159348399C329FA0F0A8683750CEE8B501219051A82FE61AC659727828A537C695E0
310
361CEFC49DA978AAFCFBF098400762E56057B9A70B2ECAB25A74C2702095EF0980ED7443F27ED3B53A0867F0719D67A531878583350A04FD42A0300EA67E4F0ADE3D10CF79BB1C53EEA941D269327F360E0AA9BD0CB39D1CAF57F0BE993F586232BEFC8AD230DF09779EABF735493DD16784793184F2203094992916F7F0D9
310
07EB8125F08A294277148200FDBE1F8FFEB06649142571B164DDA8175568F508AF9D36961EF941E3623B434BF63D6AAC0F732B4E4CBCE14FB000AE6554CC460B886B0150D2532500B447842FE0B1DAFEE51CA922506961ABADAB8047CEF4112492789723D2A6BAA13280845C00AD8A396DF9412F78168321F8F45F504B0304
310
14000608080035708D46D3B38FCD3E01000046050000300000006662782F34453732363632322D353337462D343134422D423441342D3644464144323635414243372F636E782E786D6CCD94C14A033110865F65C97D371B5B414A36050F3E8107F196CD4ED7D86CB22413B16F6F52D3AA48C543A1BD85C93FF07F333FC3D7
310
EF93A9DEC007ED6C4758D3920AAC7283B66347226EEA3B52AD05F7CEE13719A9AC9CA023B94C041FBD8B73290DB091D1E4AAD1765B8A12D1EB3E220452292343E848502F30C946467403846D3348940D6B3C0417BD82D48F7A82D2AF3C488481889B96DDD6EDB2668B47B65CB56CB55C3C739A9582F7CE99A2D716C1BBB952
310
2E3D6C32D3729ABF058F5E174D2620E2CB59D36BCB69FA173C24B7762C3ADCCD5937CF462B89694CD42904AC9308E4C4E9A758709A797F503FDC3F1D1C5483F6A0D0F9DD8506C04E0DE068AC4949F81FFF5EF837B6EB5F13EEA5B67D12B6D83A1BEA21AD21C5F5F7FE538AA41DCDF585FE68ECFC994FA704B5BA3EE483AF33
310
11D3FDC94B4BCF17507C00504B030414000608080035708D46EE9765F67E000000A30000000B0000006662782F636E782E786D6C4D8C410EC2201405AF42FE1EB548C105D080B5F7682C6D88140C16E3F105D385AB974CDE8CE83EAB476F9B5E2E0609CDE104C8867B9C5C5824E46DC617409D1229C6EDEF06288CAB955031
310
28B1A4989F3B9AEC3C665FA977E1B1437AE3843142707BE603A60D35D8504D31EB07DD13D66A73E5C53856A5CCAF57B6E6D517504B030414000608080035708D46A6D797065F0000008200000007000000636E782E786D6C4DCB3B0E80201045D1AD90E9FD7516806B51190811670C8A61F982B1B0BAC9C97B72CA7B1037C6
310
D3332918DA1E04D2CAC69353902EDB8C20262D23F3F59B81A079470595414B17391D1F19B4730A5583A7ED43BBE4025D9592775E5ADFFA01504B030414000608080035708D464FEB6A7CA0000000F4000000130000005B436F6E74656E745F54797065735D2E786D6C7D8F4B0EC2300C44AF1279DFA6B0400835ED02B80117
310
30C16D239A8F121795DB93D02D6269CFBC19BBED573B8B17C564BC53B0AB1B10E4B47F18372A5878A88E20FAAEBDBD032591BD2E299898C349CAA427B2986A1FC86565F0D122E7318E32A07EE24872DF3407A9BD63725C71C980AEBDD080CBCCE2BAE6F5D69B7110E7CD57AA146008B3D1C8F92C5954F993BB1BF787F39A89
310
ABC491D09600F9FDA2FB00504B030414000608080035708D463DEE336E64000000790000001B0000006175746F6465736B2D64657369676E2D7061636B6167652E786D6C35CBC10E83200C00D05F21DCA56CA76D41FC96062B120735B69A7DBE268BB7777961F8D5AF396893C2ADB70FE7ADA196782C2DF776D7A97B5933C4
310
30F15651E5469C55D70F80A4992A3ADC954792C525AE70A1E4D6AD9816CC044FEFDF01FE3FDE907802504B030414000608080035708D4675BE4A62F9000000960100003B0000006662782F34453732363632322D353337462D343134422D423441342D3644464144323635414243372F7265736F75726365732F636F72652E
310
786D6C8550CB6EC23010FC9568EF4EE26088831C2324E817F4D49BE52CC182D8C88FAA9F5F1B52A93DF5B4ABD999D9DD1187AFE55E7DA20FC6D91168DD428556BBC9D87984142F84437590C23B177FD1A0B26AC1110A0C52CCDEA5C70A696723DA825A37E10AAA103042A5EFB91921E82B2EAA56296646B8D50FA56F6AC69A
310
D62F9E14299969959A29BB998B410F92B376B7ED074ECEA79E1276E48C0C7C3892B753DFB2133FEF78C74553C45244B3FC6CD71E55C40964D7D22D6919A19B77CAF62DDDB3CD87680A538A107DFE795D5ABE03E931B8E43506D1BCA67F5CD363FADF35191B37DDEAFA520490341FF91C48D19494727946986B49547E03504B
310
030414000608080035708D4621CE85E4F2000000B1010000310000006662782F34453732363632322D353337462D343134422D423441342D3644464144323635414243372F636F72652E786D6C8D50CB6EC32010FC156BEFD80663A78A3091DD345FD0536F08131725068B47D5CF2FC4AED4DE725A343BC3CC0E3B7D2FF7E2
310
4B39AFADE901973514CA483B6933F710C315BD4071E2CC591BFED0A03062513D6418389B9D8DEB0E496B8232193576523B28BC57010A794F8F1EBCFC548B28450C89E16FE52AE44DCCAAC4E5C6E32CE8E5572A9D12414DC0498D5B5453849B774C8F353ED2E6835599C9598C7ADAADF494DCF5552B079CBE1D48D71182DAE6
310
704114D3118D74A0A83B5F8633E9DA617C3DB02A8B39F3C1A59BF74FF275CFCA37E1BFCC719D9EC8AC4D68C86EB8293C709CF23C169C55B9C0341EEDA699CBE63F504B030414000608080035708D46C4D1999C53010000DD0200000C0000006662782F636F72652E786D6C8D52DB8E832014FC15C33B2A96B6B4419A26ED7E
310
C13EED1B45EA922A1804D3CF5FF012B70F7B89099239E7CC9C99404FCFB64906697B657409509A83446A612AA5EB1278778704242746AD31EE5B1B48346F6509220C18ADADF1DD0C09A39DD411D5A69233C8FB5E3A9088265C4AD08B4FD9F2947B173AFA47DA71F1E0B54C513AF531EABDAAE6515505367557D2024670BEDB
310
EE0F045E2F7B04F19960782087337CBBEC737C21D71D2908CDE230A34EB58BBAB0923B590156E4680B730CD1E61DE1638E8E78F341B3D8C968EF6CF03C8B467780DD6F4F9A4DF80B9FEFAABFF9BCD26E53CC7CD3440F180AEB8D0546B3984FF88DE1BD661884437E8EDF9AC5C223408314CE581C2A95F16B69E08D97813A4F
310
C68F665335308F043FF114BFF0FCCE1182E2BA0EAB7117AE37EFA2FAEB4E9DB47070CF441BDBF2665D6E5A713D57A1174BCBB8308DB1FF995EAC2E6166F161B22F504B030414000608080035708D467C41096507010000B201000008000000636F72652E786D6C8D50416EC32010FC0ADA3B362424C611268AE4F4053DF546
310
0D49516C880C8EDADF17622AB5B79E16CDCCEE0C238E9FD3881E660ED6BB0E6845001937786DDDB583255E3007749462F63EFE9201726A321D6418A4B8CE7EB91768F02E1A9751E7B529A00AC14440C3981E1D84E1C34CAA524B4C8A70ABEE6AB8A9ABA968B5EAA48876FA591D66A3A2D1203784EE3061986E5F293B107A60
310
DB375167A514CB6275B1B23AB9DB8B353348CEC87ED7B41C9FFB866276E20CB7BC3DE197BE21ACE7E73DDF7051E76529429CD39FCB919433A2A01ED957D42B25C5BBF76311A4501A79377E8124A2CEC49FD0CB5DFF23B47571BB2907D78D0092A6404F2219E706D378D69B666E5B7E03504B0102140014000608080035708D
310
460000000000000000000000003700000000000000000000000000000000006662782F34453732363632322D353337462D343134422D423441342D3644464144323635414243372F617474726962757465732E62696E504B0102140014000608080035708D4600000000000000000000000035000000000000000000000000
310
00550000006662782F34453732363632322D353337462D343134422D423441342D3644464144323635414243372F76657274696365732E62696E504B0102140014000608080035708D46F270F13306000000040000003600000000000000000000000000A80000006662782F34453732363632322D353337462D343134422D
310
423441342D3644464144323635414243372F747269616E676C65732E62696E504B0102140014000608080035708D4651464CB489000000430100003600000000000000000000000000020100006662782F34453732363632322D353337462D343134422D423441342D3644464144323635414243372F6469726563746F7279
310
2E786D6C504B0102140014000608080035708D46EBF41C2138070000201C00003400000000000000000000000000DF0100006662782F34453732363632322D353337462D343134422D423441342D3644464144323635414243372F6F626A656374732E786D6C504B0102140014000608080035708D46D3B38FCD3E01000046
310
0500003000000000000000000000000000690900006662782F34453732363632322D353337462D343134422D423441342D3644464144323635414243372F636E782E786D6C504B0102140014000608080035708D46EE9765F67E000000A30000000B00000000000000000000000000F50A00006662782F636E782E786D6C50
310
4B0102140014000608080035708D46A6D797065F0000008200000007000000000000000000000000009C0B0000636E782E786D6C504B0102140014000608080035708D464FEB6A7CA0000000F40000001300000000000000000000000000200C00005B436F6E74656E745F54797065735D2E786D6C504B0102140014000608
310
080035708D463DEE336E64000000790000001B00000000000000000000000000F10C00006175746F6465736B2D64657369676E2D7061636B6167652E786D6C504B0102140014000608080035708D4675BE4A62F9000000960100003B000000000000000000000000008E0D00006662782F34453732363632322D353337462D
310
343134422D423441342D3644464144323635414243372F7265736F75726365732F636F72652E786D6C504B0102140014000608080035708D4621CE85E4F2000000B10100003100000000000000000000000000E00E00006662782F34453732363632322D353337462D343134422D423441342D364446414432363541424337
310
2F636F72652E786D6C504B0102140014000608080035708D46C4D1999C53010000DD0200000C00000000000000000000000000211000006662782F636F72652E786D6C504B0102140014000608080035708D467C41096507010000B201000008000000000000000000000000009E110000636F72652E786D6C504B05060000
310
00000E000E0080040000CB1200000000
  0
XRECORD
  5
EB4
102
{ACAD_REACTORS
330
EAF
102
}
330
EAF
100
AcDbXrecord
280
     1
270
     1
271
     1
  0
XRECORD
  5
EB3
102
{ACAD_REACTORS
330
EAF
102
}
330
EAF
100
AcDbXrecord
280
     1
270
     1
271
     1
  0
XRECORD
  5
EB5
102
{ACAD_REACTORS
330
EAF
102
}
330
EAF
100
AcDbXrecord
280
     1
270
     1
271
     1
  0
XRECORD
  5
EB2
102
{ACAD_REACTORS
330
EAF
102
}
330
EAF
100
AcDbXrecord
280
     1
270
     1
271
     1
  0
XRECORD
  5
1001
102
{ACAD_REACTORS
330
1000
102
}
330
1000
100
AcDbXrecord
280
     1
102
ACAD_ROUNDTRIP_2012_MLEADER_STYLE
298
     1
  0
XRECORD
  5
1002
102
{ACAD_REACTORS
330
F7C
102
}
330
F7C
100
AcDbXrecord
280
     1
102
DISPLAYNAME
  1
Imperial24
102
FLAGS
 90
        0
  0
CELLSTYLEMAP
  5
FC0
102
{ACAD_REACTORS
330
F7A
102
}
330
F7A
100
AcDbCellStyleMap
 90
        3
300
CELLSTYLE
  1
TABLEFORMAT_BEGIN
 90
        5
170
     1
 91
        0
 92
    32768
 62
   257
 93
        1
300
CONTENTFORMAT
  1
CONTENTFORMAT_BEGIN
 90
        0
 91
        0
 92
      512
 93
        0
300

 40
0.0
140
1.0
 94
        5
 62
     0
340
F
144
0.25
309
CONTENTFORMAT_END
171
     1
301
MARGIN
  1
CELLMARGIN_BEGIN
 40
0.06
 40
0.06
 40
0.06
 40
0.06
 40
0.18
 40
0.18
309
CELLMARGIN_END
 94
        6
 95
        1
302
GRIDFORMAT
  1
GRIDFORMAT_BEGIN
 90
        0
 91
        1
 62
     0
 92
       -2
340
0
 93
        0
 40
0.045
309
GRIDFORMAT_END
 95
        2
302
GRIDFORMAT
  1
GRIDFORMAT_BEGIN
 90
        0
 91
        1
 62
     0
 92
       -2
340
0
 93
        0
 40
0.045
309
GRIDFORMAT_END
 95
        4
302
GRIDFORMAT
  1
GRIDFORMAT_BEGIN
 90
        0
 91
        1
 62
     0
 92
       -2
340
0
 93
        0
 40
0.045
309
GRIDFORMAT_END
 95
        8
302
GRIDFORMAT
  1
GRIDFORMAT_BEGIN
 90
        0
 91
        1
 62
     0
 92
       -2
340
0
 93
        0
 40
0.045
309
GRIDFORMAT_END
 95
       16
302
GRIDFORMAT
  1
GRIDFORMAT_BEGIN
 90
        0
 91
        1
 62
     0
 92
       -2
340
0
 93
        0
 40
0.045
309
GRIDFORMAT_END
 95
       32
302
GRIDFORMAT
  1
GRIDFORMAT_BEGIN
 90
        0
 91
        1
 62
     0
 92
       -2
340
0
 93
        0
 40
0.045
309
GRIDFORMAT_END
309
TABLEFORMAT_END
  1
CELLSTYLE_BEGIN
 90
        1
 91
        1
300
_TITLE
309
CELLSTYLE_END
300
CELLSTYLE
  1
TABLEFORMAT_BEGIN
 90
        5
170
     1
 91
        0
 92
        0
 62
   257
 93
        1
300
CONTENTFORMAT
  1
CONTENTFORMAT_BEGIN
 90
        0
 91
        0
 92
      512
 93
        0
300

 40
0.0
140
1.0
 94
        5
 62
     0
340
F
144
0.18
309
CONTENTFORMAT_END
171
     1
301
MARGIN
  1
CELLMARGIN_BEGIN
 40
0.06
 40
0.06
 40
0.06
 40
0.06
 40
0.18
 40
0.18
309
CELLMARGIN_END
 94
        6
 95
        1
302
GRIDFORMAT
  1
GRIDFORMAT_BEGIN
 90
        0
 91
        1
 62
     0
 92
       -2
340
0
 93
        0
 40
0.045
309
GRIDFORMAT_END
 95
        2
302
GRIDFORMAT
  1
GRIDFORMAT_BEGIN
 90
        0
 91
        1
 62
     0
 92
       -2
340
0
 93
        0
 40
0.045
309
GRIDFORMAT_END
 95
        4
302
GRIDFORMAT
  1
GRIDFORMAT_BEGIN
 90
        0
 91
        1
 62
     0
 92
       -2
340
0
 93
        0
 40
0.045
309
GRIDFORMAT_END
 95
        8
302
GRIDFORMAT
  1
GRIDFORMAT_BEGIN
 90
        0
 91
        1
 62
     0
 92
       -2
340
0
 93
        0
 40
0.045
309
GRIDFORMAT_END
 95
       16
302
GRIDFORMAT
  1
GRIDFORMAT_BEGIN
 90
        0
 91
        1
 62
     0
 92
       -2
340
0
 93
        0
 40
0.045
309
GRIDFORMAT_END
 95
       32
302
GRIDFORMAT
  1
GRIDFORMAT_BEGIN
 90
        0
 91
        1
 62
     0
 92
       -2
340
0
 93
        0
 40
0.045
309
GRIDFORMAT_END
309
TABLEFORMAT_END
  1
CELLSTYLE_BEGIN
 90
        2
 91
        1
300
_HEADER
309
CELLSTYLE_END
300
CELLSTYLE
  1
TABLEFORMAT_BEGIN
 90
        5
170
     1
 91
        0
 92
        0
 62
   257
 93
        1
300
CONTENTFORMAT
  1
CONTENTFORMAT_BEGIN
 90
        0
 91
        0
 92
      512
 93
        0
300

 40
0.0
140
1.0
 94
        2
 62
     0
340
F
144
0.18
309
CONTENTFORMAT_END
171
     1
301
MARGIN
  1
CELLMARGIN_BEGIN
 40
0.06
 40
0.06
 40
0.06
 40
0.06
 40
0.18
 40
0.18
309
CELLMARGIN_END
 94
        6
 95
        1
302
GRIDFORMAT
  1
GRIDFORMAT_BEGIN
 90
        0
 91
        1
 62
     0
 92
       -2
340
0
 93
        0
 40
0.045
309
GRIDFORMAT_END
 95
        2
302
GRIDFORMAT
  1
GRIDFORMAT_BEGIN
 90
        0
 91
        1
 62
     0
 92
       -2
340
0
 93
        0
 40
0.045
309
GRIDFORMAT_END
 95
        4
302
GRIDFORMAT
  1
GRIDFORMAT_BEGIN
 90
        0
 91
        1
 62
     0
 92
       -2
340
0
 93
        0
 40
0.045
309
GRIDFORMAT_END
 95
        8
302
GRIDFORMAT
  1
GRIDFORMAT_BEGIN
 90
        0
 91
        1
 62
     0
 92
       -2
340
0
 93
        0
 40
0.045
309
GRIDFORMAT_END
 95
       16
302
GRIDFORMAT
  1
GRIDFORMAT_BEGIN
 90
        0
 91
        1
 62
     0
 92
       -2
340
0
 93
        0
 40
0.045
309
GRIDFORMAT_END
 95
       32
302
GRIDFORMAT
  1
GRIDFORMAT_BEGIN
 90
        0
 91
        1
 62
     0
 92
       -2
340
0
 93
        0
 40
0.045
309
GRIDFORMAT_END
309
TABLEFORMAT_END
  1
CELLSTYLE_BEGIN
 90
        3
 91
        2
300
_DATA
309
CELLSTYLE_END
  0
XRECORD
  5
FFE
102
{ACAD_REACTORS
330
F7A
102
}
330
F7A
100
AcDbXrecord
280
     1
102
ACAD_ROUNDTRIP_PRE2007_TABLESTYLE
 90
      512
 91
        0
  1

 92
      512
 93
        0
  2

 94
      512
 95
        0
  3

  0
XRECORD
  5
FD9
102
{ACAD_REACTORS
330
FD8
102
}
330
FD8
100
AcDbXrecord
280
     1
102
RTVSPost2010Prop28
280
     1
102
RTVSPost2010PropOp28
 70
     1
102
RTVSPost2010Prop29
280
     1
102
RTVSPost2010PropOp29
 70
     1
102
RTVSPost2010Prop30
280
     0
102
RTVSPost2010PropOp30
 70
     1
102
RTVSPost2010Prop31
280
     0
102
RTVSPost2010PropOp31
 70
     1
102
RTVSPost2010Prop32
280
     0
102
RTVSPost2010PropOp32
 70
     1
102
RTVSPost2010Prop33
280
     0
102
RTVSPost2010PropOp33
 70
     1
102
RTVSPost2010Prop34
280
     0
102
RTVSPost2010PropOp34
 70
     1
102
RTVSPost2010Prop35
280
     0
102
RTVSPost2010PropOp35
 70
     1
102
RTVSPost2010Prop36
280
     0
102
RTVSPost2010PropOp36
 70
     1
102
RTVSPost2010Prop37
 90
       50
102
RTVSPost2010PropOp37
 70
     1
102
RTVSPost2010Prop38
140
0.0
102
RTVSPost2010PropOp38
 70
     1
102
RTVSPost2010Prop39
140
1.0
102
RTVSPost2010PropOp39
 70
     1
102
RTVSPost2010Prop40
 90
        0
102
RTVSPost2010PropOp40
 70
     1
102
RTVSPost2010Prop41ColorIndex
 90
       18
102
RTVSPost2010Prop41ColorRGB
 90
-16777216
102
RTVSPost2010PropOp41
 70
     1
102
RTVSPost2010Prop42
 90
       50
102
RTVSPost2010PropOp42
 70
     1
102
RTVSPost2010Prop43
 90
        3
102
RTVSPost2010PropOp43
 70
     1
102
RTVSPost2010Prop44ColorIndex
 90
        5
102
RTVSPost2010Prop44ColorRGB
 90
      255
102
RTVSPost2010PropOp44
 70
     1
102
RTVSPost2010Prop45
280
     0
102
RTVSPost2010PropOp45
 70
     1
102
RTVSPost2010Prop46
 90
       50
102
RTVSPost2010PropOp46
 70
     1
102
RTVSPost2010Prop47
 90
       50
102
RTVSPost2010PropOp47
 70
     1
102
RTVSPost2010Prop48
 90
       50
102
RTVSPost2010PropOp48
 70
     1
102
RTVSPost2010Prop49
280
     0
102
RTVSPost2010PropOp49
 70
     1
102
RTVSPost2010Prop50
 90
       50
102
RTVSPost2010PropOp50
 70
     1
102
RTVSPost2010Prop51ColorIndex
 90
      256
102
RTVSPost2010Prop51ColorRGB
 90
-16777216
102
RTVSPost2010PropOp51
 70
     0
102
RTVSPost2010Prop52
140
1.0
102
RTVSPost2010PropOp52
 70
     0
102
RTVSPost2010Prop53
 90
        2
102
RTVSPost2010PropOp53
 70
     1
102
RTVSPost2010Prop54
  1
strokes_ogs.tif
102
RTVSPost2010PropOp54
 70
     1
102
RTVSPost2010Prop55
280
     0
102
RTVSPost2010PropOp55
 70
     1
102
RTVSPost2010Prop56
140
1.0
102
RTVSPost2010PropOp56
 70
     1
102
RTVSPost2010Prop57
140
1.0
102
RTVSPost2010PropOp57
 70
     1
102
RTVSPropertyOp0
 70
     1
102
RTVSPropertyOp1
 70
     1
102
RTVSPropertyOp2
 70
     1
102
RTVSPropertyOp3
 70
     1
102
RTVSPropertyOp4
 70
     1
102
RTVSPropertyOp5
 70
     1
102
RTVSPropertyOp6
 70
     1
102
RTVSPropertyOp7
 70
     1
102
RTVSPropertyOp8
 70
     1
102
RTVSPropertyOp9
 70
     1
102
RTVSPropertyOp10
 70
     1
102
RTVSPropertyOp11
 70
     1
102
RTVSPropertyOp12
 70
     1
102
RTVSPropertyOp13
 70
     1
102
RTVSPropertyOp14
 70
     1
102
RTVSPropertyOp15
 70
     1
102
RTVSPropertyOp16
 70
     1
102
RTVSPropertyOp17
 70
     1
102
RTVSPropertyOp18
 70
     1
102
RTVSPropertyOp19
 70
     1
102
RTVSPropertyOp20
 70
     1
102
RTVSPropertyOp21
 70
     1
102
RTVSPropertyOp22
 70
     1
102
RTVSPropertyOp23
 70
     1
102
RTVSPropertyOp24
 70
     1
102
RTVSPropertyOp25
 70
     1
102
RTVSPropertyOp26
 70
     1
102
RTVSPropertyOp27
 70
     1
102
RTVSPropertyOp28
 70
     1
102
RTVSPropertyOp29
 70
     1
102
RTVSPropertyOp30
 70
     1
102
RTVSPropertyOp31
 70
     1
102
RTVSPropertyOp32
 70
     1
102
RTVSPropertyOp33
 70
     1
102
RTVSPropertyOp34
 70
     1
102
RTVSPropertyOp35
 70
     1
102
RTVSPropertyOp36
 70
     1
102
RTVSPropertyOp37
 70
     1
102
RTVSPropertyOp38
 70
     1
102
RTVSPropertyOp39
 70
     1
102
RTVSPropertyOp40
 70
     1
102
RTVSPropertyOp41
 70
     1
102
RTVSPropertyOp42
 70
     1
102
RTVSPropertyOp43
 70
     1
102
RTVSPropertyOp44
 70
     1
102
RTVSPropertyOp45
 70
     1
102
RTVSPropertyOp46
 70
     1
102
RTVSPropertyOp47
 70
     1
102
RTVSPropertyOp48
 70
     1
102
RTVSPropertyOp49
 70
     1
102
RTVSPropertyOp50
 70
     1
102
RTVSPropertyOp51
 70
     0
102
RTVSPropertyOp52
 70
     0
102
RTVSPropertyOp53
 70
     1
102
RTVSPropertyOp54
 70
     1
102
RTVSPropertyOp55
 70
     1
102
RTVSPropertyOp56
 70
     1
102
RTVSPropertyOp57
 70
     1
102
RTVSPropertyOp58
 70
     1
102
RTVSPropertyOp59
 70
     1
102
RTVSPropertyOp60
 70
     1
102
RTVSPropertyOp61
 70
     1
102
RTVSPropertyOp62
 70
     1
  0
XRECORD
  5
FD7
102
{ACAD_REACTORS
330
FD6
102
}
330
FD6
100
AcDbXrecord
280
     1
102
RTVSPost2010Prop28
280
     0
102
RTVSPost2010PropOp28
 70
     1
102
RTVSPost2010Prop29
280
     1
102
RTVSPost2010PropOp29
 70
     1
102
RTVSPost2010Prop30
280
     1
102
RTVSPost2010PropOp30
 70
     1
102
RTVSPost2010Prop31
280
     0
102
RTVSPost2010PropOp31
 70
     1
102
RTVSPost2010Prop32
280
     0
102
RTVSPost2010PropOp32
 70
     1
102
RTVSPost2010Prop33
280
     0
102
RTVSPost2010PropOp33
 70
     1
102
RTVSPost2010Prop34
280
     0
102
RTVSPost2010PropOp34
 70
     1
102
RTVSPost2010Prop35
280
     0
102
RTVSPost2010PropOp35
 70
     1
102
RTVSPost2010Prop36
280
     0
102
RTVSPost2010PropOp36
 70
     1
102
RTVSPost2010Prop37
 90
       50
102
RTVSPost2010PropOp37
 70
     1
102
RTVSPost2010Prop38
140
0.0
102
RTVSPost2010PropOp38
 70
     1
102
RTVSPost2010Prop39
140
1.0
102
RTVSPost2010PropOp39
 70
     1
102
RTVSPost2010Prop40
 90
        0
102
RTVSPost2010PropOp40
 70
     1
102
RTVSPost2010Prop41ColorIndex
 90
       18
102
RTVSPost2010Prop41ColorRGB
 90
-16777216
102
RTVSPost2010PropOp41
 70
     1
102
RTVSPost2010Prop42
 90
       50
102
RTVSPost2010PropOp42
 70
     1
102
RTVSPost2010Prop43
 90
        3
102
RTVSPost2010PropOp43
 70
     1
102
RTVSPost2010Prop44ColorIndex
 90
        5
102
RTVSPost2010Prop44ColorRGB
 90
      255
102
RTVSPost2010PropOp44
 70
     1
102
RTVSPost2010Prop45
280
     0
102
RTVSPost2010PropOp45
 70
     1
102
RTVSPost2010Prop46
 90
       50
102
RTVSPost2010PropOp46
 70
     1
102
RTVSPost2010Prop47
 90
       50
102
RTVSPost2010PropOp47
 70
     1
102
RTVSPost2010Prop48
 90
       50
102
RTVSPost2010PropOp48
 70
     1
102
RTVSPost2010Prop49
280
     0
102
RTVSPost2010PropOp49
 70
     1
102
RTVSPost2010Prop50
 90
       50
102
RTVSPost2010PropOp50
 70
     1
102
RTVSPost2010Prop51ColorIndex
 90
      256
102
RTVSPost2010Prop51ColorRGB
 90
-16777216
102
RTVSPost2010PropOp51
 70
     0
102
RTVSPost2010Prop52
140
1.0
102
RTVSPost2010PropOp52
 70
     0
102
RTVSPost2010Prop53
 90
        2
102
RTVSPost2010PropOp53
 70
     1
102
RTVSPost2010Prop54
  1
strokes_ogs.tif
102
RTVSPost2010PropOp54
 70
     1
102
RTVSPost2010Prop55
280
     0
102
RTVSPost2010PropOp55
 70
     1
102
RTVSPost2010Prop56
140
1.0
102
RTVSPost2010PropOp56
 70
     1
102
RTVSPost2010Prop57
140
1.0
102
RTVSPost2010PropOp57
 70
     1
102
RTVSPropertyOp0
 70
     1
102
RTVSPropertyOp1
 70
     1
102
RTVSPropertyOp2
 70
     1
102
RTVSPropertyOp3
 70
     1
102
RTVSPropertyOp4
 70
     1
102
RTVSPropertyOp5
 70
     1
102
RTVSPropertyOp6
 70
     1
102
RTVSPropertyOp7
 70
     1
102
RTVSPropertyOp8
 70
     1
102
RTVSPropertyOp9
 70
     1
102
RTVSPropertyOp10
 70
     1
102
RTVSPropertyOp11
 70
     1
102
RTVSPropertyOp12
 70
     1
102
RTVSPropertyOp13
 70
     1
102
RTVSPropertyOp14
 70
     1
102
RTVSPropertyOp15
 70
     1
102
RTVSPropertyOp16
 70
     1
102
RTVSPropertyOp17
 70
     1
102
RTVSPropertyOp18
 70
     1
102
RTVSPropertyOp19
 70
     1
102
RTVSPropertyOp20
 70
     1
102
RTVSPropertyOp21
 70
     1
102
RTVSPropertyOp22
 70
     1
102
RTVSPropertyOp23
 70
     1
102
RTVSPropertyOp24
 70
     1
102
RTVSPropertyOp25
 70
     1
102
RTVSPropertyOp26
 70
     1
102
RTVSPropertyOp27
 70
     1
102
RTVSPropertyOp28
 70
     1
102
RTVSPropertyOp29
 70
     1
102
RTVSPropertyOp30
 70
     1
102
RTVSPropertyOp31
 70
     1
102
RTVSPropertyOp32
 70
     1
102
RTVSPropertyOp33
 70
     1
102
RTVSPropertyOp34
 70
     1
102
RTVSPropertyOp35
 70
     1
102
RTVSPropertyOp36
 70
     1
102
RTVSPropertyOp37
 70
     1
102
RTVSPropertyOp38
 70
     1
102
RTVSPropertyOp39
 70
     1
102
RTVSPropertyOp40
 70
     1
102
RTVSPropertyOp41
 70
     1
102
RTVSPropertyOp42
 70
     1
102
RTVSPropertyOp43
 70
     1
102
RTVSPropertyOp44
 70
     1
102
RTVSPropertyOp45
 70
     1
102
RTVSPropertyOp46
 70
     1
102
RTVSPropertyOp47
 70
     1
102
RTVSPropertyOp48
 70
     1
102
RTVSPropertyOp49
 70
     1
102
RTVSPropertyOp50
 70
     1
102
RTVSPropertyOp51
 70
     0
102
RTVSPropertyOp52
 70
     0
102
RTVSPropertyOp53
 70
     1
102
RTVSPropertyOp54
 70
     1
102
RTVSPropertyOp55
 70
     1
102
RTVSPropertyOp56
 70
     1
102
RTVSPropertyOp57
 70
     1
102
RTVSPropertyOp58
 70
     1
102
RTVSPropertyOp59
 70
     1
102
RTVSPropertyOp60
 70
     1
102
RTVSPropertyOp61
 70
     1
102
RTVSPropertyOp62
 70
     1
  0
XRECORD
  5
FE5
102
{ACAD_REACTORS
330
FE4
102
}
330
FE4
100
AcDbXrecord
280
     1
102
RTVSPost2010Prop28
280
     0
102
RTVSPost2010PropOp28
 70
     1
102
RTVSPost2010Prop29
280
     1
102
RTVSPost2010PropOp29
 70
     1
102
RTVSPost2010Prop30
280
     1
102
RTVSPost2010PropOp30
 70
     1
102
RTVSPost2010Prop31
280
     0
102
RTVSPost2010PropOp31
 70
     1
102
RTVSPost2010Prop32
280
     0
102
RTVSPost2010PropOp32
 70
     1
102
RTVSPost2010Prop33
280
     0
102
RTVSPost2010PropOp33
 70
     1
102
RTVSPost2010Prop34
280
     0
102
RTVSPost2010PropOp34
 70
     1
102
RTVSPost2010Prop35
280
     0
102
RTVSPost2010PropOp35
 70
     1
102
RTVSPost2010Prop36
280
     0
102
RTVSPost2010PropOp36
 70
     1
102
RTVSPost2010Prop37
 90
       50
102
RTVSPost2010PropOp37
 70
     1
102
RTVSPost2010Prop38
140
0.0
102
RTVSPost2010PropOp38
 70
     1
102
RTVSPost2010Prop39
140
1.0
102
RTVSPost2010PropOp39
 70
     1
102
RTVSPost2010Prop40
 90
        0
102
RTVSPost2010PropOp40
 70
     1
102
RTVSPost2010Prop41ColorIndex
 90
       18
102
RTVSPost2010Prop41ColorRGB
 90
-16777216
102
RTVSPost2010PropOp41
 70
     1
102
RTVSPost2010Prop42
 90
       50
102
RTVSPost2010PropOp42
 70
     1
102
RTVSPost2010Prop43
 90
        3
102
RTVSPost2010PropOp43
 70
     1
102
RTVSPost2010Prop44ColorIndex
 90
        5
102
RTVSPost2010Prop44ColorRGB
 90
      255
102
RTVSPost2010PropOp44
 70
     1
102
RTVSPost2010Prop45
280
     0
102
RTVSPost2010PropOp45
 70
     1
102
RTVSPost2010Prop46
 90
       50
102
RTVSPost2010PropOp46
 70
     1
102
RTVSPost2010Prop47
 90
       50
102
RTVSPost2010PropOp47
 70
     1
102
RTVSPost2010Prop48
 90
       50
102
RTVSPost2010PropOp48
 70
     1
102
RTVSPost2010Prop49
280
     0
102
RTVSPost2010PropOp49
 70
     1
102
RTVSPost2010Prop50
 90
       50
102
RTVSPost2010PropOp50
 70
     1
102
RTVSPost2010Prop51ColorIndex
 90
      256
102
RTVSPost2010Prop51ColorRGB
 90
-16777216
102
RTVSPost2010PropOp51
 70
     0
102
RTVSPost2010Prop52
140
1.0
102
RTVSPost2010PropOp52
 70
     0
102
RTVSPost2010Prop53
 90
        2
102
RTVSPost2010PropOp53
 70
     1
102
RTVSPost2010Prop54
  1
strokes_ogs.tif
102
RTVSPost2010PropOp54
 70
     1
102
RTVSPost2010Prop55
280
     0
102
RTVSPost2010PropOp55
 70
     1
102
RTVSPost2010Prop56
140
1.0
102
RTVSPost2010PropOp56
 70
     1
102
RTVSPost2010Prop57
140
1.0
102
RTVSPost2010PropOp57
 70
     1
102
RTVSPropertyOp0
 70
     1
102
RTVSPropertyOp1
 70
     1
102
RTVSPropertyOp2
 70
     1
102
RTVSPropertyOp3
 70
     1
102
RTVSPropertyOp4
 70
     1
102
RTVSPropertyOp5
 70
     1
102
RTVSPropertyOp6
 70
     1
102
RTVSPropertyOp7
 70
     1
102
RTVSPropertyOp8
 70
     1
102
RTVSPropertyOp9
 70
     1
102
RTVSPropertyOp10
 70
     1
102
RTVSPropertyOp11
 70
     1
102
RTVSPropertyOp12
 70
     1
102
RTVSPropertyOp13
 70
     1
102
RTVSPropertyOp14
 70
     1
102
RTVSPropertyOp15
 70
     1
102
RTVSPropertyOp16
 70
     1
102
RTVSPropertyOp17
 70
     1
102
RTVSPropertyOp18
 70
     1
102
RTVSPropertyOp19
 70
     1
102
RTVSPropertyOp20
 70
     1
102
RTVSPropertyOp21
 70
     1
102
RTVSPropertyOp22
 70
     1
102
RTVSPropertyOp23
 70
     1
102
RTVSPropertyOp24
 70
     1
102
RTVSPropertyOp25
 70
     1
102
RTVSPropertyOp26
 70
     1
102
RTVSPropertyOp27
 70
     1
102
RTVSPropertyOp28
 70
     1
102
RTVSPropertyOp29
 70
     1
102
RTVSPropertyOp30
 70
     1
102
RTVSPropertyOp31
 70
     1
102
RTVSPropertyOp32
 70
     1
102
RTVSPropertyOp33
 70
     1
102
RTVSPropertyOp34
 70
     1
102
RTVSPropertyOp35
 70
     1
102
RTVSPropertyOp36
 70
     1
102
RTVSPropertyOp37
 70
     1
102
RTVSPropertyOp38
 70
     1
102
RTVSPropertyOp39
 70
     1
102
RTVSPropertyOp40
 70
     1
102
RTVSPropertyOp41
 70
     1
102
RTVSPropertyOp42
 70
     1
102
RTVSPropertyOp43
 70
     1
102
RTVSPropertyOp44
 70
     1
102
RTVSPropertyOp45
 70
     1
102
RTVSPropertyOp46
 70
     1
102
RTVSPropertyOp47
 70
     1
102
RTVSPropertyOp48
 70
     1
102
RTVSPropertyOp49
 70
     1
102
RTVSPropertyOp50
 70
     1
102
RTVSPropertyOp51
 70
     0
102
RTVSPropertyOp52
 70
     0
102
RTVSPropertyOp53
 70
     1
102
RTVSPropertyOp54
 70
     1
102
RTVSPropertyOp55
 70
     1
102
RTVSPropertyOp56
 70
     1
102
RTVSPropertyOp57
 70
     1
102
RTVSPropertyOp58
 70
     1
102
RTVSPropertyOp59
 70
     1
102
RTVSPropertyOp60
 70
     1
102
RTVSPropertyOp61
 70
     1
102
RTVSPropertyOp62
 70
     1
  0
XRECORD
  5
FED
102
{ACAD_REACTORS
330
FEC
102
}
330
FEC
100
AcDbXrecord
280
     1
102
RTVSPost2010Prop28
280
     0
102
RTVSPost2010PropOp28
 70
     1
102
RTVSPost2010Prop29
280
     1
102
RTVSPost2010PropOp29
 70
     1
102
RTVSPost2010Prop30
280
     1
102
RTVSPost2010PropOp30
 70
     1
102
RTVSPost2010Prop31
280
     0
102
RTVSPost2010PropOp31
 70
     1
102
RTVSPost2010Prop32
280
     0
102
RTVSPost2010PropOp32
 70
     1
102
RTVSPost2010Prop33
280
     0
102
RTVSPost2010PropOp33
 70
     1
102
RTVSPost2010Prop34
280
     0
102
RTVSPost2010PropOp34
 70
     1
102
RTVSPost2010Prop35
280
     0
102
RTVSPost2010PropOp35
 70
     1
102
RTVSPost2010Prop36
280
     0
102
RTVSPost2010PropOp36
 70
     1
102
RTVSPost2010Prop37
 90
       50
102
RTVSPost2010PropOp37
 70
     1
102
RTVSPost2010Prop38
140
0.0
102
RTVSPost2010PropOp38
 70
     1
102
RTVSPost2010Prop39
140
1.0
102
RTVSPost2010PropOp39
 70
     1
102
RTVSPost2010Prop40
 90
        0
102
RTVSPost2010PropOp40
 70
     1
102
RTVSPost2010Prop41ColorIndex
 90
       18
102
RTVSPost2010Prop41ColorRGB
 90
-16777216
102
RTVSPost2010PropOp41
 70
     1
102
RTVSPost2010Prop42
 90
       50
102
RTVSPost2010PropOp42
 70
     1
102
RTVSPost2010Prop43
 90
        3
102
RTVSPost2010PropOp43
 70
     1
102
RTVSPost2010Prop44ColorIndex
 90
        5
102
RTVSPost2010Prop44ColorRGB
 90
      255
102
RTVSPost2010PropOp44
 70
     1
102
RTVSPost2010Prop45
280
     0
102
RTVSPost2010PropOp45
 70
     1
102
RTVSPost2010Prop46
 90
       50
102
RTVSPost2010PropOp46
 70
     1
102
RTVSPost2010Prop47
 90
       50
102
RTVSPost2010PropOp47
 70
     1
102
RTVSPost2010Prop48
 90
       50
102
RTVSPost2010PropOp48
 70
     1
102
RTVSPost2010Prop49
280
     0
102
RTVSPost2010PropOp49
 70
     1
102
RTVSPost2010Prop50
 90
       50
102
RTVSPost2010PropOp50
 70
     1
102
RTVSPost2010Prop51ColorIndex
 90
      256
102
RTVSPost2010Prop51ColorRGB
 90
-16777216
102
RTVSPost2010PropOp51
 70
     0
102
RTVSPost2010Prop52
140
1.0
102
RTVSPost2010PropOp52
 70
     0
102
RTVSPost2010Prop53
 90
        2
102
RTVSPost2010PropOp53
 70
     1
102
RTVSPost2010Prop54
  1
strokes_ogs.tif
102
RTVSPost2010PropOp54
 70
     1
102
RTVSPost2010Prop55
280
     0
102
RTVSPost2010PropOp55
 70
     1
102
RTVSPost2010Prop56
140
1.0
102
RTVSPost2010PropOp56
 70
     1
102
RTVSPost2010Prop57
140
1.0
102
RTVSPost2010PropOp57
 70
     1
102
RTVSPropertyOp0
 70
     1
102
RTVSPropertyOp1
 70
     1
102
RTVSPropertyOp2
 70
     1
102
RTVSPropertyOp3
 70
     1
102
RTVSPropertyOp4
 70
     1
102
RTVSPropertyOp5
 70
     1
102
RTVSPropertyOp6
 70
     1
102
RTVSPropertyOp7
 70
     1
102
RTVSPropertyOp8
 70
     1
102
RTVSPropertyOp9
 70
     1
102
RTVSPropertyOp10
 70
     1
102
RTVSPropertyOp11
 70
     1
102
RTVSPropertyOp12
 70
     1
102
RTVSPropertyOp13
 70
     1
102
RTVSPropertyOp14
 70
     1
102
RTVSPropertyOp15
 70
     1
102
RTVSPropertyOp16
 70
     1
102
RTVSPropertyOp17
 70
     1
102
RTVSPropertyOp18
 70
     1
102
RTVSPropertyOp19
 70
     1
102
RTVSPropertyOp20
 70
     1
102
RTVSPropertyOp21
 70
     1
102
RTVSPropertyOp22
 70
     1
102
RTVSPropertyOp23
 70
     1
102
RTVSPropertyOp24
 70
     1
102
RTVSPropertyOp25
 70
     1
102
RTVSPropertyOp26
 70
     1
102
RTVSPropertyOp27
 70
     1
102
RTVSPropertyOp28
 70
     1
102
RTVSPropertyOp29
 70
     1
102
RTVSPropertyOp30
 70
     1
102
RTVSPropertyOp31
 70
     1
102
RTVSPropertyOp32
 70
     1
102
RTVSPropertyOp33
 70
     1
102
RTVSPropertyOp34
 70
     1
102
RTVSPropertyOp35
 70
     1
102
RTVSPropertyOp36
 70
     1
102
RTVSPropertyOp37
 70
     1
102
RTVSPropertyOp38
 70
     1
102
RTVSPropertyOp39
 70
     1
102
RTVSPropertyOp40
 70
     1
102
RTVSPropertyOp41
 70
     1
102
RTVSPropertyOp42
 70
     1
102
RTVSPropertyOp43
 70
     1
102
RTVSPropertyOp44
 70
     1
102
RTVSPropertyOp45
 70
     1
102
RTVSPropertyOp46
 70
     1
102
RTVSPropertyOp47
 70
     1
102
RTVSPropertyOp48
 70
     1
102
RTVSPropertyOp49
 70
     1
102
RTVSPropertyOp50
 70
     1
102
RTVSPropertyOp51
 70
     0
102
RTVSPropertyOp52
 70
     0
102
RTVSPropertyOp53
 70
     1
102
RTVSPropertyOp54
 70
     1
102
RTVSPropertyOp55
 70
     1
102
RTVSPropertyOp56
 70
     1
102
RTVSPropertyOp57
 70
     1
102
RTVSPropertyOp58
 70
     1
102
RTVSPropertyOp59
 70
     1
102
RTVSPropertyOp60
 70
     1
102
RTVSPropertyOp61
 70
     1
102
RTVSPropertyOp62
 70
     1
  0
XRECORD
  5
FDF
102
{ACAD_REACTORS
330
FDE
102
}
330
FDE
100
AcDbXrecord
280
     1
102
RTVSPost2010Prop28
280
     0
102
RTVSPost2010PropOp28
 70
     1
102
RTVSPost2010Prop29
280
     1
102
RTVSPost2010PropOp29
 70
     1
102
RTVSPost2010Prop30
280
     1
102
RTVSPost2010PropOp30
 70
     1
102
RTVSPost2010Prop31
280
     0
102
RTVSPost2010PropOp31
 70
     1
102
RTVSPost2010Prop32
280
     0
102
RTVSPost2010PropOp32
 70
     1
102
RTVSPost2010Prop33
280
     0
102
RTVSPost2010PropOp33
 70
     1
102
RTVSPost2010Prop34
280
     0
102
RTVSPost2010PropOp34
 70
     1
102
RTVSPost2010Prop35
280
     0
102
RTVSPost2010PropOp35
 70
     1
102
RTVSPost2010Prop36
280
     0
102
RTVSPost2010PropOp36
 70
     1
102
RTVSPost2010Prop37
 90
       50
102
RTVSPost2010PropOp37
 70
     1
102
RTVSPost2010Prop38
140
0.0
102
RTVSPost2010PropOp38
 70
     1
102
RTVSPost2010Prop39
140
1.0
102
RTVSPost2010PropOp39
 70
     1
102
RTVSPost2010Prop40
 90
        0
102
RTVSPost2010PropOp40
 70
     1
102
RTVSPost2010Prop41ColorIndex
 90
       18
102
RTVSPost2010Prop41ColorRGB
 90
-16777216
102
RTVSPost2010PropOp41
 70
     1
102
RTVSPost2010Prop42
 90
       50
102
RTVSPost2010PropOp42
 70
     1
102
RTVSPost2010Prop43
 90
        3
102
RTVSPost2010PropOp43
 70
     1
102
RTVSPost2010Prop44ColorIndex
 90
        5
102
RTVSPost2010Prop44ColorRGB
 90
      255
102
RTVSPost2010PropOp44
 70
     1
102
RTVSPost2010Prop45
280
     0
102
RTVSPost2010PropOp45
 70
     1
102
RTVSPost2010Prop46
 90
       50
102
RTVSPost2010PropOp46
 70
     1
102
RTVSPost2010Prop47
 90
       50
102
RTVSPost2010PropOp47
 70
     1
102
RTVSPost2010Prop48
 90
       50
102
RTVSPost2010PropOp48
 70
     1
102
RTVSPost2010Prop49
280
     0
102
RTVSPost2010PropOp49
 70
     1
102
RTVSPost2010Prop50
 90
       50
102
RTVSPost2010PropOp50
 70
     1
102
RTVSPost2010Prop51ColorIndex
 90
      256
102
RTVSPost2010Prop51ColorRGB
 90
-16777216
102
RTVSPost2010PropOp51
 70
     0
102
RTVSPost2010Prop52
140
1.0
102
RTVSPost2010PropOp52
 70
     0
102
RTVSPost2010Prop53
 90
        2
102
RTVSPost2010PropOp53
 70
     1
102
RTVSPost2010Prop54
  1
strokes_ogs.tif
102
RTVSPost2010PropOp54
 70
     1
102
RTVSPost2010Prop55
280
     0
102
RTVSPost2010PropOp55
 70
     1
102
RTVSPost2010Prop56
140
1.0
102
RTVSPost2010PropOp56
 70
     1
102
RTVSPost2010Prop57
140
1.0
102
RTVSPost2010PropOp57
 70
     1
102
RTVSPropertyOp0
 70
     1
102
RTVSPropertyOp1
 70
     1
102
RTVSPropertyOp2
 70
     1
102
RTVSPropertyOp3
 70
     1
102
RTVSPropertyOp4
 70
     1
102
RTVSPropertyOp5
 70
     1
102
RTVSPropertyOp6
 70
     1
102
RTVSPropertyOp7
 70
     1
102
RTVSPropertyOp8
 70
     1
102
RTVSPropertyOp9
 70
     1
102
RTVSPropertyOp10
 70
     1
102
RTVSPropertyOp11
 70
     1
102
RTVSPropertyOp12
 70
     1
102
RTVSPropertyOp13
 70
     1
102
RTVSPropertyOp14
 70
     1
102
RTVSPropertyOp15
 70
     1
102
RTVSPropertyOp16
 70
     1
102
RTVSPropertyOp17
 70
     1
102
RTVSPropertyOp18
 70
     1
102
RTVSPropertyOp19
 70
     1
102
RTVSPropertyOp20
 70
     1
102
RTVSPropertyOp21
 70
     1
102
RTVSPropertyOp22
 70
     1
102
RTVSPropertyOp23
 70
     1
102
RTVSPropertyOp24
 70
     1
102
RTVSPropertyOp25
 70
     1
102
RTVSPropertyOp26
 70
     1
102
RTVSPropertyOp27
 70
     1
102
RTVSPropertyOp28
 70
     1
102
RTVSPropertyOp29
 70
     1
102
RTVSPropertyOp30
 70
     1
102
RTVSPropertyOp31
 70
     1
102
RTVSPropertyOp32
 70
     1
102
RTVSPropertyOp33
 70
     1
102
RTVSPropertyOp34
 70
     1
102
RTVSPropertyOp35
 70
     1
102
RTVSPropertyOp36
 70
     1
102
RTVSPropertyOp37
 70
     1
102
RTVSPropertyOp38
 70
     1
102
RTVSPropertyOp39
 70
     1
102
RTVSPropertyOp40
 70
     1
102
RTVSPropertyOp41
 70
     1
102
RTVSPropertyOp42
 70
     1
102
RTVSPropertyOp43
 70
     1
102
RTVSPropertyOp44
 70
     1
102
RTVSPropertyOp45
 70
     1
102
RTVSPropertyOp46
 70
     1
102
RTVSPropertyOp47
 70
     1
102
RTVSPropertyOp48
 70
     1
102
RTVSPropertyOp49
 70
     1
102
RTVSPropertyOp50
 70
     1
102
RTVSPropertyOp51
 70
     0
102
RTVSPropertyOp52
 70
     0
102
RTVSPropertyOp53
 70
     1
102
RTVSPropertyOp54
 70
     1
102
RTVSPropertyOp55
 70
     1
102
RTVSPropertyOp56
 70
     1
102
RTVSPropertyOp57
 70
     1
102
RTVSPropertyOp58
 70
     1
102
RTVSPropertyOp59
 70
     1
102
RTVSPropertyOp60
 70
     1
102
RTVSPropertyOp61
 70
     1
102
RTVSPropertyOp62
 70
     1
  0
XRECORD
  5
FE3
102
{ACAD_REACTORS
330
FE2
102
}
330
FE2
100
AcDbXrecord
280
     1
102
RTVSPost2010Prop28
280
     0
102
RTVSPost2010PropOp28
 70
     1
102
RTVSPost2010Prop29
280
     1
102
RTVSPost2010PropOp29
 70
     1
102
RTVSPost2010Prop30
280
     1
102
RTVSPost2010PropOp30
 70
     1
102
RTVSPost2010Prop31
280
     0
102
RTVSPost2010PropOp31
 70
     1
102
RTVSPost2010Prop32
280
     0
102
RTVSPost2010PropOp32
 70
     1
102
RTVSPost2010Prop33
280
     0
102
RTVSPost2010PropOp33
 70
     1
102
RTVSPost2010Prop34
280
     0
102
RTVSPost2010PropOp34
 70
     1
102
RTVSPost2010Prop35
280
     0
102
RTVSPost2010PropOp35
 70
     1
102
RTVSPost2010Prop36
280
     0
102
RTVSPost2010PropOp36
 70
     1
102
RTVSPost2010Prop37
 90
       50
102
RTVSPost2010PropOp37
 70
     1
102
RTVSPost2010Prop38
140
0.0
102
RTVSPost2010PropOp38
 70
     1
102
RTVSPost2010Prop39
140
1.0
102
RTVSPost2010PropOp39
 70
     1
102
RTVSPost2010Prop40
 90
        0
102
RTVSPost2010PropOp40
 70
     1
102
RTVSPost2010Prop41ColorIndex
 90
       18
102
RTVSPost2010Prop41ColorRGB
 90
-16777216
102
RTVSPost2010PropOp41
 70
     1
102
RTVSPost2010Prop42
 90
       50
102
RTVSPost2010PropOp42
 70
     1
102
RTVSPost2010Prop43
 90
        3
102
RTVSPost2010PropOp43
 70
     1
102
RTVSPost2010Prop44ColorIndex
 90
        5
102
RTVSPost2010Prop44ColorRGB
 90
      255
102
RTVSPost2010PropOp44
 70
     1
102
RTVSPost2010Prop45
280
     0
102
RTVSPost2010PropOp45
 70
     1
102
RTVSPost2010Prop46
 90
       50
102
RTVSPost2010PropOp46
 70
     1
102
RTVSPost2010Prop47
 90
       50
102
RTVSPost2010PropOp47
 70
     1
102
RTVSPost2010Prop48
 90
       50
102
RTVSPost2010PropOp48
 70
     1
102
RTVSPost2010Prop49
280
     0
102
RTVSPost2010PropOp49
 70
     1
102
RTVSPost2010Prop50
 90
       50
102
RTVSPost2010PropOp50
 70
     1
102
RTVSPost2010Prop51ColorIndex
 90
      256
102
RTVSPost2010Prop51ColorRGB
 90
-16777216
102
RTVSPost2010PropOp51
 70
     0
102
RTVSPost2010Prop52
140
1.0
102
RTVSPost2010PropOp52
 70
     0
102
RTVSPost2010Prop53
 90
        2
102
RTVSPost2010PropOp53
 70
     1
102
RTVSPost2010Prop54
  1
strokes_ogs.tif
102
RTVSPost2010PropOp54
 70
     1
102
RTVSPost2010Prop55
280
     0
102
RTVSPost2010PropOp55
 70
     1
102
RTVSPost2010Prop56
140
1.0
102
RTVSPost2010PropOp56
 70
     1
102
RTVSPost2010Prop57
140
1.0
102
RTVSPost2010PropOp57
 70
     1
102
RTVSPropertyOp0
 70
     1
102
RTVSPropertyOp1
 70
     1
102
RTVSPropertyOp2
 70
     1
102
RTVSPropertyOp3
 70
     1
102
RTVSPropertyOp4
 70
     1
102
RTVSPropertyOp5
 70
     1
102
RTVSPropertyOp6
 70
     1
102
RTVSPropertyOp7
 70
     1
102
RTVSPropertyOp8
 70
     1
102
RTVSPropertyOp9
 70
     1
102
RTVSPropertyOp10
 70
     1
102
RTVSPropertyOp11
 70
     1
102
RTVSPropertyOp12
 70
     1
102
RTVSPropertyOp13
 70
     1
102
RTVSPropertyOp14
 70
     1
102
RTVSPropertyOp15
 70
     1
102
RTVSPropertyOp16
 70
     1
102
RTVSPropertyOp17
 70
     1
102
RTVSPropertyOp18
 70
     1
102
RTVSPropertyOp19
 70
     1
102
RTVSPropertyOp20
 70
     1
102
RTVSPropertyOp21
 70
     1
102
RTVSPropertyOp22
 70
     1
102
RTVSPropertyOp23
 70
     1
102
RTVSPropertyOp24
 70
     1
102
RTVSPropertyOp25
 70
     1
102
RTVSPropertyOp26
 70
     1
102
RTVSPropertyOp27
 70
     1
102
RTVSPropertyOp28
 70
     1
102
RTVSPropertyOp29
 70
     1
102
RTVSPropertyOp30
 70
     1
102
RTVSPropertyOp31
 70
     1
102
RTVSPropertyOp32
 70
     1
102
RTVSPropertyOp33
 70
     1
102
RTVSPropertyOp34
 70
     1
102
RTVSPropertyOp35
 70
     1
102
RTVSPropertyOp36
 70
     1
102
RTVSPropertyOp37
 70
     1
102
RTVSPropertyOp38
 70
     1
102
RTVSPropertyOp39
 70
     1
102
RTVSPropertyOp40
 70
     1
102
RTVSPropertyOp41
 70
     1
102
RTVSPropertyOp42
 70
     1
102
RTVSPropertyOp43
 70
     1
102
RTVSPropertyOp44
 70
     1
102
RTVSPropertyOp45
 70
     1
102
RTVSPropertyOp46
 70
     1
102
RTVSPropertyOp47
 70
     1
102
RTVSPropertyOp48
 70
     1
102
RTVSPropertyOp49
 70
     1
102
RTVSPropertyOp50
 70
     1
102
RTVSPropertyOp51
 70
     0
102
RTVSPropertyOp52
 70
     0
102
RTVSPropertyOp53
 70
     1
102
RTVSPropertyOp54
 70
     1
102
RTVSPropertyOp55
 70
     1
102
RTVSPropertyOp56
 70
     1
102
RTVSPropertyOp57
 70
     1
102
RTVSPropertyOp58
 70
     1
102
RTVSPropertyOp59
 70
     1
102
RTVSPropertyOp60
 70
     1
102
RTVSPropertyOp61
 70
     1
102
RTVSPropertyOp62
 70
     1
  0
XRECORD
  5
FFD
102
{ACAD_REACTORS
330
FFC
102
}
330
FFC
100
AcDbXrecord
280
     1
102
RTVSPost2010Prop28
280
     0
102
RTVSPost2010PropOp28
 70
     0
102
RTVSPost2010Prop29
280
     1
102
RTVSPost2010PropOp29
 70
     0
102
RTVSPost2010Prop30
280
     1
102
RTVSPost2010PropOp30
 70
     0
102
RTVSPost2010Prop31
280
     0
102
RTVSPost2010PropOp31
 70
     0
102
RTVSPost2010Prop32
280
     0
102
RTVSPost2010PropOp32
 70
     0
102
RTVSPost2010Prop33
280
     0
102
RTVSPost2010PropOp33
 70
     0
102
RTVSPost2010Prop34
280
     0
102
RTVSPost2010PropOp34
 70
     0
102
RTVSPost2010Prop35
280
     0
102
RTVSPost2010PropOp35
 70
     0
102
RTVSPost2010Prop36
280
     0
102
RTVSPost2010PropOp36
 70
     0
102
RTVSPost2010Prop37
 90
       50
102
RTVSPost2010PropOp37
 70
     0
102
RTVSPost2010Prop38
140
0.0
102
RTVSPost2010PropOp38
 70
     0
102
RTVSPost2010Prop39
140
1.0
102
RTVSPost2010PropOp39
 70
     0
102
RTVSPost2010Prop40
 90
        0
102
RTVSPost2010PropOp40
 70
     0
102
RTVSPost2010Prop41ColorIndex
 90
       18
102
RTVSPost2010Prop41ColorRGB
 90
-16777216
102
RTVSPost2010PropOp41
 70
     0
102
RTVSPost2010Prop42
 90
       50
102
RTVSPost2010PropOp42
 70
     0
102
RTVSPost2010Prop43
 90
        3
102
RTVSPost2010PropOp43
 70
     0
102
RTVSPost2010Prop44ColorIndex
 90
        5
102
RTVSPost2010Prop44ColorRGB
 90
      255
102
RTVSPost2010PropOp44
 70
     0
102
RTVSPost2010Prop45
280
     0
102
RTVSPost2010PropOp45
 70
     0
102
RTVSPost2010Prop46
 90
       50
102
RTVSPost2010PropOp46
 70
     0
102
RTVSPost2010Prop47
 90
       50
102
RTVSPost2010PropOp47
 70
     0
102
RTVSPost2010Prop48
 90
       50
102
RTVSPost2010PropOp48
 70
     0
102
RTVSPost2010Prop49
280
     0
102
RTVSPost2010PropOp49
 70
     0
102
RTVSPost2010Prop50
 90
       50
102
RTVSPost2010PropOp50
 70
     0
102
RTVSPost2010Prop51ColorIndex
 90
      256
102
RTVSPost2010Prop51ColorRGB
 90
-16777216
102
RTVSPost2010PropOp51
 70
     0
102
RTVSPost2010Prop52
140
1.0
102
RTVSPost2010PropOp52
 70
     0
102
RTVSPost2010Prop53
 90
        2
102
RTVSPost2010PropOp53
 70
     0
102
RTVSPost2010Prop54
  1
strokes_ogs.tif
102
RTVSPost2010PropOp54
 70
     0
102
RTVSPost2010Prop55
280
     0
102
RTVSPost2010PropOp55
 70
     0
102
RTVSPost2010Prop56
140
1.0
102
RTVSPost2010PropOp56
 70
     0
102
RTVSPost2010Prop57
140
1.0
102
RTVSPost2010PropOp57
 70
     0
102
RTVSPropertyOp0
 70
     0
102
RTVSPropertyOp1
 70
     0
102
RTVSPropertyOp2
 70
     0
102
RTVSPropertyOp3
 70
     0
102
RTVSPropertyOp4
 70
     0
102
RTVSPropertyOp5
 70
     0
102
RTVSPropertyOp6
 70
     0
102
RTVSPropertyOp7
 70
     0
102
RTVSPropertyOp8
 70
     0
102
RTVSPropertyOp9
 70
     0
102
RTVSPropertyOp10
 70
     0
102
RTVSPropertyOp11
 70
     0
102
RTVSPropertyOp12
 70
     0
102
RTVSPropertyOp13
 70
     0
102
RTVSPropertyOp14
 70
     2
102
RTVSPropertyOp15
 70
     0
102
RTVSPropertyOp16
 70
     0
102
RTVSPropertyOp17
 70
     0
102
RTVSPropertyOp18
 70
     0
102
RTVSPropertyOp19
 70
     0
102
RTVSPropertyOp20
 70
     0
102
RTVSPropertyOp21
 70
     0
102
RTVSPropertyOp22
 70
     0
102
RTVSPropertyOp23
 70
     0
102
RTVSPropertyOp24
 70
     0
102
RTVSPropertyOp25
 70
     0
102
RTVSPropertyOp26
 70
     0
102
RTVSPropertyOp27
 70
     0
102
RTVSPropertyOp28
 70
     0
102
RTVSPropertyOp29
 70
     0
102
RTVSPropertyOp30
 70
     0
102
RTVSPropertyOp31
 70
     0
102
RTVSPropertyOp32
 70
     0
102
RTVSPropertyOp33
 70
     0
102
RTVSPropertyOp34
 70
     0
102
RTVSPropertyOp35
 70
     0
102
RTVSPropertyOp36
 70
     0
102
RTVSPropertyOp37
 70
     0
102
RTVSPropertyOp38
 70
     0
102
RTVSPropertyOp39
 70
     0
102
RTVSPropertyOp40
 70
     0
102
RTVSPropertyOp41
 70
     0
102
RTVSPropertyOp42
 70
     0
102
RTVSPropertyOp43
 70
     0
102
RTVSPropertyOp44
 70
     0
102
RTVSPropertyOp45
 70
     0
102
RTVSPropertyOp46
 70
     0
102
RTVSPropertyOp47
 70
     0
102
RTVSPropertyOp48
 70
     0
102
RTVSPropertyOp49
 70
     0
102
RTVSPropertyOp50
 70
     0
102
RTVSPropertyOp51
 70
     0
102
RTVSPropertyOp52
 70
     0
102
RTVSPropertyOp53
 70
     0
102
RTVSPropertyOp54
 70
     0
102
RTVSPropertyOp55
 70
     0
102
RTVSPropertyOp56
 70
     0
102
RTVSPropertyOp57
 70
     0
102
RTVSPropertyOp58
 70
     1
102
RTVSPropertyOp59
 70
     1
102
RTVSPropertyOp60
 70
     1
102
RTVSPropertyOp61
 70
     1
102
RTVSPropertyOp62
 70
     1
  0
XRECORD
  5
FEB
102
{ACAD_REACTORS
330
FEA
102
}
330
FEA
100
AcDbXrecord
280
     1
102
RTVSPost2010Prop28
280
     0
102
RTVSPost2010PropOp28
 70
     1
102
RTVSPost2010Prop29
280
     1
102
RTVSPost2010PropOp29
 70
     1
102
RTVSPost2010Prop30
280
     1
102
RTVSPost2010PropOp30
 70
     1
102
RTVSPost2010Prop31
280
     0
102
RTVSPost2010PropOp31
 70
     1
102
RTVSPost2010Prop32
280
     0
102
RTVSPost2010PropOp32
 70
     1
102
RTVSPost2010Prop33
280
     0
102
RTVSPost2010PropOp33
 70
     1
102
RTVSPost2010Prop34
280
     0
102
RTVSPost2010PropOp34
 70
     1
102
RTVSPost2010Prop35
280
     0
102
RTVSPost2010PropOp35
 70
     1
102
RTVSPost2010Prop36
280
     0
102
RTVSPost2010PropOp36
 70
     1
102
RTVSPost2010Prop37
 90
       50
102
RTVSPost2010PropOp37
 70
     1
102
RTVSPost2010Prop38
140
0.0
102
RTVSPost2010PropOp38
 70
     1
102
RTVSPost2010Prop39
140
1.0
102
RTVSPost2010PropOp39
 70
     1
102
RTVSPost2010Prop40
 90
        0
102
RTVSPost2010PropOp40
 70
     1
102
RTVSPost2010Prop41ColorIndex
 90
       18
102
RTVSPost2010Prop41ColorRGB
 90
-16777216
102
RTVSPost2010PropOp41
 70
     1
102
RTVSPost2010Prop42
 90
       50
102
RTVSPost2010PropOp42
 70
     1
102
RTVSPost2010Prop43
 90
        3
102
RTVSPost2010PropOp43
 70
     1
102
RTVSPost2010Prop44ColorIndex
 90
        5
102
RTVSPost2010Prop44ColorRGB
 90
      255
102
RTVSPost2010PropOp44
 70
     1
102
RTVSPost2010Prop45
280
     0
102
RTVSPost2010PropOp45
 70
     1
102
RTVSPost2010Prop46
 90
       50
102
RTVSPost2010PropOp46
 70
     1
102
RTVSPost2010Prop47
 90
       50
102
RTVSPost2010PropOp47
 70
     1
102
RTVSPost2010Prop48
 90
       50
102
RTVSPost2010PropOp48
 70
     1
102
RTVSPost2010Prop49
280
     0
102
RTVSPost2010PropOp49
 70
     1
102
RTVSPost2010Prop50
 90
       50
102
RTVSPost2010PropOp50
 70
     1
102
RTVSPost2010Prop51ColorIndex
 90
      256
102
RTVSPost2010Prop51ColorRGB
 90
-16777216
102
RTVSPost2010PropOp51
 70
     0
102
RTVSPost2010Prop52
140
1.0
102
RTVSPost2010PropOp52
 70
     0
102
RTVSPost2010Prop53
 90
        2
102
RTVSPost2010PropOp53
 70
     1
102
RTVSPost2010Prop54
  1
strokes_ogs.tif
102
RTVSPost2010PropOp54
 70
     1
102
RTVSPost2010Prop55
280
     0
102
RTVSPost2010PropOp55
 70
     1
102
RTVSPost2010Prop56
140
1.0
102
RTVSPost2010PropOp56
 70
     1
102
RTVSPost2010Prop57
140
1.0
102
RTVSPost2010PropOp57
 70
     1
102
RTVSPropertyOp0
 70
     1
102
RTVSPropertyOp1
 70
     1
102
RTVSPropertyOp2
 70
     1
102
RTVSPropertyOp3
 70
     1
102
RTVSPropertyOp4
 70
     1
102
RTVSPropertyOp5
 70
     1
102
RTVSPropertyOp6
 70
     1
102
RTVSPropertyOp7
 70
     1
102
RTVSPropertyOp8
 70
     1
102
RTVSPropertyOp9
 70
     1
102
RTVSPropertyOp10
 70
     1
102
RTVSPropertyOp11
 70
     1
102
RTVSPropertyOp12
 70
     1
102
RTVSPropertyOp13
 70
     1
102
RTVSPropertyOp14
 70
     1
102
RTVSPropertyOp15
 70
     1
102
RTVSPropertyOp16
 70
     1
102
RTVSPropertyOp17
 70
     1
102
RTVSPropertyOp18
 70
     1
102
RTVSPropertyOp19
 70
     1
102
RTVSPropertyOp20
 70
     1
102
RTVSPropertyOp21
 70
     1
102
RTVSPropertyOp22
 70
     1
102
RTVSPropertyOp23
 70
     1
102
RTVSPropertyOp24
 70
     1
102
RTVSPropertyOp25
 70
     1
102
RTVSPropertyOp26
 70
     1
102
RTVSPropertyOp27
 70
     1
102
RTVSPropertyOp28
 70
     1
102
RTVSPropertyOp29
 70
     1
102
RTVSPropertyOp30
 70
     1
102
RTVSPropertyOp31
 70
     1
102
RTVSPropertyOp32
 70
     1
102
RTVSPropertyOp33
 70
     1
102
RTVSPropertyOp34
 70
     1
102
RTVSPropertyOp35
 70
     1
102
RTVSPropertyOp36
 70
     1
102
RTVSPropertyOp37
 70
     1
102
RTVSPropertyOp38
 70
     1
102
RTVSPropertyOp39
 70
     1
102
RTVSPropertyOp40
 70
     1
102
RTVSPropertyOp41
 70
     1
102
RTVSPropertyOp42
 70
     1
102
RTVSPropertyOp43
 70
     1
102
RTVSPropertyOp44
 70
     1
102
RTVSPropertyOp45
 70
     1
102
RTVSPropertyOp46
 70
     1
102
RTVSPropertyOp47
 70
     1
102
RTVSPropertyOp48
 70
     1
102
RTVSPropertyOp49
 70
     1
102
RTVSPropertyOp50
 70
     1
102
RTVSPropertyOp51
 70
     0
102
RTVSPropertyOp52
 70
     0
102
RTVSPropertyOp53
 70
     1
102
RTVSPropertyOp54
 70
     1
102
RTVSPropertyOp55
 70
     1
102
RTVSPropertyOp56
 70
     1
102
RTVSPropertyOp57
 70
     1
102
RTVSPropertyOp58
 70
     1
102
RTVSPropertyOp59
 70
     1
102
RTVSPropertyOp60
 70
     1
102
RTVSPropertyOp61
 70
     1
102
RTVSPropertyOp62
 70
     1
  0
XRECORD
  5
FCF
102
{ACAD_REACTORS
330
FCE
102
}
330
FCE
100
AcDbXrecord
280
     1
102
RTVSPost2010Prop28
280
     0
102
RTVSPost2010PropOp28
 70
     1
102
RTVSPost2010Prop29
280
     1
102
RTVSPost2010PropOp29
 70
     1
102
RTVSPost2010Prop30
280
     1
102
RTVSPost2010PropOp30
 70
     1
102
RTVSPost2010Prop31
280
     0
102
RTVSPost2010PropOp31
 70
     1
102
RTVSPost2010Prop32
280
     0
102
RTVSPost2010PropOp32
 70
     1
102
RTVSPost2010Prop33
280
     0
102
RTVSPost2010PropOp33
 70
     1
102
RTVSPost2010Prop34
280
     0
102
RTVSPost2010PropOp34
 70
     1
102
RTVSPost2010Prop35
280
     0
102
RTVSPost2010PropOp35
 70
     1
102
RTVSPost2010Prop36
280
     0
102
RTVSPost2010PropOp36
 70
     1
102
RTVSPost2010Prop37
 90
       50
102
RTVSPost2010PropOp37
 70
     1
102
RTVSPost2010Prop38
140
0.0
102
RTVSPost2010PropOp38
 70
     1
102
RTVSPost2010Prop39
140
1.0
102
RTVSPost2010PropOp39
 70
     1
102
RTVSPost2010Prop40
 90
        0
102
RTVSPost2010PropOp40
 70
     1
102
RTVSPost2010Prop41ColorIndex
 90
       18
102
RTVSPost2010Prop41ColorRGB
 90
-16777216
102
RTVSPost2010PropOp41
 70
     1
102
RTVSPost2010Prop42
 90
       50
102
RTVSPost2010PropOp42
 70
     1
102
RTVSPost2010Prop43
 90
        3
102
RTVSPost2010PropOp43
 70
     1
102
RTVSPost2010Prop44ColorIndex
 90
        5
102
RTVSPost2010Prop44ColorRGB
 90
      255
102
RTVSPost2010PropOp44
 70
     1
102
RTVSPost2010Prop45
280
     0
102
RTVSPost2010PropOp45
 70
     1
102
RTVSPost2010Prop46
 90
       50
102
RTVSPost2010PropOp46
 70
     1
102
RTVSPost2010Prop47
 90
       50
102
RTVSPost2010PropOp47
 70
     1
102
RTVSPost2010Prop48
 90
       50
102
RTVSPost2010PropOp48
 70
     1
102
RTVSPost2010Prop49
280
     0
102
RTVSPost2010PropOp49
 70
     1
102
RTVSPost2010Prop50
 90
       50
102
RTVSPost2010PropOp50
 70
     1
102
RTVSPost2010Prop51ColorIndex
 90
      256
102
RTVSPost2010Prop51ColorRGB
 90
-16777216
102
RTVSPost2010PropOp51
 70
     0
102
RTVSPost2010Prop52
140
1.0
102
RTVSPost2010PropOp52
 70
     0
102
RTVSPost2010Prop53
 90
        2
102
RTVSPost2010PropOp53
 70
     1
102
RTVSPost2010Prop54
  1
strokes_ogs.tif
102
RTVSPost2010PropOp54
 70
     1
102
RTVSPost2010Prop55
280
     0
102
RTVSPost2010PropOp55
 70
     1
102
RTVSPost2010Prop56
140
1.0
102
RTVSPost2010PropOp56
 70
     1
102
RTVSPost2010Prop57
140
1.0
102
RTVSPost2010PropOp57
 70
     1
102
RTVSPropertyOp0
 70
     1
102
RTVSPropertyOp1
 70
     1
102
RTVSPropertyOp2
 70
     1
102
RTVSPropertyOp3
 70
     1
102
RTVSPropertyOp4
 70
     1
102
RTVSPropertyOp5
 70
     1
102
RTVSPropertyOp6
 70
     1
102
RTVSPropertyOp7
 70
     1
102
RTVSPropertyOp8
 70
     1
102
RTVSPropertyOp9
 70
     1
102
RTVSPropertyOp10
 70
     1
102
RTVSPropertyOp11
 70
     1
102
RTVSPropertyOp12
 70
     1
102
RTVSPropertyOp13
 70
     1
102
RTVSPropertyOp14
 70
     1
102
RTVSPropertyOp15
 70
     1
102
RTVSPropertyOp16
 70
     1
102
RTVSPropertyOp17
 70
     1
102
RTVSPropertyOp18
 70
     1
102
RTVSPropertyOp19
 70
     1
102
RTVSPropertyOp20
 70
     1
102
RTVSPropertyOp21
 70
     1
102
RTVSPropertyOp22
 70
     1
102
RTVSPropertyOp23
 70
     1
102
RTVSPropertyOp24
 70
     1
102
RTVSPropertyOp25
 70
     1
102
RTVSPropertyOp26
 70
     1
102
RTVSPropertyOp27
 70
     1
102
RTVSPropertyOp28
 70
     1
102
RTVSPropertyOp29
 70
     1
102
RTVSPropertyOp30
 70
     1
102
RTVSPropertyOp31
 70
     1
102
RTVSPropertyOp32
 70
     1
102
RTVSPropertyOp33
 70
     1
102
RTVSPropertyOp34
 70
     1
102
RTVSPropertyOp35
 70
     1
102
RTVSPropertyOp36
 70
     1
102
RTVSPropertyOp37
 70
     1
102
RTVSPropertyOp38
 70
     1
102
RTVSPropertyOp39
 70
     1
102
RTVSPropertyOp40
 70
     1
102
RTVSPropertyOp41
 70
     1
102
RTVSPropertyOp42
 70
     1
102
RTVSPropertyOp43
 70
     1
102
RTVSPropertyOp44
 70
     1
102
RTVSPropertyOp45
 70
     1
102
RTVSPropertyOp46
 70
     1
102
RTVSPropertyOp47
 70
     1
102
RTVSPropertyOp48
 70
     1
102
RTVSPropertyOp49
 70
     1
102
RTVSPropertyOp50
 70
     1
102
RTVSPropertyOp51
 70
     0
102
RTVSPropertyOp52
 70
     0
102
RTVSPropertyOp53
 70
     1
102
RTVSPropertyOp54
 70
     1
102
RTVSPropertyOp55
 70
     1
102
RTVSPropertyOp56
 70
     1
102
RTVSPropertyOp57
 70
     1
102
RTVSPropertyOp58
 70
     1
102
RTVSPropertyOp59
 70
     1
102
RTVSPropertyOp60
 70
     1
102
RTVSPropertyOp61
 70
     1
102
RTVSPropertyOp62
 70
     1
  0
XRECORD
  5
FD1
102
{ACAD_REACTORS
330
FD0
102
}
330
FD0
100
AcDbXrecord
280
     1
102
RTVSPost2010Prop28
280
     0
102
RTVSPost2010PropOp28
 70
     1
102
RTVSPost2010Prop29
280
     1
102
RTVSPost2010PropOp29
 70
     1
102
RTVSPost2010Prop30
280
     1
102
RTVSPost2010PropOp30
 70
     1
102
RTVSPost2010Prop31
280
     0
102
RTVSPost2010PropOp31
 70
     1
102
RTVSPost2010Prop32
280
     0
102
RTVSPost2010PropOp32
 70
     1
102
RTVSPost2010Prop33
280
     0
102
RTVSPost2010PropOp33
 70
     1
102
RTVSPost2010Prop34
280
     0
102
RTVSPost2010PropOp34
 70
     1
102
RTVSPost2010Prop35
280
     0
102
RTVSPost2010PropOp35
 70
     1
102
RTVSPost2010Prop36
280
     0
102
RTVSPost2010PropOp36
 70
     1
102
RTVSPost2010Prop37
 90
       50
102
RTVSPost2010PropOp37
 70
     1
102
RTVSPost2010Prop38
140
0.0
102
RTVSPost2010PropOp38
 70
     1
102
RTVSPost2010Prop39
140
1.0
102
RTVSPost2010PropOp39
 70
     1
102
RTVSPost2010Prop40
 90
        0
102
RTVSPost2010PropOp40
 70
     1
102
RTVSPost2010Prop41ColorIndex
 90
       18
102
RTVSPost2010Prop41ColorRGB
 90
-16777216
102
RTVSPost2010PropOp41
 70
     1
102
RTVSPost2010Prop42
 90
       50
102
RTVSPost2010PropOp42
 70
     1
102
RTVSPost2010Prop43
 90
        3
102
RTVSPost2010PropOp43
 70
     1
102
RTVSPost2010Prop44ColorIndex
 90
        5
102
RTVSPost2010Prop44ColorRGB
 90
      255
102
RTVSPost2010PropOp44
 70
     1
102
RTVSPost2010Prop45
280
     0
102
RTVSPost2010PropOp45
 70
     1
102
RTVSPost2010Prop46
 90
       50
102
RTVSPost2010PropOp46
 70
     1
102
RTVSPost2010Prop47
 90
       50
102
RTVSPost2010PropOp47
 70
     1
102
RTVSPost2010Prop48
 90
       50
102
RTVSPost2010PropOp48
 70
     1
102
RTVSPost2010Prop49
280
     0
102
RTVSPost2010PropOp49
 70
     1
102
RTVSPost2010Prop50
 90
       50
102
RTVSPost2010PropOp50
 70
     1
102
RTVSPost2010Prop51ColorIndex
 90
      256
102
RTVSPost2010Prop51ColorRGB
 90
-16777216
102
RTVSPost2010PropOp51
 70
     0
102
RTVSPost2010Prop52
140
1.0
102
RTVSPost2010PropOp52
 70
     0
102
RTVSPost2010Prop53
 90
        2
102
RTVSPost2010PropOp53
 70
     1
102
RTVSPost2010Prop54
  1
strokes_ogs.tif
102
RTVSPost2010PropOp54
 70
     1
102
RTVSPost2010Prop55
280
     0
102
RTVSPost2010PropOp55
 70
     1
102
RTVSPost2010Prop56
140
1.0
102
RTVSPost2010PropOp56
 70
     1
102
RTVSPost2010Prop57
140
1.0
102
RTVSPost2010PropOp57
 70
     1
102
RTVSPropertyOp0
 70
     1
102
RTVSPropertyOp1
 70
     1
102
RTVSPropertyOp2
 70
     1
102
RTVSPropertyOp3
 70
     1
102
RTVSPropertyOp4
 70
     1
102
RTVSPropertyOp5
 70
     1
102
RTVSPropertyOp6
 70
     1
102
RTVSPropertyOp7
 70
     1
102
RTVSPropertyOp8
 70
     1
102
RTVSPropertyOp9
 70
     1
102
RTVSPropertyOp10
 70
     1
102
RTVSPropertyOp11
 70
     1
102
RTVSPropertyOp12
 70
     1
102
RTVSPropertyOp13
 70
     1
102
RTVSPropertyOp14
 70
     1
102
RTVSPropertyOp15
 70
     1
102
RTVSPropertyOp16
 70
     1
102
RTVSPropertyOp17
 70
     1
102
RTVSPropertyOp18
 70
     1
102
RTVSPropertyOp19
 70
     1
102
RTVSPropertyOp20
 70
     1
102
RTVSPropertyOp21
 70
     1
102
RTVSPropertyOp22
 70
     1
102
RTVSPropertyOp23
 70
     1
102
RTVSPropertyOp24
 70
     1
102
RTVSPropertyOp25
 70
     1
102
RTVSPropertyOp26
 70
     1
102
RTVSPropertyOp27
 70
     1
102
RTVSPropertyOp28
 70
     1
102
RTVSPropertyOp29
 70
     1
102
RTVSPropertyOp30
 70
     1
102
RTVSPropertyOp31
 70
     1
102
RTVSPropertyOp32
 70
     1
102
RTVSPropertyOp33
 70
     1
102
RTVSPropertyOp34
 70
     1
102
RTVSPropertyOp35
 70
     1
102
RTVSPropertyOp36
 70
     1
102
RTVSPropertyOp37
 70
     1
102
RTVSPropertyOp38
 70
     1
102
RTVSPropertyOp39
 70
     1
102
RTVSPropertyOp40
 70
     1
102
RTVSPropertyOp41
 70
     1
102
RTVSPropertyOp42
 70
     1
102
RTVSPropertyOp43
 70
     1
102
RTVSPropertyOp44
 70
     1
102
RTVSPropertyOp45
 70
     1
102
RTVSPropertyOp46
 70
     1
102
RTVSPropertyOp47
 70
     1
102
RTVSPropertyOp48
 70
     1
102
RTVSPropertyOp49
 70
     1
102
RTVSPropertyOp50
 70
     1
102
RTVSPropertyOp51
 70
     0
102
RTVSPropertyOp52
 70
     0
102
RTVSPropertyOp53
 70
     1
102
RTVSPropertyOp54
 70
     1
102
RTVSPropertyOp55
 70
     1
102
RTVSPropertyOp56
 70
     1
102
RTVSPropertyOp57
 70
     1
102
RTVSPropertyOp58
 70
     1
102
RTVSPropertyOp59
 70
     1
102
RTVSPropertyOp60
 70
     1
102
RTVSPropertyOp61
 70
     1
102
RTVSPropertyOp62
 70
     1
  0
XRECORD
  5
FD3
102
{ACAD_REACTORS
330
FD2
102
}
330
FD2
100
AcDbXrecord
280
     1
102
RTVSPost2010Prop28
280
     0
102
RTVSPost2010PropOp28
 70
     1
102
RTVSPost2010Prop29
280
     1
102
RTVSPost2010PropOp29
 70
     1
102
RTVSPost2010Prop30
280
     1
102
RTVSPost2010PropOp30
 70
     1
102
RTVSPost2010Prop31
280
     0
102
RTVSPost2010PropOp31
 70
     1
102
RTVSPost2010Prop32
280
     0
102
RTVSPost2010PropOp32
 70
     1
102
RTVSPost2010Prop33
280
     0
102
RTVSPost2010PropOp33
 70
     1
102
RTVSPost2010Prop34
280
     0
102
RTVSPost2010PropOp34
 70
     1
102
RTVSPost2010Prop35
280
     0
102
RTVSPost2010PropOp35
 70
     1
102
RTVSPost2010Prop36
280
     0
102
RTVSPost2010PropOp36
 70
     1
102
RTVSPost2010Prop37
 90
       50
102
RTVSPost2010PropOp37
 70
     1
102
RTVSPost2010Prop38
140
0.0
102
RTVSPost2010PropOp38
 70
     1
102
RTVSPost2010Prop39
140
1.0
102
RTVSPost2010PropOp39
 70
     1
102
RTVSPost2010Prop40
 90
        0
102
RTVSPost2010PropOp40
 70
     1
102
RTVSPost2010Prop41ColorIndex
 90
       18
102
RTVSPost2010Prop41ColorRGB
 90
-16777216
102
RTVSPost2010PropOp41
 70
     1
102
RTVSPost2010Prop42
 90
       50
102
RTVSPost2010PropOp42
 70
     1
102
RTVSPost2010Prop43
 90
        3
102
RTVSPost2010PropOp43
 70
     1
102
RTVSPost2010Prop44ColorIndex
 90
        5
102
RTVSPost2010Prop44ColorRGB
 90
      255
102
RTVSPost2010PropOp44
 70
     1
102
RTVSPost2010Prop45
280
     0
102
RTVSPost2010PropOp45
 70
     1
102
RTVSPost2010Prop46
 90
       50
102
RTVSPost2010PropOp46
 70
     1
102
RTVSPost2010Prop47
 90
       50
102
RTVSPost2010PropOp47
 70
     1
102
RTVSPost2010Prop48
 90
       50
102
RTVSPost2010PropOp48
 70
     1
102
RTVSPost2010Prop49
280
     0
102
RTVSPost2010PropOp49
 70
     1
102
RTVSPost2010Prop50
 90
       50
102
RTVSPost2010PropOp50
 70
     1
102
RTVSPost2010Prop51ColorIndex
 90
      256
102
RTVSPost2010Prop51ColorRGB
 90
-16777216
102
RTVSPost2010PropOp51
 70
     0
102
RTVSPost2010Prop52
140
1.0
102
RTVSPost2010PropOp52
 70
     0
102
RTVSPost2010Prop53
 90
        2
102
RTVSPost2010PropOp53
 70
     1
102
RTVSPost2010Prop54
  1
strokes_ogs.tif
102
RTVSPost2010PropOp54
 70
     1
102
RTVSPost2010Prop55
280
     0
102
RTVSPost2010PropOp55
 70
     1
102
RTVSPost2010Prop56
140
1.0
102
RTVSPost2010PropOp56
 70
     1
102
RTVSPost2010Prop57
140
1.0
102
RTVSPost2010PropOp57
 70
     1
102
RTVSPropertyOp0
 70
     1
102
RTVSPropertyOp1
 70
     1
102
RTVSPropertyOp2
 70
     1
102
RTVSPropertyOp3
 70
     1
102
RTVSPropertyOp4
 70
     1
102
RTVSPropertyOp5
 70
     1
102
RTVSPropertyOp6
 70
     1
102
RTVSPropertyOp7
 70
     1
102
RTVSPropertyOp8
 70
     1
102
RTVSPropertyOp9
 70
     1
102
RTVSPropertyOp10
 70
     1
102
RTVSPropertyOp11
 70
     1
102
RTVSPropertyOp12
 70
     1
102
RTVSPropertyOp13
 70
     1
102
RTVSPropertyOp14
 70
     1
102
RTVSPropertyOp15
 70
     1
102
RTVSPropertyOp16
 70
     1
102
RTVSPropertyOp17
 70
     1
102
RTVSPropertyOp18
 70
     1
102
RTVSPropertyOp19
 70
     1
102
RTVSPropertyOp20
 70
     1
102
RTVSPropertyOp21
 70
     1
102
RTVSPropertyOp22
 70
     1
102
RTVSPropertyOp23
 70
     1
102
RTVSPropertyOp24
 70
     1
102
RTVSPropertyOp25
 70
     1
102
RTVSPropertyOp26
 70
     1
102
RTVSPropertyOp27
 70
     1
102
RTVSPropertyOp28
 70
     1
102
RTVSPropertyOp29
 70
     1
102
RTVSPropertyOp30
 70
     1
102
RTVSPropertyOp31
 70
     1
102
RTVSPropertyOp32
 70
     1
102
RTVSPropertyOp33
 70
     1
102
RTVSPropertyOp34
 70
     1
102
RTVSPropertyOp35
 70
     1
102
RTVSPropertyOp36
 70
     1
102
RTVSPropertyOp37
 70
     1
102
RTVSPropertyOp38
 70
     1
102
RTVSPropertyOp39
 70
     1
102
RTVSPropertyOp40
 70
     1
102
RTVSPropertyOp41
 70
     1
102
RTVSPropertyOp42
 70
     1
102
RTVSPropertyOp43
 70
     1
102
RTVSPropertyOp44
 70
     1
102
RTVSPropertyOp45
 70
     1
102
RTVSPropertyOp46
 70
     1
102
RTVSPropertyOp47
 70
     1
102
RTVSPropertyOp48
 70
     1
102
RTVSPropertyOp49
 70
     1
102
RTVSPropertyOp50
 70
     1
102
RTVSPropertyOp51
 70
     0
102
RTVSPropertyOp52
 70
     0
102
RTVSPropertyOp53
 70
     1
102
RTVSPropertyOp54
 70
     1
102
RTVSPropertyOp55
 70
     1
102
RTVSPropertyOp56
 70
     1
102
RTVSPropertyOp57
 70
     1
102
RTVSPropertyOp58
 70
     1
102
RTVSPropertyOp59
 70
     1
102
RTVSPropertyOp60
 70
     1
102
RTVSPropertyOp61
 70
     1
102
RTVSPropertyOp62
 70
     1
  0
XRECORD
  5
FD5
102
{ACAD_REACTORS
330
FD4
102
}
330
FD4
100
AcDbXrecord
280
     1
102
RTVSPost2010Prop28
280
     0
102
RTVSPost2010PropOp28
 70
     1
102
RTVSPost2010Prop29
280
     1
102
RTVSPost2010PropOp29
 70
     1
102
RTVSPost2010Prop30
280
     1
102
RTVSPost2010PropOp30
 70
     1
102
RTVSPost2010Prop31
280
     0
102
RTVSPost2010PropOp31
 70
     1
102
RTVSPost2010Prop32
280
     0
102
RTVSPost2010PropOp32
 70
     1
102
RTVSPost2010Prop33
280
     0
102
RTVSPost2010PropOp33
 70
     1
102
RTVSPost2010Prop34
280
     0
102
RTVSPost2010PropOp34
 70
     1
102
RTVSPost2010Prop35
280
     0
102
RTVSPost2010PropOp35
 70
     1
102
RTVSPost2010Prop36
280
     0
102
RTVSPost2010PropOp36
 70
     1
102
RTVSPost2010Prop37
 90
       50
102
RTVSPost2010PropOp37
 70
     1
102
RTVSPost2010Prop38
140
0.0
102
RTVSPost2010PropOp38
 70
     1
102
RTVSPost2010Prop39
140
1.0
102
RTVSPost2010PropOp39
 70
     1
102
RTVSPost2010Prop40
 90
        0
102
RTVSPost2010PropOp40
 70
     1
102
RTVSPost2010Prop41ColorIndex
 90
       18
102
RTVSPost2010Prop41ColorRGB
 90
-16777216
102
RTVSPost2010PropOp41
 70
     1
102
RTVSPost2010Prop42
 90
       50
102
RTVSPost2010PropOp42
 70
     1
102
RTVSPost2010Prop43
 90
        3
102
RTVSPost2010PropOp43
 70
     1
102
RTVSPost2010Prop44ColorIndex
 90
        5
102
RTVSPost2010Prop44ColorRGB
 90
      255
102
RTVSPost2010PropOp44
 70
     1
102
RTVSPost2010Prop45
280
     0
102
RTVSPost2010PropOp45
 70
     1
102
RTVSPost2010Prop46
 90
       50
102
RTVSPost2010PropOp46
 70
     1
102
RTVSPost2010Prop47
 90
       50
102
RTVSPost2010PropOp47
 70
     1
102
RTVSPost2010Prop48
 90
       50
102
RTVSPost2010PropOp48
 70
     1
102
RTVSPost2010Prop49
280
     0
102
RTVSPost2010PropOp49
 70
     1
102
RTVSPost2010Prop50
 90
       50
102
RTVSPost2010PropOp50
 70
     1
102
RTVSPost2010Prop51ColorIndex
 90
      256
102
RTVSPost2010Prop51ColorRGB
 90
-16777216
102
RTVSPost2010PropOp51
 70
     0
102
RTVSPost2010Prop52
140
1.0
102
RTVSPost2010PropOp52
 70
     0
102
RTVSPost2010Prop53
 90
        2
102
RTVSPost2010PropOp53
 70
     1
102
RTVSPost2010Prop54
  1
strokes_ogs.tif
102
RTVSPost2010PropOp54
 70
     1
102
RTVSPost2010Prop55
280
     0
102
RTVSPost2010PropOp55
 70
     1
102
RTVSPost2010Prop56
140
1.0
102
RTVSPost2010PropOp56
 70
     1
102
RTVSPost2010Prop57
140
1.0
102
RTVSPost2010PropOp57
 70
     1
102
RTVSPropertyOp0
 70
     1
102
RTVSPropertyOp1
 70
     1
102
RTVSPropertyOp2
 70
     1
102
RTVSPropertyOp3
 70
     1
102
RTVSPropertyOp4
 70
     1
102
RTVSPropertyOp5
 70
     1
102
RTVSPropertyOp6
 70
     1
102
RTVSPropertyOp7
 70
     1
102
RTVSPropertyOp8
 70
     1
102
RTVSPropertyOp9
 70
     1
102
RTVSPropertyOp10
 70
     1
102
RTVSPropertyOp11
 70
     1
102
RTVSPropertyOp12
 70
     1
102
RTVSPropertyOp13
 70
     1
102
RTVSPropertyOp14
 70
     1
102
RTVSPropertyOp15
 70
     1
102
RTVSPropertyOp16
 70
     1
102
RTVSPropertyOp17
 70
     1
102
RTVSPropertyOp18
 70
     1
102
RTVSPropertyOp19
 70
     1
102
RTVSPropertyOp20
 70
     1
102
RTVSPropertyOp21
 70
     1
102
RTVSPropertyOp22
 70
     1
102
RTVSPropertyOp23
 70
     1
102
RTVSPropertyOp24
 70
     1
102
RTVSPropertyOp25
 70
     1
102
RTVSPropertyOp26
 70
     1
102
RTVSPropertyOp27
 70
     1
102
RTVSPropertyOp28
 70
     1
102
RTVSPropertyOp29
 70
     1
102
RTVSPropertyOp30
 70
     1
102
RTVSPropertyOp31
 70
     1
102
RTVSPropertyOp32
 70
     1
102
RTVSPropertyOp33
 70
     1
102
RTVSPropertyOp34
 70
     1
102
RTVSPropertyOp35
 70
     1
102
RTVSPropertyOp36
 70
     1
102
RTVSPropertyOp37
 70
     1
102
RTVSPropertyOp38
 70
     1
102
RTVSPropertyOp39
 70
     1
102
RTVSPropertyOp40
 70
     1
102
RTVSPropertyOp41
 70
     1
102
RTVSPropertyOp42
 70
     1
102
RTVSPropertyOp43
 70
     1
102
RTVSPropertyOp44
 70
     1
102
RTVSPropertyOp45
 70
     1
102
RTVSPropertyOp46
 70
     1
102
RTVSPropertyOp47
 70
     1
102
RTVSPropertyOp48
 70
     1
102
RTVSPropertyOp49
 70
     1
102
RTVSPropertyOp50
 70
     1
102
RTVSPropertyOp51
 70
     0
102
RTVSPropertyOp52
 70
     0
102
RTVSPropertyOp53
 70
     1
102
RTVSPropertyOp54
 70
     1
102
RTVSPropertyOp55
 70
     1
102
RTVSPropertyOp56
 70
     1
102
RTVSPropertyOp57
 70
     1
102
RTVSPropertyOp58
 70
     1
102
RTVSPropertyOp59
 70
     1
102
RTVSPropertyOp60
 70
     1
102
RTVSPropertyOp61
 70
     1
102
RTVSPropertyOp62
 70
     1
  0
XRECORD
  5
FDD
102
{ACAD_REACTORS
330
FDC
102
}
330
FDC
100
AcDbXrecord
280
     1
102
RTVSPost2010Prop28
280
     0
102
RTVSPost2010PropOp28
 70
     1
102
RTVSPost2010Prop29
280
     1
102
RTVSPost2010PropOp29
 70
     1
102
RTVSPost2010Prop30
280
     1
102
RTVSPost2010PropOp30
 70
     1
102
RTVSPost2010Prop31
280
     0
102
RTVSPost2010PropOp31
 70
     1
102
RTVSPost2010Prop32
280
     0
102
RTVSPost2010PropOp32
 70
     1
102
RTVSPost2010Prop33
280
     0
102
RTVSPost2010PropOp33
 70
     1
102
RTVSPost2010Prop34
280
     0
102
RTVSPost2010PropOp34
 70
     1
102
RTVSPost2010Prop35
280
     0
102
RTVSPost2010PropOp35
 70
     1
102
RTVSPost2010Prop36
280
     0
102
RTVSPost2010PropOp36
 70
     1
102
RTVSPost2010Prop37
 90
       50
102
RTVSPost2010PropOp37
 70
     1
102
RTVSPost2010Prop38
140
0.0
102
RTVSPost2010PropOp38
 70
     1
102
RTVSPost2010Prop39
140
1.0
102
RTVSPost2010PropOp39
 70
     1
102
RTVSPost2010Prop40
 90
        0
102
RTVSPost2010PropOp40
 70
     1
102
RTVSPost2010Prop41ColorIndex
 90
       18
102
RTVSPost2010Prop41ColorRGB
 90
-16777216
102
RTVSPost2010PropOp41
 70
     1
102
RTVSPost2010Prop42
 90
       50
102
RTVSPost2010PropOp42
 70
     1
102
RTVSPost2010Prop43
 90
        3
102
RTVSPost2010PropOp43
 70
     1
102
RTVSPost2010Prop44ColorIndex
 90
        5
102
RTVSPost2010Prop44ColorRGB
 90
      255
102
RTVSPost2010PropOp44
 70
     1
102
RTVSPost2010Prop45
280
     0
102
RTVSPost2010PropOp45
 70
     1
102
RTVSPost2010Prop46
 90
       50
102
RTVSPost2010PropOp46
 70
     1
102
RTVSPost2010Prop47
 90
       50
102
RTVSPost2010PropOp47
 70
     1
102
RTVSPost2010Prop48
 90
       50
102
RTVSPost2010PropOp48
 70
     1
102
RTVSPost2010Prop49
280
     0
102
RTVSPost2010PropOp49
 70
     1
102
RTVSPost2010Prop50
 90
       50
102
RTVSPost2010PropOp50
 70
     1
102
RTVSPost2010Prop51ColorIndex
 90
      256
102
RTVSPost2010Prop51ColorRGB
 90
-16777216
102
RTVSPost2010PropOp51
 70
     0
102
RTVSPost2010Prop52
140
1.0
102
RTVSPost2010PropOp52
 70
     0
102
RTVSPost2010Prop53
 90
        2
102
RTVSPost2010PropOp53
 70
     1
102
RTVSPost2010Prop54
  1
strokes_ogs.tif
102
RTVSPost2010PropOp54
 70
     1
102
RTVSPost2010Prop55
280
     0
102
RTVSPost2010PropOp55
 70
     1
102
RTVSPost2010Prop56
140
1.0
102
RTVSPost2010PropOp56
 70
     1
102
RTVSPost2010Prop57
140
1.0
102
RTVSPost2010PropOp57
 70
     1
102
RTVSPropertyOp0
 70
     1
102
RTVSPropertyOp1
 70
     1
102
RTVSPropertyOp2
 70
     1
102
RTVSPropertyOp3
 70
     1
102
RTVSPropertyOp4
 70
     1
102
RTVSPropertyOp5
 70
     1
102
RTVSPropertyOp6
 70
     1
102
RTVSPropertyOp7
 70
     1
102
RTVSPropertyOp8
 70
     1
102
RTVSPropertyOp9
 70
     1
102
RTVSPropertyOp10
 70
     1
102
RTVSPropertyOp11
 70
     1
102
RTVSPropertyOp12
 70
     1
102
RTVSPropertyOp13
 70
     1
102
RTVSPropertyOp14
 70
     1
102
RTVSPropertyOp15
 70
     1
102
RTVSPropertyOp16
 70
     1
102
RTVSPropertyOp17
 70
     1
102
RTVSPropertyOp18
 70
     1
102
RTVSPropertyOp19
 70
     1
102
RTVSPropertyOp20
 70
     1
102
RTVSPropertyOp21
 70
     1
102
RTVSPropertyOp22
 70
     1
102
RTVSPropertyOp23
 70
     1
102
RTVSPropertyOp24
 70
     1
102
RTVSPropertyOp25
 70
     1
102
RTVSPropertyOp26
 70
     1
102
RTVSPropertyOp27
 70
     1
102
RTVSPropertyOp28
 70
     1
102
RTVSPropertyOp29
 70
     1
102
RTVSPropertyOp30
 70
     1
102
RTVSPropertyOp31
 70
     1
102
RTVSPropertyOp32
 70
     1
102
RTVSPropertyOp33
 70
     1
102
RTVSPropertyOp34
 70
     1
102
RTVSPropertyOp35
 70
     1
102
RTVSPropertyOp36
 70
     1
102
RTVSPropertyOp37
 70
     1
102
RTVSPropertyOp38
 70
     1
102
RTVSPropertyOp39
 70
     1
102
RTVSPropertyOp40
 70
     1
102
RTVSPropertyOp41
 70
     1
102
RTVSPropertyOp42
 70
     1
102
RTVSPropertyOp43
 70
     1
102
RTVSPropertyOp44
 70
     1
102
RTVSPropertyOp45
 70
     1
102
RTVSPropertyOp46
 70
     1
102
RTVSPropertyOp47
 70
     1
102
RTVSPropertyOp48
 70
     1
102
RTVSPropertyOp49
 70
     1
102
RTVSPropertyOp50
 70
     1
102
RTVSPropertyOp51
 70
     0
102
RTVSPropertyOp52
 70
     0
102
RTVSPropertyOp53
 70
     1
102
RTVSPropertyOp54
 70
     1
102
RTVSPropertyOp55
 70
     1
102
RTVSPropertyOp56
 70
     1
102
RTVSPropertyOp57
 70
     1
102
RTVSPropertyOp58
 70
     1
102
RTVSPropertyOp59
 70
     1
102
RTVSPropertyOp60
 70
     1
102
RTVSPropertyOp61
 70
     1
102
RTVSPropertyOp62
 70
     1
  0
XRECORD
  5
FF9
102
{ACAD_REACTORS
330
FF8
102
}
330
FF8
100
AcDbXrecord
280
     1
102
RTVSPost2010Prop28
280
     0
102
RTVSPost2010PropOp28
 70
     0
102
RTVSPost2010Prop29
280
     1
102
RTVSPost2010PropOp29
 70
     0
102
RTVSPost2010Prop30
280
     1
102
RTVSPost2010PropOp30
 70
     0
102
RTVSPost2010Prop31
280
     0
102
RTVSPost2010PropOp31
 70
     0
102
RTVSPost2010Prop32
280
     0
102
RTVSPost2010PropOp32
 70
     0
102
RTVSPost2010Prop33
280
     0
102
RTVSPost2010PropOp33
 70
     0
102
RTVSPost2010Prop34
280
     0
102
RTVSPost2010PropOp34
 70
     0
102
RTVSPost2010Prop35
280
     0
102
RTVSPost2010PropOp35
 70
     0
102
RTVSPost2010Prop36
280
     0
102
RTVSPost2010PropOp36
 70
     0
102
RTVSPost2010Prop37
 90
       50
102
RTVSPost2010PropOp37
 70
     0
102
RTVSPost2010Prop38
140
0.0
102
RTVSPost2010PropOp38
 70
     0
102
RTVSPost2010Prop39
140
1.0
102
RTVSPost2010PropOp39
 70
     0
102
RTVSPost2010Prop40
 90
        0
102
RTVSPost2010PropOp40
 70
     0
102
RTVSPost2010Prop41ColorIndex
 90
       18
102
RTVSPost2010Prop41ColorRGB
 90
-16777216
102
RTVSPost2010PropOp41
 70
     0
102
RTVSPost2010Prop42
 90
       50
102
RTVSPost2010PropOp42
 70
     0
102
RTVSPost2010Prop43
 90
        3
102
RTVSPost2010PropOp43
 70
     0
102
RTVSPost2010Prop44ColorIndex
 90
        5
102
RTVSPost2010Prop44ColorRGB
 90
      255
102
RTVSPost2010PropOp44
 70
     0
102
RTVSPost2010Prop45
280
     0
102
RTVSPost2010PropOp45
 70
     0
102
RTVSPost2010Prop46
 90
       50
102
RTVSPost2010PropOp46
 70
     0
102
RTVSPost2010Prop47
 90
       50
102
RTVSPost2010PropOp47
 70
     0
102
RTVSPost2010Prop48
 90
       50
102
RTVSPost2010PropOp48
 70
     0
102
RTVSPost2010Prop49
280
     0
102
RTVSPost2010PropOp49
 70
     0
102
RTVSPost2010Prop50
 90
       50
102
RTVSPost2010PropOp50
 70
     0
102
RTVSPost2010Prop51ColorIndex
 90
      256
102
RTVSPost2010Prop51ColorRGB
 90
-16777216
102
RTVSPost2010PropOp51
 70
     0
102
RTVSPost2010Prop52
140
1.0
102
RTVSPost2010PropOp52
 70
     0
102
RTVSPost2010Prop53
 90
        2
102
RTVSPost2010PropOp53
 70
     0
102
RTVSPost2010Prop54
  1
strokes_ogs.tif
102
RTVSPost2010PropOp54
 70
     0
102
RTVSPost2010Prop55
280
     0
102
RTVSPost2010PropOp55
 70
     0
102
RTVSPost2010Prop56
140
1.0
102
RTVSPost2010PropOp56
 70
     0
102
RTVSPost2010Prop57
140
1.0
102
RTVSPost2010PropOp57
 70
     0
102
RTVSPropertyOp0
 70
     0
102
RTVSPropertyOp1
 70
     0
102
RTVSPropertyOp2
 70
     0
102
RTVSPropertyOp3
 70
     0
102
RTVSPropertyOp4
 70
     0
102
RTVSPropertyOp5
 70
     0
102
RTVSPropertyOp6
 70
     0
102
RTVSPropertyOp7
 70
     0
102
RTVSPropertyOp8
 70
     0
102
RTVSPropertyOp9
 70
     0
102
RTVSPropertyOp10
 70
     0
102
RTVSPropertyOp11
 70
     0
102
RTVSPropertyOp12
 70
     0
102
RTVSPropertyOp13
 70
     0
102
RTVSPropertyOp14
 70
     2
102
RTVSPropertyOp15
 70
     0
102
RTVSPropertyOp16
 70
     0
102
RTVSPropertyOp17
 70
     0
102
RTVSPropertyOp18
 70
     0
102
RTVSPropertyOp19
 70
     0
102
RTVSPropertyOp20
 70
     0
102
RTVSPropertyOp21
 70
     0
102
RTVSPropertyOp22
 70
     0
102
RTVSPropertyOp23
 70
     0
102
RTVSPropertyOp24
 70
     0
102
RTVSPropertyOp25
 70
     0
102
RTVSPropertyOp26
 70
     0
102
RTVSPropertyOp27
 70
     0
102
RTVSPropertyOp28
 70
     0
102
RTVSPropertyOp29
 70
     0
102
RTVSPropertyOp30
 70
     0
102
RTVSPropertyOp31
 70
     0
102
RTVSPropertyOp32
 70
     0
102
RTVSPropertyOp33
 70
     0
102
RTVSPropertyOp34
 70
     0
102
RTVSPropertyOp35
 70
     0
102
RTVSPropertyOp36
 70
     0
102
RTVSPropertyOp37
 70
     0
102
RTVSPropertyOp38
 70
     0
102
RTVSPropertyOp39
 70
     0
102
RTVSPropertyOp40
 70
     0
102
RTVSPropertyOp41
 70
     0
102
RTVSPropertyOp42
 70
     0
102
RTVSPropertyOp43
 70
     0
102
RTVSPropertyOp44
 70
     0
102
RTVSPropertyOp45
 70
     0
102
RTVSPropertyOp46
 70
     0
102
RTVSPropertyOp47
 70
     0
102
RTVSPropertyOp48
 70
     0
102
RTVSPropertyOp49
 70
     0
102
RTVSPropertyOp50
 70
     0
102
RTVSPropertyOp51
 70
     0
102
RTVSPropertyOp52
 70
     0
102
RTVSPropertyOp53
 70
     0
102
RTVSPropertyOp54
 70
     0
102
RTVSPropertyOp55
 70
     0
102
RTVSPropertyOp56
 70
     0
102
RTVSPropertyOp57
 70
     0
102
RTVSPropertyOp58
 70
     1
102
RTVSPropertyOp59
 70
     1
102
RTVSPropertyOp60
 70
     1
102
RTVSPropertyOp61
 70
     1
102
RTVSPropertyOp62
 70
     1
  0
XRECORD
  5
FE9
102
{ACAD_REACTORS
330
FE8
102
}
330
FE8
100
AcDbXrecord
280
     1
102
RTVSPost2010Prop28
280
     0
102
RTVSPost2010PropOp28
 70
     1
102
RTVSPost2010Prop29
280
     1
102
RTVSPost2010PropOp29
 70
     1
102
RTVSPost2010Prop30
280
     1
102
RTVSPost2010PropOp30
 70
     1
102
RTVSPost2010Prop31
280
     0
102
RTVSPost2010PropOp31
 70
     1
102
RTVSPost2010Prop32
280
     0
102
RTVSPost2010PropOp32
 70
     1
102
RTVSPost2010Prop33
280
     0
102
RTVSPost2010PropOp33
 70
     1
102
RTVSPost2010Prop34
280
     0
102
RTVSPost2010PropOp34
 70
     1
102
RTVSPost2010Prop35
280
     0
102
RTVSPost2010PropOp35
 70
     1
102
RTVSPost2010Prop36
280
     0
102
RTVSPost2010PropOp36
 70
     1
102
RTVSPost2010Prop37
 90
       50
102
RTVSPost2010PropOp37
 70
     1
102
RTVSPost2010Prop38
140
0.0
102
RTVSPost2010PropOp38
 70
     1
102
RTVSPost2010Prop39
140
1.0
102
RTVSPost2010PropOp39
 70
     1
102
RTVSPost2010Prop40
 90
        0
102
RTVSPost2010PropOp40
 70
     1
102
RTVSPost2010Prop41ColorIndex
 90
       18
102
RTVSPost2010Prop41ColorRGB
 90
-16777216
102
RTVSPost2010PropOp41
 70
     1
102
RTVSPost2010Prop42
 90
       50
102
RTVSPost2010PropOp42
 70
     1
102
RTVSPost2010Prop43
 90
        3
102
RTVSPost2010PropOp43
 70
     1
102
RTVSPost2010Prop44ColorIndex
 90
        5
102
RTVSPost2010Prop44ColorRGB
 90
      255
102
RTVSPost2010PropOp44
 70
     1
102
RTVSPost2010Prop45
280
     0
102
RTVSPost2010PropOp45
 70
     1
102
RTVSPost2010Prop46
 90
       50
102
RTVSPost2010PropOp46
 70
     1
102
RTVSPost2010Prop47
 90
       50
102
RTVSPost2010PropOp47
 70
     1
102
RTVSPost2010Prop48
 90
       50
102
RTVSPost2010PropOp48
 70
     1
102
RTVSPost2010Prop49
280
     0
102
RTVSPost2010PropOp49
 70
     1
102
RTVSPost2010Prop50
 90
       50
102
RTVSPost2010PropOp50
 70
     1
102
RTVSPost2010Prop51ColorIndex
 90
      256
102
RTVSPost2010Prop51ColorRGB
 90
-16777216
102
RTVSPost2010PropOp51
 70
     0
102
RTVSPost2010Prop52
140
1.0
102
RTVSPost2010PropOp52
 70
     0
102
RTVSPost2010Prop53
 90
        2
102
RTVSPost2010PropOp53
 70
     1
102
RTVSPost2010Prop54
  1
strokes_ogs.tif
102
RTVSPost2010PropOp54
 70
     1
102
RTVSPost2010Prop55
280
     0
102
RTVSPost2010PropOp55
 70
     1
102
RTVSPost2010Prop56
140
1.0
102
RTVSPost2010PropOp56
 70
     1
102
RTVSPost2010Prop57
140
1.0
102
RTVSPost2010PropOp57
 70
     1
102
RTVSPropertyOp0
 70
     1
102
RTVSPropertyOp1
 70
     1
102
RTVSPropertyOp2
 70
     1
102
RTVSPropertyOp3
 70
     1
102
RTVSPropertyOp4
 70
     1
102
RTVSPropertyOp5
 70
     1
102
RTVSPropertyOp6
 70
     1
102
RTVSPropertyOp7
 70
     1
102
RTVSPropertyOp8
 70
     1
102
RTVSPropertyOp9
 70
     1
102
RTVSPropertyOp10
 70
     1
102
RTVSPropertyOp11
 70
     1
102
RTVSPropertyOp12
 70
     1
102
RTVSPropertyOp13
 70
     1
102
RTVSPropertyOp14
 70
     1
102
RTVSPropertyOp15
 70
     1
102
RTVSPropertyOp16
 70
     1
102
RTVSPropertyOp17
 70
     1
102
RTVSPropertyOp18
 70
     1
102
RTVSPropertyOp19
 70
     1
102
RTVSPropertyOp20
 70
     1
102
RTVSPropertyOp21
 70
     1
102
RTVSPropertyOp22
 70
     1
102
RTVSPropertyOp23
 70
     1
102
RTVSPropertyOp24
 70
     1
102
RTVSPropertyOp25
 70
     1
102
RTVSPropertyOp26
 70
     1
102
RTVSPropertyOp27
 70
     1
102
RTVSPropertyOp28
 70
     1
102
RTVSPropertyOp29
 70
     1
102
RTVSPropertyOp30
 70
     1
102
RTVSPropertyOp31
 70
     1
102
RTVSPropertyOp32
 70
     1
102
RTVSPropertyOp33
 70
     1
102
RTVSPropertyOp34
 70
     1
102
RTVSPropertyOp35
 70
     1
102
RTVSPropertyOp36
 70
     1
102
RTVSPropertyOp37
 70
     1
102
RTVSPropertyOp38
 70
     1
102
RTVSPropertyOp39
 70
     1
102
RTVSPropertyOp40
 70
     1
102
RTVSPropertyOp41
 70
     1
102
RTVSPropertyOp42
 70
     1
102
RTVSPropertyOp43
 70
     1
102
RTVSPropertyOp44
 70
     1
102
RTVSPropertyOp45
 70
     1
102
RTVSPropertyOp46
 70
     1
102
RTVSPropertyOp47
 70
     1
102
RTVSPropertyOp48
 70
     1
102
RTVSPropertyOp49
 70
     1
102
RTVSPropertyOp50
 70
     1
102
RTVSPropertyOp51
 70
     0
102
RTVSPropertyOp52
 70
     0
102
RTVSPropertyOp53
 70
     1
102
RTVSPropertyOp54
 70
     1
102
RTVSPropertyOp55
 70
     1
102
RTVSPropertyOp56
 70
     1
102
RTVSPropertyOp57
 70
     1
102
RTVSPropertyOp58
 70
     1
102
RTVSPropertyOp59
 70
     1
102
RTVSPropertyOp60
 70
     1
102
RTVSPropertyOp61
 70
     1
102
RTVSPropertyOp62
 70
     1
  0
XRECORD
  5
FFB
102
{ACAD_REACTORS
330
FFA
102
}
330
FFA
100
AcDbXrecord
280
     1
102
RTVSPost2010Prop28
280
     0
102
RTVSPost2010PropOp28
 70
     0
102
RTVSPost2010Prop29
280
     1
102
RTVSPost2010PropOp29
 70
     0
102
RTVSPost2010Prop30
280
     1
102
RTVSPost2010PropOp30
 70
     0
102
RTVSPost2010Prop31
280
     0
102
RTVSPost2010PropOp31
 70
     0
102
RTVSPost2010Prop32
280
     0
102
RTVSPost2010PropOp32
 70
     0
102
RTVSPost2010Prop33
280
     0
102
RTVSPost2010PropOp33
 70
     0
102
RTVSPost2010Prop34
280
     0
102
RTVSPost2010PropOp34
 70
     0
102
RTVSPost2010Prop35
280
     0
102
RTVSPost2010PropOp35
 70
     0
102
RTVSPost2010Prop36
280
     0
102
RTVSPost2010PropOp36
 70
     0
102
RTVSPost2010Prop37
 90
       50
102
RTVSPost2010PropOp37
 70
     0
102
RTVSPost2010Prop38
140
0.0
102
RTVSPost2010PropOp38
 70
     0
102
RTVSPost2010Prop39
140
1.0
102
RTVSPost2010PropOp39
 70
     0
102
RTVSPost2010Prop40
 90
        0
102
RTVSPost2010PropOp40
 70
     0
102
RTVSPost2010Prop41ColorIndex
 90
       18
102
RTVSPost2010Prop41ColorRGB
 90
-16777216
102
RTVSPost2010PropOp41
 70
     0
102
RTVSPost2010Prop42
 90
       50
102
RTVSPost2010PropOp42
 70
     0
102
RTVSPost2010Prop43
 90
        3
102
RTVSPost2010PropOp43
 70
     0
102
RTVSPost2010Prop44ColorIndex
 90
        5
102
RTVSPost2010Prop44ColorRGB
 90
      255
102
RTVSPost2010PropOp44
 70
     0
102
RTVSPost2010Prop45
280
     0
102
RTVSPost2010PropOp45
 70
     0
102
RTVSPost2010Prop46
 90
       50
102
RTVSPost2010PropOp46
 70
     0
102
RTVSPost2010Prop47
 90
       50
102
RTVSPost2010PropOp47
 70
     0
102
RTVSPost2010Prop48
 90
       50
102
RTVSPost2010PropOp48
 70
     0
102
RTVSPost2010Prop49
280
     0
102
RTVSPost2010PropOp49
 70
     0
102
RTVSPost2010Prop50
 90
       50
102
RTVSPost2010PropOp50
 70
     0
102
RTVSPost2010Prop51ColorIndex
 90
      256
102
RTVSPost2010Prop51ColorRGB
 90
-16777216
102
RTVSPost2010PropOp51
 70
     0
102
RTVSPost2010Prop52
140
1.0
102
RTVSPost2010PropOp52
 70
     0
102
RTVSPost2010Prop53
 90
        2
102
RTVSPost2010PropOp53
 70
     0
102
RTVSPost2010Prop54
  1
strokes_ogs.tif
102
RTVSPost2010PropOp54
 70
     0
102
RTVSPost2010Prop55
280
     0
102
RTVSPost2010PropOp55
 70
     0
102
RTVSPost2010Prop56
140
1.0
102
RTVSPost2010PropOp56
 70
     0
102
RTVSPost2010Prop57
140
1.0
102
RTVSPost2010PropOp57
 70
     0
102
RTVSPropertyOp0
 70
     0
102
RTVSPropertyOp1
 70
     0
102
RTVSPropertyOp2
 70
     0
102
RTVSPropertyOp3
 70
     0
102
RTVSPropertyOp4
 70
     0
102
RTVSPropertyOp5
 70
     0
102
RTVSPropertyOp6
 70
     0
102
RTVSPropertyOp7
 70
     0
102
RTVSPropertyOp8
 70
     0
102
RTVSPropertyOp9
 70
     0
102
RTVSPropertyOp10
 70
     0
102
RTVSPropertyOp11
 70
     0
102
RTVSPropertyOp12
 70
     0
102
RTVSPropertyOp13
 70
     0
102
RTVSPropertyOp14
 70
     2
102
RTVSPropertyOp15
 70
     0
102
RTVSPropertyOp16
 70
     0
102
RTVSPropertyOp17
 70
     0
102
RTVSPropertyOp18
 70
     0
102
RTVSPropertyOp19
 70
     0
102
RTVSPropertyOp20
 70
     0
102
RTVSPropertyOp21
 70
     0
102
RTVSPropertyOp22
 70
     0
102
RTVSPropertyOp23
 70
     0
102
RTVSPropertyOp24
 70
     0
102
RTVSPropertyOp25
 70
     0
102
RTVSPropertyOp26
 70
     0
102
RTVSPropertyOp27
 70
     0
102
RTVSPropertyOp28
 70
     0
102
RTVSPropertyOp29
 70
     0
102
RTVSPropertyOp30
 70
     0
102
RTVSPropertyOp31
 70
     0
102
RTVSPropertyOp32
 70
     0
102
RTVSPropertyOp33
 70
     0
102
RTVSPropertyOp34
 70
     0
102
RTVSPropertyOp35
 70
     0
102
RTVSPropertyOp36
 70
     0
102
RTVSPropertyOp37
 70
     0
102
RTVSPropertyOp38
 70
     0
102
RTVSPropertyOp39
 70
     0
102
RTVSPropertyOp40
 70
     0
102
RTVSPropertyOp41
 70
     0
102
RTVSPropertyOp42
 70
     0
102
RTVSPropertyOp43
 70
     0
102
RTVSPropertyOp44
 70
     0
102
RTVSPropertyOp45
 70
     0
102
RTVSPropertyOp46
 70
     0
102
RTVSPropertyOp47
 70
     0
102
RTVSPropertyOp48
 70
     0
102
RTVSPropertyOp49
 70
     0
102
RTVSPropertyOp50
 70
     0
102
RTVSPropertyOp51
 70
     0
102
RTVSPropertyOp52
 70
     0
102
RTVSPropertyOp53
 70
     0
102
RTVSPropertyOp54
 70
     0
102
RTVSPropertyOp55
 70
     0
102
RTVSPropertyOp56
 70
     0
102
RTVSPropertyOp57
 70
     0
102
RTVSPropertyOp58
 70
     1
102
RTVSPropertyOp59
 70
     1
102
RTVSPropertyOp60
 70
     1
102
RTVSPropertyOp61
 70
     1
102
RTVSPropertyOp62
 70
     1
  0
XRECORD
  5
FE1
102
{ACAD_REACTORS
330
FE0
102
}
330
FE0
100
AcDbXrecord
280
     1
102
RTVSPost2010Prop28
280
     0
102
RTVSPost2010PropOp28
 70
     1
102
RTVSPost2010Prop29
280
     1
102
RTVSPost2010PropOp29
 70
     1
102
RTVSPost2010Prop30
280
     1
102
RTVSPost2010PropOp30
 70
     1
102
RTVSPost2010Prop31
280
     0
102
RTVSPost2010PropOp31
 70
     1
102
RTVSPost2010Prop32
280
     0
102
RTVSPost2010PropOp32
 70
     1
102
RTVSPost2010Prop33
280
     0
102
RTVSPost2010PropOp33
 70
     1
102
RTVSPost2010Prop34
280
     0
102
RTVSPost2010PropOp34
 70
     1
102
RTVSPost2010Prop35
280
     0
102
RTVSPost2010PropOp35
 70
     1
102
RTVSPost2010Prop36
280
     0
102
RTVSPost2010PropOp36
 70
     1
102
RTVSPost2010Prop37
 90
       50
102
RTVSPost2010PropOp37
 70
     1
102
RTVSPost2010Prop38
140
0.0
102
RTVSPost2010PropOp38
 70
     1
102
RTVSPost2010Prop39
140
1.0
102
RTVSPost2010PropOp39
 70
     1
102
RTVSPost2010Prop40
 90
        0
102
RTVSPost2010PropOp40
 70
     1
102
RTVSPost2010Prop41ColorIndex
 90
       18
102
RTVSPost2010Prop41ColorRGB
 90
-16777216
102
RTVSPost2010PropOp41
 70
     1
102
RTVSPost2010Prop42
 90
       50
102
RTVSPost2010PropOp42
 70
     1
102
RTVSPost2010Prop43
 90
        3
102
RTVSPost2010PropOp43
 70
     1
102
RTVSPost2010Prop44ColorIndex
 90
        5
102
RTVSPost2010Prop44ColorRGB
 90
      255
102
RTVSPost2010PropOp44
 70
     1
102
RTVSPost2010Prop45
280
     0
102
RTVSPost2010PropOp45
 70
     1
102
RTVSPost2010Prop46
 90
       50
102
RTVSPost2010PropOp46
 70
     1
102
RTVSPost2010Prop47
 90
       50
102
RTVSPost2010PropOp47
 70
     1
102
RTVSPost2010Prop48
 90
       50
102
RTVSPost2010PropOp48
 70
     1
102
RTVSPost2010Prop49
280
     0
102
RTVSPost2010PropOp49
 70
     1
102
RTVSPost2010Prop50
 90
       50
102
RTVSPost2010PropOp50
 70
     1
102
RTVSPost2010Prop51ColorIndex
 90
      256
102
RTVSPost2010Prop51ColorRGB
 90
-16777216
102
RTVSPost2010PropOp51
 70
     0
102
RTVSPost2010Prop52
140
1.0
102
RTVSPost2010PropOp52
 70
     0
102
RTVSPost2010Prop53
 90
        2
102
RTVSPost2010PropOp53
 70
     1
102
RTVSPost2010Prop54
  1
strokes_ogs.tif
102
RTVSPost2010PropOp54
 70
     1
102
RTVSPost2010Prop55
280
     0
102
RTVSPost2010PropOp55
 70
     1
102
RTVSPost2010Prop56
140
1.0
102
RTVSPost2010PropOp56
 70
     1
102
RTVSPost2010Prop57
140
1.0
102
RTVSPost2010PropOp57
 70
     1
102
RTVSPropertyOp0
 70
     1
102
RTVSPropertyOp1
 70
     1
102
RTVSPropertyOp2
 70
     1
102
RTVSPropertyOp3
 70
     1
102
RTVSPropertyOp4
 70
     1
102
RTVSPropertyOp5
 70
     1
102
RTVSPropertyOp6
 70
     1
102
RTVSPropertyOp7
 70
     1
102
RTVSPropertyOp8
 70
     1
102
RTVSPropertyOp9
 70
     1
102
RTVSPropertyOp10
 70
     1
102
RTVSPropertyOp11
 70
     1
102
RTVSPropertyOp12
 70
     1
102
RTVSPropertyOp13
 70
     1
102
RTVSPropertyOp14
 70
     1
102
RTVSPropertyOp15
 70
     1
102
RTVSPropertyOp16
 70
     1
102
RTVSPropertyOp17
 70
     1
102
RTVSPropertyOp18
 70
     1
102
RTVSPropertyOp19
 70
     1
102
RTVSPropertyOp20
 70
     1
102
RTVSPropertyOp21
 70
     1
102
RTVSPropertyOp22
 70
     1
102
RTVSPropertyOp23
 70
     1
102
RTVSPropertyOp24
 70
     1
102
RTVSPropertyOp25
 70
     1
102
RTVSPropertyOp26
 70
     1
102
RTVSPropertyOp27
 70
     1
102
RTVSPropertyOp28
 70
     1
102
RTVSPropertyOp29
 70
     1
102
RTVSPropertyOp30
 70
     1
102
RTVSPropertyOp31
 70
     1
102
RTVSPropertyOp32
 70
     1
102
RTVSPropertyOp33
 70
     1
102
RTVSPropertyOp34
 70
     1
102
RTVSPropertyOp35
 70
     1
102
RTVSPropertyOp36
 70
     1
102
RTVSPropertyOp37
 70
     1
102
RTVSPropertyOp38
 70
     1
102
RTVSPropertyOp39
 70
     1
102
RTVSPropertyOp40
 70
     1
102
RTVSPropertyOp41
 70
     1
102
RTVSPropertyOp42
 70
     1
102
RTVSPropertyOp43
 70
     1
102
RTVSPropertyOp44
 70
     1
102
RTVSPropertyOp45
 70
     1
102
RTVSPropertyOp46
 70
     1
102
RTVSPropertyOp47
 70
     1
102
RTVSPropertyOp48
 70
     1
102
RTVSPropertyOp49
 70
     1
102
RTVSPropertyOp50
 70
     1
102
RTVSPropertyOp51
 70
     0
102
RTVSPropertyOp52
 70
     0
102
RTVSPropertyOp53
 70
     1
102
RTVSPropertyOp54
 70
     1
102
RTVSPropertyOp55
 70
     1
102
RTVSPropertyOp56
 70
     1
102
RTVSPropertyOp57
 70
     1
102
RTVSPropertyOp58
 70
     1
102
RTVSPropertyOp59
 70
     1
102
RTVSPropertyOp60
 70
     1
102
RTVSPropertyOp61
 70
     1
102
RTVSPropertyOp62
 70
     1
  0
XRECORD
  5
FF7
102
{ACAD_REACTORS
330
FF6
102
}
330
FF6
100
AcDbXrecord
280
     1
102
RTVSPost2010Prop28
280
     0
102
RTVSPost2010PropOp28
 70
     1
102
RTVSPost2010Prop29
280
     1
102
RTVSPost2010PropOp29
 70
     1
102
RTVSPost2010Prop30
280
     1
102
RTVSPost2010PropOp30
 70
     1
102
RTVSPost2010Prop31
280
     0
102
RTVSPost2010PropOp31
 70
     1
102
RTVSPost2010Prop32
280
     0
102
RTVSPost2010PropOp32
 70
     1
102
RTVSPost2010Prop33
280
     0
102
RTVSPost2010PropOp33
 70
     1
102
RTVSPost2010Prop34
280
     0
102
RTVSPost2010PropOp34
 70
     1
102
RTVSPost2010Prop35
280
     0
102
RTVSPost2010PropOp35
 70
     1
102
RTVSPost2010Prop36
280
     0
102
RTVSPost2010PropOp36
 70
     1
102
RTVSPost2010Prop37
 90
       50
102
RTVSPost2010PropOp37
 70
     1
102
RTVSPost2010Prop38
140
0.0
102
RTVSPost2010PropOp38
 70
     1
102
RTVSPost2010Prop39
140
1.0
102
RTVSPost2010PropOp39
 70
     1
102
RTVSPost2010Prop40
 90
        0
102
RTVSPost2010PropOp40
 70
     1
102
RTVSPost2010Prop41ColorIndex
 90
       18
102
RTVSPost2010Prop41ColorRGB
 90
-16777216
102
RTVSPost2010PropOp41
 70
     1
102
RTVSPost2010Prop42
 90
       50
102
RTVSPost2010PropOp42
 70
     1
102
RTVSPost2010Prop43
 90
        3
102
RTVSPost2010PropOp43
 70
     1
102
RTVSPost2010Prop44ColorIndex
 90
        5
102
RTVSPost2010Prop44ColorRGB
 90
      255
102
RTVSPost2010PropOp44
 70
     1
102
RTVSPost2010Prop45
280
     0
102
RTVSPost2010PropOp45
 70
     1
102
RTVSPost2010Prop46
 90
       50
102
RTVSPost2010PropOp46
 70
     1
102
RTVSPost2010Prop47
 90
       50
102
RTVSPost2010PropOp47
 70
     1
102
RTVSPost2010Prop48
 90
       50
102
RTVSPost2010PropOp48
 70
     1
102
RTVSPost2010Prop49
280
     0
102
RTVSPost2010PropOp49
 70
     1
102
RTVSPost2010Prop50
 90
       50
102
RTVSPost2010PropOp50
 70
     1
102
RTVSPost2010Prop51ColorIndex
 90
      256
102
RTVSPost2010Prop51ColorRGB
 90
-16777216
102
RTVSPost2010PropOp51
 70
     0
102
RTVSPost2010Prop52
140
1.0
102
RTVSPost2010PropOp52
 70
     0
102
RTVSPost2010Prop53
 90
        2
102
RTVSPost2010PropOp53
 70
     1
102
RTVSPost2010Prop54
  1
strokes_ogs.tif
102
RTVSPost2010PropOp54
 70
     1
102
RTVSPost2010Prop55
280
     0
102
RTVSPost2010PropOp55
 70
     1
102
RTVSPost2010Prop56
140
1.0
102
RTVSPost2010PropOp56
 70
     1
102
RTVSPost2010Prop57
140
1.0
102
RTVSPost2010PropOp57
 70
     1
102
RTVSPropertyOp0
 70
     1
102
RTVSPropertyOp1
 70
     1
102
RTVSPropertyOp2
 70
     1
102
RTVSPropertyOp3
 70
     1
102
RTVSPropertyOp4
 70
     1
102
RTVSPropertyOp5
 70
     1
102
RTVSPropertyOp6
 70
     1
102
RTVSPropertyOp7
 70
     1
102
RTVSPropertyOp8
 70
     1
102
RTVSPropertyOp9
 70
     1
102
RTVSPropertyOp10
 70
     1
102
RTVSPropertyOp11
 70
     1
102
RTVSPropertyOp12
 70
     1
102
RTVSPropertyOp13
 70
     1
102
RTVSPropertyOp14
 70
     1
102
RTVSPropertyOp15
 70
     1
102
RTVSPropertyOp16
 70
     1
102
RTVSPropertyOp17
 70
     1
102
RTVSPropertyOp18
 70
     1
102
RTVSPropertyOp19
 70
     1
102
RTVSPropertyOp20
 70
     1
102
RTVSPropertyOp21
 70
     1
102
RTVSPropertyOp22
 70
     1
102
RTVSPropertyOp23
 70
     1
102
RTVSPropertyOp24
 70
     1
102
RTVSPropertyOp25
 70
     1
102
RTVSPropertyOp26
 70
     1
102
RTVSPropertyOp27
 70
     1
102
RTVSPropertyOp28
 70
     1
102
RTVSPropertyOp29
 70
     1
102
RTVSPropertyOp30
 70
     1
102
RTVSPropertyOp31
 70
     1
102
RTVSPropertyOp32
 70
     1
102
RTVSPropertyOp33
 70
     1
102
RTVSPropertyOp34
 70
     1
102
RTVSPropertyOp35
 70
     1
102
RTVSPropertyOp36
 70
     1
102
RTVSPropertyOp37
 70
     1
102
RTVSPropertyOp38
 70
     1
102
RTVSPropertyOp39
 70
     1
102
RTVSPropertyOp40
 70
     1
102
RTVSPropertyOp41
 70
     1
102
RTVSPropertyOp42
 70
     1
102
RTVSPropertyOp43
 70
     1
102
RTVSPropertyOp44
 70
     1
102
RTVSPropertyOp45
 70
     1
102
RTVSPropertyOp46
 70
     1
102
RTVSPropertyOp47
 70
     1
102
RTVSPropertyOp48
 70
     1
102
RTVSPropertyOp49
 70
     1
102
RTVSPropertyOp50
 70
     1
102
RTVSPropertyOp51
 70
     0
102
RTVSPropertyOp52
 70
     0
102
RTVSPropertyOp53
 70
     1
102
RTVSPropertyOp54
 70
     1
102
RTVSPropertyOp55
 70
     1
102
RTVSPropertyOp56
 70
     1
102
RTVSPropertyOp57
 70
     1
102
RTVSPropertyOp58
 70
     1
102
RTVSPropertyOp59
 70
     1
102
RTVSPropertyOp60
 70
     1
102
RTVSPropertyOp61
 70
     1
102
RTVSPropertyOp62
 70
     1
  0
XRECORD
  5
FF5
102
{ACAD_REACTORS
330
FF4
102
}
330
FF4
100
AcDbXrecord
280
     1
102
RTVSPost2010Prop28
280
     0
102
RTVSPost2010PropOp28
 70
     1
102
RTVSPost2010Prop29
280
     1
102
RTVSPost2010PropOp29
 70
     1
102
RTVSPost2010Prop30
280
     1
102
RTVSPost2010PropOp30
 70
     1
102
RTVSPost2010Prop31
280
     0
102
RTVSPost2010PropOp31
 70
     1
102
RTVSPost2010Prop32
280
     0
102
RTVSPost2010PropOp32
 70
     1
102
RTVSPost2010Prop33
280
     0
102
RTVSPost2010PropOp33
 70
     1
102
RTVSPost2010Prop34
280
     0
102
RTVSPost2010PropOp34
 70
     1
102
RTVSPost2010Prop35
280
     0
102
RTVSPost2010PropOp35
 70
     1
102
RTVSPost2010Prop36
280
     0
102
RTVSPost2010PropOp36
 70
     1
102
RTVSPost2010Prop37
 90
       50
102
RTVSPost2010PropOp37
 70
     1
102
RTVSPost2010Prop38
140
0.0
102
RTVSPost2010PropOp38
 70
     1
102
RTVSPost2010Prop39
140
1.0
102
RTVSPost2010PropOp39
 70
     1
102
RTVSPost2010Prop40
 90
        0
102
RTVSPost2010PropOp40
 70
     1
102
RTVSPost2010Prop41ColorIndex
 90
       18
102
RTVSPost2010Prop41ColorRGB
 90
-16777216
102
RTVSPost2010PropOp41
 70
     1
102
RTVSPost2010Prop42
 90
       50
102
RTVSPost2010PropOp42
 70
     1
102
RTVSPost2010Prop43
 90
        3
102
RTVSPost2010PropOp43
 70
     1
102
RTVSPost2010Prop44ColorIndex
 90
        5
102
RTVSPost2010Prop44ColorRGB
 90
      255
102
RTVSPost2010PropOp44
 70
     1
102
RTVSPost2010Prop45
280
     0
102
RTVSPost2010PropOp45
 70
     1
102
RTVSPost2010Prop46
 90
       50
102
RTVSPost2010PropOp46
 70
     1
102
RTVSPost2010Prop47
 90
       50
102
RTVSPost2010PropOp47
 70
     1
102
RTVSPost2010Prop48
 90
       50
102
RTVSPost2010PropOp48
 70
     1
102
RTVSPost2010Prop49
280
     0
102
RTVSPost2010PropOp49
 70
     1
102
RTVSPost2010Prop50
 90
       50
102
RTVSPost2010PropOp50
 70
     1
102
RTVSPost2010Prop51ColorIndex
 90
      256
102
RTVSPost2010Prop51ColorRGB
 90
-16777216
102
RTVSPost2010PropOp51
 70
     0
102
RTVSPost2010Prop52
140
1.0
102
RTVSPost2010PropOp52
 70
     0
102
RTVSPost2010Prop53
 90
        2
102
RTVSPost2010PropOp53
 70
     1
102
RTVSPost2010Prop54
  1
strokes_ogs.tif
102
RTVSPost2010PropOp54
 70
     1
102
RTVSPost2010Prop55
280
     0
102
RTVSPost2010PropOp55
 70
     1
102
RTVSPost2010Prop56
140
1.0
102
RTVSPost2010PropOp56
 70
     1
102
RTVSPost2010Prop57
140
1.0
102
RTVSPost2010PropOp57
 70
     1
102
RTVSPropertyOp0
 70
     1
102
RTVSPropertyOp1
 70
     1
102
RTVSPropertyOp2
 70
     1
102
RTVSPropertyOp3
 70
     1
102
RTVSPropertyOp4
 70
     1
102
RTVSPropertyOp5
 70
     1
102
RTVSPropertyOp6
 70
     1
102
RTVSPropertyOp7
 70
     1
102
RTVSPropertyOp8
 70
     1
102
RTVSPropertyOp9
 70
     1
102
RTVSPropertyOp10
 70
     1
102
RTVSPropertyOp11
 70
     1
102
RTVSPropertyOp12
 70
     1
102
RTVSPropertyOp13
 70
     1
102
RTVSPropertyOp14
 70
     1
102
RTVSPropertyOp15
 70
     1
102
RTVSPropertyOp16
 70
     1
102
RTVSPropertyOp17
 70
     1
102
RTVSPropertyOp18
 70
     1
102
RTVSPropertyOp19
 70
     1
102
RTVSPropertyOp20
 70
     1
102
RTVSPropertyOp21
 70
     1
102
RTVSPropertyOp22
 70
     1
102
RTVSPropertyOp23
 70
     1
102
RTVSPropertyOp24
 70
     1
102
RTVSPropertyOp25
 70
     1
102
RTVSPropertyOp26
 70
     1
102
RTVSPropertyOp27
 70
     1
102
RTVSPropertyOp28
 70
     1
102
RTVSPropertyOp29
 70
     1
102
RTVSPropertyOp30
 70
     1
102
RTVSPropertyOp31
 70
     1
102
RTVSPropertyOp32
 70
     1
102
RTVSPropertyOp33
 70
     1
102
RTVSPropertyOp34
 70
     1
102
RTVSPropertyOp35
 70
     1
102
RTVSPropertyOp36
 70
     1
102
RTVSPropertyOp37
 70
     1
102
RTVSPropertyOp38
 70
     1
102
RTVSPropertyOp39
 70
     1
102
RTVSPropertyOp40
 70
     1
102
RTVSPropertyOp41
 70
     1
102
RTVSPropertyOp42
 70
     1
102
RTVSPropertyOp43
 70
     1
102
RTVSPropertyOp44
 70
     1
102
RTVSPropertyOp45
 70
     1
102
RTVSPropertyOp46
 70
     1
102
RTVSPropertyOp47
 70
     1
102
RTVSPropertyOp48
 70
     1
102
RTVSPropertyOp49
 70
     1
102
RTVSPropertyOp50
 70
     1
102
RTVSPropertyOp51
 70
     0
102
RTVSPropertyOp52
 70
     0
102
RTVSPropertyOp53
 70
     1
102
RTVSPropertyOp54
 70
     1
102
RTVSPropertyOp55
 70
     1
102
RTVSPropertyOp56
 70
     1
102
RTVSPropertyOp57
 70
     1
102
RTVSPropertyOp58
 70
     1
102
RTVSPropertyOp59
 70
     1
102
RTVSPropertyOp60
 70
     1
102
RTVSPropertyOp61
 70
     1
102
RTVSPropertyOp62
 70
     1
  0
XRECORD
  5
FEF
102
{ACAD_REACTORS
330
FEE
102
}
330
FEE
100
AcDbXrecord
280
     1
102
RTVSPost2010Prop28
280
     0
102
RTVSPost2010PropOp28
 70
     1
102
RTVSPost2010Prop29
280
     1
102
RTVSPost2010PropOp29
 70
     1
102
RTVSPost2010Prop30
280
     1
102
RTVSPost2010PropOp30
 70
     1
102
RTVSPost2010Prop31
280
     0
102
RTVSPost2010PropOp31
 70
     1
102
RTVSPost2010Prop32
280
     0
102
RTVSPost2010PropOp32
 70
     1
102
RTVSPost2010Prop33
280
     0
102
RTVSPost2010PropOp33
 70
     1
102
RTVSPost2010Prop34
280
     0
102
RTVSPost2010PropOp34
 70
     1
102
RTVSPost2010Prop35
280
     0
102
RTVSPost2010PropOp35
 70
     1
102
RTVSPost2010Prop36
280
     0
102
RTVSPost2010PropOp36
 70
     1
102
RTVSPost2010Prop37
 90
       50
102
RTVSPost2010PropOp37
 70
     1
102
RTVSPost2010Prop38
140
0.0
102
RTVSPost2010PropOp38
 70
     1
102
RTVSPost2010Prop39
140
1.0
102
RTVSPost2010PropOp39
 70
     1
102
RTVSPost2010Prop40
 90
        0
102
RTVSPost2010PropOp40
 70
     1
102
RTVSPost2010Prop41ColorIndex
 90
       18
102
RTVSPost2010Prop41ColorRGB
 90
-16777216
102
RTVSPost2010PropOp41
 70
     1
102
RTVSPost2010Prop42
 90
       50
102
RTVSPost2010PropOp42
 70
     1
102
RTVSPost2010Prop43
 90
        3
102
RTVSPost2010PropOp43
 70
     1
102
RTVSPost2010Prop44ColorIndex
 90
        5
102
RTVSPost2010Prop44ColorRGB
 90
      255
102
RTVSPost2010PropOp44
 70
     1
102
RTVSPost2010Prop45
280
     0
102
RTVSPost2010PropOp45
 70
     1
102
RTVSPost2010Prop46
 90
       50
102
RTVSPost2010PropOp46
 70
     1
102
RTVSPost2010Prop47
 90
       50
102
RTVSPost2010PropOp47
 70
     1
102
RTVSPost2010Prop48
 90
       50
102
RTVSPost2010PropOp48
 70
     1
102
RTVSPost2010Prop49
280
     0
102
RTVSPost2010PropOp49
 70
     1
102
RTVSPost2010Prop50
 90
       50
102
RTVSPost2010PropOp50
 70
     1
102
RTVSPost2010Prop51ColorIndex
 90
      256
102
RTVSPost2010Prop51ColorRGB
 90
-16777216
102
RTVSPost2010PropOp51
 70
     0
102
RTVSPost2010Prop52
140
1.0
102
RTVSPost2010PropOp52
 70
     0
102
RTVSPost2010Prop53
 90
        2
102
RTVSPost2010PropOp53
 70
     1
102
RTVSPost2010Prop54
  1
strokes_ogs.tif
102
RTVSPost2010PropOp54
 70
     1
102
RTVSPost2010Prop55
280
     0
102
RTVSPost2010PropOp55
 70
     1
102
RTVSPost2010Prop56
140
1.0
102
RTVSPost2010PropOp56
 70
     1
102
RTVSPost2010Prop57
140
1.0
102
RTVSPost2010PropOp57
 70
     1
102
RTVSPropertyOp0
 70
     1
102
RTVSPropertyOp1
 70
     1
102
RTVSPropertyOp2
 70
     1
102
RTVSPropertyOp3
 70
     1
102
RTVSPropertyOp4
 70
     1
102
RTVSPropertyOp5
 70
     1
102
RTVSPropertyOp6
 70
     1
102
RTVSPropertyOp7
 70
     1
102
RTVSPropertyOp8
 70
     1
102
RTVSPropertyOp9
 70
     1
102
RTVSPropertyOp10
 70
     1
102
RTVSPropertyOp11
 70
     1
102
RTVSPropertyOp12
 70
     1
102
RTVSPropertyOp13
 70
     1
102
RTVSPropertyOp14
 70
     1
102
RTVSPropertyOp15
 70
     1
102
RTVSPropertyOp16
 70
     1
102
RTVSPropertyOp17
 70
     1
102
RTVSPropertyOp18
 70
     1
102
RTVSPropertyOp19
 70
     1
102
RTVSPropertyOp20
 70
     1
102
RTVSPropertyOp21
 70
     1
102
RTVSPropertyOp22
 70
     1
102
RTVSPropertyOp23
 70
     1
102
RTVSPropertyOp24
 70
     1
102
RTVSPropertyOp25
 70
     1
102
RTVSPropertyOp26
 70
     1
102
RTVSPropertyOp27
 70
     1
102
RTVSPropertyOp28
 70
     1
102
RTVSPropertyOp29
 70
     1
102
RTVSPropertyOp30
 70
     1
102
RTVSPropertyOp31
 70
     1
102
RTVSPropertyOp32
 70
     1
102
RTVSPropertyOp33
 70
     1
102
RTVSPropertyOp34
 70
     1
102
RTVSPropertyOp35
 70
     1
102
RTVSPropertyOp36
 70
     1
102
RTVSPropertyOp37
 70
     1
102
RTVSPropertyOp38
 70
     1
102
RTVSPropertyOp39
 70
     1
102
RTVSPropertyOp40
 70
     1
102
RTVSPropertyOp41
 70
     1
102
RTVSPropertyOp42
 70
     1
102
RTVSPropertyOp43
 70
     1
102
RTVSPropertyOp44
 70
     1
102
RTVSPropertyOp45
 70
     1
102
RTVSPropertyOp46
 70
     1
102
RTVSPropertyOp47
 70
     1
102
RTVSPropertyOp48
 70
     1
102
RTVSPropertyOp49
 70
     1
102
RTVSPropertyOp50
 70
     1
102
RTVSPropertyOp51
 70
     0
102
RTVSPropertyOp52
 70
     0
102
RTVSPropertyOp53
 70
     1
102
RTVSPropertyOp54
 70
     1
102
RTVSPropertyOp55
 70
     1
102
RTVSPropertyOp56
 70
     1
102
RTVSPropertyOp57
 70
     1
102
RTVSPropertyOp58
 70
     1
102
RTVSPropertyOp59
 70
     1
102
RTVSPropertyOp60
 70
     1
102
RTVSPropertyOp61
 70
     1
102
RTVSPropertyOp62
 70
     1
  0
XRECORD
  5
FF1
102
{ACAD_REACTORS
330
FF0
102
}
330
FF0
100
AcDbXrecord
280
     1
102
RTVSPost2010Prop28
280
     0
102
RTVSPost2010PropOp28
 70
     1
102
RTVSPost2010Prop29
280
     1
102
RTVSPost2010PropOp29
 70
     1
102
RTVSPost2010Prop30
280
     1
102
RTVSPost2010PropOp30
 70
     1
102
RTVSPost2010Prop31
280
     0
102
RTVSPost2010PropOp31
 70
     1
102
RTVSPost2010Prop32
280
     0
102
RTVSPost2010PropOp32
 70
     1
102
RTVSPost2010Prop33
280
     0
102
RTVSPost2010PropOp33
 70
     1
102
RTVSPost2010Prop34
280
     0
102
RTVSPost2010PropOp34
 70
     1
102
RTVSPost2010Prop35
280
     0
102
RTVSPost2010PropOp35
 70
     1
102
RTVSPost2010Prop36
280
     0
102
RTVSPost2010PropOp36
 70
     1
102
RTVSPost2010Prop37
 90
       50
102
RTVSPost2010PropOp37
 70
     1
102
RTVSPost2010Prop38
140
0.0
102
RTVSPost2010PropOp38
 70
     1
102
RTVSPost2010Prop39
140
1.0
102
RTVSPost2010PropOp39
 70
     1
102
RTVSPost2010Prop40
 90
        0
102
RTVSPost2010PropOp40
 70
     1
102
RTVSPost2010Prop41ColorIndex
 90
       18
102
RTVSPost2010Prop41ColorRGB
 90
-16777216
102
RTVSPost2010PropOp41
 70
     1
102
RTVSPost2010Prop42
 90
       50
102
RTVSPost2010PropOp42
 70
     1
102
RTVSPost2010Prop43
 90
        3
102
RTVSPost2010PropOp43
 70
     1
102
RTVSPost2010Prop44ColorIndex
 90
        5
102
RTVSPost2010Prop44ColorRGB
 90
      255
102
RTVSPost2010PropOp44
 70
     1
102
RTVSPost2010Prop45
280
     0
102
RTVSPost2010PropOp45
 70
     1
102
RTVSPost2010Prop46
 90
       50
102
RTVSPost2010PropOp46
 70
     1
102
RTVSPost2010Prop47
 90
       50
102
RTVSPost2010PropOp47
 70
     1
102
RTVSPost2010Prop48
 90
       50
102
RTVSPost2010PropOp48
 70
     1
102
RTVSPost2010Prop49
280
     0
102
RTVSPost2010PropOp49
 70
     1
102
RTVSPost2010Prop50
 90
       50
102
RTVSPost2010PropOp50
 70
     1
102
RTVSPost2010Prop51ColorIndex
 90
      256
102
RTVSPost2010Prop51ColorRGB
 90
-16777216
102
RTVSPost2010PropOp51
 70
     0
102
RTVSPost2010Prop52
140
1.0
102
RTVSPost2010PropOp52
 70
     0
102
RTVSPost2010Prop53
 90
        2
102
RTVSPost2010PropOp53
 70
     1
102
RTVSPost2010Prop54
  1
strokes_ogs.tif
102
RTVSPost2010PropOp54
 70
     1
102
RTVSPost2010Prop55
280
     0
102
RTVSPost2010PropOp55
 70
     1
102
RTVSPost2010Prop56
140
1.0
102
RTVSPost2010PropOp56
 70
     1
102
RTVSPost2010Prop57
140
1.0
102
RTVSPost2010PropOp57
 70
     1
102
RTVSPropertyOp0
 70
     1
102
RTVSPropertyOp1
 70
     1
102
RTVSPropertyOp2
 70
     1
102
RTVSPropertyOp3
 70
     1
102
RTVSPropertyOp4
 70
     1
102
RTVSPropertyOp5
 70
     1
102
RTVSPropertyOp6
 70
     1
102
RTVSPropertyOp7
 70
     1
102
RTVSPropertyOp8
 70
     1
102
RTVSPropertyOp9
 70
     1
102
RTVSPropertyOp10
 70
     1
102
RTVSPropertyOp11
 70
     1
102
RTVSPropertyOp12
 70
     1
102
RTVSPropertyOp13
 70
     1
102
RTVSPropertyOp14
 70
     1
102
RTVSPropertyOp15
 70
     1
102
RTVSPropertyOp16
 70
     1
102
RTVSPropertyOp17
 70
     1
102
RTVSPropertyOp18
 70
     1
102
RTVSPropertyOp19
 70
     1
102
RTVSPropertyOp20
 70
     1
102
RTVSPropertyOp21
 70
     1
102
RTVSPropertyOp22
 70
     1
102
RTVSPropertyOp23
 70
     1
102
RTVSPropertyOp24
 70
     1
102
RTVSPropertyOp25
 70
     1
102
RTVSPropertyOp26
 70
     1
102
RTVSPropertyOp27
 70
     1
102
RTVSPropertyOp28
 70
     1
102
RTVSPropertyOp29
 70
     1
102
RTVSPropertyOp30
 70
     1
102
RTVSPropertyOp31
 70
     1
102
RTVSPropertyOp32
 70
     1
102
RTVSPropertyOp33
 70
     1
102
RTVSPropertyOp34
 70
     1
102
RTVSPropertyOp35
 70
     1
102
RTVSPropertyOp36
 70
     1
102
RTVSPropertyOp37
 70
     1
102
RTVSPropertyOp38
 70
     1
102
RTVSPropertyOp39
 70
     1
102
RTVSPropertyOp40
 70
     1
102
RTVSPropertyOp41
 70
     1
102
RTVSPropertyOp42
 70
     1
102
RTVSPropertyOp43
 70
     1
102
RTVSPropertyOp44
 70
     1
102
RTVSPropertyOp45
 70
     1
102
RTVSPropertyOp46
 70
     1
102
RTVSPropertyOp47
 70
     1
102
RTVSPropertyOp48
 70
     1
102
RTVSPropertyOp49
 70
     1
102
RTVSPropertyOp50
 70
     1
102
RTVSPropertyOp51
 70
     0
102
RTVSPropertyOp52
 70
     0
102
RTVSPropertyOp53
 70
     1
102
RTVSPropertyOp54
 70
     1
102
RTVSPropertyOp55
 70
     1
102
RTVSPropertyOp56
 70
     1
102
RTVSPropertyOp57
 70
     1
102
RTVSPropertyOp58
 70
     1
102
RTVSPropertyOp59
 70
     1
102
RTVSPropertyOp60
 70
     1
102
RTVSPropertyOp61
 70
     1
102
RTVSPropertyOp62
 70
     1
  0
XRECORD
  5
FE7
102
{ACAD_REACTORS
330
FE6
102
}
330
FE6
100
AcDbXrecord
280
     1
102
RTVSPost2010Prop28
280
     0
102
RTVSPost2010PropOp28
 70
     1
102
RTVSPost2010Prop29
280
     1
102
RTVSPost2010PropOp29
 70
     1
102
RTVSPost2010Prop30
280
     1
102
RTVSPost2010PropOp30
 70
     1
102
RTVSPost2010Prop31
280
     0
102
RTVSPost2010PropOp31
 70
     1
102
RTVSPost2010Prop32
280
     0
102
RTVSPost2010PropOp32
 70
     1
102
RTVSPost2010Prop33
280
     0
102
RTVSPost2010PropOp33
 70
     1
102
RTVSPost2010Prop34
280
     0
102
RTVSPost2010PropOp34
 70
     1
102
RTVSPost2010Prop35
280
     0
102
RTVSPost2010PropOp35
 70
     1
102
RTVSPost2010Prop36
280
     0
102
RTVSPost2010PropOp36
 70
     1
102
RTVSPost2010Prop37
 90
       50
102
RTVSPost2010PropOp37
 70
     1
102
RTVSPost2010Prop38
140
0.0
102
RTVSPost2010PropOp38
 70
     1
102
RTVSPost2010Prop39
140
1.0
102
RTVSPost2010PropOp39
 70
     1
102
RTVSPost2010Prop40
 90
        0
102
RTVSPost2010PropOp40
 70
     1
102
RTVSPost2010Prop41ColorIndex
 90
       18
102
RTVSPost2010Prop41ColorRGB
 90
-16777216
102
RTVSPost2010PropOp41
 70
     1
102
RTVSPost2010Prop42
 90
       50
102
RTVSPost2010PropOp42
 70
     1
102
RTVSPost2010Prop43
 90
        3
102
RTVSPost2010PropOp43
 70
     1
102
RTVSPost2010Prop44ColorIndex
 90
        5
102
RTVSPost2010Prop44ColorRGB
 90
      255
102
RTVSPost2010PropOp44
 70
     1
102
RTVSPost2010Prop45
280
     0
102
RTVSPost2010PropOp45
 70
     1
102
RTVSPost2010Prop46
 90
       50
102
RTVSPost2010PropOp46
 70
     1
102
RTVSPost2010Prop47
 90
       50
102
RTVSPost2010PropOp47
 70
     1
102
RTVSPost2010Prop48
 90
       50
102
RTVSPost2010PropOp48
 70
     1
102
RTVSPost2010Prop49
280
     0
102
RTVSPost2010PropOp49
 70
     1
102
RTVSPost2010Prop50
 90
       50
102
RTVSPost2010PropOp50
 70
     1
102
RTVSPost2010Prop51ColorIndex
 90
      256
102
RTVSPost2010Prop51ColorRGB
 90
-16777216
102
RTVSPost2010PropOp51
 70
     0
102
RTVSPost2010Prop52
140
1.0
102
RTVSPost2010PropOp52
 70
     0
102
RTVSPost2010Prop53
 90
        2
102
RTVSPost2010PropOp53
 70
     1
102
RTVSPost2010Prop54
  1
strokes_ogs.tif
102
RTVSPost2010PropOp54
 70
     1
102
RTVSPost2010Prop55
280
     0
102
RTVSPost2010PropOp55
 70
     1
102
RTVSPost2010Prop56
140
1.0
102
RTVSPost2010PropOp56
 70
     1
102
RTVSPost2010Prop57
140
1.0
102
RTVSPost2010PropOp57
 70
     1
102
RTVSPropertyOp0
 70
     1
102
RTVSPropertyOp1
 70
     1
102
RTVSPropertyOp2
 70
     1
102
RTVSPropertyOp3
 70
     1
102
RTVSPropertyOp4
 70
     1
102
RTVSPropertyOp5
 70
     1
102
RTVSPropertyOp6
 70
     1
102
RTVSPropertyOp7
 70
     1
102
RTVSPropertyOp8
 70
     1
102
RTVSPropertyOp9
 70
     1
102
RTVSPropertyOp10
 70
     1
102
RTVSPropertyOp11
 70
     1
102
RTVSPropertyOp12
 70
     1
102
RTVSPropertyOp13
 70
     1
102
RTVSPropertyOp14
 70
     1
102
RTVSPropertyOp15
 70
     1
102
RTVSPropertyOp16
 70
     1
102
RTVSPropertyOp17
 70
     1
102
RTVSPropertyOp18
 70
     1
102
RTVSPropertyOp19
 70
     1
102
RTVSPropertyOp20
 70
     1
102
RTVSPropertyOp21
 70
     1
102
RTVSPropertyOp22
 70
     1
102
RTVSPropertyOp23
 70
     1
102
RTVSPropertyOp24
 70
     1
102
RTVSPropertyOp25
 70
     1
102
RTVSPropertyOp26
 70
     1
102
RTVSPropertyOp27
 70
     1
102
RTVSPropertyOp28
 70
     1
102
RTVSPropertyOp29
 70
     1
102
RTVSPropertyOp30
 70
     1
102
RTVSPropertyOp31
 70
     1
102
RTVSPropertyOp32
 70
     1
102
RTVSPropertyOp33
 70
     1
102
RTVSPropertyOp34
 70
     1
102
RTVSPropertyOp35
 70
     1
102
RTVSPropertyOp36
 70
     1
102
RTVSPropertyOp37
 70
     1
102
RTVSPropertyOp38
 70
     1
102
RTVSPropertyOp39
 70
     1
102
RTVSPropertyOp40
 70
     1
102
RTVSPropertyOp41
 70
     1
102
RTVSPropertyOp42
 70
     1
102
RTVSPropertyOp43
 70
     1
102
RTVSPropertyOp44
 70
     1
102
RTVSPropertyOp45
 70
     1
102
RTVSPropertyOp46
 70
     1
102
RTVSPropertyOp47
 70
     1
102
RTVSPropertyOp48
 70
     1
102
RTVSPropertyOp49
 70
     1
102
RTVSPropertyOp50
 70
     1
102
RTVSPropertyOp51
 70
     0
102
RTVSPropertyOp52
 70
     0
102
RTVSPropertyOp53
 70
     1
102
RTVSPropertyOp54
 70
     1
102
RTVSPropertyOp55
 70
     1
102
RTVSPropertyOp56
 70
     1
102
RTVSPropertyOp57
 70
     1
102
RTVSPropertyOp58
 70
     1
102
RTVSPropertyOp59
 70
     1
102
RTVSPropertyOp60
 70
     1
102
RTVSPropertyOp61
 70
     1
102
RTVSPropertyOp62
 70
     1
  0
XRECORD
  5
FDB
102
{ACAD_REACTORS
330
FDA
102
}
330
FDA
100
AcDbXrecord
280
     1
102
RTVSPost2010Prop28
280
     0
102
RTVSPost2010PropOp28
 70
     1
102
RTVSPost2010Prop29
280
     1
102
RTVSPost2010PropOp29
 70
     1
102
RTVSPost2010Prop30
280
     1
102
RTVSPost2010PropOp30
 70
     1
102
RTVSPost2010Prop31
280
     0
102
RTVSPost2010PropOp31
 70
     1
102
RTVSPost2010Prop32
280
     0
102
RTVSPost2010PropOp32
 70
     1
102
RTVSPost2010Prop33
280
     0
102
RTVSPost2010PropOp33
 70
     1
102
RTVSPost2010Prop34
280
     0
102
RTVSPost2010PropOp34
 70
     1
102
RTVSPost2010Prop35
280
     0
102
RTVSPost2010PropOp35
 70
     1
102
RTVSPost2010Prop36
280
     0
102
RTVSPost2010PropOp36
 70
     1
102
RTVSPost2010Prop37
 90
       50
102
RTVSPost2010PropOp37
 70
     1
102
RTVSPost2010Prop38
140
0.0
102
RTVSPost2010PropOp38
 70
     1
102
RTVSPost2010Prop39
140
1.0
102
RTVSPost2010PropOp39
 70
     1
102
RTVSPost2010Prop40
 90
        0
102
RTVSPost2010PropOp40
 70
     1
102
RTVSPost2010Prop41ColorIndex
 90
       18
102
RTVSPost2010Prop41ColorRGB
 90
-16777216
102
RTVSPost2010PropOp41
 70
     1
102
RTVSPost2010Prop42
 90
       50
102
RTVSPost2010PropOp42
 70
     1
102
RTVSPost2010Prop43
 90
        3
102
RTVSPost2010PropOp43
 70
     1
102
RTVSPost2010Prop44ColorIndex
 90
        5
102
RTVSPost2010Prop44ColorRGB
 90
      255
102
RTVSPost2010PropOp44
 70
     1
102
RTVSPost2010Prop45
280
     0
102
RTVSPost2010PropOp45
 70
     1
102
RTVSPost2010Prop46
 90
       50
102
RTVSPost2010PropOp46
 70
     1
102
RTVSPost2010Prop47
 90
       50
102
RTVSPost2010PropOp47
 70
     1
102
RTVSPost2010Prop48
 90
       50
102
RTVSPost2010PropOp48
 70
     1
102
RTVSPost2010Prop49
280
     0
102
RTVSPost2010PropOp49
 70
     1
102
RTVSPost2010Prop50
 90
       50
102
RTVSPost2010PropOp50
 70
     1
102
RTVSPost2010Prop51ColorIndex
 90
      256
102
RTVSPost2010Prop51ColorRGB
 90
-16777216
102
RTVSPost2010PropOp51
 70
     0
102
RTVSPost2010Prop52
140
1.0
102
RTVSPost2010PropOp52
 70
     0
102
RTVSPost2010Prop53
 90
        2
102
RTVSPost2010PropOp53
 70
     1
102
RTVSPost2010Prop54
  1
strokes_ogs.tif
102
RTVSPost2010PropOp54
 70
     1
102
RTVSPost2010Prop55
280
     0
102
RTVSPost2010PropOp55
 70
     1
102
RTVSPost2010Prop56
140
1.0
102
RTVSPost2010PropOp56
 70
     1
102
RTVSPost2010Prop57
140
1.0
102
RTVSPost2010PropOp57
 70
     1
102
RTVSPropertyOp0
 70
     1
102
RTVSPropertyOp1
 70
     1
102
RTVSPropertyOp2
 70
     1
102
RTVSPropertyOp3
 70
     1
102
RTVSPropertyOp4
 70
     1
102
RTVSPropertyOp5
 70
     1
102
RTVSPropertyOp6
 70
     1
102
RTVSPropertyOp7
 70
     1
102
RTVSPropertyOp8
 70
     1
102
RTVSPropertyOp9
 70
     1
102
RTVSPropertyOp10
 70
     1
102
RTVSPropertyOp11
 70
     1
102
RTVSPropertyOp12
 70
     1
102
RTVSPropertyOp13
 70
     1
102
RTVSPropertyOp14
 70
     1
102
RTVSPropertyOp15
 70
     1
102
RTVSPropertyOp16
 70
     1
102
RTVSPropertyOp17
 70
     1
102
RTVSPropertyOp18
 70
     1
102
RTVSPropertyOp19
 70
     1
102
RTVSPropertyOp20
 70
     1
102
RTVSPropertyOp21
 70
     1
102
RTVSPropertyOp22
 70
     1
102
RTVSPropertyOp23
 70
     1
102
RTVSPropertyOp24
 70
     1
102
RTVSPropertyOp25
 70
     1
102
RTVSPropertyOp26
 70
     1
102
RTVSPropertyOp27
 70
     1
102
RTVSPropertyOp28
 70
     1
102
RTVSPropertyOp29
 70
     1
102
RTVSPropertyOp30
 70
     1
102
RTVSPropertyOp31
 70
     1
102
RTVSPropertyOp32
 70
     1
102
RTVSPropertyOp33
 70
     1
102
RTVSPropertyOp34
 70
     1
102
RTVSPropertyOp35
 70
     1
102
RTVSPropertyOp36
 70
     1
102
RTVSPropertyOp37
 70
     1
102
RTVSPropertyOp38
 70
     1
102
RTVSPropertyOp39
 70
     1
102
RTVSPropertyOp40
 70
     1
102
RTVSPropertyOp41
 70
     1
102
RTVSPropertyOp42
 70
     1
102
RTVSPropertyOp43
 70
     1
102
RTVSPropertyOp44
 70
     1
102
RTVSPropertyOp45
 70
     1
102
RTVSPropertyOp46
 70
     1
102
RTVSPropertyOp47
 70
     1
102
RTVSPropertyOp48
 70
     1
102
RTVSPropertyOp49
 70
     1
102
RTVSPropertyOp50
 70
     1
102
RTVSPropertyOp51
 70
     0
102
RTVSPropertyOp52
 70
     0
102
RTVSPropertyOp53
 70
     1
102
RTVSPropertyOp54
 70
     1
102
RTVSPropertyOp55
 70
     1
102
RTVSPropertyOp56
 70
     1
102
RTVSPropertyOp57
 70
     1
102
RTVSPropertyOp58
 70
     1
102
RTVSPropertyOp59
 70
     1
102
RTVSPropertyOp60
 70
     1
102
RTVSPropertyOp61
 70
     1
102
RTVSPropertyOp62
 70
     1
  0
XRECORD
  5
FF3
102
{ACAD_REACTORS
330
FF2
102
}
330
FF2
100
AcDbXrecord
280
     1
102
RTVSPost2010Prop28
280
     0
102
RTVSPost2010PropOp28
 70
     1
102
RTVSPost2010Prop29
280
     1
102
RTVSPost2010PropOp29
 70
     1
102
RTVSPost2010Prop30
280
     1
102
RTVSPost2010PropOp30
 70
     1
102
RTVSPost2010Prop31
280
     0
102
RTVSPost2010PropOp31
 70
     1
102
RTVSPost2010Prop32
280
     0
102
RTVSPost2010PropOp32
 70
     1
102
RTVSPost2010Prop33
280
     0
102
RTVSPost2010PropOp33
 70
     1
102
RTVSPost2010Prop34
280
     0
102
RTVSPost2010PropOp34
 70
     1
102
RTVSPost2010Prop35
280
     0
102
RTVSPost2010PropOp35
 70
     1
102
RTVSPost2010Prop36
280
     0
102
RTVSPost2010PropOp36
 70
     1
102
RTVSPost2010Prop37
 90
       50
102
RTVSPost2010PropOp37
 70
     1
102
RTVSPost2010Prop38
140
0.0
102
RTVSPost2010PropOp38
 70
     1
102
RTVSPost2010Prop39
140
1.0
102
RTVSPost2010PropOp39
 70
     1
102
RTVSPost2010Prop40
 90
        0
102
RTVSPost2010PropOp40
 70
     1
102
RTVSPost2010Prop41ColorIndex
 90
       18
102
RTVSPost2010Prop41ColorRGB
 90
-16777216
102
RTVSPost2010PropOp41
 70
     1
102
RTVSPost2010Prop42
 90
       50
102
RTVSPost2010PropOp42
 70
     1
102
RTVSPost2010Prop43
 90
        3
102
RTVSPost2010PropOp43
 70
     1
102
RTVSPost2010Prop44ColorIndex
 90
        5
102
RTVSPost2010Prop44ColorRGB
 90
      255
102
RTVSPost2010PropOp44
 70
     1
102
RTVSPost2010Prop45
280
     0
102
RTVSPost2010PropOp45
 70
     1
102
RTVSPost2010Prop46
 90
       50
102
RTVSPost2010PropOp46
 70
     1
102
RTVSPost2010Prop47
 90
       50
102
RTVSPost2010PropOp47
 70
     1
102
RTVSPost2010Prop48
 90
       50
102
RTVSPost2010PropOp48
 70
     1
102
RTVSPost2010Prop49
280
     0
102
RTVSPost2010PropOp49
 70
     1
102
RTVSPost2010Prop50
 90
       50
102
RTVSPost2010PropOp50
 70
     1
102
RTVSPost2010Prop51ColorIndex
 90
      256
102
RTVSPost2010Prop51ColorRGB
 90
-16777216
102
RTVSPost2010PropOp51
 70
     0
102
RTVSPost2010Prop52
140
1.0
102
RTVSPost2010PropOp52
 70
     0
102
RTVSPost2010Prop53
 90
        2
102
RTVSPost2010PropOp53
 70
     1
102
RTVSPost2010Prop54
  1
strokes_ogs.tif
102
RTVSPost2010PropOp54
 70
     1
102
RTVSPost2010Prop55
280
     0
102
RTVSPost2010PropOp55
 70
     1
102
RTVSPost2010Prop56
140
1.0
102
RTVSPost2010PropOp56
 70
     1
102
RTVSPost2010Prop57
140
1.0
102
RTVSPost2010PropOp57
 70
     1
102
RTVSPropertyOp0
 70
     1
102
RTVSPropertyOp1
 70
     1
102
RTVSPropertyOp2
 70
     1
102
RTVSPropertyOp3
 70
     1
102
RTVSPropertyOp4
 70
     1
102
RTVSPropertyOp5
 70
     1
102
RTVSPropertyOp6
 70
     1
102
RTVSPropertyOp7
 70
     1
102
RTVSPropertyOp8
 70
     1
102
RTVSPropertyOp9
 70
     1
102
RTVSPropertyOp10
 70
     1
102
RTVSPropertyOp11
 70
     1
102
RTVSPropertyOp12
 70
     1
102
RTVSPropertyOp13
 70
     1
102
RTVSPropertyOp14
 70
     1
102
RTVSPropertyOp15
 70
     1
102
RTVSPropertyOp16
 70
     1
102
RTVSPropertyOp17
 70
     1
102
RTVSPropertyOp18
 70
     1
102
RTVSPropertyOp19
 70
     1
102
RTVSPropertyOp20
 70
     1
102
RTVSPropertyOp21
 70
     1
102
RTVSPropertyOp22
 70
     1
102
RTVSPropertyOp23
 70
     1
102
RTVSPropertyOp24
 70
     1
102
RTVSPropertyOp25
 70
     1
102
RTVSPropertyOp26
 70
     1
102
RTVSPropertyOp27
 70
     1
102
RTVSPropertyOp28
 70
     1
102
RTVSPropertyOp29
 70
     1
102
RTVSPropertyOp30
 70
     1
102
RTVSPropertyOp31
 70
     1
102
RTVSPropertyOp32
 70
     1
102
RTVSPropertyOp33
 70
     1
102
RTVSPropertyOp34
 70
     1
102
RTVSPropertyOp35
 70
     1
102
RTVSPropertyOp36
 70
     1
102
RTVSPropertyOp37
 70
     1
102
RTVSPropertyOp38
 70
     1
102
RTVSPropertyOp39
 70
     1
102
RTVSPropertyOp40
 70
     1
102
RTVSPropertyOp41
 70
     1
102
RTVSPropertyOp42
 70
     1
102
RTVSPropertyOp43
 70
     1
102
RTVSPropertyOp44
 70
     1
102
RTVSPropertyOp45
 70
     1
102
RTVSPropertyOp46
 70
     1
102
RTVSPropertyOp47
 70
     1
102
RTVSPropertyOp48
 70
     1
102
RTVSPropertyOp49
 70
     1
102
RTVSPropertyOp50
 70
     1
102
RTVSPropertyOp51
 70
     0
102
RTVSPropertyOp52
 70
     0
102
RTVSPropertyOp53
 70
     1
102
RTVSPropertyOp54
 70
     1
102
RTVSPropertyOp55
 70
     1
102
RTVSPropertyOp56
 70
     1
102
RTVSPropertyOp57
 70
     1
102
RTVSPropertyOp58
 70
     1
102
RTVSPropertyOp59
 70
     1
102
RTVSPropertyOp60
 70
     1
102
RTVSPropertyOp61
 70
     1
102
RTVSPropertyOp62
 70
     1
  0
ENDSEC
  0
EOF
