  0
SECTION
  2
HEADER
  9
$ACADVER
  1
AC1015
  9
$ACADMAINTVER
 70
    20
  9
$DWGCODEPAGE
  3
ANSI_1252
  9
$INSBASE
 10
0.0
 20
0.0
 30
0.0
  9
$EXTMIN
 10
0.0
 20
-0.0000000000000009
 30
0.0
  9
$EXTMAX
 10
5.525
 20
4.25
 30
0.0
  9
$LIMMIN
 10
0.0
 20
0.0
  9
$LIMMAX
 10
12.0
 20
9.0
  9
$ORTHOMODE
 70
     0
  9
$REGENMODE
 70
     1
  9
$FILLMODE
 70
     1
  9
$QTEXTMODE
 70
     0
  9
$MIRRTEXT
 70
     1
  9
$LTSCALE
 40
0.5
  9
$ATTMODE
 70
     1
  9
$TEXTSIZE
 40
0.063
  9
$TRACEWID
 40
0.05
  9
$TEXTSTYLE
  7
ROMANS
  9
$CLAYER
  8
DIM
  9
$CELTYPE
  6
BYLAYER
  9
$CECOLOR
 62
   256
  9
$CELTSCALE
 40
1.0
  9
$DISPSILH
 70
     0
  9
$DIMSCALE
 40
1.0
  9
$DIMASZ
 40
0.0625
  9
$DIMEXO
 40
0.031
  9
$DIMDLI
 40
0.38
  9
$DIMRND
 40
0.0
  9
$DIMDLE
 40
0.0
  9
$DIMEXE
 40
0.031
  9
$DIMTP
 40
0.0
  9
$DIMTM
 40
0.005
  9
$DIMTXT
 40
0.063
  9
$DIMCEN
 40
0.0625
  9
$DIMTSZ
 40
0.0
  9
$DIMTOL
 70
     0
  9
$DIMLIM
 70
     0
  9
$DIMTIH
 70
     0
  9
$DIMTOH
 70
     1
  9
$DIMSE1
 70
     0
  9
$DIMSE2
 70
     0
  9
$DIMTAD
 70
     0
  9
$DIMZIN
 70
     4
  9
$DIMBLK
  1

  9
$DIMASO
 70
     1
  9
$DIMSHO
 70
     0
  9
$DIMPOST
  1

  9
$DIMAPOST
  1

  9
$DIMALT
 70
     0
  9
$DIMALTD
 70
     2
  9
$DIMALTF
 40
25.4
  9
$DIMLFAC
 40
1.0
  9
$DIMTOFL
 70
     0
  9
$DIMTVP
 40
0.0
  9
$DIMTIX
 70
     0
  9
$DIMSOXD
 70
     0
  9
$DIMSAH
 70
     0
  9
$DIMBLK1
  1

  9
$DIMBLK2
  1

  9
$DIMSTYLE
  2
STANDARD
  9
$DIMCLRD
 70
     0
  9
$DIMCLRE
 70
     0
  9
$DIMCLRT
 70
     0
  9
$DIMTFAC
 40
1.0
  9
$DIMGAP
 40
0.045
  9
$DIMJUST
 70
     0
  9
$DIMSD1
 70
     0
  9
$DIMSD2
 70
     0
  9
$DIMTOLJ
 70
     1
  9
$DIMTZIN
 70
     4
  9
$DIMALTZ
 70
     4
  9
$DIMALTTZ
 70
     4
  9
$DIMUPT
 70
     0
  9
$DIMDEC
 70
     3
  9
$DIMTDEC
 70
     3
  9
$DIMALTU
 70
     2
  9
$DIMALTTD
 70
     2
  9
$DIMTXSTY
  7
ROMANS
  9
$DIMAUNIT
 70
     0
  9
$DIMADEC
 70
     0
  9
$DIMALTRND
 40
0.0
  9
$DIMAZIN
 70
     0
  9
$DIMDSEP
 70
    46
  9
$DIMATFIT
 70
     3
  9
$DIMFRAC
 70
     0
  9
$DIMLDRBLK
  1

  9
$DIMLUNIT
 70
     2
  9
$DIMLWD
 70
    -2
  9
$DIMLWE
 70
    -2
  9
$DIMTMOVE
 70
     2
  9
$LUNITS
 70
     2
  9
$LUPREC
 70
     3
  9
$SKETCHINC
 40
0.1
  9
$FILLETRAD
 40
0.0
  9
$AUNITS
 70
     0
  9
$AUPREC
 70
     2
  9
$MENU
  1
ACAD
  9
$ELEVATION
 40
0.0
  9
$PELEVATION
 40
0.0
  9
$THICKNESS
 40
0.0
  9
$LIMCHECK
 70
     0
  9
$CHAMFERA
 40
0.0
  9
$CHAMFERB
 40
0.0
  9
$CHAMFERC
 40
0.0
  9
$CHAMFERD
 40
0.0
  9
$SKPOLY
 70
     0
  9
$TDCREATE
 40
2449302.656038079
  9
$TDUCREATE
 40
2449302.822704745
  9
$TDUPDATE
 40
2457155.469603577
  9
$TDUUPDATE
 40
2457155.636270243
  9
$TDINDWG
 40
0.1356463542
  9
$TDUSRTIMER
 40
0.1356463426
  9
$USRTIMER
 70
     1
  9
$ANGBASE
 50
0.0
  9
$ANGDIR
 70
     0
  9
$PDMODE
 70
     0
  9
$PDSIZE
 40
0.0
  9
$PLINEWID
 40
0.0
  9
$SPLFRAME
 70
     0
  9
$SPLINETYPE
 70
     6
  9
$SPLINESEGS
 70
     8
  9
$HANDSEED
  5
D28
  9
$SURFTAB1
 70
     6
  9
$SURFTAB2
 70
     6
  9
$SURFTYPE
 70
     6
  9
$SURFU
 70
     6
  9
$SURFV
 70
     6
  9
$UCSBASE
  2

  9
$UCSNAME
  2

  9
$UCSORG
 10
0.0
 20
0.0
 30
0.0
  9
$UCSXDIR
 10
1.0
 20
0.0
 30
0.0
  9
$UCSYDIR
 10
0.0
 20
1.0
 30
0.0
  9
$UCSORTHOREF
  2

  9
$UCSORTHOVIEW
 70
     0
  9
$UCSORGTOP
 10
0.0
 20
0.0
 30
0.0
  9
$UCSORGBOTTOM
 10
0.0
 20
0.0
 30
0.0
  9
$UCSORGLEFT
 10
0.0
 20
0.0
 30
0.0
  9
$UCSORGRIGHT
 10
0.0
 20
0.0
 30
0.0
  9
$UCSORGFRONT
 10
0.0
 20
0.0
 30
0.0
  9
$UCSORGBACK
 10
0.0
 20
0.0
 30
0.0
  9
$PUCSBASE
  2

  9
$PUCSNAME
  2

  9
$PUCSORG
 10
0.0
 20
0.0
 30
0.0
  9
$PUCSXDIR
 10
1.0
 20
0.0
 30
0.0
  9
$PUCSYDIR
 10
0.0
 20
1.0
 30
0.0
  9
$PUCSORTHOREF
  2

  9
$PUCSORTHOVIEW
 70
     0
  9
$PUCSORGTOP
 10
0.0
 20
0.0
 30
0.0
  9
$PUCSORGBOTTOM
 10
0.0
 20
0.0
 30
0.0
  9
$PUCSORGLEFT
 10
0.0
 20
0.0
 30
0.0
  9
$PUCSORGRIGHT
 10
0.0
 20
0.0
 30
0.0
  9
$PUCSORGFRONT
 10
0.0
 20
0.0
 30
0.0
  9
$PUCSORGBACK
 10
0.0
 20
0.0
 30
0.0
  9
$USERI1
 70
     0
  9
$USERI2
 70
     0
  9
$USERI3
 70
     0
  9
$USERI4
 70
     0
  9
$USERI5
 70
     0
  9
$USERR1
 40
0.0
  9
$USERR2
 40
0.0
  9
$USERR3
 40
0.0
  9
$USERR4
 40
0.0
  9
$USERR5
 40
0.0
  9
$WORLDVIEW
 70
     1
  9
$SHADEDGE
 70
     3
  9
$SHADEDIF
 70
    70
  9
$TILEMODE
 70
     1
  9
$MAXACTVP
 70
    16
  9
$PINSBASE
 10
0.0
 20
0.0
 30
0.0
  9
$PLIMCHECK
 70
     0
  9
$PEXTMIN
 10
1.000000000000000E+20
 20
1.000000000000000E+20
 30
1.000000000000000E+20
  9
$PEXTMAX
 10
-1.000000000000000E+20
 20
-1.000000000000000E+20
 30
-1.000000000000000E+20
  9
$PLIMMIN
 10
0.0
 20
0.0
  9
$PLIMMAX
 10
12.0
 20
9.0
  9
$UNITMODE
 70
     0
  9
$VISRETAIN
 70
     0
  9
$PLINEGEN
 70
     0
  9
$PSLTSCALE
 70
     0
  9
$TREEDEPTH
 70
  3020
  9
$CMLSTYLE
  2
STANDARD
  9
$CMLJUST
 70
     0
  9
$CMLSCALE
 40
1.0
  9
$PROXYGRAPHICS
 70
     1
  9
$MEASUREMENT
 70
     0
  9
$CELWEIGHT
370
    -1
  9
$ENDCAPS
280
     0
  9
$JOINSTYLE
280
     0
  9
$LWDISPLAY
290
     0
  9
$INSUNITS
 70
     0
  9
$HYPERLINKBASE
  1

  9
$STYLESHEET
  1
BLK1500.CTB
  9
$XEDIT
290
     1
  9
$CEPSNTYPE
380
     0
  9
$PSTYLEMODE
290
     1
  9
$FINGERPRINTGUID
  2
{7881BD40-4225-11D6-8B45-00A0CCD630B6}
  9
$VERSIONGUID
  2
{9EBB7384-5159-4AEA-918C-06B3C0C57BC5}
  9
$EXTNAMES
290
     1
  9
$PSVPSCALE
 40
0.0
  9
$OLESTARTUP
290
     0
  0
ENDSEC
  0
SECTION
  2
CLASSES
  0
CLASS
  1
DICTIONARYVAR
  2
AcDbDictionaryVar
  3
ObjectDBX Classes
 90
        0
280
     0
281
     0
  0
CLASS
  1
ACDBDICTIONARYWDFLT
  2
AcDbDictionaryWithDefault
  3
ObjectDBX Classes
 90
        0
280
     0
281
     0
  0
CLASS
  1
MATERIAL
  2
AcDbMaterial
  3
ObjectDBX Classes
 90
     1153
280
     0
281
     0
  0
CLASS
  1
VISUALSTYLE
  2
AcDbVisualStyle
  3
ObjectDBX Classes
 90
     4095
280
     0
281
     0
  0
CLASS
  1
TABLESTYLE
  2
AcDbTableStyle
  3
ObjectDBX Classes
 90
     4095
280
     0
281
     0
  0
CLASS
  1
SCALE
  2
AcDbScale
  3
ObjectDBX Classes
 90
     1153
280
     0
281
     0
  0
CLASS
  1
MLEADERSTYLE
  2
AcDbMLeaderStyle
  3
ACDB_MLEADERSTYLE_CLASS
 90
     4095
280
     0
281
     0
  0
CLASS
  1
ACDBSECTIONVIEWSTYLE
  2
AcDbSectionViewStyle
  3
ObjectDBX Classes
 90
     1025
280
     0
281
     0
  0
CLASS
  1
ACDBDETAILVIEWSTYLE
  2
AcDbDetailViewStyle
  3
ObjectDBX Classes
 90
     1025
280
     0
281
     0
  0
CLASS
  1
CELLSTYLEMAP
  2
AcDbCellStyleMap
  3
ObjectDBX Classes
 90
     1152
280
     0
281
     0
  0
CLASS
  1
ACDBPLACEHOLDER
  2
AcDbPlaceHolder
  3
ObjectDBX Classes
 90
        0
280
     0
281
     0
  0
CLASS
  1
LAYOUT
  2
AcDbLayout
  3
ObjectDBX Classes
 90
        0
280
     0
281
     0
  0
ENDSEC
  0
SECTION
  2
TABLES
  0
TABLE
  2
VPORT
  5
8
330
0
100
AcDbSymbolTable
 70
     1
  0
VPORT
  5
BF7
330
8
100
AcDbSymbolTableRecord
100
AcDbViewportTableRecord
  2
*Active
 70
     0
 10
0.0
 20
0.0
 11
1.0
 21
1.0
 12
2.707602500983433
 22
2.078414741359044
 13
0.0
 23
0.0
 14
1.0
 24
1.0
 15
0.0
 25
0.0
 16
0.0
 26
0.0
 36
1.0
 17
0.0
 27
0.0
 37
0.0
 40
4.437439063266844
 41
2.080545229244113
 42
50.0
 43
0.0
 44
0.0
 50
0.0
 51
0.0
 71
     0
 72
  5000
 73
     1
 74
     0
 75
     0
 76
     0
 77
     0
 78
     0
281
     0
 65
     1
110
0.0
120
0.0
130
0.0
111
1.0
121
0.0
131
0.0
112
0.0
122
1.0
132
0.0
 79
     0
146
0.0
1001
ACAD_NAV_VCDISPLAY
1070
     3
  0
ENDTAB
  0
TABLE
  2
LTYPE
  5
5
330
0
100
AcDbSymbolTable
 70
     1
  0
LTYPE
  5
11
330
5
100
AcDbSymbolTableRecord
100
AcDbLinetypeTableRecord
  2
BYBLOCK
 70
     0
  3

 72
    65
 73
     0
 40
0.0
  0
LTYPE
  5
12
330
5
100
AcDbSymbolTableRecord
100
AcDbLinetypeTableRecord
  2
BYLAYER
 70
     0
  3

 72
    65
 73
     0
 40
0.0
  0
LTYPE
  5
13
330
5
100
AcDbSymbolTableRecord
100
AcDbLinetypeTableRecord
  2
CONTINUOUS
 70
     0
  3
Solid line
 72
    65
 73
     0
 40
0.0
  0
ENDTAB
  0
TABLE
  2
LAYER
  5
2
102
{ACAD_XDICTIONARY
360
C6D
102
}
330
0
100
AcDbSymbolTable
 70
     6
  0
LAYER
  5
E
102
{ACAD_XDICTIONARY
360
C60
102
}
330
2
100
AcDbSymbolTableRecord
100
AcDbLayerTableRecord
  2
0
 70
     0
 62
     7
  6
CONTINUOUS
370
    -3
390
BB4
  0
LAYER
  5
31
102
{ACAD_XDICTIONARY
360
C62
102
}
330
2
100
AcDbSymbolTableRecord
100
AcDbLayerTableRecord
  2
2
 70
     0
 62
     2
  6
CONTINUOUS
370
    -3
390
BB4
  0
LAYER
  5
32
102
{ACAD_XDICTIONARY
360
C64
102
}
330
2
100
AcDbSymbolTableRecord
100
AcDbLayerTableRecord
  2
3
 70
     0
 62
     3
  6
CONTINUOUS
370
    -3
390
BB4
  0
LAYER
  5
33
102
{ACAD_XDICTIONARY
360
C66
102
}
330
2
100
AcDbSymbolTableRecord
100
AcDbLayerTableRecord
  2
4
 70
     0
 62
     4
  6
CONTINUOUS
370
    -3
390
BB4
  0
LAYER
  5
34
330
2
100
AcDbSymbolTableRecord
100
AcDbLayerTableRecord
  2
DEFPOINTS
 70
     0
 62
    -7
  6
CONTINUOUS
290
     0
370
    -3
390
BB4
  0
LAYER
  5
35
102
{ACAD_XDICTIONARY
360
C68
102
}
330
2
100
AcDbSymbolTableRecord
100
AcDbLayerTableRecord
  2
DIM
 70
     0
 62
     3
  6
CONTINUOUS
370
    -3
390
BB4
  0
ENDTAB
  0
TABLE
  2
STYLE
  5
3
330
0
100
AcDbSymbolTable
 70
     4
  0
STYLE
  5
F
330
3
100
AcDbSymbolTableRecord
100
AcDbTextStyleTableRecord
  2
STANDARD
 70
     0
 40
0.0
 41
1.0
 50
0.0
 71
     0
 42
0.2
  3
txt
  4

  0
STYLE
  5
28
330
3
100
AcDbSymbolTableRecord
100
AcDbTextStyleTableRecord
  2
SIMPLEX
 70
     0
 40
0.0
 41
1.0
 50
0.0
 71
     0
 42
0.078
  3
SIMPLEX
  4

  0
STYLE
  5
2A
330
3
100
AcDbSymbolTableRecord
100
AcDbTextStyleTableRecord
  2
ROMANS
 70
     0
 40
0.0
 41
1.0
 50
0.0
 71
     0
 42
0.063
  3
romans
  4

  0
STYLE
  5
2B
330
3
100
AcDbSymbolTableRecord
100
AcDbTextStyleTableRecord
  2
T
 70
     0
 40
0.0
 41
1.0
 50
0.0
 71
     0
 42
1.0
  3
ROMI____.PFB
  4

  0
ENDTAB
  0
TABLE
  2
VIEW
  5
6
330
0
100
AcDbSymbolTable
 70
     0
  0
ENDTAB
  0
TABLE
  2
UCS
  5
7
330
0
100
AcDbSymbolTable
 70
     0
  0
ENDTAB
  0
TABLE
  2
APPID
  5
9
330
0
100
AcDbSymbolTable
 70
     4
  0
APPID
  5
10
330
9
100
AcDbSymbolTableRecord
100
AcDbRegAppTableRecord
  2
ACAD
 70
     0
  0
APPID
  5
C4B
330
9
100
AcDbSymbolTableRecord
100
AcDbRegAppTableRecord
  2
ACAD_EXEMPT_FROM_CAD_STANDARDS
 70
     0
  0
APPID
  5
C73
330
9
100
AcDbSymbolTableRecord
100
AcDbRegAppTableRecord
  2
ACAD_NAV_VCDISPLAY
 70
     0
  0
APPID
  5
D23
330
9
100
AcDbSymbolTableRecord
100
AcDbRegAppTableRecord
  2
ACAD_MLEADERVER
 70
     0
  0
ENDTAB
  0
TABLE
  2
DIMSTYLE
  5
A
330
0
100
AcDbSymbolTable
 70
     1
100
AcDbDimStyleTable
 71
     1
340
BAF
  0
DIMSTYLE
105
BAF
102
{ACAD_REACTORS
330
C52
102
}
330
A
100
AcDbSymbolTableRecord
100
AcDbDimStyleTableRecord
  2
STANDARD
 70
     0
340
F
  0
ENDTAB
  0
TABLE
  2
BLOCK_RECORD
  5
1
330
0
100
AcDbSymbolTable
 70
    10
  0
BLOCK_RECORD
  5
17
330
1
100
AcDbSymbolTableRecord
100
AcDbBlockTableRecord
  2
*MODEL_SPACE
340
BB7
  0
BLOCK_RECORD
  5
14
330
1
100
AcDbSymbolTableRecord
100
AcDbBlockTableRecord
  2
*PAPER_SPACE
340
BB8
  0
BLOCK_RECORD
  5
1C
330
1
100
AcDbSymbolTableRecord
100
AcDbBlockTableRecord
  2
*D0
340
0
  0
BLOCK_RECORD
  5
1D
330
1
100
AcDbSymbolTableRecord
100
AcDbBlockTableRecord
  2
*D1
340
0
  0
BLOCK_RECORD
  5
1E
330
1
100
AcDbSymbolTableRecord
100
AcDbBlockTableRecord
  2
*D2
340
0
  0
BLOCK_RECORD
  5
1F
330
1
100
AcDbSymbolTableRecord
100
AcDbBlockTableRecord
  2
*D3
340
0
  0
BLOCK_RECORD
  5
20
330
1
100
AcDbSymbolTableRecord
100
AcDbBlockTableRecord
  2
*D4
340
0
  0
BLOCK_RECORD
  5
21
330
1
100
AcDbSymbolTableRecord
100
AcDbBlockTableRecord
  2
*D5
340
0
  0
BLOCK_RECORD
  5
23
330
1
100
AcDbSymbolTableRecord
100
AcDbBlockTableRecord
  2
*D6
340
0
  0
BLOCK_RECORD
  5
27
330
1
100
AcDbSymbolTableRecord
100
AcDbBlockTableRecord
  2
*D7
340
0
  0
BLOCK_RECORD
  5
BCF
330
1
100
AcDbSymbolTableRecord
100
AcDbBlockTableRecord
  2
*D8
340
0
  0
BLOCK_RECORD
  5
C53
330
1
100
AcDbSymbolTableRecord
100
AcDbBlockTableRecord
  2
*D9
340
0
  0
ENDTAB
  0
ENDSEC
  0
SECTION
  2
BLOCKS
  0
BLOCK
  5
38
330
17
100
AcDbEntity
  8
0
100
AcDbBlockBegin
  2
*MODEL_SPACE
 70
     0
 10
0.0
 20
0.0
 30
0.0
  3
*MODEL_SPACE
  1

  0
ENDBLK
  5
39
330
17
100
AcDbEntity
  8
0
100
AcDbBlockEnd
  0
BLOCK
  5
36
330
14
100
AcDbEntity
 67
     1
  8
0
100
AcDbBlockBegin
  2
*PAPER_SPACE
 70
     0
 10
0.0
 20
0.0
 30
0.0
  3
*PAPER_SPACE
  1

  0
ENDBLK
  5
37
330
14
100
AcDbEntity
 67
     1
  8
0
100
AcDbBlockEnd
  0
BLOCK
  5
3C
330
1C
100
AcDbEntity
  8
0
100
AcDbBlockBegin
  2
*D0
 70
     1
 10
0.0
 20
0.0
 30
0.0
  3
*D0
  1

  0
LINE
  5
3D
330
1C
100
AcDbEntity
  8
0
  6
ByBlock
 62
     0
100
AcDbLine
 10
2.726314417837826
 20
1.52866808822487
 30
0.0
 11
2.976314417837826
 21
1.52866808822487
 31
0.0
  0
LINE
  5
3E
330
1C
100
AcDbEntity
  8
0
  6
ByBlock
 62
     0
100
AcDbLine
 10
2.361314417837826
 20
2.35666808822487
 30
0.0
 11
2.976314417837826
 21
2.35666808822487
 31
0.0
  0
LINE
  5
3F
330
1C
100
AcDbEntity
  8
0
  6
ByBlock
 62
     0
100
AcDbLine
 10
2.945314417837825
 20
1.59116808822487
 30
0.0
 11
2.945314417837825
 21
1.80391808822487
 31
0.0
  0
LINE
  5
40
330
1C
100
AcDbEntity
  8
0
  6
ByBlock
 62
     0
100
AcDbLine
 10
2.945314417837825
 20
2.29416808822487
 30
0.0
 11
2.945314417837825
 21
2.08141808822487
 31
0.0
  0
SOLID
  5
41
330
1C
100
AcDbEntity
  8
0
  6
ByBlock
 62
     0
100
AcDbTrace
 10
2.934897751171158
 20
1.59116808822487
 30
0.0
 11
2.955731084504491
 21
1.59116808822487
 31
0.0
 12
2.945314417837825
 22
1.52866808822487
 32
0.0
 13
2.945314417837825
 23
1.52866808822487
 33
0.0
  0
SOLID
  5
42
330
1C
100
AcDbEntity
  8
0
  6
ByBlock
 62
     0
100
AcDbTrace
 10
2.934897751171158
 20
2.29416808822487
 30
0.0
 11
2.955731084504491
 21
2.29416808822487
 31
0.0
 12
2.945314417837825
 22
2.35666808822487
 32
0.0
 13
2.945314417837825
 23
2.35666808822487
 33
0.0
  0
TEXT
  5
43
330
1C
100
AcDbEntity
  8
0
  6
ByBlock
 62
     0
100
AcDbText
 10
2.976564417837825
 20
1.837013326320108
 30
0.0
 40
0.0625
  1
.828
 50
90.0
  7
ROMANS
 72
     1
 11
2.945314417837825
 21
1.94266808822487
 31
0.0
100
AcDbText
 73
     2
  0
POINT
  5
45
330
1C
100
AcDbEntity
  8
DEFPOINTS
  6
ByBlock
 62
     0
100
AcDbPoint
 10
2.695314417837825
 20
1.52866808822487
 30
0.0
  0
POINT
  5
46
330
1C
100
AcDbEntity
  8
DEFPOINTS
  6
ByBlock
 62
     0
100
AcDbPoint
 10
2.330314417837826
 20
2.35666808822487
 30
0.0
  0
POINT
  5
47
330
1C
100
AcDbEntity
  8
DEFPOINTS
  6
ByBlock
 62
     0
100
AcDbPoint
 10
2.945314417837825
 20
2.35666808822487
 30
0.0
  0
ENDBLK
  5
48
330
1C
100
AcDbEntity
  8
0
100
AcDbBlockEnd
  0
BLOCK
  5
49
330
1D
100
AcDbEntity
  8
0
100
AcDbBlockBegin
  2
*D1
 70
     1
 10
0.0
 20
0.0
 30
0.0
  3
*D1
  1

  0
LINE
  5
4A
330
1D
100
AcDbEntity
  8
0
  6
ByBlock
 62
     0
100
AcDbLine
 10
2.726314417837826
 20
1.52866808822487
 30
0.0
 11
3.101314417837826
 21
1.52866808822487
 31
0.0
  0
LINE
  5
4B
330
1D
100
AcDbEntity
  8
0
  6
ByBlock
 62
     0
100
AcDbLine
 10
2.361314417837826
 20
2.934668088224869
 30
0.0
 11
3.101314417837826
 21
2.934668088224869
 31
0.0
  0
LINE
  5
4C
330
1D
100
AcDbEntity
  8
0
  6
ByBlock
 62
     0
100
AcDbLine
 10
3.070314417837825
 20
1.59116808822487
 30
0.0
 11
3.070314417837825
 21
2.066132373939155
 31
0.0
  0
LINE
  5
4D
330
1D
100
AcDbEntity
  8
0
  6
ByBlock
 62
     0
100
AcDbLine
 10
3.070314417837825
 20
2.872168088224869
 30
0.0
 11
3.070314417837825
 21
2.397203802510584
 31
0.0
  0
SOLID
  5
4E
330
1D
100
AcDbEntity
  8
0
  6
ByBlock
 62
     0
100
AcDbTrace
 10
3.059897751171158
 20
1.59116808822487
 30
0.0
 11
3.080731084504491
 21
1.59116808822487
 31
0.0
 12
3.070314417837825
 22
1.52866808822487
 32
0.0
 13
3.070314417837825
 23
1.52866808822487
 33
0.0
  0
SOLID
  5
4F
330
1D
100
AcDbEntity
  8
0
  6
ByBlock
 62
     0
100
AcDbTrace
 10
3.059897751171158
 20
2.872168088224869
 30
0.0
 11
3.080731084504491
 21
2.872168088224869
 31
0.0
 12
3.070314417837825
 22
2.934668088224869
 32
0.0
 13
3.070314417837825
 23
2.934668088224869
 33
0.0
  0
TEXT
  5
50
330
1D
100
AcDbEntity
  8
0
  6
ByBlock
 62
     0
100
AcDbText
 10
3.101564417837825
 20
2.093275231082012
 30
0.0
 40
0.0625
  1
1.406
 50
90.0
  7
ROMANS
 72
     1
 11
3.070314417837825
 21
2.23166808822487
 31
0.0
100
AcDbText
 73
     2
  0
POINT
  5
51
330
1D
100
AcDbEntity
  8
DEFPOINTS
  6
ByBlock
 62
     0
100
AcDbPoint
 10
2.695314417837825
 20
1.52866808822487
 30
0.0
  0
POINT
  5
52
330
1D
100
AcDbEntity
  8
DEFPOINTS
  6
ByBlock
 62
     0
100
AcDbPoint
 10
2.330314417837826
 20
2.934668088224869
 30
0.0
  0
POINT
  5
53
330
1D
100
AcDbEntity
  8
DEFPOINTS
  6
ByBlock
 62
     0
100
AcDbPoint
 10
3.070314417837825
 20
2.934668088224869
 30
0.0
  0
ENDBLK
  5
54
330
1D
100
AcDbEntity
  8
0
100
AcDbBlockEnd
  0
BLOCK
  5
55
330
1E
100
AcDbEntity
  8
0
100
AcDbBlockBegin
  2
*D2
 70
     1
 10
0.0
 20
0.0
 30
0.0
  3
*D2
  1

  0
LINE
  5
56
330
1E
100
AcDbEntity
  8
0
  6
ByBlock
 62
     0
100
AcDbLine
 10
1.965314417837826
 20
1.49766808822487
 30
0.0
 11
1.965314417837826
 21
1.37266808822487
 31
0.0
  0
LINE
  5
57
330
1E
100
AcDbEntity
  8
0
  6
ByBlock
 62
     0
100
AcDbLine
 10
2.695314417837825
 20
1.49766808822487
 30
0.0
 11
2.695314417837825
 21
1.37266808822487
 31
0.0
  0
LINE
  5
58
330
1E
100
AcDbEntity
  8
0
  6
ByBlock
 62
     0
100
AcDbLine
 10
2.027814417837825
 20
1.40366808822487
 30
0.0
 11
2.191564417837826
 21
1.40366808822487
 31
0.0
  0
LINE
  5
59
330
1E
100
AcDbEntity
  8
0
  6
ByBlock
 62
     0
100
AcDbLine
 10
2.632814417837826
 20
1.40366808822487
 30
0.0
 11
2.469064417837826
 21
1.40366808822487
 31
0.0
  0
SOLID
  5
5A
330
1E
100
AcDbEntity
  8
0
  6
ByBlock
 62
     0
100
AcDbTrace
 10
2.027814417837825
 20
1.414084754891536
 30
0.0
 11
2.027814417837825
 21
1.393251421558202
 31
0.0
 12
1.965314417837826
 22
1.40366808822487
 32
0.0
 13
1.965314417837826
 23
1.40366808822487
 33
0.0
  0
SOLID
  5
5B
330
1E
100
AcDbEntity
  8
0
  6
ByBlock
 62
     0
100
AcDbTrace
 10
2.632814417837826
 20
1.414084754891536
 30
0.0
 11
2.632814417837826
 21
1.393251421558202
 31
0.0
 12
2.695314417837825
 22
1.40366808822487
 32
0.0
 13
2.695314417837825
 23
1.40366808822487
 33
0.0
  0
TEXT
  5
5C
330
1E
100
AcDbEntity
  8
0
  6
ByBlock
 62
     0
100
AcDbText
 10
2.224659655933064
 20
1.37241808822487
 30
0.0
 40
0.0625
  1
.730
  7
ROMANS
 72
     1
 11
2.330314417837826
 21
1.40366808822487
 31
0.0
100
AcDbText
 73
     2
  0
POINT
  5
5D
330
1E
100
AcDbEntity
  8
DEFPOINTS
  6
ByBlock
 62
     0
100
AcDbPoint
 10
1.965314417837826
 20
1.52866808822487
 30
0.0
  0
POINT
  5
5E
330
1E
100
AcDbEntity
  8
DEFPOINTS
  6
ByBlock
 62
     0
100
AcDbPoint
 10
2.695314417837825
 20
1.52866808822487
 30
0.0
  0
POINT
  5
5F
330
1E
100
AcDbEntity
  8
DEFPOINTS
  6
ByBlock
 62
     0
100
AcDbPoint
 10
2.695314417837825
 20
1.40366808822487
 30
0.0
  0
ENDBLK
  5
60
330
1E
100
AcDbEntity
  8
0
100
AcDbBlockEnd
  0
BLOCK
  5
61
330
1F
100
AcDbEntity
  8
0
100
AcDbBlockBegin
  2
*D3
 70
     1
 10
0.0
 20
0.0
 30
0.0
  3
*D3
  1

  0
LINE
  5
62
330
1F
100
AcDbEntity
  8
0
  6
ByBlock
 62
     0
100
AcDbLine
 10
1.92051110898371
 20
2.478395234138254
 30
0.0
 11
1.860598344531353
 21
2.496191600499858
 31
0.0
  0
LINE
  5
63
330
1F
100
AcDbEntity
  8
0
  6
ByBlock
 62
     0
100
AcDbLine
 10
1.860598344531353
 20
2.496191600499858
 30
0.0
 11
1.798098344531353
 21
2.496191600499859
 31
0.0
  0
SOLID
  5
64
330
1F
100
AcDbEntity
  8
0
  6
ByBlock
 62
     0
100
AcDbTrace
 10
1.917545047923441
 20
2.468409773396194
 30
0.0
 11
1.923477170043977
 21
2.488380694880313
 31
0.0
 12
1.980423873436065
 22
2.460598867776647
 32
0.0
 13
1.980423873436065
 23
2.460598867776647
 33
0.0
  0
LINE
  5
65
330
1F
100
AcDbEntity
  8
0
  6
ByBlock
 62
     0
100
AcDbLine
 10
2.267814417837826
 20
2.35666808822487
 30
0.0
 11
2.392814417837826
 21
2.35666808822487
 31
0.0
  0
LINE
  5
66
330
1F
100
AcDbEntity
  8
0
  6
ByBlock
 62
     0
100
AcDbLine
 10
2.330314417837826
 20
2.29416808822487
 30
0.0
 11
2.330314417837826
 21
2.41916808822487
 31
0.0
  0
TEXT
  5
67
330
1F
100
AcDbEntity
  8
0
  6
ByBlock
 62
     0
100
AcDbText
 10
1.491193582626591
 20
2.464941600499858
 30
0.0
 40
0.0625
  1
R.365
  7
ROMANS
 72
     1
 11
1.628098344531353
 21
2.496191600499858
 31
0.0
100
AcDbText
 73
     2
  0
POINT
  5
68
330
1F
100
AcDbEntity
  8
DEFPOINTS
  6
ByBlock
 62
     0
100
AcDbPoint
 10
1.980423873436065
 20
2.460598867776647
 30
0.0
  0
POINT
  5
69
330
1F
100
AcDbEntity
  8
DEFPOINTS
  6
ByBlock
 62
     0
100
AcDbPoint
 10
2.330314417837826
 20
2.35666808822487
 30
0.0
  0
ENDBLK
  5
6A
330
1F
100
AcDbEntity
  8
0
100
AcDbBlockEnd
  0
BLOCK
  5
6B
330
20
100
AcDbEntity
  8
0
100
AcDbBlockBegin
  2
*D4
 70
     1
 10
0.0
 20
0.0
 30
0.0
  3
*D4
  1

  0
LINE
  5
6C
330
20
100
AcDbEntity
  8
0
  6
ByBlock
 62
     0
100
AcDbLine
 10
2.175744817519897
 20
2.950737498139014
 30
0.0
 11
2.06912847758386
 21
3.112189838862575
 31
0.0
  0
LINE
  5
6D
330
20
100
AcDbEntity
  8
0
  6
ByBlock
 62
     0
100
AcDbLine
 10
2.06912847758386
 20
3.112189838862575
 30
0.0
 11
2.00662847758386
 21
3.112189838862575
 31
0.0
  0
SOLID
  5
6E
330
20
100
AcDbEntity
  8
0
  6
ByBlock
 62
     0
100
AcDbTrace
 10
2.167052400336515
 20
2.944997391175336
 30
0.0
 11
2.18443723470328
 21
2.956477605102693
 31
0.0
 12
2.210185459301966
 22
2.898582995038715
 32
0.0
 13
2.210185459301966
 23
2.898582995038715
 33
0.0
  0
LINE
  5
6F
330
20
100
AcDbEntity
  8
0
  6
ByBlock
 62
     0
100
AcDbLine
 10
2.267814417837825
 20
2.716668088224869
 30
0.0
 11
2.392814417837825
 21
2.716668088224869
 31
0.0
  0
LINE
  5
70
330
20
100
AcDbEntity
  8
0
  6
ByBlock
 62
     0
100
AcDbLine
 10
2.330314417837825
 20
2.654168088224869
 30
0.0
 11
2.330314417837825
 21
2.779168088224869
 31
0.0
  0
TEXT
  5
71
330
20
100
AcDbEntity
  8
0
  6
ByBlock
 62
     0
100
AcDbText
 10
1.699723715679097
 20
3.080939838862575
 30
0.0
 40
0.0625
  1
R.218
  7
ROMANS
 72
     1
 11
1.836628477583859
 21
3.112189838862575
 31
0.0
100
AcDbText
 73
     2
  0
POINT
  5
72
330
20
100
AcDbEntity
  8
DEFPOINTS
  6
ByBlock
 62
     0
100
AcDbPoint
 10
2.210185459301966
 20
2.898582995038715
 30
0.0
  0
POINT
  5
73
330
20
100
AcDbEntity
  8
DEFPOINTS
  6
ByBlock
 62
     0
100
AcDbPoint
 10
2.330314417837825
 20
2.716668088224869
 30
0.0
  0
ENDBLK
  5
74
330
20
100
AcDbEntity
  8
0
100
AcDbBlockEnd
  0
BLOCK
  5
75
330
21
100
AcDbEntity
  8
0
100
AcDbBlockBegin
  2
*D5
 70
     1
 10
0.0
 20
0.0
 30
0.0
  3
*D5
  1

  0
LINE
  5
76
330
21
100
AcDbEntity
  8
0
  6
ByBlock
 62
     0
100
AcDbLine
 10
2.726314417837826
 20
1.52866808822487
 30
0.0
 11
2.851314417837826
 21
1.52866808822487
 31
0.0
  0
LINE
  5
77
330
21
100
AcDbEntity
  8
0
  6
ByBlock
 62
     0
100
AcDbLine
 10
2.361314417837826
 20
1.91866808822487
 30
0.0
 11
2.851314417837826
 21
1.91866808822487
 31
0.0
  0
LINE
  5
78
330
21
100
AcDbEntity
  8
0
  6
ByBlock
 62
     0
100
AcDbLine
 10
2.820314417837825
 20
1.46616808822487
 30
0.0
 11
2.820314417837825
 21
1.40366808822487
 31
0.0
  0
LINE
  5
79
330
21
100
AcDbEntity
  8
0
  6
ByBlock
 62
     0
100
AcDbLine
 10
2.820314417837825
 20
1.98116808822487
 30
0.0
 11
2.820314417837825
 21
2.04366808822487
 31
0.0
  0
SOLID
  5
7A
330
21
100
AcDbEntity
  8
0
  6
ByBlock
 62
     0
100
AcDbTrace
 10
2.809897751171159
 20
1.46616808822487
 30
0.0
 11
2.830731084504491
 21
1.46616808822487
 31
0.0
 12
2.820314417837825
 22
1.52866808822487
 32
0.0
 13
2.820314417837825
 23
1.52866808822487
 33
0.0
  0
SOLID
  5
7B
330
21
100
AcDbEntity
  8
0
  6
ByBlock
 62
     0
100
AcDbTrace
 10
2.809897751171159
 20
1.98116808822487
 30
0.0
 11
2.830731084504491
 21
1.98116808822487
 31
0.0
 12
2.820314417837825
 22
1.91866808822487
 32
0.0
 13
2.820314417837825
 23
1.91866808822487
 33
0.0
  0
TEXT
  5
7C
330
21
100
AcDbEntity
  8
0
  6
ByBlock
 62
     0
100
AcDbText
 10
2.851564417837825
 20
1.618013326320109
 30
0.0
 40
0.0625
  1
.390
 50
90.0
  7
ROMANS
 72
     1
 11
2.820314417837825
 21
1.72366808822487
 31
0.0
100
AcDbText
 73
     2
  0
POINT
  5
7D
330
21
100
AcDbEntity
  8
DEFPOINTS
  6
ByBlock
 62
     0
100
AcDbPoint
 10
2.695314417837825
 20
1.52866808822487
 30
0.0
  0
POINT
  5
7E
330
21
100
AcDbEntity
  8
DEFPOINTS
  6
ByBlock
 62
     0
100
AcDbPoint
 10
2.330314417837826
 20
1.91866808822487
 30
0.0
  0
POINT
  5
7F
330
21
100
AcDbEntity
  8
DEFPOINTS
  6
ByBlock
 62
     0
100
AcDbPoint
 10
2.820314417837825
 20
1.91866808822487
 30
0.0
  0
ENDBLK
  5
80
330
21
100
AcDbEntity
  8
0
100
AcDbBlockEnd
  0
BLOCK
  5
81
330
23
100
AcDbEntity
  8
0
100
AcDbBlockBegin
  2
*D6
 70
     1
 10
0.0
 20
0.0
 30
0.0
  3
*D6
  1

  0
LINE
  5
82
330
23
100
AcDbEntity
  8
0
  6
ByBlock
 62
     0
100
AcDbLine
 10
2.181268371993438
 20
2.288248235710026
 30
0.0
 11
1.84710915216717
 21
2.134851851341291
 31
0.0
  0
LINE
  5
83
330
23
100
AcDbEntity
  8
0
  6
ByBlock
 62
     0
100
AcDbLine
 10
1.84710915216717
 20
2.134851851341291
 30
0.0
 11
1.784609152167165
 21
2.134851851341299
 31
0.0
  0
SOLID
  5
84
330
23
100
AcDbEntity
  8
0
  6
ByBlock
 62
     0
100
AcDbTrace
 10
2.185614145146058
 20
2.278781388285968
 30
0.0
 11
2.176922598840818
 21
2.297715083134086
 31
0.0
 12
2.238069456537793
 22
2.314322874625743
 32
0.0
 13
2.238069456537793
 23
2.314322874625743
 33
0.0
  0
LINE
  5
85
330
23
100
AcDbEntity
  8
0
  6
ByBlock
 62
     0
100
AcDbLine
 10
2.267814417837826
 20
2.356668088224868
 30
0.0
 11
2.392814417837826
 21
2.356668088224868
 31
0.0
  0
LINE
  5
86
330
23
100
AcDbEntity
  8
0
  6
ByBlock
 62
     0
100
AcDbLine
 10
2.330314417837826
 20
2.294168088224868
 30
0.0
 11
2.330314417837826
 21
2.419168088224868
 31
0.0
  0
TEXT
  5
87
330
23
100
AcDbEntity
  8
0
  6
ByBlock
 62
     0
100
AcDbText
 10
1.479192485500502
 20
2.103601851341291
 30
0.0
 40
0.0625
  1
%%c.203
  7
ROMANS
 72
     1
 11
1.611632961690979
 21
2.134851851341291
 31
0.0
100
AcDbText
 73
     2
  0
POINT
  5
88
330
23
100
AcDbEntity
  8
DEFPOINTS
  6
ByBlock
 62
     0
100
AcDbPoint
 10
2.238069456537793
 20
2.314322874625743
 30
0.0
  0
POINT
  5
89
330
23
100
AcDbEntity
  8
DEFPOINTS
  6
ByBlock
 62
     0
100
AcDbPoint
 10
2.422559379137858
 20
2.399013301823992
 30
0.0
  0
ENDBLK
  5
8A
330
23
100
AcDbEntity
  8
0
100
AcDbBlockEnd
  0
BLOCK
  5
99
330
27
100
AcDbEntity
  8
0
100
AcDbBlockBegin
  2
*D7
 70
     1
 10
0.0
 20
0.0
 30
0.0
  3
*D7
  1

  0
LINE
  5
9A
330
27
100
AcDbEntity
  8
0
  6
ByBlock
 62
     0
100
AcDbLine
 10
1.558342107833988
 20
2.243946401351505
 30
0.0
 11
1.256431868408086
 21
2.207868419701656
 31
0.0
  0
SOLID
  5
9B
330
27
100
AcDbEntity
  8
0
  6
ByBlock
 62
     0
100
AcDbTrace
 10
1.559578095744108
 20
2.233603322586916
 30
0.0
 11
1.557106119923868
 21
2.254289480116093
 31
0.0
 12
1.620400580421518
 22
2.251362328812223
 32
0.0
 13
1.620400580421518
 23
2.251362328812223
 33
0.0
  0
LINE
  5
9C
330
27
100
AcDbEntity
  8
0
  6
ByBlock
 62
     0
100
AcDbLine
 10
1.813581487482148
 20
2.281915949950381
 30
0.0
 11
1.938581487482148
 21
2.281915949950381
 31
0.0
  0
LINE
  5
9D
330
27
100
AcDbEntity
  8
0
  6
ByBlock
 62
     0
100
AcDbLine
 10
1.876081487482148
 20
2.219415949950381
 30
0.0
 11
1.876081487482148
 21
2.344415949950381
 31
0.0
  0
TEXT
  5
9E
330
27
100
AcDbEntity
  8
0
  6
ByBlock
 62
     0
100
AcDbText
 10
0.948931868408087
 20
2.176368419701658
 30
0.0
 40
0.063
  1
%%c.515
  7
ROMANS
 72
     1
 11
1.082431868408087
 21
2.207868419701658
 31
0.0
100
AcDbText
 73
     2
  0
POINT
  5
9F
330
27
100
AcDbEntity
  8
DEFPOINTS
  6
ByBlock
 62
     0
100
AcDbPoint
 10
1.620400580421518
 20
2.251362328812223
 30
0.0
  0
POINT
  5
A0
330
27
100
AcDbEntity
  8
DEFPOINTS
  6
ByBlock
 62
     0
100
AcDbPoint
 10
2.131762394542776
 20
2.312469571088541
 30
0.0
  0
ENDBLK
  5
A1
330
27
100
AcDbEntity
  8
0
100
AcDbBlockEnd
  0
BLOCK
  5
BD8
330
BCF
100
AcDbEntity
  8
0
100
AcDbBlockBegin
  2
*D8
 70
     1
 10
0.0
 20
0.0
 30
0.0
  3
*D8
  1

  0
LINE
  5
BEA
330
BCF
100
AcDbEntity
  8
DIM
 62
     0
370
    -2
100
AcDbLine
 10
3.228400312008368
 20
3.149683231316186
 30
0.0
 11
3.165900312008368
 21
3.149683231316186
 31
0.0
  0
LINE
  5
BEB
330
BCF
100
AcDbEntity
  8
DIM
 62
     0
370
    -2
100
AcDbLine
 10
3.378400312008368
 20
3.149683231316186
 30
0.0
 11
3.440900312008368
 21
3.149683231316186
 31
0.0
  0
MTEXT
  5
BEC
330
BCF
100
AcDbEntity
  8
DIM
 62
     0
100
AcDbMText
 10
3.708003223271931
 20
3.106783106261396
 30
0.0
 40
0.063
 41
0.0
 71
     5
 72
     1
  1
\A1;.025+.005\P   -.000
  7
ROMANS
 73
     1
 44
1.0
1001
ACAD
1000
MTEXTBEGIN
1070
    73
1070
     1
1070
    44
1040
1.0
1070
    74
1070
     0
1000
MTEXTEND
  0
SOLID
  5
BED
330
BCF
100
AcDbEntity
  8
DIM
 62
     0
100
AcDbTrace
 10
3.228400312008368
 20
3.160099897982853
 30
0.0
 11
3.228400312008368
 21
3.13926656464952
 31
0.0
 12
3.290900312008368
 22
3.149683231316186
 32
0.0
 13
3.290900312008368
 23
3.149683231316186
 33
0.0
  0
SOLID
  5
BEE
330
BCF
100
AcDbEntity
  8
DIM
 62
     0
100
AcDbTrace
 10
3.378400312008368
 20
3.160099897982853
 30
0.0
 11
3.378400312008368
 21
3.13926656464952
 31
0.0
 12
3.315900312008368
 22
3.149683231316186
 32
0.0
 13
3.315900312008368
 23
3.149683231316186
 33
0.0
  0
POINT
  5
BEF
330
BCF
100
AcDbEntity
  8
DEFPOINTS
 62
     0
100
AcDbPoint
 10
3.290900312008368
 20
3.149683231316186
 30
0.0
  0
POINT
  5
BF0
330
BCF
100
AcDbEntity
  8
DEFPOINTS
 62
     0
100
AcDbPoint
 10
3.315900312008368
 20
3.149683231316186
 30
0.0
  0
POINT
  5
BF1
330
BCF
100
AcDbEntity
  8
DEFPOINTS
 62
     0
100
AcDbPoint
 10
3.315900312008368
 20
3.149683231316186
 30
0.0
  0
ENDBLK
  5
BD9
330
BCF
100
AcDbEntity
  8
0
100
AcDbBlockEnd
  0
BLOCK
  5
C54
330
C53
100
AcDbEntity
  8
0
100
AcDbBlockBegin
  2
*D9
 70
     1
 10
0.0
 20
0.0
 30
0.0
  3
*D9
  1

  0
LINE
  5
C56
330
C53
100
AcDbEntity
  8
DIM
 62
     0
370
    -2
100
AcDbLine
 10
3.290900312008368
 20
1.86091594995038
 30
0.0
 11
3.290900312008368
 21
1.668499476872346
 31
0.0
  0
LINE
  5
C57
330
C53
100
AcDbEntity
  8
DIM
 62
     0
370
    -2
100
AcDbLine
 10
3.315900312008368
 20
1.86091594995038
 30
0.0
 11
3.315900312008368
 21
1.668499476872346
 31
0.0
  0
LINE
  5
C58
330
C53
100
AcDbEntity
  8
DIM
 62
     0
370
    -2
100
AcDbLine
 10
3.228400312008368
 20
1.699499476872347
 30
0.0
 11
3.165900312008368
 21
1.699499476872347
 31
0.0
  0
LINE
  5
C59
330
C53
100
AcDbEntity
  8
DIM
 62
     0
370
    -2
100
AcDbLine
 10
3.378400312008368
 20
1.699499476872347
 30
0.0
 11
3.440900312008368
 21
1.699499476872347
 31
0.0
  0
MTEXT
  5
C5A
330
C53
100
AcDbEntity
  8
DIM
 62
     0
100
AcDbMText
 10
3.303400312008368
 20
1.519999476872347
 30
0.0
 40
0.063
 41
0.0
 71
     5
 72
     1
  1
\A1;.025
  7
ROMANS
 73
     1
 44
1.0
1001
ACAD
1000
MTEXTBEGIN
1070
    73
1070
     1
1070
    44
1040
1.0
1070
    74
1070
     0
1000
MTEXTEND
  0
SOLID
  5
C5B
330
C53
100
AcDbEntity
  8
DIM
 62
     0
100
AcDbTrace
 10
3.228400312008368
 20
1.709916143539014
 30
0.0
 11
3.228400312008368
 21
1.689082810205679
 31
0.0
 12
3.290900312008368
 22
1.699499476872347
 32
0.0
 13
3.290900312008368
 23
1.699499476872347
 33
0.0
  0
SOLID
  5
C5C
330
C53
100
AcDbEntity
  8
DIM
 62
     0
100
AcDbTrace
 10
3.378400312008368
 20
1.709916143539014
 30
0.0
 11
3.378400312008368
 21
1.689082810205679
 31
0.0
 12
3.315900312008368
 22
1.699499476872347
 32
0.0
 13
3.315900312008368
 23
1.699499476872347
 33
0.0
  0
POINT
  5
C5D
330
C53
100
AcDbEntity
  8
DEFPOINTS
 62
     0
100
AcDbPoint
 10
3.290900312008368
 20
1.891915949950379
 30
0.0
  0
POINT
  5
C5E
330
C53
100
AcDbEntity
  8
DEFPOINTS
 62
     0
100
AcDbPoint
 10
3.315900312008368
 20
1.891915949950379
 30
0.0
  0
POINT
  5
C5F
330
C53
100
AcDbEntity
  8
DEFPOINTS
 62
     0
100
AcDbPoint
 10
3.315900312008368
 20
1.699499476872347
 30
0.0
  0
ENDBLK
  5
C55
330
C53
100
AcDbEntity
  8
0
100
AcDbBlockEnd
  0
ENDSEC
  0
SECTION
  2
ENTITIES
  0
LINE
  5
A2
330
17
100
AcDbEntity
  8
0
100
AcDbLine
 10
2.515463770247667
 20
0.7907614910692598
 30
0.0
 11
3.023453708637739
 21
0.7907614910692598
 31
0.0
  0
LINE
  5
A3
330
17
100
AcDbEntity
  8
0
100
AcDbLine
 10
2.515463770247667
 20
0.8493757147296443
 30
0.0
 11
3.023453708637739
 21
0.8493757147296443
 31
0.0
  0
TEXT
  5
A4
330
17
100
AcDbEntity
  8
3
100
AcDbText
 10
2.530749094796046
 20
0.8085053807423868
 30
0.0
 40
0.0247685554963471
  1
DIMENSIONS ARE IN INCHES
 41
0.9163641132346473
  7
SIMPLEX
 72
     5
 11
3.007386418059825
 21
0.8085053807423868
 31
0.0
100
AcDbText
  0
TEXT
  5
A6
330
17
100
AcDbEntity
  8
3
100
AcDbText
 10
2.530749094796046
 20
0.8686223556239712
 30
0.0
 40
0.0247685554963471
  1
UNLESS OTHERWISE SPECIFIED
 41
0.8436671689696863
  7
SIMPLEX
 72
     5
 11
3.007386418059825
 21
0.8686223556239712
 31
0.0
100
AcDbText
  0
LINE
  5
A7
330
17
100
AcDbEntity
  8
0
100
AcDbLine
 10
2.515463770247667
 20
0.4703652144782371
 30
0.0
 11
3.023453708637739
 21
0.4703652144782371
 31
0.0
  0
LINE
  5
A8
330
17
100
AcDbEntity
  8
0
100
AcDbLine
 10
2.515463770247667
 20
0.9080003499999783
 30
0.0
 11
5.087499999999998
 21
0.9080003499999783
 31
0.0
  0
LINE
  5
AA
330
17
100
AcDbEntity
  8
4
100
AcDbLine
 10
5.525
 20
-0.0000000000000009
 30
0.0
 11
0.0
 21
0.0
 31
0.0
  0
LINE
  5
AB
330
17
100
AcDbEntity
  8
4
100
AcDbLine
 10
5.087499999999998
 20
0.3999999999999995
 30
0.0
 11
0.4375
 21
0.3999999999999999
 31
0.0
  0
LINE
  5
AC
330
17
100
AcDbEntity
  8
4
100
AcDbLine
 10
5.087499999999998
 20
3.849999999999998
 30
0.0
 11
0.4375
 21
3.849999999999998
 31
0.0
  0
LINE
  5
AD
330
17
100
AcDbEntity
  8
4
100
AcDbLine
 10
0.0
 20
0.0
 30
0.0
 11
0.0
 21
4.249999999999999
 31
0.0
  0
LINE
  5
AE
330
17
100
AcDbEntity
  8
4
100
AcDbLine
 10
0.4375
 20
0.3999999999999999
 30
0.0
 11
0.4375
 21
3.849999999999998
 31
0.0
  0
LINE
  5
B2
330
17
100
AcDbEntity
  8
3
100
AcDbLine
 10
0.4997541236310516
 20
0.9859375
 30
0.0
 11
0.4375
 21
0.9859375
 31
0.0
  0
TEXT
  5
B3
330
17
100
AcDbEntity
  8
2
100
AcDbText
 10
0.4515626831023309
 20
1.32725451580751
 30
0.0
 40
0.039
  1
4
  7
SIMPLEX
 72
     1
 11
0.4654912545309024
 21
1.32725451580751
 31
0.0
100
AcDbText
  0
LINE
  5
B4
330
17
100
AcDbEntity
  8
3
100
AcDbLine
 10
0.4997541236310516
 20
1.701953125
 30
0.0
 11
0.4375
 21
1.701953125
 31
0.0
  0
TEXT
  5
B5
330
17
100
AcDbEntity
  8
2
100
AcDbText
 10
0.4524912545309014
 20
2.015287115886782
 30
0.0
 40
0.039
  1
3
  7
SIMPLEX
 72
     1
 11
0.4654912545309015
 21
2.015287115886782
 31
0.0
100
AcDbText
  0
LINE
  5
B6
330
17
100
AcDbEntity
  8
4
100
AcDbLine
 10
2.515463770247667
 20
0.9080003499999783
 30
0.0
 11
2.515463770247667
 21
0.3999999999999781
 31
0.0
  0
TEXT
  5
C1
330
17
100
AcDbEntity
  8
3
100
AcDbText
 10
2.603645037256163
 20
0.4837903071869252
 30
0.0
 40
0.0309098445084086
  1
HOLES %%P .005
  7
SIMPLEX
 72
     1
 11
2.771441336016095
 21
0.4837903071869252
 31
0.0
100
AcDbText
  0
TEXT
  5
C2
330
17
100
AcDbEntity
  8
3
100
AcDbText
 10
2.648975444724134
 20
0.4390075042868844
 30
0.0
 40
0.0210186942657178
  1
DO NOT SCALE
  7
SIMPLEX
 72
     1
 11
2.767080488693406
 21
0.4390075042868844
 31
0.0
100
AcDbText
  0
TEXT
  5
C3
330
17
100
AcDbEntity
  8
3
100
AcDbText
 10
2.630959421067805
 20
0.4090610619738455
 30
0.0
 40
0.0210186942657178
  1
READ ALL NOTES
  7
SIMPLEX
 72
     1
 11
2.767080488693406
 21
0.4090610619738455
 31
0.0
100
AcDbText
  0
TEXT
  5
C4
330
17
100
AcDbEntity
  8
3
100
AcDbText
 10
2.627931343655627
 20
0.7437735996279118
 30
0.0
 40
0.0309098445084086
  1
TOLERANCES
  7
SIMPLEX
 72
     1
 11
2.771441336016095
 21
0.7437735996279118
 31
0.0
100
AcDbText
  0
TEXT
  5
C5
330
17
100
AcDbEntity
  8
3
100
AcDbText
 10
2.640442471194744
 20
0.6957435266731649
 30
0.0
 40
0.0309098445084086
  1
.XX %%P .000
  7
SIMPLEX
 72
     1
 11
2.771441336016095
 21
0.6957435266731649
 31
0.0
100
AcDbText
  0
TEXT
  5
C6
330
17
100
AcDbEntity
  8
3
100
AcDbText
 10
2.610268575365108
 20
0.6427552218015995
 30
0.0
 40
0.0309098445084086
  1
.XXX %%P .010 
  7
SIMPLEX
 72
     1
 11
2.771441336016095
 21
0.6427552218015995
 31
0.0
100
AcDbText
  0
TEXT
  5
C7
330
17
100
AcDbEntity
  8
3
100
AcDbText
 10
2.589662012359501
 20
0.5367786120584901
 30
0.0
 40
0.0309098445084086
  1
ANGLES %%P 1/2%%D
  7
SIMPLEX
 72
     1
 11
2.771441336016095
 21
0.5367786120584901
 31
0.0
100
AcDbText
  0
TEXT
  5
C8
330
17
100
AcDbEntity
  8
3
100
AcDbText
 10
2.544769142954432
 20
0.5897669169300555
 30
0.0
 40
0.0309098445084086
  1
FRACTIONS %%P 1/32
  7
SIMPLEX
 72
     1
 11
2.771441336016095
 21
0.5897669169300555
 31
0.0
100
AcDbText
  0
LINE
  5
CB
330
17
100
AcDbEntity
  8
3
100
AcDbLine
 10
0.4997541236310516
 20
2.41796875
 30
0.0
 11
0.4375
 21
2.41796875
 31
0.0
  0
TEXT
  5
CC
330
17
100
AcDbEntity
  8
2
100
AcDbText
 10
0.4577848028218758
 20
2.728760659287496
 30
0.0
 40
0.039
  1
2
  7
SIMPLEX
 72
     1
 11
0.4707848028218759
 21
2.728760659287496
 31
0.0
100
AcDbText
  0
LINE
  5
CD
330
17
100
AcDbEntity
  8
3
100
AcDbLine
 10
0.4997541236310516
 20
3.133984374999998
 30
0.0
 11
0.4375
 21
3.133984374999998
 31
0.0
  0
TEXT
  5
CE
330
17
100
AcDbEntity
  8
2
100
AcDbText
 10
0.4608483973880452
 20
3.448040936982698
 30
0.0
 40
0.039
  1
1
  7
SIMPLEX
 72
     1
 11
0.4654912545309024
 21
3.448040936982698
 31
0.0
100
AcDbText
  0
TEXT
  5
CF
330
17
100
AcDbEntity
  8
2
100
AcDbText
 10
0.9233020597463571
 20
3.786279509760205
 30
0.0
 40
0.039
  1
A
  7
SIMPLEX
 72
     1
 11
0.9381592026035001
 21
3.786279509760205
 31
0.0
100
AcDbText
  0
LINE
  5
D0
330
17
100
AcDbEntity
  8
3
100
AcDbLine
 10
1.316009878505441
 20
3.787563112303041
 30
0.0
 11
1.316009878505441
 21
3.85
 31
0.0
  0
TEXT
  5
D1
330
17
100
AcDbEntity
  8
2
100
AcDbText
 10
1.684820131100889
 20
3.786279509760205
 30
0.0
 40
0.039
  1
B
  7
SIMPLEX
 72
     1
 11
1.697820131100889
 21
3.786279509760205
 31
0.0
100
AcDbText
  0
LINE
  5
D2
330
17
100
AcDbEntity
  8
3
100
AcDbLine
 10
2.070307902804351
 20
3.787563112303041
 30
0.0
 11
2.070307902804351
 21
3.85
 31
0.0
  0
TEXT
  5
D3
330
17
100
AcDbEntity
  8
2
100
AcDbText
 10
2.421691742025896
 20
3.786279509760205
 30
0.0
 40
0.039
  1
C
  7
SIMPLEX
 72
     1
 11
2.435620313454468
 21
3.786279509760205
 31
0.0
100
AcDbText
  0
LINE
  5
D4
330
17
100
AcDbEntity
  8
3
100
AcDbLine
 10
2.824605927103263
 20
3.787563112303041
 30
0.0
 11
2.824605927103263
 21
3.85
 31
0.0
  0
LINE
  5
D5
330
17
100
AcDbEntity
  8
4
100
AcDbLine
 10
5.524999999999997
 20
4.25
 30
0.0
 11
5.525
 21
-0.0000000000000009
 31
0.0
  0
LINE
  5
D6
330
17
100
AcDbEntity
  8
4
100
AcDbLine
 10
5.087499999999998
 20
3.849999999999998
 30
0.0
 11
5.0875
 21
0.4000000000000005
 31
0.0
  0
TEXT
  5
D7
330
17
100
AcDbEntity
  8
3
100
AcDbText
 10
4.802472048449138
 20
0.5780697219512656
 30
0.0
 40
0.0195380745534632
  1
SCALE:
  7
SIMPLEX
100
AcDbText
  0
TEXT
  5
D8
330
17
100
AcDbEntity
  8
3
100
AcDbText
 10
4.548405844675931
 20
0.4294761699672535
 30
0.0
 40
0.039
  1
5511.76
  7
SIMPLEX
 72
     1
 11
4.655191558961646
 21
0.4294761699672535
 31
0.0
100
AcDbText
  0
LINE
  5
D9
330
17
100
AcDbEntity
  8
0
100
AcDbLine
 10
4.386742347626951
 20
0.544418568244936
 30
0.0
 11
5.0875
 21
0.544418568244936
 31
0.0
  0
LINE
  5
DA
330
17
100
AcDbEntity
  8
0
100
AcDbLine
 10
3.023453708637718
 20
0.7534255236954444
 30
0.0
 11
5.0875
 21
0.7534255236954444
 31
0.0
  0
LINE
  5
DB
330
17
100
AcDbEntity
  8
0
100
AcDbLine
 10
3.023453708637718
 20
0.6344568946415388
 30
0.0
 11
5.0875
 21
0.6344568946415388
 31
0.0
  0
LINE
  5
DC
330
17
100
AcDbEntity
  8
0
100
AcDbLine
 10
3.023453708637739
 20
0.3999999999999781
 30
0.0
 11
3.023453708637739
 21
0.9079899383900292
 31
0.0
  0
LINE
  5
DD
330
17
100
AcDbEntity
  8
0
100
AcDbLine
 10
3.023453708637739
 20
0.5674612305743733
 30
0.0
 11
4.386742347626951
 21
0.5674612305743733
 31
0.0
  0
TEXT
  5
DE
330
17
100
AcDbEntity
  8
3
100
AcDbText
 10
3.043253008279623
 20
0.5930385316707488
 30
0.0
 40
0.0195380745534632
  1
FILE PATH
  7
SIMPLEX
100
AcDbText
  0
TEXT
  5
DF
330
17
100
AcDbEntity
  8
3
100
AcDbText
 10
3.040137464097638
 20
0.5244943552773444
 30
0.0
 40
0.0195380745534632
  1
MAT'L DESCRIPTION:
  7
SIMPLEX
100
AcDbText
  0
TEXT
  5
E0
330
17
100
AcDbEntity
  8
3
100
AcDbText
 10
3.044302834263338
 20
0.7126091928553993
 30
0.0
 40
0.0195380745534632
  1
NAME:
  7
SIMPLEX
100
AcDbText
  0
TEXT
  5
E2
330
17
100
AcDbEntity
  8
3
100
AcDbText
 10
3.457886643327622
 20
0.5863608505722211
 30
0.0
 40
0.0290726549355533
  1
DWG/PART NO/551176
  7
SIMPLEX
 72
     1
 11
3.707080828489508
 21
0.5863608505722211
 31
0.0
100
AcDbText
  0
TEXT
  5
E3
330
17
100
AcDbEntity
  8
3
100
AcDbText
 10
4.40529491002648
 20
0.5077942279632879
 30
0.0
 40
0.02
  1
PART/DWG. NO.
  7
SIMPLEX
100
AcDbText
  0
LINE
  5
E4
330
17
100
AcDbEntity
  8
0
100
AcDbLine
 10
4.386742347626951
 20
0.3999999999999781
 30
0.0
 11
4.386742347626951
 21
0.6344568946415388
 31
0.0
  0
TEXT
  5
E5
330
17
100
AcDbEntity
  8
3
100
AcDbText
 10
3.692761712061255
 20
0.6555745713440233
 30
0.0
 40
0.0390761491069264
  1
INSULATOR-BASE PLATE
  7
SIMPLEX
 72
     1
 11
4.055611668054143
 21
0.6555745713440233
 31
0.0
100
AcDbText
  0
TEXT
  5
E6
330
17
100
AcDbEntity
  8
3
100
AcDbText
 10
4.616012085940513
 20
0.5808757110786713
 30
0.0
 40
0.0193817699570355
  1
OF
  7
SIMPLEX
100
AcDbText
  0
TEXT
  5
E7
330
17
100
AcDbEntity
  8
3
100
AcDbText
 10
4.415369994580626
 20
0.5810417607120339
 30
0.0
 40
0.02
  1
SHEET
  7
SIMPLEX
100
AcDbText
  0
TEXT
  5
E8
330
17
100
AcDbEntity
  8
3
100
AcDbText
 10
4.547953593100948
 20
0.5703496723007852
 30
0.0
 40
0.0390761491069264
  1
1
  7
SIMPLEX
100
AcDbText
  0
TEXT
  5
E9
330
17
100
AcDbEntity
  8
3
100
AcDbText
 10
4.700213043047613
 20
0.5703496723007852
 30
0.0
 40
0.0390761491069264
  1
1
  7
SIMPLEX
100
AcDbText
  0
LINE
  5
EA
330
17
100
AcDbEntity
  8
0
100
AcDbLine
 10
4.750001827106558
 20
0.544418568244936
 30
0.0
 11
4.750001827106558
 21
0.6344568946415388
 31
0.0
  0
LINE
  5
F0
330
17
100
AcDbEntity
  8
0
100
AcDbLine
 10
4.919877395704181
 20
0.3999999999999995
 30
0.0
 11
4.919877395704181
 21
0.544418568244936
 31
0.0
  0
TEXT
  5
F1
330
17
100
AcDbEntity
  8
3
100
AcDbText
 10
4.993016208098384
 20
0.4294761699672535
 30
0.0
 40
0.039
  1
D
  7
SIMPLEX
 72
     1
 11
5.006016208098384
 21
0.4294761699672535
 31
0.0
100
AcDbText
  0
TEXT
  5
F2
330
17
100
AcDbEntity
  8
3
100
AcDbText
 10
4.978968976002731
 20
0.5076734181816667
 30
0.0
 40
0.0195380745534632
  1
REV.
  7
SIMPLEX
100
AcDbText
  0
TEXT
  5
F3
330
17
100
AcDbEntity
  8
3
100
AcDbText
 10
4.936077670549225
 20
0.5741210261090735
 30
0.0
 40
0.039
  1
2=1
  7
SIMPLEX
 72
     1
 11
4.983434813406367
 21
0.5741210261090735
 31
0.0
100
AcDbText
  0
TEXT
  5
F4
330
17
100
AcDbEntity
  8
2
100
AcDbText
 10
3.931940368805913
 20
3.786279509760205
 30
0.0
 40
0.039
  1
E
  7
SIMPLEX
 72
     1
 11
3.944011797377342
 21
3.786279509760205
 31
0.0
100
AcDbText
  0
TEXT
  5
F5
330
17
100
AcDbEntity
  8
2
100
AcDbText
 10
3.165885682344001
 20
3.786279509760205
 30
0.0
 40
0.039
  1
D
  7
SIMPLEX
 72
     1
 11
3.178885682344001
 21
3.786279509760205
 31
0.0
100
AcDbText
  0
LINE
  5
F6
330
17
100
AcDbEntity
  8
3
100
AcDbLine
 10
3.578903951402174
 20
3.787563112303041
 30
0.0
 11
3.578903951402174
 21
3.85
 31
0.0
  0
LINE
  5
F7
330
17
100
AcDbEntity
  8
3
100
AcDbLine
 10
4.333201975701086
 20
3.787563112303041
 30
0.0
 11
4.333201975701086
 21
3.85
 31
0.0
  0
TEXT
  5
F8
330
17
100
AcDbEntity
  8
2
100
AcDbText
 10
4.686136110767352
 20
3.786279509760205
 30
0.0
 40
0.039
  1
F
  7
SIMPLEX
 72
     1
 11
4.698207539338781
 21
3.786279509760205
 31
0.0
100
AcDbText
  0
LINE
  5
F9
330
17
100
AcDbEntity
  8
4
100
AcDbLine
 10
5.524999999999997
 20
4.25
 30
0.0
 11
0.0
 21
4.249999999999999
 31
0.0
  0
LINE
  5
100
330
17
100
AcDbEntity
  8
4
100
AcDbLine
 10
0.1403007185307619
 20
0.0
 30
0.0
 11
0.0
 21
0.0
 31
0.0
  0
LINE
  5
101
330
17
100
AcDbEntity
  8
4
100
AcDbLine
 10
0.0
 20
0.0
 30
0.0
 11
0.0
 21
0.0701030413486854
 31
0.0
  0
LINE
  5
10C
330
17
100
AcDbEntity
  8
0
100
AcDbLine
 10
1.511081487482148
 20
2.719915949950379
 30
0.0
 11
1.511081487482148
 21
1.89191594995038
 31
0.0
  0
LINE
  5
10D
330
17
100
AcDbEntity
  8
0
100
AcDbLine
 10
1.511081487482148
 20
1.89191594995038
 30
0.0
 11
2.241081487482147
 21
1.891915949950379
 31
0.0
  0
LINE
  5
10E
330
17
100
AcDbEntity
  8
0
100
AcDbLine
 10
2.241081487482147
 20
2.719915949950379
 30
0.0
 11
2.241081487482147
 21
1.89191594995038
 31
0.0
  0
ARC
  5
10F
330
17
100
AcDbEntity
  8
0
100
AcDbCircle
 10
1.876081487482147
 20
2.719915949950379
 30
0.0
 40
0.365
100
AcDbArc
 50
154.8109497819706
 51
180.0
  0
LINE
  5
110
330
17
100
AcDbEntity
  8
0
100
AcDbLine
 10
2.206373055860129
 20
2.875262272270584
 30
0.0
 11
2.072118363434466
 21
3.175276021609618
 31
0.0
  0
ARC
  5
111
330
17
100
AcDbEntity
  8
0
100
AcDbCircle
 10
1.876081487482147
 20
2.719915949950379
 30
0.0
 40
0.365
100
AcDbArc
 50
0.0
 51
25.1890502180256
  0
CIRCLE
  5
112
330
17
100
AcDbEntity
  8
0
100
AcDbCircle
 10
1.876081487482147
 20
2.719915949950379
 30
0.0
 40
0.1015
  0
LINE
  5
113
330
17
100
AcDbEntity
  8
0
100
AcDbLine
 10
3.290900312008368
 20
3.297915949950381
 30
0.0
 11
3.315900312008368
 21
3.297915949950381
 31
0.0
  0
LINE
  5
114
330
17
100
AcDbEntity
  8
0
100
AcDbLine
 10
3.315900312008368
 20
3.297915949950381
 30
0.0
 11
3.315900312008368
 21
1.891915949950379
 31
0.0
  0
LINE
  5
115
330
17
100
AcDbEntity
  8
0
100
AcDbLine
 10
3.290900312008368
 20
1.891915949950379
 30
0.0
 11
3.315900312008368
 21
1.891915949950379
 31
0.0
  0
LINE
  5
116
330
17
100
AcDbEntity
  8
0
100
AcDbLine
 10
3.290900312008368
 20
3.297915949950381
 30
0.0
 11
3.290900312008368
 21
1.891915949950379
 31
0.0
  0
LINE
  5
117
330
17
100
AcDbEntity
  8
0
100
AcDbLine
 10
3.290900312008368
 20
2.821415949950381
 30
0.0
 11
3.315900312008368
 21
2.821415949950381
 31
0.0
  0
LINE
  5
118
330
17
100
AcDbEntity
  8
0
100
AcDbLine
 10
3.290900312008368
 20
2.618415949950379
 30
0.0
 11
3.315900312008368
 21
2.618415949950379
 31
0.0
  0
LINE
  5
119
330
17
100
AcDbEntity
  8
0
100
AcDbLine
 10
3.290900312008368
 20
2.53191594995038
 30
0.0
 11
3.315900312008368
 21
2.53191594995038
 31
0.0
  0
LINE
  5
11A
330
17
100
AcDbEntity
  8
0
100
AcDbLine
 10
3.290900312008368
 20
2.031915949950381
 30
0.0
 11
3.315900312008368
 21
2.031915949950381
 31
0.0
  0
DIMENSION
  5
11D
330
17
100
AcDbEntity
  8
DIM
100
AcDbDimension
  2
*D1
 10
2.616081487482147
 20
3.297915949950381
 30
0.0
 11
2.616081487482147
 21
2.59491594995038
 31
0.0
 12
-0.4542329303556781
 22
0.3632478617255104
 32
0.0
 71
     5
 42
-1.0
100
AcDbAlignedDimension
 13
2.241081487482147
 23
1.891915949950379
 33
0.0
 14
1.876081487482147
 24
3.297915949950381
 34
0.0
 50
90.0
100
AcDbRotatedDimension
  0
DIMENSION
  5
11E
330
17
100
AcDbEntity
  8
DIM
100
AcDbDimension
  2
*D2
 10
2.241081487482147
 20
1.76691594995038
 30
0.0
 11
1.876081487482148
 21
1.76691594995038
 31
0.0
 12
-0.4542329303556781
 22
0.3632478617255104
 32
0.0
 71
     5
 42
-1.0
100
AcDbAlignedDimension
 13
1.511081487482148
 23
1.89191594995038
 33
0.0
 14
2.241081487482147
 24
1.891915949950379
 34
0.0
100
AcDbRotatedDimension
  0
ARC
  5
120
330
17
100
AcDbEntity
  8
0
100
AcDbCircle
 10
1.876081487482147
 20
3.079915949950381
 30
0.0
 40
0.218
100
AcDbArc
 50
22.27645047959349
 51
157.7235495204121
  0
LINE
  5
121
330
17
100
AcDbEntity
  8
0
100
AcDbLine
 10
1.545789919104165
 20
2.875262272270584
 30
0.0
 11
1.680044611529829
 21
3.175276021609618
 31
0.0
  0
CIRCLE
  5
12A
330
17
100
AcDbEntity
  8
0
100
AcDbCircle
 10
1.876081487482147
 20
2.281915949950381
 30
0.0
 40
0.2575
  0
TEXT
  5
12C
330
17
100
AcDbEntity
  8
4
100
AcDbText
 10
4.692893459569394
 20
0.7886849639948838
 30
0.0
 40
0.05
  1
inc., erie, pa.
  7
T
100
AcDbText
  0
LWPOLYLINE
  5
12E
330
17
100
AcDbEntity
  8
4
  6
Continuous
 62
     4
100
AcDbPolyline
 90
      205
 70
     0
 43
0.0
 10
4.656789889684825
 20
0.8557195830449487
 10
4.654837388665996
 20
0.8577443989163205
 10
4.652740257942038
 20
0.8595522702300593
 10
4.650353867807923
 20
0.8611431969861433
 10
4.647822847968675
 20
0.8625894940371383
 10
4.645147198424362
 20
0.8637465316779342
 10
4.64239923402746
 20
0.8646866247610757
 10
4.639506639925492
 20
0.8654097732865626
 10
4.636541730970979
 20
0.8659159772544159
 10
4.6335045071639
 20
0.8661329218120712
 10
4.63046728335682
 20
0.8662052366646156
 10
4.627430059549743
 20
0.8660606069595264
 10
4.624392835742662
 20
0.8656267178442174
 10
4.621427926788126
 20
0.8649758841712749
 10
4.618535332686136
 20
0.8641081059406776
 10
4.615787368289278
 20
0.8630233831524474
 10
4.613111718744923
 20
0.8617217158065411
 10
4.61108690287355
 20
0.8604923633132004
 10
4.609206716707268
 20
0.8591183811147711
 10
4.607398845393528
 20
0.8576720840637761
 10
4.60573560378488
 20
0.856081157307692
 10
4.604144677028817
 20
0.8543456008464978
 10
4.602698379977799
 20
0.8524654146802152
 10
4.601324397779372
 20
0.8505852285139321
 10
4.600167360138575
 20
0.8485604126425389
 10
4.599082637350345
 20
0.8464632819186014
 10
4.598142544267203
 20
0.8442938363421193
 10
4.597419395741716
 20
0.8421243907656375
 10
4.596840876921318
 20
0.8398826303366108
 10
4.596406987806006
 20
0.8375685550550187
 10
4.596117728395808
 20
0.8352544797734477
 10
4.596045413543264
 20
0.8329404044918559
 10
4.596190043248376
 20
0.8306263292102851
 10
4.596262358100918
 20
0.8293969767169445
 10
4.596406987806006
 20
0.8282399390761485
 10
4.596551617511098
 20
0.8270105865828078
 10
4.596840876921318
 20
0.825853548942012
 10
4.597274766036605
 20
0.8247688261537604
 10
4.597780970004438
 20
0.8237564182180745
 10
4.59857643338249
 20
0.8229609548400221
 10
4.599516526465633
 20
0.8223824360196452
 10
4.599950415580941
 20
0.8221654914619904
 10
4.600384304696228
 20
0.8220208617568799
 10
4.600890508664083
 20
0.8220208617568799
 10
4.601324397779372
 20
0.8220208617568799
 10
4.601830601747224
 20
0.8220208617568799
 10
4.602336805715077
 20
0.8220931766094459
 10
4.602915324535476
 20
0.8222378063145347
 10
4.603566158208416
 20
0.822310121167079
 10
4.625043669415605
 20
0.8260704934996667
 10
4.625983762498748
 20
0.8262151232047553
 10
4.626996170434431
 20
0.8262874380572997
 10
4.627936263517595
 20
0.8264320677624102
 10
4.628948671453259
 20
0.8264320677624102
 10
4.629888764536421
 20
0.8265043826149545
 10
4.630901172472108
 20
0.8265043826149545
 10
4.631841265555252
 20
0.8264320677624102
 10
4.632853673490958
 20
0.8263597529098653
 10
4.633793766574076
 20
0.8262874380572997
 10
4.634806174509785
 20
0.826142808352211
 10
4.635746267592925
 20
0.8259981786471007
 10
4.636686360676065
 20
0.8257812340894671
 10
4.637626453759209
 20
0.8255642895318128
 10
4.63856654684235
 20
0.8253473449741582
 10
4.639506639925492
 20
0.825058085563959
 10
4.640374418156089
 20
0.8246965113012157
 10
4.642543863732591
 20
0.8235394736604197
 10
4.644351735046309
 20
0.8219485469043357
 10
4.645653402392215
 20
0.8200683607380529
 10
4.646593495475335
 20
0.8178989151615711
 10
4.647099699443191
 20
0.8156571547325446
 10
4.647172014295735
 20
0.8132707645984078
 10
4.646882754885556
 20
0.8108843744642715
 10
4.646159606360048
 20
0.8084979843301345
 10
4.64543645783454
 20
0.8069793724265952
 10
4.644640994456509
 20
0.8055330753756003
 10
4.643628586520803
 20
0.8042314080297153
 10
4.642543863732591
 20
0.8030020555363746
 10
4.641386826091798
 20
0.8018450178955786
 10
4.640085158745891
 20
0.8008326099598928
 10
4.638638861694896
 20
0.7999648317292956
 10
4.63719256464392
 20
0.7991693683512644
 10
4.63567395274038
 20
0.7985185346783006
 10
4.634155340836842
 20
0.798084645563013
 10
4.632492099228191
 20
0.7977230713002694
 10
4.630901172472108
 20
0.7975061267426148
 10
4.629310245716025
 20
0.7974338118900705
 10
4.627647004107375
 20
0.7975784415951592
 10
4.62605607735129
 20
0.7978677010053581
 10
4.624465150595206
 20
0.7983739049732117
 10
4.623163483249321
 20
0.7988801089410658
 10
4.621934130755983
 20
0.7994586277614422
 10
4.620704778262641
 20
0.8000371465818403
 10
4.619547740621844
 20
0.8007602951073485
 10
4.618390702981049
 20
0.8014834436328353
 10
4.617305980192798
 20
0.8022789070108878
 10
4.616293572257132
 20
0.8031466852414849
 10
4.61520884946888
 20
0.8040867783246261
 10
4.614268756385716
 20
0.8050268714077677
 10
4.613328663302598
 20
0.8059669644909092
 10
4.612388570219434
 20
0.8069793724265952
 10
4.61152079198886
 20
0.8080640952148467
 10
4.61065301375824
 20
0.8091488180030774
 10
4.609857550380209
 20
0.810233540791329
 10
4.609062087002181
 20
0.8113182635795592
 10
4.608338938476672
 20
0.8124753012203552
 10
4.591128003569903
 20
0.8040867783246261
 10
4.592501985768333
 20
0.8018450178955786
 10
4.594092912524418
 20
0.7997478871716412
 10
4.59582846898561
 20
0.7977953861528138
 10
4.597708655151893
 20
0.7960598296916199
 10
4.599733471023288
 20
0.7943965880829913
 10
4.601902916599771
 20
0.7929502910319963
 10
4.604216991881362
 20
0.7916486236861113
 10
4.606531067162931
 20
0.7905639008978599
 10
4.608989772149633
 20
0.7896238078147182
 10
4.61152079198886
 20
0.7888283444366868
 10
4.614124126680629
 20
0.7882498256162889
 10
4.6167274613724
 20
0.7878882513535455
 10
4.61933079606419
 20
0.7876713067958907
 10
4.621934130755983
 20
0.7876713067958907
 10
4.624537465447753
 20
0.7878159365009794
 10
4.627140800139521
 20
0.7882498256162889
 10
4.629744134831334
 20
0.7888283444366868
 10
4.632275154670559
 20
0.7896961226672625
 10
4.634661544804696
 20
0.7907085306029698
 10
4.637047934938811
 20
0.7919378830963101
 10
4.639289695367836
 20
0.7933841801473056
 10
4.64145914094434
 20
0.7949751069033895
 10
4.643411641963167
 20
0.7967106633645617
 10
4.645291828129451
 20
0.7985908495308662
 10
4.647027384590644
 20
0.800615665402238
 10
4.648545996494184
 20
0.8027851109787198
 10
4.649919978692636
 20
0.8050268714077677
 10
4.651149331185954
 20
0.8074132615419042
 10
4.652089424269096
 20
0.8098719665285855
 10
4.652884887647148
 20
0.8124029863678108
 10
4.653463406467547
 20
0.8150063210595808
 10
4.653752665877746
 20
0.8176096557513716
 10
4.653897295582835
 20
0.8196344716227653
 10
4.65382498073029
 20
0.8216592874941365
 10
4.653608036172657
 20
0.8236841033655302
 10
4.65324646190989
 20
0.8256366043843577
 10
4.652667943089495
 20
0.8275891054032065
 10
4.651944794564006
 20
0.8294692915694891
 10
4.65107701633341
 20
0.8312771628832271
 10
4.64999229354518
 20
0.8330127193444003
 10
4.649124515314562
 20
0.8340974421326519
 10
4.648184422231441
 20
0.8351821649208826
 10
4.647172014295735
 20
0.836122258004045
 10
4.646087291507504
 20
0.8369177213820766
 10
4.644857939014141
 20
0.837713184760129
 10
4.643628586520803
 20
0.8384363332856159
 10
4.642326919174918
 20
0.839014852106014
 10
4.641025251829031
 20
0.8395933709264118
 10
4.639651269630601
 20
0.8400272600416995
 10
4.638277287432151
 20
0.840461149157009
 10
4.636830990381158
 20
0.8408227234197525
 10
4.635384693330181
 20
0.8411119828299515
 10
4.633938396279186
 20
0.8413289273876063
 10
4.632492099228191
 20
0.8414735570926948
 10
4.631045802177219
 20
0.8416181867977837
 10
4.629671819978768
 20
0.8416905016503497
 10
4.62880404174817
 20
0.8416905016503497
 10
4.627863948665029
 20
0.8416905016503497
 10
4.626996170434431
 20
0.8416905016503497
 10
4.626128392203858
 20
0.8416181867977837
 10
4.625260613973241
 20
0.8415458719452393
 10
4.624392835742662
 20
0.8414735570926948
 10
4.623525057512066
 20
0.8414012422401507
 10
4.622657279281469
 20
0.8412566125350402
 10
4.621717186198328
 20
0.8411119828299515
 10
4.62084940796773
 20
0.8409673531248412
 10
4.619981629737133
 20
0.8408227234197525
 10
4.619113851506535
 20
0.8407504085672082
 10
4.61824607327596
 20
0.8406057788620977
 10
4.617378295045361
 20
0.840461149157009
 10
4.616438201962222
 20
0.840316519451899
 10
4.615570423731624
 20
0.84017188974681
 10
4.602626065125255
 20
0.8369900362346209
 10
4.602409120567623
 20
0.8382193887279612
 10
4.60255375027271
 20
0.8400995748942657
 10
4.602987639388021
 20
0.8424136501758365
 10
4.603855417618596
 20
0.8450169848676274
 10
4.604940140406846
 20
0.8476203195593974
 10
4.606386437457842
 20
0.8500790245460787
 10
4.608121993919017
 20
0.8521038404174719
 10
4.610074494937864
 20
0.8536224523210112
 10
4.611810051399038
 20
0.8544179156990423
 10
4.613617922712776
 20
0.8550687493720062
 10
4.615498108879058
 20
0.8554303236347495
 10
4.617450609897908
 20
0.8557195830449487
 10
4.619403110916757
 20
0.855791897897493
 10
4.621427926788126
 20
0.8556472681923828
 10
4.623380427806957
 20
0.8554303236347495
 10
4.625332928825804
 20
0.8549964345194405
 10
4.627285429844632
 20
0.8544179156990423
 10
4.62909330115837
 20
0.8536947671735555
 10
4.630828857619543
 20
0.8528269889429587
 10
4.632492099228191
 20
0.8518868958598169
 10
4.634010711131731
 20
0.8508021730715869
 10
4.635457008182726
 20
0.8495728205782462
 10
4.636686360676065
 20
0.8482711532323399
 10
4.637698768611773
 20
0.846897171033911
 10
4.656789889684825
 20
0.8557195830449487
  0
LWPOLYLINE
  5
1FD
330
17
100
AcDbEntity
  8
4
  6
Continuous
100
AcDbPolyline
 90
       21
 70
     0
 43
0.0
 10
4.456892716839432
 20
0.8489219869052824
 10
4.456675772281757
 20
0.8466802264762558
 10
4.456024938608813
 20
0.8445830957523188
 10
4.455012530673127
 20
0.84277522443858
 10
4.453638548474676
 20
0.8411842976824958
 10
4.451975306866071
 20
0.8398826303366108
 10
4.450095120699766
 20
0.8389425372534697
 10
4.448070304828373
 20
0.8383640184330712
 10
4.445900859251912
 20
0.8381470738754169
 10
4.431365573889459
 20
0.8381470738754169
 10
4.431365573889459
 20
0.8567319909806345
 10
4.4298469619859
 20
0.8602754187555675
 10
4.446117803809545
 20
0.8602754187555675
 10
4.448359564238592
 20
0.8600584741979126
 10
4.450384380109965
 20
0.8594076405249701
 10
4.452192251423702
 20
0.8583952325892628
 10
4.453783178179809
 20
0.8570212503908336
 10
4.455084845525695
 20
0.8552856939296395
 10
4.456024938608813
 20
0.8534055077633563
 10
4.456675772281757
 20
0.8512360621868745
 10
4.456892716839432
 20
0.8489219869052824
  0
LWPOLYLINE
  5
214
330
17
100
AcDbEntity
  8
4
  6
Continuous
100
AcDbPolyline
 90
       61
 70
     0
 43
0.0
 10
4.457254291102156
 20
0.8325788302291126
 10
4.459351421826113
 20
0.8327234599342016
 10
4.461376237697486
 20
0.8330127193444003
 10
4.463184109011224
 20
0.8334466084597098
 10
4.464847350619851
 20
0.8340251272801076
 10
4.466293647670847
 20
0.8347482758055948
 10
4.467667629869277
 20
0.8355437391836472
 10
4.468896982362617
 20
0.8364838322667884
 10
4.469981705150869
 20
0.8375685550550187
 10
4.470921798234032
 20
0.8387255926958149
 10
4.471717261612063
 20
0.8399549451891557
 10
4.472368095285006
 20
0.8412566125350402
 10
4.472874299252858
 20
0.8427029095860357
 10
4.473308188368146
 20
0.8441492066370306
 10
4.473597447778346
 20
0.8456678185405699
 10
4.473742077483433
 20
0.8472587452966539
 10
4.473814392335999
 20
0.8489219869052824
 10
4.473742077483433
 20
0.8504405988088217
 10
4.473452818073258
 20
0.8519592107123614
 10
4.473091243810491
 20
0.8534055077633563
 10
4.472512724990096
 20
0.8548518048143519
 10
4.471861891317152
 20
0.8562257870127812
 10
4.470994113086574
 20
0.8575274543586875
 10
4.470126334855958
 20
0.8587568068520276
 10
4.469041612067726
 20
0.8599138444928026
 10
4.467956889279497
 20
0.8609262524285099
 10
4.466727536786154
 20
0.8618663455116511
 10
4.465425869440271
 20
0.8626618088896826
 10
4.46405188724182
 20
0.8633849574151907
 10
4.462677905043371
 20
0.8639634762355886
 10
4.461231607992396
 20
0.8643250504983319
 10
4.459712996088834
 20
0.8646143099085314
 10
4.458194384185317
 20
0.8646866247610757
 10
4.407501672548137
 20
0.8646866247610757
 10
4.408224821073623
 20
0.8641081059406776
 10
4.408875654746566
 20
0.8635295871202794
 10
4.409526488419508
 20
0.8628787534473369
 10
4.410105007239907
 20
0.8623002346269393
 10
4.410683526060306
 20
0.8617217158065411
 10
4.411262044880701
 20
0.8609985672810543
 10
4.411768248848557
 20
0.8602754187555675
 10
4.412274452816387
 20
0.8594076405249701
 10
4.412997601341897
 20
0.8578167137688861
 10
4.413576120162295
 20
0.855936527602582
 10
4.413937694425016
 20
0.8541286562888432
 10
4.414082324130126
 20
0.8526823592378695
 10
4.414154638982691
 20
0.7876713067958907
 10
4.431582518447092
 20
0.8029297406838303
 10
4.431582518447092
 20
0.8330850341969664
 10
4.439247892817356
 20
0.8331573490495102
 10
4.465353554587704
 20
0.7899130672249174
 10
4.487843473730578
 20
0.7897684375198288
 10
4.486469491532148
 20
0.7905639008978599
 10
4.485095509333718
 20
0.7915039939810013
 10
4.483793841987833
 20
0.7924440870641638
 10
4.482564489494493
 20
0.7935288098523941
 10
4.481335137001153
 20
0.79454121778808
 10
4.480178099360357
 20
0.7956982554288763
 10
4.479021061719561
 20
0.7968552930696723
 10
4.477864024078765
 20
0.798084645563013
 10
4.457254291102156
 20
0.8325788302291126
  0
LWPOLYLINE
  5
253
330
17
100
AcDbEntity
  8
4
  6
Continuous
100
AcDbPolyline
 90
      205
 70
     0
 43
0.0
 10
4.325728170742718
 20
0.8562257870127812
 10
4.32377566972389
 20
0.8582506028841743
 10
4.321678538999951
 20
0.8601307890504569
 10
4.319292148865816
 20
0.8617217158065411
 10
4.31676112902659
 20
0.8630956980049917
 10
4.314085479482256
 20
0.8642527356457881
 10
4.311337515085376
 20
0.8651928287289292
 10
4.308372606130863
 20
0.8659159772544159
 10
4.305407697176328
 20
0.8664221812222699
 10
4.302442788221791
 20
0.8667114406324689
 10
4.299405564414714
 20
0.8667837554850132
 10
4.296296025755092
 20
0.8665668109273585
 10
4.293331116800557
 20
0.8662052366646156
 10
4.290366207846021
 20
0.8655544029916725
 10
4.287473613744053
 20
0.8646866247610757
 10
4.284725649347175
 20
0.8635295871202794
 10
4.282049999802858
 20
0.8622279197743944
 10
4.280025183931443
 20
0.8609985672810543
 10
4.278144997765162
 20
0.8596968999351693
 10
4.276337126451423
 20
0.85817828803163
 10
4.274673884842793
 20
0.8565873612755458
 10
4.27308295808671
 20
0.8548518048143519
 10
4.271636661035739
 20
0.853043933500613
 10
4.27033499368983
 20
0.8510914324817859
 10
4.269105641196488
 20
0.8490666166103927
 10
4.268093233260803
 20
0.8470418007389993
 10
4.267153140177642
 20
0.8448723551625175
 10
4.266429991652153
 20
0.8426305947334913
 10
4.265851472831754
 20
0.8403888343044647
 10
4.265417583716468
 20
0.8381470738754169
 10
4.265200639158813
 20
0.8358329985938464
 10
4.265056009453726
 20
0.8334466084597098
 10
4.265200639158813
 20
0.8311325331781171
 10
4.265272954011358
 20
0.8299754955373213
 10
4.265417583716468
 20
0.8287461430439806
 10
4.265562213421578
 20
0.8275891054032065
 10
4.265851472831754
 20
0.8264320677624102
 10
4.266213047094522
 20
0.8253473449741582
 10
4.266791565914918
 20
0.8243349370384722
 10
4.267514714440406
 20
0.8235394736604197
 10
4.268454807523548
 20
0.8229609548400221
 10
4.268888696638835
 20
0.8227440102823885
 10
4.269322585754143
 20
0.8225993805772782
 10
4.269828789721998
 20
0.8225270657247339
 10
4.270262678837263
 20
0.8225270657247339
 10
4.27076888280512
 20
0.8225993805772782
 10
4.271275086772972
 20
0.8225993805772782
 10
4.271781290740826
 20
0.8227440102823885
 10
4.272432124413768
 20
0.8228163251349329
 10
4.293909635620953
 20
0.8265766974674988
 10
4.294849728704118
 20
0.8267213271726088
 10
4.295862136639783
 20
0.8268659568776978
 10
4.296802229722946
 20
0.8269382717302422
 10
4.297814637658631
 20
0.8270105865828078
 10
4.298754730741771
 20
0.8270105865828078
 10
4.299767138677478
 20
0.8270105865828078
 10
4.3007072317606
 20
0.8270105865828078
 10
4.301719639696305
 20
0.8269382717302422
 10
4.302659732779428
 20
0.8268659568776978
 10
4.303672140715136
 20
0.8267213271726088
 10
4.304612233798274
 20
0.8265766974674988
 10
4.305552326881418
 20
0.8263597529098653
 10
4.306564734817126
 20
0.826142808352211
 10
4.307504827900264
 20
0.825853548942012
 10
4.308372606130863
 20
0.8255642895318128
 10
4.309312699213982
 20
0.8252027152690695
 10
4.311482144790486
 20
0.8240456776282732
 10
4.313217701251681
 20
0.8224547508721895
 10
4.314591683450109
 20
0.8205745647059064
 10
4.315459461680687
 20
0.8184774339819689
 10
4.315965665648541
 20
0.8161633587003766
 10
4.31611029535365
 20
0.8137769685662401
 10
4.315821035943451
 20
0.8113905784321254
 10
4.315097887417963
 20
0.8090765031505327
 10
4.314374738892476
 20
0.8075578912469934
 10
4.313579275514404
 20
0.8061115941959984
 10
4.312566867578738
 20
0.8048099268501134
 10
4.311482144790486
 20
0.8035805743567728
 10
4.310252792297147
 20
0.8024235367159768
 10
4.308951124951262
 20
0.801411128780291
 10
4.307577142752809
 20
0.8005433505496936
 10
4.306130845701814
 20
0.7997478871716412
 10
4.304612233798274
 20
0.7990970534986987
 10
4.303021307042191
 20
0.7985908495308662
 10
4.301430380286107
 20
0.7982292752681017
 10
4.299839453530023
 20
0.798084645563013
 10
4.298176211921373
 20
0.7980123307104681
 10
4.296512970312723
 20
0.7981569604155573
 10
4.294922043556661
 20
0.7984462198257562
 10
4.293331116800557
 20
0.7988801089410658
 10
4.292029449454673
 20
0.7993863129088974
 10
4.290800096961332
 20
0.7999648317292956
 10
4.289643059320535
 20
0.8005433505496936
 10
4.288486021679736
 20
0.8012664990751805
 10
4.287328984038963
 20
0.8019896476006886
 10
4.286244261250712
 20
0.8028574258312859
 10
4.285159538462482
 20
0.8036528892093175
 10
4.284147130526775
 20
0.8045929822924586
 10
4.283207037443633
 20
0.8055330753756003
 10
4.282194629507948
 20
0.8065454833113069
 10
4.281326851277349
 20
0.8075578912469934
 10
4.280459073046753
 20
0.8085702991826792
 10
4.27959129481618
 20
0.8096550219709303
 10
4.278795831438126
 20
0.8108120596117267
 10
4.278000368060073
 20
0.8118967823999573
 10
4.277277219534584
 20
0.8130538200407533
 10
4.260138599480361
 20
0.8045929822924586
 10
4.261512581678792
 20
0.8023512218634321
 10
4.263103508434897
 20
0.800326405992039
 10
4.264839064896068
 20
0.7983739049732117
 10
4.266719251062353
 20
0.7965660336594737
 10
4.268744066933747
 20
0.7949751069033895
 10
4.270913512510229
 20
0.7935288098523941
 10
4.273155272939254
 20
0.7922271425065095
 10
4.275541663073392
 20
0.7911424197182575
 10
4.278000368060073
 20
0.7902023266351161
 10
4.280459073046753
 20
0.7894068632570848
 10
4.283062407738523
 20
0.7888283444366868
 10
4.285665742430313
 20
0.7883944553213775
 10
4.288269077122104
 20
0.7881775107637445
 10
4.290872411813874
 20
0.7881775107637445
 10
4.293475746505666
 20
0.7883944553213775
 10
4.296079081197436
 20
0.788756029584121
 10
4.298682415889228
 20
0.7894068632570848
 10
4.301213435728453
 20
0.7902023266351161
 10
4.303599825862589
 20
0.7912147345708231
 10
4.305986215996727
 20
0.7925164019167081
 10
4.308227976425752
 20
0.7938903841151375
 10
4.310325107149692
 20
0.7954813108712217
 10
4.31234992302106
 20
0.7972168673324156
 10
4.314230109187367
 20
0.7991693683512644
 10
4.315893350795994
 20
0.8011941842226361
 10
4.317484277552099
 20
0.8032913149465736
 10
4.318858259750529
 20
0.8056053902281659
 10
4.320015297391325
 20
0.8079917803622809
 10
4.32102770532701
 20
0.8103781704964177
 10
4.321823168705064
 20
0.8129091903356647
 10
4.322401687525461
 20
0.8155125250274341
 10
4.322690946935638
 20
0.8181881745717703
 10
4.322763261788185
 20
0.8202129904431421
 10
4.322690946935638
 20
0.8222378063145347
 10
4.322474002378006
 20
0.8241903073333622
 10
4.32211242811524
 20
0.8262151232047553
 10
4.321533909294863
 20
0.8280953093710385
 10
4.3208830756219
 20
0.8299754955373213
 10
4.320015297391325
 20
0.8317833668510596
 10
4.318930574603076
 20
0.8335189233122537
 10
4.318062796372498
 20
0.8346759609530501
 10
4.317122703289334
 20
0.8356883688887359
 10
4.31611029535365
 20
0.8366284619718776
 10
4.314953257712853
 20
0.8374962402024747
 10
4.313796220072078
 20
0.8382917035805272
 10
4.312566867578738
 20
0.8389425372534697
 10
4.31126520023283
 20
0.8395933709264118
 10
4.309891218034382
 20
0.8400995748942657
 10
4.30851723583595
 20
0.8406057788620977
 10
4.307143253637523
 20
0.8409673531248412
 10
4.305696956586528
 20
0.8413289273876063
 10
4.304322974388075
 20
0.8416181867977837
 10
4.302876677337103
 20
0.8418351313554389
 10
4.301430380286107
 20
0.8419797610605488
 10
4.299984083235115
 20
0.8421243907656375
 10
4.298610101036683
 20
0.8421967056181822
 10
4.297742322806084
 20
0.8422690204707475
 10
4.296802229722946
 20
0.8422690204707475
 10
4.295934451492348
 20
0.8421967056181822
 10
4.295066673261752
 20
0.8421967056181822
 10
4.294198895031153
 20
0.8421243907656375
 10
4.293258801948011
 20
0.8420520759130932
 10
4.292391023717437
 20
0.8419074462079827
 10
4.291523245486818
 20
0.8418351313554389
 10
4.290655467256241
 20
0.8416905016503497
 10
4.289787689025623
 20
0.8415458719452393
 10
4.288847595942503
 20
0.8414012422401507
 10
4.287979817711907
 20
0.8412566125350402
 10
4.287112039481311
 20
0.8411119828299515
 10
4.286244261250712
 20
0.8409673531248412
 10
4.285304168167572
 20
0.8408227234197525
 10
4.284436389936975
 20
0.8406780937146425
 10
4.271564346183171
 20
0.8375685550550187
 10
4.271275086772972
 20
0.8387979075483597
 10
4.271419716478059
 20
0.8406780937146425
 10
4.271925920445913
 20
0.8429921689962347
 10
4.272721383823967
 20
0.8455955036880256
 10
4.273878421464742
 20
0.8481988383797956
 10
4.27532471851576
 20
0.8506575433664764
 10
4.276987960124386
 20
0.8526823592378695
 10
4.278940461143213
 20
0.8542009711414094
 10
4.280676017604408
 20
0.8549964345194405
 10
4.282483888918124
 20
0.8555749533398387
 10
4.284364075084428
 20
0.8560088424551477
 10
4.286316576103279
 20
0.8562257870127812
 10
4.288269077122104
 20
0.8562981018653468
 10
4.290293892993478
 20
0.8562257870127812
 10
4.292246394012305
 20
0.855936527602582
 10
4.294198895031153
 20
0.8555026384872943
 10
4.296151396050003
 20
0.8549241196668956
 10
4.297959267363742
 20
0.8542009711414094
 10
4.299767138677478
 20
0.8534055077633563
 10
4.301430380286107
 20
0.8524654146802152
 10
4.302948992189648
 20
0.8513806918919632
 10
4.304322974388075
 20
0.8501513393986231
 10
4.305552326881418
 20
0.8488496720527381
 10
4.306637049669668
 20
0.8474756898543088
 10
4.325728170742718
 20
0.8562257870127812
  0
LWPOLYLINE
  5
322
330
17
100
AcDbEntity
  8
4
  6
Continuous
100
AcDbPolyline
 90
      133
 70
     0
 43
0.0
 10
4.342205690097556
 20
0.8612878266912533
 10
4.340976337604218
 20
0.8599861593453679
 10
4.339819299963421
 20
0.8584675474418286
 10
4.338806892027736
 20
0.8568766206857237
 10
4.337722169239505
 20
0.8552133790770952
 10
4.336637446451254
 20
0.8536224523210112
 10
4.335480408810457
 20
0.852031525564927
 10
4.334323371169661
 20
0.8505852285139321
 10
4.332949388971231
 20
0.8493558760205914
 10
4.332443185003377
 20
0.8489943017578481
 10
4.331936981035524
 20
0.8486327274950832
 10
4.331430777067671
 20
0.8482711532323399
 10
4.330924573099839
 20
0.8479095789695964
 10
4.330418369132005
 20
0.8475480047068531
 10
4.329839850311609
 20
0.8471864304441096
 10
4.329261331491212
 20
0.8468248561813663
 10
4.328538182965703
 20
0.8464632819186014
 10
4.354788474441184
 20
0.8464632819186014
 10
4.353631436800387
 20
0.84552318883546
 10
4.352546714012134
 20
0.8445830957523188
 10
4.351534306076429
 20
0.8436430026691768
 10
4.350521898140765
 20
0.8426305947334913
 10
4.349581805057601
 20
0.8415458719452393
 10
4.348641711974459
 20
0.840461149157009
 10
4.347773933743861
 20
0.8393764263687575
 10
4.346978470365828
 20
0.8382193887279612
 10
4.346110692135211
 20
0.8369900362346209
 10
4.345387543609725
 20
0.8356883688887359
 10
4.34466439508424
 20
0.8343143866903066
 10
4.343941246558753
 20
0.8329404044918559
 10
4.343218098033267
 20
0.8314217925883163
 10
4.342567264360301
 20
0.829903180684777
 10
4.341916430687358
 20
0.8282399390761485
 10
4.341337911866959
 20
0.8265043826149545
 10
4.340325503931275
 20
0.8226716954298229
 10
4.339746985110876
 20
0.8188390082447122
 10
4.339674670258334
 20
0.8149340062070359
 10
4.340036244521055
 20
0.8110290041693602
 10
4.34083170789913
 20
0.8072686318367942
 10
4.342133375245014
 20
0.8035805743567728
 10
4.343796616853663
 20
0.8001094614344058
 10
4.345966062430123
 20
0.7969276079222167
 10
4.347050785218376
 20
0.7956259405763317
 10
4.348280137711716
 20
0.7943965880829913
 10
4.349654119910146
 20
0.7931672355896506
 10
4.351172731813706
 20
0.7920825128013992
 10
4.352691343717223
 20
0.7909977900131688
 10
4.354354585325875
 20
0.7899853820774618
 10
4.356090141787069
 20
0.7891176038468857
 10
4.357898013100808
 20
0.7883221404688332
 10
4.359705884414545
 20
0.787598991943346
 10
4.361586070580829
 20
0.7869481582704039
 10
4.363393941894566
 20
0.7864419543025502
 10
4.36527412806085
 20
0.7860803800398068
 10
4.367154314227134
 20
0.7857911206296082
 10
4.368962185540871
 20
0.7857188057770419
 10
4.37077005685461
 20
0.7857188057770419
 10
4.372505613315781
 20
0.7858634354821525
 10
4.374675058892265
 20
0.7862250097448955
 10
4.376844504468769
 20
0.786658898860205
 10
4.378941635192683
 20
0.787237417680603
 10
4.380966451064056
 20
0.78796056620609
 10
4.382991266935471
 20
0.788756029584121
 10
4.384871453101752
 20
0.7896961226672625
 10
4.386751639268036
 20
0.7907808454555143
 10
4.388414880876663
 20
0.7920101979488549
 10
4.390078122485292
 20
0.7933841801473056
 10
4.39152441953631
 20
0.7948304771982792
 10
4.39289840173474
 20
0.7964214039543844
 10
4.39412775422808
 20
0.7981569604155573
 10
4.395212477016331
 20
0.8000371465818403
 10
4.396080255246906
 20
0.8019896476006886
 10
4.396803403772392
 20
0.8041590931771704
 10
4.397381922592791
 20
0.8064008536061974
 10
4.39579099583673
 20
0.8050268714077677
 10
4.39412775422808
 20
0.8037975189144274
 10
4.392319882914341
 20
0.8026404812736311
 10
4.390512011600603
 20
0.8017003881904896
 10
4.38863182543432
 20
0.8008326099598928
 10
4.386679324415491
 20
0.8001094614344058
 10
4.384654508544099
 20
0.799530942614008
 10
4.382629692672706
 20
0.7990970534986987
 10
4.380604876801332
 20
0.7988077940884998
 10
4.378507746077396
 20
0.7987354792359555
 10
4.376482930206003
 20
0.7987354792359555
 10
4.374458114334633
 20
0.7989524237936097
 10
4.372433298463238
 20
0.7993139980563537
 10
4.370480797444388
 20
0.7998925168767512
 10
4.368528296425561
 20
0.800615665402238
 10
4.366648110259278
 20
0.8014834436328353
 10
4.36484023894554
 20
0.8026404812736311
 10
4.363176997336891
 20
0.8038698337669718
 10
4.361658385433373
 20
0.8053161308179667
 10
4.360212088382378
 20
0.8068347427215066
 10
4.358982735889036
 20
0.8085702991826792
 10
4.35782569824824
 20
0.8103058556438734
 10
4.3568856051651
 20
0.812186041810156
 10
4.356017826934501
 20
0.8141385428290048
 10
4.355294678408995
 20
0.8161633587003766
 10
4.354788474441184
 20
0.8181881745717703
 10
4.354354585325875
 20
0.8202853052957072
 10
4.354065325915654
 20
0.8224547508721895
 10
4.353920696210565
 20
0.824551881596127
 10
4.353920696210565
 20
0.8267213271726088
 10
4.354065325915654
 20
0.828890772749091
 10
4.354354585325875
 20
0.8309879034730284
 10
4.355150048703906
 20
0.8334466084597098
 10
4.356017826934501
 20
0.8356160540361912
 10
4.356957920017642
 20
0.8376408699075634
 10
4.358042642805896
 20
0.8395210560738675
 10
4.359199680446693
 20
0.8413289273876063
 10
4.360573662645121
 20
0.8429921689962347
 10
4.362164589401228
 20
0.8447277254574288
 10
4.363972460714965
 20
0.8463909670660571
 10
4.377712282699342
 20
0.8463909670660571
 10
4.378507746077396
 20
0.8463909670660571
 10
4.379447839160538
 20
0.8465355967711671
 10
4.380460247096222
 20
0.8466802264762558
 10
4.38147265503191
 20
0.8469694858864549
 10
4.382485062967615
 20
0.8472587452966539
 10
4.383352841198194
 20
0.8476926344119421
 10
4.384148304576267
 20
0.8481265235272513
 10
4.384726823396642
 20
0.8487050423476494
 10
4.397888126560646
 20
0.8647589396136201
 10
4.350449583288198
 20
0.8647589396136201
 10
4.349075601089748
 20
0.8646866247610757
 10
4.347918563448951
 20
0.8646143099085314
 10
4.34683384066072
 20
0.8643973653508767
 10
4.34589374757758
 20
0.8640357910881332
 10
4.344953654494438
 20
0.8636019019728237
 10
4.344085876263841
 20
0.8630233831524474
 10
4.343145783180699
 20
0.8622279197743944
 10
4.342205690097556
 20
0.8612878266912533
  0
LWPOLYLINE
  5
3A9
330
17
100
AcDbEntity
  8
4
  6
Continuous
100
AcDbPolyline
 90
      138
 70
     0
 43
0.0
 10
4.229398641159426
 20
0.8647589396136201
 10
4.230917253062965
 20
0.8636742168253899
 10
4.232146605556304
 20
0.8624448643320492
 10
4.233159013491992
 20
0.8610708821335986
 10
4.233882162017478
 20
0.8596245850826036
 10
4.234460680837877
 20
0.8581059731790638
 10
4.234822255100644
 20
0.8565150464229798
 10
4.235039199658276
 20
0.8547794899618075
 10
4.235111514510821
 20
0.8529716186480687
 10
4.235111514510821
 20
0.7986631643834106
 10
4.233809847164936
 20
0.7986631643834106
 10
4.232508179819048
 20
0.7987354792359555
 10
4.231206512473163
 20
0.7988801089410658
 10
4.229977159979823
 20
0.7990970534986987
 10
4.228675492633938
 20
0.7993863129088974
 10
4.2274461401406
 20
0.7997478871716412
 10
4.226216787647257
 20
0.8001817762869503
 10
4.225059750006462
 20
0.800615665402238
 10
4.223830397513122
 20
0.8011941842226361
 10
4.222673359872326
 20
0.8017727030430343
 10
4.221588637084074
 20
0.8024235367159768
 10
4.220503914295843
 20
0.8031466852414849
 10
4.219419191507594
 20
0.8039421486195161
 10
4.218334468719359
 20
0.8047376119975691
 10
4.217322060783656
 20
0.8056053902281659
 10
4.216381967700534
 20
0.8064731684587417
 10
4.214718726091886
 20
0.8081364100673908
 10
4.213200114188346
 20
0.8099442813811299
 10
4.211826131989896
 20
0.811824467547413
 10
4.210596779496555
 20
0.8138492834188058
 10
4.209512056708323
 20
0.8159464141427219
 10
4.208644278477725
 20
0.8180435448666598
 10
4.207921129952238
 20
0.8202853052957072
 10
4.207414925984386
 20
0.8225270657247339
 10
4.207125666574187
 20
0.8246241964486713
 10
4.206908722016533
 20
0.8267213271726088
 10
4.206908722016533
 20
0.828890772749091
 10
4.207053351721622
 20
0.8309879034730284
 10
4.207342611131841
 20
0.8330850341969664
 10
4.207776500247129
 20
0.8351821649208826
 10
4.208427333920092
 20
0.8372069807922752
 10
4.20929511215067
 20
0.839159481811124
 10
4.209945945823611
 20
0.8403888343044647
 10
4.210596779496555
 20
0.8416181867977837
 10
4.211247613169497
 20
0.84277522443858
 10
4.211970761695003
 20
0.8439322620793758
 10
4.212621595367949
 20
0.8450892997201721
 10
4.213344743893455
 20
0.8461740225084025
 10
4.214140207271486
 20
0.8472587452966539
 10
4.214935670649517
 20
0.8482711532323399
 10
4.215731134027591
 20
0.8493558760205914
 10
4.216526597405623
 20
0.8503682839562774
 10
4.2173943756362
 20
0.8513806918919632
 10
4.218262153866819
 20
0.8523930998276709
 10
4.219202246949937
 20
0.853333192910812
 10
4.2201423400331
 20
0.8543456008464978
 10
4.221082433116221
 20
0.8552856939296395
 10
4.222094841051928
 20
0.8562981018653468
 10
4.222962619282523
 20
0.8573105098010323
 10
4.223541138102901
 20
0.8583952325892628
 10
4.223902712365664
 20
0.859479955377515
 10
4.223975027218211
 20
0.8605646781657664
 10
4.223902712365664
 20
0.8616494009539968
 10
4.223685767808032
 20
0.8627341237422482
 10
4.223324193545268
 20
0.8637465316779342
 10
4.222817989577413
 20
0.8647589396136201
 10
4.196856957512173
 20
0.8647589396136201
 10
4.197435476332572
 20
0.8642527356457881
 10
4.198013995152972
 20
0.8637465316779342
 10
4.198592513973347
 20
0.8632403277100804
 10
4.199171032793747
 20
0.8626618088896826
 10
4.199677236761578
 20
0.8620832900693057
 10
4.200183440729431
 20
0.8614324563963425
 10
4.200617329844741
 20
0.8607816227233994
 10
4.20105121896003
 20
0.8601307890504569
 10
4.201918997190626
 20
0.85817828803163
 10
4.202352886305935
 20
0.856081157307692
 10
4.202352886305935
 20
0.8539117117312102
 10
4.202063626895716
 20
0.851742266154728
 10
4.201485108075319
 20
0.8494281908731363
 10
4.200545014992196
 20
0.8471864304441096
 10
4.199460292203945
 20
0.8450892997201721
 10
4.198230939710605
 20
0.843064483848779
 10
4.19692927236472
 20
0.8410396679774072
 10
4.19555529016627
 20
0.8390871669585584
 10
4.194181307967818
 20
0.8370623510871865
 10
4.192951955474478
 20
0.8350375352157934
 10
4.191939547538813
 20
0.8330127193444003
 10
4.191071769308194
 20
0.8309879034730284
 10
4.190420935635252
 20
0.8288184578965466
 10
4.1899147316674
 20
0.8266490123200435
 10
4.189625472257221
 20
0.8244795667435614
 10
4.189480842552131
 20
0.8222378063145347
 10
4.189480842552131
 20
0.8199960458855086
 10
4.189697787109765
 20
0.8177542854564608
 10
4.189987046519965
 20
0.8163079884054866
 10
4.190276305930162
 20
0.8148616913544916
 10
4.190710195045473
 20
0.8134153943034966
 10
4.191216399013305
 20
0.8120414121050673
 10
4.191794917833703
 20
0.8106674299066167
 10
4.192445751506642
 20
0.8093657625607317
 10
4.193096585179587
 20
0.8079917803622809
 10
4.19389204855764
 20
0.8067624278689404
 10
4.194687511935672
 20
0.8055330753756003
 10
4.19555529016627
 20
0.8043037228822596
 10
4.196495383249411
 20
0.8031466852414849
 10
4.197507791185118
 20
0.8019896476006886
 10
4.198520199120803
 20
0.8009049248124371
 10
4.199532607056488
 20
0.7998202020242069
 10
4.200617329844741
 20
0.7988077940884998
 10
4.201774367485536
 20
0.7978677010053581
 10
4.203076034831419
 20
0.7968552930696723
 10
4.204522331882396
 20
0.7959151999865306
 10
4.205968628933413
 20
0.7950474217559338
 10
4.207487240836931
 20
0.7942519583778813
 10
4.209078167593036
 20
0.7935288098523941
 10
4.210669094349098
 20
0.7928779761794516
 10
4.21233233595775
 20
0.7922271425065095
 10
4.213995577566397
 20
0.7917209385386557
 10
4.215658819175025
 20
0.7912870494233681
 10
4.217322060783656
 20
0.7908531603080586
 10
4.219057617244848
 20
0.790491586045315
 10
4.220793173706042
 20
0.7902746414876607
 10
4.222456415314669
 20
0.7900576969300273
 10
4.224191971775866
 20
0.7899130672249174
 10
4.225855213384495
 20
0.7897684375198288
 10
4.227518454993143
 20
0.7897684375198288
 10
4.251743930597212
 20
0.7897684375198288
 10
4.251743930597212
 20
0.8556472681923828
 10
4.251743930597212
 20
0.8568043058331793
 10
4.251743930597212
 20
0.8579613434739751
 10
4.251888560302321
 20
0.8591906959673154
 10
4.252105504859953
 20
0.8604200484606561
 10
4.252539393975263
 20
0.8615770861014519
 10
4.253117912795659
 20
0.8626618088896826
 10
4.253985691026234
 20
0.8637465316779342
 10
4.255142728667031
 20
0.8647589396136201
 10
4.229398641159426
 20
0.8647589396136201
  0
LWPOLYLINE
  5
435
330
17
100
AcDbEntity
  8
4
  6
Continuous
100
AcDbPolyline
 90
       21
 70
     0
 43
0.0
 10
4.490126763419943
 20
0.8647589396136201
 10
4.491500745618371
 20
0.8640357910881332
 10
4.492657783259168
 20
0.8631680128575361
 10
4.493670191194855
 20
0.8621556049218501
 10
4.494393339720362
 20
0.8609985672810543
 10
4.494971858540761
 20
0.8596968999351693
 10
4.495405747656048
 20
0.8583229177367186
 10
4.495622692213704
 20
0.8568043058331793
 10
4.495695007066246
 20
0.8552133790770952
 10
4.495695007066246
 20
0.7897684375198288
 10
4.513484460793414
 20
0.7897684375198288
 10
4.513484460793414
 20
0.8554303236347495
 10
4.513556775645954
 20
0.8569489355382893
 10
4.513918349908721
 20
0.8582506028841743
 10
4.51435223902401
 20
0.8595522702300593
 10
4.515075387549495
 20
0.8607093078708551
 10
4.515870850927549
 20
0.8617940306591068
 10
4.516883258863236
 20
0.8628787534473369
 10
4.517967981651463
 20
0.8638188465304789
 10
4.519269648997371
 20
0.8647589396136201
 10
4.490126763419943
 20
0.8647589396136201
  0
LWPOLYLINE
  5
44C
330
17
100
AcDbEntity
  8
4
  6
Continuous
100
AcDbPolyline
 90
       73
 70
     0
 43
0.0
 10
3.860905861274526
 20
0.8084979843301345
 10
3.862135213767866
 20
0.8077748358046477
 10
3.863147621703573
 20
0.8068347427215066
 10
3.864015399934148
 20
0.8056777050807102
 10
3.864666233607092
 20
0.8043760377348256
 10
3.865027807869858
 20
0.8029297406838303
 10
3.865100122722401
 20
0.8014834436328353
 10
3.864883178164768
 20
0.8001094614344058
 10
3.86430465934437
 20
0.7987354792359555
 10
3.863653825671428
 20
0.7979400158579237
 10
3.863002991998461
 20
0.7972168673324156
 10
3.862207528620412
 20
0.7965660336594737
 10
3.861339750389835
 20
0.7959875148390749
 10
3.860399657306673
 20
0.7955536257237874
 10
3.859387249371008
 20
0.7951920514610438
 10
3.858302526582754
 20
0.7949751069033895
 10
3.857217803794505
 20
0.7949027920508451
 10
3.830822882613955
 20
0.7949027920508451
 10
3.845068908566187
 20
0.8069793724265952
 10
3.845936686796806
 20
0.8077748358046477
 10
3.846587520469751
 20
0.8085702991826792
 10
3.847166039290127
 20
0.8092934477081874
 10
3.847527613552871
 20
0.8100165962336742
 10
3.847816872963088
 20
0.8107397447591608
 10
3.847961502668178
 20
0.811535208137214
 10
3.848106132373267
 20
0.8122583566627008
 10
3.848106132373267
 20
0.8130538200407533
 10
3.848106132373267
 20
0.8609985672810543
 10
3.847961502668178
 20
0.8620109752167401
 10
3.847672243257978
 20
0.8630233831524474
 10
3.847166039290127
 20
0.8638188465304789
 10
3.846515205617183
 20
0.8645419950559867
 10
3.845719742239131
 20
0.8651205138763636
 10
3.844851964008555
 20
0.8655544029916725
 10
3.843839556072848
 20
0.8658436624018717
 10
3.842827148137162
 20
0.8659159772544159
 10
3.827207139986478
 20
0.8659159772544159
 10
3.828291862774729
 20
0.8648312544661857
 10
3.82923195585785
 20
0.8638188465304789
 10
3.830027419235903
 20
0.8626618088896826
 10
3.830678252908866
 20
0.8615047712489076
 10
3.831256771729243
 20
0.8602031039030013
 10
3.831618345991988
 20
0.8588291217045719
 10
3.831835290549642
 20
0.8572381949484883
 10
3.831907605402208
 20
0.8554303236347495
 10
3.831907605402208
 20
0.8053884456705111
 10
3.819035561648383
 20
0.7897684375198288
 10
3.867703457414171
 20
0.7897684375198288
 10
3.868498920792223
 20
0.7898407523723725
 10
3.869366699022821
 20
0.7899130672249174
 10
3.870162162400852
 20
0.7900576969300273
 10
3.87102994063147
 20
0.7903469563402263
 10
3.871897718862046
 20
0.7906362157504256
 10
3.872693182240098
 20
0.7909977900131688
 10
3.873488645618153
 20
0.7913593642759123
 10
3.874284108996183
 20
0.7917932533912
 10
3.875079572374215
 20
0.7922994573590536
 10
3.875802720899723
 20
0.7928056613269074
 10
3.876525869425229
 20
0.7933841801473056
 10
3.877249017950715
 20
0.7939626989676824
 10
3.877827536771114
 20
0.79454121778808
 10
3.878478370444056
 20
0.7951920514610438
 10
3.878984574411911
 20
0.7958428851339863
 10
3.879490778379743
 20
0.7964937188069288
 10
3.880647816020538
 20
0.7988077940884998
 10
3.881370964546047
 20
0.801411128780291
 10
3.881732538808771
 20
0.8043037228822596
 10
3.881660223956224
 20
0.8072686318367942
 10
3.881154019988372
 20
0.810088911086219
 10
3.880286241757796
 20
0.8126922457780098
 10
3.879056889264457
 20
0.8148616913544916
 10
3.877393647655805
 20
0.8165249329631201
 10
3.860905861274526
 20
0.8084979843301345
  0
LWPOLYLINE
  5
497
330
17
100
AcDbEntity
  8
4
  6
Continuous
100
AcDbPolyline
 90
       21
 70
     0
 43
0.0
 10
4.023484167026508
 20
0.8646143099085314
 10
4.004393045953433
 20
0.8646143099085314
 10
4.005333139036596
 20
0.8639634762355886
 10
4.006273232119718
 20
0.8630956980049917
 10
4.007213325202879
 20
0.8622279197743944
 10
4.008008788580912
 20
0.8612155118387089
 10
4.008731937106419
 20
0.8602031039030013
 10
4.009310455926796
 20
0.8590460662622271
 10
4.009672030189562
 20
0.8578890286214308
 10
4.009816659894651
 20
0.8566596761280907
 10
4.009816659894651
 20
0.7900576969300273
 10
4.027823058179492
 20
0.7900576969300273
 10
4.027823058179492
 20
0.8602754187555675
 10
4.027750743326928
 20
0.8612878266912533
 10
4.027533798769273
 20
0.8621556049218501
 10
4.027099909653983
 20
0.8628787534473369
 10
4.026593705686153
 20
0.8635295871202794
 10
4.025942872013189
 20
0.8639634762355886
 10
4.025219723487703
 20
0.8643250504983319
 10
4.024424260109648
 20
0.8645419950559867
 10
4.023484167026508
 20
0.8646143099085314
  0
LWPOLYLINE
  5
4AE
330
17
100
AcDbEntity
  8
4
  6
Continuous
100
AcDbPolyline
 90
      133
 70
     0
 43
0.0
 10
3.948049474732384
 20
0.8659882921069607
 10
3.932646411139356
 20
0.8659882921069607
 10
3.933731133927608
 20
0.8648312544661857
 10
3.934671227010726
 20
0.8636742168253899
 10
3.935394375536236
 20
0.8625171791845936
 10
3.936045209209177
 20
0.8614324563963425
 10
3.936551413177033
 20
0.8603477336081118
 10
3.936912987439773
 20
0.8592630108198601
 10
3.937202246849974
 20
0.8581059731790851
 10
3.93727456170252
 20
0.8569489355382893
 10
3.93727456170252
 20
0.8174650260462616
 10
3.935972894356634
 20
0.8176096557513716
 10
3.934598912158185
 20
0.8178266003090264
 10
3.933297244812299
 20
0.8180435448666598
 10
3.931923262613868
 20
0.8183328042768589
 10
3.930621595267984
 20
0.8186943785396232
 10
3.929247613069533
 20
0.8190559528023671
 10
3.927945945723627
 20
0.8194898419176547
 10
3.926644278377741
 20
0.8199237310329426
 10
3.925414925884401
 20
0.8204299350007964
 10
3.924113258538517
 20
0.821008453821194
 10
3.922956220897721
 20
0.8215869726415922
 10
3.921726868404381
 20
0.8222378063145347
 10
3.920569830763584
 20
0.8229609548400221
 10
3.919412793122788
 20
0.8236841033655302
 10
3.918328070334558
 20
0.824551881596127
 10
3.917315662398871
 20
0.8254196598267025
 10
3.915435476232587
 20
0.827299845993007
 10
3.913772234623939
 20
0.8293969767169445
 10
3.912325937572966
 20
0.8316387371459709
 10
3.911024270227057
 20
0.8340974421326519
 10
3.910011862291373
 20
0.8365561471193332
 10
3.909144084060775
 20
0.8392317966636683
 10
3.908565565240378
 20
0.8419074462079827
 10
3.908203990977634
 20
0.8446554106048626
 10
3.907987046420001
 20
0.8474033750017431
 10
3.907987046420001
 20
0.8502236542511887
 10
3.90827630583018
 20
0.8529716186480687
 10
3.908710194945488
 20
0.8557195830449487
 10
3.909361028618431
 20
0.8584675474418286
 10
3.910301121701571
 20
0.8610708821335986
 10
3.911385844489803
 20
0.8636019019728456
 10
3.912687511835687
 20
0.8659882921069607
 10
3.892945557089694
 20
0.8659882921069607
 10
3.89149926003872
 20
0.8613601415437976
 10
3.890486852103013
 20
0.8568766206857237
 10
3.889980648135161
 20
0.8523930998276709
 10
3.889908333282616
 20
0.8481265235272513
 10
3.890197592692814
 20
0.8439322620793758
 10
3.890993056070868
 20
0.8399549451891557
 10
3.892150093711663
 20
0.836122258004045
 10
3.893668705615183
 20
0.8324342005240026
 10
3.895621206634009
 20
0.8290354024541796
 10
3.897862967063056
 20
0.8257812340894671
 10
3.900466301754828
 20
0.8228163251349329
 10
3.903358895856818
 20
0.8200683607380529
 10
3.906613064221529
 20
0.8176819706039164
 10
3.910156491996461
 20
0.8155125250274341
 10
3.913916864329028
 20
0.8137046537136958
 10
3.917966496071813
 20
0.812186041810156
 10
3.919123533712611
 20
0.811824467547413
 10
3.920352886205951
 20
0.811535208137214
 10
3.92158223869929
 20
0.8112459487270148
 10
3.922883906045176
 20
0.8109566893168159
 10
3.924113258538517
 20
0.8107397447591608
 10
3.925414925884401
 20
0.8105951150540724
 10
3.926644278377741
 20
0.8103781704964177
 10
3.927945945723627
 20
0.8103058556438734
 10
3.929175298216968
 20
0.8101612259387842
 10
3.930404650710308
 20
0.810088911086219
 10
3.931634003203647
 20
0.8100165962336742
 10
3.932791040844446
 20
0.8100165962336742
 10
3.93394807848524
 20
0.8100165962336742
 10
3.935032801273493
 20
0.8100165962336742
 10
3.936117524061745
 20
0.810088911086219
 10
3.937129931997409
 20
0.8101612259387842
 10
3.937129931997409
 20
0.8024958515685211
 10
3.929247613069533
 20
0.798084645563013
 10
3.92765668631345
 20
0.7977230713002694
 10
3.926065759557343
 20
0.7975061267426148
 10
3.92447483280126
 20
0.7975061267426148
 10
3.923028535750266
 20
0.7977230713002694
 10
3.921509923846746
 20
0.7980123307104681
 10
3.920135941648298
 20
0.7985185346783006
 10
3.91883427430241
 20
0.7991693683512644
 10
3.917532606956506
 20
0.7998925168767512
 10
3.916303254463164
 20
0.8007602951073485
 10
3.915146216822368
 20
0.8017003881904896
 10
3.914061494034138
 20
0.8027851109787198
 10
3.913049086098451
 20
0.8038698337669718
 10
3.912108993015289
 20
0.8050991862603121
 10
3.911241214784714
 20
0.8063285387536527
 10
3.910445751406681
 20
0.8075578912469934
 10
3.909794917733741
 20
0.8088595585928779
 10
3.895910466044229
 20
0.8024235367159768
 10
3.896561299717173
 20
0.8011941842226361
 10
3.897356763095203
 20
0.7999648317292956
 10
3.898152226473253
 20
0.7986631643834106
 10
3.899020004703852
 20
0.7974338118900705
 10
3.900032412639538
 20
0.7962044593967299
 10
3.901044820575225
 20
0.7949751069033895
 10
3.902201858216021
 20
0.7938903841151375
 10
3.903358895856818
 20
0.7927333464743417
 10
3.904588248350156
 20
0.7917209385386557
 10
3.905962230548587
 20
0.7907808454555143
 10
3.907408527599603
 20
0.7899853820774618
 10
3.908854824650576
 20
0.7891899186994305
 10
3.910445751406681
 20
0.7886113998790325
 10
3.912036678162745
 20
0.7881051959111785
 10
3.913772234623939
 20
0.787743621648435
 10
3.915580105937677
 20
0.787598991943346
 10
3.916158624758076
 20
0.787598991943346
 10
3.916737143578475
 20
0.7876713067958907
 10
3.917387977251415
 20
0.787743621648435
 10
3.91803881092436
 20
0.7878159365009794
 10
3.918617329744756
 20
0.78796056620609
 10
3.919268163417698
 20
0.7881775107637445
 10
3.919846682238096
 20
0.7883944553213775
 10
3.920425201058496
 20
0.7886113998790325
 10
3.951737532212406
 20
0.8070516872791396
 10
3.952460680737913
 20
0.8076302060995377
 10
3.952966884705747
 20
0.8084256694775902
 10
3.953183829263421
 20
0.8093657625607317
 10
3.953256144115966
 20
0.8103781704964177
 10
3.953256144115966
 20
0.8588291217045719
 10
3.953111514410856
 20
0.8604923633132004
 10
3.952822255000658
 20
0.8620109752167401
 10
3.952316051032802
 20
0.8632403277100804
 10
3.951665217359861
 20
0.8642527356457881
 10
3.950869753981831
 20
0.8649758841712749
 10
3.949929660898666
 20
0.8655544029916725
 10
3.948989567815548
 20
0.8658436624018717
 10
3.948049474732384
 20
0.8659882921069607
  0
LWPOLYLINE
  5
535
330
17
100
AcDbEntity
  8
4
  6
Continuous
100
AcDbPolyline
 90
       96
 70
     0
 43
0.0
 10
4.103590914257989
 20
0.7897684375198288
 10
4.102433876617193
 20
0.7905639008978599
 10
4.101276838976398
 20
0.7913593642759123
 10
4.100264431040711
 20
0.7922994573590536
 10
4.099396652810114
 20
0.793239550442195
 10
4.098673504284628
 20
0.7943242732304471
 10
4.098094985464229
 20
0.7955536257237874
 10
4.097733411201486
 20
0.7968552930696723
 10
4.097588781496376
 20
0.7982292752681017
 10
4.097588781496376
 20
0.8451616145727165
 10
4.097588781496376
 20
0.8471141155915653
 10
4.097444151791266
 20
0.8490666166103927
 10
4.097154892381088
 20
0.8511637473343302
 10
4.096576373560689
 20
0.853188563205702
 10
4.095708595330093
 20
0.8552856939296395
 10
4.094334613131643
 20
0.8572381949484883
 10
4.092526741817903
 20
0.8591906959673154
 10
4.090068036831222
 20
0.8610708821335986
 10
4.088549424927707
 20
0.8620109752167401
 10
4.0869584981716
 20
0.8628064385947926
 10
4.085367571415517
 20
0.8634572722677356
 10
4.083632014954345
 20
0.8640357910881332
 10
4.081896458493148
 20
0.8643973653508767
 10
4.080160902031953
 20
0.8646143099085314
 10
4.078425345570761
 20
0.8647589396136201
 10
4.076617474257022
 20
0.8647589396136201
 10
4.074881917795851
 20
0.8646143099085314
 10
4.073146361334655
 20
0.8643973653508767
 10
4.071483119726027
 20
0.8641081059406776
 10
4.069819878117377
 20
0.8636742168253899
 10
4.068301266213858
 20
0.8631680128575361
 10
4.066782654310298
 20
0.8625171791845936
 10
4.065336357259326
 20
0.8618663455116511
 10
4.064034689913441
 20
0.8610708821335986
 10
4.063311541387933
 20
0.8607093078708551
 10
4.062660707714988
 20
0.8603477336081118
 10
4.061937559189479
 20
0.8599861593453679
 10
4.061286725516538
 20
0.8595522702300593
 10
4.060635891843596
 20
0.8590460662622271
 10
4.059912743318109
 20
0.8585398622943733
 10
4.059261909645167
 20
0.8578890286214308
 10
4.058466446267114
 20
0.8572381949484883
 10
4.058104872004369
 20
0.8586121771469176
 10
4.057526353183972
 20
0.8598415296402579
 10
4.056875519511031
 20
0.8609262524285099
 10
4.056080056133
 20
0.8619386603641958
 10
4.055212277902381
 20
0.8628064385947926
 10
4.054272184819258
 20
0.8635295871202794
 10
4.053332091736097
 20
0.8641804207932219
 10
4.052319683800409
 20
0.8646866247610757
 10
4.035759582566586
 20
0.8646866247610757
 10
4.037278194470126
 20
0.8636019019728237
 10
4.038579861816011
 20
0.8623725494794836
 10
4.039664584604262
 20
0.8610708821335986
 10
4.040604677687383
 20
0.8595522702300593
 10
4.041327826212891
 20
0.8579613434739751
 10
4.041834030180725
 20
0.8561534721602363
 10
4.042195604443487
 20
0.8542732859939537
 10
4.042267919296032
 20
0.8521761552700157
 10
4.042267919296032
 20
0.78796056620609
 10
4.059117279940077
 20
0.8009772396649818
 10
4.059117279940077
 20
0.8454508739829156
 10
4.059406539350254
 20
0.8478372641170517
 10
4.060129687875742
 20
0.8499343948409896
 10
4.061214410663993
 20
0.851742266154728
 10
4.062660707714988
 20
0.8532608780582677
 10
4.064323949323616
 20
0.8544902305516078
 10
4.066131820637356
 20
0.8553580087822052
 10
4.068084321656183
 20
0.855936527602582
 10
4.070036822675032
 20
0.8561534721602363
 10
4.071193860315828
 20
0.8561534721602363
 10
4.072350897956603
 20
0.8560088424551477
 10
4.073435620744856
 20
0.855791897897493
 10
4.074520343533105
 20
0.8555026384872943
 10
4.075532751468792
 20
0.8551410642245508
 10
4.076545159404478
 20
0.854634860256697
 10
4.07748525248764
 20
0.8541286562888432
 10
4.078353030718215
 20
0.8534778226159012
 10
4.079220808948814
 20
0.8528269889429587
 10
4.079943957474322
 20
0.8521038404174719
 10
4.080522476294721
 20
0.8512360621868745
 10
4.081100995115096
 20
0.8504405988088217
 10
4.081534884230386
 20
0.8495005057256806
 10
4.081824143640603
 20
0.8485604126425389
 10
4.082041088198238
 20
0.8475480047068531
 10
4.082113403050783
 20
0.8464632819186014
 10
4.082113403050783
 20
0.7968552930696723
 10
4.082185717903326
 20
0.7956982554288763
 10
4.082330347608436
 20
0.7944689029355356
 10
4.082691921871181
 20
0.7933118652947393
 10
4.083198125839033
 20
0.7921548276539652
 10
4.083993589217066
 20
0.7912147345708231
 10
4.085005997152773
 20
0.7904192711927707
 10
4.086379979351202
 20
0.7899130672249174
 10
4.088115535812397
 20
0.7897684375198288
 10
4.103590914257989
 20
0.7897684375198288
  0
LWPOLYLINE
  5
597
330
17
100
AcDbEntity
  8
4
  6
Continuous
100
AcDbPolyline
 90
       34
 70
     0
 43
0.0
 10
4.13545550171027
 20
0.8589737514096611
 10
4.138275780959673
 20
0.858684491999462
 10
4.141023745356575
 20
0.8581059731790638
 10
4.143627080048346
 20
0.857093565243378
 10
4.146158099887569
 20
0.8557195830449487
 10
4.148472175169161
 20
0.8541286562888432
 10
4.15071393559821
 20
0.8521761552700157
 10
4.152738751469581
 20
0.8500067096935344
 10
4.154618937635865
 20
0.8476203195593974
 10
4.156354494097059
 20
0.8449446700150618
 10
4.157800791148034
 20
0.8421967056181822
 10
4.159102458493919
 20
0.8392317966636683
 10
4.16018718128217
 20
0.8361945728565894
 10
4.161054959512766
 20
0.8330127193444003
 10
4.161633478333165
 20
0.8297585509796878
 10
4.162067367448451
 20
0.8265043826149545
 10
4.162139682300996
 20
0.8231778993976764
 10
4.161922737743364
 20
0.8201406755905972
 10
4.161344218922965
 20
0.8172480814886283
 10
4.160476440692367
 20
0.8144278022391826
 10
4.159319403051592
 20
0.811824467547413
 10
4.157873106000599
 20
0.8092934477081874
 10
4.15620986439197
 20
0.8069793724265952
 10
4.154329678225662
 20
0.8048822417026578
 10
4.152377177206816
 20
0.8029297406838303
 10
4.150280046482901
 20
0.8011218693700918
 10
4.148110600906417
 20
0.799530942614008
 10
4.145868840477393
 20
0.7981569604155573
 10
4.143699394900889
 20
0.7969999227747613
 10
4.141457634471863
 20
0.7961321445441854
 10
4.139360503747924
 20
0.7954089960186774
 10
4.137335687876553
 20
0.7949751069033895
 10
4.13545550171027
 20
0.7947581623457349
 10
4.13545550171027
 20
0.8589737514096611
  0
LWPOLYLINE
  5
5BB
330
17
100
AcDbEntity
  8
4
  6
Continuous
100
AcDbPolyline
 90
       44
 70
     0
 43
0.0
 10
4.143627080048346
 20
0.8649758841712749
 10
4.111591600368926
 20
0.8649758841712749
 10
4.112604008304613
 20
0.8643973653508767
 10
4.113761045945406
 20
0.8636019019728237
 10
4.114845768733659
 20
0.8624448643320492
 10
4.115930491521912
 20
0.8611431969861433
 10
4.11687058460503
 20
0.8596245850826036
 10
4.117666047983083
 20
0.8578890286214308
 10
4.118099937098373
 20
0.856081157307692
 10
4.118316881656048
 20
0.8541286562888432
 10
4.118316881656048
 20
0.7897684375198288
 10
4.142325412702459
 20
0.7897684375198288
 10
4.146375044445225
 20
0.7899853820774618
 10
4.150280046482901
 20
0.7905639008978599
 10
4.154040418815466
 20
0.7915039939810013
 10
4.157583846590397
 20
0.7928056613269074
 10
4.160910329807656
 20
0.7944689029355356
 10
4.164092183319846
 20
0.7964937188069288
 10
4.166984777421813
 20
0.7987354792359555
 10
4.169660426966173
 20
0.8013388139277466
 10
4.172046817100286
 20
0.8041590931771704
 10
4.17421626267677
 20
0.8072686318367942
 10
4.176096448843051
 20
0.8105951150540724
 10
4.177615060746611
 20
0.8141385428290048
 10
4.178844413239953
 20
0.8178989151615711
 10
4.179784506323073
 20
0.8218039171992471
 10
4.180290710290926
 20
0.8259258637945563
 10
4.180507654848581
 20
0.830192440094976
 10
4.180363025143471
 20
0.8338081827224527
 10
4.179784506323073
 20
0.8372792956448201
 10
4.178844413239953
 20
0.8406057788620977
 10
4.177542745894045
 20
0.8437876323742871
 10
4.175951819137961
 20
0.846897171033911
 10
4.17407163297168
 20
0.8497174502833349
 10
4.171902187395176
 20
0.8523930998276709
 10
4.169443482408496
 20
0.8548518048143519
 10
4.166840147716723
 20
0.857093565243378
 10
4.163947553614733
 20
0.8591183811147711
 10
4.160910329807656
 20
0.8608539375759656
 10
4.157656161442944
 20
0.8623002346269393
 10
4.154329678225662
 20
0.8634572722677356
 10
4.150858565303299
 20
0.8643250504983319
 10
4.147242822675821
 20
0.8648312544661857
 10
4.143627080048346
 20
0.8649758841712749
  0
LWPOLYLINE
  5
5E9
330
17
100
AcDbEntity
  8
4
  6
Continuous
100
AcDbPolyline
 90
       21
 70
     0
 43
0.0
 10
3.775863338115978
 20
0.8618663455116511
 10
3.793580476990598
 20
0.8618663455116511
 10
3.795894552272167
 20
0.8616494009539968
 10
3.797991682996107
 20
0.8609985672810543
 10
3.799944184014957
 20
0.8599861593453679
 10
3.801679740476147
 20
0.8586121771469176
 10
3.803053722674578
 20
0.8569489355382893
 10
3.804138445462831
 20
0.8549964345194405
 10
3.804789279135771
 20
0.8528993037955029
 10
3.805006223693403
 20
0.8505852285139321
 10
3.804861593988316
 20
0.8487050423476494
 10
3.804427704873006
 20
0.8468248561813663
 10
3.803704556347521
 20
0.8451616145727165
 10
3.802764463264379
 20
0.8435706878166325
 10
3.801535110771038
 20
0.8422690204707475
 10
3.800088813720042
 20
0.8412566125350402
 10
3.798425572111395
 20
0.8406057788620977
 10
3.796473071092568
 20
0.8403888343044647
 10
3.779189821333255
 20
0.8403888343044647
 10
3.779189821333255
 20
0.8579613434739751
 10
3.775863338115978
 20
0.8618663455116511
  0
LWPOLYLINE
  5
600
330
17
100
AcDbEntity
  8
4
  6
Continuous
100
AcDbPolyline
 90
       21
 70
     0
 43
0.0
 10
3.705854580633681
 20
0.8620109752167401
 10
3.723571719508299
 20
0.8620109752167401
 10
3.725813479937328
 20
0.8617940306591068
 10
3.727982925513808
 20
0.8611431969861433
 10
3.729863111680113
 20
0.8601307890504569
 10
3.731598668141285
 20
0.8587568068520276
 10
3.732972650339736
 20
0.857093565243378
 10
3.734057373127968
 20
0.8552133790770952
 10
3.734708206800931
 20
0.8531162483531574
 10
3.734925151358563
 20
0.8508021730715869
 10
3.734780521653475
 20
0.8489219869052824
 10
3.734346632538167
 20
0.8470418007389993
 10
3.733695798865221
 20
0.8453062442778264
 10
3.732755705782083
 20
0.8437876323742871
 10
3.731526353288741
 20
0.8424859650283808
 10
3.730080056237746
 20
0.8414735570926948
 10
3.728416814629096
 20
0.8408227234197525
 10
3.726464313610268
 20
0.8406057788620977
 10
3.709181063850957
 20
0.8406057788620977
 10
3.709181063850957
 20
0.85817828803163
 10
3.705854580633681
 20
0.8620109752167401
  0
LWPOLYLINE
  5
617
330
17
100
AcDbEntity
  8
4
  6
Continuous
100
AcDbPolyline
 90
       46
 70
     0
 43
0.0
 10
3.72631968390518
 20
0.8659882921069607
 10
3.687052718970828
 20
0.8659882921069607
 10
3.687920497201406
 20
0.8648312544661857
 10
3.688715960579437
 20
0.8635295871202794
 10
3.689511423957508
 20
0.8622279197743944
 10
3.690162257630452
 20
0.8608539375759656
 10
3.690668461598283
 20
0.8594076405249701
 10
3.691102350713573
 20
0.8579613434739751
 10
3.69139161012379
 20
0.8565873612755458
 10
3.691463924976338
 20
0.8551410642245508
 10
3.691463924976338
 20
0.7883944553213775
 10
3.709036434145868
 20
0.8052438159654011
 10
3.709036434145868
 20
0.8351821649208826
 10
3.732611076076971
 20
0.8351821649208826
 10
3.734202002833078
 20
0.8352544797734477
 10
3.735720614736595
 20
0.8353267946259926
 10
3.737239226640154
 20
0.8355437391836472
 10
3.738685523691128
 20
0.8358329985938464
 10
3.740131820742124
 20
0.8362668877091341
 10
3.741505802940575
 20
0.8368454065295319
 10
3.742807470286459
 20
0.8374962402024747
 10
3.743964507927256
 20
0.8382917035805272
 10
3.745121545568053
 20
0.8392317966636683
 10
3.746061638651172
 20
0.8403888343044647
 10
3.74692941688179
 20
0.8416181867977837
 10
3.747652565407278
 20
0.843064483848779
 10
3.748158769375133
 20
0.8447277254574288
 10
3.748592658490419
 20
0.8465355967711671
 10
3.748809603048073
 20
0.8485604126425389
 10
3.748809603048073
 20
0.8508021730715869
 10
3.748592658490419
 20
0.853188563205702
 10
3.748158769375133
 20
0.8552856939296395
 10
3.747435620849623
 20
0.8571658800959227
 10
3.746567842619026
 20
0.8588291217045719
 10
3.745410804978231
 20
0.8602754187555675
 10
3.74418145248489
 20
0.8615047712489076
 10
3.742735155433915
 20
0.8625894940371383
 10
3.741144228677812
 20
0.8634572722677356
 10
3.739480987069183
 20
0.8641804207932219
 10
3.737673115755443
 20
0.8647589396136201
 10
3.735865244441705
 20
0.8651928287289292
 10
3.733985058275423
 20
0.8654820881391282
 10
3.732032557256573
 20
0.8657713475493274
 10
3.730080056237746
 20
0.8659159772544159
 10
3.728199870071463
 20
0.8659882921069607
 10
3.72631968390518
 20
0.8659882921069607
  0
LWPOLYLINE
  5
647
330
17
100
AcDbEntity
  8
4
  6
Continuous
100
AcDbPolyline
 90
      104
 70
     0
 43
0.0
 10
3.654063788637806
 20
0.8659159772544159
 10
3.656088604509178
 20
0.8637465316779342
 10
3.656956382739775
 20
0.8625171791845936
 10
3.657679531265261
 20
0.8612878266912533
 10
3.658330364938225
 20
0.8601307890504569
 10
3.658836568906058
 20
0.8590460662622271
 10
3.659270458021345
 20
0.8578890286214308
 10
3.659559717431566
 20
0.8567319909806345
 10
3.659704347136655
 20
0.8555749533398387
 10
3.659776661989201
 20
0.8543456008464978
 10
3.659776661989201
 20
0.7981569604155573
 10
3.65796879067546
 20
0.7983739049732117
 10
3.656160919361723
 20
0.7987354792359555
 10
3.654425362900528
 20
0.7991693683512644
 10
3.652689806439356
 20
0.7997478871716412
 10
3.651026564830725
 20
0.8004710356971493
 10
3.649363323222078
 20
0.8011941842226361
 10
3.64770008161343
 20
0.8020619624532335
 10
3.646181469709909
 20
0.8030020555363746
 10
3.644662857806348
 20
0.8040867783246261
 10
3.643216560755373
 20
0.8051715011128568
 10
3.641842578556946
 20
0.8064008536061974
 10
3.640540911211038
 20
0.8077025209520821
 10
3.639239243865153
 20
0.8090041882979884
 10
3.63808220622436
 20
0.810450485348962
 10
3.636997483436128
 20
0.8119690972525017
 10
3.635985075500422
 20
0.8134877091560415
 10
3.634394148744338
 20
0.8163803032580315
 10
3.633092481398451
 20
0.8194175270651104
 10
3.632080073462765
 20
0.8225993805772782
 10
3.631429239789825
 20
0.825853548942012
 10
3.631139980379604
 20
0.8291800321592901
 10
3.631284610084714
 20
0.8324342005240026
 10
3.631935443757654
 20
0.8357606837412802
 10
3.633020166545886
 20
0.8389425372534697
 10
3.633598685366283
 20
0.840316519451899
 10
3.634249519039226
 20
0.8416181867977837
 10
3.634972667564736
 20
0.8429198541436903
 10
3.635695816090243
 20
0.8441492066370306
 10
3.636491279468274
 20
0.8454508739829156
 10
3.637359057698871
 20
0.8466802264762558
 10
3.63822683592947
 20
0.8478372641170517
 10
3.639094614160044
 20
0.8490666166103927
 10
3.640034707243208
 20
0.8502236542511887
 10
3.640974800326326
 20
0.8513083770394189
 10
3.641987208262035
 20
0.8524654146802152
 10
3.64299961619772
 20
0.8535501374684669
 10
3.644012024133406
 20
0.854634860256697
 10
3.645096746921657
 20
0.8556472681923828
 10
3.646109154857366
 20
0.8566596761280907
 10
3.647193877645594
 20
0.8576720840637761
 10
3.648061655876193
 20
0.858684491999462
 10
3.648640174696592
 20
0.8598415296402579
 10
3.649001748959332
 20
0.8609985672810543
 10
3.649001748959332
 20
0.8622279197743944
 10
3.648857119254223
 20
0.8633126425626251
 10
3.648423230138934
 20
0.8643973653508767
 10
3.647917026171103
 20
0.8652651435814735
 10
3.647193877645594
 20
0.8659159772544159
 10
3.621305160432878
 20
0.8659159772544159
 10
3.62253451292622
 20
0.8647589396136201
 10
3.623908495124648
 20
0.8633126425626251
 10
3.625210162470555
 20
0.8615770861014519
 10
3.626294885258785
 20
0.8596968999351693
 10
3.627090348636837
 20
0.8575997692112318
 10
3.627451922899584
 20
0.8554303236347495
 10
3.627162663489403
 20
0.8532608780582677
 10
3.626150255553696
 20
0.8511637473343302
 10
3.618195621773256
 20
0.8372792956448201
 10
3.616243120754428
 20
0.8332296639020551
 10
3.615013768261088
 20
0.8289630876016353
 10
3.614435249440691
 20
0.824551881596127
 10
3.614507564293233
 20
0.8200683607380529
 10
3.615230712818721
 20
0.8155848398799784
 10
3.616677009869714
 20
0.8113182635795592
 10
3.618701825741108
 20
0.8072686318367942
 10
3.621377475285424
 20
0.8036528892093175
 10
3.62267914263131
 20
0.8022065921583434
 10
3.624053124829761
 20
0.8008326099598928
 10
3.625499421880753
 20
0.7994586277614422
 10
3.627018033784294
 20
0.7981569604155573
 10
3.628536645687832
 20
0.7969999227747613
 10
3.630199887296483
 20
0.7958428851339863
 10
3.631863128905091
 20
0.7947581623457349
 10
3.633598685366283
 20
0.7938180692625931
 10
3.635334241827477
 20
0.7928779761794516
 10
3.637142113141216
 20
0.7920825128013992
 10
3.638949984454954
 20
0.7914316791284567
 10
3.64083017062124
 20
0.7908531603080586
 10
3.642710356787521
 20
0.7903469563402263
 10
3.644662857806348
 20
0.7900576969300273
 10
3.646543043972654
 20
0.7898407523723725
 10
3.648495544991502
 20
0.7897684375198288
 10
3.676192133517937
 20
0.7897684375198288
 10
3.676192133517937
 20
0.8550687493720062
 10
3.67626444837048
 20
0.8565150464229798
 10
3.676336763223022
 20
0.8579613434739751
 10
3.676553707780678
 20
0.8593353256724045
 10
3.676842967190879
 20
0.8607816227233994
 10
3.677276856306186
 20
0.8621556049218501
 10
3.677783060274018
 20
0.8634572722677356
 10
3.678361579094417
 20
0.8646866247610757
 10
3.679012412767359
 20
0.8659159772544159
 10
3.654063788637806
 20
0.8659159772544159
  0
LWPOLYLINE
  5
6B1
330
17
100
AcDbEntity
  8
4
  6
Continuous
100
AcDbPolyline
 90
      213
 70
     0
 43
0.0
 10
3.597532178785383
 20
0.8615047712489076
 10
3.595868937176774
 20
0.8621556049218501
 10
3.594205695568127
 20
0.8627341237422482
 10
3.592542453959477
 20
0.8632403277100804
 10
3.590806897498303
 20
0.8636742168253899
 10
3.589071341037111
 20
0.8639634762355886
 10
3.587335784575937
 20
0.8642527356457881
 10
3.585600228114743
 20
0.8644696802034211
 10
3.583864671653548
 20
0.8646143099085314
 10
3.58205680033981
 20
0.8646866247610757
 10
3.580321243878616
 20
0.8646866247610757
 10
3.578513372564877
 20
0.8646143099085314
 10
3.576777816103705
 20
0.8644696802034211
 10
3.574969944789966
 20
0.8642527356457881
 10
3.573234388328772
 20
0.8640357910881332
 10
3.571498831867598
 20
0.8636742168253899
 10
3.569763275406406
 20
0.8633126425626251
 10
3.566726051599326
 20
0.8623725494794836
 10
3.563761142644794
 20
0.8609985672810543
 10
3.560940863395368
 20
0.8594076405249701
 10
3.558192898998488
 20
0.8574551395061213
 10
3.555661879159263
 20
0.8552856939296395
 10
3.553275489025126
 20
0.8528269889429587
 10
3.551178358301187
 20
0.8502236542511887
 10
3.549298172134903
 20
0.8474756898543088
 10
3.547779560231365
 20
0.8445830957523188
 10
3.546622522590569
 20
0.8415458719452393
 10
3.545754744359971
 20
0.8385086481381602
 10
3.545393170097229
 20
0.8353991094785369
 10
3.545465484949772
 20
0.8322895708189134
 10
3.545971688917626
 20
0.8291800321592901
 10
3.546984096853334
 20
0.826142808352211
 10
3.548575023609394
 20
0.8232502142502207
 10
3.548936597872161
 20
0.8228163251349329
 10
3.54937048698745
 20
0.8224547508721895
 10
3.549804376102739
 20
0.8221654914619904
 10
3.550310580070591
 20
0.8218762320517914
 10
3.550816784038444
 20
0.8217316023466814
 10
3.551322988006298
 20
0.8216592874941365
 10
3.551901506826696
 20
0.8216592874941365
 10
3.552480025647095
 20
0.8218039171992471
 10
3.573017443771117
 20
0.825708919236902
 10
3.574174481411913
 20
0.8259258637945563
 10
3.575331519052708
 20
0.8260704934996667
 10
3.576560871546051
 20
0.8262874380572997
 10
3.577717909186846
 20
0.8263597529098653
 10
3.578947261680187
 20
0.8265043826149545
 10
3.580104299320982
 20
0.8265766974674988
 10
3.581261336961778
 20
0.8265766974674988
 10
3.582490689455118
 20
0.8265766974674988
 10
3.583647727095915
 20
0.8265043826149545
 10
3.58480476473669
 20
0.8264320677624102
 10
3.585961802377486
 20
0.8262874380572997
 10
3.587118840018261
 20
0.8260704934996667
 10
3.588203562806513
 20
0.8257812340894671
 10
3.589360600447308
 20
0.8254919746792685
 10
3.590445323235561
 20
0.825058085563959
 10
3.59153004602379
 20
0.8246241964486713
 10
3.593988751010473
 20
0.823105584545132
 10
3.595796622324209
 20
0.8209361389686502
 10
3.597025974817551
 20
0.8184051191294033
 10
3.597749123343058
 20
0.8155125250274341
 10
3.597821438195603
 20
0.8124753012203552
 10
3.597315234227751
 20
0.8093657625607317
 10
3.596302826292064
 20
0.8064731684587417
 10
3.594784214388523
 20
0.8037975189144274
 10
3.593699491600275
 20
0.8025681664210868
 10
3.592614768812022
 20
0.8013388139277466
 10
3.591313101466136
 20
0.800326405992039
 10
3.590011434120249
 20
0.7993863129088974
 10
3.588637451921822
 20
0.7985185346783006
 10
3.587118840018261
 20
0.7977953861528138
 10
3.585600228114743
 20
0.7972891821849599
 10
3.58400930135864
 20
0.7968552930696723
 10
3.582129115192356
 20
0.7966383485120174
 10
3.580248929026072
 20
0.7966383485120174
 10
3.578441057712335
 20
0.7967829782171279
 10
3.576560871546051
 20
0.7972168673324156
 10
3.574825315084856
 20
0.7977230713002694
 10
3.573017443771117
 20
0.7984462198257562
 10
3.571354202162488
 20
0.7993139980563537
 10
3.569690960553861
 20
0.800326405992039
 10
3.568100033797754
 20
0.8014834436328353
 10
3.566581421894237
 20
0.8027127961261754
 10
3.565135124843219
 20
0.8040867783246261
 10
3.563761142644794
 20
0.8055330753756003
 10
3.562531790151449
 20
0.8070516872791396
 10
3.561302437658111
 20
0.8086426140352449
 10
3.560217714869858
 20
0.8103058556438734
 10
3.559277621786737
 20
0.8119690972525017
 10
3.542572890847805
 20
0.8043760377348256
 10
3.543440669078401
 20
0.8022065921583434
 10
3.544525391866632
 20
0.8001094614344058
 10
3.545971688917626
 20
0.7982292752681017
 10
3.547634930526275
 20
0.7964214039543844
 10
3.54951511669256
 20
0.7947581623457349
 10
3.551612247416476
 20
0.793239550442195
 10
3.553854007845522
 20
0.7918655682437663
 10
3.556240397979661
 20
0.7906362157504256
 10
3.558771417818885
 20
0.7896238078147182
 10
3.561374752510656
 20
0.788756029584121
 10
3.564122716907556
 20
0.7880328810586343
 10
3.566798366451871
 20
0.787598991943346
 10
3.56954633084875
 20
0.787237417680603
 10
3.57229429524563
 20
0.7871651028280375
 10
3.574969944789966
 20
0.7873097325331475
 10
3.577645594334301
 20
0.787598991943346
 10
3.579670410205673
 20
0.7880328810586343
 10
3.581622911224501
 20
0.7886113998790325
 10
3.583575412243352
 20
0.789262233551975
 10
3.585455598409653
 20
0.7900576969300273
 10
3.587263469723371
 20
0.7909977900131688
 10
3.589071341037111
 20
0.7920825128013992
 10
3.590734582645738
 20
0.7931672355896506
 10
3.592397824254388
 20
0.7944689029355356
 10
3.593916436157926
 20
0.7957705702814206
 10
3.595435048061467
 20
0.7972168673324156
 10
3.596809030259897
 20
0.7987354792359555
 10
3.598110697605781
 20
0.800398720844605
 10
3.59926773524658
 20
0.8020619624532335
 10
3.600352458034828
 20
0.8037975189144274
 10
3.60129255111797
 20
0.8056053902281659
 10
3.602160329348568
 20
0.8074855763944491
 10
3.602955792726601
 20
0.8095827071183865
 10
3.603534311546998
 20
0.811679837842324
 10
3.603968200662305
 20
0.8137769685662401
 10
3.604329774925051
 20
0.816018728995288
 10
3.604474404630161
 20
0.8181881745717703
 10
3.604474404630161
 20
0.8203576201482521
 10
3.604329774925051
 20
0.8225270657247339
 10
3.603968200662305
 20
0.8246965113012157
 10
3.603534311546998
 20
0.8265766974674988
 10
3.602955792726601
 20
0.8283845687812377
 10
3.602232644201112
 20
0.8301201252424313
 10
3.601364865970537
 20
0.8318556817036258
 10
3.600280143182283
 20
0.8333742936071651
 10
3.599050790688943
 20
0.8348205906581387
 10
3.597604493637948
 20
0.836122258004045
 10
3.596085881734408
 20
0.8372069807922752
 10
3.595435048061467
 20
0.8376408699075634
 10
3.594711899535981
 20
0.8380747590228725
 10
3.593988751010473
 20
0.8384363332856159
 10
3.593265602484964
 20
0.8387979075483597
 10
3.592542453959477
 20
0.839159481811124
 10
3.591746990581444
 20
0.8394487412213019
 10
3.591023842055959
 20
0.8396656857789565
 10
3.590228378677907
 20
0.8398826303366108
 10
3.589432915299853
 20
0.8400995748942657
 10
3.588637451921822
 20
0.840316519451899
 10
3.587841988543768
 20
0.840461149157009
 10
3.587046525165717
 20
0.8406057788620977
 10
3.586251061787685
 20
0.8407504085672082
 10
3.585455598409653
 20
0.8408227234197525
 10
3.584587820179034
 20
0.8409673531248412
 10
3.583792356801003
 20
0.8410396679774072
 10
3.582996893422973
 20
0.8410396679774072
 10
3.582201430044898
 20
0.8410396679774072
 10
3.581405966666868
 20
0.8411119828299515
 10
3.580610503288834
 20
0.8411119828299515
 10
3.579815039910783
 20
0.8411119828299515
 10
3.579019576532731
 20
0.8411842976824958
 10
3.578151798302133
 20
0.8411842976824958
 10
3.577284020071537
 20
0.8411842976824958
 10
3.576416241840961
 20
0.8411842976824958
 10
3.575548463610363
 20
0.8411119828299515
 10
3.574536055674677
 20
0.8410396679774072
 10
3.573595962591515
 20
0.8409673531248412
 10
3.572583554655828
 20
0.8408950382722968
 10
3.571498831867598
 20
0.8407504085672082
 10
3.570414109079347
 20
0.8405334640095539
 10
3.569257071438551
 20
0.840316519451899
 10
3.552696970204726
 20
0.8372792956448201
 10
3.552263081089419
 20
0.8387979075483597
 10
3.552046136531786
 20
0.8402442045993547
 10
3.552118451384327
 20
0.841762816502894
 10
3.552335395941982
 20
0.843209113553889
 10
3.552841599909815
 20
0.8446554106048626
 10
3.553420118730215
 20
0.8460293928033138
 10
3.554287896960812
 20
0.8474033750017431
 10
3.555227990043952
 20
0.8486327274950832
 10
3.556312712832203
 20
0.8497897651358796
 10
3.557542065325546
 20
0.8509468027766756
 10
3.558843732671431
 20
0.8518868958598169
 10
3.560290029722423
 20
0.8527546740904138
 10
3.561808641625964
 20
0.8534778226159012
 10
3.563327253529505
 20
0.854128656288865
 10
3.564918180285587
 20
0.8545625454041527
 10
3.566581421894237
 20
0.8548518048143519
 10
3.568027718945211
 20
0.8549241196668956
 10
3.56954633084875
 20
0.8549241196668956
 10
3.570992627899745
 20
0.8547794899618075
 10
3.572438924950721
 20
0.8545625454041527
 10
3.573885222001736
 20
0.8542732859939537
 10
3.575331519052708
 20
0.8538393968786659
 10
3.576705501251138
 20
0.853333192910812
 10
3.578079483449589
 20
0.8527546740904138
 10
3.57945346564804
 20
0.8521038404174719
 10
3.580827447846471
 20
0.8513806918919632
 10
3.582129115192356
 20
0.8506575433664764
 10
3.583430782538241
 20
0.8497897651358796
 10
3.58466013503158
 20
0.8489219869052824
 10
3.58588948752492
 20
0.8480542086747069
 10
3.587118840018261
 20
0.8471141155915653
 10
3.588275877659057
 20
0.8461740225084025
 10
3.607005424469384
 20
0.8549964345194405
 10
3.605993016533678
 20
0.8560088424551477
 10
3.604908293745447
 20
0.8570212503908336
 10
3.603823570957218
 20
0.8579613434739751
 10
3.602594218463877
 20
0.8587568068520276
 10
3.601364865970537
 20
0.8595522702300593
 10
3.600135513477194
 20
0.8602754187555675
 10
3.59883384613129
 20
0.8609262524285099
 10
3.597532178785383
 20
0.8615047712489076
  0
LWPOLYLINE
  5
788
330
17
100
AcDbEntity
  8
4
  6
Continuous
100
AcDbPolyline
 90
       21
 70
     0
 43
0.0
 10
3.237691501069613
 20
0.8483434680849056
 10
3.237474556511977
 20
0.8461017076558581
 10
3.236823722839035
 20
0.8440045769319201
 10
3.235811314903328
 20
0.8421967056181822
 10
3.234437332704899
 20
0.8406057788620977
 10
3.232774091096252
 20
0.8393041115162132
 10
3.230893904929968
 20
0.8383640184330712
 10
3.228796774206051
 20
0.8377854996126734
 10
3.226627328629546
 20
0.8375685550550187
 10
3.212092043267094
 20
0.8375685550550187
 10
3.212092043267094
 20
0.8561534721602363
 10
3.210645746216121
 20
0.8596968999351693
 10
3.226916588039745
 20
0.8596968999351693
 10
3.229086033616228
 20
0.859479955377515
 10
3.231183164340166
 20
0.8588291217045719
 10
3.232991035653903
 20
0.8578167137688861
 10
3.234581962409988
 20
0.8564427315704355
 10
3.235883629755871
 20
0.8547071751092413
 10
3.236823722839035
 20
0.8528269889429587
 10
3.237474556511977
 20
0.8506575433664764
 10
3.237691501069613
 20
0.8483434680849056
  0
LWPOLYLINE
  5
79F
330
17
100
AcDbEntity
  8
4
  6
Continuous
100
AcDbPolyline
 90
      114
 70
     0
 43
0.0
 10
3.413538714343061
 20
0.7891899186994305
 10
3.412743250965031
 20
0.7898407523723725
 10
3.411947787586977
 20
0.7907808454555143
 10
3.411152324208926
 20
0.7920825128013992
 10
3.410356860830895
 20
0.7936734395575045
 10
3.409633712305407
 20
0.7955536257237874
 10
3.409055193485009
 20
0.7978677010053581
 10
3.408621304369701
 20
0.8005433505496936
 10
3.408332044959522
 20
0.8035805743567728
 10
3.408332044959522
 20
0.8514530067445294
 10
3.408259730106978
 20
0.8527546740904138
 10
3.407970470696756
 20
0.854128656288865
 10
3.407464266728904
 20
0.8555026384872943
 10
3.406741118203417
 20
0.8568043058331793
 10
3.405801025120278
 20
0.8581059731790851
 10
3.40464398747948
 20
0.8594076405249701
 10
3.403342320133595
 20
0.8606369930183108
 10
3.401823708230056
 20
0.8618663455116511
 10
3.400160466621406
 20
0.8629510682998818
 10
3.398280280455121
 20
0.8639634762355886
 10
3.396183149731208
 20
0.8648312544661857
 10
3.394013704154701
 20
0.8656267178442174
 10
3.391554999168022
 20
0.8662052366646156
 10
3.389023979328796
 20
0.8667114406324689
 10
3.386276014931917
 20
0.8670007000426679
 10
3.383383420829948
 20
0.8671453297477567
 10
3.380273882170325
 20
0.8670007000426679
 10
3.377236658363245
 20
0.8665668109273585
 10
3.374271749408711
 20
0.8656990326967617
 10
3.371451470159267
 20
0.8646143099085314
 10
3.368775820614951
 20
0.8631680128575361
 10
3.366172485923181
 20
0.8615047712489076
 10
3.363786095789046
 20
0.8595522702300593
 10
3.361544335359996
 20
0.857382824653577
 10
3.359519519488626
 20
0.8549964345194405
 10
3.357639333322343
 20
0.8524654146802152
 10
3.356048406566238
 20
0.8497897651358796
 10
3.354746739220352
 20
0.8469694858864549
 10
3.3536620164321
 20
0.8440045769319201
 10
3.352866553054068
 20
0.8409673531248412
 10
3.352360349086215
 20
0.8378578144652182
 10
3.352215719381126
 20
0.8346759609530501
 10
3.352215719381126
 20
0.7993863129088974
 10
3.352071089676017
 20
0.7971445524798713
 10
3.351564885708183
 20
0.7952643663135887
 10
3.350914052035241
 20
0.7936734395575045
 10
3.350046273804622
 20
0.7923717722115982
 10
3.349178495574048
 20
0.7913593642759123
 10
3.34831071734345
 20
0.790491586045315
 10
3.347442939112852
 20
0.7898407523723725
 10
3.346792105439912
 20
0.789262233551975
 10
3.362122854180396
 20
0.789262233551975
 10
3.364147670051766
 20
0.7895514929621736
 10
3.365883226512961
 20
0.7902746414876607
 10
3.367401838416522
 20
0.7913593642759123
 10
3.368703505762406
 20
0.7928056613269074
 10
3.369788228550635
 20
0.7943965880829913
 10
3.370583691928691
 20
0.7961321445441854
 10
3.371089895896543
 20
0.7979400158579237
 10
3.37137915530672
 20
0.7997478871716412
 10
3.371523785011808
 20
0.8023512218634321
 10
3.371162210749087
 20
0.8050268714077677
 10
3.370656006781234
 20
0.8076302060995377
 10
3.370005173108292
 20
0.8101612259387842
 10
3.369137394877696
 20
0.8137769685662401
 10
3.368341931499641
 20
0.8173927111937173
 10
3.367618782974156
 20
0.821008453821194
 10
3.36689563444867
 20
0.8246241964486713
 10
3.366244800775725
 20
0.8282399390761485
 10
3.365738596807873
 20
0.8319279965561701
 10
3.365304707692562
 20
0.8355437391836472
 10
3.365015448282385
 20
0.8392317966636683
 10
3.364943133429842
 20
0.8422690204707475
 10
3.365160077987473
 20
0.8453785591303713
 10
3.365666281955326
 20
0.8484157829374503
 10
3.366461745333358
 20
0.8513806918919845
 10
3.367618782974156
 20
0.854128656288865
 10
3.369137394877696
 20
0.8566596761280907
 10
3.371017581043977
 20
0.8588291217045719
 10
3.373403971178113
 20
0.8606369930183108
 10
3.374777953376566
 20
0.8613601415437976
 10
3.376224250427538
 20
0.8618663455116511
 10
3.377742862331078
 20
0.8622279197743944
 10
3.379261474234617
 20
0.8624448643320492
 10
3.380852400990723
 20
0.8624448643320492
 10
3.382443327746786
 20
0.8622279197743944
 10
3.383961939650346
 20
0.8618663455116511
 10
3.385480551553865
 20
0.8613601415437976
 10
3.386854533752317
 20
0.8606369930183108
 10
3.38815620109822
 20
0.8597692147877136
 10
3.389385553591542
 20
0.858684491999462
 10
3.390397961527227
 20
0.8574551395061213
 10
3.391265739757845
 20
0.856081157307692
 10
3.39198888828333
 20
0.8544902305516078
 10
3.392495092251185
 20
0.8527546740904138
 10
3.392712036808818
 20
0.8508744879241312
 10
3.392712036808818
 20
0.799530942614008
 10
3.392784351661363
 20
0.7983015901206672
 10
3.393001296219018
 20
0.7972168673324156
 10
3.393362870481761
 20
0.7961321445441854
 10
3.393796759597069
 20
0.7951197366084781
 10
3.394375278417468
 20
0.7942519583778813
 10
3.395026112090412
 20
0.7933841801473056
 10
3.395749260615897
 20
0.792588716769253
 10
3.396617038846495
 20
0.7918655682437663
 10
3.397557131929634
 20
0.7912870494233681
 10
3.398497225012778
 20
0.7907085306029698
 10
3.399509632948463
 20
0.7902746414876607
 10
3.400594355736714
 20
0.7899130672249174
 10
3.401679078524967
 20
0.7895514929621736
 10
3.402836116165763
 20
0.7893345484045193
 10
3.403920838953994
 20
0.789262233551975
 10
3.405077876594768
 20
0.7891899186994305
 10
3.413538714343061
 20
0.7891899186994305
  0
LWPOLYLINE
  5
813
330
17
100
AcDbEntity
  8
4
  6
Continuous
100
AcDbPolyline
 90
       59
 70
     0
 43
0.0
 10
3.138051634722303
 20
0.8438599472268315
 10
3.145427749682346
 20
0.8495005057256806
 10
3.146584787323145
 20
0.8494281908731363
 10
3.147669510111393
 20
0.8492835611680471
 10
3.148754232899626
 20
0.8489943017578481
 10
3.149766640835311
 20
0.8487050423476494
 10
3.150851363623563
 20
0.8482711532323399
 10
3.151863771559271
 20
0.8477649492645078
 10
3.152803864642391
 20
0.8471864304441096
 10
3.153743957725553
 20
0.8465355967711671
 10
3.154611735956128
 20
0.8458847630982033
 10
3.155479514186726
 20
0.8451616145727165
 10
3.156347292417325
 20
0.8444384660472296
 10
3.157142755795356
 20
0.8436430026691768
 10
3.157865904320863
 20
0.8428475392911456
 10
3.158589052846372
 20
0.8420520759130932
 10
3.159239886519312
 20
0.8413289273876063
 10
3.159818405339691
 20
0.8405334640095539
 10
3.161843221211082
 20
0.8373516104973857
 10
3.163434147967167
 20
0.8340251272801076
 10
3.164591185607965
 20
0.8304816995051751
 10
3.165386648986015
 20
0.8268659568776978
 10
3.16589285295385
 20
0.8231778993976764
 10
3.166109797511503
 20
0.8194175270651104
 10
3.166254427216591
 20
0.8156571547325446
 10
3.166182112364047
 20
0.8118967823999573
 10
3.16603748265896
 20
0.8099442813811299
 10
3.165675908396193
 20
0.8080640952148467
 10
3.165097389575795
 20
0.8062562239011084
 10
3.164374241050308
 20
0.8045206674399143
 10
3.163506462819712
 20
0.8028574258312859
 10
3.162421740031482
 20
0.8012664990751805
 10
3.161264702390686
 20
0.7998202020242069
 10
3.159963035044801
 20
0.7984462198257562
 10
3.158516737993806
 20
0.7972168673324156
 10
3.157070440942808
 20
0.7960598296916199
 10
3.155479514186726
 20
0.7950474217559338
 10
3.153888587430642
 20
0.7941073286727924
 10
3.152297660674536
 20
0.7933118652947393
 10
3.150634419065931
 20
0.7927333464743417
 10
3.148971177457281
 20
0.7922271425065095
 10
3.147380250701176
 20
0.7918655682437663
 10
3.146440157618053
 20
0.7919378830963101
 10
3.145500064534893
 20
0.7920101979488549
 10
3.144559971451773
 20
0.7922271425065095
 10
3.143692193221154
 20
0.7925164019167081
 10
3.142824414990578
 20
0.7928779761794516
 10
3.142028951612526
 20
0.7933118652947393
 10
3.141233488234473
 20
0.7938903841151375
 10
3.140582654561531
 20
0.7944689029355356
 10
3.139859506036043
 20
0.7951920514610438
 10
3.139353302068188
 20
0.7959875148390749
 10
3.138919412952901
 20
0.7968552930696723
 10
3.138557838690158
 20
0.7977953861528138
 10
3.138340894132502
 20
0.7987354792359555
 10
3.138196264427393
 20
0.7997478871716412
 10
3.138051634722303
 20
0.8007602951073485
 10
3.138051634722303
 20
0.8017727030430343
 10
3.138051634722303
 20
0.8438599472268315
  0
LWPOLYLINE
  5
850
330
17
100
AcDbEntity
  8
4
  6
Continuous
100
AcDbPolyline
 90
       61
 70
     0
 43
0.0
 10
3.237980760479832
 20
0.8320003114087144
 10
3.240077891203748
 20
0.8321449411138248
 10
3.242102707075142
 20
0.8324342005240234
 10
3.243910578388859
 20
0.8328680896393112
 10
3.245573819997508
 20
0.8334466084597098
 10
3.247020117048506
 20
0.8341697569851962
 10
3.248394099246954
 20
0.8349652203632491
 10
3.249623451740294
 20
0.8359053134463907
 10
3.250708174528526
 20
0.8369900362346209
 10
3.251648267611665
 20
0.8381470738754169
 10
3.252443730989697
 20
0.8393764263687575
 10
3.253094564662663
 20
0.8406780937146425
 10
3.253600768630494
 20
0.8421243907656375
 10
3.254034657745801
 20
0.8435706878166325
 10
3.254323917155981
 20
0.8450892997201721
 10
3.254468546861111
 20
0.8466802264762558
 10
3.254540861713658
 20
0.8483434680849056
 10
3.254468546861111
 20
0.8498620799884452
 10
3.254179287450893
 20
0.8513806918919845
 10
3.25381771318815
 20
0.8528269889429587
 10
3.253239194367751
 20
0.8542732859939537
 10
3.252588360694808
 20
0.8556472681923828
 10
3.251792897316755
 20
0.8569489355382893
 10
3.250852804233636
 20
0.85817828803163
 10
3.249840396297928
 20
0.8593353256724258
 10
3.248683358657133
 20
0.8603477336081118
 10
3.247454006163793
 20
0.8612878266912533
 10
3.24622465367045
 20
0.8620832900693057
 10
3.244850671472021
 20
0.8628064385947926
 10
3.243404374421028
 20
0.8633849574151907
 10
3.241958077370033
 20
0.8637465316779342
 10
3.240439465466511
 20
0.8640357910881332
 10
3.238920853562953
 20
0.8641081059406776
 10
3.188300456778317
 20
0.8641081059406776
 10
3.189023605303821
 20
0.8635295871202794
 10
3.189674438976768
 20
0.8629510682998818
 10
3.190325272649729
 20
0.8623002346269393
 10
3.190903791470129
 20
0.8617217158065411
 10
3.191482310290504
 20
0.8611431969861433
 10
3.192060829110903
 20
0.8604200484606561
 10
3.192567033078734
 20
0.8596968999351693
 10
3.193073237046588
 20
0.8588291217045719
 10
3.193796385572076
 20
0.8572381949484883
 10
3.194374904392473
 20
0.8553580087822052
 10
3.194736478655241
 20
0.8535501374684669
 10
3.194881108360329
 20
0.8521038404174719
 10
3.19495342321287
 20
0.7870927879754932
 10
3.212381302677316
 20
0.8023512218634321
 10
3.212381302677316
 20
0.8325065153765683
 10
3.220046677047537
 20
0.8325788302291126
 10
3.246152338817906
 20
0.7893345484045193
 10
3.2686422579608
 20
0.7891899186994305
 10
3.267268275762349
 20
0.7899853820774618
 10
3.265894293563921
 20
0.7909254751606245
 10
3.264592626218013
 20
0.7918655682437663
 10
3.263290958872127
 20
0.7929502910319963
 10
3.262061606378789
 20
0.7939626989676824
 10
3.260904568737994
 20
0.7951197366084781
 10
3.259747531097196
 20
0.7962767742492742
 10
3.258590493456401
 20
0.7975061267426148
 10
3.237980760479832
 20
0.8320003114087144
  0
LWPOLYLINE
  5
88F
330
17
100
AcDbEntity
  8
4
  6
Continuous
100
AcDbPolyline
 90
       83
 70
     0
 43
0.0
 10
3.167411464857388
 20
0.8562981018653468
 10
3.166254427216591
 20
0.857382824653577
 10
3.165097389575795
 20
0.8584675474418286
 10
3.163940351935019
 20
0.859479955377515
 10
3.162710999441681
 20
0.8604200484606561
 10
3.161409332095773
 20
0.8612155118387089
 10
3.159963035044801
 20
0.8619386603641958
 10
3.158372108288696
 20
0.8625894940371383
 10
3.156564236974956
 20
0.8630233831524474
 10
3.122865515686911
 20
0.8443661511946853
 10
3.122720885981823
 20
0.7962767742492742
 10
3.122793200834363
 20
0.7954813108712429
 10
3.122937830539453
 20
0.7946135326406456
 10
3.123227089949674
 20
0.7938903841151375
 10
3.123588664212396
 20
0.7931672355896506
 10
3.124022553327705
 20
0.7925164019167081
 10
3.12452875729556
 20
0.7918655682437663
 10
3.125107276115958
 20
0.7913593642759123
 10
3.1257581097889
 20
0.7908531603080586
 10
3.126842832577151
 20
0.7902023266351161
 10
3.127999870217926
 20
0.7896238078147182
 10
3.129156907858721
 20
0.7891176038468857
 10
3.130386260352061
 20
0.7886837147315768
 10
3.131615612845403
 20
0.7883944553213775
 10
3.132844965338743
 20
0.7881051959111785
 10
3.13414663268463
 20
0.7878882513535455
 10
3.135448300030536
 20
0.7876713067958907
 10
3.136749967376418
 20
0.787598991943346
 10
3.138051634722303
 20
0.7875266770907807
 10
3.139353302068188
 20
0.7875266770907807
 10
3.14072728426662
 20
0.787598991943346
 10
3.142028951612526
 20
0.7876713067958907
 10
3.143330618958431
 20
0.7878159365009794
 10
3.144632286304317
 20
0.78796056620609
 10
3.1459339536502
 20
0.7881775107637445
 10
3.147452565553741
 20
0.7883944553213775
 10
3.148971177457281
 20
0.788756029584121
 10
3.150417474508254
 20
0.7891176038468857
 10
3.151863771559271
 20
0.7895514929621736
 10
3.153310068610243
 20
0.7900576969300273
 10
3.154756365661218
 20
0.7906362157504256
 10
3.156130347859689
 20
0.7912870494233681
 10
3.157504330058121
 20
0.7919378830963101
 10
3.158805997404003
 20
0.7926610316217974
 10
3.160179979602435
 20
0.7934564949998499
 10
3.161409332095773
 20
0.7943242732304471
 10
3.162710999441681
 20
0.7951920514610438
 10
3.163940351935019
 20
0.7961321445441854
 10
3.165097389575795
 20
0.7970722376273267
 10
3.166254427216591
 20
0.798084645563013
 10
3.167411464857388
 20
0.7990970534986987
 10
3.169219336171126
 20
0.8009772396649818
 10
3.170882577779774
 20
0.8029297406838303
 10
3.172473504535861
 20
0.8049545565552021
 10
3.173847486734312
 20
0.8071240021317056
 10
3.175149154080196
 20
0.8094380774132758
 10
3.176306191720991
 20
0.8117521526948683
 10
3.177246284804111
 20
0.8141385428290048
 10
3.178114063034731
 20
0.8165972478156858
 10
3.178764896707671
 20
0.8190559528023671
 10
3.179271100675506
 20
0.8216592874941365
 10
3.179632674938247
 20
0.8241903073333622
 10
3.179849619495905
 20
0.8267936420251535
 10
3.179921934348445
 20
0.8293246618643788
 10
3.179777304643337
 20
0.8319279965561701
 10
3.179488045233158
 20
0.8345313312479396
 10
3.17905415611785
 20
0.8370623510871865
 10
3.178692581855107
 20
0.8384363332856159
 10
3.178331007592363
 20
0.8398103154840665
 10
3.177897118477055
 20
0.8411842976824958
 10
3.177390914509222
 20
0.8424859650283808
 10
3.176812395688823
 20
0.8437876323742871
 10
3.176161562015881
 20
0.8450892997201721
 10
3.175510728342918
 20
0.8463186522135124
 10
3.17478757981743
 20
0.8475480047068531
 10
3.173992116439399
 20
0.8487773572001938
 10
3.173124338208802
 20
0.8499343948409896
 10
3.172256559978205
 20
0.8510914324817859
 10
3.17138878174761
 20
0.8521761552700157
 10
3.170448688664466
 20
0.8532608780582677
 10
3.169436280728779
 20
0.8542732859939537
 10
3.168423872793094
 20
0.8552856939296395
 10
3.167411464857388
 20
0.8562981018653468
  0
LWPOLYLINE
  5
8E4
330
17
100
AcDbEntity
  8
4
  6
Continuous
100
AcDbPolyline
 90
      271
 70
     0
 43
0.0
 10
3.326939514269431
 20
0.8352544797734477
 10
3.325927106333746
 20
0.8358329985938464
 10
3.324914698398038
 20
0.8363392025616784
 10
3.323829975609807
 20
0.8367730916769875
 10
3.322817567674122
 20
0.8372069807922752
 10
3.32173284488587
 20
0.8376408699075634
 10
3.32064812209762
 20
0.8379301293177626
 10
3.319563399309388
 20
0.8382917035805272
 10
3.318478676521158
 20
0.8385809629907264
 10
3.317321638880363
 20
0.8387979075483597
 10
3.316236916092111
 20
0.8389425372534697
 10
3.315007563598771
 20
0.8390871669585584
 10
3.313850525957975
 20
0.8392317966636683
 10
3.312621173464635
 20
0.8393041115162132
 10
3.311391820971292
 20
0.8393041115162132
 10
3.310162468477952
 20
0.8393041115162132
 10
3.308860801132067
 20
0.8392317966636683
 10
3.29179449593039
 20
0.8240456776282732
 10
3.293096163276274
 20
0.8243349370384722
 10
3.29439783062216
 20
0.8246241964486713
 10
3.295699497968064
 20
0.8249134558588703
 10
3.297001165313973
 20
0.8251304004165252
 10
3.298302832659858
 20
0.8253473449741582
 10
3.299604500005743
 20
0.8254919746792685
 10
3.300906167351628
 20
0.8256366043843577
 10
3.302280149550055
 20
0.825708919236902
 10
3.303581816895941
 20
0.8257812340894671
 10
3.304883484241846
 20
0.8257812340894671
 10
3.306185151587754
 20
0.8257812340894671
 10
3.307486818933639
 20
0.825708919236902
 10
3.308788486279524
 20
0.8255642895318128
 10
3.310090153625408
 20
0.8253473449741582
 10
3.311391820971292
 20
0.8251304004165252
 10
3.312693488317176
 20
0.8248411410063258
 10
3.313561266547798
 20
0.824551881596127
 10
3.314501359630916
 20
0.8243349370384722
 10
3.315369137861512
 20
0.8239733627757289
 10
3.316236916092111
 20
0.8236841033655302
 10
3.317104694322708
 20
0.8233225291027864
 10
3.317972472553305
 20
0.8229609548400221
 10
3.318767935931334
 20
0.8225270657247339
 10
3.319635714161955
 20
0.8220931766094459
 10
3.320431177539986
 20
0.8215869726415922
 10
3.321154326065473
 20
0.8210807686737389
 10
3.32187747459096
 20
0.8205745647059064
 10
3.322600623116466
 20
0.8199960458855086
 10
3.323251456789411
 20
0.8193452122125661
 10
3.323902290462351
 20
0.8186943785396232
 10
3.324480809282751
 20
0.8179712300141151
 10
3.325059328103147
 20
0.8172480814886283
 10
3.325927106333746
 20
0.8159464141427219
 10
3.326650254859231
 20
0.8145001170917483
 10
3.327156458827086
 20
0.8130538200407533
 10
3.327518033089828
 20
0.8114628932846697
 10
3.327734977647485
 20
0.8099442813811299
 10
3.327662662794941
 20
0.8083533546250459
 10
3.327301088532176
 20
0.8068347427215066
 10
3.326722569711778
 20
0.8053884456705111
 10
3.325854791481201
 20
0.8040867783246261
 10
3.324842383545495
 20
0.8030020555363746
 10
3.323685345904698
 20
0.8020619624532335
 10
3.322311363706268
 20
0.8012664990751805
 10
3.320865066655296
 20
0.800615665402238
 10
3.31941876960428
 20
0.8001094614344058
 10
3.317827842848216
 20
0.7996755723190969
 10
3.316309230944656
 20
0.7993863129088974
 10
3.31558608241917
 20
0.7993139980563537
 10
3.314790619041136
 20
0.7991693683512644
 10
3.314067470515627
 20
0.7990970534986987
 10
3.313272007137576
 20
0.7990970534986987
 10
3.312476543759545
 20
0.7990247386461541
 10
3.311753395234058
 20
0.7990247386461541
 10
3.310957931855984
 20
0.7990247386461541
 10
3.310162468477952
 20
0.7990247386461541
 10
3.309439319952466
 20
0.7990247386461541
 10
3.308643856574435
 20
0.7990970534986987
 10
3.307848393196361
 20
0.7990970534986987
 10
3.307052929818329
 20
0.7992416832038093
 10
3.306329781292839
 20
0.7993139980563537
 10
3.305534317914789
 20
0.7994586277614637
 10
3.304811169389281
 20
0.7996032574665523
 10
3.30401570601125
 20
0.7997478871716412
 10
3.303147927780674
 20
0.7999648317292956
 10
3.302280149550055
 20
0.8001817762869503
 10
3.301484686172024
 20
0.8004710356971493
 10
3.300616907941426
 20
0.8007602951073485
 10
3.299821444563375
 20
0.8011218693700918
 10
3.299025981185343
 20
0.8014834436328353
 10
3.298230517807291
 20
0.8019173327481443
 10
3.297435054429239
 20
0.8023512218634321
 10
3.296711905903751
 20
0.8027851109787198
 10
3.29591644252572
 20
0.8032913149465736
 10
3.295193294000211
 20
0.8037975189144274
 10
3.294470145474703
 20
0.8043037228822596
 10
3.293746996949216
 20
0.8048099268501134
 10
3.293096163276274
 20
0.8053884456705111
 10
3.292373014750789
 20
0.8059669644909092
 10
3.291722181077845
 20
0.8065454833113069
 10
3.290637458289593
 20
0.8076302060995377
 10
3.289625050353906
 20
0.8087872437403341
 10
3.288612642418221
 20
0.8099442813811299
 10
3.287600234482515
 20
0.8111013190219258
 10
3.286660141399394
 20
0.8122583566627008
 10
3.285792363168776
 20
0.8134877091560415
 10
3.284852270085655
 20
0.8147893765019473
 10
3.284056806707583
 20
0.816018728995288
 10
3.283261343329551
 20
0.8173203963411729
 10
3.282538194804062
 20
0.8186943785396232
 10
3.28188736113112
 20
0.8199960458855086
 10
3.281236527458179
 20
0.8213700280839379
 10
3.28065800863778
 20
0.8228163251349329
 10
3.280224119522473
 20
0.8241903073333622
 10
3.279790230407183
 20
0.825708919236902
 10
3.279428656144442
 20
0.8271552162878968
 10
3.278922452176588
 20
0.8304816995051751
 10
3.278705507618951
 20
0.8339528124275419
 10
3.278922452176588
 20
0.8374239253499304
 10
3.279500970996984
 20
0.8407504085672082
 10
3.280513378932671
 20
0.8439322620793758
 10
3.28203199083621
 20
0.8468248561813663
 10
3.283984491855037
 20
0.8494281908731363
 10
3.286443196841718
 20
0.8515253215970737
 10
3.287310975072336
 20
0.852031525564927
 10
3.288178753302912
 20
0.8524654146802152
 10
3.289118846386075
 20
0.8528993037955029
 10
3.289986624616651
 20
0.8532608780582677
 10
3.290926717699814
 20
0.8535501374684669
 10
3.291939125635477
 20
0.8538393968786659
 10
3.292879218718641
 20
0.8540563414362994
 10
3.293891626654326
 20
0.8542009711414094
 10
3.294831719737466
 20
0.8543456008464978
 10
3.295844127673176
 20
0.8544179156990423
 10
3.296856535608838
 20
0.8544179156990423
 10
3.297868943544547
 20
0.8544179156990423
 10
3.298881351480255
 20
0.8544179156990423
 10
3.299893759415919
 20
0.8543456008464978
 10
3.300833852499081
 20
0.8542009711414094
 10
3.301846260434768
 20
0.8540563414362994
 10
3.303147927780674
 20
0.8538393968786659
 10
3.30444959512656
 20
0.8535501374684669
 10
3.305751262472444
 20
0.8532608780582677
 10
3.306980614965785
 20
0.8528269889429587
 10
3.308209967459123
 20
0.8523930998276709
 10
3.309439319952466
 20
0.8518868958598169
 10
3.310668672445806
 20
0.8513806918919845
 10
3.311898024939146
 20
0.8508021730715869
 10
3.313055062579941
 20
0.8501513393986231
 10
3.314139785368194
 20
0.8495005057256806
 10
3.315296823008969
 20
0.8487050423476494
 10
3.3163815457972
 20
0.8479818938221407
 10
3.317466268585451
 20
0.8471141155915653
 10
3.318478676521158
 20
0.8463186522135124
 10
3.319491084456843
 20
0.8453785591303713
 10
3.320431177539986
 20
0.8444384660472296
 10
3.333809425261643
 20
0.8516699513021627
 10
3.332941647031024
 20
0.8532608780582677
 10
3.33192923909536
 20
0.8547071751092413
 10
3.330772201454563
 20
0.856081157307692
 10
3.329470534108677
 20
0.8573105098010323
 10
3.328096551910228
 20
0.8584675474418286
 10
3.326577940006687
 20
0.859479955377515
 10
3.325059328103147
 20
0.8604200484606561
 10
3.323468401347065
 20
0.8612878266912533
 10
3.322239048853725
 20
0.8618663455116511
 10
3.320937381507839
 20
0.8624448643320492
 10
3.319708029014497
 20
0.8629510682998818
 10
3.318406361668613
 20
0.8633849574151907
 10
3.317032379470142
 20
0.8638188465304789
 10
3.315730712124257
 20
0.8641081059406776
 10
3.314356729925826
 20
0.8643973653508767
 10
3.312982747727397
 20
0.8646143099085314
 10
3.311608765528946
 20
0.8647589396136201
 10
3.310234783330497
 20
0.8648312544661857
 10
3.308788486279524
 20
0.8649035693187299
 10
3.307414504081092
 20
0.8649035693187299
 10
3.306040521882622
 20
0.8648312544661857
 10
3.304666539684192
 20
0.8646866247610757
 10
3.303292557485761
 20
0.8644696802034211
 10
3.301918575287312
 20
0.8641804207932219
 10
3.300616907941426
 20
0.8638911613830233
 10
3.299387555448086
 20
0.8634572722677356
 10
3.298085888102183
 20
0.8630233831524474
 10
3.296856535608838
 20
0.8625894940371383
 10
3.295699497968064
 20
0.8620109752167401
 10
3.294470145474703
 20
0.8614324563963425
 10
3.293313107833928
 20
0.8607816227233994
 10
3.292156070193152
 20
0.8601307890504569
 10
3.290999032552356
 20
0.8594076405249701
 10
3.289914309764106
 20
0.858684491999462
 10
3.288829586975857
 20
0.8578890286214308
 10
3.287744864187623
 20
0.857093565243378
 10
3.286660141399394
 20
0.8562257870127812
 10
3.285647733463687
 20
0.8553580087822052
 10
3.284563010675435
 20
0.8544902305516078
 10
3.28355060273975
 20
0.8536224523210112
 10
3.282104305688755
 20
0.8523207849751262
 10
3.280730323490325
 20
0.8510191176292199
 10
3.279356341291896
 20
0.8496451354307906
 10
3.278054673945988
 20
0.8481988383797956
 10
3.276753006600102
 20
0.8467525413288006
 10
3.275523654106763
 20
0.8453062442778264
 10
3.274366616465966
 20
0.8437876323742871
 10
3.273209578825191
 20
0.8421967056181822
 10
3.272197170889485
 20
0.8406057788620977
 10
3.271184762953779
 20
0.8389425372534697
 10
3.270244669870658
 20
0.8372792956448201
 10
3.269449206492585
 20
0.8355437391836472
 10
3.268726057967096
 20
0.8338081827224527
 10
3.268075224294154
 20
0.8320003114087144
 10
3.267496705473758
 20
0.830192440094976
 10
3.26706281635847
 20
0.8283122539286928
 10
3.26662892724318
 20
0.8257812340894671
 10
3.266411982685526
 20
0.8231778993976764
 10
3.266339667832961
 20
0.8206468795584507
 10
3.266411982685526
 20
0.8180435448666598
 10
3.266701242095725
 20
0.8155125250274341
 10
3.267207446063579
 20
0.812981505188209
 10
3.267858279736523
 20
0.8104504853489833
 10
3.268726057967096
 20
0.8080640952148467
 10
3.269304576787496
 20
0.8067624278689404
 10
3.269955410460438
 20
0.8054607605230554
 10
3.27060624413338
 20
0.8042314080297153
 10
3.271401707511454
 20
0.8030743703889189
 10
3.272197170889485
 20
0.8019173327481443
 10
3.273064949120063
 20
0.8007602951073485
 10
3.274005042203222
 20
0.7996755723190969
 10
3.274945135286366
 20
0.7986631643834106
 10
3.275957543222053
 20
0.7976507564477251
 10
3.277042266010301
 20
0.7967106633645837
 10
3.278126988798555
 20
0.7957705702814206
 10
3.279211711586763
 20
0.7949027920508451
 10
3.28036874922756
 20
0.7941073286727924
 10
3.281598101720898
 20
0.7933841801473056
 10
3.282827454214241
 20
0.7926610316217974
 10
3.284056806707583
 20
0.7920101979488549
 10
3.286949400809571
 20
0.7907808454555143
 10
3.289914309764106
 20
0.7897684375198288
 10
3.292951533571185
 20
0.7890452889943199
 10
3.29606107223081
 20
0.7884667701739432
 10
3.299170610890433
 20
0.7881775107637445
 10
3.302280149550055
 20
0.7880328810586343
 10
3.30538968820968
 20
0.7881775107637445
 10
3.308571541721867
 20
0.7885390850264875
 10
3.311608765528946
 20
0.7891176038468857
 10
3.314573674483461
 20
0.7899130672249174
 10
3.317538583437996
 20
0.7909977900131688
 10
3.320358862687441
 20
0.7922271425065095
 10
3.323034512231754
 20
0.7937457544100488
 10
3.325565532070981
 20
0.7954813108712429
 10
3.327951922205116
 20
0.7974338118900705
 10
3.330193682634163
 20
0.7996032574665523
 10
3.331856924242816
 20
0.8015557584853796
 10
3.333375536146333
 20
0.8036528892093175
 10
3.334749518344761
 20
0.8057500199332546
 10
3.335906555985558
 20
0.8080640952148467
 10
3.336918963921266
 20
0.8103781704964177
 10
3.337714427299296
 20
0.8127645606305542
 10
3.338220631267151
 20
0.8152232656172351
 10
3.338582205529916
 20
0.8177542854564608
 10
3.338654520382459
 20
0.8197791013278539
 10
3.338509890677351
 20
0.8217316023466814
 10
3.338148316414604
 20
0.8236841033655302
 10
3.337497482741665
 20
0.8256366043843577
 10
3.336629704511066
 20
0.8272275311404413
 10
3.335617296575381
 20
0.8286738281914363
 10
3.33438794408204
 20
0.8300478103898869
 10
3.333086276736134
 20
0.8312771628832271
 10
3.331639979685138
 20
0.8323618856714583
 10
3.330121367781623
 20
0.8334466084597098
 10
3.328530441025516
 20
0.8343867015428509
 10
3.326939514269431
 20
0.8352544797734477
  0
LWPOLYLINE
  5
9F5
330
17
100
AcDbEntity
  8
4
  6
Continuous
 62
     4
100
AcDbPolyline
 90
       96
 70
     0
 43
0.0
 10
3.491516090685435
 20
0.789262233551975
 10
3.49035905304464
 20
0.7899853820774618
 10
3.489129700551298
 20
0.7908531603080586
 10
3.487828033205413
 20
0.7919378830963101
 10
3.486670995564619
 20
0.7931672355896506
 10
3.485586272776366
 20
0.79454121778808
 10
3.48471849454579
 20
0.7962044593967299
 10
3.484139975725393
 20
0.7980123307104681
 10
3.483923031167718
 20
0.8001094614344058
 10
3.483923031167718
 20
0.8480542086747069
 10
3.483778401462629
 20
0.8500790245460787
 10
3.483489142052428
 20
0.8519592107123614
 10
3.482910623232053
 20
0.8537670820260998
 10
3.482187474706546
 20
0.8554303236347495
 10
3.481319696475948
 20
0.857093565243378
 10
3.480234973687696
 20
0.8585398622943733
 10
3.479005621194356
 20
0.8599138444928026
 10
3.477631638995926
 20
0.8612155118387089
 10
3.476185341944953
 20
0.8623725494794836
 10
3.474594415188846
 20
0.8633849574151907
 10
3.472931173580196
 20
0.8642527356457881
 10
3.471267931971588
 20
0.8650481990238192
 10
3.469460060657852
 20
0.8656267178442174
 10
3.467652189344113
 20
0.8660606069595264
 10
3.465772003177828
 20
0.8664221812222699
 10
3.463891817011526
 20
0.8665668109273585
 10
3.462590149665618
 20
0.8665668109273585
 10
3.461288482319734
 20
0.8665668109273585
 10
3.460059129826394
 20
0.8664221812222699
 10
3.458757462480507
 20
0.8662775515171594
 10
3.457528109987169
 20
0.8660606069595264
 10
3.456226442641284
 20
0.8656990326967617
 10
3.454997090147944
 20
0.8653374584340182
 10
3.453767737654601
 20
0.8649758841712749
 10
3.452538385161261
 20
0.8644696802034211
 10
3.451381347520466
 20
0.8639634762355886
 10
3.450224309879671
 20
0.8633849574151907
 10
3.449067272238874
 20
0.8628064385947926
 10
3.447910234598076
 20
0.8620832900693057
 10
3.446825511809868
 20
0.8614324563963425
 10
3.445740789021618
 20
0.8607093078708551
 10
3.444728381085911
 20
0.8599138444928026
 10
3.444294491970621
 20
0.8609262524285099
 10
3.443715973150225
 20
0.8620109752167401
 10
3.442920509772171
 20
0.8630233831524474
 10
3.442052731541593
 20
0.8639634762355886
 10
3.441184953310978
 20
0.8647589396136201
 10
3.440317175080402
 20
0.8654097732865626
 10
3.439521711702371
 20
0.8658436624018717
 10
3.438943192881971
 20
0.8659882921069607
 10
3.421226054007353
 20
0.8659882921069607
 10
3.422310776795582
 20
0.8649758841712749
 10
3.423540129288921
 20
0.8638188465304789
 10
3.424914111487373
 20
0.8624448643320492
 10
3.426215778833258
 20
0.8608539375759656
 10
3.4274451313266
 20
0.8590460662622271
 10
3.42838522440974
 20
0.8571658800959227
 10
3.429108372935248
 20
0.8550687493720062
 10
3.429325317492883
 20
0.8528993037955029
 10
3.429325317492883
 20
0.7893345484045193
 10
3.445596159316529
 20
0.8024958515685211
 10
3.445596159316529
 20
0.8484880977899946
 10
3.445668474169073
 20
0.8496451354307906
 10
3.445885418726708
 20
0.8507298582190207
 10
3.446319307842016
 20
0.851742266154728
 10
3.446825511809868
 20
0.8527546740904138
 10
3.447404030630245
 20
0.8537670820260998
 10
3.448127179155755
 20
0.854634860256697
 10
3.44899495738633
 20
0.8555026384872943
 10
3.449862735616926
 20
0.8562981018653468
 10
3.450875143552611
 20
0.8569489355382893
 10
3.451887551488321
 20
0.8575274543586875
 10
3.452972274276572
 20
0.8581059731790851
 10
3.454056997064801
 20
0.8584675474418286
 10
3.455214034705576
 20
0.8588291217045719
 10
3.456371072346373
 20
0.8589737514096611
 10
3.457455795134624
 20
0.8591183811147711
 10
3.458612832775421
 20
0.8590460662622271
 10
3.460420704089159
 20
0.8587568068520276
 10
3.462156260550353
 20
0.85817828803163
 10
3.463819502158982
 20
0.857382824653577
 10
3.465265799209976
 20
0.8562981018653468
 10
3.466495151703317
 20
0.8549964345194405
 10
3.467435244786436
 20
0.8534778226159012
 10
3.468013763606835
 20
0.8516699513021627
 10
3.468230708164512
 20
0.8496451354307906
 10
3.468230708164512
 20
0.7983015901206672
 10
3.468447652722144
 20
0.7964214039543844
 10
3.469026171542543
 20
0.7946858474931906
 10
3.46989394977314
 20
0.7931672355896506
 10
3.471123302266458
 20
0.7918655682437663
 10
3.472569599317473
 20
0.7907808454555143
 10
3.474232840926104
 20
0.7899130672249174
 10
3.476040712239843
 20
0.7894068632570848
 10
3.477993213258668
 20
0.789262233551975
 10
3.491516090685435
 20
0.789262233551975
  0
LWPOLYLINE
  5
A57
330
17
100
AcDbEntity
  8
4
  6
Continuous
100
AcDbPolyline
 90
       46
 70
     0
 43
0.0
 10
3.796328441387476
 20
0.8657713475493274
 10
3.757061476453126
 20
0.8657713475493274
 10
3.757929254683703
 20
0.8646143099085314
 10
3.758797032914301
 20
0.8633126425626251
 10
3.759520181439807
 20
0.8620109752167401
 10
3.760171015112749
 20
0.8606369930183108
 10
3.760749533933147
 20
0.8591906959673154
 10
3.761183423048413
 20
0.8577443989163205
 10
3.761472682458634
 20
0.8563704167178912
 10
3.761544997311176
 20
0.8549241196668956
 10
3.761544997311176
 20
0.7881775107637445
 10
3.779045191628146
 20
0.8050268714077677
 10
3.779045191628146
 20
0.8349652203632491
 10
3.802619833559268
 20
0.8349652203632491
 10
3.804138445462831
 20
0.8350375352157934
 10
3.805729372218891
 20
0.8351098500683383
 10
3.807175669269907
 20
0.8353267946259926
 10
3.808694281173426
 20
0.8356160540361912
 10
3.810068263371857
 20
0.8360499431514794
 10
3.811442245570306
 20
0.8366284619718776
 10
3.812743912916212
 20
0.8372792956448201
 10
3.813973265409552
 20
0.8380747590228725
 10
3.815057988197784
 20
0.839014852106014
 10
3.815998081280924
 20
0.84017188974681
 10
3.816865859511521
 20
0.8414012422401507
 10
3.817589008037031
 20
0.8428475392911456
 10
3.818095212004863
 20
0.8445107808997745
 10
3.818529101120152
 20
0.8463186522135124
 10
3.818746045677805
 20
0.8483434680849056
 10
3.818746045677805
 20
0.8505852285139321
 10
3.818529101120152
 20
0.8529716186480687
 10
3.818095212004863
 20
0.8551410642245508
 10
3.817372063479356
 20
0.8570212503908336
 10
3.816504285248779
 20
0.858684491999462
 10
3.815347247607982
 20
0.8601307890504569
 10
3.814117895114644
 20
0.8613601415437976
 10
3.812671598063648
 20
0.8623725494794836
 10
3.811152986160109
 20
0.8632403277100804
 10
3.809417429698914
 20
0.8639634762355886
 10
3.807681873237743
 20
0.8645419950559867
 10
3.805874001924001
 20
0.8649758841712749
 10
3.80399381575772
 20
0.8652651435814735
 10
3.80204131473887
 20
0.8655544029916725
 10
3.800088813720042
 20
0.8656990326967617
 10
3.798208627553761
 20
0.8657713475493274
 10
3.796328441387476
 20
0.8657713475493274
  0
LWPOLYLINE
  5
A87
330
17
100
AcDbEntity
  8
4
  6
Continuous
100
AcDbPolyline
 90
       88
 70
     0
 43
0.0
 10
4.574638777266248
 20
0.8646866247610757
 10
4.52727254884637
 20
0.8646866247610757
 10
4.528574216192255
 20
0.8636742168253899
 10
4.529875883538139
 20
0.8625171791845936
 10
4.531032921178934
 20
0.8612155118387089
 10
4.532117643967167
 20
0.8599138444928026
 10
4.532985422197763
 20
0.8583952325892628
 10
4.533636255870705
 20
0.8568766206857237
 10
4.534070144986014
 20
0.8551410642245508
 10
4.534287089543648
 20
0.8534055077633563
 10
4.534287089543648
 20
0.8031466852414849
 10
4.522065879462786
 20
0.7897684375198288
 10
4.565671735550123
 20
0.7897684375198288
 10
4.566539513780718
 20
0.7897684375198288
 10
4.567407292011298
 20
0.7899130672249174
 10
4.568275070241915
 20
0.7899853820774618
 10
4.569070533619946
 20
0.7902023266351161
 10
4.569938311850544
 20
0.7904192711927707
 10
4.57080609008114
 20
0.7907085306029698
 10
4.571601553459172
 20
0.7909977900131688
 10
4.572469331689767
 20
0.7914316791284567
 10
4.573264795067823
 20
0.7917932533912
 10
4.574060258445851
 20
0.7922271425065095
 10
4.57478340697136
 20
0.7927333464743417
 10
4.57550655549687
 20
0.793239550442195
 10
4.576229704022356
 20
0.7938180692625931
 10
4.576952852547843
 20
0.7943965880829913
 10
4.577531371368241
 20
0.7949751069033895
 10
4.578182205041181
 20
0.7956259405763317
 10
4.579917761502376
 20
0.7977953861528138
 10
4.581291743700806
 20
0.800326405992039
 10
4.582304151636514
 20
0.8030020555363746
 10
4.582882670456911
 20
0.8057500199332546
 10
4.582954985309456
 20
0.8085702991826792
 10
4.582521096194146
 20
0.8111736338744702
 10
4.581436373405896
 20
0.8136323388611515
 10
4.579773131797288
 20
0.8158017844376336
 10
4.564008493941495
 20
0.8090041882979884
 10
4.564803957319528
 20
0.8078471506571924
 10
4.565454790992469
 20
0.8065454833113069
 10
4.565960994960322
 20
0.8052438159654011
 10
4.566322569223068
 20
0.8038698337669718
 10
4.566539513780718
 20
0.8024958515685211
 10
4.566539513780718
 20
0.8011218693700918
 10
4.566322569223068
 20
0.7997478871716412
 10
4.565888680107778
 20
0.7984462198257562
 10
4.56531016128738
 20
0.7975061267426148
 10
4.564659327614438
 20
0.7966383485120174
 10
4.563791549383842
 20
0.7958428851339863
 10
4.562923771153244
 20
0.7952643663135887
 10
4.561911363217538
 20
0.7947581623457349
 10
4.560898955281873
 20
0.7943242732304471
 10
4.55981423249362
 20
0.7941073286727924
 10
4.558729509705369
 20
0.7940350138202481
 10
4.534070144986014
 20
0.7940350138202481
 10
4.550413301662183
 20
0.8109566893168159
 10
4.550413301662183
 20
0.8274444756980956
 10
4.569649052440344
 20
0.8274444756980956
 10
4.569649052440344
 20
0.8332296639020551
 10
4.550702561072381
 20
0.8332296639020551
 10
4.550702561072381
 20
0.8552133790770952
 10
4.547303763002561
 20
0.8604923633132004
 10
4.558223305737514
 20
0.8604923633132004
 10
4.560682010724196
 20
0.8603477336081118
 10
4.56270682659561
 20
0.8597692147877136
 10
4.564297753351671
 20
0.8588291217045719
 10
4.565454790992469
 20
0.8575274543586875
 10
4.566105624665413
 20
0.8560088424551477
 10
4.566322569223068
 20
0.8542732859939537
 10
4.566033309812866
 20
0.8523207849751262
 10
4.565237846434833
 20
0.8503682839562774
 10
4.582159521931404
 20
0.8452339294252608
 10
4.5833165595722
 20
0.8464632819186014
 10
4.584184337802796
 20
0.8478372641170517
 10
4.58483517147574
 20
0.8493558760205914
 10
4.585196745738483
 20
0.8508744879241312
 10
4.585341375443592
 20
0.8524654146802152
 10
4.585196745738483
 20
0.8541286562888432
 10
4.584907486328285
 20
0.8557195830449487
 10
4.584401282360431
 20
0.8573105098010323
 10
4.583750448687487
 20
0.8587568068520276
 10
4.582882670456911
 20
0.8602031039030013
 10
4.581870262521205
 20
0.8614324563963425
 10
4.580640910027865
 20
0.8625171791845936
 10
4.57933924268198
 20
0.8634572722677356
 10
4.577892945630982
 20
0.8641081059406776
 10
4.576302018874901
 20
0.8645419950559867
 10
4.574638777266248
 20
0.8646866247610757
  0
LWPOLYLINE
  5
AE1
330
17
100
AcDbEntity
  8
4
  6
Continuous
100
AcDbPolyline
 90
       21
 70
     0
 43
0.0
 10
3.074036961020418
 20
0.8858508415124372
 10
3.074036961020418
 20
0.8009363613548597
 10
3.077356488581318
 20
0.7680078334963854
 10
3.081298427559872
 20
0.8009363613548597
 10
3.081298427559872
 20
0.8857026483177506
 10
3.081209511643075
 20
0.8869178325141502
 10
3.080972402531573
 20
0.8879848235158631
 10
3.080616738864328
 20
0.8888739826839644
 10
3.080172159280288
 20
0.8896149486573781
 10
3.079609025140484
 20
0.8901780827971805
 10
3.078986613722813
 20
0.8905930237422746
 10
3.078334563666213
 20
0.8908301328537781
 10
3.077682513609618
 20
0.8909190487705728
 10
3.077000824914075
 20
0.8908597714927026
 10
3.076348774857476
 20
0.8906226623812203
 10
3.075726363439803
 20
0.890207721436105
 10
3.075163229300022
 20
0.8896742259352487
 10
3.074718649715961
 20
0.8889628986007805
 10
3.074362986048738
 20
0.8880737394326796
 10
3.074125876937234
 20
0.8870363870698916
 10
3.074036961020418
 20
0.8858508415124372
  0
LWPOLYLINE
  5
AF8
330
17
100
AcDbEntity
  8
4
  6
Continuous
100
AcDbPolyline
 90
       21
 70
     0
 43
0.0
 10
3.061706131775082
 20
0.8737129893063457
 10
3.061706131775082
 20
0.8009659999938058
 10
3.065351684364259
 20
0.7680078334963854
 10
3.069115791509201
 20
0.8008178067991186
 10
3.069115791509201
 20
0.8739797370567739
 10
3.069026875592386
 20
0.8751652826142278
 10
3.068789766480902
 20
0.8761729963380698
 10
3.068434102813657
 20
0.8770325168672254
 10
3.067959884590673
 20
0.8777438442017146
 10
3.067396750450868
 20
0.8782477010636251
 10
3.066774339033218
 20
0.8786330033697947
 10
3.066092650337674
 20
0.8788404738423521
 10
3.065410961642131
 20
0.8788997511202227
 10
3.064729272946587
 20
0.8787811965644818
 10
3.064047584251043
 20
0.8785144488140536
 10
3.063425172833392
 20
0.8780995078689379
 10
3.062862038693591
 20
0.8775363737291568
 10
3.062387820470626
 20
0.8767954077557426
 10
3.062032156803359
 20
0.8759358872265663
 10
3.061795047691878
 20
0.8748985348637996
 10
3.061706131775082
 20
0.8737129893063457
  0
LWPOLYLINE
  5
B0F
330
17
100
AcDbEntity
  8
4
  6
Continuous
100
AcDbPolyline
 90
       21
 70
     0
 43
0.0
 10
3.086041765237476
 20
0.8788026905970484
 10
3.086041765237476
 20
0.8009363613548597
 10
3.089361292798356
 20
0.7680078334963854
 10
3.093303231776931
 20
0.8009363613548597
 10
3.093303231776931
 20
0.8786544974023613
 10
3.093214315860113
 20
0.8798696815987614
 10
3.092977206748611
 20
0.8809366726004739
 10
3.092621543081385
 20
0.8818258317685751
 10
3.092176963497325
 20
0.8825667977419893
 10
3.091613829357544
 20
0.8831299318817917
 10
3.090991417939872
 20
0.8835448728269071
 10
3.090339367883272
 20
0.883781981938389
 10
3.089687317826677
 20
0.8838708978552059
 10
3.089005629131133
 20
0.8838116205773351
 10
3.088353579074533
 20
0.8835745114658315
 10
3.087731167656863
 20
0.8831595705207162
 10
3.087168033517081
 20
0.8826260750198599
 10
3.086723453933021
 20
0.8819147476853917
 10
3.086367790265776
 20
0.8810255885172903
 10
3.086130681154271
 20
0.8799882361545236
 10
3.086041765237476
 20
0.8788026905970484
  0
LWPOLYLINE
  5
B26
330
17
100
AcDbEntity
  8
4
  6
Continuous
100
AcDbPolyline
 90
       18
 70
     0
 43
0.0
 10
3.079786856974098
 20
0.8008770840769889
 10
3.079757218335172
 20
0.8004028658540034
 10
3.079697941057303
 20
0.7999286476310175
 10
3.079549747862615
 20
0.7995137066859022
 10
3.079371916028982
 20
0.7991284043797327
 10
3.079075529639629
 20
0.7987727407125094
 10
3.078719865972386
 20
0.7985059929620599
 10
3.078304925027268
 20
0.7983281611284483
 10
3.077771429526412
 20
0.798239245211632
 10
3.077267572664501
 20
0.7982688838505778
 10
3.076793354441516
 20
0.7984170770452649
 10
3.076437690774274
 20
0.7986838247956929
 10
3.076141304384921
 20
0.7990394884629375
 10
3.075904195273417
 20
0.7994544294080315
 10
3.075726363439803
 20
0.7998990089920925
 10
3.075607808884062
 20
0.800373227215079
 10
3.075578170245138
 20
0.8008770840769889
 10
3.079786856974098
 20
0.8008770840769889
  0
LWPOLYLINE
  5
B3A
330
17
100
AcDbEntity
  8
4
  6
Continuous
100
AcDbPolyline
 90
       18
 70
     0
 43
0.0
 10
3.075548531606193
 20
0.8026257637742453
 10
3.075518892967246
 20
0.8039002252485156
 10
3.075518892967246
 20
0.8052932412785274
 10
3.075518892967246
 20
0.8068048118643014
 10
3.075637447522988
 20
0.8084349370057955
 10
3.075844917995568
 20
0.8101539780641269
 10
3.076230220301734
 20
0.8119915736781788
 10
3.076822993080464
 20
0.8139180852090682
 10
3.077682513609618
 20
0.8159335126567521
 10
3.07839384094411
 20
0.814036639764809
 10
3.078956975083888
 20
0.8121694055118117
 10
3.079371916028982
 20
0.8103614485366847
 10
3.079668302418359
 20
0.8086127688394284
 10
3.07984613425199
 20
0.8069233664200428
 10
3.07990541152986
 20
0.8053821571953438
 10
3.07990541152986
 20
0.8039298638874619
 10
3.07984613425199
 20
0.8026257637742453
 10
3.075548531606193
 20
0.8026257637742453
  0
LWPOLYLINE
  5
B4E
330
17
100
AcDbEntity
  8
4
  6
Continuous
100
AcDbPolyline
 90
       18
 70
     0
 43
0.0
 10
3.062950954610407
 20
0.8025072092185043
 10
3.062921315971482
 20
0.8042262502768149
 10
3.063039870527223
 20
0.806004568613017
 10
3.063247340999758
 20
0.8077828869491979
 10
3.063543727389133
 20
0.8095315666464541
 10
3.063929029695303
 20
0.811191330426894
 10
3.064373609279364
 20
0.8126732623737222
 10
3.064877466141276
 20
0.8139773624869384
 10
3.065440600281076
 20
0.8149850762107806
 10
3.065914818504043
 20
0.8140070011258629
 10
3.066389036727051
 20
0.8127621782905388
 10
3.06683361631109
 20
0.8112506077047648
 10
3.06721891861726
 20
0.8095612052853999
 10
3.067544943645558
 20
0.8077828869491979
 10
3.067782052757061
 20
0.8059749299740708
 10
3.067900607312803
 20
0.8041966116378899
 10
3.067900607312803
 20
0.8025072092185043
 10
3.062950954610407
 20
0.8025072092185043
  0
LWPOLYLINE
  5
B62
330
17
100
AcDbEntity
  8
4
  6
Continuous
100
AcDbPolyline
 90
       18
 70
     0
 43
0.0
 10
3.067841330034933
 20
0.8008770840769889
 10
3.067841330034933
 20
0.8004028658540034
 10
3.067782052757061
 20
0.7999286476310175
 10
3.067633859562373
 20
0.7994840680469773
 10
3.067396750450868
 20
0.7990394884629375
 10
3.067100364061517
 20
0.7986541861567471
 10
3.066685423116402
 20
0.7983577997673941
 10
3.066211204893416
 20
0.7981503292948364
 10
3.065618432114689
 20
0.7980910520169659
 10
3.065025659335963
 20
0.7981799679337611
 10
3.064521802474051
 20
0.7983577997673941
 10
3.064077222889991
 20
0.7986245475178224
 10
3.063691920583821
 20
0.7990098498239917
 10
3.063425172833392
 20
0.7994247907691072
 10
3.063188063721911
 20
0.7998693703531468
 10
3.063069509166147
 20
0.800373227215079
 10
3.063010231888278
 20
0.8008770840769889
 10
3.067841330034933
 20
0.8008770840769889
  0
LWPOLYLINE
  5
B76
330
17
100
AcDbEntity
  8
4
  6
Continuous
100
AcDbPolyline
 90
       18
 70
     0
 43
0.0
 10
3.087553335823252
 20
0.8026257637742453
 10
3.087523697184304
 20
0.8039002252485156
 10
3.087523697184304
 20
0.8052932412785274
 10
3.087523697184304
 20
0.8068048118643014
 10
3.087642251740046
 20
0.8084349370057955
 10
3.087849722212604
 20
0.8101539780641269
 10
3.088235024518793
 20
0.8119915736781788
 10
3.088827797297502
 20
0.8139180852090682
 10
3.089687317826677
 20
0.8159335126567521
 10
3.090398645161143
 20
0.814036639764809
 10
3.090961779300926
 20
0.8121694055118117
 10
3.09137672024604
 20
0.8103614485366847
 10
3.091673106635416
 20
0.8086127688394284
 10
3.091850938469048
 20
0.8069233664200428
 10
3.091910215746898
 20
0.8053821571953438
 10
3.091910215746898
 20
0.8039298638874619
 10
3.091850938469048
 20
0.8026257637742453
 10
3.087553335823252
 20
0.8026257637742453
  0
LWPOLYLINE
  5
B8A
330
17
100
AcDbEntity
  8
4
  6
Continuous
100
AcDbPolyline
 90
       18
 70
     0
 43
0.0
 10
3.091791661191158
 20
0.8008770840769889
 10
3.091762022552232
 20
0.8004028658540034
 10
3.091702745274361
 20
0.7999286476310175
 10
3.091554552079673
 20
0.7995137066859022
 10
3.09137672024604
 20
0.7991284043797327
 10
3.091080333856688
 20
0.7987727407125094
 10
3.090724670189445
 20
0.7985059929620599
 10
3.090309729244327
 20
0.7983281611284483
 10
3.089776233743471
 20
0.798239245211632
 10
3.089272376881559
 20
0.7982688838505778
 10
3.088798158658575
 20
0.7984170770452649
 10
3.088442494991331
 20
0.7986838247956929
 10
3.088146108601955
 20
0.7990394884629375
 10
3.087908999490474
 20
0.7994544294080315
 10
3.087731167656863
 20
0.7998990089920925
 10
3.087612613101101
 20
0.800373227215079
 10
3.087582974462176
 20
0.8008770840769889
 10
3.091791661191158
 20
0.8008770840769889
  0
LWPOLYLINE
  5
B9E
330
17
100
AcDbEntity
  8
4
  6
Continuous
100
AcDbPolyline
 90
        5
 70
     0
 43
0.0
 10
3.390614906084903
 20
0.8272275311404413
 10
3.369426654287893
 20
0.8407504085672082
 10
3.369426654287893
 20
0.8275167905506403
 10
3.390687220937446
 20
0.8160910438478323
 10
3.390614906084903
 20
0.8272275311404413
  0
LINE
  5
BA5
330
17
100
AcDbEntity
  8
0
100
AcDbLine
 10
3.077609008992713
 20
0.8909126570647655
 30
0.0
 11
3.077609008992713
 21
0.8909126570647655
 31
0.0
  0
LINE
  5
BAB
330
17
100
AcDbEntity
  8
3
  6
ByBlock
100
AcDbLine
 10
3.241476937176517
 20
3.079915949950379
 30
0.0
 11
3.366476937176517
 21
3.079915949950379
 31
0.0
  0
POINT
  5
BAC
330
17
100
AcDbEntity
  8
3
  6
ByBlock
100
AcDbPoint
 10
3.303976937176517
 20
3.079915949950379
 30
0.0
  0
LINE
  5
BAD
330
17
100
AcDbEntity
  8
3
  6
ByBlock
100
AcDbLine
 10
3.241476937176518
 20
2.719915949950377
 30
0.0
 11
3.366476937176518
 21
2.719915949950377
 31
0.0
  0
LINE
  5
BAE
330
17
100
AcDbEntity
  8
3
  6
ByBlock
100
AcDbLine
 10
3.241476937176517
 20
2.281915949950381
 30
0.0
 11
3.366476937176517
 21
2.281915949950381
 31
0.0
  0
MTEXT
  5
BF2
330
17
100
AcDbEntity
  8
3
100
AcDbMText
 10
3.400090600527812
 20
0.5316557404816093
 30
0.0
 40
0.039
 41
0.0
 71
     1
 72
     5
  1
120 LB BLOTTING PAPER\PCUT PAPER 1.56 WIDTH
  7
SIMPLEX
 73
     1
 44
1.0
1001
ACAD
1000
MTEXTBEGIN
1070
    73
1070
     1
1070
    44
1040
1.0
1070
    74
1070
     0
1000
MTEXTEND
  0
DIMENSION
  5
C52
330
17
100
AcDbEntity
  8
DIM
100
AcDbDimension
  2
*D9
 10
3.315900312008368
 20
1.699499476872347
 30
0.0
 11
3.303400312008368
 21
1.519999476872347
 31
0.0
 70
    32
 71
     5
 42
0.0249999999999995
  3
STANDARD
100
AcDbAlignedDimension
 13
3.290900312008368
 23
1.891915949950379
 33
0.0
 14
3.315900312008368
 24
1.891915949950379
 34
0.0
100
AcDbRotatedDimension
1001
ACAD
1000
DSTYLE
1002
{
1070
    41
1040
0.0625
1070
    42
1040
0.031
1070
    44
1040
0.031
1070
    48
1040
0.005
1070
    73
1070
     0
1070
    78
1070
     4
1070
   140
1040
0.063
1070
   141
1040
0.0625
1070
   147
1040
0.045
1070
   271
1070
     3
1070
   272
1070
     3
1070
   279
1070
     2
1070
   284
1070
     4
1070
   285
1070
     4
1070
   286
1070
     4
1070
   340
1005
2A
1002
}
  0
ENDSEC
  0
SECTION
  2
OBJECTS
  0
DICTIONARY
  5
C
330
0
100
AcDbDictionary
281
     1
  3
ACAD_CIP_PREVIOUS_PRODUCT_INFO
350
C4A
  3
ACAD_COLOR
350
C2B
  3
ACAD_DETAILVIEWSTYLE
350
C44
  3
ACAD_GROUP
350
D
  3
ACAD_LAYOUT
350
BB5
  3
ACAD_MATERIAL
350
BF9
  3
ACAD_MLEADERSTYLE
350
C40
  3
ACAD_MLINESTYLE
350
1A
  3
ACAD_PLOTSETTINGS
350
BB6
  3
ACAD_PLOTSTYLENAME
350
BB3
  3
ACAD_SCALELIST
350
C2E
  3
ACAD_SECTIONVIEWSTYLE
350
C42
  3
ACAD_TABLESTYLE
350
C2C
  3
ACAD_VISUALSTYLE
350
C12
  3
ACDB_RECOMPOSE_DATA
350
CE1
  3
ACDBVARIABLEDICTIONARY
350
3A
  3
AcDsDecomposeData
350
CE8
  3
DWGPROPS
350
CE2
  0
DICTIONARY
  5
C6D
330
2
100
AcDbDictionary
280
     1
281
     1
  3
ACAD_LAYERSTATES
360
C6E
  0
DICTIONARY
  5
C60
330
E
100
AcDbDictionary
280
     1
281
     1
  3
ADSK_XREC_LAYER_RECONCILED
360
C61
  0
DICTIONARY
  5
C62
330
31
100
AcDbDictionary
280
     1
281
     1
  3
ADSK_XREC_LAYER_RECONCILED
360
C63
  0
DICTIONARY
  5
C64
330
32
100
AcDbDictionary
280
     1
281
     1
  3
ADSK_XREC_LAYER_RECONCILED
360
C65
  0
DICTIONARY
  5
C66
330
33
100
AcDbDictionary
280
     1
281
     1
  3
ADSK_XREC_LAYER_RECONCILED
360
C67
  0
DICTIONARY
  5
C68
330
35
100
AcDbDictionary
280
     1
281
     1
  3
ADSK_XREC_LAYER_RECONCILED
360
C69
  0
XRECORD
  5
C4A
102
{ACAD_REACTORS
330
C
102
}
330
C
100
AcDbXrecord
280
     1
300
AMECH_PP
300
2015
300
PDSU_F_S
  0
DICTIONARY
  5
C2B
102
{ACAD_REACTORS
330
C
102
}
330
C
100
AcDbDictionary
281
     1
  0
DICTIONARY
  5
C44
102
{ACAD_REACTORS
330
C
102
}
330
C
100
AcDbDictionary
281
     1
  3
Imperial24
350
C45
  0
DICTIONARY
  5
D
102
{ACAD_REACTORS
330
C
102
}
330
C
100
AcDbDictionary
281
     1
  0
DICTIONARY
  5
BB5
102
{ACAD_REACTORS
330
C
102
}
330
C
100
AcDbDictionary
281
     1
  3
Layout1
350
BB8
  3
Model
350
BB7
  0
DICTIONARY
  5
BF9
102
{ACAD_REACTORS
330
C
102
}
330
C
100
AcDbDictionary
281
     1
  3
ByBlock
350
C02
  3
ByLayer
350
BFA
  3
Global
350
C0A
  0
DICTIONARY
  5
C40
102
{ACAD_REACTORS
330
C
102
}
330
C
100
AcDbDictionary
281
     1
  3
Standard
350
C41
  0
DICTIONARY
  5
1A
102
{ACAD_REACTORS
330
C
102
}
330
C
100
AcDbDictionary
281
     1
  3
STANDARD
350
1B
  0
DICTIONARY
  5
BB6
102
{ACAD_REACTORS
330
C
102
}
330
C
100
AcDbDictionary
281
     1
  0
ACDBDICTIONARYWDFLT
  5
BB3
102
{ACAD_REACTORS
330
C
102
}
330
C
100
AcDbDictionary
281
     1
  3
Normal
350
BB4
100
AcDbDictionaryWithDefault
340
BB4
  0
DICTIONARY
  5
C2E
102
{ACAD_REACTORS
330
C
102
}
330
C
100
AcDbDictionary
281
     1
  3
A0
350
C2F
  3
A1
350
C30
  3
A2
350
C31
  3
A3
350
C32
  3
A4
350
C33
  3
A5
350
C34
  3
A6
350
C35
  3
A7
350
C36
  3
A8
350
C37
  3
A9
350
C38
  3
B0
350
C39
  3
B1
350
C3A
  3
B2
350
C3B
  3
B3
350
C3C
  3
B4
350
C3D
  3
B5
350
C3E
  3
B6
350
C3F
  0
DICTIONARY
  5
C42
102
{ACAD_REACTORS
330
C
102
}
330
C
100
AcDbDictionary
281
     1
  3
Imperial24
350
C43
  0
DICTIONARY
  5
C2C
102
{ACAD_REACTORS
330
C
102
}
330
C
100
AcDbDictionary
281
     1
  3
Standard
350
C2D
  0
DICTIONARY
  5
C12
102
{ACAD_REACTORS
330
C
102
}
330
C
100
AcDbDictionary
281
     1
  3
2dWireframe
350
C18
  3
Basic
350
C17
  3
Brighten
350
C1E
  3
ColorChange
350
C22
  3
Conceptual
350
C1B
  3
Dim
350
C1D
  3
EdgeColorOff
350
C2A
  3
Facepattern
350
C21
  3
Flat
350
C13
  3
FlatWithEdges
350
C14
  3
Gouraud
350
C15
  3
GouraudWithEdges
350
C16
  3
Hidden
350
C1A
  3
JitterOff
350
C28
  3
Linepattern
350
C20
  3
OverhangOff
350
C29
  3
Realistic
350
C1C
  3
Shaded
350
C27
  3
Shaded with edges
350
C26
  3
Shades of Gray
350
C23
  3
Sketchy
350
C24
  3
Thicken
350
C1F
  3
Wireframe
350
C19
  3
X-Ray
350
C25
  0
XRECORD
  5
CE1
102
{ACAD_REACTORS
330
C
102
}
330
C
100
AcDbXrecord
280
     1
 90
        1
330
C2D
  0
DICTIONARY
  5
3A
102
{ACAD_REACTORS
330
C
102
}
330
C
100
AcDbDictionary
281
     1
  3
CANNOSCALE
350
CC9
  3
CMLEADERSTYLE
350
CC5
  3
CTABLESTYLE
350
CC4
  3
CVIEWDETAILSTYLE
350
CC6
  3
CVIEWSECTIONSTYLE
350
CC7
  3
DIMADEC
350
3B
  3
DIMASSOC
350
BC3
  3
INDEXCTL
350
CDB
  3
LAYEREVAL
350
CCB
  3
LAYERNOTIFY
350
CCC
  3
LIGHTINGUNITS
350
CCA
  3
LOFTANG1
350
CDC
  3
LOFTANG2
350
CDD
  3
LONGITUDE
350
CDE
  3
MSLTSCALE
350
CC8
  3
SORTENTS
350
CDA
  3
XCLIPFRAME
350
CDF
  0
DICTIONARY
  5
CE8
102
{ACAD_REACTORS
330
C
102
}
330
C
100
AcDbDictionary
281
     1
  3
AcDsRecords
350
CEA
  3
AcDsSchemas
350
CE9
1001
ACAD
1070
     2
  0
XRECORD
  5
CE2
102
{ACAD_REACTORS
330
C
102
}
330
C
100
AcDbXrecord
280
     1
  1
DWGPROPS COOKIE
  2

  3

  4

  6

  7

  8
jmilewski
  9

300
=
301
=
302
=
303
=
304
=
305
=
306
=
307
=
308
=
309
=
 40
0.1356450231481481
 41
2449302.656038079
 42
2457155.469603577
  1

 90
        0
  0
DICTIONARY
  5
C6E
102
{ACAD_REACTORS
330
C6D
102
}
330
C6D
100
AcDbDictionary
281
     1
  0
XRECORD
  5
C61
102
{ACAD_REACTORS
330
C60
102
}
330
C60
100
AcDbXrecord
280
     1
290
     1
  0
XRECORD
  5
C63
102
{ACAD_REACTORS
330
C62
102
}
330
C62
100
AcDbXrecord
280
     1
290
     1
  0
XRECORD
  5
C65
102
{ACAD_REACTORS
330
C64
102
}
330
C64
100
AcDbXrecord
280
     1
290
     1
  0
XRECORD
  5
C67
102
{ACAD_REACTORS
330
C66
102
}
330
C66
100
AcDbXrecord
280
     1
290
     1
  0
XRECORD
  5
C69
102
{ACAD_REACTORS
330
C68
102
}
330
C68
100
AcDbXrecord
280
     1
290
     1
  0
ACDBDETAILVIEWSTYLE
  5
C45
102
{ACAD_XDICTIONARY
360
CD1
102
}
102
{ACAD_REACTORS
330
C44
102
}
330
C44
100
AcDbModelDocViewStyle
 70
     0
  3
Imperial24
290
     0
100
AcDbDetailViewStyle
 70
     0
 71
     0
 90
        3
 71
     1
340
F
 40
0.24
340
0
 40
0.24
300

 40
0.36
280
     3
 71
     2
340
13
 90
       25
 71
     3
340
F
 40
0.24
 90
        1
 40
0.75
 90
        1
300
%<\AcVar ViewType \f "%tc1">% %<\AcVar ViewDetailId>%\PSCALE %<\AcVar ViewScale \f "%sn">%
 71
     4
340
13
 90
       25
340
13
 90
       25
280
     0
  0
LAYOUT
  5
BB8
102
{ACAD_XDICTIONARY
360
CED
102
}
102
{ACAD_REACTORS
330
BB5
102
}
330
BB5
100
AcDbPlotSettings
  1

  2
HP DesignJet 500 42 by HP
  4

  6

 40
0.0
 41
0.0
 42
0.0
 43
0.0
 44
0.0
 45
0.0
 46
0.0
 47
0.0
 48
0.0
 49
0.0
140
0.0
141
0.0
142
1.0
143
1.0
 70
   688
 72
     0
 73
     0
 74
     5
  7
blk1500.ctb
 75
    16
147
1.0
148
0.0
149
0.0
100
AcDbLayout
  1
Layout1
 70
     0
 71
     1
 10
0.0
 20
0.0
 11
12.0
 21
9.0
 12
0.0
 22
0.0
 32
0.0
 14
1.000000000000000E+20
 24
1.000000000000000E+20
 34
1.000000000000000E+20
 15
-1.000000000000000E+20
 25
-1.000000000000000E+20
 35
-1.000000000000000E+20
146
0.0
 13
0.0
 23
0.0
 33
0.0
 16
1.0
 26
0.0
 36
0.0
 17
0.0
 27
1.0
 37
0.0
 76
     0
330
14
  0
LAYOUT
  5
BB7
102
{ACAD_XDICTIONARY
360
CEB
102
}
102
{ACAD_REACTORS
330
BB5
102
}
330
BB5
100
AcDbPlotSettings
  1

  2
HP DesignJet 500 42 by HP
  4
User262
  6

 40
4.995333194732666
 41
16.97567367553711
 42
4.995330810546875
 43
16.97567749023437
 44
215.857666015625
 45
279.3153381347656
 46
0.0
 47
0.0
 48
0.0
 49
0.0
140
0.0
141
0.0
142
1.0
143
1.0
 70
 11952
 72
     0
 73
     1
 74
     0
  7
PHOTO.ctb
 75
     0
147
1.0
148
-15.61327875275044
149
0.5763437756241694
100
AcDbLayout
  1
Model
 70
     1
 71
     0
 10
0.0
 20
0.0
 11
12.0
 21
9.0
 12
0.0
 22
0.0
 32
0.0
 14
0.0
 24
0.0
 34
0.0
 15
0.0
 25
0.0
 35
0.0
146
0.0
 13
0.0
 23
0.0
 33
0.0
 16
1.0
 26
0.0
 36
0.0
 17
0.0
 27
1.0
 37
0.0
 76
     0
330
17
331
BF7
  0
MATERIAL
  5
C02
102
{ACAD_XDICTIONARY
360
C03
102
}
102
{ACAD_REACTORS
330
BF9
102
}
330
BF9
100
AcDbMaterial
  1
ByBlock
 72
     0
 43
0.0208333333333333
 43
0.0
 43
0.0
 43
0.0
 43
0.0
 43
0.0208333333333333
 43
0.0
 43
0.0
 43
0.0
 43
0.0
 43
1.0
 43
0.0
 43
0.0
 43
0.0
 43
0.0
 43
1.0
 77
     0
 47
0.0208333333333333
 47
0.0
 47
0.0
 47
0.0
 47
0.0
 47
0.0208333333333333
 47
0.0
 47
0.0
 47
0.0
 47
0.0
 47
1.0
 47
0.0
 47
0.0
 47
0.0
 47
0.0
 47
1.0
171
     0
 49
0.0208333333333333
 49
0.0
 49
0.0
 49
0.0
 49
0.0
 49
0.0208333333333333
 49
0.0
 49
0.0
 49
0.0
 49
0.0
 49
1.0
 49
0.0
 49
0.0
 49
0.0
 49
0.0
 49
1.0
175
     0
142
0.0208333333333333
142
0.0
142
0.0
142
0.0
142
0.0
142
0.0208333333333333
142
0.0
142
0.0
142
0.0
142
0.0
142
1.0
142
0.0
142
0.0
142
0.0
142
0.0
142
1.0
179
     0
144
0.0208333333333333
144
0.0
144
0.0
144
0.0
144
0.0
144
0.0208333333333333
144
0.0
144
0.0
144
0.0
144
0.0
144
1.0
144
0.0
144
0.0
144
0.0
144
0.0
144
1.0
147
0.0208333333333333
147
0.0
147
0.0
147
0.0
147
0.0
147
0.0208333333333333
147
0.0
147
0.0
147
0.0
147
0.0
147
1.0
147
0.0
147
0.0
147
0.0
147
0.0
147
1.0
  0
MATERIAL
  5
BFA
102
{ACAD_XDICTIONARY
360
BFB
102
}
102
{ACAD_REACTORS
330
BF9
102
}
330
BF9
100
AcDbMaterial
  1
ByLayer
 72
     0
 43
0.0208333333333333
 43
0.0
 43
0.0
 43
0.0
 43
0.0
 43
0.0208333333333333
 43
0.0
 43
0.0
 43
0.0
 43
0.0
 43
1.0
 43
0.0
 43
0.0
 43
0.0
 43
0.0
 43
1.0
 77
     0
 47
0.0208333333333333
 47
0.0
 47
0.0
 47
0.0
 47
0.0
 47
0.0208333333333333
 47
0.0
 47
0.0
 47
0.0
 47
0.0
 47
1.0
 47
0.0
 47
0.0
 47
0.0
 47
0.0
 47
1.0
171
     0
 49
0.0208333333333333
 49
0.0
 49
0.0
 49
0.0
 49
0.0
 49
0.0208333333333333
 49
0.0
 49
0.0
 49
0.0
 49
0.0
 49
1.0
 49
0.0
 49
0.0
 49
0.0
 49
0.0
 49
1.0
175
     0
142
0.0208333333333333
142
0.0
142
0.0
142
0.0
142
0.0
142
0.0208333333333333
142
0.0
142
0.0
142
0.0
142
0.0
142
1.0
142
0.0
142
0.0
142
0.0
142
0.0
142
1.0
179
     0
144
0.0208333333333333
144
0.0
144
0.0
144
0.0
144
0.0
144
0.0208333333333333
144
0.0
144
0.0
144
0.0
144
0.0
144
1.0
144
0.0
144
0.0
144
0.0
144
0.0
144
1.0
147
0.0208333333333333
147
0.0
147
0.0
147
0.0
147
0.0
147
0.0208333333333333
147
0.0
147
0.0
147
0.0
147
0.0
147
1.0
147
0.0
147
0.0
147
0.0
147
0.0
147
1.0
  0
MATERIAL
  5
C0A
102
{ACAD_XDICTIONARY
360
C0B
102
}
102
{ACAD_REACTORS
330
BF9
102
}
330
BF9
100
AcDbMaterial
  1
Global
 72
     0
 43
0.0208333333333333
 43
0.0
 43
0.0
 43
0.0
 43
0.0
 43
0.0208333333333333
 43
0.0
 43
0.0
 43
0.0
 43
0.0
 43
1.0
 43
0.0
 43
0.0
 43
0.0
 43
0.0
 43
1.0
 77
     0
 47
0.0208333333333333
 47
0.0
 47
0.0
 47
0.0
 47
0.0
 47
0.0208333333333333
 47
0.0
 47
0.0
 47
0.0
 47
0.0
 47
1.0
 47
0.0
 47
0.0
 47
0.0
 47
0.0
 47
1.0
171
     0
 49
0.0208333333333333
 49
0.0
 49
0.0
 49
0.0
 49
0.0
 49
0.0208333333333333
 49
0.0
 49
0.0
 49
0.0
 49
0.0
 49
1.0
 49
0.0
 49
0.0
 49
0.0
 49
0.0
 49
1.0
175
     0
142
0.0208333333333333
142
0.0
142
0.0
142
0.0
142
0.0
142
0.0208333333333333
142
0.0
142
0.0
142
0.0
142
0.0
142
1.0
142
0.0
142
0.0
142
0.0
142
0.0
142
1.0
179
     0
144
0.0208333333333333
144
0.0
144
0.0
144
0.0
144
0.0
144
0.0208333333333333
144
0.0
144
0.0
144
0.0
144
0.0
144
1.0
144
0.0
144
0.0
144
0.0
144
0.0
144
1.0
147
0.0208333333333333
147
0.0
147
0.0
147
0.0
147
0.0
147
0.0208333333333333
147
0.0
147
0.0
147
0.0
147
0.0
147
1.0
147
0.0
147
0.0
147
0.0
147
0.0
147
1.0
  0
MLEADERSTYLE
  5
C41
102
{ACAD_XDICTIONARY
360
D24
102
}
102
{ACAD_REACTORS
330
C40
102
}
330
C40
100
AcDbMLeaderStyle
170
     2
171
     1
172
     0
 90
        2
 40
0.0
 41
0.0
173
     1
 91
-1056964608
340
11
 92
       -2
290
     1
 42
0.09
291
     1
 43
0.36
  3
Standard
 44
0.18
300

342
F
174
     1
178
     6
175
     1
176
     0
 93
-1056964608
 45
0.18
292
     0
297
     0
 46
0.18
 94
-1056964608
 47
1.0
 49
1.0
140
1.0
293
     1
141
0.0
294
     1
177
     0
142
1.0
295
     0
296
     0
143
0.125
1001
ACAD_MLEADERVER
1070
     2
  0
MLINESTYLE
  5
1B
102
{ACAD_REACTORS
330
1A
102
}
330
1A
100
AcDbMlineStyle
  2
STANDARD
 70
     0
  3

 62
   256
 51
90.0
 52
90.0
 71
     2
 49
0.5
 62
   256
  6
BYLAYER
 49
-0.5
 62
   256
  6
BYLAYER
  0
ACDBPLACEHOLDER
  5
BB4
102
{ACAD_REACTORS
330
BB3
102
}
330
BB3
  0
SCALE
  5
C2F
102
{ACAD_REACTORS
330
C2E
102
}
330
C2E
100
AcDbScale
 70
     0
300
1:1
140
1.0
141
1.0
290
     1
  0
SCALE
  5
C30
102
{ACAD_REACTORS
330
C2E
102
}
330
C2E
100
AcDbScale
 70
     0
300
1/128" = 1'-0"
140
0.0078125
141
12.0
290
     0
  0
SCALE
  5
C31
102
{ACAD_REACTORS
330
C2E
102
}
330
C2E
100
AcDbScale
 70
     0
300
1/64" = 1'-0"
140
0.015625
141
12.0
290
     0
  0
SCALE
  5
C32
102
{ACAD_REACTORS
330
C2E
102
}
330
C2E
100
AcDbScale
 70
     0
300
1/32" = 1'-0"
140
0.03125
141
12.0
290
     0
  0
SCALE
  5
C33
102
{ACAD_REACTORS
330
C2E
102
}
330
C2E
100
AcDbScale
 70
     0
300
1/16" = 1'-0"
140
0.0625
141
12.0
290
     0
  0
SCALE
  5
C34
102
{ACAD_REACTORS
330
C2E
102
}
330
C2E
100
AcDbScale
 70
     0
300
3/32" = 1'-0"
140
0.09375
141
12.0
290
     0
  0
SCALE
  5
C35
102
{ACAD_REACTORS
330
C2E
102
}
330
C2E
100
AcDbScale
 70
     0
300
1/8" = 1'-0"
140
0.125
141
12.0
290
     0
  0
SCALE
  5
C36
102
{ACAD_REACTORS
330
C2E
102
}
330
C2E
100
AcDbScale
 70
     0
300
3/16" = 1'-0"
140
0.1875
141
12.0
290
     0
  0
SCALE
  5
C37
102
{ACAD_REACTORS
330
C2E
102
}
330
C2E
100
AcDbScale
 70
     0
300
1/4" = 1'-0"
140
0.25
141
12.0
290
     0
  0
SCALE
  5
C38
102
{ACAD_REACTORS
330
C2E
102
}
330
C2E
100
AcDbScale
 70
     0
300
3/8" = 1'-0"
140
0.375
141
12.0
290
     0
  0
SCALE
  5
C39
102
{ACAD_REACTORS
330
C2E
102
}
330
C2E
100
AcDbScale
 70
     0
300
1/2" = 1'-0"
140
0.5
141
12.0
290
     0
  0
SCALE
  5
C3A
102
{ACAD_REACTORS
330
C2E
102
}
330
C2E
100
AcDbScale
 70
     0
300
3/4" = 1'-0"
140
0.75
141
12.0
290
     0
  0
SCALE
  5
C3B
102
{ACAD_REACTORS
330
C2E
102
}
330
C2E
100
AcDbScale
 70
     0
300
1" = 1'-0"
140
1.0
141
12.0
290
     0
  0
SCALE
  5
C3C
102
{ACAD_REACTORS
330
C2E
102
}
330
C2E
100
AcDbScale
 70
     0
300
1-1/2" = 1'-0"
140
1.5
141
12.0
290
     0
  0
SCALE
  5
C3D
102
{ACAD_REACTORS
330
C2E
102
}
330
C2E
100
AcDbScale
 70
     0
300
3" = 1'-0"
140
3.0
141
12.0
290
     0
  0
SCALE
  5
C3E
102
{ACAD_REACTORS
330
C2E
102
}
330
C2E
100
AcDbScale
 70
     0
300
6" = 1'-0"
140
6.0
141
12.0
290
     0
  0
SCALE
  5
C3F
102
{ACAD_REACTORS
330
C2E
102
}
330
C2E
100
AcDbScale
 70
     0
300
1'-0" = 1'-0"
140
12.0
141
12.0
290
     0
  0
ACDBSECTIONVIEWSTYLE
  5
C43
102
{ACAD_XDICTIONARY
360
CCF
102
}
102
{ACAD_REACTORS
330
C42
102
}
330
C42
100
AcDbModelDocViewStyle
 70
     0
  3
Imperial24
290
     0
100
AcDbSectionViewStyle
 70
     0
 71
     0
 90
       78
 71
     1
340
F
 40
0.24
340
0
340
0
 40
0.24
300
I, O, Q, S, X, Z
 40
0.48
 90
        3
 40
0.18
 90
        1
 71
     2
340
13
 90
       25
340
13
 90
       50
 40
0.24
 40
0.0
 40
0.24
 71
     3
340
F
 40
0.24
 90
        1
 40
0.75
 90
        1
300
%<\AcVar ViewType \f "%tc1">% %<\AcVar ViewSectionStartId>%-%<\AcVar ViewSectionEndId>%\PSCALE %<\AcVar ViewScale \f "%sn">%
 71
     4
300
ANSI31
 40
1.0
 90
        0
290
     0
290
     0
 90
        6
 40
0.0
 40
1.570796326794896
 40
0.2617993877991494
 40
1.308996938995747
 40
-0.2617993877991494
 40
1.832595714594045
  0
TABLESTYLE
  5
C2D
102
{ACAD_XDICTIONARY
360
CCD
102
}
102
{ACAD_REACTORS
330
C2C
102
}
330
C2C
100
AcDbTableStyle
  3
Standard
 70
     0
 71
     0
 40
0.06
 41
0.06
280
     0
281
     0
  7
STANDARD
140
0.18
170
     2
 62
     0
 63
     7
283
     0
274
    -2
284
     1
 64
     0
275
    -2
285
     1
 65
     0
276
    -2
286
     1
 66
     0
277
    -2
287
     1
 67
     0
278
    -2
288
     1
 68
     0
279
    -2
289
     1
 69
     0
  7
STANDARD
140
0.25
170
     5
 62
     0
 63
     7
283
     0
274
    -2
284
     1
 64
     0
275
    -2
285
     1
 65
     0
276
    -2
286
     1
 66
     0
277
    -2
287
     1
 67
     0
278
    -2
288
     1
 68
     0
279
    -2
289
     1
 69
     0
  7
STANDARD
140
0.18
170
     5
 62
     0
 63
     7
283
     0
274
    -2
284
     1
 64
     0
275
    -2
285
     1
 65
     0
276
    -2
286
     1
 66
     0
277
    -2
287
     1
 67
     0
278
    -2
288
     1
 68
     0
279
    -2
289
     1
 69
     0
  0
VISUALSTYLE
  5
C18
102
{ACAD_XDICTIONARY
360
CFC
102
}
102
{ACAD_REACTORS
330
C12
102
}
330
C12
100
AcDbVisualStyle
  2
2dWireframe
 70
     4
 71
     0
 72
     2
 73
     0
 90
        0
 40
-0.6
 41
-30.0
 62
     5
 63
     7
 74
     1
 91
        4
 64
     7
 65
   257
 75
     1
175
     1
 42
1.0
 92
        0
 66
   257
 43
1.0
 76
     1
 77
     6
 78
     2
 67
     7
 79
     5
170
     0
171
     0
290
     0
174
     0
 93
        1
 44
0.0
173
     0
291
     0
 45
0.0
1001
ACAD
1000
AcDbSavedByObjectVersion
1070
     0
  0
VISUALSTYLE
  5
C17
102
{ACAD_XDICTIONARY
360
CFA
102
}
102
{ACAD_REACTORS
330
C12
102
}
330
C12
100
AcDbVisualStyle
  2
Basic
 70
     7
 71
     1
 72
     0
 73
     1
 90
        0
 40
-0.6
 41
-30.0
 62
     5
 63
     7
 74
     0
 91
        4
 64
     7
 65
   257
 75
     1
175
     1
 42
1.0
 92
        8
 66
     7
 43
1.0
 76
     1
 77
     6
 78
     2
 67
     7
 79
     5
170
     0
171
     0
290
     0
174
     0
 93
        1
 44
0.0
173
     0
291
     1
 45
0.0
1001
ACAD
1000
AcDbSavedByObjectVersion
1070
     0
  0
VISUALSTYLE
  5
C1E
102
{ACAD_XDICTIONARY
360
D08
102
}
102
{ACAD_REACTORS
330
C12
102
}
330
C12
100
AcDbVisualStyle
  2
Brighten
 70
    12
 71
     2
 72
     2
 73
     0
 90
        0
 40
-0.6
 41
-30.0
 62
     5
 63
     7
 74
     1
 91
        4
 64
     7
 65
   257
 75
     1
175
     1
 42
1.0
 92
        8
 66
     7
 43
1.0
 76
     1
 77
     6
 78
     2
 67
     7
 79
     5
170
     0
171
     0
290
     0
174
     0
 93
        1
 44
50.0
173
     0
291
     1
 45
0.0
1001
ACAD
1000
AcDbSavedByObjectVersion
1070
     0
  0
VISUALSTYLE
  5
C22
102
{ACAD_XDICTIONARY
360
D10
102
}
102
{ACAD_REACTORS
330
C12
102
}
330
C12
100
AcDbVisualStyle
  2
ColorChange
 70
    16
 71
     2
 72
     2
 73
     3
 90
        0
 40
-0.6
 41
-30.0
 62
     5
 63
     8
 74
     1
 91
        4
 64
     7
 65
   257
 75
     1
175
     1
 42
1.0
 92
        8
 66
     8
 43
1.0
 76
     1
 77
     6
 78
     2
 67
     7
 79
     5
170
     0
171
     0
290
     0
174
     0
 93
        1
 44
0.0
173
     0
291
     1
 45
0.0
1001
ACAD
1000
AcDbSavedByObjectVersion
1070
     0
  0
VISUALSTYLE
  5
C1B
102
{ACAD_XDICTIONARY
360
D02
102
}
102
{ACAD_REACTORS
330
C12
102
}
330
C12
100
AcDbVisualStyle
  2
Conceptual
 70
     9
 71
     3
 72
     2
 73
     0
 90
        0
 40
-0.6
 41
-30.0
 62
     5
 63
     7
 74
     2
 91
        2
 64
     7
 65
   257
 75
     1
175
     1
 42
179.0
 92
        8
 66
     7
 43
1.0
 76
     1
 77
     6
 78
     2
 67
     7
 79
     3
170
     0
171
     0
290
     0
174
     0
 93
        1
 44
0.0
173
     0
291
     0
 45
0.0
1001
ACAD
1000
AcDbSavedByObjectVersion
1070
     0
  0
VISUALSTYLE
  5
C1D
102
{ACAD_XDICTIONARY
360
D06
102
}
102
{ACAD_REACTORS
330
C12
102
}
330
C12
100
AcDbVisualStyle
  2
Dim
 70
    11
 71
     2
 72
     2
 73
     0
 90
        0
 40
-0.6
 41
-30.0
 62
     5
 63
     7
 74
     1
 91
        4
 64
     7
 65
   257
 75
     1
175
     1
 42
1.0
 92
        8
 66
     7
 43
1.0
 76
     1
 77
     6
 78
     2
 67
     7
 79
     5
170
     0
171
     0
290
     0
174
     0
 93
        1
 44
-50.0
173
     0
291
     1
 45
0.0
1001
ACAD
1000
AcDbSavedByObjectVersion
1070
     0
  0
VISUALSTYLE
  5
C2A
102
{ACAD_XDICTIONARY
360
D20
102
}
102
{ACAD_REACTORS
330
C12
102
}
330
C12
100
AcDbVisualStyle
  2
EdgeColorOff
 70
    22
 71
     2
 72
     2
 73
     0
 90
        0
 40
-0.6
 41
-30.0
 62
     5
 63
     7
 74
     1
 91
        4
 64
     7
 65
   257
 75
     1
175
     1
 42
1.0
 92
        8
 66
     7
 43
1.0
 76
     1
 77
     6
 78
     2
 67
     7
 79
     5
170
     0
171
     0
290
     0
174
     0
 93
        1
 44
0.0
173
     0
291
     1
 45
0.0
1001
ACAD
1000
AcDbSavedByObjectVersion
1070
     0
  0
VISUALSTYLE
  5
C21
102
{ACAD_XDICTIONARY
360
D0E
102
}
102
{ACAD_REACTORS
330
C12
102
}
330
C12
100
AcDbVisualStyle
  2
Facepattern
 70
    15
 71
     2
 72
     2
 73
     0
 90
        0
 40
-0.6
 41
-30.0
 62
     5
 63
     7
 74
     1
 91
        4
 64
     7
 65
   257
 75
     1
175
     1
 42
1.0
 92
        8
 66
     7
 43
1.0
 76
     1
 77
     6
 78
     2
 67
     7
 79
     5
170
     0
171
     0
290
     0
174
     0
 93
        1
 44
0.0
173
     0
291
     1
 45
0.0
1001
ACAD
1000
AcDbSavedByObjectVersion
1070
     0
  0
VISUALSTYLE
  5
C13
102
{ACAD_XDICTIONARY
360
CF2
102
}
102
{ACAD_REACTORS
330
C12
102
}
330
C12
100
AcDbVisualStyle
  2
Flat
 70
     0
 71
     2
 72
     1
 73
     1
 90
        2
 40
-0.6
 41
30.0
 62
     5
 63
     7
 74
     0
 91
        0
 64
     7
 65
   257
 75
     1
175
     1
 42
1.0
 92
        8
 66
     7
 43
1.0
 76
     1
 77
     6
 78
     2
 67
     7
 79
     5
170
     0
171
     0
290
     0
174
     0
 93
       13
 44
0.0
173
     0
291
     1
 45
0.0
1001
ACAD
1000
AcDbSavedByObjectVersion
1070
     0
  0
VISUALSTYLE
  5
C14
102
{ACAD_XDICTIONARY
360
CF4
102
}
102
{ACAD_REACTORS
330
C12
102
}
330
C12
100
AcDbVisualStyle
  2
FlatWithEdges
 70
     1
 71
     2
 72
     1
 73
     1
 90
        2
 40
-0.6
 41
30.0
 62
     5
 63
     7
 74
     1
 91
        0
 64
     7
 65
   257
 75
     1
175
     1
 42
1.0
 92
        0
 66
   257
 43
1.0
 76
     1
 77
     6
 78
     2
 67
     7
 79
     5
170
     0
171
     0
290
     0
174
     0
 93
       13
 44
0.0
173
     0
291
     1
 45
0.0
1001
ACAD
1000
AcDbSavedByObjectVersion
1070
     0
  0
VISUALSTYLE
  5
C15
102
{ACAD_XDICTIONARY
360
CF6
102
}
102
{ACAD_REACTORS
330
C12
102
}
330
C12
100
AcDbVisualStyle
  2
Gouraud
 70
     2
 71
     2
 72
     2
 73
     1
 90
        2
 40
-0.6
 41
30.0
 62
     5
 63
     7
 74
     0
 91
        0
 64
     7
 65
   257
 75
     1
175
     1
 42
1.0
 92
        0
 66
     7
 43
1.0
 76
     1
 77
     6
 78
     2
 67
     7
 79
     5
170
     0
171
     0
290
     0
174
     0
 93
       13
 44
0.0
173
     0
291
     1
 45
0.0
1001
ACAD
1000
AcDbSavedByObjectVersion
1070
     0
  0
VISUALSTYLE
  5
C16
102
{ACAD_XDICTIONARY
360
CF8
102
}
102
{ACAD_REACTORS
330
C12
102
}
330
C12
100
AcDbVisualStyle
  2
GouraudWithEdges
 70
     3
 71
     2
 72
     2
 73
     1
 90
        2
 40
-0.6
 41
30.0
 62
     5
 63
     7
 74
     1
 91
        0
 64
     7
 65
   257
 75
     1
175
     1
 42
1.0
 92
        0
 66
   257
 43
1.0
 76
     1
 77
     6
 78
     2
 67
     7
 79
     5
170
     0
171
     0
290
     0
174
     0
 93
       13
 44
0.0
173
     0
291
     1
 45
0.0
1001
ACAD
1000
AcDbSavedByObjectVersion
1070
     0
  0
VISUALSTYLE
  5
C1A
102
{ACAD_XDICTIONARY
360
D00
102
}
102
{ACAD_REACTORS
330
C12
102
}
330
C12
100
AcDbVisualStyle
  2
Hidden
 70
     6
 71
     1
 72
     2
 73
     2
 90
        0
 40
-0.6
 41
-30.0
 62
     5
 63
     7
 74
     2
 91
        2
 64
     7
 65
   257
 75
     2
175
     1
 42
40.0
 92
        0
 66
   257
 43
1.0
 76
     1
 77
     6
 78
     2
 67
     7
 79
     3
170
     0
171
     0
290
     0
174
     0
 93
        1
 44
0.0
173
     0
291
     0
 45
0.0
1001
ACAD
1000
AcDbSavedByObjectVersion
1070
     0
  0
VISUALSTYLE
  5
C28
102
{ACAD_XDICTIONARY
360
D1C
102
}
102
{ACAD_REACTORS
330
C12
102
}
330
C12
100
AcDbVisualStyle
  2
JitterOff
 70
    20
 71
     2
 72
     2
 73
     0
 90
        0
 40
-0.6
 41
-30.0
 62
     5
 63
     7
 74
     1
 91
        4
 64
     7
 65
   257
 75
     1
175
     1
 42
1.0
 92
       10
 66
     7
 43
1.0
 76
     1
 77
     6
 78
     2
 67
     7
 79
     5
170
     0
171
     0
290
     0
174
     0
 93
        1
 44
0.0
173
     0
291
     1
 45
0.0
1001
ACAD
1000
AcDbSavedByObjectVersion
1070
     0
  0
VISUALSTYLE
  5
C20
102
{ACAD_XDICTIONARY
360
D0C
102
}
102
{ACAD_REACTORS
330
C12
102
}
330
C12
100
AcDbVisualStyle
  2
Linepattern
 70
    14
 71
     2
 72
     2
 73
     0
 90
        0
 40
-0.6
 41
-30.0
 62
     5
 63
     7
 74
     1
 91
        4
 64
     7
 65
   257
 75
     7
175
     7
 42
1.0
 92
        8
 66
     7
 43
1.0
 76
     1
 77
     6
 78
     2
 67
     7
 79
     5
170
     0
171
     0
290
     0
174
     0
 93
        1
 44
0.0
173
     0
291
     1
 45
0.0
1001
ACAD
1000
AcDbSavedByObjectVersion
1070
     0
  0
VISUALSTYLE
  5
C29
102
{ACAD_XDICTIONARY
360
D1E
102
}
102
{ACAD_REACTORS
330
C12
102
}
330
C12
100
AcDbVisualStyle
  2
OverhangOff
 70
    21
 71
     2
 72
     2
 73
     0
 90
        0
 40
-0.6
 41
-30.0
 62
     5
 63
     7
 74
     1
 91
        4
 64
     7
 65
   257
 75
     1
175
     1
 42
1.0
 92
        9
 66
     7
 43
1.0
 76
     1
 77
     6
 78
     2
 67
     7
 79
     5
170
     0
171
     0
290
     0
174
     0
 93
        1
 44
0.0
173
     0
291
     1
 45
0.0
1001
ACAD
1000
AcDbSavedByObjectVersion
1070
     0
  0
VISUALSTYLE
  5
C1C
102
{ACAD_XDICTIONARY
360
D04
102
}
102
{ACAD_REACTORS
330
C12
102
}
330
C12
100
AcDbVisualStyle
  2
Realistic
 70
     8
 71
     2
 72
     3
 73
     0
 90
        2
 40
-0.6
 41
30.0
 62
     5
 63
     7
 74
     0
 91
        0
 64
     7
 65
   257
 75
     1
175
     1
 42
1.0
 92
        8
 66
   257
 43
1.0
 76
     1
 77
     6
 78
     2
 67
     7
 79
     3
170
     0
171
     0
290
     0
174
     0
 93
       13
 44
0.0
173
     0
291
     0
 45
0.0
1001
ACAD
1000
AcDbSavedByObjectVersion
1070
     0
  0
VISUALSTYLE
  5
C27
102
{ACAD_XDICTIONARY
360
D1A
102
}
102
{ACAD_REACTORS
330
C12
102
}
330
C12
100
AcDbVisualStyle
  2
Shaded
 70
    27
 71
     2
 72
     2
 73
     1
 90
        2
 40
-0.6
 41
30.0
 62
     5
 63
     7
 74
     0
 91
        4
 64
     7
 65
   257
 75
     1
175
     1
 42
1.0
 92
        8
 66
   257
 43
1.0
 76
     1
 77
     6
 78
     2
 67
     8
 79
     3
170
     0
171
     0
290
     0
174
     0
 93
        5
 44
0.0
173
     0
291
     0
 45
0.0
1001
ACAD
1000
AcDbSavedByObjectVersion
1070
     0
  0
VISUALSTYLE
  5
C26
102
{ACAD_XDICTIONARY
360
D18
102
}
102
{ACAD_REACTORS
330
C12
102
}
330
C12
100
AcDbVisualStyle
  2
Shaded with edges
 70
    26
 71
     2
 72
     2
 73
     1
 90
        2
 40
-0.6
 41
30.0
 62
     5
 63
     7
 74
     1
 91
       10
 64
     7
 65
   257
 75
     2
175
     1
 42
1.0
 92
        8
 66
   257
 43
1.0
 76
     1
 77
     6
 78
     2
 67
     7
 79
     3
170
     0
171
     0
290
     0
174
     0
 93
        5
 44
0.0
173
     0
291
     0
 45
0.0
1001
ACAD
1000
AcDbSavedByObjectVersion
1070
     0
  0
VISUALSTYLE
  5
C23
102
{ACAD_XDICTIONARY
360
D12
102
}
102
{ACAD_REACTORS
330
C12
102
}
330
C12
100
AcDbVisualStyle
  2
Shades of Gray
 70
    23
 71
     2
 72
     2
 73
     3
 90
        0
 40
-0.6
 41
-30.0
 62
     5
 63
     7
 74
     2
 91
        2
 64
     7
 65
     7
 75
     1
175
     1
 42
40.0
 92
        8
 66
     7
 43
1.0
 76
     1
 77
     6
 78
     2
 67
     7
 79
     3
170
     0
171
     0
290
     0
174
     0
 93
        1
 44
0.0
173
     0
291
     0
 45
0.0
1001
ACAD
1000
AcDbSavedByObjectVersion
1070
     0
  0
VISUALSTYLE
  5
C24
102
{ACAD_XDICTIONARY
360
D14
102
}
102
{ACAD_REACTORS
330
C12
102
}
330
C12
100
AcDbVisualStyle
  2
Sketchy
 70
    24
 71
     1
 72
     2
 73
     2
 90
        0
 40
-0.6
 41
-30.0
 62
     5
 63
     7
 74
     2
 91
        2
 64
     7
 65
     7
 75
     1
175
     1
 42
40.0
 92
       11
 66
     7
 43
1.0
 76
     1
 77
     6
 78
     2
 67
     7
 79
     6
170
     0
171
     0
290
     0
174
     0
 93
        1
 44
0.0
173
     0
291
     0
 45
0.0
1001
ACAD
1000
AcDbSavedByObjectVersion
1070
     0
  0
VISUALSTYLE
  5
C1F
102
{ACAD_XDICTIONARY
360
D0A
102
}
102
{ACAD_REACTORS
330
C12
102
}
330
C12
100
AcDbVisualStyle
  2
Thicken
 70
    13
 71
     2
 72
     2
 73
     0
 90
        0
 40
-0.6
 41
-30.0
 62
     5
 63
     7
 74
     1
 91
        4
 64
     7
 65
   257
 75
     1
175
     1
 42
1.0
 92
       12
 66
     7
 43
1.0
 76
     1
 77
     6
 78
     2
 67
     7
 79
     5
170
     0
171
     0
290
     0
174
     0
 93
        1
 44
0.0
173
     0
291
     1
 45
0.0
1001
ACAD
1000
AcDbSavedByObjectVersion
1070
     0
  0
VISUALSTYLE
  5
C19
102
{ACAD_XDICTIONARY
360
CFE
102
}
102
{ACAD_REACTORS
330
C12
102
}
330
C12
100
AcDbVisualStyle
  2
Wireframe
 70
     5
 71
     0
 72
     2
 73
     0
 90
        0
 40
-0.6
 41
-30.0
 62
     5
 63
     7
 74
     1
 91
        4
 64
     7
 65
   257
 75
     1
175
     1
 42
1.0
 92
        0
 66
   257
 43
1.0
 76
     1
 77
     6
 78
     2
 67
     7
 79
     3
170
     0
171
     0
290
     0
174
     0
 93
        1
 44
0.0
173
     0
291
     0
 45
0.0
1001
ACAD
1000
AcDbSavedByObjectVersion
1070
     0
  0
VISUALSTYLE
  5
C25
102
{ACAD_XDICTIONARY
360
D16
102
}
102
{ACAD_REACTORS
330
C12
102
}
330
C12
100
AcDbVisualStyle
  2
X-Ray
 70
    25
 71
     2
 72
     2
 73
     1
 90
        1
 40
0.5
 41
-30.0
 62
     5
 63
     7
 74
     1
 91
        0
 64
     7
 65
   257
 75
     1
175
     1
 42
1.0
 92
        8
 66
     7
 43
1.0
 76
     1
 77
     6
 78
     2
 67
     7
 79
     3
170
     0
171
     0
290
     0
174
     0
 93
       13
 44
0.0
173
     0
291
     0
 45
0.0
1001
ACAD
1000
AcDbSavedByObjectVersion
1070
     0
  0
DICTIONARYVAR
  5
CC9
102
{ACAD_REACTORS
330
3A
102
}
330
3A
100
DictionaryVariables
280
     0
  1
1:1
  0
DICTIONARYVAR
  5
CC5
102
{ACAD_REACTORS
330
3A
102
}
330
3A
100
DictionaryVariables
280
     0
  1
STANDARD
  0
DICTIONARYVAR
  5
CC4
102
{ACAD_REACTORS
330
3A
102
}
330
3A
100
DictionaryVariables
280
     0
  1
STANDARD
  0
DICTIONARYVAR
  5
CC6
102
{ACAD_REACTORS
330
3A
102
}
330
3A
100
DictionaryVariables
280
     0
  1
Imperial24
  0
DICTIONARYVAR
  5
CC7
102
{ACAD_REACTORS
330
3A
102
}
330
3A
100
DictionaryVariables
280
     0
  1
Imperial24
  0
DICTIONARYVAR
  5
3B
102
{ACAD_REACTORS
330
3A
102
}
330
3A
100
DictionaryVariables
280
     0
  1
2
  0
DICTIONARYVAR
  5
BC3
102
{ACAD_REACTORS
330
3A
102
}
330
3A
100
DictionaryVariables
280
     0
  1
1
  0
DICTIONARYVAR
  5
CDB
102
{ACAD_REACTORS
330
3A
102
}
330
3A
100
DictionaryVariables
280
     0
  1
0
  0
DICTIONARYVAR
  5
CCB
102
{ACAD_REACTORS
330
3A
102
}
330
3A
100
DictionaryVariables
280
     0
  1
1
  0
DICTIONARYVAR
  5
CCC
102
{ACAD_REACTORS
330
3A
102
}
330
3A
100
DictionaryVariables
280
     0
  1
15
  0
DICTIONARYVAR
  5
CCA
102
{ACAD_REACTORS
330
3A
102
}
330
3A
100
DictionaryVariables
280
     0
  1
0
  0
DICTIONARYVAR
  5
CDC
102
{ACAD_REACTORS
330
3A
102
}
330
3A
100
DictionaryVariables
280
     0
  1
1.570796
  0
DICTIONARYVAR
  5
CDD
102
{ACAD_REACTORS
330
3A
102
}
330
3A
100
DictionaryVariables
280
     0
  1
1.570796
  0
DICTIONARYVAR
  5
CDE
102
{ACAD_REACTORS
330
3A
102
}
330
3A
100
DictionaryVariables
280
     0
  1
-122.394000
  0
DICTIONARYVAR
  5
CC8
102
{ACAD_REACTORS
330
3A
102
}
330
3A
100
DictionaryVariables
280
     0
  1
0
  0
DICTIONARYVAR
  5
CDA
102
{ACAD_REACTORS
330
3A
102
}
330
3A
100
DictionaryVariables
280
     0
  1
127
  0
DICTIONARYVAR
  5
CDF
102
{ACAD_REACTORS
330
3A
102
}
330
3A
100
DictionaryVariables
280
     0
  1
2
  0
DICTIONARY
  5
CEA
102
{ACAD_REACTORS
330
CE8
102
}
330
CE8
100
AcDbDictionary
281
     1
  0
DICTIONARY
  5
CE9
102
{ACAD_REACTORS
330
CE8
102
}
330
CE8
100
AcDbDictionary
281
     1
  3
8796087830704
350
CE3
  3
8796087830720
350
CE4
  3
8796087830736
350
CE5
  3
8796087830752
350
CE6
  3
8796087830768
350
CE7
  0
DICTIONARY
  5
CD1
330
C45
100
AcDbDictionary
280
     1
281
     1
  3
ACAD_XREC_ROUNDTRIP
360
D27
  0
DICTIONARY
  5
CED
330
BB8
100
AcDbDictionary
280
     1
281
     1
  3
ACAD_XREC_ROUNDTRIP
360
CEE
  0
DICTIONARY
  5
CEB
330
BB7
100
AcDbDictionary
280
     1
281
     1
  3
ACAD_XREC_ROUNDTRIP
360
CEC
  0
DICTIONARY
  5
C03
330
C02
100
AcDbDictionary
280
     1
281
     1
  3
ACAD_XREC_ROUNDTRIP
360
CF0
  3
BUMPTILE
360
C05
  3
DIFFUSETILE
360
C04
  3
OPACITYTILE
360
C08
  3
REFLECTIONTILE
360
C07
  3
REFRACTIONTILE
360
C09
  3
SPECULARTILE
360
C06
  0
DICTIONARY
  5
BFB
330
BFA
100
AcDbDictionary
280
     1
281
     1
  3
ACAD_XREC_ROUNDTRIP
360
CEF
  3
BUMPTILE
360
BFD
  3
DIFFUSETILE
360
BFC
  3
OPACITYTILE
360
C00
  3
REFLECTIONTILE
360
BFF
  3
REFRACTIONTILE
360
C01
  3
SPECULARTILE
360
BFE
  0
DICTIONARY
  5
C0B
330
C0A
100
AcDbDictionary
280
     1
281
     1
  3
ACAD_XREC_ROUNDTRIP
360
CF1
  3
BUMPTILE
360
C0D
  3
DIFFUSETILE
360
C0C
  3
OPACITYTILE
360
C10
  3
REFLECTIONTILE
360
C0F
  3
REFRACTIONTILE
360
C11
  3
SPECULARTILE
360
C0E
  0
DICTIONARY
  5
D24
330
C41
100
AcDbDictionary
280
     1
281
     1
  3
ACAD_XREC_ROUNDTRIP
360
D25
  0
DICTIONARY
  5
CCF
330
C43
100
AcDbDictionary
280
     1
281
     1
  3
ACAD_XREC_ROUNDTRIP
360
D26
  0
DICTIONARY
  5
CCD
330
C2D
100
AcDbDictionary
280
     1
281
     1
  3
ACAD_ROUNDTRIP_2008_TABLESTYLE_CELLSTYLEMAP
360
CE0
  3
ACAD_XREC_ROUNDTRIP
360
D22
  0
DICTIONARY
  5
CFC
330
C18
100
AcDbDictionary
280
     1
281
     1
  3
ACAD_XREC_ROUNDTRIP
360
CFD
  0
DICTIONARY
  5
CFA
330
C17
100
AcDbDictionary
280
     1
281
     1
  3
ACAD_XREC_ROUNDTRIP
360
CFB
  0
DICTIONARY
  5
D08
330
C1E
100
AcDbDictionary
280
     1
281
     1
  3
ACAD_XREC_ROUNDTRIP
360
D09
  0
DICTIONARY
  5
D10
330
C22
100
AcDbDictionary
280
     1
281
     1
  3
ACAD_XREC_ROUNDTRIP
360
D11
  0
DICTIONARY
  5
D02
330
C1B
100
AcDbDictionary
280
     1
281
     1
  3
ACAD_XREC_ROUNDTRIP
360
D03
  0
DICTIONARY
  5
D06
330
C1D
100
AcDbDictionary
280
     1
281
     1
  3
ACAD_XREC_ROUNDTRIP
360
D07
  0
DICTIONARY
  5
D20
330
C2A
100
AcDbDictionary
280
     1
281
     1
  3
ACAD_XREC_ROUNDTRIP
360
D21
  0
DICTIONARY
  5
D0E
330
C21
100
AcDbDictionary
280
     1
281
     1
  3
ACAD_XREC_ROUNDTRIP
360
D0F
  0
DICTIONARY
  5
CF2
330
C13
100
AcDbDictionary
280
     1
281
     1
  3
ACAD_XREC_ROUNDTRIP
360
CF3
  0
DICTIONARY
  5
CF4
330
C14
100
AcDbDictionary
280
     1
281
     1
  3
ACAD_XREC_ROUNDTRIP
360
CF5
  0
DICTIONARY
  5
CF6
330
C15
100
AcDbDictionary
280
     1
281
     1
  3
ACAD_XREC_ROUNDTRIP
360
CF7
  0
DICTIONARY
  5
CF8
330
C16
100
AcDbDictionary
280
     1
281
     1
  3
ACAD_XREC_ROUNDTRIP
360
CF9
  0
DICTIONARY
  5
D00
330
C1A
100
AcDbDictionary
280
     1
281
     1
  3
ACAD_XREC_ROUNDTRIP
360
D01
  0
DICTIONARY
  5
D1C
330
C28
100
AcDbDictionary
280
     1
281
     1
  3
ACAD_XREC_ROUNDTRIP
360
D1D
  0
DICTIONARY
  5
D0C
330
C20
100
AcDbDictionary
280
     1
281
     1
  3
ACAD_XREC_ROUNDTRIP
360
D0D
  0
DICTIONARY
  5
D1E
330
C29
100
AcDbDictionary
280
     1
281
     1
  3
ACAD_XREC_ROUNDTRIP
360
D1F
  0
DICTIONARY
  5
D04
330
C1C
100
AcDbDictionary
280
     1
281
     1
  3
ACAD_XREC_ROUNDTRIP
360
D05
  0
DICTIONARY
  5
D1A
330
C27
100
AcDbDictionary
280
     1
281
     1
  3
ACAD_XREC_ROUNDTRIP
360
D1B
  0
DICTIONARY
  5
D18
330
C26
100
AcDbDictionary
280
     1
281
     1
  3
ACAD_XREC_ROUNDTRIP
360
D19
  0
DICTIONARY
  5
D12
330
C23
100
AcDbDictionary
280
     1
281
     1
  3
ACAD_XREC_ROUNDTRIP
360
D13
  0
DICTIONARY
  5
D14
330
C24
100
AcDbDictionary
280
     1
281
     1
  3
ACAD_XREC_ROUNDTRIP
360
D15
  0
DICTIONARY
  5
D0A
330
C1F
100
AcDbDictionary
280
     1
281
     1
  3
ACAD_XREC_ROUNDTRIP
360
D0B
  0
DICTIONARY
  5
CFE
330
C19
100
AcDbDictionary
280
     1
281
     1
  3
ACAD_XREC_ROUNDTRIP
360
CFF
  0
DICTIONARY
  5
D16
330
C25
100
AcDbDictionary
280
     1
281
     1
  3
ACAD_XREC_ROUNDTRIP
360
D17
  0
XRECORD
  5
CE3
102
{ACAD_REACTORS
330
CE9
102
}
330
CE9
100
AcDbXrecord
280
     1
  1
AcDb_Thumbnail_Schema
102
{ATTRRECORD
341
CE4
  2
AcDbDs::TreatedAsObjectData
280
     1
291
     1
102
ATTRRECORD}
102
{ATTRRECORD
341
CE5
  2
AcDbDs::Legacy
280
     1
291
     1
102
ATTRRECORD}
  2
AcDbDs::ID
280
    10
 91
        8
102
{ATTRRECORD
341
CE6
  2
AcDs:Indexable
280
     1
291
     1
102
ATTRRECORD}
102
{ATTRRECORD
341
CE7
  2
AcDbDs::HandleAttribute
280
     7
282
     1
102
ATTRRECORD}
  2
Thumbnail_Data
280
    15
 91
        0
  0
XRECORD
  5
CE4
102
{ACAD_REACTORS
330
CE9
102
}
330
CE9
100
AcDbXrecord
280
     1
  1
AcDbDs::TreatedAsObjectDataSchema
  2
AcDbDs::TreatedAsObjectData
280
     1
 91
        0
  0
XRECORD
  5
CE5
102
{ACAD_REACTORS
330
CE9
102
}
330
CE9
100
AcDbXrecord
280
     1
  1
AcDbDs::LegacySchema
  2
AcDbDs::Legacy
280
     1
 91
        0
  0
XRECORD
  5
CE6
102
{ACAD_REACTORS
330
CE9
102
}
330
CE9
100
AcDbXrecord
280
     1
  1
AcDbDs::IndexedPropertySchema
  2
AcDs:Indexable
280
     1
 91
        0
  0
XRECORD
  5
CE7
102
{ACAD_REACTORS
330
CE9
102
}
330
CE9
100
AcDbXrecord
280
     1
  1
AcDbDs::HandleAttributeSchema
  2
AcDbDs::HandleAttribute
280
     7
 91
        1
284
     1
  0
XRECORD
  5
D27
102
{ACAD_REACTORS
330
CD1
102
}
330
CD1
100
AcDbXrecord
280
     1
102
DISPLAYNAME
  1
Imperial24
102
FLAGS
 90
        0
  0
XRECORD
  5
CEE
102
{ACAD_REACTORS
330
CED
102
}
330
CED
100
AcDbXrecord
280
     1
102
SHADEPLOT
 70
     0
102
SHADEPLOTRESLEVEL
 70
     2
102
SHADEPLOTCUSTOMDPI
 70
   300
  0
XRECORD
  5
CEC
102
{ACAD_REACTORS
330
CEB
102
}
330
CEB
100
AcDbXrecord
280
     1
102
SHADEPLOT
 70
     0
102
SHADEPLOTRESLEVEL
 70
     2
102
SHADEPLOTCUSTOMDPI
 70
   300
  0
XRECORD
  5
CF0
102
{ACAD_REACTORS
330
C03
102
}
330
C03
100
AcDbXrecord
280
     1
102
MATERIAL
148
0.0
149
0.0
149
0.0
 93
        0
 94
      127
282
     0
 72
     0
 77
     0
171
     0
175
     0
179
     0
273
     0
  0
XRECORD
  5
C05
102
{ACAD_REACTORS
330
C03
102
}
330
C03
100
AcDbXrecord
280
     1
270
     1
271
     1
  0
XRECORD
  5
C04
102
{ACAD_REACTORS
330
C03
102
}
330
C03
100
AcDbXrecord
280
     1
270
     1
271
     1
  0
XRECORD
  5
C08
102
{ACAD_REACTORS
330
C03
102
}
330
C03
100
AcDbXrecord
280
     1
270
     1
271
     1
  0
XRECORD
  5
C07
102
{ACAD_REACTORS
330
C03
102
}
330
C03
100
AcDbXrecord
280
     1
270
     1
271
     1
  0
XRECORD
  5
C09
102
{ACAD_REACTORS
330
C03
102
}
330
C03
100
AcDbXrecord
280
     1
270
     1
271
     1
  0
XRECORD
  5
C06
102
{ACAD_REACTORS
330
C03
102
}
330
C03
100
AcDbXrecord
280
     1
270
     1
271
     1
  0
XRECORD
  5
CEF
102
{ACAD_REACTORS
330
BFB
102
}
330
BFB
100
AcDbXrecord
280
     1
102
MATERIAL
148
0.0
149
0.0
149
0.0
 93
        0
 94
      127
282
     0
 72
     0
 77
     0
171
     0
175
     0
179
     0
273
     0
  0
XRECORD
  5
BFD
102
{ACAD_REACTORS
330
BFB
102
}
330
BFB
100
AcDbXrecord
280
     1
270
     1
271
     1
  0
XRECORD
  5
BFC
102
{ACAD_REACTORS
330
BFB
102
}
330
BFB
100
AcDbXrecord
280
     1
270
     1
271
     1
  0
XRECORD
  5
C00
102
{ACAD_REACTORS
330
BFB
102
}
330
BFB
100
AcDbXrecord
280
     1
270
     1
271
     1
  0
XRECORD
  5
BFF
102
{ACAD_REACTORS
330
BFB
102
}
330
BFB
100
AcDbXrecord
280
     1
270
     1
271
     1
  0
XRECORD
  5
C01
102
{ACAD_REACTORS
330
BFB
102
}
330
BFB
100
AcDbXrecord
280
     1
270
     1
271
     1
  0
XRECORD
  5
BFE
102
{ACAD_REACTORS
330
BFB
102
}
330
BFB
100
AcDbXrecord
280
     1
270
     1
271
     1
  0
XRECORD
  5
CF1
102
{ACAD_REACTORS
330
C0B
102
}
330
C0B
100
AcDbXrecord
280
     1
102
MATERIAL
148
0.0
149
0.0
149
0.0
 93
        0
 94
      127
282
     0
 72
     0
 77
     0
171
     0
175
     0
179
     0
273
     0
  0
XRECORD
  5
C0D
102
{ACAD_REACTORS
330
C0B
102
}
330
C0B
100
AcDbXrecord
280
     1
270
     1
271
     1
  0
XRECORD
  5
C0C
102
{ACAD_REACTORS
330
C0B
102
}
330
C0B
100
AcDbXrecord
280
     1
270
     1
271
     1
  0
XRECORD
  5
C10
102
{ACAD_REACTORS
330
C0B
102
}
330
C0B
100
AcDbXrecord
280
     1
270
     1
271
     1
  0
XRECORD
  5
C0F
102
{ACAD_REACTORS
330
C0B
102
}
330
C0B
100
AcDbXrecord
280
     1
270
     1
271
     1
  0
XRECORD
  5
C11
102
{ACAD_REACTORS
330
C0B
102
}
330
C0B
100
AcDbXrecord
280
     1
270
     1
271
     1
  0
XRECORD
  5
C0E
102
{ACAD_REACTORS
330
C0B
102
}
330
C0B
100
AcDbXrecord
280
     1
270
     1
271
     1
  0
XRECORD
  5
D25
102
{ACAD_REACTORS
330
D24
102
}
330
D24
100
AcDbXrecord
280
     1
102
ACAD_ROUNDTRIP_2012_MLEADER_STYLE
298
     1
  0
XRECORD
  5
D26
102
{ACAD_REACTORS
330
CCF
102
}
330
CCF
100
AcDbXrecord
280
     1
102
DISPLAYNAME
  1
Imperial24
102
FLAGS
 90
        0
  0
CELLSTYLEMAP
  5
CE0
102
{ACAD_REACTORS
330
CCD
102
}
330
CCD
100
AcDbCellStyleMap
 90
        3
300
CELLSTYLE
  1
TABLEFORMAT_BEGIN
 90
        5
170
     1
 91
        0
 92
    32768
 62
   257
 93
        1
300
CONTENTFORMAT
  1
CONTENTFORMAT_BEGIN
 90
        0
 91
        0
 92
      512
 93
        0
300

 40
0.0
140
1.0
 94
        5
 62
     0
340
F
144
0.25
309
CONTENTFORMAT_END
171
     1
301
MARGIN
  1
CELLMARGIN_BEGIN
 40
0.06
 40
0.06
 40
0.06
 40
0.06
 40
0.18
 40
0.18
309
CELLMARGIN_END
 94
        6
 95
        1
302
GRIDFORMAT
  1
GRIDFORMAT_BEGIN
 90
        0
 91
        1
 62
     0
 92
       -2
340
0
 93
        0
 40
0.045
309
GRIDFORMAT_END
 95
        2
302
GRIDFORMAT
  1
GRIDFORMAT_BEGIN
 90
        0
 91
        1
 62
     0
 92
       -2
340
0
 93
        0
 40
0.045
309
GRIDFORMAT_END
 95
        4
302
GRIDFORMAT
  1
GRIDFORMAT_BEGIN
 90
        0
 91
        1
 62
     0
 92
       -2
340
0
 93
        0
 40
0.045
309
GRIDFORMAT_END
 95
        8
302
GRIDFORMAT
  1
GRIDFORMAT_BEGIN
 90
        0
 91
        1
 62
     0
 92
       -2
340
0
 93
        0
 40
0.045
309
GRIDFORMAT_END
 95
       16
302
GRIDFORMAT
  1
GRIDFORMAT_BEGIN
 90
        0
 91
        1
 62
     0
 92
       -2
340
0
 93
        0
 40
0.045
309
GRIDFORMAT_END
 95
       32
302
GRIDFORMAT
  1
GRIDFORMAT_BEGIN
 90
        0
 91
        1
 62
     0
 92
       -2
340
0
 93
        0
 40
0.045
309
GRIDFORMAT_END
309
TABLEFORMAT_END
  1
CELLSTYLE_BEGIN
 90
        1
 91
        1
300
_TITLE
309
CELLSTYLE_END
300
CELLSTYLE
  1
TABLEFORMAT_BEGIN
 90
        5
170
     1
 91
        0
 92
        0
 62
   257
 93
        1
300
CONTENTFORMAT
  1
CONTENTFORMAT_BEGIN
 90
        0
 91
        0
 92
      512
 93
        0
300

 40
0.0
140
1.0
 94
        5
 62
     0
340
F
144
0.18
309
CONTENTFORMAT_END
171
     1
301
MARGIN
  1
CELLMARGIN_BEGIN
 40
0.06
 40
0.06
 40
0.06
 40
0.06
 40
0.18
 40
0.18
309
CELLMARGIN_END
 94
        6
 95
        1
302
GRIDFORMAT
  1
GRIDFORMAT_BEGIN
 90
        0
 91
        1
 62
     0
 92
       -2
340
0
 93
        0
 40
0.045
309
GRIDFORMAT_END
 95
        2
302
GRIDFORMAT
  1
GRIDFORMAT_BEGIN
 90
        0
 91
        1
 62
     0
 92
       -2
340
0
 93
        0
 40
0.045
309
GRIDFORMAT_END
 95
        4
302
GRIDFORMAT
  1
GRIDFORMAT_BEGIN
 90
        0
 91
        1
 62
     0
 92
       -2
340
0
 93
        0
 40
0.045
309
GRIDFORMAT_END
 95
        8
302
GRIDFORMAT
  1
GRIDFORMAT_BEGIN
 90
        0
 91
        1
 62
     0
 92
       -2
340
0
 93
        0
 40
0.045
309
GRIDFORMAT_END
 95
       16
302
GRIDFORMAT
  1
GRIDFORMAT_BEGIN
 90
        0
 91
        1
 62
     0
 92
       -2
340
0
 93
        0
 40
0.045
309
GRIDFORMAT_END
 95
       32
302
GRIDFORMAT
  1
GRIDFORMAT_BEGIN
 90
        0
 91
        1
 62
     0
 92
       -2
340
0
 93
        0
 40
0.045
309
GRIDFORMAT_END
309
TABLEFORMAT_END
  1
CELLSTYLE_BEGIN
 90
        2
 91
        1
300
_HEADER
309
CELLSTYLE_END
300
CELLSTYLE
  1
TABLEFORMAT_BEGIN
 90
        5
170
     1
 91
        0
 92
        0
 62
   257
 93
        1
300
CONTENTFORMAT
  1
CONTENTFORMAT_BEGIN
 90
        0
 91
        0
 92
      512
 93
        0
300

 40
0.0
140
1.0
 94
        2
 62
     0
340
F
144
0.18
309
CONTENTFORMAT_END
171
     1
301
MARGIN
  1
CELLMARGIN_BEGIN
 40
0.06
 40
0.06
 40
0.06
 40
0.06
 40
0.18
 40
0.18
309
CELLMARGIN_END
 94
        6
 95
        1
302
GRIDFORMAT
  1
GRIDFORMAT_BEGIN
 90
        0
 91
        1
 62
     0
 92
       -2
340
0
 93
        0
 40
0.045
309
GRIDFORMAT_END
 95
        2
302
GRIDFORMAT
  1
GRIDFORMAT_BEGIN
 90
        0
 91
        1
 62
     0
 92
       -2
340
0
 93
        0
 40
0.045
309
GRIDFORMAT_END
 95
        4
302
GRIDFORMAT
  1
GRIDFORMAT_BEGIN
 90
        0
 91
        1
 62
     0
 92
       -2
340
0
 93
        0
 40
0.045
309
GRIDFORMAT_END
 95
        8
302
GRIDFORMAT
  1
GRIDFORMAT_BEGIN
 90
        0
 91
        1
 62
     0
 92
       -2
340
0
 93
        0
 40
0.045
309
GRIDFORMAT_END
 95
       16
302
GRIDFORMAT
  1
GRIDFORMAT_BEGIN
 90
        0
 91
        1
 62
     0
 92
       -2
340
0
 93
        0
 40
0.045
309
GRIDFORMAT_END
 95
       32
302
GRIDFORMAT
  1
GRIDFORMAT_BEGIN
 90
        0
 91
        1
 62
     0
 92
       -2
340
0
 93
        0
 40
0.045
309
GRIDFORMAT_END
309
TABLEFORMAT_END
  1
CELLSTYLE_BEGIN
 90
        3
 91
        2
300
_DATA
309
CELLSTYLE_END
  0
XRECORD
  5
D22
102
{ACAD_REACTORS
330
CCD
102
}
330
CCD
100
AcDbXrecord
280
     1
102
ACAD_ROUNDTRIP_PRE2007_TABLESTYLE
 90
      512
 91
        0
  1

 92
      512
 93
        0
  2

 94
      512
 95
        0
  3

  0
XRECORD
  5
CFD
102
{ACAD_REACTORS
330
CFC
102
}
330
CFC
100
AcDbXrecord
280
     1
102
RTVSPost2010Prop28
280
     1
102
RTVSPost2010PropOp28
 70
     1
102
RTVSPost2010Prop29
280
     1
102
RTVSPost2010PropOp29
 70
     1
102
RTVSPost2010Prop30
280
     0
102
RTVSPost2010PropOp30
 70
     1
102
RTVSPost2010Prop31
280
     0
102
RTVSPost2010PropOp31
 70
     1
102
RTVSPost2010Prop32
280
     0
102
RTVSPost2010PropOp32
 70
     1
102
RTVSPost2010Prop33
280
     0
102
RTVSPost2010PropOp33
 70
     1
102
RTVSPost2010Prop34
280
     0
102
RTVSPost2010PropOp34
 70
     1
102
RTVSPost2010Prop35
280
     0
102
RTVSPost2010PropOp35
 70
     1
102
RTVSPost2010Prop36
280
     0
102
RTVSPost2010PropOp36
 70
     1
102
RTVSPost2010Prop37
 90
       50
102
RTVSPost2010PropOp37
 70
     1
102
RTVSPost2010Prop38
140
0.0
102
RTVSPost2010PropOp38
 70
     1
102
RTVSPost2010Prop39
140
1.0
102
RTVSPost2010PropOp39
 70
     1
102
RTVSPost2010Prop40
 90
        0
102
RTVSPost2010PropOp40
 70
     1
102
RTVSPost2010Prop41ColorIndex
 90
       18
102
RTVSPost2010Prop41ColorRGB
 90
-16777216
102
RTVSPost2010PropOp41
 70
     1
102
RTVSPost2010Prop42
 90
       50
102
RTVSPost2010PropOp42
 70
     1
102
RTVSPost2010Prop43
 90
        3
102
RTVSPost2010PropOp43
 70
     1
102
RTVSPost2010Prop44ColorIndex
 90
        5
102
RTVSPost2010Prop44ColorRGB
 90
      255
102
RTVSPost2010PropOp44
 70
     1
102
RTVSPost2010Prop45
280
     0
102
RTVSPost2010PropOp45
 70
     1
102
RTVSPost2010Prop46
 90
       50
102
RTVSPost2010PropOp46
 70
     1
102
RTVSPost2010Prop47
 90
       50
102
RTVSPost2010PropOp47
 70
     1
102
RTVSPost2010Prop48
 90
       50
102
RTVSPost2010PropOp48
 70
     1
102
RTVSPost2010Prop49
280
     0
102
RTVSPost2010PropOp49
 70
     1
102
RTVSPost2010Prop50
 90
       50
102
RTVSPost2010PropOp50
 70
     1
102
RTVSPost2010Prop51ColorIndex
 90
      256
102
RTVSPost2010Prop51ColorRGB
 90
-16777216
102
RTVSPost2010PropOp51
 70
     0
102
RTVSPost2010Prop52
140
1.0
102
RTVSPost2010PropOp52
 70
     0
102
RTVSPost2010Prop53
 90
        2
102
RTVSPost2010PropOp53
 70
     1
102
RTVSPost2010Prop54
  1
strokes_ogs.tif
102
RTVSPost2010PropOp54
 70
     1
102
RTVSPost2010Prop55
280
     0
102
RTVSPost2010PropOp55
 70
     1
102
RTVSPost2010Prop56
140
1.0
102
RTVSPost2010PropOp56
 70
     1
102
RTVSPost2010Prop57
140
1.0
102
RTVSPost2010PropOp57
 70
     1
102
RTVSPropertyOp0
 70
     1
102
RTVSPropertyOp1
 70
     1
102
RTVSPropertyOp2
 70
     1
102
RTVSPropertyOp3
 70
     1
102
RTVSPropertyOp4
 70
     1
102
RTVSPropertyOp5
 70
     1
102
RTVSPropertyOp6
 70
     1
102
RTVSPropertyOp7
 70
     1
102
RTVSPropertyOp8
 70
     1
102
RTVSPropertyOp9
 70
     1
102
RTVSPropertyOp10
 70
     1
102
RTVSPropertyOp11
 70
     1
102
RTVSPropertyOp12
 70
     1
102
RTVSPropertyOp13
 70
     1
102
RTVSPropertyOp14
 70
     1
102
RTVSPropertyOp15
 70
     1
102
RTVSPropertyOp16
 70
     1
102
RTVSPropertyOp17
 70
     1
102
RTVSPropertyOp18
 70
     1
102
RTVSPropertyOp19
 70
     1
102
RTVSPropertyOp20
 70
     1
102
RTVSPropertyOp21
 70
     1
102
RTVSPropertyOp22
 70
     1
102
RTVSPropertyOp23
 70
     1
102
RTVSPropertyOp24
 70
     1
102
RTVSPropertyOp25
 70
     1
102
RTVSPropertyOp26
 70
     1
102
RTVSPropertyOp27
 70
     1
102
RTVSPropertyOp28
 70
     1
102
RTVSPropertyOp29
 70
     1
102
RTVSPropertyOp30
 70
     1
102
RTVSPropertyOp31
 70
     1
102
RTVSPropertyOp32
 70
     1
102
RTVSPropertyOp33
 70
     1
102
RTVSPropertyOp34
 70
     1
102
RTVSPropertyOp35
 70
     1
102
RTVSPropertyOp36
 70
     1
102
RTVSPropertyOp37
 70
     1
102
RTVSPropertyOp38
 70
     1
102
RTVSPropertyOp39
 70
     1
102
RTVSPropertyOp40
 70
     1
102
RTVSPropertyOp41
 70
     1
102
RTVSPropertyOp42
 70
     1
102
RTVSPropertyOp43
 70
     1
102
RTVSPropertyOp44
 70
     1
102
RTVSPropertyOp45
 70
     1
102
RTVSPropertyOp46
 70
     1
102
RTVSPropertyOp47
 70
     1
102
RTVSPropertyOp48
 70
     1
102
RTVSPropertyOp49
 70
     1
102
RTVSPropertyOp50
 70
     1
102
RTVSPropertyOp51
 70
     0
102
RTVSPropertyOp52
 70
     0
102
RTVSPropertyOp53
 70
     1
102
RTVSPropertyOp54
 70
     1
102
RTVSPropertyOp55
 70
     1
102
RTVSPropertyOp56
 70
     1
102
RTVSPropertyOp57
 70
     1
102
RTVSPropertyOp58
 70
     1
102
RTVSPropertyOp59
 70
     1
102
RTVSPropertyOp60
 70
     1
102
RTVSPropertyOp61
 70
     1
102
RTVSPropertyOp62
 70
     1
  0
XRECORD
  5
CFB
102
{ACAD_REACTORS
330
CFA
102
}
330
CFA
100
AcDbXrecord
280
     1
102
RTVSPost2010Prop28
280
     0
102
RTVSPost2010PropOp28
 70
     1
102
RTVSPost2010Prop29
280
     1
102
RTVSPost2010PropOp29
 70
     1
102
RTVSPost2010Prop30
280
     1
102
RTVSPost2010PropOp30
 70
     1
102
RTVSPost2010Prop31
280
     0
102
RTVSPost2010PropOp31
 70
     1
102
RTVSPost2010Prop32
280
     0
102
RTVSPost2010PropOp32
 70
     1
102
RTVSPost2010Prop33
280
     0
102
RTVSPost2010PropOp33
 70
     1
102
RTVSPost2010Prop34
280
     0
102
RTVSPost2010PropOp34
 70
     1
102
RTVSPost2010Prop35
280
     0
102
RTVSPost2010PropOp35
 70
     1
102
RTVSPost2010Prop36
280
     0
102
RTVSPost2010PropOp36
 70
     1
102
RTVSPost2010Prop37
 90
       50
102
RTVSPost2010PropOp37
 70
     1
102
RTVSPost2010Prop38
140
0.0
102
RTVSPost2010PropOp38
 70
     1
102
RTVSPost2010Prop39
140
1.0
102
RTVSPost2010PropOp39
 70
     1
102
RTVSPost2010Prop40
 90
        0
102
RTVSPost2010PropOp40
 70
     1
102
RTVSPost2010Prop41ColorIndex
 90
       18
102
RTVSPost2010Prop41ColorRGB
 90
-16777216
102
RTVSPost2010PropOp41
 70
     1
102
RTVSPost2010Prop42
 90
       50
102
RTVSPost2010PropOp42
 70
     1
102
RTVSPost2010Prop43
 90
        3
102
RTVSPost2010PropOp43
 70
     1
102
RTVSPost2010Prop44ColorIndex
 90
        5
102
RTVSPost2010Prop44ColorRGB
 90
      255
102
RTVSPost2010PropOp44
 70
     1
102
RTVSPost2010Prop45
280
     0
102
RTVSPost2010PropOp45
 70
     1
102
RTVSPost2010Prop46
 90
       50
102
RTVSPost2010PropOp46
 70
     1
102
RTVSPost2010Prop47
 90
       50
102
RTVSPost2010PropOp47
 70
     1
102
RTVSPost2010Prop48
 90
       50
102
RTVSPost2010PropOp48
 70
     1
102
RTVSPost2010Prop49
280
     0
102
RTVSPost2010PropOp49
 70
     1
102
RTVSPost2010Prop50
 90
       50
102
RTVSPost2010PropOp50
 70
     1
102
RTVSPost2010Prop51ColorIndex
 90
      256
102
RTVSPost2010Prop51ColorRGB
 90
-16777216
102
RTVSPost2010PropOp51
 70
     0
102
RTVSPost2010Prop52
140
1.0
102
RTVSPost2010PropOp52
 70
     0
102
RTVSPost2010Prop53
 90
        2
102
RTVSPost2010PropOp53
 70
     1
102
RTVSPost2010Prop54
  1
strokes_ogs.tif
102
RTVSPost2010PropOp54
 70
     1
102
RTVSPost2010Prop55
280
     0
102
RTVSPost2010PropOp55
 70
     1
102
RTVSPost2010Prop56
140
1.0
102
RTVSPost2010PropOp56
 70
     1
102
RTVSPost2010Prop57
140
1.0
102
RTVSPost2010PropOp57
 70
     1
102
RTVSPropertyOp0
 70
     1
102
RTVSPropertyOp1
 70
     1
102
RTVSPropertyOp2
 70
     1
102
RTVSPropertyOp3
 70
     1
102
RTVSPropertyOp4
 70
     1
102
RTVSPropertyOp5
 70
     1
102
RTVSPropertyOp6
 70
     1
102
RTVSPropertyOp7
 70
     1
102
RTVSPropertyOp8
 70
     1
102
RTVSPropertyOp9
 70
     1
102
RTVSPropertyOp10
 70
     1
102
RTVSPropertyOp11
 70
     1
102
RTVSPropertyOp12
 70
     1
102
RTVSPropertyOp13
 70
     1
102
RTVSPropertyOp14
 70
     1
102
RTVSPropertyOp15
 70
     1
102
RTVSPropertyOp16
 70
     1
102
RTVSPropertyOp17
 70
     1
102
RTVSPropertyOp18
 70
     1
102
RTVSPropertyOp19
 70
     1
102
RTVSPropertyOp20
 70
     1
102
RTVSPropertyOp21
 70
     1
102
RTVSPropertyOp22
 70
     1
102
RTVSPropertyOp23
 70
     1
102
RTVSPropertyOp24
 70
     1
102
RTVSPropertyOp25
 70
     1
102
RTVSPropertyOp26
 70
     1
102
RTVSPropertyOp27
 70
     1
102
RTVSPropertyOp28
 70
     1
102
RTVSPropertyOp29
 70
     1
102
RTVSPropertyOp30
 70
     1
102
RTVSPropertyOp31
 70
     1
102
RTVSPropertyOp32
 70
     1
102
RTVSPropertyOp33
 70
     1
102
RTVSPropertyOp34
 70
     1
102
RTVSPropertyOp35
 70
     1
102
RTVSPropertyOp36
 70
     1
102
RTVSPropertyOp37
 70
     1
102
RTVSPropertyOp38
 70
     1
102
RTVSPropertyOp39
 70
     1
102
RTVSPropertyOp40
 70
     1
102
RTVSPropertyOp41
 70
     1
102
RTVSPropertyOp42
 70
     1
102
RTVSPropertyOp43
 70
     1
102
RTVSPropertyOp44
 70
     1
102
RTVSPropertyOp45
 70
     1
102
RTVSPropertyOp46
 70
     1
102
RTVSPropertyOp47
 70
     1
102
RTVSPropertyOp48
 70
     1
102
RTVSPropertyOp49
 70
     1
102
RTVSPropertyOp50
 70
     1
102
RTVSPropertyOp51
 70
     0
102
RTVSPropertyOp52
 70
     0
102
RTVSPropertyOp53
 70
     1
102
RTVSPropertyOp54
 70
     1
102
RTVSPropertyOp55
 70
     1
102
RTVSPropertyOp56
 70
     1
102
RTVSPropertyOp57
 70
     1
102
RTVSPropertyOp58
 70
     1
102
RTVSPropertyOp59
 70
     1
102
RTVSPropertyOp60
 70
     1
102
RTVSPropertyOp61
 70
     1
102
RTVSPropertyOp62
 70
     1
  0
XRECORD
  5
D09
102
{ACAD_REACTORS
330
D08
102
}
330
D08
100
AcDbXrecord
280
     1
102
RTVSPost2010Prop28
280
     0
102
RTVSPost2010PropOp28
 70
     1
102
RTVSPost2010Prop29
280
     1
102
RTVSPost2010PropOp29
 70
     1
102
RTVSPost2010Prop30
280
     1
102
RTVSPost2010PropOp30
 70
     1
102
RTVSPost2010Prop31
280
     0
102
RTVSPost2010PropOp31
 70
     1
102
RTVSPost2010Prop32
280
     0
102
RTVSPost2010PropOp32
 70
     1
102
RTVSPost2010Prop33
280
     0
102
RTVSPost2010PropOp33
 70
     1
102
RTVSPost2010Prop34
280
     0
102
RTVSPost2010PropOp34
 70
     1
102
RTVSPost2010Prop35
280
     0
102
RTVSPost2010PropOp35
 70
     1
102
RTVSPost2010Prop36
280
     0
102
RTVSPost2010PropOp36
 70
     1
102
RTVSPost2010Prop37
 90
       50
102
RTVSPost2010PropOp37
 70
     1
102
RTVSPost2010Prop38
140
0.0
102
RTVSPost2010PropOp38
 70
     1
102
RTVSPost2010Prop39
140
1.0
102
RTVSPost2010PropOp39
 70
     1
102
RTVSPost2010Prop40
 90
        0
102
RTVSPost2010PropOp40
 70
     1
102
RTVSPost2010Prop41ColorIndex
 90
       18
102
RTVSPost2010Prop41ColorRGB
 90
-16777216
102
RTVSPost2010PropOp41
 70
     1
102
RTVSPost2010Prop42
 90
       50
102
RTVSPost2010PropOp42
 70
     1
102
RTVSPost2010Prop43
 90
        3
102
RTVSPost2010PropOp43
 70
     1
102
RTVSPost2010Prop44ColorIndex
 90
        5
102
RTVSPost2010Prop44ColorRGB
 90
      255
102
RTVSPost2010PropOp44
 70
     1
102
RTVSPost2010Prop45
280
     0
102
RTVSPost2010PropOp45
 70
     1
102
RTVSPost2010Prop46
 90
       50
102
RTVSPost2010PropOp46
 70
     1
102
RTVSPost2010Prop47
 90
       50
102
RTVSPost2010PropOp47
 70
     1
102
RTVSPost2010Prop48
 90
       50
102
RTVSPost2010PropOp48
 70
     1
102
RTVSPost2010Prop49
280
     0
102
RTVSPost2010PropOp49
 70
     1
102
RTVSPost2010Prop50
 90
       50
102
RTVSPost2010PropOp50
 70
     1
102
RTVSPost2010Prop51ColorIndex
 90
      256
102
RTVSPost2010Prop51ColorRGB
 90
-16777216
102
RTVSPost2010PropOp51
 70
     0
102
RTVSPost2010Prop52
140
1.0
102
RTVSPost2010PropOp52
 70
     0
102
RTVSPost2010Prop53
 90
        2
102
RTVSPost2010PropOp53
 70
     1
102
RTVSPost2010Prop54
  1
strokes_ogs.tif
102
RTVSPost2010PropOp54
 70
     1
102
RTVSPost2010Prop55
280
     0
102
RTVSPost2010PropOp55
 70
     1
102
RTVSPost2010Prop56
140
1.0
102
RTVSPost2010PropOp56
 70
     1
102
RTVSPost2010Prop57
140
1.0
102
RTVSPost2010PropOp57
 70
     1
102
RTVSPropertyOp0
 70
     1
102
RTVSPropertyOp1
 70
     1
102
RTVSPropertyOp2
 70
     1
102
RTVSPropertyOp3
 70
     1
102
RTVSPropertyOp4
 70
     1
102
RTVSPropertyOp5
 70
     1
102
RTVSPropertyOp6
 70
     1
102
RTVSPropertyOp7
 70
     1
102
RTVSPropertyOp8
 70
     1
102
RTVSPropertyOp9
 70
     1
102
RTVSPropertyOp10
 70
     1
102
RTVSPropertyOp11
 70
     1
102
RTVSPropertyOp12
 70
     1
102
RTVSPropertyOp13
 70
     1
102
RTVSPropertyOp14
 70
     1
102
RTVSPropertyOp15
 70
     1
102
RTVSPropertyOp16
 70
     1
102
RTVSPropertyOp17
 70
     1
102
RTVSPropertyOp18
 70
     1
102
RTVSPropertyOp19
 70
     1
102
RTVSPropertyOp20
 70
     1
102
RTVSPropertyOp21
 70
     1
102
RTVSPropertyOp22
 70
     1
102
RTVSPropertyOp23
 70
     1
102
RTVSPropertyOp24
 70
     1
102
RTVSPropertyOp25
 70
     1
102
RTVSPropertyOp26
 70
     1
102
RTVSPropertyOp27
 70
     1
102
RTVSPropertyOp28
 70
     1
102
RTVSPropertyOp29
 70
     1
102
RTVSPropertyOp30
 70
     1
102
RTVSPropertyOp31
 70
     1
102
RTVSPropertyOp32
 70
     1
102
RTVSPropertyOp33
 70
     1
102
RTVSPropertyOp34
 70
     1
102
RTVSPropertyOp35
 70
     1
102
RTVSPropertyOp36
 70
     1
102
RTVSPropertyOp37
 70
     1
102
RTVSPropertyOp38
 70
     1
102
RTVSPropertyOp39
 70
     1
102
RTVSPropertyOp40
 70
     1
102
RTVSPropertyOp41
 70
     1
102
RTVSPropertyOp42
 70
     1
102
RTVSPropertyOp43
 70
     1
102
RTVSPropertyOp44
 70
     1
102
RTVSPropertyOp45
 70
     1
102
RTVSPropertyOp46
 70
     1
102
RTVSPropertyOp47
 70
     1
102
RTVSPropertyOp48
 70
     1
102
RTVSPropertyOp49
 70
     1
102
RTVSPropertyOp50
 70
     1
102
RTVSPropertyOp51
 70
     0
102
RTVSPropertyOp52
 70
     0
102
RTVSPropertyOp53
 70
     1
102
RTVSPropertyOp54
 70
     1
102
RTVSPropertyOp55
 70
     1
102
RTVSPropertyOp56
 70
     1
102
RTVSPropertyOp57
 70
     1
102
RTVSPropertyOp58
 70
     1
102
RTVSPropertyOp59
 70
     1
102
RTVSPropertyOp60
 70
     1
102
RTVSPropertyOp61
 70
     1
102
RTVSPropertyOp62
 70
     1
  0
XRECORD
  5
D11
102
{ACAD_REACTORS
330
D10
102
}
330
D10
100
AcDbXrecord
280
     1
102
RTVSPost2010Prop28
280
     0
102
RTVSPost2010PropOp28
 70
     1
102
RTVSPost2010Prop29
280
     1
102
RTVSPost2010PropOp29
 70
     1
102
RTVSPost2010Prop30
280
     1
102
RTVSPost2010PropOp30
 70
     1
102
RTVSPost2010Prop31
280
     0
102
RTVSPost2010PropOp31
 70
     1
102
RTVSPost2010Prop32
280
     0
102
RTVSPost2010PropOp32
 70
     1
102
RTVSPost2010Prop33
280
     0
102
RTVSPost2010PropOp33
 70
     1
102
RTVSPost2010Prop34
280
     0
102
RTVSPost2010PropOp34
 70
     1
102
RTVSPost2010Prop35
280
     0
102
RTVSPost2010PropOp35
 70
     1
102
RTVSPost2010Prop36
280
     0
102
RTVSPost2010PropOp36
 70
     1
102
RTVSPost2010Prop37
 90
       50
102
RTVSPost2010PropOp37
 70
     1
102
RTVSPost2010Prop38
140
0.0
102
RTVSPost2010PropOp38
 70
     1
102
RTVSPost2010Prop39
140
1.0
102
RTVSPost2010PropOp39
 70
     1
102
RTVSPost2010Prop40
 90
        0
102
RTVSPost2010PropOp40
 70
     1
102
RTVSPost2010Prop41ColorIndex
 90
       18
102
RTVSPost2010Prop41ColorRGB
 90
-16777216
102
RTVSPost2010PropOp41
 70
     1
102
RTVSPost2010Prop42
 90
       50
102
RTVSPost2010PropOp42
 70
     1
102
RTVSPost2010Prop43
 90
        3
102
RTVSPost2010PropOp43
 70
     1
102
RTVSPost2010Prop44ColorIndex
 90
        5
102
RTVSPost2010Prop44ColorRGB
 90
      255
102
RTVSPost2010PropOp44
 70
     1
102
RTVSPost2010Prop45
280
     0
102
RTVSPost2010PropOp45
 70
     1
102
RTVSPost2010Prop46
 90
       50
102
RTVSPost2010PropOp46
 70
     1
102
RTVSPost2010Prop47
 90
       50
102
RTVSPost2010PropOp47
 70
     1
102
RTVSPost2010Prop48
 90
       50
102
RTVSPost2010PropOp48
 70
     1
102
RTVSPost2010Prop49
280
     0
102
RTVSPost2010PropOp49
 70
     1
102
RTVSPost2010Prop50
 90
       50
102
RTVSPost2010PropOp50
 70
     1
102
RTVSPost2010Prop51ColorIndex
 90
      256
102
RTVSPost2010Prop51ColorRGB
 90
-16777216
102
RTVSPost2010PropOp51
 70
     0
102
RTVSPost2010Prop52
140
1.0
102
RTVSPost2010PropOp52
 70
     0
102
RTVSPost2010Prop53
 90
        2
102
RTVSPost2010PropOp53
 70
     1
102
RTVSPost2010Prop54
  1
strokes_ogs.tif
102
RTVSPost2010PropOp54
 70
     1
102
RTVSPost2010Prop55
280
     0
102
RTVSPost2010PropOp55
 70
     1
102
RTVSPost2010Prop56
140
1.0
102
RTVSPost2010PropOp56
 70
     1
102
RTVSPost2010Prop57
140
1.0
102
RTVSPost2010PropOp57
 70
     1
102
RTVSPropertyOp0
 70
     1
102
RTVSPropertyOp1
 70
     1
102
RTVSPropertyOp2
 70
     1
102
RTVSPropertyOp3
 70
     1
102
RTVSPropertyOp4
 70
     1
102
RTVSPropertyOp5
 70
     1
102
RTVSPropertyOp6
 70
     1
102
RTVSPropertyOp7
 70
     1
102
RTVSPropertyOp8
 70
     1
102
RTVSPropertyOp9
 70
     1
102
RTVSPropertyOp10
 70
     1
102
RTVSPropertyOp11
 70
     1
102
RTVSPropertyOp12
 70
     1
102
RTVSPropertyOp13
 70
     1
102
RTVSPropertyOp14
 70
     1
102
RTVSPropertyOp15
 70
     1
102
RTVSPropertyOp16
 70
     1
102
RTVSPropertyOp17
 70
     1
102
RTVSPropertyOp18
 70
     1
102
RTVSPropertyOp19
 70
     1
102
RTVSPropertyOp20
 70
     1
102
RTVSPropertyOp21
 70
     1
102
RTVSPropertyOp22
 70
     1
102
RTVSPropertyOp23
 70
     1
102
RTVSPropertyOp24
 70
     1
102
RTVSPropertyOp25
 70
     1
102
RTVSPropertyOp26
 70
     1
102
RTVSPropertyOp27
 70
     1
102
RTVSPropertyOp28
 70
     1
102
RTVSPropertyOp29
 70
     1
102
RTVSPropertyOp30
 70
     1
102
RTVSPropertyOp31
 70
     1
102
RTVSPropertyOp32
 70
     1
102
RTVSPropertyOp33
 70
     1
102
RTVSPropertyOp34
 70
     1
102
RTVSPropertyOp35
 70
     1
102
RTVSPropertyOp36
 70
     1
102
RTVSPropertyOp37
 70
     1
102
RTVSPropertyOp38
 70
     1
102
RTVSPropertyOp39
 70
     1
102
RTVSPropertyOp40
 70
     1
102
RTVSPropertyOp41
 70
     1
102
RTVSPropertyOp42
 70
     1
102
RTVSPropertyOp43
 70
     1
102
RTVSPropertyOp44
 70
     1
102
RTVSPropertyOp45
 70
     1
102
RTVSPropertyOp46
 70
     1
102
RTVSPropertyOp47
 70
     1
102
RTVSPropertyOp48
 70
     1
102
RTVSPropertyOp49
 70
     1
102
RTVSPropertyOp50
 70
     1
102
RTVSPropertyOp51
 70
     0
102
RTVSPropertyOp52
 70
     0
102
RTVSPropertyOp53
 70
     1
102
RTVSPropertyOp54
 70
     1
102
RTVSPropertyOp55
 70
     1
102
RTVSPropertyOp56
 70
     1
102
RTVSPropertyOp57
 70
     1
102
RTVSPropertyOp58
 70
     1
102
RTVSPropertyOp59
 70
     1
102
RTVSPropertyOp60
 70
     1
102
RTVSPropertyOp61
 70
     1
102
RTVSPropertyOp62
 70
     1
  0
XRECORD
  5
D03
102
{ACAD_REACTORS
330
D02
102
}
330
D02
100
AcDbXrecord
280
     1
102
RTVSPost2010Prop28
280
     0
102
RTVSPost2010PropOp28
 70
     1
102
RTVSPost2010Prop29
280
     1
102
RTVSPost2010PropOp29
 70
     1
102
RTVSPost2010Prop30
280
     1
102
RTVSPost2010PropOp30
 70
     1
102
RTVSPost2010Prop31
280
     0
102
RTVSPost2010PropOp31
 70
     1
102
RTVSPost2010Prop32
280
     0
102
RTVSPost2010PropOp32
 70
     1
102
RTVSPost2010Prop33
280
     0
102
RTVSPost2010PropOp33
 70
     1
102
RTVSPost2010Prop34
280
     0
102
RTVSPost2010PropOp34
 70
     1
102
RTVSPost2010Prop35
280
     0
102
RTVSPost2010PropOp35
 70
     1
102
RTVSPost2010Prop36
280
     0
102
RTVSPost2010PropOp36
 70
     1
102
RTVSPost2010Prop37
 90
       50
102
RTVSPost2010PropOp37
 70
     1
102
RTVSPost2010Prop38
140
0.0
102
RTVSPost2010PropOp38
 70
     1
102
RTVSPost2010Prop39
140
1.0
102
RTVSPost2010PropOp39
 70
     1
102
RTVSPost2010Prop40
 90
        0
102
RTVSPost2010PropOp40
 70
     1
102
RTVSPost2010Prop41ColorIndex
 90
       18
102
RTVSPost2010Prop41ColorRGB
 90
-16777216
102
RTVSPost2010PropOp41
 70
     1
102
RTVSPost2010Prop42
 90
       50
102
RTVSPost2010PropOp42
 70
     1
102
RTVSPost2010Prop43
 90
        3
102
RTVSPost2010PropOp43
 70
     1
102
RTVSPost2010Prop44ColorIndex
 90
        5
102
RTVSPost2010Prop44ColorRGB
 90
      255
102
RTVSPost2010PropOp44
 70
     1
102
RTVSPost2010Prop45
280
     0
102
RTVSPost2010PropOp45
 70
     1
102
RTVSPost2010Prop46
 90
       50
102
RTVSPost2010PropOp46
 70
     1
102
RTVSPost2010Prop47
 90
       50
102
RTVSPost2010PropOp47
 70
     1
102
RTVSPost2010Prop48
 90
       50
102
RTVSPost2010PropOp48
 70
     1
102
RTVSPost2010Prop49
280
     0
102
RTVSPost2010PropOp49
 70
     1
102
RTVSPost2010Prop50
 90
       50
102
RTVSPost2010PropOp50
 70
     1
102
RTVSPost2010Prop51ColorIndex
 90
      256
102
RTVSPost2010Prop51ColorRGB
 90
-16777216
102
RTVSPost2010PropOp51
 70
     0
102
RTVSPost2010Prop52
140
1.0
102
RTVSPost2010PropOp52
 70
     0
102
RTVSPost2010Prop53
 90
        2
102
RTVSPost2010PropOp53
 70
     1
102
RTVSPost2010Prop54
  1
strokes_ogs.tif
102
RTVSPost2010PropOp54
 70
     1
102
RTVSPost2010Prop55
280
     0
102
RTVSPost2010PropOp55
 70
     1
102
RTVSPost2010Prop56
140
1.0
102
RTVSPost2010PropOp56
 70
     1
102
RTVSPost2010Prop57
140
1.0
102
RTVSPost2010PropOp57
 70
     1
102
RTVSPropertyOp0
 70
     1
102
RTVSPropertyOp1
 70
     1
102
RTVSPropertyOp2
 70
     1
102
RTVSPropertyOp3
 70
     1
102
RTVSPropertyOp4
 70
     1
102
RTVSPropertyOp5
 70
     1
102
RTVSPropertyOp6
 70
     1
102
RTVSPropertyOp7
 70
     1
102
RTVSPropertyOp8
 70
     1
102
RTVSPropertyOp9
 70
     1
102
RTVSPropertyOp10
 70
     1
102
RTVSPropertyOp11
 70
     1
102
RTVSPropertyOp12
 70
     1
102
RTVSPropertyOp13
 70
     1
102
RTVSPropertyOp14
 70
     1
102
RTVSPropertyOp15
 70
     1
102
RTVSPropertyOp16
 70
     1
102
RTVSPropertyOp17
 70
     1
102
RTVSPropertyOp18
 70
     1
102
RTVSPropertyOp19
 70
     1
102
RTVSPropertyOp20
 70
     1
102
RTVSPropertyOp21
 70
     1
102
RTVSPropertyOp22
 70
     1
102
RTVSPropertyOp23
 70
     1
102
RTVSPropertyOp24
 70
     1
102
RTVSPropertyOp25
 70
     1
102
RTVSPropertyOp26
 70
     1
102
RTVSPropertyOp27
 70
     1
102
RTVSPropertyOp28
 70
     1
102
RTVSPropertyOp29
 70
     1
102
RTVSPropertyOp30
 70
     1
102
RTVSPropertyOp31
 70
     1
102
RTVSPropertyOp32
 70
     1
102
RTVSPropertyOp33
 70
     1
102
RTVSPropertyOp34
 70
     1
102
RTVSPropertyOp35
 70
     1
102
RTVSPropertyOp36
 70
     1
102
RTVSPropertyOp37
 70
     1
102
RTVSPropertyOp38
 70
     1
102
RTVSPropertyOp39
 70
     1
102
RTVSPropertyOp40
 70
     1
102
RTVSPropertyOp41
 70
     1
102
RTVSPropertyOp42
 70
     1
102
RTVSPropertyOp43
 70
     1
102
RTVSPropertyOp44
 70
     1
102
RTVSPropertyOp45
 70
     1
102
RTVSPropertyOp46
 70
     1
102
RTVSPropertyOp47
 70
     1
102
RTVSPropertyOp48
 70
     1
102
RTVSPropertyOp49
 70
     1
102
RTVSPropertyOp50
 70
     1
102
RTVSPropertyOp51
 70
     0
102
RTVSPropertyOp52
 70
     0
102
RTVSPropertyOp53
 70
     1
102
RTVSPropertyOp54
 70
     1
102
RTVSPropertyOp55
 70
     1
102
RTVSPropertyOp56
 70
     1
102
RTVSPropertyOp57
 70
     1
102
RTVSPropertyOp58
 70
     1
102
RTVSPropertyOp59
 70
     1
102
RTVSPropertyOp60
 70
     1
102
RTVSPropertyOp61
 70
     1
102
RTVSPropertyOp62
 70
     1
  0
XRECORD
  5
D07
102
{ACAD_REACTORS
330
D06
102
}
330
D06
100
AcDbXrecord
280
     1
102
RTVSPost2010Prop28
280
     0
102
RTVSPost2010PropOp28
 70
     1
102
RTVSPost2010Prop29
280
     1
102
RTVSPost2010PropOp29
 70
     1
102
RTVSPost2010Prop30
280
     1
102
RTVSPost2010PropOp30
 70
     1
102
RTVSPost2010Prop31
280
     0
102
RTVSPost2010PropOp31
 70
     1
102
RTVSPost2010Prop32
280
     0
102
RTVSPost2010PropOp32
 70
     1
102
RTVSPost2010Prop33
280
     0
102
RTVSPost2010PropOp33
 70
     1
102
RTVSPost2010Prop34
280
     0
102
RTVSPost2010PropOp34
 70
     1
102
RTVSPost2010Prop35
280
     0
102
RTVSPost2010PropOp35
 70
     1
102
RTVSPost2010Prop36
280
     0
102
RTVSPost2010PropOp36
 70
     1
102
RTVSPost2010Prop37
 90
       50
102
RTVSPost2010PropOp37
 70
     1
102
RTVSPost2010Prop38
140
0.0
102
RTVSPost2010PropOp38
 70
     1
102
RTVSPost2010Prop39
140
1.0
102
RTVSPost2010PropOp39
 70
     1
102
RTVSPost2010Prop40
 90
        0
102
RTVSPost2010PropOp40
 70
     1
102
RTVSPost2010Prop41ColorIndex
 90
       18
102
RTVSPost2010Prop41ColorRGB
 90
-16777216
102
RTVSPost2010PropOp41
 70
     1
102
RTVSPost2010Prop42
 90
       50
102
RTVSPost2010PropOp42
 70
     1
102
RTVSPost2010Prop43
 90
        3
102
RTVSPost2010PropOp43
 70
     1
102
RTVSPost2010Prop44ColorIndex
 90
        5
102
RTVSPost2010Prop44ColorRGB
 90
      255
102
RTVSPost2010PropOp44
 70
     1
102
RTVSPost2010Prop45
280
     0
102
RTVSPost2010PropOp45
 70
     1
102
RTVSPost2010Prop46
 90
       50
102
RTVSPost2010PropOp46
 70
     1
102
RTVSPost2010Prop47
 90
       50
102
RTVSPost2010PropOp47
 70
     1
102
RTVSPost2010Prop48
 90
       50
102
RTVSPost2010PropOp48
 70
     1
102
RTVSPost2010Prop49
280
     0
102
RTVSPost2010PropOp49
 70
     1
102
RTVSPost2010Prop50
 90
       50
102
RTVSPost2010PropOp50
 70
     1
102
RTVSPost2010Prop51ColorIndex
 90
      256
102
RTVSPost2010Prop51ColorRGB
 90
-16777216
102
RTVSPost2010PropOp51
 70
     0
102
RTVSPost2010Prop52
140
1.0
102
RTVSPost2010PropOp52
 70
     0
102
RTVSPost2010Prop53
 90
        2
102
RTVSPost2010PropOp53
 70
     1
102
RTVSPost2010Prop54
  1
strokes_ogs.tif
102
RTVSPost2010PropOp54
 70
     1
102
RTVSPost2010Prop55
280
     0
102
RTVSPost2010PropOp55
 70
     1
102
RTVSPost2010Prop56
140
1.0
102
RTVSPost2010PropOp56
 70
     1
102
RTVSPost2010Prop57
140
1.0
102
RTVSPost2010PropOp57
 70
     1
102
RTVSPropertyOp0
 70
     1
102
RTVSPropertyOp1
 70
     1
102
RTVSPropertyOp2
 70
     1
102
RTVSPropertyOp3
 70
     1
102
RTVSPropertyOp4
 70
     1
102
RTVSPropertyOp5
 70
     1
102
RTVSPropertyOp6
 70
     1
102
RTVSPropertyOp7
 70
     1
102
RTVSPropertyOp8
 70
     1
102
RTVSPropertyOp9
 70
     1
102
RTVSPropertyOp10
 70
     1
102
RTVSPropertyOp11
 70
     1
102
RTVSPropertyOp12
 70
     1
102
RTVSPropertyOp13
 70
     1
102
RTVSPropertyOp14
 70
     1
102
RTVSPropertyOp15
 70
     1
102
RTVSPropertyOp16
 70
     1
102
RTVSPropertyOp17
 70
     1
102
RTVSPropertyOp18
 70
     1
102
RTVSPropertyOp19
 70
     1
102
RTVSPropertyOp20
 70
     1
102
RTVSPropertyOp21
 70
     1
102
RTVSPropertyOp22
 70
     1
102
RTVSPropertyOp23
 70
     1
102
RTVSPropertyOp24
 70
     1
102
RTVSPropertyOp25
 70
     1
102
RTVSPropertyOp26
 70
     1
102
RTVSPropertyOp27
 70
     1
102
RTVSPropertyOp28
 70
     1
102
RTVSPropertyOp29
 70
     1
102
RTVSPropertyOp30
 70
     1
102
RTVSPropertyOp31
 70
     1
102
RTVSPropertyOp32
 70
     1
102
RTVSPropertyOp33
 70
     1
102
RTVSPropertyOp34
 70
     1
102
RTVSPropertyOp35
 70
     1
102
RTVSPropertyOp36
 70
     1
102
RTVSPropertyOp37
 70
     1
102
RTVSPropertyOp38
 70
     1
102
RTVSPropertyOp39
 70
     1
102
RTVSPropertyOp40
 70
     1
102
RTVSPropertyOp41
 70
     1
102
RTVSPropertyOp42
 70
     1
102
RTVSPropertyOp43
 70
     1
102
RTVSPropertyOp44
 70
     1
102
RTVSPropertyOp45
 70
     1
102
RTVSPropertyOp46
 70
     1
102
RTVSPropertyOp47
 70
     1
102
RTVSPropertyOp48
 70
     1
102
RTVSPropertyOp49
 70
     1
102
RTVSPropertyOp50
 70
     1
102
RTVSPropertyOp51
 70
     0
102
RTVSPropertyOp52
 70
     0
102
RTVSPropertyOp53
 70
     1
102
RTVSPropertyOp54
 70
     1
102
RTVSPropertyOp55
 70
     1
102
RTVSPropertyOp56
 70
     1
102
RTVSPropertyOp57
 70
     1
102
RTVSPropertyOp58
 70
     1
102
RTVSPropertyOp59
 70
     1
102
RTVSPropertyOp60
 70
     1
102
RTVSPropertyOp61
 70
     1
102
RTVSPropertyOp62
 70
     1
  0
XRECORD
  5
D21
102
{ACAD_REACTORS
330
D20
102
}
330
D20
100
AcDbXrecord
280
     1
102
RTVSPost2010Prop28
280
     0
102
RTVSPost2010PropOp28
 70
     0
102
RTVSPost2010Prop29
280
     1
102
RTVSPost2010PropOp29
 70
     0
102
RTVSPost2010Prop30
280
     1
102
RTVSPost2010PropOp30
 70
     0
102
RTVSPost2010Prop31
280
     0
102
RTVSPost2010PropOp31
 70
     0
102
RTVSPost2010Prop32
280
     0
102
RTVSPost2010PropOp32
 70
     0
102
RTVSPost2010Prop33
280
     0
102
RTVSPost2010PropOp33
 70
     0
102
RTVSPost2010Prop34
280
     0
102
RTVSPost2010PropOp34
 70
     0
102
RTVSPost2010Prop35
280
     0
102
RTVSPost2010PropOp35
 70
     0
102
RTVSPost2010Prop36
280
     0
102
RTVSPost2010PropOp36
 70
     0
102
RTVSPost2010Prop37
 90
       50
102
RTVSPost2010PropOp37
 70
     0
102
RTVSPost2010Prop38
140
0.0
102
RTVSPost2010PropOp38
 70
     0
102
RTVSPost2010Prop39
140
1.0
102
RTVSPost2010PropOp39
 70
     0
102
RTVSPost2010Prop40
 90
        0
102
RTVSPost2010PropOp40
 70
     0
102
RTVSPost2010Prop41ColorIndex
 90
       18
102
RTVSPost2010Prop41ColorRGB
 90
-16777216
102
RTVSPost2010PropOp41
 70
     0
102
RTVSPost2010Prop42
 90
       50
102
RTVSPost2010PropOp42
 70
     0
102
RTVSPost2010Prop43
 90
        3
102
RTVSPost2010PropOp43
 70
     0
102
RTVSPost2010Prop44ColorIndex
 90
        5
102
RTVSPost2010Prop44ColorRGB
 90
      255
102
RTVSPost2010PropOp44
 70
     0
102
RTVSPost2010Prop45
280
     0
102
RTVSPost2010PropOp45
 70
     0
102
RTVSPost2010Prop46
 90
       50
102
RTVSPost2010PropOp46
 70
     0
102
RTVSPost2010Prop47
 90
       50
102
RTVSPost2010PropOp47
 70
     0
102
RTVSPost2010Prop48
 90
       50
102
RTVSPost2010PropOp48
 70
     0
102
RTVSPost2010Prop49
280
     0
102
RTVSPost2010PropOp49
 70
     0
102
RTVSPost2010Prop50
 90
       50
102
RTVSPost2010PropOp50
 70
     0
102
RTVSPost2010Prop51ColorIndex
 90
      256
102
RTVSPost2010Prop51ColorRGB
 90
-16777216
102
RTVSPost2010PropOp51
 70
     0
102
RTVSPost2010Prop52
140
1.0
102
RTVSPost2010PropOp52
 70
     0
102
RTVSPost2010Prop53
 90
        2
102
RTVSPost2010PropOp53
 70
     0
102
RTVSPost2010Prop54
  1
strokes_ogs.tif
102
RTVSPost2010PropOp54
 70
     0
102
RTVSPost2010Prop55
280
     0
102
RTVSPost2010PropOp55
 70
     0
102
RTVSPost2010Prop56
140
1.0
102
RTVSPost2010PropOp56
 70
     0
102
RTVSPost2010Prop57
140
1.0
102
RTVSPost2010PropOp57
 70
     0
102
RTVSPropertyOp0
 70
     0
102
RTVSPropertyOp1
 70
     0
102
RTVSPropertyOp2
 70
     0
102
RTVSPropertyOp3
 70
     0
102
RTVSPropertyOp4
 70
     0
102
RTVSPropertyOp5
 70
     0
102
RTVSPropertyOp6
 70
     0
102
RTVSPropertyOp7
 70
     0
102
RTVSPropertyOp8
 70
     0
102
RTVSPropertyOp9
 70
     0
102
RTVSPropertyOp10
 70
     0
102
RTVSPropertyOp11
 70
     0
102
RTVSPropertyOp12
 70
     0
102
RTVSPropertyOp13
 70
     0
102
RTVSPropertyOp14
 70
     2
102
RTVSPropertyOp15
 70
     0
102
RTVSPropertyOp16
 70
     0
102
RTVSPropertyOp17
 70
     0
102
RTVSPropertyOp18
 70
     0
102
RTVSPropertyOp19
 70
     0
102
RTVSPropertyOp20
 70
     0
102
RTVSPropertyOp21
 70
     0
102
RTVSPropertyOp22
 70
     0
102
RTVSPropertyOp23
 70
     0
102
RTVSPropertyOp24
 70
     0
102
RTVSPropertyOp25
 70
     0
102
RTVSPropertyOp26
 70
     0
102
RTVSPropertyOp27
 70
     0
102
RTVSPropertyOp28
 70
     0
102
RTVSPropertyOp29
 70
     0
102
RTVSPropertyOp30
 70
     0
102
RTVSPropertyOp31
 70
     0
102
RTVSPropertyOp32
 70
     0
102
RTVSPropertyOp33
 70
     0
102
RTVSPropertyOp34
 70
     0
102
RTVSPropertyOp35
 70
     0
102
RTVSPropertyOp36
 70
     0
102
RTVSPropertyOp37
 70
     0
102
RTVSPropertyOp38
 70
     0
102
RTVSPropertyOp39
 70
     0
102
RTVSPropertyOp40
 70
     0
102
RTVSPropertyOp41
 70
     0
102
RTVSPropertyOp42
 70
     0
102
RTVSPropertyOp43
 70
     0
102
RTVSPropertyOp44
 70
     0
102
RTVSPropertyOp45
 70
     0
102
RTVSPropertyOp46
 70
     0
102
RTVSPropertyOp47
 70
     0
102
RTVSPropertyOp48
 70
     0
102
RTVSPropertyOp49
 70
     0
102
RTVSPropertyOp50
 70
     0
102
RTVSPropertyOp51
 70
     0
102
RTVSPropertyOp52
 70
     0
102
RTVSPropertyOp53
 70
     0
102
RTVSPropertyOp54
 70
     0
102
RTVSPropertyOp55
 70
     0
102
RTVSPropertyOp56
 70
     0
102
RTVSPropertyOp57
 70
     0
102
RTVSPropertyOp58
 70
     1
102
RTVSPropertyOp59
 70
     1
102
RTVSPropertyOp60
 70
     1
102
RTVSPropertyOp61
 70
     1
102
RTVSPropertyOp62
 70
     1
  0
XRECORD
  5
D0F
102
{ACAD_REACTORS
330
D0E
102
}
330
D0E
100
AcDbXrecord
280
     1
102
RTVSPost2010Prop28
280
     0
102
RTVSPost2010PropOp28
 70
     1
102
RTVSPost2010Prop29
280
     1
102
RTVSPost2010PropOp29
 70
     1
102
RTVSPost2010Prop30
280
     1
102
RTVSPost2010PropOp30
 70
     1
102
RTVSPost2010Prop31
280
     0
102
RTVSPost2010PropOp31
 70
     1
102
RTVSPost2010Prop32
280
     0
102
RTVSPost2010PropOp32
 70
     1
102
RTVSPost2010Prop33
280
     0
102
RTVSPost2010PropOp33
 70
     1
102
RTVSPost2010Prop34
280
     0
102
RTVSPost2010PropOp34
 70
     1
102
RTVSPost2010Prop35
280
     0
102
RTVSPost2010PropOp35
 70
     1
102
RTVSPost2010Prop36
280
     0
102
RTVSPost2010PropOp36
 70
     1
102
RTVSPost2010Prop37
 90
       50
102
RTVSPost2010PropOp37
 70
     1
102
RTVSPost2010Prop38
140
0.0
102
RTVSPost2010PropOp38
 70
     1
102
RTVSPost2010Prop39
140
1.0
102
RTVSPost2010PropOp39
 70
     1
102
RTVSPost2010Prop40
 90
        0
102
RTVSPost2010PropOp40
 70
     1
102
RTVSPost2010Prop41ColorIndex
 90
       18
102
RTVSPost2010Prop41ColorRGB
 90
-16777216
102
RTVSPost2010PropOp41
 70
     1
102
RTVSPost2010Prop42
 90
       50
102
RTVSPost2010PropOp42
 70
     1
102
RTVSPost2010Prop43
 90
        3
102
RTVSPost2010PropOp43
 70
     1
102
RTVSPost2010Prop44ColorIndex
 90
        5
102
RTVSPost2010Prop44ColorRGB
 90
      255
102
RTVSPost2010PropOp44
 70
     1
102
RTVSPost2010Prop45
280
     0
102
RTVSPost2010PropOp45
 70
     1
102
RTVSPost2010Prop46
 90
       50
102
RTVSPost2010PropOp46
 70
     1
102
RTVSPost2010Prop47
 90
       50
102
RTVSPost2010PropOp47
 70
     1
102
RTVSPost2010Prop48
 90
       50
102
RTVSPost2010PropOp48
 70
     1
102
RTVSPost2010Prop49
280
     0
102
RTVSPost2010PropOp49
 70
     1
102
RTVSPost2010Prop50
 90
       50
102
RTVSPost2010PropOp50
 70
     1
102
RTVSPost2010Prop51ColorIndex
 90
      256
102
RTVSPost2010Prop51ColorRGB
 90
-16777216
102
RTVSPost2010PropOp51
 70
     0
102
RTVSPost2010Prop52
140
1.0
102
RTVSPost2010PropOp52
 70
     0
102
RTVSPost2010Prop53
 90
        2
102
RTVSPost2010PropOp53
 70
     1
102
RTVSPost2010Prop54
  1
strokes_ogs.tif
102
RTVSPost2010PropOp54
 70
     1
102
RTVSPost2010Prop55
280
     0
102
RTVSPost2010PropOp55
 70
     1
102
RTVSPost2010Prop56
140
1.0
102
RTVSPost2010PropOp56
 70
     1
102
RTVSPost2010Prop57
140
1.0
102
RTVSPost2010PropOp57
 70
     1
102
RTVSPropertyOp0
 70
     1
102
RTVSPropertyOp1
 70
     1
102
RTVSPropertyOp2
 70
     1
102
RTVSPropertyOp3
 70
     1
102
RTVSPropertyOp4
 70
     1
102
RTVSPropertyOp5
 70
     1
102
RTVSPropertyOp6
 70
     1
102
RTVSPropertyOp7
 70
     1
102
RTVSPropertyOp8
 70
     1
102
RTVSPropertyOp9
 70
     1
102
RTVSPropertyOp10
 70
     1
102
RTVSPropertyOp11
 70
     1
102
RTVSPropertyOp12
 70
     1
102
RTVSPropertyOp13
 70
     1
102
RTVSPropertyOp14
 70
     1
102
RTVSPropertyOp15
 70
     1
102
RTVSPropertyOp16
 70
     1
102
RTVSPropertyOp17
 70
     1
102
RTVSPropertyOp18
 70
     1
102
RTVSPropertyOp19
 70
     1
102
RTVSPropertyOp20
 70
     1
102
RTVSPropertyOp21
 70
     1
102
RTVSPropertyOp22
 70
     1
102
RTVSPropertyOp23
 70
     1
102
RTVSPropertyOp24
 70
     1
102
RTVSPropertyOp25
 70
     1
102
RTVSPropertyOp26
 70
     1
102
RTVSPropertyOp27
 70
     1
102
RTVSPropertyOp28
 70
     1
102
RTVSPropertyOp29
 70
     1
102
RTVSPropertyOp30
 70
     1
102
RTVSPropertyOp31
 70
     1
102
RTVSPropertyOp32
 70
     1
102
RTVSPropertyOp33
 70
     1
102
RTVSPropertyOp34
 70
     1
102
RTVSPropertyOp35
 70
     1
102
RTVSPropertyOp36
 70
     1
102
RTVSPropertyOp37
 70
     1
102
RTVSPropertyOp38
 70
     1
102
RTVSPropertyOp39
 70
     1
102
RTVSPropertyOp40
 70
     1
102
RTVSPropertyOp41
 70
     1
102
RTVSPropertyOp42
 70
     1
102
RTVSPropertyOp43
 70
     1
102
RTVSPropertyOp44
 70
     1
102
RTVSPropertyOp45
 70
     1
102
RTVSPropertyOp46
 70
     1
102
RTVSPropertyOp47
 70
     1
102
RTVSPropertyOp48
 70
     1
102
RTVSPropertyOp49
 70
     1
102
RTVSPropertyOp50
 70
     1
102
RTVSPropertyOp51
 70
     0
102
RTVSPropertyOp52
 70
     0
102
RTVSPropertyOp53
 70
     1
102
RTVSPropertyOp54
 70
     1
102
RTVSPropertyOp55
 70
     1
102
RTVSPropertyOp56
 70
     1
102
RTVSPropertyOp57
 70
     1
102
RTVSPropertyOp58
 70
     1
102
RTVSPropertyOp59
 70
     1
102
RTVSPropertyOp60
 70
     1
102
RTVSPropertyOp61
 70
     1
102
RTVSPropertyOp62
 70
     1
  0
XRECORD
  5
CF3
102
{ACAD_REACTORS
330
CF2
102
}
330
CF2
100
AcDbXrecord
280
     1
102
RTVSPost2010Prop28
280
     0
102
RTVSPost2010PropOp28
 70
     1
102
RTVSPost2010Prop29
280
     1
102
RTVSPost2010PropOp29
 70
     1
102
RTVSPost2010Prop30
280
     1
102
RTVSPost2010PropOp30
 70
     1
102
RTVSPost2010Prop31
280
     0
102
RTVSPost2010PropOp31
 70
     1
102
RTVSPost2010Prop32
280
     0
102
RTVSPost2010PropOp32
 70
     1
102
RTVSPost2010Prop33
280
     0
102
RTVSPost2010PropOp33
 70
     1
102
RTVSPost2010Prop34
280
     0
102
RTVSPost2010PropOp34
 70
     1
102
RTVSPost2010Prop35
280
     0
102
RTVSPost2010PropOp35
 70
     1
102
RTVSPost2010Prop36
280
     0
102
RTVSPost2010PropOp36
 70
     1
102
RTVSPost2010Prop37
 90
       50
102
RTVSPost2010PropOp37
 70
     1
102
RTVSPost2010Prop38
140
0.0
102
RTVSPost2010PropOp38
 70
     1
102
RTVSPost2010Prop39
140
1.0
102
RTVSPost2010PropOp39
 70
     1
102
RTVSPost2010Prop40
 90
        0
102
RTVSPost2010PropOp40
 70
     1
102
RTVSPost2010Prop41ColorIndex
 90
       18
102
RTVSPost2010Prop41ColorRGB
 90
-16777216
102
RTVSPost2010PropOp41
 70
     1
102
RTVSPost2010Prop42
 90
       50
102
RTVSPost2010PropOp42
 70
     1
102
RTVSPost2010Prop43
 90
        3
102
RTVSPost2010PropOp43
 70
     1
102
RTVSPost2010Prop44ColorIndex
 90
        5
102
RTVSPost2010Prop44ColorRGB
 90
      255
102
RTVSPost2010PropOp44
 70
     1
102
RTVSPost2010Prop45
280
     0
102
RTVSPost2010PropOp45
 70
     1
102
RTVSPost2010Prop46
 90
       50
102
RTVSPost2010PropOp46
 70
     1
102
RTVSPost2010Prop47
 90
       50
102
RTVSPost2010PropOp47
 70
     1
102
RTVSPost2010Prop48
 90
       50
102
RTVSPost2010PropOp48
 70
     1
102
RTVSPost2010Prop49
280
     0
102
RTVSPost2010PropOp49
 70
     1
102
RTVSPost2010Prop50
 90
       50
102
RTVSPost2010PropOp50
 70
     1
102
RTVSPost2010Prop51ColorIndex
 90
      256
102
RTVSPost2010Prop51ColorRGB
 90
-16777216
102
RTVSPost2010PropOp51
 70
     0
102
RTVSPost2010Prop52
140
1.0
102
RTVSPost2010PropOp52
 70
     0
102
RTVSPost2010Prop53
 90
        2
102
RTVSPost2010PropOp53
 70
     1
102
RTVSPost2010Prop54
  1
strokes_ogs.tif
102
RTVSPost2010PropOp54
 70
     1
102
RTVSPost2010Prop55
280
     0
102
RTVSPost2010PropOp55
 70
     1
102
RTVSPost2010Prop56
140
1.0
102
RTVSPost2010PropOp56
 70
     1
102
RTVSPost2010Prop57
140
1.0
102
RTVSPost2010PropOp57
 70
     1
102
RTVSPropertyOp0
 70
     1
102
RTVSPropertyOp1
 70
     1
102
RTVSPropertyOp2
 70
     1
102
RTVSPropertyOp3
 70
     1
102
RTVSPropertyOp4
 70
     1
102
RTVSPropertyOp5
 70
     1
102
RTVSPropertyOp6
 70
     1
102
RTVSPropertyOp7
 70
     1
102
RTVSPropertyOp8
 70
     1
102
RTVSPropertyOp9
 70
     1
102
RTVSPropertyOp10
 70
     1
102
RTVSPropertyOp11
 70
     1
102
RTVSPropertyOp12
 70
     1
102
RTVSPropertyOp13
 70
     1
102
RTVSPropertyOp14
 70
     1
102
RTVSPropertyOp15
 70
     1
102
RTVSPropertyOp16
 70
     1
102
RTVSPropertyOp17
 70
     1
102
RTVSPropertyOp18
 70
     1
102
RTVSPropertyOp19
 70
     1
102
RTVSPropertyOp20
 70
     1
102
RTVSPropertyOp21
 70
     1
102
RTVSPropertyOp22
 70
     1
102
RTVSPropertyOp23
 70
     1
102
RTVSPropertyOp24
 70
     1
102
RTVSPropertyOp25
 70
     1
102
RTVSPropertyOp26
 70
     1
102
RTVSPropertyOp27
 70
     1
102
RTVSPropertyOp28
 70
     1
102
RTVSPropertyOp29
 70
     1
102
RTVSPropertyOp30
 70
     1
102
RTVSPropertyOp31
 70
     1
102
RTVSPropertyOp32
 70
     1
102
RTVSPropertyOp33
 70
     1
102
RTVSPropertyOp34
 70
     1
102
RTVSPropertyOp35
 70
     1
102
RTVSPropertyOp36
 70
     1
102
RTVSPropertyOp37
 70
     1
102
RTVSPropertyOp38
 70
     1
102
RTVSPropertyOp39
 70
     1
102
RTVSPropertyOp40
 70
     1
102
RTVSPropertyOp41
 70
     1
102
RTVSPropertyOp42
 70
     1
102
RTVSPropertyOp43
 70
     1
102
RTVSPropertyOp44
 70
     1
102
RTVSPropertyOp45
 70
     1
102
RTVSPropertyOp46
 70
     1
102
RTVSPropertyOp47
 70
     1
102
RTVSPropertyOp48
 70
     1
102
RTVSPropertyOp49
 70
     1
102
RTVSPropertyOp50
 70
     1
102
RTVSPropertyOp51
 70
     0
102
RTVSPropertyOp52
 70
     0
102
RTVSPropertyOp53
 70
     1
102
RTVSPropertyOp54
 70
     1
102
RTVSPropertyOp55
 70
     1
102
RTVSPropertyOp56
 70
     1
102
RTVSPropertyOp57
 70
     1
102
RTVSPropertyOp58
 70
     1
102
RTVSPropertyOp59
 70
     1
102
RTVSPropertyOp60
 70
     1
102
RTVSPropertyOp61
 70
     1
102
RTVSPropertyOp62
 70
     1
  0
XRECORD
  5
CF5
102
{ACAD_REACTORS
330
CF4
102
}
330
CF4
100
AcDbXrecord
280
     1
102
RTVSPost2010Prop28
280
     0
102
RTVSPost2010PropOp28
 70
     1
102
RTVSPost2010Prop29
280
     1
102
RTVSPost2010PropOp29
 70
     1
102
RTVSPost2010Prop30
280
     1
102
RTVSPost2010PropOp30
 70
     1
102
RTVSPost2010Prop31
280
     0
102
RTVSPost2010PropOp31
 70
     1
102
RTVSPost2010Prop32
280
     0
102
RTVSPost2010PropOp32
 70
     1
102
RTVSPost2010Prop33
280
     0
102
RTVSPost2010PropOp33
 70
     1
102
RTVSPost2010Prop34
280
     0
102
RTVSPost2010PropOp34
 70
     1
102
RTVSPost2010Prop35
280
     0
102
RTVSPost2010PropOp35
 70
     1
102
RTVSPost2010Prop36
280
     0
102
RTVSPost2010PropOp36
 70
     1
102
RTVSPost2010Prop37
 90
       50
102
RTVSPost2010PropOp37
 70
     1
102
RTVSPost2010Prop38
140
0.0
102
RTVSPost2010PropOp38
 70
     1
102
RTVSPost2010Prop39
140
1.0
102
RTVSPost2010PropOp39
 70
     1
102
RTVSPost2010Prop40
 90
        0
102
RTVSPost2010PropOp40
 70
     1
102
RTVSPost2010Prop41ColorIndex
 90
       18
102
RTVSPost2010Prop41ColorRGB
 90
-16777216
102
RTVSPost2010PropOp41
 70
     1
102
RTVSPost2010Prop42
 90
       50
102
RTVSPost2010PropOp42
 70
     1
102
RTVSPost2010Prop43
 90
        3
102
RTVSPost2010PropOp43
 70
     1
102
RTVSPost2010Prop44ColorIndex
 90
        5
102
RTVSPost2010Prop44ColorRGB
 90
      255
102
RTVSPost2010PropOp44
 70
     1
102
RTVSPost2010Prop45
280
     0
102
RTVSPost2010PropOp45
 70
     1
102
RTVSPost2010Prop46
 90
       50
102
RTVSPost2010PropOp46
 70
     1
102
RTVSPost2010Prop47
 90
       50
102
RTVSPost2010PropOp47
 70
     1
102
RTVSPost2010Prop48
 90
       50
102
RTVSPost2010PropOp48
 70
     1
102
RTVSPost2010Prop49
280
     0
102
RTVSPost2010PropOp49
 70
     1
102
RTVSPost2010Prop50
 90
       50
102
RTVSPost2010PropOp50
 70
     1
102
RTVSPost2010Prop51ColorIndex
 90
      256
102
RTVSPost2010Prop51ColorRGB
 90
-16777216
102
RTVSPost2010PropOp51
 70
     0
102
RTVSPost2010Prop52
140
1.0
102
RTVSPost2010PropOp52
 70
     0
102
RTVSPost2010Prop53
 90
        2
102
RTVSPost2010PropOp53
 70
     1
102
RTVSPost2010Prop54
  1
strokes_ogs.tif
102
RTVSPost2010PropOp54
 70
     1
102
RTVSPost2010Prop55
280
     0
102
RTVSPost2010PropOp55
 70
     1
102
RTVSPost2010Prop56
140
1.0
102
RTVSPost2010PropOp56
 70
     1
102
RTVSPost2010Prop57
140
1.0
102
RTVSPost2010PropOp57
 70
     1
102
RTVSPropertyOp0
 70
     1
102
RTVSPropertyOp1
 70
     1
102
RTVSPropertyOp2
 70
     1
102
RTVSPropertyOp3
 70
     1
102
RTVSPropertyOp4
 70
     1
102
RTVSPropertyOp5
 70
     1
102
RTVSPropertyOp6
 70
     1
102
RTVSPropertyOp7
 70
     1
102
RTVSPropertyOp8
 70
     1
102
RTVSPropertyOp9
 70
     1
102
RTVSPropertyOp10
 70
     1
102
RTVSPropertyOp11
 70
     1
102
RTVSPropertyOp12
 70
     1
102
RTVSPropertyOp13
 70
     1
102
RTVSPropertyOp14
 70
     1
102
RTVSPropertyOp15
 70
     1
102
RTVSPropertyOp16
 70
     1
102
RTVSPropertyOp17
 70
     1
102
RTVSPropertyOp18
 70
     1
102
RTVSPropertyOp19
 70
     1
102
RTVSPropertyOp20
 70
     1
102
RTVSPropertyOp21
 70
     1
102
RTVSPropertyOp22
 70
     1
102
RTVSPropertyOp23
 70
     1
102
RTVSPropertyOp24
 70
     1
102
RTVSPropertyOp25
 70
     1
102
RTVSPropertyOp26
 70
     1
102
RTVSPropertyOp27
 70
     1
102
RTVSPropertyOp28
 70
     1
102
RTVSPropertyOp29
 70
     1
102
RTVSPropertyOp30
 70
     1
102
RTVSPropertyOp31
 70
     1
102
RTVSPropertyOp32
 70
     1
102
RTVSPropertyOp33
 70
     1
102
RTVSPropertyOp34
 70
     1
102
RTVSPropertyOp35
 70
     1
102
RTVSPropertyOp36
 70
     1
102
RTVSPropertyOp37
 70
     1
102
RTVSPropertyOp38
 70
     1
102
RTVSPropertyOp39
 70
     1
102
RTVSPropertyOp40
 70
     1
102
RTVSPropertyOp41
 70
     1
102
RTVSPropertyOp42
 70
     1
102
RTVSPropertyOp43
 70
     1
102
RTVSPropertyOp44
 70
     1
102
RTVSPropertyOp45
 70
     1
102
RTVSPropertyOp46
 70
     1
102
RTVSPropertyOp47
 70
     1
102
RTVSPropertyOp48
 70
     1
102
RTVSPropertyOp49
 70
     1
102
RTVSPropertyOp50
 70
     1
102
RTVSPropertyOp51
 70
     0
102
RTVSPropertyOp52
 70
     0
102
RTVSPropertyOp53
 70
     1
102
RTVSPropertyOp54
 70
     1
102
RTVSPropertyOp55
 70
     1
102
RTVSPropertyOp56
 70
     1
102
RTVSPropertyOp57
 70
     1
102
RTVSPropertyOp58
 70
     1
102
RTVSPropertyOp59
 70
     1
102
RTVSPropertyOp60
 70
     1
102
RTVSPropertyOp61
 70
     1
102
RTVSPropertyOp62
 70
     1
  0
XRECORD
  5
CF7
102
{ACAD_REACTORS
330
CF6
102
}
330
CF6
100
AcDbXrecord
280
     1
102
RTVSPost2010Prop28
280
     0
102
RTVSPost2010PropOp28
 70
     1
102
RTVSPost2010Prop29
280
     1
102
RTVSPost2010PropOp29
 70
     1
102
RTVSPost2010Prop30
280
     1
102
RTVSPost2010PropOp30
 70
     1
102
RTVSPost2010Prop31
280
     0
102
RTVSPost2010PropOp31
 70
     1
102
RTVSPost2010Prop32
280
     0
102
RTVSPost2010PropOp32
 70
     1
102
RTVSPost2010Prop33
280
     0
102
RTVSPost2010PropOp33
 70
     1
102
RTVSPost2010Prop34
280
     0
102
RTVSPost2010PropOp34
 70
     1
102
RTVSPost2010Prop35
280
     0
102
RTVSPost2010PropOp35
 70
     1
102
RTVSPost2010Prop36
280
     0
102
RTVSPost2010PropOp36
 70
     1
102
RTVSPost2010Prop37
 90
       50
102
RTVSPost2010PropOp37
 70
     1
102
RTVSPost2010Prop38
140
0.0
102
RTVSPost2010PropOp38
 70
     1
102
RTVSPost2010Prop39
140
1.0
102
RTVSPost2010PropOp39
 70
     1
102
RTVSPost2010Prop40
 90
        0
102
RTVSPost2010PropOp40
 70
     1
102
RTVSPost2010Prop41ColorIndex
 90
       18
102
RTVSPost2010Prop41ColorRGB
 90
-16777216
102
RTVSPost2010PropOp41
 70
     1
102
RTVSPost2010Prop42
 90
       50
102
RTVSPost2010PropOp42
 70
     1
102
RTVSPost2010Prop43
 90
        3
102
RTVSPost2010PropOp43
 70
     1
102
RTVSPost2010Prop44ColorIndex
 90
        5
102
RTVSPost2010Prop44ColorRGB
 90
      255
102
RTVSPost2010PropOp44
 70
     1
102
RTVSPost2010Prop45
280
     0
102
RTVSPost2010PropOp45
 70
     1
102
RTVSPost2010Prop46
 90
       50
102
RTVSPost2010PropOp46
 70
     1
102
RTVSPost2010Prop47
 90
       50
102
RTVSPost2010PropOp47
 70
     1
102
RTVSPost2010Prop48
 90
       50
102
RTVSPost2010PropOp48
 70
     1
102
RTVSPost2010Prop49
280
     0
102
RTVSPost2010PropOp49
 70
     1
102
RTVSPost2010Prop50
 90
       50
102
RTVSPost2010PropOp50
 70
     1
102
RTVSPost2010Prop51ColorIndex
 90
      256
102
RTVSPost2010Prop51ColorRGB
 90
-16777216
102
RTVSPost2010PropOp51
 70
     0
102
RTVSPost2010Prop52
140
1.0
102
RTVSPost2010PropOp52
 70
     0
102
RTVSPost2010Prop53
 90
        2
102
RTVSPost2010PropOp53
 70
     1
102
RTVSPost2010Prop54
  1
strokes_ogs.tif
102
RTVSPost2010PropOp54
 70
     1
102
RTVSPost2010Prop55
280
     0
102
RTVSPost2010PropOp55
 70
     1
102
RTVSPost2010Prop56
140
1.0
102
RTVSPost2010PropOp56
 70
     1
102
RTVSPost2010Prop57
140
1.0
102
RTVSPost2010PropOp57
 70
     1
102
RTVSPropertyOp0
 70
     1
102
RTVSPropertyOp1
 70
     1
102
RTVSPropertyOp2
 70
     1
102
RTVSPropertyOp3
 70
     1
102
RTVSPropertyOp4
 70
     1
102
RTVSPropertyOp5
 70
     1
102
RTVSPropertyOp6
 70
     1
102
RTVSPropertyOp7
 70
     1
102
RTVSPropertyOp8
 70
     1
102
RTVSPropertyOp9
 70
     1
102
RTVSPropertyOp10
 70
     1
102
RTVSPropertyOp11
 70
     1
102
RTVSPropertyOp12
 70
     1
102
RTVSPropertyOp13
 70
     1
102
RTVSPropertyOp14
 70
     1
102
RTVSPropertyOp15
 70
     1
102
RTVSPropertyOp16
 70
     1
102
RTVSPropertyOp17
 70
     1
102
RTVSPropertyOp18
 70
     1
102
RTVSPropertyOp19
 70
     1
102
RTVSPropertyOp20
 70
     1
102
RTVSPropertyOp21
 70
     1
102
RTVSPropertyOp22
 70
     1
102
RTVSPropertyOp23
 70
     1
102
RTVSPropertyOp24
 70
     1
102
RTVSPropertyOp25
 70
     1
102
RTVSPropertyOp26
 70
     1
102
RTVSPropertyOp27
 70
     1
102
RTVSPropertyOp28
 70
     1
102
RTVSPropertyOp29
 70
     1
102
RTVSPropertyOp30
 70
     1
102
RTVSPropertyOp31
 70
     1
102
RTVSPropertyOp32
 70
     1
102
RTVSPropertyOp33
 70
     1
102
RTVSPropertyOp34
 70
     1
102
RTVSPropertyOp35
 70
     1
102
RTVSPropertyOp36
 70
     1
102
RTVSPropertyOp37
 70
     1
102
RTVSPropertyOp38
 70
     1
102
RTVSPropertyOp39
 70
     1
102
RTVSPropertyOp40
 70
     1
102
RTVSPropertyOp41
 70
     1
102
RTVSPropertyOp42
 70
     1
102
RTVSPropertyOp43
 70
     1
102
RTVSPropertyOp44
 70
     1
102
RTVSPropertyOp45
 70
     1
102
RTVSPropertyOp46
 70
     1
102
RTVSPropertyOp47
 70
     1
102
RTVSPropertyOp48
 70
     1
102
RTVSPropertyOp49
 70
     1
102
RTVSPropertyOp50
 70
     1
102
RTVSPropertyOp51
 70
     0
102
RTVSPropertyOp52
 70
     0
102
RTVSPropertyOp53
 70
     1
102
RTVSPropertyOp54
 70
     1
102
RTVSPropertyOp55
 70
     1
102
RTVSPropertyOp56
 70
     1
102
RTVSPropertyOp57
 70
     1
102
RTVSPropertyOp58
 70
     1
102
RTVSPropertyOp59
 70
     1
102
RTVSPropertyOp60
 70
     1
102
RTVSPropertyOp61
 70
     1
102
RTVSPropertyOp62
 70
     1
  0
XRECORD
  5
CF9
102
{ACAD_REACTORS
330
CF8
102
}
330
CF8
100
AcDbXrecord
280
     1
102
RTVSPost2010Prop28
280
     0
102
RTVSPost2010PropOp28
 70
     1
102
RTVSPost2010Prop29
280
     1
102
RTVSPost2010PropOp29
 70
     1
102
RTVSPost2010Prop30
280
     1
102
RTVSPost2010PropOp30
 70
     1
102
RTVSPost2010Prop31
280
     0
102
RTVSPost2010PropOp31
 70
     1
102
RTVSPost2010Prop32
280
     0
102
RTVSPost2010PropOp32
 70
     1
102
RTVSPost2010Prop33
280
     0
102
RTVSPost2010PropOp33
 70
     1
102
RTVSPost2010Prop34
280
     0
102
RTVSPost2010PropOp34
 70
     1
102
RTVSPost2010Prop35
280
     0
102
RTVSPost2010PropOp35
 70
     1
102
RTVSPost2010Prop36
280
     0
102
RTVSPost2010PropOp36
 70
     1
102
RTVSPost2010Prop37
 90
       50
102
RTVSPost2010PropOp37
 70
     1
102
RTVSPost2010Prop38
140
0.0
102
RTVSPost2010PropOp38
 70
     1
102
RTVSPost2010Prop39
140
1.0
102
RTVSPost2010PropOp39
 70
     1
102
RTVSPost2010Prop40
 90
        0
102
RTVSPost2010PropOp40
 70
     1
102
RTVSPost2010Prop41ColorIndex
 90
       18
102
RTVSPost2010Prop41ColorRGB
 90
-16777216
102
RTVSPost2010PropOp41
 70
     1
102
RTVSPost2010Prop42
 90
       50
102
RTVSPost2010PropOp42
 70
     1
102
RTVSPost2010Prop43
 90
        3
102
RTVSPost2010PropOp43
 70
     1
102
RTVSPost2010Prop44ColorIndex
 90
        5
102
RTVSPost2010Prop44ColorRGB
 90
      255
102
RTVSPost2010PropOp44
 70
     1
102
RTVSPost2010Prop45
280
     0
102
RTVSPost2010PropOp45
 70
     1
102
RTVSPost2010Prop46
 90
       50
102
RTVSPost2010PropOp46
 70
     1
102
RTVSPost2010Prop47
 90
       50
102
RTVSPost2010PropOp47
 70
     1
102
RTVSPost2010Prop48
 90
       50
102
RTVSPost2010PropOp48
 70
     1
102
RTVSPost2010Prop49
280
     0
102
RTVSPost2010PropOp49
 70
     1
102
RTVSPost2010Prop50
 90
       50
102
RTVSPost2010PropOp50
 70
     1
102
RTVSPost2010Prop51ColorIndex
 90
      256
102
RTVSPost2010Prop51ColorRGB
 90
-16777216
102
RTVSPost2010PropOp51
 70
     0
102
RTVSPost2010Prop52
140
1.0
102
RTVSPost2010PropOp52
 70
     0
102
RTVSPost2010Prop53
 90
        2
102
RTVSPost2010PropOp53
 70
     1
102
RTVSPost2010Prop54
  1
strokes_ogs.tif
102
RTVSPost2010PropOp54
 70
     1
102
RTVSPost2010Prop55
280
     0
102
RTVSPost2010PropOp55
 70
     1
102
RTVSPost2010Prop56
140
1.0
102
RTVSPost2010PropOp56
 70
     1
102
RTVSPost2010Prop57
140
1.0
102
RTVSPost2010PropOp57
 70
     1
102
RTVSPropertyOp0
 70
     1
102
RTVSPropertyOp1
 70
     1
102
RTVSPropertyOp2
 70
     1
102
RTVSPropertyOp3
 70
     1
102
RTVSPropertyOp4
 70
     1
102
RTVSPropertyOp5
 70
     1
102
RTVSPropertyOp6
 70
     1
102
RTVSPropertyOp7
 70
     1
102
RTVSPropertyOp8
 70
     1
102
RTVSPropertyOp9
 70
     1
102
RTVSPropertyOp10
 70
     1
102
RTVSPropertyOp11
 70
     1
102
RTVSPropertyOp12
 70
     1
102
RTVSPropertyOp13
 70
     1
102
RTVSPropertyOp14
 70
     1
102
RTVSPropertyOp15
 70
     1
102
RTVSPropertyOp16
 70
     1
102
RTVSPropertyOp17
 70
     1
102
RTVSPropertyOp18
 70
     1
102
RTVSPropertyOp19
 70
     1
102
RTVSPropertyOp20
 70
     1
102
RTVSPropertyOp21
 70
     1
102
RTVSPropertyOp22
 70
     1
102
RTVSPropertyOp23
 70
     1
102
RTVSPropertyOp24
 70
     1
102
RTVSPropertyOp25
 70
     1
102
RTVSPropertyOp26
 70
     1
102
RTVSPropertyOp27
 70
     1
102
RTVSPropertyOp28
 70
     1
102
RTVSPropertyOp29
 70
     1
102
RTVSPropertyOp30
 70
     1
102
RTVSPropertyOp31
 70
     1
102
RTVSPropertyOp32
 70
     1
102
RTVSPropertyOp33
 70
     1
102
RTVSPropertyOp34
 70
     1
102
RTVSPropertyOp35
 70
     1
102
RTVSPropertyOp36
 70
     1
102
RTVSPropertyOp37
 70
     1
102
RTVSPropertyOp38
 70
     1
102
RTVSPropertyOp39
 70
     1
102
RTVSPropertyOp40
 70
     1
102
RTVSPropertyOp41
 70
     1
102
RTVSPropertyOp42
 70
     1
102
RTVSPropertyOp43
 70
     1
102
RTVSPropertyOp44
 70
     1
102
RTVSPropertyOp45
 70
     1
102
RTVSPropertyOp46
 70
     1
102
RTVSPropertyOp47
 70
     1
102
RTVSPropertyOp48
 70
     1
102
RTVSPropertyOp49
 70
     1
102
RTVSPropertyOp50
 70
     1
102
RTVSPropertyOp51
 70
     0
102
RTVSPropertyOp52
 70
     0
102
RTVSPropertyOp53
 70
     1
102
RTVSPropertyOp54
 70
     1
102
RTVSPropertyOp55
 70
     1
102
RTVSPropertyOp56
 70
     1
102
RTVSPropertyOp57
 70
     1
102
RTVSPropertyOp58
 70
     1
102
RTVSPropertyOp59
 70
     1
102
RTVSPropertyOp60
 70
     1
102
RTVSPropertyOp61
 70
     1
102
RTVSPropertyOp62
 70
     1
  0
XRECORD
  5
D01
102
{ACAD_REACTORS
330
D00
102
}
330
D00
100
AcDbXrecord
280
     1
102
RTVSPost2010Prop28
280
     0
102
RTVSPost2010PropOp28
 70
     1
102
RTVSPost2010Prop29
280
     1
102
RTVSPost2010PropOp29
 70
     1
102
RTVSPost2010Prop30
280
     1
102
RTVSPost2010PropOp30
 70
     1
102
RTVSPost2010Prop31
280
     0
102
RTVSPost2010PropOp31
 70
     1
102
RTVSPost2010Prop32
280
     0
102
RTVSPost2010PropOp32
 70
     1
102
RTVSPost2010Prop33
280
     0
102
RTVSPost2010PropOp33
 70
     1
102
RTVSPost2010Prop34
280
     0
102
RTVSPost2010PropOp34
 70
     1
102
RTVSPost2010Prop35
280
     0
102
RTVSPost2010PropOp35
 70
     1
102
RTVSPost2010Prop36
280
     0
102
RTVSPost2010PropOp36
 70
     1
102
RTVSPost2010Prop37
 90
       50
102
RTVSPost2010PropOp37
 70
     1
102
RTVSPost2010Prop38
140
0.0
102
RTVSPost2010PropOp38
 70
     1
102
RTVSPost2010Prop39
140
1.0
102
RTVSPost2010PropOp39
 70
     1
102
RTVSPost2010Prop40
 90
        0
102
RTVSPost2010PropOp40
 70
     1
102
RTVSPost2010Prop41ColorIndex
 90
       18
102
RTVSPost2010Prop41ColorRGB
 90
-16777216
102
RTVSPost2010PropOp41
 70
     1
102
RTVSPost2010Prop42
 90
       50
102
RTVSPost2010PropOp42
 70
     1
102
RTVSPost2010Prop43
 90
        3
102
RTVSPost2010PropOp43
 70
     1
102
RTVSPost2010Prop44ColorIndex
 90
        5
102
RTVSPost2010Prop44ColorRGB
 90
      255
102
RTVSPost2010PropOp44
 70
     1
102
RTVSPost2010Prop45
280
     0
102
RTVSPost2010PropOp45
 70
     1
102
RTVSPost2010Prop46
 90
       50
102
RTVSPost2010PropOp46
 70
     1
102
RTVSPost2010Prop47
 90
       50
102
RTVSPost2010PropOp47
 70
     1
102
RTVSPost2010Prop48
 90
       50
102
RTVSPost2010PropOp48
 70
     1
102
RTVSPost2010Prop49
280
     0
102
RTVSPost2010PropOp49
 70
     1
102
RTVSPost2010Prop50
 90
       50
102
RTVSPost2010PropOp50
 70
     1
102
RTVSPost2010Prop51ColorIndex
 90
      256
102
RTVSPost2010Prop51ColorRGB
 90
-16777216
102
RTVSPost2010PropOp51
 70
     0
102
RTVSPost2010Prop52
140
1.0
102
RTVSPost2010PropOp52
 70
     0
102
RTVSPost2010Prop53
 90
        2
102
RTVSPost2010PropOp53
 70
     1
102
RTVSPost2010Prop54
  1
strokes_ogs.tif
102
RTVSPost2010PropOp54
 70
     1
102
RTVSPost2010Prop55
280
     0
102
RTVSPost2010PropOp55
 70
     1
102
RTVSPost2010Prop56
140
1.0
102
RTVSPost2010PropOp56
 70
     1
102
RTVSPost2010Prop57
140
1.0
102
RTVSPost2010PropOp57
 70
     1
102
RTVSPropertyOp0
 70
     1
102
RTVSPropertyOp1
 70
     1
102
RTVSPropertyOp2
 70
     1
102
RTVSPropertyOp3
 70
     1
102
RTVSPropertyOp4
 70
     1
102
RTVSPropertyOp5
 70
     1
102
RTVSPropertyOp6
 70
     1
102
RTVSPropertyOp7
 70
     1
102
RTVSPropertyOp8
 70
     1
102
RTVSPropertyOp9
 70
     1
102
RTVSPropertyOp10
 70
     1
102
RTVSPropertyOp11
 70
     1
102
RTVSPropertyOp12
 70
     1
102
RTVSPropertyOp13
 70
     1
102
RTVSPropertyOp14
 70
     1
102
RTVSPropertyOp15
 70
     1
102
RTVSPropertyOp16
 70
     1
102
RTVSPropertyOp17
 70
     1
102
RTVSPropertyOp18
 70
     1
102
RTVSPropertyOp19
 70
     1
102
RTVSPropertyOp20
 70
     1
102
RTVSPropertyOp21
 70
     1
102
RTVSPropertyOp22
 70
     1
102
RTVSPropertyOp23
 70
     1
102
RTVSPropertyOp24
 70
     1
102
RTVSPropertyOp25
 70
     1
102
RTVSPropertyOp26
 70
     1
102
RTVSPropertyOp27
 70
     1
102
RTVSPropertyOp28
 70
     1
102
RTVSPropertyOp29
 70
     1
102
RTVSPropertyOp30
 70
     1
102
RTVSPropertyOp31
 70
     1
102
RTVSPropertyOp32
 70
     1
102
RTVSPropertyOp33
 70
     1
102
RTVSPropertyOp34
 70
     1
102
RTVSPropertyOp35
 70
     1
102
RTVSPropertyOp36
 70
     1
102
RTVSPropertyOp37
 70
     1
102
RTVSPropertyOp38
 70
     1
102
RTVSPropertyOp39
 70
     1
102
RTVSPropertyOp40
 70
     1
102
RTVSPropertyOp41
 70
     1
102
RTVSPropertyOp42
 70
     1
102
RTVSPropertyOp43
 70
     1
102
RTVSPropertyOp44
 70
     1
102
RTVSPropertyOp45
 70
     1
102
RTVSPropertyOp46
 70
     1
102
RTVSPropertyOp47
 70
     1
102
RTVSPropertyOp48
 70
     1
102
RTVSPropertyOp49
 70
     1
102
RTVSPropertyOp50
 70
     1
102
RTVSPropertyOp51
 70
     0
102
RTVSPropertyOp52
 70
     0
102
RTVSPropertyOp53
 70
     1
102
RTVSPropertyOp54
 70
     1
102
RTVSPropertyOp55
 70
     1
102
RTVSPropertyOp56
 70
     1
102
RTVSPropertyOp57
 70
     1
102
RTVSPropertyOp58
 70
     1
102
RTVSPropertyOp59
 70
     1
102
RTVSPropertyOp60
 70
     1
102
RTVSPropertyOp61
 70
     1
102
RTVSPropertyOp62
 70
     1
  0
XRECORD
  5
D1D
102
{ACAD_REACTORS
330
D1C
102
}
330
D1C
100
AcDbXrecord
280
     1
102
RTVSPost2010Prop28
280
     0
102
RTVSPost2010PropOp28
 70
     0
102
RTVSPost2010Prop29
280
     1
102
RTVSPost2010PropOp29
 70
     0
102
RTVSPost2010Prop30
280
     1
102
RTVSPost2010PropOp30
 70
     0
102
RTVSPost2010Prop31
280
     0
102
RTVSPost2010PropOp31
 70
     0
102
RTVSPost2010Prop32
280
     0
102
RTVSPost2010PropOp32
 70
     0
102
RTVSPost2010Prop33
280
     0
102
RTVSPost2010PropOp33
 70
     0
102
RTVSPost2010Prop34
280
     0
102
RTVSPost2010PropOp34
 70
     0
102
RTVSPost2010Prop35
280
     0
102
RTVSPost2010PropOp35
 70
     0
102
RTVSPost2010Prop36
280
     0
102
RTVSPost2010PropOp36
 70
     0
102
RTVSPost2010Prop37
 90
       50
102
RTVSPost2010PropOp37
 70
     0
102
RTVSPost2010Prop38
140
0.0
102
RTVSPost2010PropOp38
 70
     0
102
RTVSPost2010Prop39
140
1.0
102
RTVSPost2010PropOp39
 70
     0
102
RTVSPost2010Prop40
 90
        0
102
RTVSPost2010PropOp40
 70
     0
102
RTVSPost2010Prop41ColorIndex
 90
       18
102
RTVSPost2010Prop41ColorRGB
 90
-16777216
102
RTVSPost2010PropOp41
 70
     0
102
RTVSPost2010Prop42
 90
       50
102
RTVSPost2010PropOp42
 70
     0
102
RTVSPost2010Prop43
 90
        3
102
RTVSPost2010PropOp43
 70
     0
102
RTVSPost2010Prop44ColorIndex
 90
        5
102
RTVSPost2010Prop44ColorRGB
 90
      255
102
RTVSPost2010PropOp44
 70
     0
102
RTVSPost2010Prop45
280
     0
102
RTVSPost2010PropOp45
 70
     0
102
RTVSPost2010Prop46
 90
       50
102
RTVSPost2010PropOp46
 70
     0
102
RTVSPost2010Prop47
 90
       50
102
RTVSPost2010PropOp47
 70
     0
102
RTVSPost2010Prop48
 90
       50
102
RTVSPost2010PropOp48
 70
     0
102
RTVSPost2010Prop49
280
     0
102
RTVSPost2010PropOp49
 70
     0
102
RTVSPost2010Prop50
 90
       50
102
RTVSPost2010PropOp50
 70
     0
102
RTVSPost2010Prop51ColorIndex
 90
      256
102
RTVSPost2010Prop51ColorRGB
 90
-16777216
102
RTVSPost2010PropOp51
 70
     0
102
RTVSPost2010Prop52
140
1.0
102
RTVSPost2010PropOp52
 70
     0
102
RTVSPost2010Prop53
 90
        2
102
RTVSPost2010PropOp53
 70
     0
102
RTVSPost2010Prop54
  1
strokes_ogs.tif
102
RTVSPost2010PropOp54
 70
     0
102
RTVSPost2010Prop55
280
     0
102
RTVSPost2010PropOp55
 70
     0
102
RTVSPost2010Prop56
140
1.0
102
RTVSPost2010PropOp56
 70
     0
102
RTVSPost2010Prop57
140
1.0
102
RTVSPost2010PropOp57
 70
     0
102
RTVSPropertyOp0
 70
     0
102
RTVSPropertyOp1
 70
     0
102
RTVSPropertyOp2
 70
     0
102
RTVSPropertyOp3
 70
     0
102
RTVSPropertyOp4
 70
     0
102
RTVSPropertyOp5
 70
     0
102
RTVSPropertyOp6
 70
     0
102
RTVSPropertyOp7
 70
     0
102
RTVSPropertyOp8
 70
     0
102
RTVSPropertyOp9
 70
     0
102
RTVSPropertyOp10
 70
     0
102
RTVSPropertyOp11
 70
     0
102
RTVSPropertyOp12
 70
     0
102
RTVSPropertyOp13
 70
     0
102
RTVSPropertyOp14
 70
     2
102
RTVSPropertyOp15
 70
     0
102
RTVSPropertyOp16
 70
     0
102
RTVSPropertyOp17
 70
     0
102
RTVSPropertyOp18
 70
     0
102
RTVSPropertyOp19
 70
     0
102
RTVSPropertyOp20
 70
     0
102
RTVSPropertyOp21
 70
     0
102
RTVSPropertyOp22
 70
     0
102
RTVSPropertyOp23
 70
     0
102
RTVSPropertyOp24
 70
     0
102
RTVSPropertyOp25
 70
     0
102
RTVSPropertyOp26
 70
     0
102
RTVSPropertyOp27
 70
     0
102
RTVSPropertyOp28
 70
     0
102
RTVSPropertyOp29
 70
     0
102
RTVSPropertyOp30
 70
     0
102
RTVSPropertyOp31
 70
     0
102
RTVSPropertyOp32
 70
     0
102
RTVSPropertyOp33
 70
     0
102
RTVSPropertyOp34
 70
     0
102
RTVSPropertyOp35
 70
     0
102
RTVSPropertyOp36
 70
     0
102
RTVSPropertyOp37
 70
     0
102
RTVSPropertyOp38
 70
     0
102
RTVSPropertyOp39
 70
     0
102
RTVSPropertyOp40
 70
     0
102
RTVSPropertyOp41
 70
     0
102
RTVSPropertyOp42
 70
     0
102
RTVSPropertyOp43
 70
     0
102
RTVSPropertyOp44
 70
     0
102
RTVSPropertyOp45
 70
     0
102
RTVSPropertyOp46
 70
     0
102
RTVSPropertyOp47
 70
     0
102
RTVSPropertyOp48
 70
     0
102
RTVSPropertyOp49
 70
     0
102
RTVSPropertyOp50
 70
     0
102
RTVSPropertyOp51
 70
     0
102
RTVSPropertyOp52
 70
     0
102
RTVSPropertyOp53
 70
     0
102
RTVSPropertyOp54
 70
     0
102
RTVSPropertyOp55
 70
     0
102
RTVSPropertyOp56
 70
     0
102
RTVSPropertyOp57
 70
     0
102
RTVSPropertyOp58
 70
     1
102
RTVSPropertyOp59
 70
     1
102
RTVSPropertyOp60
 70
     1
102
RTVSPropertyOp61
 70
     1
102
RTVSPropertyOp62
 70
     1
  0
XRECORD
  5
D0D
102
{ACAD_REACTORS
330
D0C
102
}
330
D0C
100
AcDbXrecord
280
     1
102
RTVSPost2010Prop28
280
     0
102
RTVSPost2010PropOp28
 70
     1
102
RTVSPost2010Prop29
280
     1
102
RTVSPost2010PropOp29
 70
     1
102
RTVSPost2010Prop30
280
     1
102
RTVSPost2010PropOp30
 70
     1
102
RTVSPost2010Prop31
280
     0
102
RTVSPost2010PropOp31
 70
     1
102
RTVSPost2010Prop32
280
     0
102
RTVSPost2010PropOp32
 70
     1
102
RTVSPost2010Prop33
280
     0
102
RTVSPost2010PropOp33
 70
     1
102
RTVSPost2010Prop34
280
     0
102
RTVSPost2010PropOp34
 70
     1
102
RTVSPost2010Prop35
280
     0
102
RTVSPost2010PropOp35
 70
     1
102
RTVSPost2010Prop36
280
     0
102
RTVSPost2010PropOp36
 70
     1
102
RTVSPost2010Prop37
 90
       50
102
RTVSPost2010PropOp37
 70
     1
102
RTVSPost2010Prop38
140
0.0
102
RTVSPost2010PropOp38
 70
     1
102
RTVSPost2010Prop39
140
1.0
102
RTVSPost2010PropOp39
 70
     1
102
RTVSPost2010Prop40
 90
        0
102
RTVSPost2010PropOp40
 70
     1
102
RTVSPost2010Prop41ColorIndex
 90
       18
102
RTVSPost2010Prop41ColorRGB
 90
-16777216
102
RTVSPost2010PropOp41
 70
     1
102
RTVSPost2010Prop42
 90
       50
102
RTVSPost2010PropOp42
 70
     1
102
RTVSPost2010Prop43
 90
        3
102
RTVSPost2010PropOp43
 70
     1
102
RTVSPost2010Prop44ColorIndex
 90
        5
102
RTVSPost2010Prop44ColorRGB
 90
      255
102
RTVSPost2010PropOp44
 70
     1
102
RTVSPost2010Prop45
280
     0
102
RTVSPost2010PropOp45
 70
     1
102
RTVSPost2010Prop46
 90
       50
102
RTVSPost2010PropOp46
 70
     1
102
RTVSPost2010Prop47
 90
       50
102
RTVSPost2010PropOp47
 70
     1
102
RTVSPost2010Prop48
 90
       50
102
RTVSPost2010PropOp48
 70
     1
102
RTVSPost2010Prop49
280
     0
102
RTVSPost2010PropOp49
 70
     1
102
RTVSPost2010Prop50
 90
       50
102
RTVSPost2010PropOp50
 70
     1
102
RTVSPost2010Prop51ColorIndex
 90
      256
102
RTVSPost2010Prop51ColorRGB
 90
-16777216
102
RTVSPost2010PropOp51
 70
     0
102
RTVSPost2010Prop52
140
1.0
102
RTVSPost2010PropOp52
 70
     0
102
RTVSPost2010Prop53
 90
        2
102
RTVSPost2010PropOp53
 70
     1
102
RTVSPost2010Prop54
  1
strokes_ogs.tif
102
RTVSPost2010PropOp54
 70
     1
102
RTVSPost2010Prop55
280
     0
102
RTVSPost2010PropOp55
 70
     1
102
RTVSPost2010Prop56
140
1.0
102
RTVSPost2010PropOp56
 70
     1
102
RTVSPost2010Prop57
140
1.0
102
RTVSPost2010PropOp57
 70
     1
102
RTVSPropertyOp0
 70
     1
102
RTVSPropertyOp1
 70
     1
102
RTVSPropertyOp2
 70
     1
102
RTVSPropertyOp3
 70
     1
102
RTVSPropertyOp4
 70
     1
102
RTVSPropertyOp5
 70
     1
102
RTVSPropertyOp6
 70
     1
102
RTVSPropertyOp7
 70
     1
102
RTVSPropertyOp8
 70
     1
102
RTVSPropertyOp9
 70
     1
102
RTVSPropertyOp10
 70
     1
102
RTVSPropertyOp11
 70
     1
102
RTVSPropertyOp12
 70
     1
102
RTVSPropertyOp13
 70
     1
102
RTVSPropertyOp14
 70
     1
102
RTVSPropertyOp15
 70
     1
102
RTVSPropertyOp16
 70
     1
102
RTVSPropertyOp17
 70
     1
102
RTVSPropertyOp18
 70
     1
102
RTVSPropertyOp19
 70
     1
102
RTVSPropertyOp20
 70
     1
102
RTVSPropertyOp21
 70
     1
102
RTVSPropertyOp22
 70
     1
102
RTVSPropertyOp23
 70
     1
102
RTVSPropertyOp24
 70
     1
102
RTVSPropertyOp25
 70
     1
102
RTVSPropertyOp26
 70
     1
102
RTVSPropertyOp27
 70
     1
102
RTVSPropertyOp28
 70
     1
102
RTVSPropertyOp29
 70
     1
102
RTVSPropertyOp30
 70
     1
102
RTVSPropertyOp31
 70
     1
102
RTVSPropertyOp32
 70
     1
102
RTVSPropertyOp33
 70
     1
102
RTVSPropertyOp34
 70
     1
102
RTVSPropertyOp35
 70
     1
102
RTVSPropertyOp36
 70
     1
102
RTVSPropertyOp37
 70
     1
102
RTVSPropertyOp38
 70
     1
102
RTVSPropertyOp39
 70
     1
102
RTVSPropertyOp40
 70
     1
102
RTVSPropertyOp41
 70
     1
102
RTVSPropertyOp42
 70
     1
102
RTVSPropertyOp43
 70
     1
102
RTVSPropertyOp44
 70
     1
102
RTVSPropertyOp45
 70
     1
102
RTVSPropertyOp46
 70
     1
102
RTVSPropertyOp47
 70
     1
102
RTVSPropertyOp48
 70
     1
102
RTVSPropertyOp49
 70
     1
102
RTVSPropertyOp50
 70
     1
102
RTVSPropertyOp51
 70
     0
102
RTVSPropertyOp52
 70
     0
102
RTVSPropertyOp53
 70
     1
102
RTVSPropertyOp54
 70
     1
102
RTVSPropertyOp55
 70
     1
102
RTVSPropertyOp56
 70
     1
102
RTVSPropertyOp57
 70
     1
102
RTVSPropertyOp58
 70
     1
102
RTVSPropertyOp59
 70
     1
102
RTVSPropertyOp60
 70
     1
102
RTVSPropertyOp61
 70
     1
102
RTVSPropertyOp62
 70
     1
  0
XRECORD
  5
D1F
102
{ACAD_REACTORS
330
D1E
102
}
330
D1E
100
AcDbXrecord
280
     1
102
RTVSPost2010Prop28
280
     0
102
RTVSPost2010PropOp28
 70
     0
102
RTVSPost2010Prop29
280
     1
102
RTVSPost2010PropOp29
 70
     0
102
RTVSPost2010Prop30
280
     1
102
RTVSPost2010PropOp30
 70
     0
102
RTVSPost2010Prop31
280
     0
102
RTVSPost2010PropOp31
 70
     0
102
RTVSPost2010Prop32
280
     0
102
RTVSPost2010PropOp32
 70
     0
102
RTVSPost2010Prop33
280
     0
102
RTVSPost2010PropOp33
 70
     0
102
RTVSPost2010Prop34
280
     0
102
RTVSPost2010PropOp34
 70
     0
102
RTVSPost2010Prop35
280
     0
102
RTVSPost2010PropOp35
 70
     0
102
RTVSPost2010Prop36
280
     0
102
RTVSPost2010PropOp36
 70
     0
102
RTVSPost2010Prop37
 90
       50
102
RTVSPost2010PropOp37
 70
     0
102
RTVSPost2010Prop38
140
0.0
102
RTVSPost2010PropOp38
 70
     0
102
RTVSPost2010Prop39
140
1.0
102
RTVSPost2010PropOp39
 70
     0
102
RTVSPost2010Prop40
 90
        0
102
RTVSPost2010PropOp40
 70
     0
102
RTVSPost2010Prop41ColorIndex
 90
       18
102
RTVSPost2010Prop41ColorRGB
 90
-16777216
102
RTVSPost2010PropOp41
 70
     0
102
RTVSPost2010Prop42
 90
       50
102
RTVSPost2010PropOp42
 70
     0
102
RTVSPost2010Prop43
 90
        3
102
RTVSPost2010PropOp43
 70
     0
102
RTVSPost2010Prop44ColorIndex
 90
        5
102
RTVSPost2010Prop44ColorRGB
 90
      255
102
RTVSPost2010PropOp44
 70
     0
102
RTVSPost2010Prop45
280
     0
102
RTVSPost2010PropOp45
 70
     0
102
RTVSPost2010Prop46
 90
       50
102
RTVSPost2010PropOp46
 70
     0
102
RTVSPost2010Prop47
 90
       50
102
RTVSPost2010PropOp47
 70
     0
102
RTVSPost2010Prop48
 90
       50
102
RTVSPost2010PropOp48
 70
     0
102
RTVSPost2010Prop49
280
     0
102
RTVSPost2010PropOp49
 70
     0
102
RTVSPost2010Prop50
 90
       50
102
RTVSPost2010PropOp50
 70
     0
102
RTVSPost2010Prop51ColorIndex
 90
      256
102
RTVSPost2010Prop51ColorRGB
 90
-16777216
102
RTVSPost2010PropOp51
 70
     0
102
RTVSPost2010Prop52
140
1.0
102
RTVSPost2010PropOp52
 70
     0
102
RTVSPost2010Prop53
 90
        2
102
RTVSPost2010PropOp53
 70
     0
102
RTVSPost2010Prop54
  1
strokes_ogs.tif
102
RTVSPost2010PropOp54
 70
     0
102
RTVSPost2010Prop55
280
     0
102
RTVSPost2010PropOp55
 70
     0
102
RTVSPost2010Prop56
140
1.0
102
RTVSPost2010PropOp56
 70
     0
102
RTVSPost2010Prop57
140
1.0
102
RTVSPost2010PropOp57
 70
     0
102
RTVSPropertyOp0
 70
     0
102
RTVSPropertyOp1
 70
     0
102
RTVSPropertyOp2
 70
     0
102
RTVSPropertyOp3
 70
     0
102
RTVSPropertyOp4
 70
     0
102
RTVSPropertyOp5
 70
     0
102
RTVSPropertyOp6
 70
     0
102
RTVSPropertyOp7
 70
     0
102
RTVSPropertyOp8
 70
     0
102
RTVSPropertyOp9
 70
     0
102
RTVSPropertyOp10
 70
     0
102
RTVSPropertyOp11
 70
     0
102
RTVSPropertyOp12
 70
     0
102
RTVSPropertyOp13
 70
     0
102
RTVSPropertyOp14
 70
     2
102
RTVSPropertyOp15
 70
     0
102
RTVSPropertyOp16
 70
     0
102
RTVSPropertyOp17
 70
     0
102
RTVSPropertyOp18
 70
     0
102
RTVSPropertyOp19
 70
     0
102
RTVSPropertyOp20
 70
     0
102
RTVSPropertyOp21
 70
     0
102
RTVSPropertyOp22
 70
     0
102
RTVSPropertyOp23
 70
     0
102
RTVSPropertyOp24
 70
     0
102
RTVSPropertyOp25
 70
     0
102
RTVSPropertyOp26
 70
     0
102
RTVSPropertyOp27
 70
     0
102
RTVSPropertyOp28
 70
     0
102
RTVSPropertyOp29
 70
     0
102
RTVSPropertyOp30
 70
     0
102
RTVSPropertyOp31
 70
     0
102
RTVSPropertyOp32
 70
     0
102
RTVSPropertyOp33
 70
     0
102
RTVSPropertyOp34
 70
     0
102
RTVSPropertyOp35
 70
     0
102
RTVSPropertyOp36
 70
     0
102
RTVSPropertyOp37
 70
     0
102
RTVSPropertyOp38
 70
     0
102
RTVSPropertyOp39
 70
     0
102
RTVSPropertyOp40
 70
     0
102
RTVSPropertyOp41
 70
     0
102
RTVSPropertyOp42
 70
     0
102
RTVSPropertyOp43
 70
     0
102
RTVSPropertyOp44
 70
     0
102
RTVSPropertyOp45
 70
     0
102
RTVSPropertyOp46
 70
     0
102
RTVSPropertyOp47
 70
     0
102
RTVSPropertyOp48
 70
     0
102
RTVSPropertyOp49
 70
     0
102
RTVSPropertyOp50
 70
     0
102
RTVSPropertyOp51
 70
     0
102
RTVSPropertyOp52
 70
     0
102
RTVSPropertyOp53
 70
     0
102
RTVSPropertyOp54
 70
     0
102
RTVSPropertyOp55
 70
     0
102
RTVSPropertyOp56
 70
     0
102
RTVSPropertyOp57
 70
     0
102
RTVSPropertyOp58
 70
     1
102
RTVSPropertyOp59
 70
     1
102
RTVSPropertyOp60
 70
     1
102
RTVSPropertyOp61
 70
     1
102
RTVSPropertyOp62
 70
     1
  0
XRECORD
  5
D05
102
{ACAD_REACTORS
330
D04
102
}
330
D04
100
AcDbXrecord
280
     1
102
RTVSPost2010Prop28
280
     0
102
RTVSPost2010PropOp28
 70
     1
102
RTVSPost2010Prop29
280
     1
102
RTVSPost2010PropOp29
 70
     1
102
RTVSPost2010Prop30
280
     1
102
RTVSPost2010PropOp30
 70
     1
102
RTVSPost2010Prop31
280
     0
102
RTVSPost2010PropOp31
 70
     1
102
RTVSPost2010Prop32
280
     0
102
RTVSPost2010PropOp32
 70
     1
102
RTVSPost2010Prop33
280
     0
102
RTVSPost2010PropOp33
 70
     1
102
RTVSPost2010Prop34
280
     0
102
RTVSPost2010PropOp34
 70
     1
102
RTVSPost2010Prop35
280
     0
102
RTVSPost2010PropOp35
 70
     1
102
RTVSPost2010Prop36
280
     0
102
RTVSPost2010PropOp36
 70
     1
102
RTVSPost2010Prop37
 90
       50
102
RTVSPost2010PropOp37
 70
     1
102
RTVSPost2010Prop38
140
0.0
102
RTVSPost2010PropOp38
 70
     1
102
RTVSPost2010Prop39
140
1.0
102
RTVSPost2010PropOp39
 70
     1
102
RTVSPost2010Prop40
 90
        0
102
RTVSPost2010PropOp40
 70
     1
102
RTVSPost2010Prop41ColorIndex
 90
       18
102
RTVSPost2010Prop41ColorRGB
 90
-16777216
102
RTVSPost2010PropOp41
 70
     1
102
RTVSPost2010Prop42
 90
       50
102
RTVSPost2010PropOp42
 70
     1
102
RTVSPost2010Prop43
 90
        3
102
RTVSPost2010PropOp43
 70
     1
102
RTVSPost2010Prop44ColorIndex
 90
        5
102
RTVSPost2010Prop44ColorRGB
 90
      255
102
RTVSPost2010PropOp44
 70
     1
102
RTVSPost2010Prop45
280
     0
102
RTVSPost2010PropOp45
 70
     1
102
RTVSPost2010Prop46
 90
       50
102
RTVSPost2010PropOp46
 70
     1
102
RTVSPost2010Prop47
 90
       50
102
RTVSPost2010PropOp47
 70
     1
102
RTVSPost2010Prop48
 90
       50
102
RTVSPost2010PropOp48
 70
     1
102
RTVSPost2010Prop49
280
     0
102
RTVSPost2010PropOp49
 70
     1
102
RTVSPost2010Prop50
 90
       50
102
RTVSPost2010PropOp50
 70
     1
102
RTVSPost2010Prop51ColorIndex
 90
      256
102
RTVSPost2010Prop51ColorRGB
 90
-16777216
102
RTVSPost2010PropOp51
 70
     0
102
RTVSPost2010Prop52
140
1.0
102
RTVSPost2010PropOp52
 70
     0
102
RTVSPost2010Prop53
 90
        2
102
RTVSPost2010PropOp53
 70
     1
102
RTVSPost2010Prop54
  1
strokes_ogs.tif
102
RTVSPost2010PropOp54
 70
     1
102
RTVSPost2010Prop55
280
     0
102
RTVSPost2010PropOp55
 70
     1
102
RTVSPost2010Prop56
140
1.0
102
RTVSPost2010PropOp56
 70
     1
102
RTVSPost2010Prop57
140
1.0
102
RTVSPost2010PropOp57
 70
     1
102
RTVSPropertyOp0
 70
     1
102
RTVSPropertyOp1
 70
     1
102
RTVSPropertyOp2
 70
     1
102
RTVSPropertyOp3
 70
     1
102
RTVSPropertyOp4
 70
     1
102
RTVSPropertyOp5
 70
     1
102
RTVSPropertyOp6
 70
     1
102
RTVSPropertyOp7
 70
     1
102
RTVSPropertyOp8
 70
     1
102
RTVSPropertyOp9
 70
     1
102
RTVSPropertyOp10
 70
     1
102
RTVSPropertyOp11
 70
     1
102
RTVSPropertyOp12
 70
     1
102
RTVSPropertyOp13
 70
     1
102
RTVSPropertyOp14
 70
     1
102
RTVSPropertyOp15
 70
     1
102
RTVSPropertyOp16
 70
     1
102
RTVSPropertyOp17
 70
     1
102
RTVSPropertyOp18
 70
     1
102
RTVSPropertyOp19
 70
     1
102
RTVSPropertyOp20
 70
     1
102
RTVSPropertyOp21
 70
     1
102
RTVSPropertyOp22
 70
     1
102
RTVSPropertyOp23
 70
     1
102
RTVSPropertyOp24
 70
     1
102
RTVSPropertyOp25
 70
     1
102
RTVSPropertyOp26
 70
     1
102
RTVSPropertyOp27
 70
     1
102
RTVSPropertyOp28
 70
     1
102
RTVSPropertyOp29
 70
     1
102
RTVSPropertyOp30
 70
     1
102
RTVSPropertyOp31
 70
     1
102
RTVSPropertyOp32
 70
     1
102
RTVSPropertyOp33
 70
     1
102
RTVSPropertyOp34
 70
     1
102
RTVSPropertyOp35
 70
     1
102
RTVSPropertyOp36
 70
     1
102
RTVSPropertyOp37
 70
     1
102
RTVSPropertyOp38
 70
     1
102
RTVSPropertyOp39
 70
     1
102
RTVSPropertyOp40
 70
     1
102
RTVSPropertyOp41
 70
     1
102
RTVSPropertyOp42
 70
     1
102
RTVSPropertyOp43
 70
     1
102
RTVSPropertyOp44
 70
     1
102
RTVSPropertyOp45
 70
     1
102
RTVSPropertyOp46
 70
     1
102
RTVSPropertyOp47
 70
     1
102
RTVSPropertyOp48
 70
     1
102
RTVSPropertyOp49
 70
     1
102
RTVSPropertyOp50
 70
     1
102
RTVSPropertyOp51
 70
     0
102
RTVSPropertyOp52
 70
     0
102
RTVSPropertyOp53
 70
     1
102
RTVSPropertyOp54
 70
     1
102
RTVSPropertyOp55
 70
     1
102
RTVSPropertyOp56
 70
     1
102
RTVSPropertyOp57
 70
     1
102
RTVSPropertyOp58
 70
     1
102
RTVSPropertyOp59
 70
     1
102
RTVSPropertyOp60
 70
     1
102
RTVSPropertyOp61
 70
     1
102
RTVSPropertyOp62
 70
     1
  0
XRECORD
  5
D1B
102
{ACAD_REACTORS
330
D1A
102
}
330
D1A
100
AcDbXrecord
280
     1
102
RTVSPost2010Prop28
280
     0
102
RTVSPost2010PropOp28
 70
     1
102
RTVSPost2010Prop29
280
     1
102
RTVSPost2010PropOp29
 70
     1
102
RTVSPost2010Prop30
280
     1
102
RTVSPost2010PropOp30
 70
     1
102
RTVSPost2010Prop31
280
     0
102
RTVSPost2010PropOp31
 70
     1
102
RTVSPost2010Prop32
280
     0
102
RTVSPost2010PropOp32
 70
     1
102
RTVSPost2010Prop33
280
     0
102
RTVSPost2010PropOp33
 70
     1
102
RTVSPost2010Prop34
280
     0
102
RTVSPost2010PropOp34
 70
     1
102
RTVSPost2010Prop35
280
     0
102
RTVSPost2010PropOp35
 70
     1
102
RTVSPost2010Prop36
280
     0
102
RTVSPost2010PropOp36
 70
     1
102
RTVSPost2010Prop37
 90
       50
102
RTVSPost2010PropOp37
 70
     1
102
RTVSPost2010Prop38
140
0.0
102
RTVSPost2010PropOp38
 70
     1
102
RTVSPost2010Prop39
140
1.0
102
RTVSPost2010PropOp39
 70
     1
102
RTVSPost2010Prop40
 90
        0
102
RTVSPost2010PropOp40
 70
     1
102
RTVSPost2010Prop41ColorIndex
 90
       18
102
RTVSPost2010Prop41ColorRGB
 90
-16777216
102
RTVSPost2010PropOp41
 70
     1
102
RTVSPost2010Prop42
 90
       50
102
RTVSPost2010PropOp42
 70
     1
102
RTVSPost2010Prop43
 90
        3
102
RTVSPost2010PropOp43
 70
     1
102
RTVSPost2010Prop44ColorIndex
 90
        5
102
RTVSPost2010Prop44ColorRGB
 90
      255
102
RTVSPost2010PropOp44
 70
     1
102
RTVSPost2010Prop45
280
     0
102
RTVSPost2010PropOp45
 70
     1
102
RTVSPost2010Prop46
 90
       50
102
RTVSPost2010PropOp46
 70
     1
102
RTVSPost2010Prop47
 90
       50
102
RTVSPost2010PropOp47
 70
     1
102
RTVSPost2010Prop48
 90
       50
102
RTVSPost2010PropOp48
 70
     1
102
RTVSPost2010Prop49
280
     0
102
RTVSPost2010PropOp49
 70
     1
102
RTVSPost2010Prop50
 90
       50
102
RTVSPost2010PropOp50
 70
     1
102
RTVSPost2010Prop51ColorIndex
 90
      256
102
RTVSPost2010Prop51ColorRGB
 90
-16777216
102
RTVSPost2010PropOp51
 70
     0
102
RTVSPost2010Prop52
140
1.0
102
RTVSPost2010PropOp52
 70
     0
102
RTVSPost2010Prop53
 90
        2
102
RTVSPost2010PropOp53
 70
     1
102
RTVSPost2010Prop54
  1
strokes_ogs.tif
102
RTVSPost2010PropOp54
 70
     1
102
RTVSPost2010Prop55
280
     0
102
RTVSPost2010PropOp55
 70
     1
102
RTVSPost2010Prop56
140
1.0
102
RTVSPost2010PropOp56
 70
     1
102
RTVSPost2010Prop57
140
1.0
102
RTVSPost2010PropOp57
 70
     1
102
RTVSPropertyOp0
 70
     1
102
RTVSPropertyOp1
 70
     1
102
RTVSPropertyOp2
 70
     1
102
RTVSPropertyOp3
 70
     1
102
RTVSPropertyOp4
 70
     1
102
RTVSPropertyOp5
 70
     1
102
RTVSPropertyOp6
 70
     1
102
RTVSPropertyOp7
 70
     1
102
RTVSPropertyOp8
 70
     1
102
RTVSPropertyOp9
 70
     1
102
RTVSPropertyOp10
 70
     1
102
RTVSPropertyOp11
 70
     1
102
RTVSPropertyOp12
 70
     1
102
RTVSPropertyOp13
 70
     1
102
RTVSPropertyOp14
 70
     1
102
RTVSPropertyOp15
 70
     1
102
RTVSPropertyOp16
 70
     1
102
RTVSPropertyOp17
 70
     1
102
RTVSPropertyOp18
 70
     1
102
RTVSPropertyOp19
 70
     1
102
RTVSPropertyOp20
 70
     1
102
RTVSPropertyOp21
 70
     1
102
RTVSPropertyOp22
 70
     1
102
RTVSPropertyOp23
 70
     1
102
RTVSPropertyOp24
 70
     1
102
RTVSPropertyOp25
 70
     1
102
RTVSPropertyOp26
 70
     1
102
RTVSPropertyOp27
 70
     1
102
RTVSPropertyOp28
 70
     1
102
RTVSPropertyOp29
 70
     1
102
RTVSPropertyOp30
 70
     1
102
RTVSPropertyOp31
 70
     1
102
RTVSPropertyOp32
 70
     1
102
RTVSPropertyOp33
 70
     1
102
RTVSPropertyOp34
 70
     1
102
RTVSPropertyOp35
 70
     1
102
RTVSPropertyOp36
 70
     1
102
RTVSPropertyOp37
 70
     1
102
RTVSPropertyOp38
 70
     1
102
RTVSPropertyOp39
 70
     1
102
RTVSPropertyOp40
 70
     1
102
RTVSPropertyOp41
 70
     1
102
RTVSPropertyOp42
 70
     1
102
RTVSPropertyOp43
 70
     1
102
RTVSPropertyOp44
 70
     1
102
RTVSPropertyOp45
 70
     1
102
RTVSPropertyOp46
 70
     1
102
RTVSPropertyOp47
 70
     1
102
RTVSPropertyOp48
 70
     1
102
RTVSPropertyOp49
 70
     1
102
RTVSPropertyOp50
 70
     1
102
RTVSPropertyOp51
 70
     0
102
RTVSPropertyOp52
 70
     0
102
RTVSPropertyOp53
 70
     1
102
RTVSPropertyOp54
 70
     1
102
RTVSPropertyOp55
 70
     1
102
RTVSPropertyOp56
 70
     1
102
RTVSPropertyOp57
 70
     1
102
RTVSPropertyOp58
 70
     1
102
RTVSPropertyOp59
 70
     1
102
RTVSPropertyOp60
 70
     1
102
RTVSPropertyOp61
 70
     1
102
RTVSPropertyOp62
 70
     1
  0
XRECORD
  5
D19
102
{ACAD_REACTORS
330
D18
102
}
330
D18
100
AcDbXrecord
280
     1
102
RTVSPost2010Prop28
280
     0
102
RTVSPost2010PropOp28
 70
     1
102
RTVSPost2010Prop29
280
     1
102
RTVSPost2010PropOp29
 70
     1
102
RTVSPost2010Prop30
280
     1
102
RTVSPost2010PropOp30
 70
     1
102
RTVSPost2010Prop31
280
     0
102
RTVSPost2010PropOp31
 70
     1
102
RTVSPost2010Prop32
280
     0
102
RTVSPost2010PropOp32
 70
     1
102
RTVSPost2010Prop33
280
     0
102
RTVSPost2010PropOp33
 70
     1
102
RTVSPost2010Prop34
280
     0
102
RTVSPost2010PropOp34
 70
     1
102
RTVSPost2010Prop35
280
     0
102
RTVSPost2010PropOp35
 70
     1
102
RTVSPost2010Prop36
280
     0
102
RTVSPost2010PropOp36
 70
     1
102
RTVSPost2010Prop37
 90
       50
102
RTVSPost2010PropOp37
 70
     1
102
RTVSPost2010Prop38
140
0.0
102
RTVSPost2010PropOp38
 70
     1
102
RTVSPost2010Prop39
140
1.0
102
RTVSPost2010PropOp39
 70
     1
102
RTVSPost2010Prop40
 90
        0
102
RTVSPost2010PropOp40
 70
     1
102
RTVSPost2010Prop41ColorIndex
 90
       18
102
RTVSPost2010Prop41ColorRGB
 90
-16777216
102
RTVSPost2010PropOp41
 70
     1
102
RTVSPost2010Prop42
 90
       50
102
RTVSPost2010PropOp42
 70
     1
102
RTVSPost2010Prop43
 90
        3
102
RTVSPost2010PropOp43
 70
     1
102
RTVSPost2010Prop44ColorIndex
 90
        5
102
RTVSPost2010Prop44ColorRGB
 90
      255
102
RTVSPost2010PropOp44
 70
     1
102
RTVSPost2010Prop45
280
     0
102
RTVSPost2010PropOp45
 70
     1
102
RTVSPost2010Prop46
 90
       50
102
RTVSPost2010PropOp46
 70
     1
102
RTVSPost2010Prop47
 90
       50
102
RTVSPost2010PropOp47
 70
     1
102
RTVSPost2010Prop48
 90
       50
102
RTVSPost2010PropOp48
 70
     1
102
RTVSPost2010Prop49
280
     0
102
RTVSPost2010PropOp49
 70
     1
102
RTVSPost2010Prop50
 90
       50
102
RTVSPost2010PropOp50
 70
     1
102
RTVSPost2010Prop51ColorIndex
 90
      256
102
RTVSPost2010Prop51ColorRGB
 90
-16777216
102
RTVSPost2010PropOp51
 70
     0
102
RTVSPost2010Prop52
140
1.0
102
RTVSPost2010PropOp52
 70
     0
102
RTVSPost2010Prop53
 90
        2
102
RTVSPost2010PropOp53
 70
     1
102
RTVSPost2010Prop54
  1
strokes_ogs.tif
102
RTVSPost2010PropOp54
 70
     1
102
RTVSPost2010Prop55
280
     0
102
RTVSPost2010PropOp55
 70
     1
102
RTVSPost2010Prop56
140
1.0
102
RTVSPost2010PropOp56
 70
     1
102
RTVSPost2010Prop57
140
1.0
102
RTVSPost2010PropOp57
 70
     1
102
RTVSPropertyOp0
 70
     1
102
RTVSPropertyOp1
 70
     1
102
RTVSPropertyOp2
 70
     1
102
RTVSPropertyOp3
 70
     1
102
RTVSPropertyOp4
 70
     1
102
RTVSPropertyOp5
 70
     1
102
RTVSPropertyOp6
 70
     1
102
RTVSPropertyOp7
 70
     1
102
RTVSPropertyOp8
 70
     1
102
RTVSPropertyOp9
 70
     1
102
RTVSPropertyOp10
 70
     1
102
RTVSPropertyOp11
 70
     1
102
RTVSPropertyOp12
 70
     1
102
RTVSPropertyOp13
 70
     1
102
RTVSPropertyOp14
 70
     1
102
RTVSPropertyOp15
 70
     1
102
RTVSPropertyOp16
 70
     1
102
RTVSPropertyOp17
 70
     1
102
RTVSPropertyOp18
 70
     1
102
RTVSPropertyOp19
 70
     1
102
RTVSPropertyOp20
 70
     1
102
RTVSPropertyOp21
 70
     1
102
RTVSPropertyOp22
 70
     1
102
RTVSPropertyOp23
 70
     1
102
RTVSPropertyOp24
 70
     1
102
RTVSPropertyOp25
 70
     1
102
RTVSPropertyOp26
 70
     1
102
RTVSPropertyOp27
 70
     1
102
RTVSPropertyOp28
 70
     1
102
RTVSPropertyOp29
 70
     1
102
RTVSPropertyOp30
 70
     1
102
RTVSPropertyOp31
 70
     1
102
RTVSPropertyOp32
 70
     1
102
RTVSPropertyOp33
 70
     1
102
RTVSPropertyOp34
 70
     1
102
RTVSPropertyOp35
 70
     1
102
RTVSPropertyOp36
 70
     1
102
RTVSPropertyOp37
 70
     1
102
RTVSPropertyOp38
 70
     1
102
RTVSPropertyOp39
 70
     1
102
RTVSPropertyOp40
 70
     1
102
RTVSPropertyOp41
 70
     1
102
RTVSPropertyOp42
 70
     1
102
RTVSPropertyOp43
 70
     1
102
RTVSPropertyOp44
 70
     1
102
RTVSPropertyOp45
 70
     1
102
RTVSPropertyOp46
 70
     1
102
RTVSPropertyOp47
 70
     1
102
RTVSPropertyOp48
 70
     1
102
RTVSPropertyOp49
 70
     1
102
RTVSPropertyOp50
 70
     1
102
RTVSPropertyOp51
 70
     0
102
RTVSPropertyOp52
 70
     0
102
RTVSPropertyOp53
 70
     1
102
RTVSPropertyOp54
 70
     1
102
RTVSPropertyOp55
 70
     1
102
RTVSPropertyOp56
 70
     1
102
RTVSPropertyOp57
 70
     1
102
RTVSPropertyOp58
 70
     1
102
RTVSPropertyOp59
 70
     1
102
RTVSPropertyOp60
 70
     1
102
RTVSPropertyOp61
 70
     1
102
RTVSPropertyOp62
 70
     1
  0
XRECORD
  5
D13
102
{ACAD_REACTORS
330
D12
102
}
330
D12
100
AcDbXrecord
280
     1
102
RTVSPost2010Prop28
280
     0
102
RTVSPost2010PropOp28
 70
     1
102
RTVSPost2010Prop29
280
     1
102
RTVSPost2010PropOp29
 70
     1
102
RTVSPost2010Prop30
280
     1
102
RTVSPost2010PropOp30
 70
     1
102
RTVSPost2010Prop31
280
     0
102
RTVSPost2010PropOp31
 70
     1
102
RTVSPost2010Prop32
280
     0
102
RTVSPost2010PropOp32
 70
     1
102
RTVSPost2010Prop33
280
     0
102
RTVSPost2010PropOp33
 70
     1
102
RTVSPost2010Prop34
280
     0
102
RTVSPost2010PropOp34
 70
     1
102
RTVSPost2010Prop35
280
     0
102
RTVSPost2010PropOp35
 70
     1
102
RTVSPost2010Prop36
280
     0
102
RTVSPost2010PropOp36
 70
     1
102
RTVSPost2010Prop37
 90
       50
102
RTVSPost2010PropOp37
 70
     1
102
RTVSPost2010Prop38
140
0.0
102
RTVSPost2010PropOp38
 70
     1
102
RTVSPost2010Prop39
140
1.0
102
RTVSPost2010PropOp39
 70
     1
102
RTVSPost2010Prop40
 90
        0
102
RTVSPost2010PropOp40
 70
     1
102
RTVSPost2010Prop41ColorIndex
 90
       18
102
RTVSPost2010Prop41ColorRGB
 90
-16777216
102
RTVSPost2010PropOp41
 70
     1
102
RTVSPost2010Prop42
 90
       50
102
RTVSPost2010PropOp42
 70
     1
102
RTVSPost2010Prop43
 90
        3
102
RTVSPost2010PropOp43
 70
     1
102
RTVSPost2010Prop44ColorIndex
 90
        5
102
RTVSPost2010Prop44ColorRGB
 90
      255
102
RTVSPost2010PropOp44
 70
     1
102
RTVSPost2010Prop45
280
     0
102
RTVSPost2010PropOp45
 70
     1
102
RTVSPost2010Prop46
 90
       50
102
RTVSPost2010PropOp46
 70
     1
102
RTVSPost2010Prop47
 90
       50
102
RTVSPost2010PropOp47
 70
     1
102
RTVSPost2010Prop48
 90
       50
102
RTVSPost2010PropOp48
 70
     1
102
RTVSPost2010Prop49
280
     0
102
RTVSPost2010PropOp49
 70
     1
102
RTVSPost2010Prop50
 90
       50
102
RTVSPost2010PropOp50
 70
     1
102
RTVSPost2010Prop51ColorIndex
 90
      256
102
RTVSPost2010Prop51ColorRGB
 90
-16777216
102
RTVSPost2010PropOp51
 70
     0
102
RTVSPost2010Prop52
140
1.0
102
RTVSPost2010PropOp52
 70
     0
102
RTVSPost2010Prop53
 90
        2
102
RTVSPost2010PropOp53
 70
     1
102
RTVSPost2010Prop54
  1
strokes_ogs.tif
102
RTVSPost2010PropOp54
 70
     1
102
RTVSPost2010Prop55
280
     0
102
RTVSPost2010PropOp55
 70
     1
102
RTVSPost2010Prop56
140
1.0
102
RTVSPost2010PropOp56
 70
     1
102
RTVSPost2010Prop57
140
1.0
102
RTVSPost2010PropOp57
 70
     1
102
RTVSPropertyOp0
 70
     1
102
RTVSPropertyOp1
 70
     1
102
RTVSPropertyOp2
 70
     1
102
RTVSPropertyOp3
 70
     1
102
RTVSPropertyOp4
 70
     1
102
RTVSPropertyOp5
 70
     1
102
RTVSPropertyOp6
 70
     1
102
RTVSPropertyOp7
 70
     1
102
RTVSPropertyOp8
 70
     1
102
RTVSPropertyOp9
 70
     1
102
RTVSPropertyOp10
 70
     1
102
RTVSPropertyOp11
 70
     1
102
RTVSPropertyOp12
 70
     1
102
RTVSPropertyOp13
 70
     1
102
RTVSPropertyOp14
 70
     1
102
RTVSPropertyOp15
 70
     1
102
RTVSPropertyOp16
 70
     1
102
RTVSPropertyOp17
 70
     1
102
RTVSPropertyOp18
 70
     1
102
RTVSPropertyOp19
 70
     1
102
RTVSPropertyOp20
 70
     1
102
RTVSPropertyOp21
 70
     1
102
RTVSPropertyOp22
 70
     1
102
RTVSPropertyOp23
 70
     1
102
RTVSPropertyOp24
 70
     1
102
RTVSPropertyOp25
 70
     1
102
RTVSPropertyOp26
 70
     1
102
RTVSPropertyOp27
 70
     1
102
RTVSPropertyOp28
 70
     1
102
RTVSPropertyOp29
 70
     1
102
RTVSPropertyOp30
 70
     1
102
RTVSPropertyOp31
 70
     1
102
RTVSPropertyOp32
 70
     1
102
RTVSPropertyOp33
 70
     1
102
RTVSPropertyOp34
 70
     1
102
RTVSPropertyOp35
 70
     1
102
RTVSPropertyOp36
 70
     1
102
RTVSPropertyOp37
 70
     1
102
RTVSPropertyOp38
 70
     1
102
RTVSPropertyOp39
 70
     1
102
RTVSPropertyOp40
 70
     1
102
RTVSPropertyOp41
 70
     1
102
RTVSPropertyOp42
 70
     1
102
RTVSPropertyOp43
 70
     1
102
RTVSPropertyOp44
 70
     1
102
RTVSPropertyOp45
 70
     1
102
RTVSPropertyOp46
 70
     1
102
RTVSPropertyOp47
 70
     1
102
RTVSPropertyOp48
 70
     1
102
RTVSPropertyOp49
 70
     1
102
RTVSPropertyOp50
 70
     1
102
RTVSPropertyOp51
 70
     0
102
RTVSPropertyOp52
 70
     0
102
RTVSPropertyOp53
 70
     1
102
RTVSPropertyOp54
 70
     1
102
RTVSPropertyOp55
 70
     1
102
RTVSPropertyOp56
 70
     1
102
RTVSPropertyOp57
 70
     1
102
RTVSPropertyOp58
 70
     1
102
RTVSPropertyOp59
 70
     1
102
RTVSPropertyOp60
 70
     1
102
RTVSPropertyOp61
 70
     1
102
RTVSPropertyOp62
 70
     1
  0
XRECORD
  5
D15
102
{ACAD_REACTORS
330
D14
102
}
330
D14
100
AcDbXrecord
280
     1
102
RTVSPost2010Prop28
280
     0
102
RTVSPost2010PropOp28
 70
     1
102
RTVSPost2010Prop29
280
     1
102
RTVSPost2010PropOp29
 70
     1
102
RTVSPost2010Prop30
280
     1
102
RTVSPost2010PropOp30
 70
     1
102
RTVSPost2010Prop31
280
     0
102
RTVSPost2010PropOp31
 70
     1
102
RTVSPost2010Prop32
280
     0
102
RTVSPost2010PropOp32
 70
     1
102
RTVSPost2010Prop33
280
     0
102
RTVSPost2010PropOp33
 70
     1
102
RTVSPost2010Prop34
280
     0
102
RTVSPost2010PropOp34
 70
     1
102
RTVSPost2010Prop35
280
     0
102
RTVSPost2010PropOp35
 70
     1
102
RTVSPost2010Prop36
280
     0
102
RTVSPost2010PropOp36
 70
     1
102
RTVSPost2010Prop37
 90
       50
102
RTVSPost2010PropOp37
 70
     1
102
RTVSPost2010Prop38
140
0.0
102
RTVSPost2010PropOp38
 70
     1
102
RTVSPost2010Prop39
140
1.0
102
RTVSPost2010PropOp39
 70
     1
102
RTVSPost2010Prop40
 90
        0
102
RTVSPost2010PropOp40
 70
     1
102
RTVSPost2010Prop41ColorIndex
 90
       18
102
RTVSPost2010Prop41ColorRGB
 90
-16777216
102
RTVSPost2010PropOp41
 70
     1
102
RTVSPost2010Prop42
 90
       50
102
RTVSPost2010PropOp42
 70
     1
102
RTVSPost2010Prop43
 90
        3
102
RTVSPost2010PropOp43
 70
     1
102
RTVSPost2010Prop44ColorIndex
 90
        5
102
RTVSPost2010Prop44ColorRGB
 90
      255
102
RTVSPost2010PropOp44
 70
     1
102
RTVSPost2010Prop45
280
     0
102
RTVSPost2010PropOp45
 70
     1
102
RTVSPost2010Prop46
 90
       50
102
RTVSPost2010PropOp46
 70
     1
102
RTVSPost2010Prop47
 90
       50
102
RTVSPost2010PropOp47
 70
     1
102
RTVSPost2010Prop48
 90
       50
102
RTVSPost2010PropOp48
 70
     1
102
RTVSPost2010Prop49
280
     0
102
RTVSPost2010PropOp49
 70
     1
102
RTVSPost2010Prop50
 90
       50
102
RTVSPost2010PropOp50
 70
     1
102
RTVSPost2010Prop51ColorIndex
 90
      256
102
RTVSPost2010Prop51ColorRGB
 90
-16777216
102
RTVSPost2010PropOp51
 70
     0
102
RTVSPost2010Prop52
140
1.0
102
RTVSPost2010PropOp52
 70
     0
102
RTVSPost2010Prop53
 90
        2
102
RTVSPost2010PropOp53
 70
     1
102
RTVSPost2010Prop54
  1
strokes_ogs.tif
102
RTVSPost2010PropOp54
 70
     1
102
RTVSPost2010Prop55
280
     0
102
RTVSPost2010PropOp55
 70
     1
102
RTVSPost2010Prop56
140
1.0
102
RTVSPost2010PropOp56
 70
     1
102
RTVSPost2010Prop57
140
1.0
102
RTVSPost2010PropOp57
 70
     1
102
RTVSPropertyOp0
 70
     1
102
RTVSPropertyOp1
 70
     1
102
RTVSPropertyOp2
 70
     1
102
RTVSPropertyOp3
 70
     1
102
RTVSPropertyOp4
 70
     1
102
RTVSPropertyOp5
 70
     1
102
RTVSPropertyOp6
 70
     1
102
RTVSPropertyOp7
 70
     1
102
RTVSPropertyOp8
 70
     1
102
RTVSPropertyOp9
 70
     1
102
RTVSPropertyOp10
 70
     1
102
RTVSPropertyOp11
 70
     1
102
RTVSPropertyOp12
 70
     1
102
RTVSPropertyOp13
 70
     1
102
RTVSPropertyOp14
 70
     1
102
RTVSPropertyOp15
 70
     1
102
RTVSPropertyOp16
 70
     1
102
RTVSPropertyOp17
 70
     1
102
RTVSPropertyOp18
 70
     1
102
RTVSPropertyOp19
 70
     1
102
RTVSPropertyOp20
 70
     1
102
RTVSPropertyOp21
 70
     1
102
RTVSPropertyOp22
 70
     1
102
RTVSPropertyOp23
 70
     1
102
RTVSPropertyOp24
 70
     1
102
RTVSPropertyOp25
 70
     1
102
RTVSPropertyOp26
 70
     1
102
RTVSPropertyOp27
 70
     1
102
RTVSPropertyOp28
 70
     1
102
RTVSPropertyOp29
 70
     1
102
RTVSPropertyOp30
 70
     1
102
RTVSPropertyOp31
 70
     1
102
RTVSPropertyOp32
 70
     1
102
RTVSPropertyOp33
 70
     1
102
RTVSPropertyOp34
 70
     1
102
RTVSPropertyOp35
 70
     1
102
RTVSPropertyOp36
 70
     1
102
RTVSPropertyOp37
 70
     1
102
RTVSPropertyOp38
 70
     1
102
RTVSPropertyOp39
 70
     1
102
RTVSPropertyOp40
 70
     1
102
RTVSPropertyOp41
 70
     1
102
RTVSPropertyOp42
 70
     1
102
RTVSPropertyOp43
 70
     1
102
RTVSPropertyOp44
 70
     1
102
RTVSPropertyOp45
 70
     1
102
RTVSPropertyOp46
 70
     1
102
RTVSPropertyOp47
 70
     1
102
RTVSPropertyOp48
 70
     1
102
RTVSPropertyOp49
 70
     1
102
RTVSPropertyOp50
 70
     1
102
RTVSPropertyOp51
 70
     0
102
RTVSPropertyOp52
 70
     0
102
RTVSPropertyOp53
 70
     1
102
RTVSPropertyOp54
 70
     1
102
RTVSPropertyOp55
 70
     1
102
RTVSPropertyOp56
 70
     1
102
RTVSPropertyOp57
 70
     1
102
RTVSPropertyOp58
 70
     1
102
RTVSPropertyOp59
 70
     1
102
RTVSPropertyOp60
 70
     1
102
RTVSPropertyOp61
 70
     1
102
RTVSPropertyOp62
 70
     1
  0
XRECORD
  5
D0B
102
{ACAD_REACTORS
330
D0A
102
}
330
D0A
100
AcDbXrecord
280
     1
102
RTVSPost2010Prop28
280
     0
102
RTVSPost2010PropOp28
 70
     1
102
RTVSPost2010Prop29
280
     1
102
RTVSPost2010PropOp29
 70
     1
102
RTVSPost2010Prop30
280
     1
102
RTVSPost2010PropOp30
 70
     1
102
RTVSPost2010Prop31
280
     0
102
RTVSPost2010PropOp31
 70
     1
102
RTVSPost2010Prop32
280
     0
102
RTVSPost2010PropOp32
 70
     1
102
RTVSPost2010Prop33
280
     0
102
RTVSPost2010PropOp33
 70
     1
102
RTVSPost2010Prop34
280
     0
102
RTVSPost2010PropOp34
 70
     1
102
RTVSPost2010Prop35
280
     0
102
RTVSPost2010PropOp35
 70
     1
102
RTVSPost2010Prop36
280
     0
102
RTVSPost2010PropOp36
 70
     1
102
RTVSPost2010Prop37
 90
       50
102
RTVSPost2010PropOp37
 70
     1
102
RTVSPost2010Prop38
140
0.0
102
RTVSPost2010PropOp38
 70
     1
102
RTVSPost2010Prop39
140
1.0
102
RTVSPost2010PropOp39
 70
     1
102
RTVSPost2010Prop40
 90
        0
102
RTVSPost2010PropOp40
 70
     1
102
RTVSPost2010Prop41ColorIndex
 90
       18
102
RTVSPost2010Prop41ColorRGB
 90
-16777216
102
RTVSPost2010PropOp41
 70
     1
102
RTVSPost2010Prop42
 90
       50
102
RTVSPost2010PropOp42
 70
     1
102
RTVSPost2010Prop43
 90
        3
102
RTVSPost2010PropOp43
 70
     1
102
RTVSPost2010Prop44ColorIndex
 90
        5
102
RTVSPost2010Prop44ColorRGB
 90
      255
102
RTVSPost2010PropOp44
 70
     1
102
RTVSPost2010Prop45
280
     0
102
RTVSPost2010PropOp45
 70
     1
102
RTVSPost2010Prop46
 90
       50
102
RTVSPost2010PropOp46
 70
     1
102
RTVSPost2010Prop47
 90
       50
102
RTVSPost2010PropOp47
 70
     1
102
RTVSPost2010Prop48
 90
       50
102
RTVSPost2010PropOp48
 70
     1
102
RTVSPost2010Prop49
280
     0
102
RTVSPost2010PropOp49
 70
     1
102
RTVSPost2010Prop50
 90
       50
102
RTVSPost2010PropOp50
 70
     1
102
RTVSPost2010Prop51ColorIndex
 90
      256
102
RTVSPost2010Prop51ColorRGB
 90
-16777216
102
RTVSPost2010PropOp51
 70
     0
102
RTVSPost2010Prop52
140
1.0
102
RTVSPost2010PropOp52
 70
     0
102
RTVSPost2010Prop53
 90
        2
102
RTVSPost2010PropOp53
 70
     1
102
RTVSPost2010Prop54
  1
strokes_ogs.tif
102
RTVSPost2010PropOp54
 70
     1
102
RTVSPost2010Prop55
280
     0
102
RTVSPost2010PropOp55
 70
     1
102
RTVSPost2010Prop56
140
1.0
102
RTVSPost2010PropOp56
 70
     1
102
RTVSPost2010Prop57
140
1.0
102
RTVSPost2010PropOp57
 70
     1
102
RTVSPropertyOp0
 70
     1
102
RTVSPropertyOp1
 70
     1
102
RTVSPropertyOp2
 70
     1
102
RTVSPropertyOp3
 70
     1
102
RTVSPropertyOp4
 70
     1
102
RTVSPropertyOp5
 70
     1
102
RTVSPropertyOp6
 70
     1
102
RTVSPropertyOp7
 70
     1
102
RTVSPropertyOp8
 70
     1
102
RTVSPropertyOp9
 70
     1
102
RTVSPropertyOp10
 70
     1
102
RTVSPropertyOp11
 70
     1
102
RTVSPropertyOp12
 70
     1
102
RTVSPropertyOp13
 70
     1
102
RTVSPropertyOp14
 70
     1
102
RTVSPropertyOp15
 70
     1
102
RTVSPropertyOp16
 70
     1
102
RTVSPropertyOp17
 70
     1
102
RTVSPropertyOp18
 70
     1
102
RTVSPropertyOp19
 70
     1
102
RTVSPropertyOp20
 70
     1
102
RTVSPropertyOp21
 70
     1
102
RTVSPropertyOp22
 70
     1
102
RTVSPropertyOp23
 70
     1
102
RTVSPropertyOp24
 70
     1
102
RTVSPropertyOp25
 70
     1
102
RTVSPropertyOp26
 70
     1
102
RTVSPropertyOp27
 70
     1
102
RTVSPropertyOp28
 70
     1
102
RTVSPropertyOp29
 70
     1
102
RTVSPropertyOp30
 70
     1
102
RTVSPropertyOp31
 70
     1
102
RTVSPropertyOp32
 70
     1
102
RTVSPropertyOp33
 70
     1
102
RTVSPropertyOp34
 70
     1
102
RTVSPropertyOp35
 70
     1
102
RTVSPropertyOp36
 70
     1
102
RTVSPropertyOp37
 70
     1
102
RTVSPropertyOp38
 70
     1
102
RTVSPropertyOp39
 70
     1
102
RTVSPropertyOp40
 70
     1
102
RTVSPropertyOp41
 70
     1
102
RTVSPropertyOp42
 70
     1
102
RTVSPropertyOp43
 70
     1
102
RTVSPropertyOp44
 70
     1
102
RTVSPropertyOp45
 70
     1
102
RTVSPropertyOp46
 70
     1
102
RTVSPropertyOp47
 70
     1
102
RTVSPropertyOp48
 70
     1
102
RTVSPropertyOp49
 70
     1
102
RTVSPropertyOp50
 70
     1
102
RTVSPropertyOp51
 70
     0
102
RTVSPropertyOp52
 70
     0
102
RTVSPropertyOp53
 70
     1
102
RTVSPropertyOp54
 70
     1
102
RTVSPropertyOp55
 70
     1
102
RTVSPropertyOp56
 70
     1
102
RTVSPropertyOp57
 70
     1
102
RTVSPropertyOp58
 70
     1
102
RTVSPropertyOp59
 70
     1
102
RTVSPropertyOp60
 70
     1
102
RTVSPropertyOp61
 70
     1
102
RTVSPropertyOp62
 70
     1
  0
XRECORD
  5
CFF
102
{ACAD_REACTORS
330
CFE
102
}
330
CFE
100
AcDbXrecord
280
     1
102
RTVSPost2010Prop28
280
     0
102
RTVSPost2010PropOp28
 70
     1
102
RTVSPost2010Prop29
280
     1
102
RTVSPost2010PropOp29
 70
     1
102
RTVSPost2010Prop30
280
     1
102
RTVSPost2010PropOp30
 70
     1
102
RTVSPost2010Prop31
280
     0
102
RTVSPost2010PropOp31
 70
     1
102
RTVSPost2010Prop32
280
     0
102
RTVSPost2010PropOp32
 70
     1
102
RTVSPost2010Prop33
280
     0
102
RTVSPost2010PropOp33
 70
     1
102
RTVSPost2010Prop34
280
     0
102
RTVSPost2010PropOp34
 70
     1
102
RTVSPost2010Prop35
280
     0
102
RTVSPost2010PropOp35
 70
     1
102
RTVSPost2010Prop36
280
     0
102
RTVSPost2010PropOp36
 70
     1
102
RTVSPost2010Prop37
 90
       50
102
RTVSPost2010PropOp37
 70
     1
102
RTVSPost2010Prop38
140
0.0
102
RTVSPost2010PropOp38
 70
     1
102
RTVSPost2010Prop39
140
1.0
102
RTVSPost2010PropOp39
 70
     1
102
RTVSPost2010Prop40
 90
        0
102
RTVSPost2010PropOp40
 70
     1
102
RTVSPost2010Prop41ColorIndex
 90
       18
102
RTVSPost2010Prop41ColorRGB
 90
-16777216
102
RTVSPost2010PropOp41
 70
     1
102
RTVSPost2010Prop42
 90
       50
102
RTVSPost2010PropOp42
 70
     1
102
RTVSPost2010Prop43
 90
        3
102
RTVSPost2010PropOp43
 70
     1
102
RTVSPost2010Prop44ColorIndex
 90
        5
102
RTVSPost2010Prop44ColorRGB
 90
      255
102
RTVSPost2010PropOp44
 70
     1
102
RTVSPost2010Prop45
280
     0
102
RTVSPost2010PropOp45
 70
     1
102
RTVSPost2010Prop46
 90
       50
102
RTVSPost2010PropOp46
 70
     1
102
RTVSPost2010Prop47
 90
       50
102
RTVSPost2010PropOp47
 70
     1
102
RTVSPost2010Prop48
 90
       50
102
RTVSPost2010PropOp48
 70
     1
102
RTVSPost2010Prop49
280
     0
102
RTVSPost2010PropOp49
 70
     1
102
RTVSPost2010Prop50
 90
       50
102
RTVSPost2010PropOp50
 70
     1
102
RTVSPost2010Prop51ColorIndex
 90
      256
102
RTVSPost2010Prop51ColorRGB
 90
-16777216
102
RTVSPost2010PropOp51
 70
     0
102
RTVSPost2010Prop52
140
1.0
102
RTVSPost2010PropOp52
 70
     0
102
RTVSPost2010Prop53
 90
        2
102
RTVSPost2010PropOp53
 70
     1
102
RTVSPost2010Prop54
  1
strokes_ogs.tif
102
RTVSPost2010PropOp54
 70
     1
102
RTVSPost2010Prop55
280
     0
102
RTVSPost2010PropOp55
 70
     1
102
RTVSPost2010Prop56
140
1.0
102
RTVSPost2010PropOp56
 70
     1
102
RTVSPost2010Prop57
140
1.0
102
RTVSPost2010PropOp57
 70
     1
102
RTVSPropertyOp0
 70
     1
102
RTVSPropertyOp1
 70
     1
102
RTVSPropertyOp2
 70
     1
102
RTVSPropertyOp3
 70
     1
102
RTVSPropertyOp4
 70
     1
102
RTVSPropertyOp5
 70
     1
102
RTVSPropertyOp6
 70
     1
102
RTVSPropertyOp7
 70
     1
102
RTVSPropertyOp8
 70
     1
102
RTVSPropertyOp9
 70
     1
102
RTVSPropertyOp10
 70
     1
102
RTVSPropertyOp11
 70
     1
102
RTVSPropertyOp12
 70
     1
102
RTVSPropertyOp13
 70
     1
102
RTVSPropertyOp14
 70
     1
102
RTVSPropertyOp15
 70
     1
102
RTVSPropertyOp16
 70
     1
102
RTVSPropertyOp17
 70
     1
102
RTVSPropertyOp18
 70
     1
102
RTVSPropertyOp19
 70
     1
102
RTVSPropertyOp20
 70
     1
102
RTVSPropertyOp21
 70
     1
102
RTVSPropertyOp22
 70
     1
102
RTVSPropertyOp23
 70
     1
102
RTVSPropertyOp24
 70
     1
102
RTVSPropertyOp25
 70
     1
102
RTVSPropertyOp26
 70
     1
102
RTVSPropertyOp27
 70
     1
102
RTVSPropertyOp28
 70
     1
102
RTVSPropertyOp29
 70
     1
102
RTVSPropertyOp30
 70
     1
102
RTVSPropertyOp31
 70
     1
102
RTVSPropertyOp32
 70
     1
102
RTVSPropertyOp33
 70
     1
102
RTVSPropertyOp34
 70
     1
102
RTVSPropertyOp35
 70
     1
102
RTVSPropertyOp36
 70
     1
102
RTVSPropertyOp37
 70
     1
102
RTVSPropertyOp38
 70
     1
102
RTVSPropertyOp39
 70
     1
102
RTVSPropertyOp40
 70
     1
102
RTVSPropertyOp41
 70
     1
102
RTVSPropertyOp42
 70
     1
102
RTVSPropertyOp43
 70
     1
102
RTVSPropertyOp44
 70
     1
102
RTVSPropertyOp45
 70
     1
102
RTVSPropertyOp46
 70
     1
102
RTVSPropertyOp47
 70
     1
102
RTVSPropertyOp48
 70
     1
102
RTVSPropertyOp49
 70
     1
102
RTVSPropertyOp50
 70
     1
102
RTVSPropertyOp51
 70
     0
102
RTVSPropertyOp52
 70
     0
102
RTVSPropertyOp53
 70
     1
102
RTVSPropertyOp54
 70
     1
102
RTVSPropertyOp55
 70
     1
102
RTVSPropertyOp56
 70
     1
102
RTVSPropertyOp57
 70
     1
102
RTVSPropertyOp58
 70
     1
102
RTVSPropertyOp59
 70
     1
102
RTVSPropertyOp60
 70
     1
102
RTVSPropertyOp61
 70
     1
102
RTVSPropertyOp62
 70
     1
  0
XRECORD
  5
D17
102
{ACAD_REACTORS
330
D16
102
}
330
D16
100
AcDbXrecord
280
     1
102
RTVSPost2010Prop28
280
     0
102
RTVSPost2010PropOp28
 70
     1
102
RTVSPost2010Prop29
280
     1
102
RTVSPost2010PropOp29
 70
     1
102
RTVSPost2010Prop30
280
     1
102
RTVSPost2010PropOp30
 70
     1
102
RTVSPost2010Prop31
280
     0
102
RTVSPost2010PropOp31
 70
     1
102
RTVSPost2010Prop32
280
     0
102
RTVSPost2010PropOp32
 70
     1
102
RTVSPost2010Prop33
280
     0
102
RTVSPost2010PropOp33
 70
     1
102
RTVSPost2010Prop34
280
     0
102
RTVSPost2010PropOp34
 70
     1
102
RTVSPost2010Prop35
280
     0
102
RTVSPost2010PropOp35
 70
     1
102
RTVSPost2010Prop36
280
     0
102
RTVSPost2010PropOp36
 70
     1
102
RTVSPost2010Prop37
 90
       50
102
RTVSPost2010PropOp37
 70
     1
102
RTVSPost2010Prop38
140
0.0
102
RTVSPost2010PropOp38
 70
     1
102
RTVSPost2010Prop39
140
1.0
102
RTVSPost2010PropOp39
 70
     1
102
RTVSPost2010Prop40
 90
        0
102
RTVSPost2010PropOp40
 70
     1
102
RTVSPost2010Prop41ColorIndex
 90
       18
102
RTVSPost2010Prop41ColorRGB
 90
-16777216
102
RTVSPost2010PropOp41
 70
     1
102
RTVSPost2010Prop42
 90
       50
102
RTVSPost2010PropOp42
 70
     1
102
RTVSPost2010Prop43
 90
        3
102
RTVSPost2010PropOp43
 70
     1
102
RTVSPost2010Prop44ColorIndex
 90
        5
102
RTVSPost2010Prop44ColorRGB
 90
      255
102
RTVSPost2010PropOp44
 70
     1
102
RTVSPost2010Prop45
280
     0
102
RTVSPost2010PropOp45
 70
     1
102
RTVSPost2010Prop46
 90
       50
102
RTVSPost2010PropOp46
 70
     1
102
RTVSPost2010Prop47
 90
       50
102
RTVSPost2010PropOp47
 70
     1
102
RTVSPost2010Prop48
 90
       50
102
RTVSPost2010PropOp48
 70
     1
102
RTVSPost2010Prop49
280
     0
102
RTVSPost2010PropOp49
 70
     1
102
RTVSPost2010Prop50
 90
       50
102
RTVSPost2010PropOp50
 70
     1
102
RTVSPost2010Prop51ColorIndex
 90
      256
102
RTVSPost2010Prop51ColorRGB
 90
-16777216
102
RTVSPost2010PropOp51
 70
     0
102
RTVSPost2010Prop52
140
1.0
102
RTVSPost2010PropOp52
 70
     0
102
RTVSPost2010Prop53
 90
        2
102
RTVSPost2010PropOp53
 70
     1
102
RTVSPost2010Prop54
  1
strokes_ogs.tif
102
RTVSPost2010PropOp54
 70
     1
102
RTVSPost2010Prop55
280
     0
102
RTVSPost2010PropOp55
 70
     1
102
RTVSPost2010Prop56
140
1.0
102
RTVSPost2010PropOp56
 70
     1
102
RTVSPost2010Prop57
140
1.0
102
RTVSPost2010PropOp57
 70
     1
102
RTVSPropertyOp0
 70
     1
102
RTVSPropertyOp1
 70
     1
102
RTVSPropertyOp2
 70
     1
102
RTVSPropertyOp3
 70
     1
102
RTVSPropertyOp4
 70
     1
102
RTVSPropertyOp5
 70
     1
102
RTVSPropertyOp6
 70
     1
102
RTVSPropertyOp7
 70
     1
102
RTVSPropertyOp8
 70
     1
102
RTVSPropertyOp9
 70
     1
102
RTVSPropertyOp10
 70
     1
102
RTVSPropertyOp11
 70
     1
102
RTVSPropertyOp12
 70
     1
102
RTVSPropertyOp13
 70
     1
102
RTVSPropertyOp14
 70
     1
102
RTVSPropertyOp15
 70
     1
102
RTVSPropertyOp16
 70
     1
102
RTVSPropertyOp17
 70
     1
102
RTVSPropertyOp18
 70
     1
102
RTVSPropertyOp19
 70
     1
102
RTVSPropertyOp20
 70
     1
102
RTVSPropertyOp21
 70
     1
102
RTVSPropertyOp22
 70
     1
102
RTVSPropertyOp23
 70
     1
102
RTVSPropertyOp24
 70
     1
102
RTVSPropertyOp25
 70
     1
102
RTVSPropertyOp26
 70
     1
102
RTVSPropertyOp27
 70
     1
102
RTVSPropertyOp28
 70
     1
102
RTVSPropertyOp29
 70
     1
102
RTVSPropertyOp30
 70
     1
102
RTVSPropertyOp31
 70
     1
102
RTVSPropertyOp32
 70
     1
102
RTVSPropertyOp33
 70
     1
102
RTVSPropertyOp34
 70
     1
102
RTVSPropertyOp35
 70
     1
102
RTVSPropertyOp36
 70
     1
102
RTVSPropertyOp37
 70
     1
102
RTVSPropertyOp38
 70
     1
102
RTVSPropertyOp39
 70
     1
102
RTVSPropertyOp40
 70
     1
102
RTVSPropertyOp41
 70
     1
102
RTVSPropertyOp42
 70
     1
102
RTVSPropertyOp43
 70
     1
102
RTVSPropertyOp44
 70
     1
102
RTVSPropertyOp45
 70
     1
102
RTVSPropertyOp46
 70
     1
102
RTVSPropertyOp47
 70
     1
102
RTVSPropertyOp48
 70
     1
102
RTVSPropertyOp49
 70
     1
102
RTVSPropertyOp50
 70
     1
102
RTVSPropertyOp51
 70
     0
102
RTVSPropertyOp52
 70
     0
102
RTVSPropertyOp53
 70
     1
102
RTVSPropertyOp54
 70
     1
102
RTVSPropertyOp55
 70
     1
102
RTVSPropertyOp56
 70
     1
102
RTVSPropertyOp57
 70
     1
102
RTVSPropertyOp58
 70
     1
102
RTVSPropertyOp59
 70
     1
102
RTVSPropertyOp60
 70
     1
102
RTVSPropertyOp61
 70
     1
102
RTVSPropertyOp62
 70
     1
  0
ENDSEC
  0
EOF
