  0
SECTION
  2
HEADER
  9
$ACADVER
  1
AC1015
  9
$ACADMAINTVER
 70
    20
  9
$DWGCODEPAGE
  3
ANSI_1252
  9
$INSBASE
 10
0.0
 20
0.0
 30
0.0
  9
$EXTMIN
 10
0.0
 20
0.0701030413486847
 30
0.0
  9
$EXTMAX
 10
5.525
 20
4.320103041348684
 30
0.0
  9
$LIMMIN
 10
0.0
 20
0.0
  9
$LIMMAX
 10
12.0
 20
9.0
  9
$ORTHOMODE
 70
     0
  9
$REGENMODE
 70
     1
  9
$FILLMODE
 70
     1
  9
$QTEXTMODE
 70
     0
  9
$MIRRTEXT
 70
     1
  9
$LTSCALE
 40
0.25
  9
$ATTMODE
 70
     1
  9
$TEXTSIZE
 40
0.125
  9
$TRACEWID
 40
0.05
  9
$TEXTSTYLE
  7
ROMANS
  9
$CLAYER
  8
3
  9
$CELTYPE
  6
BYLAYER
  9
$CECOLOR
 62
   256
  9
$CELTSCALE
 40
1.0
  9
$DISPSILH
 70
     0
  9
$DIMSCALE
 40
0.5
  9
$DIMASZ
 40
0.125
  9
$DIMEXO
 40
0.063
  9
$DIMDLI
 40
0.38
  9
$DIMRND
 40
0.0
  9
$DIMDLE
 40
0.0
  9
$DIMEXE
 40
0.063
  9
$DIMTP
 40
0.0
  9
$DIMTM
 40
0.0
  9
$DIMTXT
 40
0.125
  9
$DIMCEN
 40
-0.125
  9
$DIMTSZ
 40
0.0
  9
$DIMTOL
 70
     0
  9
$DIMLIM
 70
     0
  9
$DIMTIH
 70
     1
  9
$DIMTOH
 70
     1
  9
$DIMSE1
 70
     0
  9
$DIMSE2
 70
     0
  9
$DIMTAD
 70
     0
  9
$DIMZIN
 70
     4
  9
$DIMBLK
  1

  9
$DIMASO
 70
     1
  9
$DIMSHO
 70
     0
  9
$DIMPOST
  1

  9
$DIMAPOST
  1

  9
$DIMALT
 70
     0
  9
$DIMALTD
 70
     2
  9
$DIMALTF
 40
25.4
  9
$DIMLFAC
 40
1.0
  9
$DIMTOFL
 70
     0
  9
$DIMTVP
 40
0.0
  9
$DIMTIX
 70
     1
  9
$DIMSOXD
 70
     0
  9
$DIMSAH
 70
     0
  9
$DIMBLK1
  1

  9
$DIMBLK2
  1

  9
$DIMSTYLE
  2
STANDARD
  9
$DIMCLRD
 70
     0
  9
$DIMCLRE
 70
     0
  9
$DIMCLRT
 70
     0
  9
$DIMTFAC
 40
1.0
  9
$DIMGAP
 40
0.09
  9
$DIMJUST
 70
     0
  9
$DIMSD1
 70
     0
  9
$DIMSD2
 70
     0
  9
$DIMTOLJ
 70
     1
  9
$DIMTZIN
 70
     4
  9
$DIMALTZ
 70
     4
  9
$DIMALTTZ
 70
     4
  9
$DIMUPT
 70
     0
  9
$DIMDEC
 70
     3
  9
$DIMTDEC
 70
     3
  9
$DIMALTU
 70
     2
  9
$DIMALTTD
 70
     2
  9
$DIMTXSTY
  7
ROMANS
  9
$DIMAUNIT
 70
     0
  9
$DIMADEC
 70
     0
  9
$DIMALTRND
 40
0.0
  9
$DIMAZIN
 70
     0
  9
$DIMDSEP
 70
    46
  9
$DIMATFIT
 70
     3
  9
$DIMFRAC
 70
     0
  9
$DIMLDRBLK
  1

  9
$DIMLUNIT
 70
     2
  9
$DIMLWD
 70
    -2
  9
$DIMLWE
 70
    -2
  9
$DIMTMOVE
 70
     2
  9
$LUNITS
 70
     2
  9
$LUPREC
 70
     3
  9
$SKETCHINC
 40
0.1
  9
$FILLETRAD
 40
0.0
  9
$AUNITS
 70
     0
  9
$AUPREC
 70
     2
  9
$MENU
  1
ACAD
  9
$ELEVATION
 40
0.0
  9
$PELEVATION
 40
0.0
  9
$THICKNESS
 40
0.0
  9
$LIMCHECK
 70
     0
  9
$CHAMFERA
 40
0.0
  9
$CHAMFERB
 40
0.0
  9
$CHAMFERC
 40
0.0
  9
$CHAMFERD
 40
0.0
  9
$SKPOLY
 70
     0
  9
$TDCREATE
 40
2449051.539295139
  9
$TDUCREATE
 40
2449051.705961806
  9
$TDUPDATE
 40
2457155.471636157
  9
$TDUUPDATE
 40
2457155.638302824
  9
$TDINDWG
 40
0.2631846296
  9
$TDUSRTIMER
 40
0.2631846181
  9
$USRTIMER
 70
     1
  9
$ANGBASE
 50
0.0
  9
$ANGDIR
 70
     0
  9
$PDMODE
 70
     0
  9
$PDSIZE
 40
0.0
  9
$PLINEWID
 40
0.0
  9
$SPLFRAME
 70
     0
  9
$SPLINETYPE
 70
     6
  9
$SPLINESEGS
 70
     8
  9
$HANDSEED
  5
D88
  9
$SURFTAB1
 70
     6
  9
$SURFTAB2
 70
     6
  9
$SURFTYPE
 70
     6
  9
$SURFU
 70
     6
  9
$SURFV
 70
     6
  9
$UCSBASE
  2

  9
$UCSNAME
  2

  9
$UCSORG
 10
0.0
 20
0.0
 30
0.0
  9
$UCSXDIR
 10
1.0
 20
0.0
 30
0.0
  9
$UCSYDIR
 10
0.0
 20
1.0
 30
0.0
  9
$UCSORTHOREF
  2

  9
$UCSORTHOVIEW
 70
     0
  9
$UCSORGTOP
 10
0.0
 20
0.0
 30
0.0
  9
$UCSORGBOTTOM
 10
0.0
 20
0.0
 30
0.0
  9
$UCSORGLEFT
 10
0.0
 20
0.0
 30
0.0
  9
$UCSORGRIGHT
 10
0.0
 20
0.0
 30
0.0
  9
$UCSORGFRONT
 10
0.0
 20
0.0
 30
0.0
  9
$UCSORGBACK
 10
0.0
 20
0.0
 30
0.0
  9
$PUCSBASE
  2

  9
$PUCSNAME
  2

  9
$PUCSORG
 10
0.0
 20
0.0
 30
0.0
  9
$PUCSXDIR
 10
1.0
 20
0.0
 30
0.0
  9
$PUCSYDIR
 10
0.0
 20
1.0
 30
0.0
  9
$PUCSORTHOREF
  2

  9
$PUCSORTHOVIEW
 70
     0
  9
$PUCSORGTOP
 10
0.0
 20
0.0
 30
0.0
  9
$PUCSORGBOTTOM
 10
0.0
 20
0.0
 30
0.0
  9
$PUCSORGLEFT
 10
0.0
 20
0.0
 30
0.0
  9
$PUCSORGRIGHT
 10
0.0
 20
0.0
 30
0.0
  9
$PUCSORGFRONT
 10
0.0
 20
0.0
 30
0.0
  9
$PUCSORGBACK
 10
0.0
 20
0.0
 30
0.0
  9
$USERI1
 70
     0
  9
$USERI2
 70
     0
  9
$USERI3
 70
     0
  9
$USERI4
 70
     0
  9
$USERI5
 70
     0
  9
$USERR1
 40
0.0
  9
$USERR2
 40
0.0
  9
$USERR3
 40
0.0
  9
$USERR4
 40
0.0
  9
$USERR5
 40
0.0
  9
$WORLDVIEW
 70
     1
  9
$SHADEDGE
 70
     3
  9
$SHADEDIF
 70
    70
  9
$TILEMODE
 70
     1
  9
$MAXACTVP
 70
    16
  9
$PINSBASE
 10
0.0
 20
0.0
 30
0.0
  9
$PLIMCHECK
 70
     0
  9
$PEXTMIN
 10
1.000000000000000E+20
 20
1.000000000000000E+20
 30
1.000000000000000E+20
  9
$PEXTMAX
 10
-1.000000000000000E+20
 20
-1.000000000000000E+20
 30
-1.000000000000000E+20
  9
$PLIMMIN
 10
0.0
 20
0.0
  9
$PLIMMAX
 10
12.0
 20
9.0
  9
$UNITMODE
 70
     0
  9
$VISRETAIN
 70
     0
  9
$PLINEGEN
 70
     0
  9
$PSLTSCALE
 70
     0
  9
$TREEDEPTH
 70
  3020
  9
$CMLSTYLE
  2
STANDARD
  9
$CMLJUST
 70
     0
  9
$CMLSCALE
 40
1.0
  9
$PROXYGRAPHICS
 70
     1
  9
$MEASUREMENT
 70
     0
  9
$CELWEIGHT
370
    -1
  9
$ENDCAPS
280
     0
  9
$JOINSTYLE
280
     0
  9
$LWDISPLAY
290
     0
  9
$INSUNITS
 70
     0
  9
$HYPERLINKBASE
  1

  9
$STYLESHEET
  1
BLACK.CTB
  9
$XEDIT
290
     1
  9
$CEPSNTYPE
380
     0
  9
$PSTYLEMODE
290
     1
  9
$FINGERPRINTGUID
  2
{AC1FB37E-F5A9-4298-841D-E97B6EF8F9FD}
  9
$VERSIONGUID
  2
{B9A99968-7DA1-43AF-8886-95B91FA7F82C}
  9
$EXTNAMES
290
     1
  9
$PSVPSCALE
 40
0.0
  9
$OLESTARTUP
290
     0
  0
ENDSEC
  0
SECTION
  2
CLASSES
  0
CLASS
  1
DICTIONARYVAR
  2
AcDbDictionaryVar
  3
ObjectDBX Classes
 90
        0
280
     0
281
     0
  0
CLASS
  1
ACDBDICTIONARYWDFLT
  2
AcDbDictionaryWithDefault
  3
ObjectDBX Classes
 90
        0
280
     0
281
     0
  0
CLASS
  1
MATERIAL
  2
AcDbMaterial
  3
ObjectDBX Classes
 90
     1153
280
     0
281
     0
  0
CLASS
  1
VISUALSTYLE
  2
AcDbVisualStyle
  3
ObjectDBX Classes
 90
     4095
280
     0
281
     0
  0
CLASS
  1
TABLESTYLE
  2
AcDbTableStyle
  3
ObjectDBX Classes
 90
     4095
280
     0
281
     0
  0
CLASS
  1
SCALE
  2
AcDbScale
  3
ObjectDBX Classes
 90
     1153
280
     0
281
     0
  0
CLASS
  1
MLEADERSTYLE
  2
AcDbMLeaderStyle
  3
ACDB_MLEADERSTYLE_CLASS
 90
     4095
280
     0
281
     0
  0
CLASS
  1
ACDBSECTIONVIEWSTYLE
  2
AcDbSectionViewStyle
  3
ObjectDBX Classes
 90
     1025
280
     0
281
     0
  0
CLASS
  1
ACDBDETAILVIEWSTYLE
  2
AcDbDetailViewStyle
  3
ObjectDBX Classes
 90
     1025
280
     0
281
     0
  0
CLASS
  1
CELLSTYLEMAP
  2
AcDbCellStyleMap
  3
ObjectDBX Classes
 90
     1152
280
     0
281
     0
  0
CLASS
  1
ACDBPLACEHOLDER
  2
AcDbPlaceHolder
  3
ObjectDBX Classes
 90
        0
280
     0
281
     0
  0
CLASS
  1
LAYOUT
  2
AcDbLayout
  3
ObjectDBX Classes
 90
        0
280
     0
281
     0
  0
ENDSEC
  0
SECTION
  2
TABLES
  0
TABLE
  2
VPORT
  5
8
330
0
100
AcDbSymbolTable
 70
     1
  0
VPORT
  5
C25
330
8
100
AcDbSymbolTableRecord
100
AcDbViewportTableRecord
  2
*Active
 70
     0
 10
0.0
 20
0.0
 11
1.0
 21
1.0
 12
3.084109628078323
 22
2.401489067181406
 13
0.0
 23
0.0
 14
1.0
 24
1.0
 15
0.0
 25
0.0
 16
0.0
 26
0.0
 36
1.0
 17
0.0
 27
0.0
 37
0.0
 40
7.099516276141216
 41
2.080545229244113
 42
50.0
 43
0.0
 44
0.0
 50
0.0
 51
0.0
 71
     0
 72
   250
 73
     1
 74
     0
 75
     0
 76
     0
 77
     0
 78
     0
281
     0
 65
     1
110
0.0
120
0.0
130
0.0
111
1.0
121
0.0
131
0.0
112
0.0
122
1.0
132
0.0
 79
     0
146
0.0
1001
ACAD_NAV_VCDISPLAY
1070
     3
  0
ENDTAB
  0
TABLE
  2
LTYPE
  5
5
330
0
100
AcDbSymbolTable
 70
     2
  0
LTYPE
  5
11
330
5
100
AcDbSymbolTableRecord
100
AcDbLinetypeTableRecord
  2
BYBLOCK
 70
     0
  3

 72
    65
 73
     0
 40
0.0
  0
LTYPE
  5
12
330
5
100
AcDbSymbolTableRecord
100
AcDbLinetypeTableRecord
  2
BYLAYER
 70
     0
  3

 72
    65
 73
     0
 40
0.0
  0
LTYPE
  5
13
330
5
100
AcDbSymbolTableRecord
100
AcDbLinetypeTableRecord
  2
CONTINUOUS
 70
     0
  3
Solid line
 72
    65
 73
     0
 40
0.0
  0
LTYPE
  5
24
330
5
100
AcDbSymbolTableRecord
100
AcDbLinetypeTableRecord
  2
CENTER
 70
     0
  3
____ _ ____ _ ____ _ ____ _ ____ _ ____ _ ____ 
 72
    65
 73
     4
 40
2.0
 49
1.25
 74
     0
 49
-0.25
 74
     0
 49
0.25
 74
     0
 49
-0.25
 74
     0
  0
ENDTAB
  0
TABLE
  2
LAYER
  5
2
102
{ACAD_XDICTIONARY
360
CC5
102
}
330
0
100
AcDbSymbolTable
 70
     5
  0
LAYER
  5
E
102
{ACAD_XDICTIONARY
360
CBA
102
}
330
2
100
AcDbSymbolTableRecord
100
AcDbLayerTableRecord
  2
0
 70
     0
 62
     7
  6
CONTINUOUS
370
    -3
390
B7B
  0
LAYER
  5
27
102
{ACAD_XDICTIONARY
360
CBC
102
}
330
2
100
AcDbSymbolTableRecord
100
AcDbLayerTableRecord
  2
2
 70
     0
 62
     2
  6
CONTINUOUS
370
    -3
390
B7B
  0
LAYER
  5
28
102
{ACAD_XDICTIONARY
360
CBE
102
}
330
2
100
AcDbSymbolTableRecord
100
AcDbLayerTableRecord
  2
3
 70
     0
 62
     3
  6
CONTINUOUS
370
    -3
390
B7B
  0
LAYER
  5
29
102
{ACAD_XDICTIONARY
360
CC0
102
}
330
2
100
AcDbSymbolTableRecord
100
AcDbLayerTableRecord
  2
4
 70
     0
 62
     4
  6
CONTINUOUS
370
    -3
390
B7B
  0
LAYER
  5
2A
330
2
100
AcDbSymbolTableRecord
100
AcDbLayerTableRecord
  2
DEFPOINTS
 70
     0
 62
     7
  6
CONTINUOUS
290
     0
370
    -3
390
B7B
  0
ENDTAB
  0
TABLE
  2
STYLE
  5
3
330
0
100
AcDbSymbolTable
 70
     4
  0
STYLE
  5
F
330
3
100
AcDbSymbolTableRecord
100
AcDbTextStyleTableRecord
  2
STANDARD
 70
     0
 40
0.0
 41
1.0
 50
0.0
 71
     0
 42
0.2
  3
txt
  4

  0
STYLE
  5
20
330
3
100
AcDbSymbolTableRecord
100
AcDbTextStyleTableRecord
  2
SIMPLEX
 70
     0
 40
0.0
 41
1.0
 50
0.0
 71
     0
 42
0.078
  3
SIMPLEX
  4

  0
STYLE
  5
21
330
3
100
AcDbSymbolTableRecord
100
AcDbTextStyleTableRecord
  2
ROMANS
 70
     0
 40
0.0
 41
1.0
 50
0.0
 71
     0
 42
0.125
  3
romans
  4

  0
STYLE
  5
23
330
3
100
AcDbSymbolTableRecord
100
AcDbTextStyleTableRecord
  2
T
 70
     0
 40
0.0
 41
1.0
 50
0.0
 71
     0
 42
1.0
  3
ROMI____.PFB
  4

  0
ENDTAB
  0
TABLE
  2
VIEW
  5
6
330
0
100
AcDbSymbolTable
 70
     0
  0
ENDTAB
  0
TABLE
  2
UCS
  5
7
330
0
100
AcDbSymbolTable
 70
     0
  0
ENDTAB
  0
TABLE
  2
APPID
  5
9
330
0
100
AcDbSymbolTable
 70
     5
  0
APPID
  5
10
330
9
100
AcDbSymbolTableRecord
100
AcDbRegAppTableRecord
  2
ACAD
 70
     0
  0
APPID
  5
C91
330
9
100
AcDbSymbolTableRecord
100
AcDbRegAppTableRecord
  2
ACAD_DSTYLE_DIMRADIAL_EXTENSION
 70
     0
  0
APPID
  5
CA2
330
9
100
AcDbSymbolTableRecord
100
AcDbRegAppTableRecord
  2
ACAD_EXEMPT_FROM_CAD_STANDARDS
 70
     0
  0
APPID
  5
CCB
330
9
100
AcDbSymbolTableRecord
100
AcDbRegAppTableRecord
  2
ACAD_NAV_VCDISPLAY
 70
     0
  0
APPID
  5
D7F
330
9
100
AcDbSymbolTableRecord
100
AcDbRegAppTableRecord
  2
ACAD_MLEADERVER
 70
     0
  0
ENDTAB
  0
TABLE
  2
DIMSTYLE
  5
A
330
0
100
AcDbSymbolTable
 70
     1
100
AcDbDimStyleTable
 71
     1
340
B68
  0
DIMSTYLE
105
B68
102
{ACAD_REACTORS
330
C79
330
C92
330
CAA
102
}
330
A
100
AcDbSymbolTableRecord
100
AcDbDimStyleTableRecord
  2
STANDARD
 70
     0
340
F
  0
ENDTAB
  0
TABLE
  2
BLOCK_RECORD
  5
1
330
0
100
AcDbSymbolTable
 70
     6
  0
BLOCK_RECORD
  5
17
330
1
100
AcDbSymbolTableRecord
100
AcDbBlockTableRecord
  2
*MODEL_SPACE
340
B7E
  0
BLOCK_RECORD
  5
14
330
1
100
AcDbSymbolTableRecord
100
AcDbBlockTableRecord
  2
*PAPER_SPACE
340
B7F
  0
BLOCK_RECORD
  5
1E
330
1
100
AcDbSymbolTableRecord
100
AcDbBlockTableRecord
  2
*D0
340
0
  0
BLOCK_RECORD
  5
B94
330
1
100
AcDbSymbolTableRecord
100
AcDbBlockTableRecord
  2
*D1
340
0
  0
BLOCK_RECORD
  5
BD3
330
1
100
AcDbSymbolTableRecord
100
AcDbBlockTableRecord
  2
*D2
340
0
  0
BLOCK_RECORD
  5
C7A
330
1
100
AcDbSymbolTableRecord
100
AcDbBlockTableRecord
  2
*D3
340
0
  0
BLOCK_RECORD
  5
C93
330
1
100
AcDbSymbolTableRecord
100
AcDbBlockTableRecord
  2
*D4
340
0
  0
BLOCK_RECORD
  5
CAB
330
1
100
AcDbSymbolTableRecord
100
AcDbBlockTableRecord
  2
*D5
340
0
  0
ENDTAB
  0
ENDSEC
  0
SECTION
  2
BLOCKS
  0
BLOCK
  5
2D
330
17
100
AcDbEntity
  8
0
100
AcDbBlockBegin
  2
*MODEL_SPACE
 70
     0
 10
0.0
 20
0.0
 30
0.0
  3
*MODEL_SPACE
  1

  0
ENDBLK
  5
2E
330
17
100
AcDbEntity
  8
0
100
AcDbBlockEnd
  0
BLOCK
  5
2B
330
14
100
AcDbEntity
 67
     1
  8
0
100
AcDbBlockBegin
  2
*PAPER_SPACE
 70
     0
 10
0.0
 20
0.0
 30
0.0
  3
*PAPER_SPACE
  1

  0
ENDBLK
  5
2C
330
14
100
AcDbEntity
 67
     1
  8
0
100
AcDbBlockEnd
  0
BLOCK
  5
3E
330
1E
100
AcDbEntity
  8
0
100
AcDbBlockBegin
  2
*D0
 70
     1
 10
0.0
 20
0.0
 30
0.0
  3
*D0
  1

  0
LINE
  5
3F
330
1E
100
AcDbEntity
  8
0
  6
ByBlock
 62
     0
100
AcDbLine
 10
2.132523646681182
 20
2.680050827892989
 30
0.0
 11
2.132523646681182
 21
3.207057924926878
 31
0.0
  0
LINE
  5
40
330
1E
100
AcDbEntity
  8
0
  6
ByBlock
 62
     0
100
AcDbLine
 10
2.428523646681183
 20
2.680050827892989
 30
0.0
 11
2.428523646681183
 21
3.207057924926878
 31
0.0
  0
LINE
  5
41
330
1E
100
AcDbEntity
  8
0
  6
ByBlock
 62
     0
100
AcDbLine
 10
2.070023646681182
 20
3.175557924926878
 30
0.0
 11
2.007523646681182
 21
3.175557924926878
 31
0.0
  0
LINE
  5
42
330
1E
100
AcDbEntity
  8
0
  6
ByBlock
 62
     0
100
AcDbLine
 10
2.491023646681183
 20
3.175557924926878
 30
0.0
 11
2.553523646681183
 21
3.175557924926878
 31
0.0
  0
SOLID
  5
43
330
1E
100
AcDbEntity
  8
0
  6
ByBlock
 62
     0
100
AcDbTrace
 10
2.070023646681182
 20
3.185974591593545
 30
0.0
 11
2.070023646681182
 21
3.165141258260212
 31
0.0
 12
2.132523646681182
 22
3.175557924926878
 32
0.0
 13
2.132523646681182
 23
3.175557924926878
 33
0.0
  0
SOLID
  5
44
330
1E
100
AcDbEntity
  8
0
  6
ByBlock
 62
     0
100
AcDbTrace
 10
2.491023646681183
 20
3.185974591593545
 30
0.0
 11
2.491023646681183
 21
3.165141258260212
 31
0.0
 12
2.428523646681183
 22
3.175557924926878
 32
0.0
 13
2.428523646681183
 23
3.175557924926878
 33
0.0
  0
TEXT
  5
45
330
1E
100
AcDbEntity
  8
0
  6
ByBlock
 62
     0
100
AcDbText
 10
2.174868884776421
 20
3.144307924926878
 30
0.0
 40
0.0625
  1
.296
  7
ROMANS
 72
     1
 11
2.280523646681182
 21
3.175557924926878
 31
0.0
100
AcDbText
 73
     2
  0
POINT
  5
46
330
1E
100
AcDbEntity
  8
DEFPOINTS
  6
ByBlock
 62
     0
100
AcDbPoint
 10
2.132523646681182
 20
2.648550827892989
 30
0.0
  0
POINT
  5
47
330
1E
100
AcDbEntity
  8
DEFPOINTS
  6
ByBlock
 62
     0
100
AcDbPoint
 10
2.428523646681183
 20
2.648550827892989
 30
0.0
  0
POINT
  5
48
330
1E
100
AcDbEntity
  8
DEFPOINTS
  6
ByBlock
 62
     0
100
AcDbPoint
 10
2.428523646681183
 20
3.175557924926878
 30
0.0
  0
ENDBLK
  5
49
330
1E
100
AcDbEntity
  8
0
100
AcDbBlockEnd
  0
BLOCK
  5
B9F
330
B94
100
AcDbEntity
  8
0
100
AcDbBlockBegin
  2
*D1
 70
     1
 10
0.0
 20
0.0
 30
0.0
  3
*D1
  1

  0
LINE
  5
C08
330
B94
100
AcDbEntity
  8
3
 62
     0
370
    -2
100
AcDbLine
 10
3.535329661531083
 20
2.957550827892988
 30
0.0
 11
3.535329661531083
 21
3.181074850407096
 31
0.0
  0
LINE
  5
C09
330
B94
100
AcDbEntity
  8
3
 62
     0
370
    -2
100
AcDbLine
 10
3.560329661531083
 20
2.957550827892988
 30
0.0
 11
3.560329661531083
 21
3.181074850407096
 31
0.0
  0
LINE
  5
C0A
330
B94
100
AcDbEntity
  8
3
 62
     0
370
    -2
100
AcDbLine
 10
3.472829661531083
 20
3.149574850407096
 30
0.0
 11
3.410329661531083
 21
3.149574850407096
 31
0.0
  0
LINE
  5
C0B
330
B94
100
AcDbEntity
  8
3
 62
     0
370
    -2
100
AcDbLine
 10
3.622829661531083
 20
3.149574850407096
 30
0.0
 11
3.685329661531083
 21
3.149574850407096
 31
0.0
  0
MTEXT
  5
C0C
330
B94
100
AcDbEntity
  8
3
 62
     0
100
AcDbMText
 10
3.94578879268228
 20
3.155560441205602
 30
0.0
 40
0.0625
 41
0.0
 71
     5
 72
     1
  1
\A1;.025{\H0.8x;±.002}
  7
ROMANS
 73
     1
 44
1.0
1001
ACAD
1000
MTEXTBEGIN
1070
    73
1070
     1
1070
    44
1040
1.0
1070
    74
1070
     0
1000
MTEXTEND
  0
SOLID
  5
C0D
330
B94
100
AcDbEntity
  8
3
 62
     0
100
AcDbTrace
 10
3.472829661531083
 20
3.159991517073763
 30
0.0
 11
3.472829661531083
 21
3.13915818374043
 31
0.0
 12
3.535329661531083
 22
3.149574850407096
 32
0.0
 13
3.535329661531083
 23
3.149574850407096
 33
0.0
  0
SOLID
  5
C0E
330
B94
100
AcDbEntity
  8
3
 62
     0
100
AcDbTrace
 10
3.622829661531083
 20
3.159991517073763
 30
0.0
 11
3.622829661531083
 21
3.13915818374043
 31
0.0
 12
3.560329661531083
 22
3.149574850407096
 32
0.0
 13
3.560329661531083
 23
3.149574850407096
 33
0.0
  0
POINT
  5
C0F
330
B94
100
AcDbEntity
  8
DEFPOINTS
 62
     0
100
AcDbPoint
 10
3.535329661531083
 20
2.926050827892988
 30
0.0
  0
POINT
  5
C10
330
B94
100
AcDbEntity
  8
DEFPOINTS
 62
     0
100
AcDbPoint
 10
3.560329661531083
 20
2.926050827892988
 30
0.0
  0
POINT
  5
C11
330
B94
100
AcDbEntity
  8
DEFPOINTS
 62
     0
100
AcDbPoint
 10
3.560329661531083
 20
3.149574850407096
 30
0.0
  0
ENDBLK
  5
BA0
330
B94
100
AcDbEntity
  8
0
100
AcDbBlockEnd
  0
BLOCK
  5
BDE
330
BD3
100
AcDbEntity
  8
0
100
AcDbBlockBegin
  2
*D2
 70
     1
 10
0.0
 20
0.0
 30
0.0
  3
*D2
  1

  0
LINE
  5
BFE
330
BD3
100
AcDbEntity
  8
3
 62
     0
370
    -2
100
AcDbLine
 10
2.003023646681183
 20
2.680050827892989
 30
0.0
 11
2.003023646681183
 21
3.459948048258596
 31
0.0
  0
LINE
  5
BFF
330
BD3
100
AcDbEntity
  8
3
 62
     0
370
    -2
100
AcDbLine
 10
2.558023646681182
 20
2.680050827892989
 30
0.0
 11
2.558023646681182
 21
3.459948048258596
 31
0.0
  0
LINE
  5
C00
330
BD3
100
AcDbEntity
  8
3
 62
     0
370
    -2
100
AcDbLine
 10
1.940523646681183
 20
3.428448048258596
 30
0.0
 11
1.878023646681183
 21
3.428448048258596
 31
0.0
  0
LINE
  5
C01
330
BD3
100
AcDbEntity
  8
3
 62
     0
370
    -2
100
AcDbLine
 10
2.620523646681182
 20
3.428448048258596
 30
0.0
 11
2.683023646681182
 21
3.428448048258596
 31
0.0
  0
SOLID
  5
C02
330
BD3
100
AcDbEntity
  8
3
 62
     0
100
AcDbTrace
 10
1.940523646681183
 20
3.438864714925263
 30
0.0
 11
1.940523646681183
 21
3.41803138159193
 31
0.0
 12
2.003023646681183
 22
3.428448048258596
 32
0.0
 13
2.003023646681183
 23
3.428448048258596
 33
0.0
  0
SOLID
  5
C03
330
BD3
100
AcDbEntity
  8
3
 62
     0
100
AcDbTrace
 10
2.620523646681182
 20
3.438864714925263
 30
0.0
 11
2.620523646681182
 21
3.41803138159193
 31
0.0
 12
2.558023646681182
 22
3.428448048258596
 32
0.0
 13
2.558023646681182
 23
3.428448048258596
 33
0.0
  0
MTEXT
  5
C04
330
BD3
100
AcDbEntity
  8
3
 62
     0
100
AcDbMText
 10
2.280523646681182
 20
3.428448048258596
 30
0.0
 40
0.0625
 41
0.0
 71
     5
 72
     1
  1
\A1;.555{\H0.8x;±.003}
  7
ROMANS
 73
     1
 44
1.0
1001
ACAD
1000
MTEXTBEGIN
1070
    73
1070
     1
1070
    44
1040
1.0
1070
    74
1070
     0
1000
MTEXTEND
  0
POINT
  5
C05
330
BD3
100
AcDbEntity
  8
DEFPOINTS
 62
     0
100
AcDbPoint
 10
2.003023646681183
 20
2.648550827892989
 30
0.0
  0
POINT
  5
C06
330
BD3
100
AcDbEntity
  8
DEFPOINTS
 62
     0
100
AcDbPoint
 10
2.558023646681182
 20
2.648550827892989
 30
0.0
  0
POINT
  5
C07
330
BD3
100
AcDbEntity
  8
DEFPOINTS
 62
     0
100
AcDbPoint
 10
2.558023646681182
 20
3.428448048258596
 30
0.0
  0
ENDBLK
  5
BDF
330
BD3
100
AcDbEntity
  8
0
100
AcDbBlockEnd
  0
BLOCK
  5
C7B
330
C7A
100
AcDbEntity
  8
0
100
AcDbBlockBegin
  2
*D3
 70
     1
 10
0.0
 20
0.0
 30
0.0
  3
*D3
  1

  0
LINE
  5
C87
330
C7A
100
AcDbEntity
  8
3
 62
     0
370
    -2
100
AcDbLine
 10
3.535329661531083
 20
2.957550827892988
 30
0.0
 11
3.535329661531083
 21
3.184866472608403
 31
0.0
  0
LINE
  5
C88
330
C7A
100
AcDbEntity
  8
3
 62
     0
370
    -2
100
AcDbLine
 10
3.560329661531083
 20
2.957550827892988
 30
0.0
 11
3.560329661531083
 21
3.184866472608403
 31
0.0
  0
LINE
  5
C89
330
C7A
100
AcDbEntity
  8
3
 62
     0
370
    -2
100
AcDbLine
 10
3.472829661531083
 20
3.153366472608403
 30
0.0
 11
3.410329661531083
 21
3.153366472608403
 31
0.0
  0
LINE
  5
C8A
330
C7A
100
AcDbEntity
  8
3
 62
     0
370
    -2
100
AcDbLine
 10
3.622829661531083
 20
3.153366472608403
 30
0.0
 11
3.685329661531083
 21
3.153366472608403
 31
0.0
  0
MTEXT
  5
C8B
330
C7A
100
AcDbEntity
  8
3
 62
     0
100
AcDbMText
 10
3.762951971058639
 20
3.153366472608403
 30
0.0
 40
0.0625
 41
0.0
 71
     5
 72
     1
  1
\A1;.025
  7
ROMANS
 73
     1
 44
1.0
1001
ACAD
1000
MTEXTBEGIN
1070
    73
1070
     1
1070
    44
1040
1.0
1070
    74
1070
     0
1000
MTEXTEND
  0
SOLID
  5
C8C
330
C7A
100
AcDbEntity
  8
3
 62
     0
100
AcDbTrace
 10
3.472829661531083
 20
3.163783139275069
 30
0.0
 11
3.472829661531083
 21
3.142949805941736
 31
0.0
 12
3.535329661531083
 22
3.153366472608403
 32
0.0
 13
3.535329661531083
 23
3.153366472608403
 33
0.0
  0
SOLID
  5
C8D
330
C7A
100
AcDbEntity
  8
3
 62
     0
100
AcDbTrace
 10
3.622829661531083
 20
3.163783139275069
 30
0.0
 11
3.622829661531083
 21
3.142949805941736
 31
0.0
 12
3.560329661531083
 22
3.153366472608403
 32
0.0
 13
3.560329661531083
 23
3.153366472608403
 33
0.0
  0
POINT
  5
C8E
330
C7A
100
AcDbEntity
  8
DEFPOINTS
 62
     0
100
AcDbPoint
 10
3.535329661531083
 20
2.926050827892988
 30
0.0
  0
POINT
  5
C8F
330
C7A
100
AcDbEntity
  8
DEFPOINTS
 62
     0
100
AcDbPoint
 10
3.560329661531083
 20
2.926050827892988
 30
0.0
  0
POINT
  5
C90
330
C7A
100
AcDbEntity
  8
DEFPOINTS
 62
     0
100
AcDbPoint
 10
3.560329661531083
 20
3.153366472608403
 30
0.0
  0
ENDBLK
  5
C7C
330
C7A
100
AcDbEntity
  8
0
100
AcDbBlockEnd
  0
BLOCK
  5
C94
330
C93
100
AcDbEntity
  8
0
100
AcDbBlockBegin
  2
*D4
 70
     1
 10
0.0
 20
0.0
 30
0.0
  3
*D4
  1

  0
LINE
  5
C96
330
C93
100
AcDbEntity
  8
3
 62
     0
370
    -2
100
AcDbLine
 10
2.031743826508051
 20
3.005350601710555
 30
0.0
 11
2.094243826508051
 21
3.005350601710555
 31
0.0
  0
LINE
  5
C97
330
C93
100
AcDbEntity
  8
3
 62
     0
370
    -2
100
AcDbLine
 10
2.094243826508051
 20
3.005350601710555
 30
0.0
 11
2.123169264423134
 21
2.949946910123975
 31
0.0
  0
MTEXT
  5
C98
102
{ACAD_XDICTIONARY
360
D84
102
}
330
C93
100
AcDbEntity
  8
3
 62
     0
100
AcDbMText
 10
1.863231921746148
 20
3.005350601710555
 30
0.0
 40
0.0625
 41
0.0
 71
     5
 72
     1
  1
\A1;\U+2205.555
  7
ROMANS
 73
     1
 44
1.0
1001
ACAD
1000
MTEXTBEGIN
1070
    73
1070
     1
1070
    44
1040
1.0
1070
    74
1070
     0
1000
MTEXTEND
  0
SOLID
  5
C99
330
C93
100
AcDbEntity
  8
3
 62
     0
100
AcDbTrace
 10
2.132403213020898
 20
2.954767816443156
 30
0.0
 11
2.113935315825371
 21
2.945126003804796
 31
0.0
 12
2.152094702338216
 22
2.894543218537398
 32
0.0
 13
2.152094702338216
 23
2.894543218537398
 33
0.0
  0
LINE
  5
C9A
330
C93
100
AcDbEntity
  8
3
 62
     0
370
    -2
100
AcDbLine
 10
2.218023646681182
 20
2.648550827892989
 30
0.0
 11
2.343023646681182
 21
2.648550827892989
 31
0.0
  0
LINE
  5
C9B
330
C93
100
AcDbEntity
  8
3
 62
     0
370
    -2
100
AcDbLine
 10
2.280523646681182
 20
2.586050827892989
 30
0.0
 11
2.280523646681182
 21
2.711050827892989
 31
0.0
  0
LINE
  5
C9C
330
C93
100
AcDbEntity
  8
3
 62
     0
370
    -2
100
AcDbLine
 10
2.155523646681184
 20
2.648550827892989
 30
0.0
 11
1.940523646681183
 21
2.648550827892989
 31
0.0
  0
LINE
  5
C9D
330
C93
100
AcDbEntity
  8
3
 62
     0
370
    -2
100
AcDbLine
 10
2.405523646681182
 20
2.648550827892989
 30
0.0
 11
2.620523646681182
 21
2.648550827892989
 31
0.0
  0
LINE
  5
C9E
330
C93
100
AcDbEntity
  8
3
 62
     0
370
    -2
100
AcDbLine
 10
2.280523646681182
 20
2.523550827892989
 30
0.0
 11
2.280523646681182
 21
2.30855082789299
 31
0.0
  0
LINE
  5
C9F
330
C93
100
AcDbEntity
  8
3
 62
     0
370
    -2
100
AcDbLine
 10
2.280523646681182
 20
2.773550827892989
 30
0.0
 11
2.280523646681182
 21
2.98855082789299
 31
0.0
  0
POINT
  5
CA0
330
C93
100
AcDbEntity
  8
DEFPOINTS
 62
     0
100
AcDbPoint
 10
2.152094702338216
 20
2.894543218537398
 30
0.0
  0
POINT
  5
CA1
330
C93
100
AcDbEntity
  8
DEFPOINTS
 62
     0
100
AcDbPoint
 10
2.408952591024148
 20
2.40255843724858
 30
0.0
  0
ENDBLK
  5
C95
330
C93
100
AcDbEntity
  8
0
100
AcDbBlockEnd
  0
BLOCK
  5
CAC
330
CAB
100
AcDbEntity
  8
0
100
AcDbBlockBegin
  2
*D5
 70
     1
 10
0.0
 20
0.0
 30
0.0
  3
*D5
  1

  0
LINE
  5
CAE
330
CAB
100
AcDbEntity
  8
3
 62
     0
370
    -2
100
AcDbLine
 10
2.043527869231624
 20
2.438597919715289
 30
0.0
 11
2.106027869231624
 21
2.438597919715289
 31
0.0
  0
LINE
  5
CAF
330
CAB
100
AcDbEntity
  8
3
 62
     0
370
    -2
100
AcDbLine
 10
2.106027869231624
 20
2.438597919715289
 30
0.0
 11
2.145976536230149
 21
2.486664061697363
 31
0.0
  0
MTEXT
  5
CB0
102
{ACAD_XDICTIONARY
360
D86
102
}
330
CAB
100
AcDbEntity
  8
3
 62
     0
100
AcDbMText
 10
1.875015964469719
 20
2.438597919715289
 30
0.0
 40
0.0625
 41
0.0
 71
     5
 72
     1
  1
\A1;\U+2205.296
  7
ROMANS
 73
     1
 44
1.0
1001
ACAD
1000
MTEXTBEGIN
1070
    73
1070
     1
1070
    44
1040
1.0
1070
    74
1070
     0
1000
MTEXTEND
  0
SOLID
  5
CB1
330
CAB
100
AcDbEntity
  8
3
 62
     0
100
AcDbTrace
 10
2.13796551256647
 20
2.493322172863784
 30
0.0
 11
2.153987559893829
 21
2.480005950530943
 31
0.0
 12
2.185925203228675
 22
2.534730203679437
 32
0.0
 13
2.185925203228675
 23
2.534730203679437
 33
0.0
  0
LINE
  5
CB2
330
CAB
100
AcDbEntity
  8
3
 62
     0
370
    -2
100
AcDbLine
 10
2.218023646681182
 20
2.648550827892989
 30
0.0
 11
2.343023646681182
 21
2.648550827892989
 31
0.0
  0
LINE
  5
CB3
330
CAB
100
AcDbEntity
  8
3
 62
     0
370
    -2
100
AcDbLine
 10
2.280523646681184
 20
2.586050827892989
 30
0.0
 11
2.280523646681184
 21
2.711050827892989
 31
0.0
  0
LINE
  5
CB4
330
CAB
100
AcDbEntity
  8
3
 62
     0
370
    -2
100
AcDbLine
 10
2.155523646681182
 20
2.648550827892989
 30
0.0
 11
2.070023646681184
 21
2.648550827892989
 31
0.0
  0
LINE
  5
CB5
330
CAB
100
AcDbEntity
  8
3
 62
     0
370
    -2
100
AcDbLine
 10
2.405523646681182
 20
2.648550827892989
 30
0.0
 11
2.491023646681183
 21
2.648550827892989
 31
0.0
  0
LINE
  5
CB6
330
CAB
100
AcDbEntity
  8
3
 62
     0
370
    -2
100
AcDbLine
 10
2.280523646681184
 20
2.523550827892989
 30
0.0
 11
2.280523646681182
 21
2.43805082789299
 31
0.0
  0
LINE
  5
CB7
330
CAB
100
AcDbEntity
  8
3
 62
     0
370
    -2
100
AcDbLine
 10
2.280523646681184
 20
2.773550827892989
 30
0.0
 11
2.280523646681184
 21
2.859050827892988
 31
0.0
  0
POINT
  5
CB8
330
CAB
100
AcDbEntity
  8
DEFPOINTS
 62
     0
100
AcDbPoint
 10
2.185925203228675
 20
2.534730203679437
 30
0.0
  0
POINT
  5
CB9
330
CAB
100
AcDbEntity
  8
DEFPOINTS
 62
     0
100
AcDbPoint
 10
2.375122090133692
 20
2.762371452106541
 30
0.0
  0
ENDBLK
  5
CAD
330
CAB
100
AcDbEntity
  8
0
100
AcDbBlockEnd
  0
ENDSEC
  0
SECTION
  2
ENTITIES
  0
LINE
  5
56
330
17
100
AcDbEntity
  8
0
100
AcDbLine
 10
2.515463770247667
 20
0.8608645324179452
 30
0.0
 11
3.023453708637739
 21
0.8608645324179452
 31
0.0
  0
LINE
  5
57
330
17
100
AcDbEntity
  8
0
100
AcDbLine
 10
2.515463770247667
 20
0.91947875607833
 30
0.0
 11
3.023453708637739
 21
0.91947875607833
 31
0.0
  0
TEXT
  5
58
330
17
100
AcDbEntity
  8
3
100
AcDbText
 10
2.530749094796046
 20
0.8786084220910721
 30
0.0
 40
0.0247685554963471
  1
DIMENSIONS ARE IN INCHES
 41
0.9163641132346473
  7
SIMPLEX
 72
     5
 11
3.007386418059825
 21
0.8786084220910721
 31
0.0
100
AcDbText
  0
TEXT
  5
5A
330
17
100
AcDbEntity
  8
3
100
AcDbText
 10
2.530749094796046
 20
0.9387253969726568
 30
0.0
 40
0.0247685554963471
  1
UNLESS OTHERWISE SPECIFIED
 41
0.8436671689696865
  7
SIMPLEX
 72
     5
 11
3.007386418059825
 21
0.9387253969726568
 31
0.0
100
AcDbText
  0
LINE
  5
5B
330
17
100
AcDbEntity
  8
0
100
AcDbLine
 10
2.515463770247667
 20
0.5404682558269225
 30
0.0
 11
3.023453708637739
 21
0.5404682558269225
 31
0.0
  0
LINE
  5
5C
330
17
100
AcDbEntity
  8
0
100
AcDbLine
 10
2.515463770247667
 20
0.9781033913486636
 30
0.0
 11
5.087499999999998
 21
0.9781033913486636
 31
0.0
  0
LINE
  5
5E
330
17
100
AcDbEntity
  8
4
100
AcDbLine
 10
5.525
 20
0.0701030413486847
 30
0.0
 11
0.0
 21
0.0701030413486854
 31
0.0
  0
LINE
  5
5F
330
17
100
AcDbEntity
  8
4
100
AcDbLine
 10
5.087499999999998
 20
0.4701030413486848
 30
0.0
 11
0.4375000000000001
 21
0.4701030413486854
 31
0.0
  0
LINE
  5
60
330
17
100
AcDbEntity
  8
4
100
AcDbLine
 10
5.087499999999998
 20
3.920103041348685
 30
0.0
 11
0.4375000000000001
 21
3.920103041348685
 31
0.0
  0
LINE
  5
61
330
17
100
AcDbEntity
  8
4
100
AcDbLine
 10
0.0
 20
0.0701030413486854
 30
0.0
 11
0.0000000000000001
 21
4.320103041348684
 31
0.0
  0
LINE
  5
62
330
17
100
AcDbEntity
  8
4
100
AcDbLine
 10
0.4375000000000001
 20
0.4701030413486853
 30
0.0
 11
0.4375000000000001
 21
3.920103041348685
 31
0.0
  0
TEXT
  5
66
330
17
100
AcDbEntity
  8
2
100
AcDbText
 10
0.451562683102331
 20
1.397357557156196
 30
0.0
 40
0.039
  1
4
  7
SIMPLEX
 72
     1
 11
0.4654912545309024
 21
1.397357557156196
 31
0.0
100
AcDbText
  0
LINE
  5
67
330
17
100
AcDbEntity
  8
3
100
AcDbLine
 10
0.4997541236310516
 20
1.772056166348685
 30
0.0
 11
0.4375000000000001
 21
1.772056166348685
 31
0.0
  0
TEXT
  5
68
330
17
100
AcDbEntity
  8
2
100
AcDbText
 10
0.4524912545309016
 20
2.085390157235468
 30
0.0
 40
0.039
  1
3
  7
SIMPLEX
 72
     1
 11
0.4654912545309016
 21
2.085390157235468
 31
0.0
100
AcDbText
  0
TEXT
  5
74
330
17
100
AcDbEntity
  8
3
100
AcDbText
 10
2.603645037256163
 20
0.5538933485356106
 30
0.0
 40
0.0309098445084086
  1
HOLES %%P .005
  7
SIMPLEX
 72
     1
 11
2.771441336016095
 21
0.5538933485356106
 31
0.0
100
AcDbText
  0
TEXT
  5
75
330
17
100
AcDbEntity
  8
3
100
AcDbText
 10
2.648975444724134
 20
0.5091105456355698
 30
0.0
 40
0.0210186942657178
  1
DO NOT SCALE
  7
SIMPLEX
 72
     1
 11
2.767080488693406
 21
0.5091105456355698
 31
0.0
100
AcDbText
  0
TEXT
  5
76
330
17
100
AcDbEntity
  8
3
100
AcDbText
 10
2.630959421067805
 20
0.4791641033225308
 30
0.0
 40
0.0210186942657178
  1
READ ALL NOTES
  7
SIMPLEX
 72
     1
 11
2.767080488693406
 21
0.4791641033225308
 31
0.0
100
AcDbText
  0
TEXT
  5
77
330
17
100
AcDbEntity
  8
3
100
AcDbText
 10
2.627931343655627
 20
0.813876640976597
 30
0.0
 40
0.0309098445084086
  1
TOLERANCES
  7
SIMPLEX
 72
     1
 11
2.771441336016095
 21
0.813876640976597
 31
0.0
100
AcDbText
  0
TEXT
  5
78
330
17
100
AcDbEntity
  8
3
100
AcDbText
 10
2.643386265909831
 20
0.7658465680218503
 30
0.0
 40
0.0309098445084086
  1
.XX %%P .010
  7
SIMPLEX
 72
     1
 11
2.771441336016095
 21
0.7658465680218503
 31
0.0
100
AcDbText
  0
TEXT
  5
79
330
17
100
AcDbEntity
  8
3
100
AcDbText
 10
2.607324780650021
 20
0.7128582631502849
 30
0.0
 40
0.0309098445084086
  1
.XXX %%P .005 
  7
SIMPLEX
 72
     1
 11
2.771441336016095
 21
0.7128582631502849
 31
0.0
100
AcDbText
  0
TEXT
  5
7A
330
17
100
AcDbEntity
  8
3
100
AcDbText
 10
2.589662012359501
 20
0.6068816534071755
 30
0.0
 40
0.0309098445084086
  1
ANGLES %%P 1/2%%D
  7
SIMPLEX
 72
     1
 11
2.771441336016095
 21
0.6068816534071755
 31
0.0
100
AcDbText
  0
TEXT
  5
7B
330
17
100
AcDbEntity
  8
3
100
AcDbText
 10
2.544769142954432
 20
0.659869958278741
 30
0.0
 40
0.0309098445084086
  1
FRACTIONS %%P 1/32
  7
SIMPLEX
 72
     1
 11
2.771441336016095
 21
0.659869958278741
 31
0.0
100
AcDbText
  0
LINE
  5
7E
330
17
100
AcDbEntity
  8
3
100
AcDbLine
 10
0.4997541236310516
 20
2.488071791348684
 30
0.0
 11
0.4375000000000001
 21
2.488071791348684
 31
0.0
  0
TEXT
  5
7F
330
17
100
AcDbEntity
  8
2
100
AcDbText
 10
0.457784802821876
 20
2.798863700636181
 30
0.0
 40
0.039
  1
2
  7
SIMPLEX
 72
     1
 11
0.470784802821876
 21
2.798863700636181
 31
0.0
100
AcDbText
  0
LINE
  5
80
330
17
100
AcDbEntity
  8
3
100
AcDbLine
 10
0.4997541236310516
 20
3.204087416348685
 30
0.0
 11
0.4375000000000001
 21
3.204087416348685
 31
0.0
  0
TEXT
  5
81
330
17
100
AcDbEntity
  8
2
100
AcDbText
 10
0.4608483973880454
 20
3.518143978331384
 30
0.0
 40
0.039
  1
1
  7
SIMPLEX
 72
     1
 11
0.4654912545309024
 21
3.518143978331384
 31
0.0
100
AcDbText
  0
TEXT
  5
82
330
17
100
AcDbEntity
  8
2
100
AcDbText
 10
0.9233020597463571
 20
3.85638255110889
 30
0.0
 40
0.039
  1
A
  7
SIMPLEX
 72
     1
 11
0.9381592026035001
 21
3.85638255110889
 31
0.0
100
AcDbText
  0
LINE
  5
83
330
17
100
AcDbEntity
  8
3
100
AcDbLine
 10
1.316009878505441
 20
3.857666153651726
 30
0.0
 11
1.316009878505441
 21
3.920103041348685
 31
0.0
  0
TEXT
  5
84
330
17
100
AcDbEntity
  8
2
100
AcDbText
 10
1.684820131100889
 20
3.85638255110889
 30
0.0
 40
0.039
  1
B
  7
SIMPLEX
 72
     1
 11
1.697820131100889
 21
3.85638255110889
 31
0.0
100
AcDbText
  0
LINE
  5
85
330
17
100
AcDbEntity
  8
3
100
AcDbLine
 10
2.070307902804351
 20
3.857666153651726
 30
0.0
 11
2.070307902804351
 21
3.920103041348685
 31
0.0
  0
TEXT
  5
86
330
17
100
AcDbEntity
  8
2
100
AcDbText
 10
2.421691742025896
 20
3.85638255110889
 30
0.0
 40
0.039
  1
C
  7
SIMPLEX
 72
     1
 11
2.435620313454468
 21
3.85638255110889
 31
0.0
100
AcDbText
  0
LINE
  5
87
330
17
100
AcDbEntity
  8
3
100
AcDbLine
 10
2.824605927103263
 20
3.857666153651726
 30
0.0
 11
2.824605927103263
 21
3.920103041348685
 31
0.0
  0
LINE
  5
88
330
17
100
AcDbEntity
  8
4
100
AcDbLine
 10
5.524999999999997
 20
4.320103041348684
 30
0.0
 11
5.525
 21
0.0701030413486847
 31
0.0
  0
LINE
  5
89
330
17
100
AcDbEntity
  8
4
100
AcDbLine
 10
5.087499999999998
 20
3.920103041348685
 30
0.0
 11
5.0875
 21
0.4701030413486857
 31
0.0
  0
TEXT
  5
8A
330
17
100
AcDbEntity
  8
3
100
AcDbText
 10
4.802472048449138
 20
0.648172763299951
 30
0.0
 40
0.0195380745534632
  1
SCALE:
  7
SIMPLEX
100
AcDbText
  0
TEXT
  5
8B
330
17
100
AcDbEntity
  8
3
100
AcDbText
 10
4.54097727324736
 20
0.4995792113159387
 30
0.0
 40
0.039
  1
5502.56
  7
SIMPLEX
 72
     1
 11
4.655191558961646
 21
0.4995792113159387
 31
0.0
100
AcDbText
  0
LINE
  5
8C
330
17
100
AcDbEntity
  8
0
100
AcDbLine
 10
4.386742347626951
 20
0.6145216095936214
 30
0.0
 11
5.0875
 21
0.6145216095936214
 31
0.0
  0
LINE
  5
8D
330
17
100
AcDbEntity
  8
0
100
AcDbLine
 10
3.023453708637718
 20
0.8235285650441298
 30
0.0
 11
5.0875
 21
0.8235285650441298
 31
0.0
  0
LINE
  5
8E
330
17
100
AcDbEntity
  8
0
100
AcDbLine
 10
3.023453708637718
 20
0.7045599359902242
 30
0.0
 11
5.0875
 21
0.7045599359902242
 31
0.0
  0
LINE
  5
8F
330
17
100
AcDbEntity
  8
0
100
AcDbLine
 10
3.023453708637739
 20
0.4701030413486635
 30
0.0
 11
3.023453708637739
 21
0.9780929797387148
 31
0.0
  0
LINE
  5
90
330
17
100
AcDbEntity
  8
0
100
AcDbLine
 10
3.023453708637739
 20
0.6375642719230587
 30
0.0
 11
4.386742347626951
 21
0.6375642719230587
 31
0.0
  0
TEXT
  5
91
330
17
100
AcDbEntity
  8
3
100
AcDbText
 10
3.043253008279623
 20
0.6631415730194341
 30
0.0
 40
0.0195380745534632
  1
FILE PATH
  7
SIMPLEX
100
AcDbText
  0
TEXT
  5
92
330
17
100
AcDbEntity
  8
3
100
AcDbText
 10
3.040137464097638
 20
0.5945973966260297
 30
0.0
 40
0.0195380745534632
  1
MAT'L DESCRIPTION:
  7
SIMPLEX
100
AcDbText
  0
TEXT
  5
93
330
17
100
AcDbEntity
  8
3
100
AcDbText
 10
3.044302834263338
 20
0.7827122342040847
 30
0.0
 40
0.0195380745534632
  1
NAME:
  7
SIMPLEX
100
AcDbText
  0
TEXT
  5
94
330
17
100
AcDbEntity
  8
3
100
AcDbText
 10
3.267955671526439
 20
0.5158914178131933
 30
0.0
 40
0.039
  1
MATERIAL: GASKET MATERIAL
  7
SIMPLEX
 72
     1
 11
3.705312814383582
 21
0.5158914178131933
 31
0.0
100
AcDbText
  0
TEXT
  5
95
330
17
100
AcDbEntity
  8
3
100
AcDbText
 10
3.45234899476847
 20
0.6564638919209065
 30
0.0
 40
0.0290726549355533
  1
DWG/PART NO/550256
  7
SIMPLEX
 72
     1
 11
3.707080828489508
 21
0.6564638919209065
 31
0.0
100
AcDbText
  0
TEXT
  5
96
330
17
100
AcDbEntity
  8
3
100
AcDbText
 10
4.40529491002648
 20
0.5778972693119733
 30
0.0
 40
0.0195380745534632
  1
PART/DWG. NO.
  7
SIMPLEX
100
AcDbText
  0
LINE
  5
97
330
17
100
AcDbEntity
  8
0
100
AcDbLine
 10
4.386742347626951
 20
0.4701030413486635
 30
0.0
 11
4.386742347626951
 21
0.7045599359902242
 31
0.0
  0
TEXT
  5
98
330
17
100
AcDbEntity
  8
3
100
AcDbText
 10
3.726255554152906
 20
0.7256776126927087
 30
0.0
 40
0.0390761491069264
  1
INSULATOR ARMATURE
  7
SIMPLEX
 72
     1
 11
4.055611668054143
 21
0.7256776126927087
 31
0.0
100
AcDbText
  0
TEXT
  5
99
330
17
100
AcDbEntity
  8
3
100
AcDbText
 10
4.616012085940513
 20
0.6509787524273567
 30
0.0
 40
0.0193817699570355
  1
OF
  7
SIMPLEX
100
AcDbText
  0
TEXT
  5
9A
330
17
100
AcDbEntity
  8
3
100
AcDbText
 10
4.415369994580626
 20
0.6511448020607192
 30
0.0
 40
0.0193817699570355
  1
SHEET
  7
SIMPLEX
100
AcDbText
  0
TEXT
  5
9B
330
17
100
AcDbEntity
  8
3
100
AcDbText
 10
4.547953593100948
 20
0.6404527136494706
 30
0.0
 40
0.0390761491069264
  1
1
  7
SIMPLEX
100
AcDbText
  0
TEXT
  5
9C
330
17
100
AcDbEntity
  8
3
100
AcDbText
 10
4.700213043047613
 20
0.6404527136494706
 30
0.0
 40
0.0390761491069264
  1
1
  7
SIMPLEX
100
AcDbText
  0
LINE
  5
9D
330
17
100
AcDbEntity
  8
0
100
AcDbLine
 10
4.750001827106558
 20
0.6145216095936214
 30
0.0
 11
4.750001827106558
 21
0.7045599359902242
 31
0.0
  0
LINE
  5
A3
330
17
100
AcDbEntity
  8
0
100
AcDbLine
 10
4.919877395704181
 20
0.4701030413486848
 30
0.0
 11
4.919877395704181
 21
0.6145216095936214
 31
0.0
  0
TEXT
  5
A4
330
17
100
AcDbEntity
  8
3
100
AcDbText
 10
4.994873350955526
 20
0.4995792113159387
 30
0.0
 40
0.039
  1
L
  7
SIMPLEX
 72
     1
 11
5.006016208098384
 21
0.4995792113159387
 31
0.0
100
AcDbText
  0
TEXT
  5
A5
330
17
100
AcDbEntity
  8
3
100
AcDbText
 10
4.978968976002731
 20
0.5777764595303521
 30
0.0
 40
0.0195380745534632
  1
REV.
  7
SIMPLEX
100
AcDbText
  0
TEXT
  5
A6
330
17
100
AcDbEntity
  8
3
100
AcDbText
 10
4.936077670549225
 20
0.644224067457759
 30
0.0
 40
0.039
  1
2=1
  7
SIMPLEX
 72
     1
 11
4.983434813406367
 21
0.644224067457759
 31
0.0
100
AcDbText
  0
TEXT
  5
A7
330
17
100
AcDbEntity
  8
2
100
AcDbText
 10
3.931940368805913
 20
3.85638255110889
 30
0.0
 40
0.039
  1
E
  7
SIMPLEX
 72
     1
 11
3.944011797377342
 21
3.85638255110889
 31
0.0
100
AcDbText
  0
TEXT
  5
A8
330
17
100
AcDbEntity
  8
2
100
AcDbText
 10
3.165885682344001
 20
3.85638255110889
 30
0.0
 40
0.039
  1
D
  7
SIMPLEX
 72
     1
 11
3.178885682344001
 21
3.85638255110889
 31
0.0
100
AcDbText
  0
LINE
  5
A9
330
17
100
AcDbEntity
  8
3
100
AcDbLine
 10
3.578903951402174
 20
3.857666153651726
 30
0.0
 11
3.578903951402174
 21
3.920103041348685
 31
0.0
  0
LINE
  5
AA
330
17
100
AcDbEntity
  8
3
100
AcDbLine
 10
4.333201975701086
 20
3.857666153651726
 30
0.0
 11
4.333201975701086
 21
3.920103041348685
 31
0.0
  0
TEXT
  5
AB
330
17
100
AcDbEntity
  8
2
100
AcDbText
 10
4.686136110767352
 20
3.85638255110889
 30
0.0
 40
0.039
  1
F
  7
SIMPLEX
 72
     1
 11
4.698207539338781
 21
3.85638255110889
 31
0.0
100
AcDbText
  0
LINE
  5
AC
330
17
100
AcDbEntity
  8
4
100
AcDbLine
 10
5.524999999999997
 20
4.320103041348684
 30
0.0
 11
0.0000000000000001
 21
4.320103041348684
 31
0.0
  0
LINE
  5
B2
330
17
100
AcDbEntity
  8
4
100
AcDbLine
 10
0.1403007185307621
 20
0.0701030413486854
 30
0.0
 11
0.0
 21
0.0701030413486854
 31
0.0
  0
LINE
  5
B3
330
17
100
AcDbEntity
  8
4
100
AcDbLine
 10
0.0
 20
0.0701030413486854
 30
0.0
 11
0.0
 21
0.1402060826973708
 31
0.0
  0
CIRCLE
  5
DB
330
17
100
AcDbEntity
  8
0
100
AcDbCircle
 10
2.280523646681182
 20
2.648550827892989
 30
0.0
 40
0.2775
  0
CIRCLE
  5
DC
330
17
100
AcDbEntity
  8
0
100
AcDbCircle
 10
2.280523646681182
 20
2.648550827892989
 30
0.0
 40
0.148
  0
LINE
  5
DD
330
17
100
AcDbEntity
  8
0
100
AcDbLine
 10
3.535329661531083
 20
2.926050827892988
 30
0.0
 11
3.560329661531083
 21
2.926050827892988
 31
0.0
  0
LINE
  5
DE
330
17
100
AcDbEntity
  8
0
100
AcDbLine
 10
3.535329661531083
 20
2.796550827892989
 30
0.0
 11
3.560329661531083
 21
2.796550827892989
 31
0.0
  0
LINE
  5
DF
330
17
100
AcDbEntity
  8
0
100
AcDbLine
 10
3.535329661531083
 20
2.50055082789299
 30
0.0
 11
3.560329661531083
 21
2.50055082789299
 31
0.0
  0
LINE
  5
E0
330
17
100
AcDbEntity
  8
0
100
AcDbLine
 10
3.535329661531083
 20
2.371050827892986
 30
0.0
 11
3.560329661531083
 21
2.371050827892986
 31
0.0
  0
LINE
  5
E1
330
17
100
AcDbEntity
  8
0
100
AcDbLine
 10
3.560329661531083
 20
2.371050827892986
 30
0.0
 11
3.560329661531083
 21
2.926050827892988
 31
0.0
  0
LINE
  5
E2
330
17
100
AcDbEntity
  8
0
100
AcDbLine
 10
3.535329661531083
 20
2.371050827892986
 30
0.0
 11
3.535329661531083
 21
2.926050827892988
 31
0.0
  0
LINE
  5
E3
330
17
100
AcDbEntity
  8
3
  6
CENTER
100
AcDbLine
 10
1.92686958095523
 20
2.648550827892989
 30
0.0
 11
2.634177712407134
 21
2.648550827892989
 31
0.0
  0
LINE
  5
E4
330
17
100
AcDbEntity
  8
3
  6
CENTER
100
AcDbLine
 10
2.280523646681182
 20
2.294896762167033
 30
0.0
 11
2.280523646681182
 21
3.002204893618941
 31
0.0
  0
LINE
  5
E5
330
17
100
AcDbEntity
  8
3
  6
CENTER
100
AcDbLine
 10
3.427174578103231
 20
2.648550827892989
 30
0.0
 11
3.658671300637081
 21
2.648550827892989
 31
0.0
  0
TEXT
  5
E6
330
17
100
AcDbEntity
  8
4
100
AcDbText
 10
4.692893459569394
 20
0.8587880053435693
 30
0.0
 40
0.05
  1
inc., erie, pa.
  7
T
100
AcDbText
  0
LWPOLYLINE
  5
E8
330
17
100
AcDbEntity
  8
4
  6
Continuous
 62
     4
100
AcDbPolyline
 90
      205
 70
     0
 43
0.0
 10
4.656789889684825
 20
0.925822624393634
 10
4.654837388665996
 20
0.927847440265006
 10
4.652740257942038
 20
0.929655311578745
 10
4.650353867807923
 20
0.9312462383348291
 10
4.647822847968675
 20
0.9326925353858239
 10
4.645147198424362
 20
0.9338495730266199
 10
4.64239923402746
 20
0.9347896661097614
 10
4.639506639925492
 20
0.935512814635248
 10
4.636541730970979
 20
0.9360190186031015
 10
4.6335045071639
 20
0.9362359631607567
 10
4.63046728335682
 20
0.9363082780133012
 10
4.627430059549743
 20
0.9361636483082119
 10
4.624392835742662
 20
0.9357297591929027
 10
4.621427926788126
 20
0.9350789255199604
 10
4.618535332686136
 20
0.934211147289363
 10
4.615787368289278
 20
0.9331264245011327
 10
4.613111718744923
 20
0.9318247571552266
 10
4.61108690287355
 20
0.9305954046618859
 10
4.609206716707268
 20
0.9292214224634566
 10
4.607398845393528
 20
0.9277751254124616
 10
4.60573560378488
 20
0.9261841986563775
 10
4.604144677028817
 20
0.9244486421951837
 10
4.602698379977799
 20
0.9225684560289007
 10
4.601324397779372
 20
0.9206882698626175
 10
4.600167360138575
 20
0.9186634539912246
 10
4.599082637350345
 20
0.9165663232672871
 10
4.598142544267203
 20
0.9143968776908048
 10
4.597419395741716
 20
0.9122274321143228
 10
4.596840876921318
 20
0.9099856716852963
 10
4.596406987806006
 20
0.9076715964037042
 10
4.596117728395808
 20
0.9053575211221334
 10
4.596045413543264
 20
0.9030434458405416
 10
4.596190043248376
 20
0.9007293705589706
 10
4.596262358100918
 20
0.8995000180656301
 10
4.596406987806006
 20
0.898342980424834
 10
4.596551617511098
 20
0.8971136279314935
 10
4.596840876921318
 20
0.8959565902906977
 10
4.597274766036605
 20
0.8948718675024458
 10
4.597780970004438
 20
0.8938594595667602
 10
4.59857643338249
 20
0.8930639961887077
 10
4.599516526465633
 20
0.8924854773683307
 10
4.599950415580941
 20
0.8922685328106759
 10
4.600384304696228
 20
0.8921239031055655
 10
4.600890508664083
 20
0.8921239031055655
 10
4.601324397779372
 20
0.8921239031055655
 10
4.601830601747224
 20
0.8921239031055655
 10
4.602336805715077
 20
0.8921962179581317
 10
4.602915324535476
 20
0.8923408476632204
 10
4.603566158208416
 20
0.8924131625157647
 10
4.625043669415605
 20
0.8961735348483522
 10
4.625983762498748
 20
0.8963181645534408
 10
4.626996170434431
 20
0.8963904794059851
 10
4.627936263517595
 20
0.8965351091110957
 10
4.628948671453259
 20
0.8965351091110957
 10
4.629888764536421
 20
0.8966074239636402
 10
4.630901172472108
 20
0.8966074239636402
 10
4.631841265555252
 20
0.8965351091110957
 10
4.632853673490958
 20
0.8964627942585508
 10
4.633793766574076
 20
0.8963904794059851
 10
4.634806174509785
 20
0.8962458497008967
 10
4.635746267592925
 20
0.8961012199957863
 10
4.636686360676065
 20
0.8958842754381528
 10
4.637626453759209
 20
0.8956673308804985
 10
4.63856654684235
 20
0.8954503863228438
 10
4.639506639925492
 20
0.8951611269126447
 10
4.640374418156089
 20
0.8947995526499013
 10
4.642543863732591
 20
0.8936425150091054
 10
4.644351735046309
 20
0.8920515882530214
 10
4.645653402392215
 20
0.8901714020867386
 10
4.646593495475335
 20
0.8880019565102568
 10
4.647099699443191
 20
0.8857601960812303
 10
4.647172014295735
 20
0.8833738059470935
 10
4.646882754885556
 20
0.880987415812957
 10
4.646159606360048
 20
0.8786010256788202
 10
4.64543645783454
 20
0.8770824137752807
 10
4.644640994456509
 20
0.8756361167242856
 10
4.643628586520803
 20
0.8743344493784006
 10
4.642543863732591
 20
0.8731050968850603
 10
4.641386826091798
 20
0.8719480592442643
 10
4.640085158745891
 20
0.8709356513085783
 10
4.638638861694896
 20
0.8700678730779809
 10
4.63719256464392
 20
0.8692724096999498
 10
4.63567395274038
 20
0.868621576026986
 10
4.634155340836842
 20
0.8681876869116983
 10
4.632492099228191
 20
0.867826112648955
 10
4.630901172472108
 20
0.8676091680913003
 10
4.629310245716025
 20
0.8675368532387558
 10
4.627647004107375
 20
0.8676814829438445
 10
4.62605607735129
 20
0.8679707423540437
 10
4.624465150595206
 20
0.8684769463218968
 10
4.623163483249321
 20
0.8689831502897511
 10
4.621934130755983
 20
0.8695616691101278
 10
4.620704778262641
 20
0.8701401879305258
 10
4.619547740621844
 20
0.8708633364560341
 10
4.618390702981049
 20
0.8715864849815208
 10
4.617305980192798
 20
0.8723819483595733
 10
4.616293572257132
 20
0.8732497265901706
 10
4.61520884946888
 20
0.8741898196733115
 10
4.614268756385716
 20
0.8751299127564532
 10
4.613328663302598
 20
0.8760700058395949
 10
4.612388570219434
 20
0.8770824137752807
 10
4.61152079198886
 20
0.8781671365635324
 10
4.61065301375824
 20
0.8792518593517629
 10
4.609857550380209
 20
0.8803365821400145
 10
4.609062087002181
 20
0.8814213049282447
 10
4.608338938476672
 20
0.8825783425690405
 10
4.591128003569903
 20
0.8741898196733115
 10
4.592501985768333
 20
0.8719480592442643
 10
4.594092912524418
 20
0.8698509285203266
 10
4.59582846898561
 20
0.8678984275014991
 10
4.597708655151893
 20
0.8661628710403054
 10
4.599733471023288
 20
0.8644996294316769
 10
4.601902916599771
 20
0.8630533323806819
 10
4.604216991881362
 20
0.8617516650347969
 10
4.606531067162931
 20
0.8606669422465454
 10
4.608989772149633
 20
0.8597268491634038
 10
4.61152079198886
 20
0.8589313857853721
 10
4.614124126680629
 20
0.8583528669649743
 10
4.6167274613724
 20
0.8579912927022308
 10
4.61933079606419
 20
0.8577743481445763
 10
4.621934130755983
 20
0.8577743481445763
 10
4.624537465447753
 20
0.8579189778496647
 10
4.627140800139521
 20
0.8583528669649743
 10
4.629744134831334
 20
0.8589313857853721
 10
4.632275154670559
 20
0.8597991640159481
 10
4.634661544804696
 20
0.8608115719516554
 10
4.637047934938811
 20
0.8620409244449954
 10
4.639289695367836
 20
0.8634872214959909
 10
4.64145914094434
 20
0.8650781482520748
 10
4.643411641963167
 20
0.8668137047132471
 10
4.645291828129451
 20
0.8686938908795518
 10
4.647027384590644
 20
0.8707187067509234
 10
4.648545996494184
 20
0.8728881523274052
 10
4.649919978692636
 20
0.8751299127564532
 10
4.651149331185954
 20
0.8775163028905899
 10
4.652089424269096
 20
0.8799750078772712
 10
4.652884887647148
 20
0.8825060277164965
 10
4.653463406467547
 20
0.8851093624082665
 10
4.653752665877746
 20
0.8877126971000571
 10
4.653897295582835
 20
0.8897375129714506
 10
4.65382498073029
 20
0.8917623288428222
 10
4.653608036172657
 20
0.8937871447142157
 10
4.65324646190989
 20
0.8957396457330432
 10
4.652667943089495
 20
0.897692146751892
 10
4.651944794564006
 20
0.8995723329181748
 10
4.65107701633341
 20
0.9013802042319127
 10
4.64999229354518
 20
0.9031157606930859
 10
4.649124515314562
 20
0.9042004834813376
 10
4.648184422231441
 20
0.9052852062695679
 10
4.647172014295735
 20
0.9062252993527303
 10
4.646087291507504
 20
0.907020762730762
 10
4.644857939014141
 20
0.9078162261088149
 10
4.643628586520803
 20
0.9085393746343015
 10
4.642326919174918
 20
0.9091178934546995
 10
4.641025251829031
 20
0.9096964122750975
 10
4.639651269630601
 20
0.9101303013903851
 10
4.638277287432151
 20
0.9105641905056948
 10
4.636830990381158
 20
0.910925764768438
 10
4.635384693330181
 20
0.9112150241786372
 10
4.633938396279186
 20
0.9114319687362918
 10
4.632492099228191
 20
0.9115765984413803
 10
4.631045802177219
 20
0.9117212281464691
 10
4.629671819978768
 20
0.9117935429990351
 10
4.62880404174817
 20
0.9117935429990351
 10
4.627863948665029
 20
0.9117935429990351
 10
4.626996170434431
 20
0.9117935429990351
 10
4.626128392203858
 20
0.9117212281464691
 10
4.625260613973241
 20
0.911648913293925
 10
4.624392835742662
 20
0.9115765984413803
 10
4.623525057512066
 20
0.9115042835888363
 10
4.622657279281469
 20
0.9113596538837256
 10
4.621717186198328
 20
0.9112150241786372
 10
4.62084940796773
 20
0.9110703944735265
 10
4.619981629737133
 20
0.910925764768438
 10
4.619113851506535
 20
0.9108534499158938
 10
4.61824607327596
 20
0.9107088202107831
 10
4.617378295045361
 20
0.9105641905056948
 10
4.616438201962222
 20
0.9104195608005849
 10
4.615570423731624
 20
0.9102749310954955
 10
4.602626065125255
 20
0.9070930775833064
 10
4.602409120567623
 20
0.9083224300766467
 10
4.60255375027271
 20
0.9102026162429512
 10
4.602987639388021
 20
0.912516691524522
 10
4.603855417618596
 20
0.9151200262163127
 10
4.604940140406846
 20
0.9177233609080827
 10
4.606386437457842
 20
0.9201820658947641
 10
4.608121993919017
 20
0.9222068817661575
 10
4.610074494937864
 20
0.9237254936696967
 10
4.611810051399038
 20
0.9245209570477278
 10
4.613617922712776
 20
0.9251717907206915
 10
4.615498108879058
 20
0.9255333649834351
 10
4.617450609897908
 20
0.925822624393634
 10
4.619403110916757
 20
0.9258949392461786
 10
4.621427926788126
 20
0.9257503095410688
 10
4.623380427806957
 20
0.9255333649834351
 10
4.625332928825804
 20
0.9250994758681262
 10
4.627285429844632
 20
0.9245209570477278
 10
4.62909330115837
 20
0.9237978085222412
 10
4.630828857619543
 20
0.9229300302916442
 10
4.632492099228191
 20
0.9219899372085027
 10
4.634010711131731
 20
0.9209052144202724
 10
4.635457008182726
 20
0.9196758619269315
 10
4.636686360676065
 20
0.9183741945810254
 10
4.637698768611773
 20
0.9170002123825964
 10
4.656789889684825
 20
0.925822624393634
  0
LWPOLYLINE
  5
1B7
330
17
100
AcDbEntity
  8
4
  6
Continuous
100
AcDbPolyline
 90
       21
 70
     0
 43
0.0
 10
4.456892716839432
 20
0.9190250282539679
 10
4.456675772281757
 20
0.9167832678249412
 10
4.456024938608813
 20
0.9146861371010043
 10
4.455012530673127
 20
0.9128782657872655
 10
4.453638548474676
 20
0.9112873390311817
 10
4.451975306866071
 20
0.9099856716852963
 10
4.450095120699766
 20
0.9090455786021554
 10
4.448070304828373
 20
0.9084670597817567
 10
4.445900859251912
 20
0.9082501152241023
 10
4.431365573889459
 20
0.9082501152241023
 10
4.431365573889459
 20
0.92683503232932
 10
4.4298469619859
 20
0.9303784601042528
 10
4.446117803809545
 20
0.9303784601042528
 10
4.448359564238592
 20
0.9301615155465984
 10
4.450384380109965
 20
0.9295106818736558
 10
4.452192251423702
 20
0.9284982739379486
 10
4.453783178179809
 20
0.9271242917395191
 10
4.455084845525695
 20
0.9253887352783252
 10
4.456024938608813
 20
0.923508549112042
 10
4.456675772281757
 20
0.9213391035355602
 10
4.456892716839432
 20
0.9190250282539679
  0
LWPOLYLINE
  5
1CE
330
17
100
AcDbEntity
  8
4
  6
Continuous
100
AcDbPolyline
 90
       61
 70
     0
 43
0.0
 10
4.457254291102156
 20
0.9026818715777979
 10
4.459351421826113
 20
0.9028265012828871
 10
4.461376237697486
 20
0.9031157606930859
 10
4.463184109011224
 20
0.9035496498083952
 10
4.464847350619851
 20
0.9041281686287931
 10
4.466293647670847
 20
0.9048513171542802
 10
4.467667629869277
 20
0.9056467805323327
 10
4.468896982362617
 20
0.906586873615474
 10
4.469981705150869
 20
0.9076715964037042
 10
4.470921798234032
 20
0.9088286340445003
 10
4.471717261612063
 20
0.9100579865378414
 10
4.472368095285006
 20
0.9113596538837256
 10
4.472874299252858
 20
0.9128059509347211
 10
4.473308188368146
 20
0.9142522479857163
 10
4.473597447778346
 20
0.9157708598892554
 10
4.473742077483433
 20
0.9173617866453396
 10
4.473814392335999
 20
0.9190250282539679
 10
4.473742077483433
 20
0.9205436401575074
 10
4.473452818073258
 20
0.9220622520610469
 10
4.473091243810491
 20
0.923508549112042
 10
4.472512724990096
 20
0.9249548461630375
 10
4.471861891317152
 20
0.9263288283614667
 10
4.470994113086574
 20
0.9276304957073728
 10
4.470126334855958
 20
0.9288598482007131
 10
4.469041612067726
 20
0.9300168858414885
 10
4.467956889279497
 20
0.9310292937771954
 10
4.466727536786154
 20
0.9319693868603366
 10
4.465425869440271
 20
0.9327648502383684
 10
4.46405188724182
 20
0.9334879987638764
 10
4.462677905043371
 20
0.934066517584274
 10
4.461231607992396
 20
0.9344280918470175
 10
4.459712996088834
 20
0.9347173512572172
 10
4.458194384185317
 20
0.9347896661097614
 10
4.407501672548137
 20
0.9347896661097614
 10
4.408224821073623
 20
0.934211147289363
 10
4.408875654746566
 20
0.9336326284689652
 10
4.409526488419508
 20
0.9329817947960226
 10
4.410105007239907
 20
0.9324032759756248
 10
4.410683526060306
 20
0.9318247571552266
 10
4.411262044880701
 20
0.9311016086297399
 10
4.411768248848557
 20
0.9303784601042528
 10
4.412274452816387
 20
0.9295106818736558
 10
4.412997601341897
 20
0.9279197551175716
 10
4.413576120162295
 20
0.9260395689512675
 10
4.413937694425016
 20
0.9242316976375287
 10
4.414082324130126
 20
0.9227854005865552
 10
4.414154638982691
 20
0.8577743481445763
 10
4.431582518447092
 20
0.8730327820325156
 10
4.431582518447092
 20
0.9031880755456519
 10
4.439247892817356
 20
0.9032603903981959
 10
4.465353554587704
 20
0.8600161085736029
 10
4.487843473730578
 20
0.8598714788685143
 10
4.486469491532148
 20
0.8606669422465454
 10
4.485095509333718
 20
0.8616070353296867
 10
4.483793841987833
 20
0.8625471284128494
 10
4.482564489494493
 20
0.8636318512010795
 10
4.481335137001153
 20
0.8646442591367653
 10
4.480178099360357
 20
0.8658012967775619
 10
4.479021061719561
 20
0.8669583344183578
 10
4.477864024078765
 20
0.8681876869116983
 10
4.457254291102156
 20
0.9026818715777979
  0
LWPOLYLINE
  5
20D
330
17
100
AcDbEntity
  8
4
  6
Continuous
100
AcDbPolyline
 90
      205
 70
     0
 43
0.0
 10
4.325728170742718
 20
0.9263288283614667
 10
4.32377566972389
 20
0.92835364423286
 10
4.321678538999951
 20
0.9302338303991426
 10
4.319292148865816
 20
0.9318247571552266
 10
4.31676112902659
 20
0.9331987393536774
 10
4.314085479482256
 20
0.9343557769944736
 10
4.311337515085376
 20
0.9352958700776149
 10
4.308372606130863
 20
0.9360190186031015
 10
4.305407697176328
 20
0.9365252225709554
 10
4.302442788221791
 20
0.9368144819811544
 10
4.299405564414714
 20
0.9368867968336987
 10
4.296296025755092
 20
0.936669852276044
 10
4.293331116800557
 20
0.9363082780133012
 10
4.290366207846021
 20
0.9356574443403582
 10
4.287473613744053
 20
0.9347896661097614
 10
4.284725649347175
 20
0.9336326284689652
 10
4.282049999802858
 20
0.9323309611230799
 10
4.280025183931443
 20
0.9311016086297399
 10
4.278144997765162
 20
0.9297999412838548
 10
4.276337126451423
 20
0.9282813293803155
 10
4.274673884842793
 20
0.9266904026242317
 10
4.27308295808671
 20
0.9249548461630375
 10
4.271636661035739
 20
0.9231469748492987
 10
4.27033499368983
 20
0.9211944738304715
 10
4.269105641196488
 20
0.9191696579590782
 10
4.268093233260803
 20
0.9171448420876847
 10
4.267153140177642
 20
0.9149753965112028
 10
4.266429991652153
 20
0.9127336360821768
 10
4.265851472831754
 20
0.9104918756531503
 10
4.265417583716468
 20
0.9082501152241023
 10
4.265200639158813
 20
0.9059360399425319
 10
4.265056009453726
 20
0.9035496498083952
 10
4.265200639158813
 20
0.9012355745268028
 10
4.265272954011358
 20
0.9000785368860068
 10
4.265417583716468
 20
0.8988491843926663
 10
4.265562213421578
 20
0.897692146751892
 10
4.265851472831754
 20
0.8965351091110957
 10
4.266213047094522
 20
0.8954503863228438
 10
4.266791565914918
 20
0.8944379783871577
 10
4.267514714440406
 20
0.8936425150091054
 10
4.268454807523548
 20
0.8930639961887077
 10
4.268888696638835
 20
0.8928470516310742
 10
4.269322585754143
 20
0.8927024219259639
 10
4.269828789721998
 20
0.8926301070734194
 10
4.270262678837263
 20
0.8926301070734194
 10
4.27076888280512
 20
0.8927024219259639
 10
4.271275086772972
 20
0.8927024219259639
 10
4.271781290740826
 20
0.8928470516310742
 10
4.272432124413768
 20
0.8929193664836184
 10
4.293909635620953
 20
0.8966797388161843
 10
4.294849728704118
 20
0.8968243685212943
 10
4.295862136639783
 20
0.8969689982263835
 10
4.296802229722946
 20
0.8970413130789276
 10
4.297814637658631
 20
0.8971136279314935
 10
4.298754730741771
 20
0.8971136279314935
 10
4.299767138677478
 20
0.8971136279314935
 10
4.3007072317606
 20
0.8971136279314935
 10
4.301719639696305
 20
0.8970413130789276
 10
4.302659732779428
 20
0.8969689982263835
 10
4.303672140715136
 20
0.8968243685212943
 10
4.304612233798274
 20
0.8966797388161843
 10
4.305552326881418
 20
0.8964627942585508
 10
4.306564734817126
 20
0.8962458497008967
 10
4.307504827900264
 20
0.8959565902906977
 10
4.308372606130863
 20
0.8956673308804985
 10
4.309312699213982
 20
0.8953057566177552
 10
4.311482144790486
 20
0.8941487189769588
 10
4.313217701251681
 20
0.8925577922208752
 10
4.314591683450109
 20
0.8906776060545919
 10
4.315459461680687
 20
0.8885804753306544
 10
4.315965665648541
 20
0.8862664000490623
 10
4.31611029535365
 20
0.8838800099149255
 10
4.315821035943451
 20
0.8814936197808107
 10
4.315097887417963
 20
0.8791795444992182
 10
4.314374738892476
 20
0.877660932595679
 10
4.313579275514404
 20
0.8762146355446841
 10
4.312566867578738
 20
0.8749129681987991
 10
4.311482144790486
 20
0.8736836157054581
 10
4.310252792297147
 20
0.8725265780646623
 10
4.308951124951262
 20
0.8715141701289766
 10
4.307577142752809
 20
0.8706463918983793
 10
4.306130845701814
 20
0.8698509285203266
 10
4.304612233798274
 20
0.8692000948473841
 10
4.303021307042191
 20
0.8686938908795518
 10
4.301430380286107
 20
0.868332316616787
 10
4.299839453530023
 20
0.8681876869116983
 10
4.298176211921373
 20
0.8681153720591535
 10
4.296512970312723
 20
0.8682600017642428
 10
4.294922043556661
 20
0.8685492611744416
 10
4.293331116800557
 20
0.8689831502897511
 10
4.292029449454673
 20
0.869489354257583
 10
4.290800096961332
 20
0.8700678730779809
 10
4.289643059320535
 20
0.8706463918983793
 10
4.288486021679736
 20
0.8713695404238659
 10
4.287328984038963
 20
0.8720926889493743
 10
4.286244261250712
 20
0.8729604671799716
 10
4.285159538462482
 20
0.8737559305580029
 10
4.284147130526775
 20
0.8746960236411441
 10
4.283207037443633
 20
0.8756361167242856
 10
4.282194629507948
 20
0.8766485246599927
 10
4.281326851277349
 20
0.877660932595679
 10
4.280459073046753
 20
0.8786733405313649
 10
4.27959129481618
 20
0.879758063319616
 10
4.278795831438126
 20
0.8809151009604121
 10
4.278000368060073
 20
0.8819998237486428
 10
4.277277219534584
 20
0.883156861389439
 10
4.260138599480361
 20
0.8746960236411441
 10
4.261512581678792
 20
0.8724542632121178
 10
4.263103508434897
 20
0.8704294473407243
 10
4.264839064896068
 20
0.8684769463218968
 10
4.266719251062353
 20
0.8666690750081592
 10
4.268744066933747
 20
0.8650781482520748
 10
4.270913512510229
 20
0.8636318512010795
 10
4.273155272939254
 20
0.8623301838551951
 10
4.275541663073392
 20
0.8612454610669431
 10
4.278000368060073
 20
0.8603053679838016
 10
4.280459073046753
 20
0.8595099046057704
 10
4.283062407738523
 20
0.8589313857853721
 10
4.285665742430313
 20
0.8584974966700631
 10
4.288269077122104
 20
0.8582805521124301
 10
4.290872411813874
 20
0.8582805521124301
 10
4.293475746505666
 20
0.8584974966700631
 10
4.296079081197436
 20
0.8588590709328066
 10
4.298682415889228
 20
0.8595099046057704
 10
4.301213435728453
 20
0.8603053679838016
 10
4.303599825862589
 20
0.8613177759195087
 10
4.305986215996727
 20
0.8626194432653937
 10
4.308227976425752
 20
0.8639934254638228
 10
4.310325107149692
 20
0.865584352219907
 10
4.31234992302106
 20
0.8673199086811012
 10
4.314230109187367
 20
0.8692724096999498
 10
4.315893350795994
 20
0.8712972255713218
 10
4.317484277552099
 20
0.8733943562952591
 10
4.318858259750529
 20
0.8757084315768516
 10
4.320015297391325
 20
0.8780948217109667
 10
4.32102770532701
 20
0.8804812118451032
 10
4.321823168705064
 20
0.8830122316843503
 10
4.322401687525461
 20
0.8856155663761198
 10
4.322690946935638
 20
0.8882912159204558
 10
4.322763261788185
 20
0.8903160317918278
 10
4.322690946935638
 20
0.8923408476632204
 10
4.322474002378006
 20
0.8942933486820479
 10
4.32211242811524
 20
0.8963181645534408
 10
4.321533909294863
 20
0.8981983507197242
 10
4.3208830756219
 20
0.9000785368860068
 10
4.320015297391325
 20
0.9018864081997451
 10
4.318930574603076
 20
0.9036219646609392
 10
4.318062796372498
 20
0.9047790023017356
 10
4.317122703289334
 20
0.9057914102374216
 10
4.31611029535365
 20
0.9067315033205629
 10
4.314953257712853
 20
0.9075992815511604
 10
4.313796220072078
 20
0.9083947449292127
 10
4.312566867578738
 20
0.9090455786021554
 10
4.31126520023283
 20
0.9096964122750975
 10
4.309891218034382
 20
0.9102026162429512
 10
4.30851723583595
 20
0.9107088202107831
 10
4.307143253637523
 20
0.9110703944735265
 10
4.305696956586528
 20
0.9114319687362918
 10
4.304322974388075
 20
0.9117212281464691
 10
4.302876677337103
 20
0.9119381727041243
 10
4.301430380286107
 20
0.9120828024092343
 10
4.299984083235115
 20
0.9122274321143228
 10
4.298610101036683
 20
0.9122997469668677
 10
4.297742322806084
 20
0.912372061819433
 10
4.296802229722946
 20
0.912372061819433
 10
4.295934451492348
 20
0.9122997469668677
 10
4.295066673261752
 20
0.9122997469668677
 10
4.294198895031153
 20
0.9122274321143228
 10
4.293258801948011
 20
0.9121551172617788
 10
4.292391023717437
 20
0.9120104875566683
 10
4.291523245486818
 20
0.9119381727041243
 10
4.290655467256241
 20
0.9117935429990351
 10
4.289787689025623
 20
0.911648913293925
 10
4.288847595942503
 20
0.9115042835888363
 10
4.287979817711907
 20
0.9113596538837256
 10
4.287112039481311
 20
0.9112150241786372
 10
4.286244261250712
 20
0.9110703944735265
 10
4.285304168167572
 20
0.910925764768438
 10
4.284436389936975
 20
0.910781135063328
 10
4.271564346183171
 20
0.9076715964037042
 10
4.271275086772972
 20
0.9089009488970454
 10
4.271419716478059
 20
0.910781135063328
 10
4.271925920445913
 20
0.9130952103449203
 10
4.272721383823967
 20
0.9156985450367113
 10
4.273878421464742
 20
0.9183018797284812
 10
4.27532471851576
 20
0.9207605847151619
 10
4.276987960124386
 20
0.9227854005865552
 10
4.278940461143213
 20
0.9243040124900948
 10
4.280676017604408
 20
0.9250994758681262
 10
4.282483888918124
 20
0.9256779946885242
 10
4.284364075084428
 20
0.9261118838038331
 10
4.286316576103279
 20
0.9263288283614667
 10
4.288269077122104
 20
0.9264011432140325
 10
4.290293892993478
 20
0.9263288283614667
 10
4.292246394012305
 20
0.9260395689512675
 10
4.294198895031153
 20
0.92560567983598
 10
4.296151396050003
 20
0.9250271610155811
 10
4.297959267363742
 20
0.9243040124900948
 10
4.299767138677478
 20
0.923508549112042
 10
4.301430380286107
 20
0.9225684560289007
 10
4.302948992189648
 20
0.9214837332406487
 10
4.304322974388075
 20
0.9202543807473087
 10
4.305552326881418
 20
0.9189527134014236
 10
4.306637049669668
 20
0.9175787312029941
 10
4.325728170742718
 20
0.9263288283614667
  0
LWPOLYLINE
  5
2DC
330
17
100
AcDbEntity
  8
4
  6
Continuous
100
AcDbPolyline
 90
      133
 70
     0
 43
0.0
 10
4.342205690097556
 20
0.9313908680399388
 10
4.340976337604218
 20
0.9300892006940536
 10
4.339819299963421
 20
0.9285705887905139
 10
4.338806892027736
 20
0.9269796620344092
 10
4.337722169239505
 20
0.9253164204257807
 10
4.336637446451254
 20
0.9237254936696967
 10
4.335480408810457
 20
0.9221345669136129
 10
4.334323371169661
 20
0.9206882698626175
 10
4.332949388971231
 20
0.9194589173692769
 10
4.332443185003377
 20
0.9190973431065335
 10
4.331936981035524
 20
0.9187357688437687
 10
4.331430777067671
 20
0.9183741945810254
 10
4.330924573099839
 20
0.9180126203182819
 10
4.330418369132005
 20
0.9176510460555387
 10
4.329839850311609
 20
0.9172894717927951
 10
4.329261331491212
 20
0.9169278975300516
 10
4.328538182965703
 20
0.9165663232672871
 10
4.354788474441184
 20
0.9165663232672871
 10
4.353631436800387
 20
0.9156262301841453
 10
4.352546714012134
 20
0.9146861371010043
 10
4.351534306076429
 20
0.9137460440178625
 10
4.350521898140765
 20
0.9127336360821768
 10
4.349581805057601
 20
0.911648913293925
 10
4.348641711974459
 20
0.9105641905056948
 10
4.347773933743861
 20
0.9094794677174428
 10
4.346978470365828
 20
0.9083224300766467
 10
4.346110692135211
 20
0.9070930775833064
 10
4.345387543609725
 20
0.9057914102374216
 10
4.34466439508424
 20
0.904417428038992
 10
4.343941246558753
 20
0.9030434458405416
 10
4.343218098033267
 20
0.9015248339370018
 10
4.342567264360301
 20
0.9000062220334626
 10
4.341916430687358
 20
0.898342980424834
 10
4.341337911866959
 20
0.8966074239636402
 10
4.340325503931275
 20
0.8927747367785086
 10
4.339746985110876
 20
0.8889420495933979
 10
4.339674670258334
 20
0.8850370475557214
 10
4.340036244521055
 20
0.8811320455180457
 10
4.34083170789913
 20
0.8773716731854799
 10
4.342133375245014
 20
0.8736836157054581
 10
4.343796616853663
 20
0.8702125027830916
 10
4.345966062430123
 20
0.867030649270902
 10
4.347050785218376
 20
0.865728981925017
 10
4.348280137711716
 20
0.8644996294316769
 10
4.349654119910146
 20
0.8632702769383362
 10
4.351172731813706
 20
0.8621855541500844
 10
4.352691343717223
 20
0.8611008313618544
 10
4.354354585325875
 20
0.8600884234261471
 10
4.356090141787069
 20
0.8592206451955711
 10
4.357898013100808
 20
0.8584251818175188
 10
4.359705884414545
 20
0.8577020332920316
 10
4.361586070580829
 20
0.8570511996190893
 10
4.363393941894566
 20
0.8565449956512356
 10
4.36527412806085
 20
0.8561834213884921
 10
4.367154314227134
 20
0.8558941619782935
 10
4.368962185540871
 20
0.8558218471257275
 10
4.37077005685461
 20
0.8558218471257275
 10
4.372505613315781
 20
0.855966476830838
 10
4.374675058892265
 20
0.8563280510935808
 10
4.376844504468769
 20
0.8567619402088904
 10
4.378941635192683
 20
0.8573404590292883
 10
4.380966451064056
 20
0.8580636075547754
 10
4.382991266935471
 20
0.8588590709328066
 10
4.384871453101752
 20
0.8597991640159481
 10
4.386751639268036
 20
0.8608838868041996
 10
4.388414880876663
 20
0.8621132392975404
 10
4.390078122485292
 20
0.8634872214959909
 10
4.39152441953631
 20
0.8649335185469645
 10
4.39289840173474
 20
0.8665244453030698
 10
4.39412775422808
 20
0.8682600017642428
 10
4.395212477016331
 20
0.8701401879305258
 10
4.396080255246906
 20
0.8720926889493743
 10
4.396803403772392
 20
0.8742621345258561
 10
4.397381922592791
 20
0.8765038949548831
 10
4.39579099583673
 20
0.8751299127564532
 10
4.39412775422808
 20
0.8739005602631131
 10
4.392319882914341
 20
0.8727435226223168
 10
4.390512011600603
 20
0.8718034295391753
 10
4.38863182543432
 20
0.8709356513085783
 10
4.386679324415491
 20
0.8702125027830916
 10
4.384654508544099
 20
0.8696339839626933
 10
4.382629692672706
 20
0.8692000948473841
 10
4.380604876801332
 20
0.8689108354371853
 10
4.378507746077396
 20
0.8688385205846408
 10
4.376482930206003
 20
0.8688385205846408
 10
4.374458114334633
 20
0.8690554651422953
 10
4.372433298463238
 20
0.8694170394050392
 10
4.370480797444388
 20
0.8699955582254368
 10
4.368528296425561
 20
0.8707187067509234
 10
4.366648110259278
 20
0.8715864849815208
 10
4.36484023894554
 20
0.8727435226223168
 10
4.363176997336891
 20
0.8739728751156572
 10
4.361658385433373
 20
0.8754191721666524
 10
4.360212088382378
 20
0.8769377840701919
 10
4.358982735889036
 20
0.8786733405313649
 10
4.35782569824824
 20
0.880408896992559
 10
4.3568856051651
 20
0.8822890831588415
 10
4.356017826934501
 20
0.8842415841776903
 10
4.355294678408995
 20
0.8862664000490623
 10
4.354788474441184
 20
0.8882912159204558
 10
4.354354585325875
 20
0.8903883466443929
 10
4.354065325915654
 20
0.8925577922208752
 10
4.353920696210565
 20
0.8946549229448127
 10
4.353920696210565
 20
0.8968243685212943
 10
4.354065325915654
 20
0.8989938140977765
 10
4.354354585325875
 20
0.9010909448217139
 10
4.355150048703906
 20
0.9035496498083952
 10
4.356017826934501
 20
0.9057190953848767
 10
4.356957920017642
 20
0.9077439112562489
 10
4.358042642805896
 20
0.909624097422553
 10
4.359199680446693
 20
0.9114319687362918
 10
4.360573662645121
 20
0.9130952103449203
 10
4.362164589401228
 20
0.9148307668061143
 10
4.363972460714965
 20
0.9164940084147428
 10
4.377712282699342
 20
0.9164940084147428
 10
4.378507746077396
 20
0.9164940084147428
 10
4.379447839160538
 20
0.9166386381198527
 10
4.380460247096222
 20
0.9167832678249412
 10
4.38147265503191
 20
0.9170725272351404
 10
4.382485062967615
 20
0.9173617866453396
 10
4.383352841198194
 20
0.9177956757606278
 10
4.384148304576267
 20
0.9182295648759367
 10
4.384726823396642
 20
0.9188080836963351
 10
4.397888126560646
 20
0.9348619809623055
 10
4.350449583288198
 20
0.9348619809623055
 10
4.349075601089748
 20
0.9347896661097614
 10
4.347918563448951
 20
0.9347173512572172
 10
4.34683384066072
 20
0.9345004066995624
 10
4.34589374757758
 20
0.9341388324368187
 10
4.344953654494438
 20
0.9337049433215094
 10
4.344085876263841
 20
0.9331264245011327
 10
4.343145783180699
 20
0.9323309611230799
 10
4.342205690097556
 20
0.9313908680399388
  0
LWPOLYLINE
  5
363
330
17
100
AcDbEntity
  8
4
  6
Continuous
100
AcDbPolyline
 90
      138
 70
     0
 43
0.0
 10
4.229398641159426
 20
0.9348619809623055
 10
4.230917253062965
 20
0.9337772581740754
 10
4.232146605556304
 20
0.9325479056807347
 10
4.233159013491992
 20
0.9311739234822839
 10
4.233882162017478
 20
0.9297276264312891
 10
4.234460680837877
 20
0.9282090145277496
 10
4.234822255100644
 20
0.9266180877716651
 10
4.235039199658276
 20
0.9248825313104928
 10
4.235111514510821
 20
0.9230746599967542
 10
4.235111514510821
 20
0.8687662057320959
 10
4.233809847164936
 20
0.8687662057320959
 10
4.232508179819048
 20
0.8688385205846408
 10
4.231206512473163
 20
0.8689831502897511
 10
4.229977159979823
 20
0.8692000948473841
 10
4.228675492633938
 20
0.869489354257583
 10
4.2274461401406
 20
0.8698509285203266
 10
4.226216787647257
 20
0.8702848176356358
 10
4.225059750006462
 20
0.8707187067509234
 10
4.223830397513122
 20
0.8712972255713218
 10
4.222673359872326
 20
0.8718757443917198
 10
4.221588637084074
 20
0.8725265780646623
 10
4.220503914295843
 20
0.8732497265901706
 10
4.219419191507594
 20
0.8740451899682016
 10
4.218334468719359
 20
0.8748406533462546
 10
4.217322060783656
 20
0.8757084315768516
 10
4.216381967700534
 20
0.8765762098074274
 10
4.214718726091886
 20
0.8782394514160767
 10
4.213200114188346
 20
0.8800473227298153
 10
4.211826131989896
 20
0.8819275088960987
 10
4.210596779496555
 20
0.8839523247674915
 10
4.209512056708323
 20
0.8860494554914076
 10
4.208644278477725
 20
0.8881465862153453
 10
4.207921129952238
 20
0.8903883466443929
 10
4.207414925984386
 20
0.8926301070734194
 10
4.207125666574187
 20
0.8947272377973567
 10
4.206908722016533
 20
0.8968243685212943
 10
4.206908722016533
 20
0.8989938140977765
 10
4.207053351721622
 20
0.9010909448217139
 10
4.207342611131841
 20
0.9031880755456519
 10
4.207776500247129
 20
0.9052852062695679
 10
4.208427333920092
 20
0.9073100221409607
 10
4.20929511215067
 20
0.9092625231598095
 10
4.209945945823611
 20
0.9104918756531503
 10
4.210596779496555
 20
0.9117212281464691
 10
4.211247613169497
 20
0.9128782657872655
 10
4.211970761695003
 20
0.9140353034280613
 10
4.212621595367949
 20
0.9151923410688578
 10
4.213344743893455
 20
0.9162770638570879
 10
4.214140207271486
 20
0.9173617866453396
 10
4.214935670649517
 20
0.9183741945810254
 10
4.215731134027591
 20
0.9194589173692769
 10
4.216526597405623
 20
0.9204713253049627
 10
4.2173943756362
 20
0.9214837332406487
 10
4.218262153866819
 20
0.9224961411763564
 10
4.219202246949937
 20
0.9234362342594975
 10
4.2201423400331
 20
0.9244486421951837
 10
4.221082433116221
 20
0.9253887352783252
 10
4.222094841051928
 20
0.9264011432140325
 10
4.222962619282523
 20
0.9274135511497178
 10
4.223541138102901
 20
0.9284982739379486
 10
4.223902712365664
 20
0.9295829967262003
 10
4.223975027218211
 20
0.9306677195144519
 10
4.223902712365664
 20
0.9317524423026824
 10
4.223685767808032
 20
0.9328371650909339
 10
4.223324193545268
 20
0.9338495730266199
 10
4.222817989577413
 20
0.9348619809623055
 10
4.196856957512173
 20
0.9348619809623055
 10
4.197435476332572
 20
0.9343557769944736
 10
4.198013995152972
 20
0.9338495730266199
 10
4.198592513973347
 20
0.9333433690587661
 10
4.199171032793747
 20
0.9327648502383684
 10
4.199677236761578
 20
0.9321863314179914
 10
4.200183440729431
 20
0.9315354977450279
 10
4.200617329844741
 20
0.9308846640720853
 10
4.20105121896003
 20
0.9302338303991426
 10
4.201918997190626
 20
0.9282813293803155
 10
4.202352886305935
 20
0.9261841986563775
 10
4.202352886305935
 20
0.9240147530798957
 10
4.202063626895716
 20
0.9218453075034137
 10
4.201485108075319
 20
0.9195312322218216
 10
4.200545014992196
 20
0.9172894717927951
 10
4.199460292203945
 20
0.9151923410688578
 10
4.198230939710605
 20
0.9131675251974645
 10
4.19692927236472
 20
0.9111427093260926
 10
4.19555529016627
 20
0.909190208307244
 10
4.194181307967818
 20
0.9071653924358722
 10
4.192951955474478
 20
0.9051405765644792
 10
4.191939547538813
 20
0.9031157606930859
 10
4.191071769308194
 20
0.9010909448217139
 10
4.190420935635252
 20
0.8989214992452323
 10
4.1899147316674
 20
0.8967520536687292
 10
4.189625472257221
 20
0.8945826080922469
 10
4.189480842552131
 20
0.8923408476632204
 10
4.189480842552131
 20
0.8900990872341941
 10
4.189697787109765
 20
0.8878573268051464
 10
4.189987046519965
 20
0.8864110297541721
 10
4.190276305930162
 20
0.8849647327031773
 10
4.190710195045473
 20
0.8835184356521823
 10
4.191216399013305
 20
0.882144453453753
 10
4.191794917833703
 20
0.8807704712553022
 10
4.192445751506642
 20
0.8794688039094172
 10
4.193096585179587
 20
0.8780948217109667
 10
4.19389204855764
 20
0.8768654692176259
 10
4.194687511935672
 20
0.8756361167242856
 10
4.19555529016627
 20
0.8744067642309452
 10
4.196495383249411
 20
0.8732497265901706
 10
4.197507791185118
 20
0.8720926889493743
 10
4.198520199120803
 20
0.8710079661611228
 10
4.199532607056488
 20
0.8699232433728925
 10
4.200617329844741
 20
0.8689108354371853
 10
4.201774367485536
 20
0.8679707423540437
 10
4.203076034831419
 20
0.8669583344183578
 10
4.204522331882396
 20
0.8660182413352162
 10
4.205968628933413
 20
0.8651504631046194
 10
4.207487240836931
 20
0.8643549997265669
 10
4.209078167593036
 20
0.8636318512010795
 10
4.210669094349098
 20
0.862981017528137
 10
4.21233233595775
 20
0.8623301838551951
 10
4.213995577566397
 20
0.861823979887341
 10
4.215658819175025
 20
0.8613900907720534
 10
4.217322060783656
 20
0.8609562016567441
 10
4.219057617244848
 20
0.8605946273940006
 10
4.220793173706042
 20
0.8603776828363463
 10
4.222456415314669
 20
0.8601607382787129
 10
4.224191971775866
 20
0.8600161085736029
 10
4.225855213384495
 20
0.8598714788685143
 10
4.227518454993143
 20
0.8598714788685143
 10
4.251743930597212
 20
0.8598714788685143
 10
4.251743930597212
 20
0.9257503095410688
 10
4.251743930597212
 20
0.926907347181865
 10
4.251743930597212
 20
0.9280643848226608
 10
4.251888560302321
 20
0.9292937373160011
 10
4.252105504859953
 20
0.9305230898093416
 10
4.252539393975263
 20
0.9316801274501376
 10
4.253117912795659
 20
0.9327648502383684
 10
4.253985691026234
 20
0.9338495730266199
 10
4.255142728667031
 20
0.9348619809623055
 10
4.229398641159426
 20
0.9348619809623055
  0
LWPOLYLINE
  5
3EF
330
17
100
AcDbEntity
  8
4
  6
Continuous
100
AcDbPolyline
 90
       21
 70
     0
 43
0.0
 10
4.490126763419943
 20
0.9348619809623055
 10
4.491500745618371
 20
0.9341388324368187
 10
4.492657783259168
 20
0.9332710542062216
 10
4.493670191194855
 20
0.9322586462705356
 10
4.494393339720362
 20
0.9311016086297399
 10
4.494971858540761
 20
0.9297999412838548
 10
4.495405747656048
 20
0.9284259590854039
 10
4.495622692213704
 20
0.926907347181865
 10
4.495695007066246
 20
0.9253164204257807
 10
4.495695007066246
 20
0.8598714788685143
 10
4.513484460793414
 20
0.8598714788685143
 10
4.513484460793414
 20
0.9255333649834351
 10
4.513556775645954
 20
0.927051976886975
 10
4.513918349908721
 20
0.92835364423286
 10
4.51435223902401
 20
0.929655311578745
 10
4.515075387549495
 20
0.9308123492195408
 10
4.515870850927549
 20
0.9318970720077924
 10
4.516883258863236
 20
0.9329817947960226
 10
4.517967981651463
 20
0.9339218878791646
 10
4.519269648997371
 20
0.9348619809623055
 10
4.490126763419943
 20
0.9348619809623055
  0
LWPOLYLINE
  5
406
330
17
100
AcDbEntity
  8
4
  6
Continuous
100
AcDbPolyline
 90
       73
 70
     0
 43
0.0
 10
3.860905861274526
 20
0.8786010256788202
 10
3.862135213767866
 20
0.8778778771533332
 10
3.863147621703575
 20
0.8769377840701919
 10
3.864015399934148
 20
0.8757807464293957
 10
3.864666233607093
 20
0.8744790790835113
 10
3.865027807869858
 20
0.8730327820325156
 10
3.865100122722401
 20
0.8715864849815208
 10
3.864883178164769
 20
0.8702125027830916
 10
3.86430465934437
 20
0.8688385205846408
 10
3.863653825671428
 20
0.8680430572066093
 10
3.863002991998462
 20
0.8673199086811012
 10
3.862207528620412
 20
0.8666690750081592
 10
3.861339750389836
 20
0.8660905561877605
 10
3.860399657306674
 20
0.8656566670724728
 10
3.859387249371009
 20
0.8652950928097292
 10
3.858302526582756
 20
0.8650781482520748
 10
3.857217803794506
 20
0.8650058333995307
 10
3.830822882613956
 20
0.8650058333995307
 10
3.845068908566188
 20
0.8770824137752807
 10
3.845936686796806
 20
0.8778778771533332
 10
3.846587520469752
 20
0.8786733405313649
 10
3.847166039290127
 20
0.8793964890568728
 10
3.847527613552871
 20
0.8801196375823597
 10
3.84781687296309
 20
0.8808427861078467
 10
3.84796150266818
 20
0.8816382494858995
 10
3.848106132373268
 20
0.8823613980113865
 10
3.848106132373268
 20
0.883156861389439
 10
3.848106132373268
 20
0.9311016086297399
 10
3.84796150266818
 20
0.9321140165654258
 10
3.847672243257979
 20
0.9331264245011327
 10
3.847166039290127
 20
0.9339218878791646
 10
3.846515205617185
 20
0.9346450364046724
 10
3.845719742239133
 20
0.935223555225049
 10
3.844851964008555
 20
0.9356574443403582
 10
3.843839556072848
 20
0.9359467037505574
 10
3.842827148137163
 20
0.9360190186031015
 10
3.827207139986479
 20
0.9360190186031015
 10
3.828291862774731
 20
0.9349342958148714
 10
3.82923195585785
 20
0.9339218878791646
 10
3.830027419235903
 20
0.9327648502383684
 10
3.830678252908866
 20
0.9316078125975931
 10
3.831256771729245
 20
0.9303061452516868
 10
3.831618345991988
 20
0.9289321630532576
 10
3.831835290549642
 20
0.9273412362971741
 10
3.831907605402209
 20
0.9255333649834351
 10
3.831907605402209
 20
0.8754914870191965
 10
3.819035561648383
 20
0.8598714788685143
 10
3.867703457414171
 20
0.8598714788685143
 10
3.868498920792224
 20
0.8599437937210581
 10
3.869366699022823
 20
0.8600161085736029
 10
3.870162162400853
 20
0.8601607382787129
 10
3.871029940631471
 20
0.8604499976889119
 10
3.871897718862046
 20
0.8607392570991109
 10
3.872693182240099
 20
0.8611008313618544
 10
3.873488645618153
 20
0.8614624056245979
 10
3.874284108996183
 20
0.8618962947398856
 10
3.875079572374216
 20
0.862402498707739
 10
3.875802720899723
 20
0.8629087026755929
 10
3.876525869425231
 20
0.8634872214959909
 10
3.877249017950716
 20
0.8640657403163679
 10
3.877827536771116
 20
0.8646442591367653
 10
3.878478370444057
 20
0.8652950928097292
 10
3.878984574411911
 20
0.8659459264826717
 10
3.879490778379744
 20
0.8665967601556141
 10
3.880647816020538
 20
0.8689108354371853
 10
3.881370964546047
 20
0.8715141701289766
 10
3.881732538808773
 20
0.8744067642309452
 10
3.881660223956226
 20
0.8773716731854799
 10
3.881154019988373
 20
0.8801919524349044
 10
3.880286241757796
 20
0.8827952871266955
 10
3.879056889264457
 20
0.8849647327031773
 10
3.877393647655805
 20
0.8866279743118056
 10
3.860905861274526
 20
0.8786010256788202
  0
LWPOLYLINE
  5
451
330
17
100
AcDbEntity
  8
4
  6
Continuous
100
AcDbPolyline
 90
       21
 70
     0
 43
0.0
 10
4.023484167026508
 20
0.9347173512572172
 10
4.004393045953435
 20
0.9347173512572172
 10
4.005333139036596
 20
0.934066517584274
 10
4.006273232119719
 20
0.9331987393536774
 10
4.00721332520288
 20
0.9323309611230799
 10
4.008008788580913
 20
0.9313185531873946
 10
4.00873193710642
 20
0.9303061452516868
 10
4.009310455926796
 20
0.9291491076109128
 10
4.009672030189562
 20
0.9279920699701163
 10
4.009816659894653
 20
0.9267627174767763
 10
4.009816659894653
 20
0.8601607382787129
 10
4.027823058179492
 20
0.8601607382787129
 10
4.027823058179492
 20
0.9303784601042528
 10
4.027750743326928
 20
0.9313908680399388
 10
4.027533798769273
 20
0.9322586462705356
 10
4.027099909653983
 20
0.9329817947960226
 10
4.026593705686153
 20
0.9336326284689652
 10
4.025942872013189
 20
0.934066517584274
 10
4.025219723487703
 20
0.9344280918470175
 10
4.024424260109648
 20
0.9346450364046724
 10
4.023484167026508
 20
0.9347173512572172
  0
LWPOLYLINE
  5
468
330
17
100
AcDbEntity
  8
4
  6
Continuous
100
AcDbPolyline
 90
      133
 70
     0
 43
0.0
 10
3.948049474732384
 20
0.9360913334556464
 10
3.932646411139357
 20
0.9360913334556464
 10
3.933731133927609
 20
0.9349342958148714
 10
3.934671227010728
 20
0.9337772581740754
 10
3.935394375536236
 20
0.9326202205332791
 10
3.936045209209177
 20
0.9315354977450279
 10
3.936551413177035
 20
0.9304507749567974
 10
3.936912987439774
 20
0.9293660521685458
 10
3.937202246849976
 20
0.9282090145277708
 10
3.937274561702521
 20
0.927051976886975
 10
3.937274561702521
 20
0.8875680673949473
 10
3.935972894356636
 20
0.8877126971000571
 10
3.934598912158185
 20
0.8879296416577119
 10
3.933297244812301
 20
0.8881465862153453
 10
3.931923262613868
 20
0.8884358456255444
 10
3.930621595267986
 20
0.8887974198883089
 10
3.929247613069533
 20
0.8891589941510527
 10
3.927945945723627
 20
0.8895928832663404
 10
3.926644278377743
 20
0.8900267723816281
 10
3.925414925884403
 20
0.8905329763494819
 10
3.924113258538517
 20
0.8911114951698797
 10
3.922956220897721
 20
0.8916900139902779
 10
3.921726868404381
 20
0.8923408476632204
 10
3.920569830763586
 20
0.8930639961887077
 10
3.91941279312279
 20
0.8937871447142157
 10
3.91832807033456
 20
0.8946549229448127
 10
3.917315662398872
 20
0.8955227011753878
 10
3.915435476232588
 20
0.8974028873416926
 10
3.913772234623941
 20
0.8995000180656301
 10
3.912325937572966
 20
0.9017417784946566
 10
3.911024270227058
 20
0.9042004834813376
 10
3.910011862291374
 20
0.9066591884680189
 10
3.909144084060777
 20
0.909334838012354
 10
3.90856556524038
 20
0.9120104875566683
 10
3.908203990977635
 20
0.9147584519535485
 10
3.907987046420002
 20
0.9175064163504288
 10
3.907987046420002
 20
0.9203266955998742
 10
3.908276305830181
 20
0.9230746599967542
 10
3.90871019494549
 20
0.925822624393634
 10
3.909361028618431
 20
0.9285705887905139
 10
3.910301121701573
 20
0.9311739234822839
 10
3.911385844489805
 20
0.9337049433215312
 10
3.912687511835687
 20
0.9360913334556464
 10
3.892945557089696
 20
0.9360913334556464
 10
3.891499260038721
 20
0.9314631828924831
 10
3.890486852103013
 20
0.9269796620344092
 10
3.889980648135161
 20
0.9224961411763564
 10
3.889908333282616
 20
0.9182295648759367
 10
3.890197592692816
 20
0.9140353034280613
 10
3.89099305607087
 20
0.9100579865378414
 10
3.892150093711665
 20
0.9062252993527303
 10
3.893668705615183
 20
0.9025372418726879
 10
3.895621206634011
 20
0.8991384438028653
 10
3.897862967063056
 20
0.8958842754381528
 10
3.900466301754828
 20
0.8929193664836184
 10
3.903358895856819
 20
0.8901714020867386
 10
3.906613064221531
 20
0.8877850119526019
 10
3.910156491996462
 20
0.8856155663761198
 10
3.91391686432903
 20
0.8838076950623815
 10
3.917966496071813
 20
0.8822890831588415
 10
3.919123533712611
 20
0.8819275088960987
 10
3.920352886205951
 20
0.8816382494858995
 10
3.921582238699291
 20
0.8813489900757003
 10
3.922883906045176
 20
0.8810597306655015
 10
3.924113258538517
 20
0.8808427861078467
 10
3.925414925884403
 20
0.8806981564027578
 10
3.926644278377743
 20
0.8804812118451032
 10
3.927945945723627
 20
0.880408896992559
 10
3.92917529821697
 20
0.8802642672874696
 10
3.930404650710308
 20
0.8801919524349044
 10
3.931634003203648
 20
0.8801196375823597
 10
3.932791040844446
 20
0.8801196375823597
 10
3.933948078485241
 20
0.8801196375823597
 10
3.935032801273494
 20
0.8801196375823597
 10
3.936117524061745
 20
0.8801919524349044
 10
3.937129931997411
 20
0.8802642672874696
 10
3.937129931997411
 20
0.8725988929172068
 10
3.929247613069533
 20
0.8681876869116983
 10
3.92765668631345
 20
0.867826112648955
 10
3.926065759557343
 20
0.8676091680913003
 10
3.924474832801261
 20
0.8676091680913003
 10
3.923028535750266
 20
0.867826112648955
 10
3.921509923846747
 20
0.8681153720591535
 10
3.920135941648299
 20
0.868621576026986
 10
3.918834274302412
 20
0.8692724096999498
 10
3.917532606956506
 20
0.8699955582254368
 10
3.916303254463166
 20
0.8708633364560341
 10
3.915146216822368
 20
0.8718034295391753
 10
3.91406149403414
 20
0.8728881523274052
 10
3.913049086098453
 20
0.8739728751156572
 10
3.912108993015291
 20
0.8752022276089977
 10
3.911241214784716
 20
0.8764315801023382
 10
3.910445751406683
 20
0.877660932595679
 10
3.909794917733741
 20
0.8789625999415633
 10
3.895910466044231
 20
0.8725265780646623
 10
3.896561299717173
 20
0.8712972255713218
 10
3.897356763095204
 20
0.8700678730779809
 10
3.898152226473255
 20
0.8687662057320959
 10
3.899020004703853
 20
0.8675368532387558
 10
3.900032412639538
 20
0.8663075007454153
 10
3.901044820575226
 20
0.8650781482520748
 10
3.902201858216022
 20
0.8639934254638228
 10
3.903358895856819
 20
0.8628363878230269
 10
3.904588248350158
 20
0.861823979887341
 10
3.905962230548587
 20
0.8608838868041996
 10
3.907408527599604
 20
0.8600884234261471
 10
3.908854824650577
 20
0.8592929600481159
 10
3.910445751406683
 20
0.8587144412277179
 10
3.912036678162746
 20
0.8582082372598641
 10
3.913772234623941
 20
0.8578466629971206
 10
3.915580105937678
 20
0.8577020332920316
 10
3.916158624758076
 20
0.8577020332920316
 10
3.916737143578476
 20
0.8577743481445763
 10
3.917387977251416
 20
0.8578466629971206
 10
3.918038810924361
 20
0.8579189778496647
 10
3.918617329744757
 20
0.8580636075547754
 10
3.919268163417698
 20
0.8582805521124301
 10
3.919846682238098
 20
0.8584974966700631
 10
3.920425201058496
 20
0.8587144412277179
 10
3.951737532212407
 20
0.8771547286278252
 10
3.952460680737913
 20
0.8777332474482232
 10
3.952966884705747
 20
0.8785287108262757
 10
3.953183829263423
 20
0.8794688039094172
 10
3.953256144115968
 20
0.8804812118451032
 10
3.953256144115968
 20
0.9289321630532576
 10
3.953111514410858
 20
0.9305954046618859
 10
3.952822255000658
 20
0.9321140165654258
 10
3.952316051032803
 20
0.9333433690587661
 10
3.951665217359863
 20
0.9343557769944736
 10
3.950869753981832
 20
0.9350789255199604
 10
3.949929660898668
 20
0.9356574443403582
 10
3.948989567815549
 20
0.9359467037505574
 10
3.948049474732384
 20
0.9360913334556464
  0
LWPOLYLINE
  5
4EF
330
17
100
AcDbEntity
  8
4
  6
Continuous
100
AcDbPolyline
 90
       96
 70
     0
 43
0.0
 10
4.103590914257989
 20
0.8598714788685143
 10
4.102433876617193
 20
0.8606669422465454
 10
4.101276838976398
 20
0.8614624056245979
 10
4.100264431040711
 20
0.862402498707739
 10
4.099396652810114
 20
0.8633425917908803
 10
4.098673504284628
 20
0.8644273145791323
 10
4.098094985464229
 20
0.8656566670724728
 10
4.097733411201486
 20
0.8669583344183578
 10
4.097588781496376
 20
0.868332316616787
 10
4.097588781496376
 20
0.9152646559214019
 10
4.097588781496376
 20
0.9172171569402507
 10
4.097444151791266
 20
0.9191696579590782
 10
4.097154892381088
 20
0.9212667886830161
 10
4.096576373560689
 20
0.9232916045543875
 10
4.095708595330093
 20
0.9253887352783252
 10
4.094334613131643
 20
0.9273412362971741
 10
4.092526741817903
 20
0.9292937373160011
 10
4.090068036831222
 20
0.9311739234822839
 10
4.088549424927707
 20
0.9321140165654258
 10
4.0869584981716
 20
0.9329094799434781
 10
4.085367571415517
 20
0.9335603136164213
 10
4.083632014954345
 20
0.9341388324368187
 10
4.081896458493148
 20
0.9345004066995624
 10
4.080160902031953
 20
0.9347173512572172
 10
4.078425345570761
 20
0.9348619809623055
 10
4.076617474257022
 20
0.9348619809623055
 10
4.074881917795851
 20
0.9347173512572172
 10
4.073146361334655
 20
0.9345004066995624
 10
4.071483119726027
 20
0.934211147289363
 10
4.069819878117377
 20
0.9337772581740754
 10
4.068301266213858
 20
0.9332710542062216
 10
4.066782654310298
 20
0.9326202205332791
 10
4.065336357259326
 20
0.9319693868603366
 10
4.064034689913441
 20
0.9311739234822839
 10
4.063311541387933
 20
0.9308123492195408
 10
4.062660707714988
 20
0.9304507749567974
 10
4.061937559189479
 20
0.9300892006940536
 10
4.061286725516538
 20
0.929655311578745
 10
4.060635891843596
 20
0.9291491076109128
 10
4.059912743318109
 20
0.9286429036430591
 10
4.059261909645167
 20
0.9279920699701163
 10
4.058466446267114
 20
0.9273412362971741
 10
4.058104872004369
 20
0.9287152184956031
 10
4.057526353183972
 20
0.9299445709889436
 10
4.056875519511031
 20
0.9310292937771954
 10
4.056080056133
 20
0.9320417017128812
 10
4.055212277902381
 20
0.9329094799434781
 10
4.054272184819258
 20
0.9336326284689652
 10
4.053332091736097
 20
0.9342834621419076
 10
4.052319683800409
 20
0.9347896661097614
 10
4.035759582566586
 20
0.9347896661097614
 10
4.037278194470126
 20
0.9337049433215094
 10
4.038579861816011
 20
0.9324755908281691
 10
4.039664584604262
 20
0.9311739234822839
 10
4.040604677687383
 20
0.929655311578745
 10
4.041327826212891
 20
0.9280643848226608
 10
4.041834030180725
 20
0.926256513508922
 10
4.042195604443487
 20
0.9243763273426392
 10
4.042267919296032
 20
0.9222791966187012
 10
4.042267919296032
 20
0.8580636075547754
 10
4.059117279940077
 20
0.8710802810136675
 10
4.059117279940077
 20
0.9155539153316013
 10
4.059406539350254
 20
0.9179403054657374
 10
4.060129687875742
 20
0.920037436189675
 10
4.061214410663993
 20
0.9218453075034137
 10
4.062660707714988
 20
0.9233639194069532
 10
4.064323949323616
 20
0.9245932719002937
 10
4.066131820637356
 20
0.9254610501308906
 10
4.068084321656183
 20
0.9260395689512675
 10
4.070036822675032
 20
0.926256513508922
 10
4.071193860315828
 20
0.926256513508922
 10
4.072350897956603
 20
0.9261118838038331
 10
4.073435620744856
 20
0.9258949392461786
 10
4.074520343533105
 20
0.92560567983598
 10
4.075532751468792
 20
0.9252441055732363
 10
4.076545159404478
 20
0.9247379016053828
 10
4.07748525248764
 20
0.9242316976375287
 10
4.078353030718215
 20
0.9235808639645867
 10
4.079220808948814
 20
0.9229300302916442
 10
4.079943957474322
 20
0.9222068817661575
 10
4.080522476294721
 20
0.9213391035355602
 10
4.081100995115096
 20
0.9205436401575074
 10
4.081534884230386
 20
0.9196035470743662
 10
4.081824143640603
 20
0.9186634539912246
 10
4.082041088198238
 20
0.9176510460555387
 10
4.082113403050783
 20
0.9165663232672871
 10
4.082113403050783
 20
0.8669583344183578
 10
4.082185717903326
 20
0.8658012967775619
 10
4.082330347608436
 20
0.8645719442842212
 10
4.082691921871181
 20
0.8634149066434249
 10
4.083198125839033
 20
0.8622578690026506
 10
4.083993589217066
 20
0.8613177759195087
 10
4.085005997152773
 20
0.8605223125414561
 10
4.086379979351202
 20
0.8600161085736029
 10
4.088115535812397
 20
0.8598714788685143
 10
4.103590914257989
 20
0.8598714788685143
  0
LWPOLYLINE
  5
551
330
17
100
AcDbEntity
  8
4
  6
Continuous
100
AcDbPolyline
 90
       34
 70
     0
 43
0.0
 10
4.13545550171027
 20
0.9290767927583466
 10
4.138275780959673
 20
0.9287875333481474
 10
4.141023745356575
 20
0.9282090145277496
 10
4.143627080048346
 20
0.9271966065920636
 10
4.146158099887569
 20
0.925822624393634
 10
4.148472175169161
 20
0.9242316976375287
 10
4.15071393559821
 20
0.9222791966187012
 10
4.152738751469581
 20
0.9201097510422201
 10
4.154618937635865
 20
0.9177233609080827
 10
4.156354494097059
 20
0.9150477113637474
 10
4.157800791148034
 20
0.9122997469668677
 10
4.159102458493919
 20
0.909334838012354
 10
4.16018718128217
 20
0.906297614205275
 10
4.161054959512766
 20
0.9031157606930859
 10
4.161633478333165
 20
0.8998615923283733
 10
4.162067367448451
 20
0.8966074239636402
 10
4.162139682300996
 20
0.8932809407463619
 10
4.161922737743364
 20
0.8902437169392829
 10
4.161344218922965
 20
0.8873511228373139
 10
4.160476440692367
 20
0.8845308435878681
 10
4.159319403051592
 20
0.8819275088960987
 10
4.157873106000599
 20
0.8793964890568728
 10
4.15620986439197
 20
0.8770824137752807
 10
4.154329678225662
 20
0.8749852830513431
 10
4.152377177206816
 20
0.8730327820325156
 10
4.150280046482901
 20
0.8712249107187775
 10
4.148110600906417
 20
0.8696339839626933
 10
4.145868840477393
 20
0.8682600017642428
 10
4.143699394900889
 20
0.8671029641234467
 10
4.141457634471863
 20
0.8662351858928708
 10
4.139360503747924
 20
0.8655120373673629
 10
4.137335687876553
 20
0.8650781482520748
 10
4.13545550171027
 20
0.8648612036944204
 10
4.13545550171027
 20
0.9290767927583466
  0
LWPOLYLINE
  5
575
330
17
100
AcDbEntity
  8
4
  6
Continuous
100
AcDbPolyline
 90
       44
 70
     0
 43
0.0
 10
4.143627080048346
 20
0.9350789255199604
 10
4.111591600368926
 20
0.9350789255199604
 10
4.112604008304613
 20
0.9345004066995624
 10
4.113761045945406
 20
0.9337049433215094
 10
4.114845768733659
 20
0.9325479056807347
 10
4.115930491521912
 20
0.9312462383348291
 10
4.11687058460503
 20
0.9297276264312891
 10
4.117666047983083
 20
0.9279920699701163
 10
4.118099937098373
 20
0.9261841986563775
 10
4.118316881656048
 20
0.9242316976375287
 10
4.118316881656048
 20
0.8598714788685143
 10
4.142325412702459
 20
0.8598714788685143
 10
4.146375044445225
 20
0.8600884234261471
 10
4.150280046482901
 20
0.8606669422465454
 10
4.154040418815466
 20
0.8616070353296867
 10
4.157583846590397
 20
0.8629087026755929
 10
4.160910329807656
 20
0.8645719442842212
 10
4.164092183319846
 20
0.8665967601556141
 10
4.166984777421813
 20
0.8688385205846408
 10
4.169660426966173
 20
0.8714418552764321
 10
4.172046817100286
 20
0.8742621345258561
 10
4.17421626267677
 20
0.8773716731854799
 10
4.176096448843051
 20
0.8806981564027578
 10
4.177615060746611
 20
0.8842415841776903
 10
4.178844413239953
 20
0.8880019565102568
 10
4.179784506323073
 20
0.8919069585479327
 10
4.180290710290926
 20
0.8960289051432418
 10
4.180507654848581
 20
0.9002954814436614
 10
4.180363025143471
 20
0.9039112240711384
 10
4.179784506323073
 20
0.9073823369935055
 10
4.178844413239953
 20
0.9107088202107831
 10
4.177542745894045
 20
0.9138906737229728
 10
4.175951819137961
 20
0.9170002123825964
 10
4.17407163297168
 20
0.9198204916320204
 10
4.171902187395176
 20
0.9224961411763564
 10
4.169443482408496
 20
0.9249548461630375
 10
4.166840147716723
 20
0.9271966065920636
 10
4.163947553614733
 20
0.9292214224634566
 10
4.160910329807656
 20
0.9309569789246513
 10
4.157656161442944
 20
0.9324032759756248
 10
4.154329678225662
 20
0.9335603136164213
 10
4.150858565303299
 20
0.9344280918470175
 10
4.147242822675821
 20
0.9349342958148714
 10
4.143627080048346
 20
0.9350789255199604
  0
LWPOLYLINE
  5
5A3
330
17
100
AcDbEntity
  8
4
  6
Continuous
100
AcDbPolyline
 90
       21
 70
     0
 43
0.0
 10
3.775863338115978
 20
0.9319693868603366
 10
3.7935804769906
 20
0.9319693868603366
 10
3.795894552272168
 20
0.9317524423026824
 10
3.797991682996109
 20
0.9311016086297399
 10
3.799944184014957
 20
0.9300892006940536
 10
3.801679740476148
 20
0.9287152184956031
 10
3.803053722674578
 20
0.927051976886975
 10
3.804138445462831
 20
0.9250994758681262
 10
3.804789279135773
 20
0.9230023451441887
 10
3.805006223693404
 20
0.9206882698626175
 10
3.804861593988316
 20
0.9188080836963351
 10
3.804427704873008
 20
0.9169278975300516
 10
3.803704556347522
 20
0.9152646559214019
 10
3.802764463264381
 20
0.9136737291653179
 10
3.801535110771038
 20
0.912372061819433
 10
3.800088813720043
 20
0.9113596538837256
 10
3.798425572111395
 20
0.9107088202107831
 10
3.796473071092568
 20
0.9104918756531503
 10
3.779189821333256
 20
0.9104918756531503
 10
3.779189821333256
 20
0.9280643848226608
 10
3.775863338115978
 20
0.9319693868603366
  0
LWPOLYLINE
  5
5BA
330
17
100
AcDbEntity
  8
4
  6
Continuous
100
AcDbPolyline
 90
       21
 70
     0
 43
0.0
 10
3.705854580633681
 20
0.9321140165654258
 10
3.723571719508301
 20
0.9321140165654258
 10
3.725813479937328
 20
0.9318970720077924
 10
3.727982925513809
 20
0.9312462383348291
 10
3.729863111680113
 20
0.9302338303991426
 10
3.731598668141286
 20
0.9288598482007131
 10
3.732972650339736
 20
0.9271966065920636
 10
3.734057373127968
 20
0.9253164204257807
 10
3.734708206800932
 20
0.9232192897018427
 10
3.734925151358565
 20
0.9209052144202724
 10
3.734780521653476
 20
0.9190250282539679
 10
3.734346632538168
 20
0.9171448420876847
 10
3.733695798865222
 20
0.9154092856265119
 10
3.732755705782083
 20
0.9138906737229728
 10
3.731526353288741
 20
0.9125890063770663
 10
3.730080056237746
 20
0.9115765984413803
 10
3.728416814629096
 20
0.910925764768438
 10
3.72646431361027
 20
0.9107088202107831
 10
3.709181063850958
 20
0.9107088202107831
 10
3.709181063850958
 20
0.9282813293803155
 10
3.705854580633681
 20
0.9321140165654258
  0
LWPOLYLINE
  5
5D1
330
17
100
AcDbEntity
  8
4
  6
Continuous
100
AcDbPolyline
 90
       46
 70
     0
 43
0.0
 10
3.726319683905181
 20
0.9360913334556464
 10
3.687052718970828
 20
0.9360913334556464
 10
3.687920497201406
 20
0.9349342958148714
 10
3.688715960579438
 20
0.9336326284689652
 10
3.689511423957509
 20
0.9323309611230799
 10
3.690162257630453
 20
0.9309569789246513
 10
3.690668461598285
 20
0.9295106818736558
 10
3.691102350713573
 20
0.9280643848226608
 10
3.691391610123791
 20
0.9266904026242317
 10
3.691463924976338
 20
0.9252441055732363
 10
3.691463924976338
 20
0.8584974966700631
 10
3.70903643414587
 20
0.8753468573140866
 10
3.70903643414587
 20
0.9052852062695679
 10
3.732611076076971
 20
0.9052852062695679
 10
3.734202002833078
 20
0.9053575211221334
 10
3.735720614736596
 20
0.9054298359746779
 10
3.737239226640156
 20
0.9056467805323327
 10
3.738685523691128
 20
0.9059360399425319
 10
3.740131820742126
 20
0.9063699290578195
 10
3.741505802940575
 20
0.9069484478782175
 10
3.742807470286461
 20
0.9075992815511604
 10
3.743964507927256
 20
0.9083947449292127
 10
3.745121545568053
 20
0.909334838012354
 10
3.746061638651172
 20
0.9104918756531503
 10
3.746929416881791
 20
0.9117212281464691
 10
3.747652565407279
 20
0.9131675251974645
 10
3.748158769375133
 20
0.9148307668061143
 10
3.748592658490421
 20
0.9166386381198527
 10
3.748809603048075
 20
0.9186634539912246
 10
3.748809603048075
 20
0.9209052144202724
 10
3.748592658490421
 20
0.9232916045543875
 10
3.748158769375133
 20
0.9253887352783252
 10
3.747435620849624
 20
0.9272689214446083
 10
3.746567842619026
 20
0.9289321630532576
 10
3.745410804978233
 20
0.9303784601042528
 10
3.74418145248489
 20
0.9316078125975931
 10
3.742735155433916
 20
0.9326925353858239
 10
3.741144228677812
 20
0.9335603136164213
 10
3.739480987069183
 20
0.9342834621419076
 10
3.737673115755444
 20
0.9348619809623055
 10
3.735865244441705
 20
0.9352958700776149
 10
3.733985058275423
 20
0.935585129487814
 10
3.732032557256575
 20
0.9358743888980127
 10
3.730080056237746
 20
0.9360190186031015
 10
3.728199870071464
 20
0.9360913334556464
 10
3.726319683905181
 20
0.9360913334556464
  0
LWPOLYLINE
  5
601
330
17
100
AcDbEntity
  8
4
  6
Continuous
100
AcDbPolyline
 90
      104
 70
     0
 43
0.0
 10
3.654063788637807
 20
0.9360190186031015
 10
3.656088604509179
 20
0.9338495730266199
 10
3.656956382739776
 20
0.9326202205332791
 10
3.657679531265261
 20
0.9313908680399388
 10
3.658330364938226
 20
0.9302338303991426
 10
3.658836568906058
 20
0.9291491076109128
 10
3.659270458021346
 20
0.9279920699701163
 10
3.659559717431568
 20
0.92683503232932
 10
3.659704347136655
 20
0.9256779946885242
 10
3.659776661989202
 20
0.9244486421951837
 10
3.659776661989202
 20
0.8682600017642428
 10
3.657968790675461
 20
0.8684769463218968
 10
3.656160919361723
 20
0.8688385205846408
 10
3.654425362900528
 20
0.8692724096999498
 10
3.652689806439358
 20
0.8698509285203266
 10
3.651026564830726
 20
0.870574077045835
 10
3.649363323222078
 20
0.8712972255713218
 10
3.647700081613431
 20
0.8721650038019191
 10
3.646181469709909
 20
0.8731050968850603
 10
3.644662857806349
 20
0.8741898196733115
 10
3.643216560755374
 20
0.8752745424615422
 10
3.641842578556948
 20
0.8765038949548831
 10
3.64054091121104
 20
0.8778055623007677
 10
3.639239243865155
 20
0.879107229646674
 10
3.63808220622436
 20
0.8805535266976477
 10
3.636997483436128
 20
0.8820721386011872
 10
3.635985075500423
 20
0.883590750504727
 10
3.634394148744338
 20
0.8864833446067168
 10
3.633092481398453
 20
0.8895205684137961
 10
3.632080073462766
 20
0.8927024219259639
 10
3.631429239789826
 20
0.8959565902906977
 10
3.631139980379606
 20
0.8992830735079756
 10
3.631284610084716
 20
0.9025372418726879
 10
3.631935443757656
 20
0.9058637250899661
 10
3.633020166545888
 20
0.9090455786021554
 10
3.633598685366285
 20
0.9104195608005849
 10
3.634249519039228
 20
0.9117212281464691
 10
3.634972667564736
 20
0.9130228954923758
 10
3.635695816090243
 20
0.9142522479857163
 10
3.636491279468274
 20
0.9155539153316013
 10
3.637359057698873
 20
0.9167832678249412
 10
3.63822683592947
 20
0.9179403054657374
 10
3.639094614160044
 20
0.9191696579590782
 10
3.640034707243208
 20
0.9203266955998742
 10
3.640974800326326
 20
0.9214114183881044
 10
3.641987208262037
 20
0.9225684560289007
 10
3.642999616197721
 20
0.9236531788171523
 10
3.644012024133408
 20
0.9247379016053828
 10
3.645096746921658
 20
0.9257503095410688
 10
3.646109154857367
 20
0.9267627174767763
 10
3.647193877645596
 20
0.9277751254124616
 10
3.648061655876193
 20
0.9287875333481474
 10
3.648640174696593
 20
0.9299445709889436
 10
3.649001748959333
 20
0.9311016086297399
 10
3.649001748959333
 20
0.9323309611230799
 10
3.648857119254224
 20
0.9334156839113108
 10
3.648423230138936
 20
0.9345004066995624
 10
3.647917026171104
 20
0.935368184930159
 10
3.647193877645596
 20
0.9360190186031015
 10
3.621305160432879
 20
0.9360190186031015
 10
3.622534512926221
 20
0.9348619809623055
 10
3.623908495124648
 20
0.9334156839113108
 10
3.625210162470556
 20
0.9316801274501376
 10
3.626294885258785
 20
0.9297999412838548
 10
3.627090348636838
 20
0.9277028105599175
 10
3.627451922899584
 20
0.9255333649834351
 10
3.627162663489404
 20
0.9233639194069532
 10
3.626150255553698
 20
0.9212667886830161
 10
3.618195621773256
 20
0.9073823369935055
 10
3.616243120754428
 20
0.9033327052507406
 10
3.615013768261088
 20
0.8990661289503208
 10
3.614435249440691
 20
0.8946549229448127
 10
3.614507564293233
 20
0.8901714020867386
 10
3.615230712818723
 20
0.8856878812286641
 10
3.616677009869716
 20
0.8814213049282447
 10
3.618701825741109
 20
0.8773716731854799
 10
3.621377475285424
 20
0.8737559305580029
 10
3.62267914263131
 20
0.8723096335070291
 10
3.624053124829762
 20
0.8709356513085783
 10
3.625499421880754
 20
0.8695616691101278
 10
3.627018033784294
 20
0.8682600017642428
 10
3.628536645687833
 20
0.8671029641234467
 10
3.630199887296484
 20
0.8659459264826717
 10
3.631863128905091
 20
0.8648612036944204
 10
3.633598685366285
 20
0.8639211106112787
 10
3.635334241827478
 20
0.862981017528137
 10
3.637142113141218
 20
0.8621855541500844
 10
3.638949984454955
 20
0.8615347204771421
 10
3.64083017062124
 20
0.8609562016567441
 10
3.642710356787523
 20
0.8604499976889119
 10
3.644662857806349
 20
0.8601607382787129
 10
3.646543043972656
 20
0.8599437937210581
 10
3.648495544991503
 20
0.8598714788685143
 10
3.676192133517938
 20
0.8598714788685143
 10
3.676192133517938
 20
0.9251717907206915
 10
3.676264448370481
 20
0.9266180877716651
 10
3.676336763223022
 20
0.9280643848226608
 10
3.67655370778068
 20
0.9294383670210899
 10
3.676842967190879
 20
0.9308846640720853
 10
3.677276856306186
 20
0.9322586462705356
 10
3.677783060274019
 20
0.9335603136164213
 10
3.678361579094418
 20
0.9347896661097614
 10
3.679012412767361
 20
0.9360190186031015
 10
3.654063788637807
 20
0.9360190186031015
  0
LWPOLYLINE
  5
66B
330
17
100
AcDbEntity
  8
4
  6
Continuous
100
AcDbPolyline
 90
      213
 70
     0
 43
0.0
 10
3.597532178785384
 20
0.9316078125975931
 10
3.595868937176776
 20
0.9322586462705356
 10
3.594205695568127
 20
0.9328371650909339
 10
3.592542453959477
 20
0.9333433690587661
 10
3.590806897498305
 20
0.9337772581740754
 10
3.589071341037112
 20
0.934066517584274
 10
3.587335784575939
 20
0.9343557769944736
 10
3.585600228114743
 20
0.9345727215521066
 10
3.583864671653549
 20
0.9347173512572172
 10
3.58205680033981
 20
0.9347896661097614
 10
3.580321243878617
 20
0.9347896661097614
 10
3.578513372564879
 20
0.9347173512572172
 10
3.576777816103707
 20
0.9345727215521066
 10
3.574969944789968
 20
0.9343557769944736
 10
3.573234388328773
 20
0.9341388324368187
 10
3.5714988318676
 20
0.9337772581740754
 10
3.569763275406406
 20
0.9334156839113108
 10
3.566726051599327
 20
0.9324755908281691
 10
3.563761142644795
 20
0.9311016086297399
 10
3.560940863395368
 20
0.9295106818736558
 10
3.558192898998488
 20
0.927558180854807
 10
3.555661879159265
 20
0.9253887352783252
 10
3.553275489025126
 20
0.9229300302916442
 10
3.551178358301188
 20
0.9203266955998742
 10
3.549298172134904
 20
0.9175787312029941
 10
3.547779560231366
 20
0.9146861371010043
 10
3.546622522590569
 20
0.911648913293925
 10
3.545754744359973
 20
0.9086116894868457
 10
3.545393170097231
 20
0.9055021508272226
 10
3.545465484949774
 20
0.9023926121675993
 10
3.545971688917628
 20
0.8992830735079756
 10
3.546984096853336
 20
0.8962458497008967
 10
3.548575023609396
 20
0.8933532555989064
 10
3.548936597872163
 20
0.8929193664836184
 10
3.54937048698745
 20
0.8925577922208752
 10
3.54980437610274
 20
0.8922685328106759
 10
3.550310580070591
 20
0.8919792734004769
 10
3.550816784038444
 20
0.8918346436953669
 10
3.551322988006298
 20
0.8917623288428222
 10
3.551901506826697
 20
0.8917623288428222
 10
3.552480025647096
 20
0.8919069585479327
 10
3.573017443771118
 20
0.8958119605855877
 10
3.574174481411914
 20
0.8960289051432418
 10
3.575331519052709
 20
0.8961735348483522
 10
3.576560871546051
 20
0.8963904794059851
 10
3.577717909186848
 20
0.8964627942585508
 10
3.578947261680188
 20
0.8966074239636402
 10
3.580104299320983
 20
0.8966797388161843
 10
3.581261336961779
 20
0.8966797388161843
 10
3.58249068945512
 20
0.8966797388161843
 10
3.583647727095916
 20
0.8966074239636402
 10
3.58480476473669
 20
0.8965351091110957
 10
3.585961802377488
 20
0.8963904794059851
 10
3.587118840018263
 20
0.8961735348483522
 10
3.588203562806513
 20
0.8958842754381528
 10
3.58936060044731
 20
0.8955950160279542
 10
3.590445323235563
 20
0.8951611269126447
 10
3.59153004602379
 20
0.8947272377973567
 10
3.593988751010473
 20
0.8932086258938177
 10
3.595796622324211
 20
0.8910391803173357
 10
3.597025974817553
 20
0.8885081604780889
 10
3.59774912334306
 20
0.8856155663761198
 10
3.597821438195605
 20
0.8825783425690405
 10
3.597315234227751
 20
0.8794688039094172
 10
3.596302826292064
 20
0.8765762098074274
 10
3.594784214388524
 20
0.8739005602631131
 10
3.593699491600276
 20
0.8726712077697722
 10
3.592614768812022
 20
0.8714418552764321
 10
3.591313101466138
 20
0.8704294473407243
 10
3.590011434120251
 20
0.869489354257583
 10
3.588637451921823
 20
0.868621576026986
 10
3.587118840018263
 20
0.8678984275014991
 10
3.585600228114743
 20
0.8673922235336455
 10
3.584009301358641
 20
0.8669583344183578
 10
3.582129115192356
 20
0.866741389860703
 10
3.580248929026073
 20
0.866741389860703
 10
3.578441057712336
 20
0.8668860195658133
 10
3.576560871546051
 20
0.8673199086811012
 10
3.574825315084857
 20
0.867826112648955
 10
3.573017443771118
 20
0.8685492611744416
 10
3.57135420216249
 20
0.8694170394050392
 10
3.569690960553863
 20
0.8704294473407243
 10
3.568100033797756
 20
0.8715864849815208
 10
3.566581421894238
 20
0.8728158374748611
 10
3.565135124843221
 20
0.8741898196733115
 10
3.563761142644795
 20
0.8756361167242856
 10
3.562531790151451
 20
0.8771547286278252
 10
3.561302437658111
 20
0.8787456553839303
 10
3.560217714869859
 20
0.880408896992559
 10
3.559277621786738
 20
0.8820721386011872
 10
3.542572890847806
 20
0.8744790790835113
 10
3.543440669078401
 20
0.8723096335070291
 10
3.544525391866633
 20
0.8702125027830916
 10
3.545971688917628
 20
0.868332316616787
 10
3.547634930526276
 20
0.8665244453030698
 10
3.54951511669256
 20
0.8648612036944204
 10
3.551612247416477
 20
0.8633425917908803
 10
3.553854007845524
 20
0.8619686095924517
 10
3.556240397979661
 20
0.8607392570991109
 10
3.558771417818886
 20
0.8597268491634038
 10
3.561374752510656
 20
0.8588590709328066
 10
3.564122716907557
 20
0.8581359224073196
 10
3.566798366451873
 20
0.8577020332920316
 10
3.569546330848751
 20
0.8573404590292883
 10
3.572294295245631
 20
0.857268144176723
 10
3.574969944789968
 20
0.8574127738818329
 10
3.577645594334303
 20
0.8577020332920316
 10
3.579670410205673
 20
0.8581359224073196
 10
3.581622911224502
 20
0.8587144412277179
 10
3.583575412243352
 20
0.8593652749006604
 10
3.585455598409654
 20
0.8601607382787129
 10
3.587263469723373
 20
0.8611008313618544
 10
3.589071341037112
 20
0.8621855541500844
 10
3.59073458264574
 20
0.8632702769383362
 10
3.592397824254388
 20
0.8645719442842212
 10
3.593916436157926
 20
0.8658736116301062
 10
3.595435048061468
 20
0.8673199086811012
 10
3.596809030259897
 20
0.8688385205846408
 10
3.598110697605783
 20
0.8705017621932904
 10
3.59926773524658
 20
0.8721650038019191
 10
3.60035245803483
 20
0.8739005602631131
 10
3.60129255111797
 20
0.8757084315768516
 10
3.602160329348568
 20
0.8775886177431344
 10
3.602955792726601
 20
0.8796857484670718
 10
3.603534311546998
 20
0.8817828791910095
 10
3.603968200662305
 20
0.8838800099149255
 10
3.604329774925052
 20
0.8861217703439734
 10
3.604474404630161
 20
0.8882912159204558
 10
3.604474404630161
 20
0.8904606614969377
 10
3.604329774925052
 20
0.8926301070734194
 10
3.603968200662305
 20
0.8947995526499013
 10
3.603534311546998
 20
0.8966797388161843
 10
3.602955792726601
 20
0.898487610129923
 10
3.602232644201113
 20
0.9002231665911168
 10
3.601364865970538
 20
0.9019587230523114
 10
3.600280143182285
 20
0.9034773349558506
 10
3.599050790688945
 20
0.9049236320068242
 10
3.59760449363795
 20
0.9062252993527303
 10
3.596085881734409
 20
0.9073100221409607
 10
3.595435048061468
 20
0.9077439112562489
 10
3.594711899535981
 20
0.9081778003715578
 10
3.593988751010473
 20
0.9085393746343015
 10
3.593265602484964
 20
0.9089009488970454
 10
3.592542453959477
 20
0.9092625231598095
 10
3.591746990581446
 20
0.9095517825699875
 10
3.591023842055959
 20
0.9097687271276422
 10
3.590228378677908
 20
0.9099856716852963
 10
3.589432915299854
 20
0.9102026162429512
 10
3.588637451921823
 20
0.9104195608005849
 10
3.58784198854377
 20
0.9105641905056948
 10
3.587046525165717
 20
0.9107088202107831
 10
3.586251061787685
 20
0.9108534499158938
 10
3.585455598409654
 20
0.910925764768438
 10
3.584587820179036
 20
0.9110703944735265
 10
3.583792356801005
 20
0.9111427093260926
 10
3.582996893422973
 20
0.9111427093260926
 10
3.5822014300449
 20
0.9111427093260926
 10
3.581405966666868
 20
0.9112150241786372
 10
3.580610503288836
 20
0.9112150241786372
 10
3.579815039910784
 20
0.9112150241786372
 10
3.579019576532732
 20
0.9112873390311817
 10
3.578151798302134
 20
0.9112873390311817
 10
3.577284020071538
 20
0.9112873390311817
 10
3.576416241840962
 20
0.9112873390311817
 10
3.575548463610365
 20
0.9112150241786372
 10
3.574536055674678
 20
0.9111427093260926
 10
3.573595962591516
 20
0.9110703944735265
 10
3.57258355465583
 20
0.9109980796209825
 10
3.5714988318676
 20
0.9108534499158938
 10
3.570414109079348
 20
0.9106365053582392
 10
3.569257071438553
 20
0.9104195608005849
 10
3.552696970204728
 20
0.9073823369935055
 10
3.552263081089421
 20
0.9089009488970454
 10
3.552046136531787
 20
0.9103472459480403
 10
3.552118451384328
 20
0.9118658578515795
 10
3.552335395941983
 20
0.9133121549025744
 10
3.552841599909816
 20
0.9147584519535485
 10
3.553420118730215
 20
0.9161324341519991
 10
3.554287896960812
 20
0.9175064163504288
 10
3.555227990043953
 20
0.9187357688437687
 10
3.556312712832205
 20
0.9198928064845651
 10
3.557542065325546
 20
0.9210498441253612
 10
3.558843732671431
 20
0.9219899372085027
 10
3.560290029722424
 20
0.9228577154390995
 10
3.561808641625964
 20
0.9235808639645867
 10
3.563327253529505
 20
0.9242316976375503
 10
3.564918180285589
 20
0.9246655867528383
 10
3.566581421894238
 20
0.9249548461630375
 10
3.568027718945212
 20
0.9250271610155811
 10
3.569546330848751
 20
0.9250271610155811
 10
3.570992627899746
 20
0.9248825313104928
 10
3.572438924950721
 20
0.9246655867528383
 10
3.573885222001738
 20
0.9243763273426392
 10
3.575331519052709
 20
0.9239424382273515
 10
3.57670550125114
 20
0.9234362342594975
 10
3.578079483449589
 20
0.9228577154390995
 10
3.57945346564804
 20
0.9222068817661575
 10
3.580827447846471
 20
0.9214837332406487
 10
3.582129115192356
 20
0.9207605847151619
 10
3.583430782538241
 20
0.9198928064845651
 10
3.58466013503158
 20
0.9190250282539679
 10
3.585889487524921
 20
0.9181572500233926
 10
3.587118840018263
 20
0.9172171569402507
 10
3.588275877659058
 20
0.9162770638570879
 10
3.607005424469386
 20
0.9250994758681262
 10
3.605993016533678
 20
0.9261118838038331
 10
3.604908293745448
 20
0.9271242917395191
 10
3.603823570957219
 20
0.9280643848226608
 10
3.602594218463877
 20
0.9288598482007131
 10
3.601364865970538
 20
0.929655311578745
 10
3.600135513477196
 20
0.9303784601042528
 10
3.598833846131292
 20
0.9310292937771954
 10
3.597532178785384
 20
0.9316078125975931
  0
LWPOLYLINE
  5
742
330
17
100
AcDbEntity
  8
4
  6
Continuous
100
AcDbPolyline
 90
       21
 70
     0
 43
0.0
 10
3.237691501069613
 20
0.9184465094335912
 10
3.237474556511978
 20
0.9162047490045438
 10
3.236823722839037
 20
0.9141076182806058
 10
3.23581131490333
 20
0.9122997469668677
 10
3.234437332704901
 20
0.9107088202107831
 10
3.232774091096252
 20
0.9094071528648989
 10
3.230893904929968
 20
0.9084670597817567
 10
3.228796774206053
 20
0.9078885409613588
 10
3.226627328629546
 20
0.9076715964037042
 10
3.212092043267094
 20
0.9076715964037042
 10
3.212092043267094
 20
0.926256513508922
 10
3.210645746216123
 20
0.9297999412838548
 10
3.226916588039745
 20
0.9297999412838548
 10
3.229086033616229
 20
0.9295829967262003
 10
3.231183164340166
 20
0.9289321630532576
 10
3.232991035653903
 20
0.9279197551175716
 10
3.23458196240999
 20
0.9265457729191211
 10
3.235883629755873
 20
0.9248102164579268
 10
3.236823722839037
 20
0.9229300302916442
 10
3.237474556511978
 20
0.9207605847151619
 10
3.237691501069613
 20
0.9184465094335912
  0
LWPOLYLINE
  5
759
330
17
100
AcDbEntity
  8
4
  6
Continuous
100
AcDbPolyline
 90
      114
 70
     0
 43
0.0
 10
3.413538714343063
 20
0.8592929600481159
 10
3.412743250965032
 20
0.8599437937210581
 10
3.411947787586977
 20
0.8608838868041996
 10
3.411152324208926
 20
0.8621855541500844
 10
3.410356860830896
 20
0.8637764809061899
 10
3.409633712305407
 20
0.8656566670724728
 10
3.409055193485011
 20
0.8679707423540437
 10
3.408621304369701
 20
0.8706463918983793
 10
3.408332044959522
 20
0.8736836157054581
 10
3.408332044959522
 20
0.9215560480932149
 10
3.40825973010698
 20
0.9228577154390995
 10
3.407970470696758
 20
0.9242316976375503
 10
3.407464266728906
 20
0.92560567983598
 10
3.406741118203418
 20
0.926907347181865
 10
3.405801025120278
 20
0.9282090145277708
 10
3.404643987479481
 20
0.9295106818736558
 10
3.403342320133595
 20
0.9307400343669963
 10
3.401823708230056
 20
0.9319693868603366
 10
3.400160466621406
 20
0.9330541096485674
 10
3.398280280455123
 20
0.934066517584274
 10
3.396183149731209
 20
0.9349342958148714
 10
3.394013704154703
 20
0.9357297591929027
 10
3.391554999168024
 20
0.9363082780133012
 10
3.389023979328797
 20
0.9368144819811544
 10
3.386276014931918
 20
0.9371037413913535
 10
3.383383420829948
 20
0.9372483710964424
 10
3.380273882170325
 20
0.9371037413913535
 10
3.377236658363246
 20
0.936669852276044
 10
3.374271749408713
 20
0.9358020740454474
 10
3.371451470159267
 20
0.9347173512572172
 10
3.368775820614953
 20
0.9332710542062216
 10
3.366172485923182
 20
0.9316078125975931
 10
3.363786095789047
 20
0.929655311578745
 10
3.361544335359996
 20
0.9274858660022625
 10
3.359519519488627
 20
0.9250994758681262
 10
3.357639333322343
 20
0.9225684560289007
 10
3.356048406566238
 20
0.9198928064845651
 10
3.354746739220353
 20
0.9170725272351404
 10
3.3536620164321
 20
0.9141076182806058
 10
3.352866553054069
 20
0.9110703944735265
 10
3.352360349086215
 20
0.9079608558139039
 10
3.352215719381128
 20
0.9047790023017356
 10
3.352215719381128
 20
0.869489354257583
 10
3.352071089676018
 20
0.8672475938285566
 10
3.351564885708184
 20
0.8653674076622742
 10
3.350914052035242
 20
0.8637764809061899
 10
3.350046273804623
 20
0.8624748135602835
 10
3.349178495574048
 20
0.8614624056245979
 10
3.348310717343451
 20
0.8605946273940006
 10
3.347442939112853
 20
0.8599437937210581
 10
3.346792105439913
 20
0.8593652749006604
 10
3.362122854180396
 20
0.8593652749006604
 10
3.364147670051767
 20
0.8596545343108591
 10
3.365883226512963
 20
0.8603776828363463
 10
3.367401838416522
 20
0.8614624056245979
 10
3.368703505762406
 20
0.8629087026755929
 10
3.369788228550636
 20
0.8644996294316769
 10
3.370583691928692
 20
0.8662351858928708
 10
3.371089895896544
 20
0.8680430572066093
 10
3.371379155306721
 20
0.8698509285203266
 10
3.37152378501181
 20
0.8724542632121178
 10
3.371162210749089
 20
0.8751299127564532
 10
3.370656006781234
 20
0.8777332474482232
 10
3.370005173108292
 20
0.8802642672874696
 10
3.369137394877696
 20
0.8838800099149255
 10
3.368341931499642
 20
0.8874957525424028
 10
3.367618782974157
 20
0.8911114951698797
 10
3.36689563444867
 20
0.8947272377973567
 10
3.366244800775725
 20
0.898342980424834
 10
3.365738596807873
 20
0.9020310379048556
 10
3.365304707692564
 20
0.9056467805323327
 10
3.365015448282385
 20
0.909334838012354
 10
3.364943133429842
 20
0.912372061819433
 10
3.365160077987475
 20
0.9154816004790568
 10
3.365666281955326
 20
0.9185188242861359
 10
3.366461745333359
 20
0.9214837332406702
 10
3.367618782974157
 20
0.9242316976375503
 10
3.369137394877696
 20
0.9267627174767763
 10
3.371017581043978
 20
0.9289321630532576
 10
3.373403971178114
 20
0.9307400343669963
 10
3.374777953376566
 20
0.9314631828924831
 10
3.37622425042754
 20
0.9319693868603366
 10
3.377742862331079
 20
0.9323309611230799
 10
3.379261474234618
 20
0.9325479056807347
 10
3.380852400990723
 20
0.9325479056807347
 10
3.382443327746788
 20
0.9323309611230799
 10
3.383961939650346
 20
0.9319693868603366
 10
3.385480551553866
 20
0.9314631828924831
 10
3.386854533752318
 20
0.9307400343669963
 10
3.388156201098221
 20
0.9298722561363991
 10
3.389385553591542
 20
0.9287875333481474
 10
3.390397961527228
 20
0.927558180854807
 10
3.391265739757845
 20
0.9261841986563775
 10
3.391988888283331
 20
0.9245932719002937
 10
3.392495092251185
 20
0.9228577154390995
 10
3.392712036808819
 20
0.9209775292728167
 10
3.392712036808819
 20
0.8696339839626933
 10
3.392784351661365
 20
0.8684046314693528
 10
3.393001296219018
 20
0.8673199086811012
 10
3.393362870481761
 20
0.8662351858928708
 10
3.393796759597071
 20
0.8652227779571637
 10
3.39437527841747
 20
0.8643549997265669
 10
3.395026112090413
 20
0.8634872214959909
 10
3.395749260615897
 20
0.8626917581179384
 10
3.396617038846496
 20
0.8619686095924517
 10
3.397557131929636
 20
0.8613900907720534
 10
3.398497225012778
 20
0.8608115719516554
 10
3.399509632948464
 20
0.8603776828363463
 10
3.400594355736716
 20
0.8600161085736029
 10
3.401679078524968
 20
0.8596545343108591
 10
3.402836116165764
 20
0.8594375897532046
 10
3.403920838953994
 20
0.8593652749006604
 10
3.40507787659477
 20
0.8592929600481159
 10
3.413538714343063
 20
0.8592929600481159
  0
LWPOLYLINE
  5
7CD
330
17
100
AcDbEntity
  8
4
  6
Continuous
100
AcDbPolyline
 90
       59
 70
     0
 43
0.0
 10
3.138051634722304
 20
0.9139629885755171
 10
3.145427749682346
 20
0.9196035470743662
 10
3.146584787323146
 20
0.9195312322218216
 10
3.147669510111394
 20
0.9193866025167327
 10
3.148754232899627
 20
0.9190973431065335
 10
3.149766640835313
 20
0.9188080836963351
 10
3.150851363623564
 20
0.9183741945810254
 10
3.151863771559271
 20
0.9178679906131932
 10
3.152803864642391
 20
0.9172894717927951
 10
3.153743957725553
 20
0.9166386381198527
 10
3.154611735956129
 20
0.9159878044468888
 10
3.155479514186728
 20
0.9152646559214019
 10
3.156347292417326
 20
0.9145415073959151
 10
3.157142755795357
 20
0.9137460440178625
 10
3.157865904320863
 20
0.9129505806398313
 10
3.158589052846373
 20
0.9121551172617788
 10
3.159239886519313
 20
0.9114319687362918
 10
3.159818405339691
 20
0.9106365053582392
 10
3.161843221211084
 20
0.9074546518460714
 10
3.163434147967168
 20
0.9041281686287931
 10
3.164591185607966
 20
0.9005847408538606
 10
3.165386648986015
 20
0.8969689982263835
 10
3.165892852953851
 20
0.8932809407463619
 10
3.166109797511503
 20
0.8895205684137961
 10
3.166254427216593
 20
0.8857601960812303
 10
3.166182112364047
 20
0.8819998237486428
 10
3.166037482658961
 20
0.8800473227298153
 10
3.165675908396194
 20
0.8781671365635324
 10
3.165097389575796
 20
0.8763592652497941
 10
3.164374241050308
 20
0.8746237087885997
 10
3.163506462819712
 20
0.8729604671799716
 10
3.162421740031483
 20
0.8713695404238659
 10
3.161264702390687
 20
0.8699232433728925
 10
3.159963035044802
 20
0.8685492611744416
 10
3.158516737993806
 20
0.8673199086811012
 10
3.15707044094281
 20
0.8661628710403054
 10
3.155479514186728
 20
0.8651504631046194
 10
3.153888587430643
 20
0.8642103700214779
 10
3.152297660674538
 20
0.8634149066434249
 10
3.150634419065931
 20
0.8628363878230269
 10
3.148971177457282
 20
0.8623301838551951
 10
3.147380250701176
 20
0.8619686095924517
 10
3.146440157618055
 20
0.8620409244449954
 10
3.145500064534893
 20
0.8621132392975404
 10
3.144559971451774
 20
0.8623301838551951
 10
3.143692193221156
 20
0.8626194432653937
 10
3.142824414990578
 20
0.862981017528137
 10
3.142028951612526
 20
0.8634149066434249
 10
3.141233488234473
 20
0.8639934254638228
 10
3.140582654561531
 20
0.8645719442842212
 10
3.139859506036043
 20
0.8652950928097292
 10
3.139353302068189
 20
0.8660905561877605
 10
3.138919412952903
 20
0.8669583344183578
 10
3.138557838690158
 20
0.8678984275014991
 10
3.138340894132503
 20
0.8688385205846408
 10
3.138196264427393
 20
0.8698509285203266
 10
3.138051634722304
 20
0.8708633364560341
 10
3.138051634722304
 20
0.8718757443917198
 10
3.138051634722304
 20
0.9139629885755171
  0
LWPOLYLINE
  5
80A
330
17
100
AcDbEntity
  8
4
  6
Continuous
100
AcDbPolyline
 90
       61
 70
     0
 43
0.0
 10
3.237980760479834
 20
0.9021033527573999
 10
3.240077891203749
 20
0.9022479824625103
 10
3.242102707075143
 20
0.9025372418727092
 10
3.243910578388859
 20
0.9029711309879967
 10
3.245573819997509
 20
0.9035496498083952
 10
3.247020117048506
 20
0.9042727983338815
 10
3.248394099246956
 20
0.9050682617119347
 10
3.249623451740296
 20
0.9060083547950764
 10
3.250708174528528
 20
0.9070930775833064
 10
3.251648267611666
 20
0.9082501152241023
 10
3.252443730989698
 20
0.9094794677174428
 10
3.253094564662663
 20
0.910781135063328
 10
3.253600768630496
 20
0.9122274321143228
 10
3.254034657745803
 20
0.9136737291653179
 10
3.254323917155981
 20
0.9151923410688578
 10
3.254468546861113
 20
0.9167832678249412
 10
3.254540861713658
 20
0.9184465094335912
 10
3.254468546861113
 20
0.9199651213371307
 10
3.254179287450893
 20
0.9214837332406702
 10
3.25381771318815
 20
0.9229300302916442
 10
3.253239194367751
 20
0.9243763273426392
 10
3.25258836069481
 20
0.9257503095410688
 10
3.251792897316756
 20
0.927051976886975
 10
3.250852804233636
 20
0.9282813293803155
 10
3.249840396297929
 20
0.9294383670211113
 10
3.248683358657133
 20
0.9304507749567974
 10
3.247454006163793
 20
0.9313908680399388
 10
3.246224653670451
 20
0.9321863314179914
 10
3.244850671472021
 20
0.9329094799434781
 10
3.243404374421029
 20
0.9334879987638764
 10
3.241958077370033
 20
0.9338495730266199
 10
3.240439465466513
 20
0.9341388324368187
 10
3.238920853562953
 20
0.934211147289363
 10
3.188300456778318
 20
0.934211147289363
 10
3.189023605303823
 20
0.9336326284689652
 10
3.189674438976768
 20
0.9330541096485674
 10
3.190325272649731
 20
0.9324032759756248
 10
3.190903791470129
 20
0.9318247571552266
 10
3.191482310290506
 20
0.9312462383348291
 10
3.192060829110904
 20
0.9305230898093416
 10
3.192567033078736
 20
0.9297999412838548
 10
3.193073237046589
 20
0.9289321630532576
 10
3.193796385572078
 20
0.9273412362971741
 10
3.194374904392474
 20
0.9254610501308906
 10
3.194736478655241
 20
0.9236531788171523
 10
3.194881108360331
 20
0.9222068817661575
 10
3.194953423212872
 20
0.8571958293241785
 10
3.212381302677318
 20
0.8724542632121178
 10
3.212381302677318
 20
0.9026095567252539
 10
3.220046677047537
 20
0.9026818715777979
 10
3.246152338817906
 20
0.8594375897532046
 10
3.268642257960801
 20
0.8592929600481159
 10
3.267268275762351
 20
0.8600884234261471
 10
3.265894293563921
 20
0.8610285165093101
 10
3.264592626218013
 20
0.8619686095924517
 10
3.263290958872128
 20
0.8630533323806819
 10
3.26206160637879
 20
0.8640657403163679
 10
3.260904568737994
 20
0.8652227779571637
 10
3.259747531097196
 20
0.8663798155979595
 10
3.258590493456401
 20
0.8676091680913003
 10
3.237980760479834
 20
0.9021033527573999
  0
LWPOLYLINE
  5
849
330
17
100
AcDbEntity
  8
4
  6
Continuous
100
AcDbPolyline
 90
       83
 70
     0
 43
0.0
 10
3.167411464857388
 20
0.9264011432140325
 10
3.166254427216593
 20
0.9274858660022625
 10
3.165097389575796
 20
0.9285705887905139
 10
3.163940351935021
 20
0.9295829967262003
 10
3.162710999441681
 20
0.9305230898093416
 10
3.161409332095774
 20
0.9313185531873946
 10
3.159963035044802
 20
0.9320417017128812
 10
3.158372108288697
 20
0.9326925353858239
 10
3.156564236974958
 20
0.9331264245011327
 10
3.122865515686911
 20
0.914469192543371
 10
3.122720885981823
 20
0.8663798155979595
 10
3.122793200834365
 20
0.8655843522199283
 10
3.122937830539453
 20
0.8647165739893312
 10
3.123227089949676
 20
0.8639934254638228
 10
3.123588664212397
 20
0.8632702769383362
 10
3.124022553327706
 20
0.8626194432653937
 10
3.12452875729556
 20
0.8619686095924517
 10
3.125107276115959
 20
0.8614624056245979
 10
3.1257581097889
 20
0.8609562016567441
 10
3.126842832577153
 20
0.8603053679838016
 10
3.127999870217926
 20
0.8597268491634038
 10
3.129156907858723
 20
0.8592206451955711
 10
3.130386260352063
 20
0.8587867560802621
 10
3.131615612845403
 20
0.8584974966700631
 10
3.132844965338744
 20
0.8582082372598641
 10
3.134146632684631
 20
0.8579912927022308
 10
3.135448300030537
 20
0.8577743481445763
 10
3.136749967376419
 20
0.8577020332920316
 10
3.138051634722304
 20
0.8576297184394663
 10
3.139353302068189
 20
0.8576297184394663
 10
3.14072728426662
 20
0.8577020332920316
 10
3.142028951612526
 20
0.8577743481445763
 10
3.143330618958433
 20
0.8579189778496647
 10
3.144632286304318
 20
0.8580636075547754
 10
3.1459339536502
 20
0.8582805521124301
 10
3.147452565553741
 20
0.8584974966700631
 10
3.148971177457282
 20
0.8588590709328066
 10
3.150417474508254
 20
0.8592206451955711
 10
3.151863771559271
 20
0.8596545343108591
 10
3.153310068610244
 20
0.8601607382787129
 10
3.154756365661218
 20
0.8607392570991109
 10
3.15613034785969
 20
0.8613900907720534
 10
3.157504330058122
 20
0.8620409244449954
 10
3.158805997404004
 20
0.8627640729704829
 10
3.160179979602435
 20
0.8635595363485354
 10
3.161409332095774
 20
0.8644273145791323
 10
3.162710999441681
 20
0.8652950928097292
 10
3.163940351935021
 20
0.8662351858928708
 10
3.165097389575796
 20
0.867175278976012
 10
3.166254427216593
 20
0.8681876869116983
 10
3.167411464857388
 20
0.8692000948473841
 10
3.169219336171128
 20
0.8710802810136675
 10
3.170882577779776
 20
0.8730327820325156
 10
3.172473504535861
 20
0.8750575979038877
 10
3.173847486734312
 20
0.877227043480391
 10
3.175149154080198
 20
0.8795411187619617
 10
3.176306191720992
 20
0.881855194043554
 10
3.177246284804111
 20
0.8842415841776903
 10
3.178114063034732
 20
0.8867002891643714
 10
3.178764896707671
 20
0.8891589941510527
 10
3.179271100675506
 20
0.8917623288428222
 10
3.179632674938248
 20
0.8942933486820479
 10
3.179849619495906
 20
0.8968966833738392
 10
3.179921934348446
 20
0.8994277032130643
 10
3.179777304643339
 20
0.9020310379048556
 10
3.17948804523316
 20
0.904634372596625
 10
3.179054156117851
 20
0.9071653924358722
 10
3.178692581855108
 20
0.9085393746343015
 10
3.178331007592364
 20
0.9099133568327522
 10
3.177897118477056
 20
0.9112873390311817
 10
3.177390914509223
 20
0.9125890063770663
 10
3.176812395688825
 20
0.9138906737229728
 10
3.176161562015883
 20
0.9151923410688578
 10
3.175510728342918
 20
0.9164216935621979
 10
3.17478757981743
 20
0.9176510460555387
 10
3.173992116439399
 20
0.9188803985488791
 10
3.173124338208803
 20
0.920037436189675
 10
3.172256559978205
 20
0.9211944738304715
 10
3.17138878174761
 20
0.9222791966187012
 10
3.170448688664468
 20
0.9233639194069532
 10
3.169436280728781
 20
0.9243763273426392
 10
3.168423872793094
 20
0.9253887352783252
 10
3.167411464857388
 20
0.9264011432140325
  0
LWPOLYLINE
  5
89E
330
17
100
AcDbEntity
  8
4
  6
Continuous
100
AcDbPolyline
 90
      271
 70
     0
 43
0.0
 10
3.326939514269433
 20
0.9053575211221334
 10
3.325927106333746
 20
0.9059360399425319
 10
3.324914698398038
 20
0.906442243910364
 10
3.323829975609808
 20
0.906876133025673
 10
3.322817567674122
 20
0.9073100221409607
 10
3.321732844885871
 20
0.9077439112562489
 10
3.320648122097621
 20
0.908033170666448
 10
3.319563399309388
 20
0.9083947449292127
 10
3.318478676521158
 20
0.9086840043394117
 10
3.317321638880365
 20
0.9089009488970454
 10
3.316236916092111
 20
0.9090455786021554
 10
3.315007563598771
 20
0.909190208307244
 10
3.313850525957975
 20
0.909334838012354
 10
3.312621173464636
 20
0.9094071528648989
 10
3.311391820971292
 20
0.9094071528648989
 10
3.310162468477952
 20
0.9094071528648989
 10
3.308860801132068
 20
0.909334838012354
 10
3.29179449593039
 20
0.8941487189769588
 10
3.293096163276276
 20
0.8944379783871577
 10
3.29439783062216
 20
0.8947272377973567
 10
3.295699497968064
 20
0.8950164972075558
 10
3.297001165313973
 20
0.8952334417652107
 10
3.298302832659858
 20
0.8954503863228438
 10
3.299604500005743
 20
0.8955950160279542
 10
3.300906167351628
 20
0.8957396457330432
 10
3.302280149550056
 20
0.8958119605855877
 10
3.303581816895941
 20
0.8958842754381528
 10
3.304883484241848
 20
0.8958842754381528
 10
3.306185151587756
 20
0.8958842754381528
 10
3.307486818933639
 20
0.8958119605855877
 10
3.308788486279524
 20
0.8956673308804985
 10
3.310090153625408
 20
0.8954503863228438
 10
3.311391820971292
 20
0.8952334417652107
 10
3.312693488317178
 20
0.8949441823550117
 10
3.313561266547798
 20
0.8946549229448127
 10
3.314501359630917
 20
0.8944379783871577
 10
3.315369137861513
 20
0.8940764041244142
 10
3.316236916092111
 20
0.8937871447142157
 10
3.31710469432271
 20
0.8934255704514717
 10
3.317972472553305
 20
0.8930639961887077
 10
3.318767935931334
 20
0.8926301070734194
 10
3.319635714161956
 20
0.8921962179581317
 10
3.320431177539986
 20
0.8916900139902779
 10
3.321154326065475
 20
0.8911838100224244
 10
3.32187747459096
 20
0.8906776060545919
 10
3.322600623116468
 20
0.8900990872341941
 10
3.323251456789412
 20
0.8894482535612516
 10
3.323902290462353
 20
0.8887974198883089
 10
3.324480809282751
 20
0.8880742713628006
 10
3.325059328103149
 20
0.8873511228373139
 10
3.325927106333746
 20
0.8860494554914076
 10
3.326650254859232
 20
0.884603158440434
 10
3.327156458827087
 20
0.883156861389439
 10
3.32751803308983
 20
0.8815659346333553
 10
3.327734977647486
 20
0.8800473227298153
 10
3.327662662794941
 20
0.8784563959737315
 10
3.327301088532176
 20
0.8769377840701919
 10
3.32672256971178
 20
0.8754914870191965
 10
3.325854791481201
 20
0.8741898196733115
 10
3.324842383545495
 20
0.8731050968850603
 10
3.323685345904698
 20
0.8721650038019191
 10
3.322311363706268
 20
0.8713695404238659
 10
3.320865066655296
 20
0.8707187067509234
 10
3.319418769604281
 20
0.8702125027830916
 10
3.317827842848216
 20
0.8697786136677825
 10
3.316309230944656
 20
0.869489354257583
 10
3.315586082419171
 20
0.8694170394050392
 10
3.314790619041138
 20
0.8692724096999498
 10
3.314067470515629
 20
0.8692000948473841
 10
3.313272007137576
 20
0.8692000948473841
 10
3.312476543759546
 20
0.8691277799948393
 10
3.31175339523406
 20
0.8691277799948393
 10
3.310957931855986
 20
0.8691277799948393
 10
3.310162468477952
 20
0.8691277799948393
 10
3.309439319952466
 20
0.8691277799948393
 10
3.308643856574435
 20
0.8692000948473841
 10
3.307848393196361
 20
0.8692000948473841
 10
3.30705292981833
 20
0.8693447245524945
 10
3.306329781292841
 20
0.8694170394050392
 10
3.305534317914791
 20
0.8695616691101491
 10
3.304811169389281
 20
0.8697062988152378
 10
3.30401570601125
 20
0.8698509285203266
 10
3.303147927780676
 20
0.8700678730779809
 10
3.302280149550056
 20
0.8702848176356358
 10
3.301484686172026
 20
0.870574077045835
 10
3.300616907941428
 20
0.8708633364560341
 10
3.299821444563376
 20
0.8712249107187775
 10
3.299025981185343
 20
0.8715864849815208
 10
3.298230517807291
 20
0.8720203740968297
 10
3.297435054429239
 20
0.8724542632121178
 10
3.296711905903751
 20
0.8728881523274052
 10
3.295916442525721
 20
0.8733943562952591
 10
3.295193294000213
 20
0.8739005602631131
 10
3.294470145474703
 20
0.8744067642309452
 10
3.293746996949216
 20
0.8749129681987991
 10
3.293096163276276
 20
0.8754914870191965
 10
3.292373014750789
 20
0.8760700058395949
 10
3.291722181077846
 20
0.8766485246599927
 10
3.290637458289593
 20
0.8777332474482232
 10
3.289625050353907
 20
0.8788902850890194
 10
3.288612642418221
 20
0.8800473227298153
 10
3.287600234482515
 20
0.8812043603706115
 10
3.286660141399396
 20
0.8823613980113865
 10
3.285792363168776
 20
0.883590750504727
 10
3.284852270085655
 20
0.8848924178506328
 10
3.284056806707583
 20
0.8861217703439734
 10
3.283261343329551
 20
0.8874234376898586
 10
3.282538194804062
 20
0.8887974198883089
 10
3.281887361131122
 20
0.8900990872341941
 10
3.28123652745818
 20
0.8914730694326236
 10
3.280658008637781
 20
0.8929193664836184
 10
3.280224119522473
 20
0.8942933486820479
 10
3.279790230407185
 20
0.8958119605855877
 10
3.279428656144443
 20
0.8972582576365827
 10
3.278922452176588
 20
0.9005847408538606
 10
3.278705507618953
 20
0.9040558537762276
 10
3.278922452176588
 20
0.9075269666986159
 10
3.279500970996986
 20
0.9108534499158938
 10
3.280513378932672
 20
0.9140353034280613
 10
3.282031990836211
 20
0.9169278975300516
 10
3.283984491855037
 20
0.9195312322218216
 10
3.28644319684172
 20
0.9216283629457592
 10
3.287310975072336
 20
0.9221345669136129
 10
3.288178753302913
 20
0.9225684560289007
 10
3.289118846386076
 20
0.9230023451441887
 10
3.289986624616652
 20
0.9233639194069532
 10
3.290926717699816
 20
0.9236531788171523
 10
3.291939125635477
 20
0.9239424382273515
 10
3.292879218718641
 20
0.924159382784985
 10
3.293891626654327
 20
0.9243040124900948
 10
3.294831719737468
 20
0.9244486421951837
 10
3.295844127673176
 20
0.9245209570477278
 10
3.296856535608839
 20
0.9245209570477278
 10
3.297868943544548
 20
0.9245209570477278
 10
3.298881351480256
 20
0.9245209570477278
 10
3.299893759415921
 20
0.9244486421951837
 10
3.300833852499083
 20
0.9243040124900948
 10
3.30184626043477
 20
0.924159382784985
 10
3.303147927780676
 20
0.9239424382273515
 10
3.30444959512656
 20
0.9236531788171523
 10
3.305751262472446
 20
0.9233639194069532
 10
3.306980614965786
 20
0.9229300302916442
 10
3.308209967459124
 20
0.9224961411763564
 10
3.309439319952466
 20
0.9219899372085027
 10
3.310668672445806
 20
0.9214837332406702
 10
3.311898024939146
 20
0.9209052144202724
 10
3.313055062579943
 20
0.9202543807473087
 10
3.314139785368196
 20
0.9196035470743662
 10
3.315296823008971
 20
0.9188080836963351
 10
3.316381545797201
 20
0.9180849351708264
 10
3.317466268585451
 20
0.9172171569402507
 10
3.318478676521158
 20
0.9164216935621979
 10
3.319491084456843
 20
0.9154816004790568
 10
3.320431177539986
 20
0.9145415073959151
 10
3.333809425261645
 20
0.9217729926508484
 10
3.332941647031026
 20
0.9233639194069532
 10
3.33192923909536
 20
0.9248102164579268
 10
3.330772201454563
 20
0.9261841986563775
 10
3.329470534108678
 20
0.9274135511497178
 10
3.328096551910228
 20
0.9285705887905139
 10
3.326577940006687
 20
0.9295829967262003
 10
3.325059328103149
 20
0.9305230898093416
 10
3.323468401347065
 20
0.9313908680399388
 10
3.322239048853725
 20
0.9319693868603366
 10
3.320937381507841
 20
0.9325479056807347
 10
3.319708029014498
 20
0.9330541096485674
 10
3.318406361668613
 20
0.9334879987638764
 10
3.317032379470143
 20
0.9339218878791646
 10
3.315730712124258
 20
0.934211147289363
 10
3.314356729925827
 20
0.9345004066995624
 10
3.312982747727398
 20
0.9347173512572172
 10
3.311608765528948
 20
0.9348619809623055
 10
3.310234783330498
 20
0.9349342958148714
 10
3.308788486279524
 20
0.9350066106674155
 10
3.307414504081093
 20
0.9350066106674155
 10
3.306040521882622
 20
0.9349342958148714
 10
3.304666539684192
 20
0.9347896661097614
 10
3.303292557485763
 20
0.9345727215521066
 10
3.301918575287313
 20
0.9342834621419076
 10
3.300616907941428
 20
0.9339942027317087
 10
3.299387555448088
 20
0.9335603136164213
 10
3.298085888102183
 20
0.9331264245011327
 10
3.296856535608839
 20
0.9326925353858239
 10
3.295699497968064
 20
0.9321140165654258
 10
3.294470145474703
 20
0.9315354977450279
 10
3.293313107833928
 20
0.9308846640720853
 10
3.292156070193153
 20
0.9302338303991426
 10
3.290999032552357
 20
0.9295106818736558
 10
3.289914309764106
 20
0.9287875333481474
 10
3.288829586975857
 20
0.9279920699701163
 10
3.287744864187623
 20
0.9271966065920636
 10
3.286660141399396
 20
0.9263288283614667
 10
3.285647733463687
 20
0.9254610501308906
 10
3.284563010675435
 20
0.9245932719002937
 10
3.283550602739751
 20
0.9237254936696967
 10
3.282104305688755
 20
0.9224238263238115
 10
3.280730323490326
 20
0.9211221589779054
 10
3.279356341291896
 20
0.9197481767794762
 10
3.278054673945988
 20
0.9183018797284812
 10
3.276753006600103
 20
0.9168555826774863
 10
3.275523654106763
 20
0.9154092856265119
 10
3.274366616465968
 20
0.9138906737229728
 10
3.273209578825193
 20
0.9122997469668677
 10
3.272197170889485
 20
0.9107088202107831
 10
3.271184762953779
 20
0.9090455786021554
 10
3.27024466987066
 20
0.9073823369935055
 10
3.269449206492585
 20
0.9056467805323327
 10
3.268726057967096
 20
0.9039112240711384
 10
3.268075224294156
 20
0.9021033527573999
 10
3.267496705473758
 20
0.9002954814436614
 10
3.26706281635847
 20
0.8984152952773785
 10
3.266628927243181
 20
0.8958842754381528
 10
3.266411982685526
 20
0.8932809407463619
 10
3.266339667832961
 20
0.8907499209071364
 10
3.266411982685526
 20
0.8881465862153453
 10
3.266701242095727
 20
0.8856155663761198
 10
3.267207446063581
 20
0.8830845465368945
 10
3.267858279736523
 20
0.880553526697669
 10
3.268726057967096
 20
0.8781671365635324
 10
3.269304576787496
 20
0.8768654692176259
 10
3.269955410460439
 20
0.8755638018717409
 10
3.27060624413338
 20
0.8743344493784006
 10
3.271401707511456
 20
0.8731774117376044
 10
3.272197170889485
 20
0.8720203740968297
 10
3.273064949120063
 20
0.8708633364560341
 10
3.274005042203223
 20
0.8697786136677825
 10
3.274945135286366
 20
0.8687662057320959
 10
3.275957543222053
 20
0.8677537977964107
 10
3.277042266010303
 20
0.8668137047132692
 10
3.278126988798556
 20
0.8658736116301062
 10
3.279211711586763
 20
0.8650058333995307
 10
3.28036874922756
 20
0.8642103700214779
 10
3.281598101720899
 20
0.8634872214959909
 10
3.282827454214241
 20
0.8627640729704829
 10
3.284056806707583
 20
0.8621132392975404
 10
3.286949400809573
 20
0.8608838868041996
 10
3.289914309764106
 20
0.8598714788685143
 10
3.292951533571187
 20
0.8591483303430056
 10
3.296061072230811
 20
0.8585698115226286
 10
3.299170610890434
 20
0.8582805521124301
 10
3.302280149550056
 20
0.8581359224073196
 10
3.30538968820968
 20
0.8582805521124301
 10
3.308571541721868
 20
0.8586421263751731
 10
3.311608765528948
 20
0.8592206451955711
 10
3.314573674483462
 20
0.8600161085736029
 10
3.317538583437996
 20
0.8611008313618544
 10
3.320358862687443
 20
0.8623301838551951
 10
3.323034512231754
 20
0.8638487957587344
 10
3.325565532070982
 20
0.8655843522199283
 10
3.327951922205118
 20
0.8675368532387558
 10
3.330193682634165
 20
0.8697062988152378
 10
3.331856924242817
 20
0.8716587998340653
 10
3.333375536146333
 20
0.8737559305580029
 10
3.334749518344763
 20
0.8758530612819402
 10
3.335906555985558
 20
0.8781671365635324
 10
3.336918963921266
 20
0.8804812118451032
 10
3.337714427299298
 20
0.8828676019792396
 10
3.338220631267152
 20
0.8853263069659206
 10
3.338582205529916
 20
0.8878573268051464
 10
3.338654520382459
 20
0.8898821426765394
 10
3.338509890677352
 20
0.8918346436953669
 10
3.338148316414606
 20
0.8937871447142157
 10
3.337497482741665
 20
0.8957396457330432
 10
3.336629704511068
 20
0.8973305724891268
 10
3.335617296575381
 20
0.8987768695401218
 10
3.334387944082041
 20
0.9001508517385726
 10
3.333086276736134
 20
0.9013802042319127
 10
3.331639979685138
 20
0.902464927020144
 10
3.330121367781623
 20
0.9035496498083952
 10
3.328530441025517
 20
0.9044897428915366
 10
3.326939514269433
 20
0.9053575211221334
  0
LWPOLYLINE
  5
9AF
330
17
100
AcDbEntity
  8
4
  6
Continuous
 62
     4
100
AcDbPolyline
 90
       96
 70
     0
 43
0.0
 10
3.491516090685436
 20
0.8593652749006604
 10
3.490359053044642
 20
0.8600884234261471
 10
3.4891297005513
 20
0.8609562016567441
 10
3.487828033205414
 20
0.8620409244449954
 10
3.486670995564621
 20
0.8632702769383362
 10
3.485586272776368
 20
0.8646442591367653
 10
3.48471849454579
 20
0.8663075007454153
 10
3.484139975725393
 20
0.8681153720591535
 10
3.483923031167718
 20
0.8702125027830916
 10
3.483923031167718
 20
0.9181572500233926
 10
3.483778401462631
 20
0.9201820658947641
 10
3.483489142052429
 20
0.9220622520610469
 10
3.482910623232053
 20
0.9238701233747852
 10
3.482187474706546
 20
0.9255333649834351
 10
3.481319696475948
 20
0.9271966065920636
 10
3.480234973687696
 20
0.9286429036430591
 10
3.479005621194356
 20
0.9300168858414885
 10
3.477631638995928
 20
0.9313185531873946
 10
3.476185341944955
 20
0.9324755908281691
 10
3.474594415188848
 20
0.9334879987638764
 10
3.472931173580198
 20
0.9343557769944736
 10
3.471267931971589
 20
0.9351512403725049
 10
3.469460060657852
 20
0.9357297591929027
 10
3.467652189344113
 20
0.9361636483082119
 10
3.465772003177829
 20
0.9365252225709554
 10
3.463891817011526
 20
0.936669852276044
 10
3.46259014966562
 20
0.936669852276044
 10
3.461288482319734
 20
0.936669852276044
 10
3.460059129826396
 20
0.9365252225709554
 10
3.458757462480508
 20
0.9363805928658448
 10
3.457528109987171
 20
0.9361636483082119
 10
3.456226442641286
 20
0.9358020740454474
 10
3.454997090147946
 20
0.9354404997827041
 10
3.453767737654603
 20
0.9350789255199604
 10
3.452538385161263
 20
0.9345727215521066
 10
3.451381347520467
 20
0.934066517584274
 10
3.450224309879672
 20
0.9334879987638764
 10
3.449067272238876
 20
0.9329094799434781
 10
3.447910234598078
 20
0.9321863314179914
 10
3.446825511809868
 20
0.9315354977450279
 10
3.44574078902162
 20
0.9308123492195408
 10
3.444728381085912
 20
0.9300168858414885
 10
3.444294491970623
 20
0.9310292937771954
 10
3.443715973150225
 20
0.9321140165654258
 10
3.442920509772172
 20
0.9331264245011327
 10
3.442052731541595
 20
0.934066517584274
 10
3.44118495331098
 20
0.9348619809623055
 10
3.440317175080402
 20
0.935512814635248
 10
3.439521711702371
 20
0.9359467037505574
 10
3.438943192881973
 20
0.9360913334556464
 10
3.421226054007353
 20
0.9360913334556464
 10
3.422310776795582
 20
0.9350789255199604
 10
3.423540129288923
 20
0.9339218878791646
 10
3.424914111487375
 20
0.9325479056807347
 10
3.42621577883326
 20
0.9309569789246513
 10
3.4274451313266
 20
0.9291491076109128
 10
3.428385224409741
 20
0.9272689214446083
 10
3.429108372935249
 20
0.9251717907206915
 10
3.429325317492883
 20
0.9230023451441887
 10
3.429325317492883
 20
0.8594375897532046
 10
3.445596159316531
 20
0.8725988929172068
 10
3.445596159316531
 20
0.9185911391386801
 10
3.445668474169075
 20
0.9197481767794762
 10
3.445885418726708
 20
0.9208328995677064
 10
3.446319307842016
 20
0.9218453075034137
 10
3.446825511809868
 20
0.9228577154390995
 10
3.447404030630246
 20
0.9238701233747852
 10
3.448127179155756
 20
0.9247379016053828
 10
3.44899495738633
 20
0.92560567983598
 10
3.449862735616928
 20
0.9264011432140325
 10
3.450875143552613
 20
0.927051976886975
 10
3.451887551488321
 20
0.9276304957073728
 10
3.452972274276572
 20
0.9282090145277708
 10
3.454056997064803
 20
0.9285705887905139
 10
3.455214034705578
 20
0.9289321630532576
 10
3.456371072346373
 20
0.9290767927583466
 10
3.457455795134626
 20
0.9292214224634566
 10
3.458612832775421
 20
0.9291491076109128
 10
3.460420704089161
 20
0.9288598482007131
 10
3.462156260550353
 20
0.9282813293803155
 10
3.463819502158982
 20
0.9274858660022625
 10
3.465265799209976
 20
0.9264011432140325
 10
3.466495151703318
 20
0.9250994758681262
 10
3.467435244786437
 20
0.9235808639645867
 10
3.468013763606836
 20
0.9217729926508484
 10
3.468230708164512
 20
0.9197481767794762
 10
3.468230708164512
 20
0.8684046314693528
 10
3.468447652722144
 20
0.8665244453030698
 10
3.469026171542545
 20
0.8647888888418759
 10
3.46989394977314
 20
0.8632702769383362
 10
3.471123302266458
 20
0.8619686095924517
 10
3.472569599317474
 20
0.8608838868041996
 10
3.474232840926106
 20
0.8600161085736029
 10
3.476040712239845
 20
0.8595099046057704
 10
3.477993213258669
 20
0.8593652749006604
 10
3.491516090685436
 20
0.8593652749006604
  0
LWPOLYLINE
  5
A11
330
17
100
AcDbEntity
  8
4
  6
Continuous
100
AcDbPolyline
 90
       46
 70
     0
 43
0.0
 10
3.796328441387478
 20
0.9358743888980127
 10
3.757061476453126
 20
0.9358743888980127
 10
3.757929254683703
 20
0.9347173512572172
 10
3.758797032914301
 20
0.9334156839113108
 10
3.759520181439808
 20
0.9321140165654258
 10
3.760171015112751
 20
0.9307400343669963
 10
3.760749533933147
 20
0.9292937373160011
 10
3.761183423048413
 20
0.927847440265006
 10
3.761472682458636
 20
0.9264734580665765
 10
3.761544997311178
 20
0.9250271610155811
 10
3.761544997311178
 20
0.8582805521124301
 10
3.779045191628148
 20
0.8751299127564532
 10
3.779045191628148
 20
0.9050682617119347
 10
3.802619833559268
 20
0.9050682617119347
 10
3.804138445462831
 20
0.9051405765644792
 10
3.805729372218893
 20
0.9052128914170239
 10
3.807175669269908
 20
0.9054298359746779
 10
3.808694281173428
 20
0.9057190953848767
 10
3.810068263371857
 20
0.9061529845001652
 10
3.811442245570308
 20
0.9067315033205629
 10
3.812743912916213
 20
0.9073823369935055
 10
3.813973265409553
 20
0.9081778003715578
 10
3.815057988197786
 20
0.9091178934546995
 10
3.815998081280924
 20
0.9102749310954955
 10
3.816865859511523
 20
0.9115042835888363
 10
3.817589008037031
 20
0.9129505806398313
 10
3.818095212004863
 20
0.91461382224846
 10
3.818529101120152
 20
0.9164216935621979
 10
3.818746045677806
 20
0.9184465094335912
 10
3.818746045677806
 20
0.9206882698626175
 10
3.818529101120152
 20
0.9230746599967542
 10
3.818095212004863
 20
0.9252441055732363
 10
3.817372063479356
 20
0.9271242917395191
 10
3.816504285248781
 20
0.9287875333481474
 10
3.815347247607983
 20
0.9302338303991426
 10
3.814117895114646
 20
0.9314631828924831
 10
3.81267159806365
 20
0.9324755908281691
 10
3.811152986160109
 20
0.9333433690587661
 10
3.809417429698916
 20
0.934066517584274
 10
3.807681873237743
 20
0.9346450364046724
 10
3.805874001924003
 20
0.9350789255199604
 10
3.803993815757721
 20
0.935368184930159
 10
3.802041314738871
 20
0.9356574443403582
 10
3.800088813720043
 20
0.9358020740454474
 10
3.798208627553761
 20
0.9358743888980127
 10
3.796328441387478
 20
0.9358743888980127
  0
LWPOLYLINE
  5
A41
330
17
100
AcDbEntity
  8
4
  6
Continuous
100
AcDbPolyline
 90
       88
 70
     0
 43
0.0
 10
4.574638777266248
 20
0.9347896661097614
 10
4.52727254884637
 20
0.9347896661097614
 10
4.528574216192255
 20
0.9337772581740754
 10
4.529875883538139
 20
0.9326202205332791
 10
4.531032921178934
 20
0.9313185531873946
 10
4.532117643967167
 20
0.9300168858414885
 10
4.532985422197763
 20
0.9284982739379486
 10
4.533636255870705
 20
0.9269796620344092
 10
4.534070144986014
 20
0.9252441055732363
 10
4.534287089543648
 20
0.923508549112042
 10
4.534287089543648
 20
0.8732497265901706
 10
4.522065879462786
 20
0.8598714788685143
 10
4.565671735550123
 20
0.8598714788685143
 10
4.566539513780718
 20
0.8598714788685143
 10
4.567407292011298
 20
0.8600161085736029
 10
4.568275070241915
 20
0.8600884234261471
 10
4.569070533619946
 20
0.8603053679838016
 10
4.569938311850544
 20
0.8605223125414561
 10
4.57080609008114
 20
0.8608115719516554
 10
4.571601553459172
 20
0.8611008313618544
 10
4.572469331689767
 20
0.8615347204771421
 10
4.573264795067823
 20
0.8618962947398856
 10
4.574060258445851
 20
0.8623301838551951
 10
4.57478340697136
 20
0.8628363878230269
 10
4.57550655549687
 20
0.8633425917908803
 10
4.576229704022356
 20
0.8639211106112787
 10
4.576952852547843
 20
0.8644996294316769
 10
4.577531371368241
 20
0.8650781482520748
 10
4.578182205041181
 20
0.865728981925017
 10
4.579917761502376
 20
0.8678984275014991
 10
4.581291743700806
 20
0.8704294473407243
 10
4.582304151636514
 20
0.8731050968850603
 10
4.582882670456911
 20
0.8758530612819402
 10
4.582954985309456
 20
0.8786733405313649
 10
4.582521096194146
 20
0.8812766752231555
 10
4.581436373405896
 20
0.883735380209837
 10
4.579773131797288
 20
0.8859048257863193
 10
4.564008493941495
 20
0.879107229646674
 10
4.564803957319528
 20
0.8779501920058779
 10
4.565454790992469
 20
0.8766485246599927
 10
4.565960994960322
 20
0.8753468573140866
 10
4.566322569223068
 20
0.8739728751156572
 10
4.566539513780718
 20
0.8725988929172068
 10
4.566539513780718
 20
0.8712249107187775
 10
4.566322569223068
 20
0.8698509285203266
 10
4.565888680107778
 20
0.8685492611744416
 10
4.56531016128738
 20
0.8676091680913003
 10
4.564659327614438
 20
0.866741389860703
 10
4.563791549383842
 20
0.8659459264826717
 10
4.562923771153244
 20
0.8653674076622742
 10
4.561911363217538
 20
0.8648612036944204
 10
4.560898955281873
 20
0.8644273145791323
 10
4.55981423249362
 20
0.8642103700214779
 10
4.558729509705369
 20
0.8641380551689334
 10
4.534070144986014
 20
0.8641380551689334
 10
4.550413301662183
 20
0.8810597306655015
 10
4.550413301662183
 20
0.8975475170467813
 10
4.569649052440344
 20
0.8975475170467813
 10
4.569649052440344
 20
0.9033327052507406
 10
4.550702561072381
 20
0.9033327052507406
 10
4.550702561072381
 20
0.9253164204257807
 10
4.547303763002561
 20
0.9305954046618859
 10
4.558223305737514
 20
0.9305954046618859
 10
4.560682010724196
 20
0.9304507749567974
 10
4.56270682659561
 20
0.9298722561363991
 10
4.564297753351671
 20
0.9289321630532576
 10
4.565454790992469
 20
0.9276304957073728
 10
4.566105624665413
 20
0.9261118838038331
 10
4.566322569223068
 20
0.9243763273426392
 10
4.566033309812866
 20
0.9224238263238115
 10
4.565237846434833
 20
0.9204713253049627
 10
4.582159521931404
 20
0.9153369707739463
 10
4.5833165595722
 20
0.9165663232672871
 10
4.584184337802796
 20
0.9179403054657374
 10
4.58483517147574
 20
0.9194589173692769
 10
4.585196745738483
 20
0.9209775292728167
 10
4.585341375443592
 20
0.9225684560289007
 10
4.585196745738483
 20
0.9242316976375287
 10
4.584907486328285
 20
0.925822624393634
 10
4.584401282360431
 20
0.9274135511497178
 10
4.583750448687487
 20
0.9288598482007131
 10
4.582882670456911
 20
0.9303061452516868
 10
4.581870262521205
 20
0.9315354977450279
 10
4.580640910027865
 20
0.9326202205332791
 10
4.57933924268198
 20
0.9335603136164213
 10
4.577892945630982
 20
0.934211147289363
 10
4.576302018874901
 20
0.9346450364046724
 10
4.574638777266248
 20
0.9347896661097614
  0
LWPOLYLINE
  5
A9B
330
17
100
AcDbEntity
  8
4
  6
Continuous
100
AcDbPolyline
 90
       21
 70
     0
 43
0.0
 10
3.07403696102042
 20
0.9559538828611227
 10
3.07403696102042
 20
0.8710394027035452
 10
3.077356488581318
 20
0.838110874845071
 10
3.081298427559873
 20
0.8710394027035452
 10
3.081298427559873
 20
0.9558056896664359
 10
3.081209511643076
 20
0.9570208738628359
 10
3.080972402531574
 20
0.9580878648645487
 10
3.08061673886433
 20
0.9589770240326499
 10
3.080172159280288
 20
0.9597179900060638
 10
3.079609025140486
 20
0.960281124145866
 10
3.078986613722814
 20
0.9606960650909602
 10
3.078334563666214
 20
0.9609331742024638
 10
3.077682513609618
 20
0.9610220901192583
 10
3.077000824914076
 20
0.9609628128413881
 10
3.076348774857477
 20
0.960725703729906
 10
3.075726363439804
 20
0.9603107627847904
 10
3.075163229300023
 20
0.9597772672839344
 10
3.074718649715963
 20
0.959065939949466
 10
3.07436298604874
 20
0.9581767807813651
 10
3.074125876937236
 20
0.9571394284185771
 10
3.07403696102042
 20
0.9559538828611227
  0
LWPOLYLINE
  5
AB2
330
17
100
AcDbEntity
  8
4
  6
Continuous
100
AcDbPolyline
 90
       21
 70
     0
 43
0.0
 10
3.061706131775084
 20
0.9438160306550312
 10
3.061706131775084
 20
0.8710690413424915
 10
3.065351684364259
 20
0.838110874845071
 10
3.069115791509203
 20
0.8709208481478043
 10
3.069115791509203
 20
0.9440827784054594
 10
3.069026875592386
 20
0.9452683239629134
 10
3.068789766480903
 20
0.9462760376867556
 10
3.068434102813657
 20
0.9471355582159112
 10
3.067959884590674
 20
0.9478468855504004
 10
3.067396750450868
 20
0.9483507424123107
 10
3.066774339033218
 20
0.94873604471848
 10
3.066092650337676
 20
0.9489435151910376
 10
3.065410961642133
 20
0.9490027924689083
 10
3.064729272946589
 20
0.9488842379131675
 10
3.064047584251043
 20
0.9486174901627391
 10
3.063425172833393
 20
0.9482025492176235
 10
3.062862038693593
 20
0.9476394150778425
 10
3.062387820470626
 20
0.9468984491044285
 10
3.062032156803361
 20
0.9460389285752519
 10
3.061795047691879
 20
0.945001576212485
 10
3.061706131775084
 20
0.9438160306550312
  0
LWPOLYLINE
  5
AC9
330
17
100
AcDbEntity
  8
4
  6
Continuous
100
AcDbPolyline
 90
       21
 70
     0
 43
0.0
 10
3.086041765237478
 20
0.9489057319457339
 10
3.086041765237478
 20
0.8710394027035452
 10
3.089361292798358
 20
0.838110874845071
 10
3.093303231776932
 20
0.8710394027035452
 10
3.093303231776932
 20
0.9487575387510467
 10
3.093214315860113
 20
0.9499727229474467
 10
3.092977206748611
 20
0.9510397139491594
 10
3.092621543081386
 20
0.9519288731172608
 10
3.092176963497326
 20
0.9526698390906748
 10
3.091613829357544
 20
0.9532329732304772
 10
3.090991417939873
 20
0.9536479141755926
 10
3.090339367883273
 20
0.9538850232870746
 10
3.089687317826677
 20
0.9539739392038914
 10
3.089005629131133
 20
0.9539146619260208
 10
3.088353579074535
 20
0.953677552814517
 10
3.087731167656863
 20
0.9532626118694016
 10
3.087168033517081
 20
0.9527291163685456
 10
3.086723453933021
 20
0.9520177890340772
 10
3.086367790265776
 20
0.951128629865976
 10
3.086130681154273
 20
0.9500912775032091
 10
3.086041765237478
 20
0.9489057319457339
  0
LWPOLYLINE
  5
AE0
330
17
100
AcDbEntity
  8
4
  6
Continuous
100
AcDbPolyline
 90
       18
 70
     0
 43
0.0
 10
3.079786856974098
 20
0.8709801254256746
 10
3.079757218335173
 20
0.8705059072026891
 10
3.079697941057303
 20
0.8700316889797029
 10
3.079549747862616
 20
0.8696167480345875
 10
3.079371916028983
 20
0.8692314457284183
 10
3.079075529639631
 20
0.868875782061195
 10
3.078719865972388
 20
0.8686090343107455
 10
3.07830492502727
 20
0.8684312024771339
 10
3.077771429526413
 20
0.8683422865603173
 10
3.077267572664502
 20
0.8683719251992631
 10
3.076793354441518
 20
0.8685201183939504
 10
3.076437690774274
 20
0.8687868661443785
 10
3.076141304384921
 20
0.8691425298116229
 10
3.075904195273417
 20
0.8695574707567171
 10
3.075726363439804
 20
0.8700020503407781
 10
3.075607808884062
 20
0.8704762685637646
 10
3.07557817024514
 20
0.8709801254256746
 10
3.079786856974098
 20
0.8709801254256746
  0
LWPOLYLINE
  5
AF4
330
17
100
AcDbEntity
  8
4
  6
Continuous
100
AcDbPolyline
 90
       18
 70
     0
 43
0.0
 10
3.075548531606195
 20
0.8727288051229308
 10
3.075518892967247
 20
0.8740032665972011
 10
3.075518892967247
 20
0.8753962826272129
 10
3.075518892967247
 20
0.8769078532129871
 10
3.075637447522988
 20
0.8785379783544811
 10
3.075844917995568
 20
0.8802570194128126
 10
3.076230220301736
 20
0.8820946150268643
 10
3.076822993080464
 20
0.8840211265577535
 10
3.077682513609618
 20
0.8860365540054376
 10
3.07839384094411
 20
0.8841396811134947
 10
3.078956975083889
 20
0.8822724468604974
 10
3.079371916028983
 20
0.8804644898853704
 10
3.079668302418359
 20
0.8787158101881139
 10
3.079846134251991
 20
0.8770264077687283
 10
3.079905411529861
 20
0.8754851985440295
 10
3.079905411529861
 20
0.8740329052361474
 10
3.079846134251991
 20
0.8727288051229308
 10
3.075548531606195
 20
0.8727288051229308
  0
LWPOLYLINE
  5
B08
330
17
100
AcDbEntity
  8
4
  6
Continuous
100
AcDbPolyline
 90
       18
 70
     0
 43
0.0
 10
3.062950954610408
 20
0.8726102505671898
 10
3.062921315971484
 20
0.8743292916255004
 10
3.063039870527225
 20
0.8761076099617024
 10
3.06324734099976
 20
0.8778859282978835
 10
3.063543727389133
 20
0.8796346079951398
 10
3.063929029695305
 20
0.8812943717755794
 10
3.064373609279366
 20
0.8827763037224077
 10
3.064877466141276
 20
0.8840804038356239
 10
3.065440600281078
 20
0.8850881175594661
 10
3.065914818504043
 20
0.8841100424745484
 10
3.066389036727051
 20
0.8828652196392244
 10
3.06683361631109
 20
0.8813536490534501
 10
3.06721891861726
 20
0.8796642466340856
 10
3.067544943645558
 20
0.8778859282978835
 10
3.067782052757061
 20
0.8760779713227563
 10
3.067900607312803
 20
0.8742996529865756
 10
3.067900607312803
 20
0.8726102505671898
 10
3.062950954610408
 20
0.8726102505671898
  0
LWPOLYLINE
  5
B1C
330
17
100
AcDbEntity
  8
4
  6
Continuous
100
AcDbPolyline
 90
       18
 70
     0
 43
0.0
 10
3.067841330034933
 20
0.8709801254256746
 10
3.067841330034933
 20
0.8705059072026891
 10
3.067782052757061
 20
0.8700316889797029
 10
3.067633859562374
 20
0.8695871093956629
 10
3.067396750450868
 20
0.8691425298116229
 10
3.067100364061518
 20
0.8687572275054327
 10
3.066685423116403
 20
0.8684608411160795
 10
3.066211204893417
 20
0.8682533706435219
 10
3.065618432114691
 20
0.8681940933656516
 10
3.065025659335963
 20
0.8682830092824467
 10
3.064521802474051
 20
0.8684608411160795
 10
3.064077222889991
 20
0.8687275888665077
 10
3.063691920583821
 20
0.8691128911726773
 10
3.063425172833393
 20
0.8695278321177926
 10
3.063188063721912
 20
0.8699724117018321
 10
3.063069509166148
 20
0.8704762685637646
 10
3.063010231888278
 20
0.8709801254256746
 10
3.067841330034933
 20
0.8709801254256746
  0
LWPOLYLINE
  5
B30
330
17
100
AcDbEntity
  8
4
  6
Continuous
100
AcDbPolyline
 90
       18
 70
     0
 43
0.0
 10
3.087553335823252
 20
0.8727288051229308
 10
3.087523697184304
 20
0.8740032665972011
 10
3.087523697184304
 20
0.8753962826272129
 10
3.087523697184304
 20
0.8769078532129871
 10
3.087642251740048
 20
0.8785379783544811
 10
3.087849722212606
 20
0.8802570194128126
 10
3.088235024518795
 20
0.8820946150268643
 10
3.088827797297502
 20
0.8840211265577535
 10
3.089687317826677
 20
0.8860365540054376
 10
3.090398645161143
 20
0.8841396811134947
 10
3.090961779300926
 20
0.8822724468604974
 10
3.09137672024604
 20
0.8804644898853704
 10
3.091673106635416
 20
0.8787158101881139
 10
3.091850938469048
 20
0.8770264077687283
 10
3.091910215746898
 20
0.8754851985440295
 10
3.091910215746898
 20
0.8740329052361474
 10
3.091850938469048
 20
0.8727288051229308
 10
3.087553335823252
 20
0.8727288051229308
  0
LWPOLYLINE
  5
B44
330
17
100
AcDbEntity
  8
4
  6
Continuous
100
AcDbPolyline
 90
       18
 70
     0
 43
0.0
 10
3.091791661191158
 20
0.8709801254256746
 10
3.091762022552232
 20
0.8705059072026891
 10
3.091702745274361
 20
0.8700316889797029
 10
3.091554552079673
 20
0.8696167480345875
 10
3.09137672024604
 20
0.8692314457284183
 10
3.091080333856688
 20
0.868875782061195
 10
3.090724670189446
 20
0.8686090343107455
 10
3.090309729244328
 20
0.8684312024771339
 10
3.089776233743473
 20
0.8683422865603173
 10
3.089272376881561
 20
0.8683719251992631
 10
3.088798158658576
 20
0.8685201183939504
 10
3.088442494991332
 20
0.8687868661443785
 10
3.088146108601956
 20
0.8691425298116229
 10
3.087908999490476
 20
0.8695574707567171
 10
3.087731167656863
 20
0.8700020503407781
 10
3.087612613101101
 20
0.8704762685637646
 10
3.087582974462176
 20
0.8709801254256746
 10
3.091791661191158
 20
0.8709801254256746
  0
LWPOLYLINE
  5
B58
330
17
100
AcDbEntity
  8
4
  6
Continuous
100
AcDbPolyline
 90
        5
 70
     0
 43
0.0
 10
3.390614906084904
 20
0.8973305724891268
 10
3.369426654287894
 20
0.9108534499158938
 10
3.369426654287894
 20
0.897619831899326
 10
3.390687220937446
 20
0.8861940851965178
 10
3.390614906084904
 20
0.8973305724891268
  0
LINE
  5
B5F
330
17
100
AcDbEntity
  8
0
100
AcDbLine
 10
3.077609008992713
 20
0.9610156984134512
 30
0.0
 11
3.077609008992713
 21
0.9610156984134512
 31
0.0
  0
DIMENSION
  5
C79
330
17
100
AcDbEntity
  8
3
100
AcDbDimension
  2
*D3
 10
3.560329661531083
 20
3.153366472608403
 30
0.0
 11
3.762951971058639
 21
3.153366472608403
 31
0.0
 70
   160
 71
     5
 42
0.0249999999999999
  3
STANDARD
100
AcDbAlignedDimension
 13
3.535329661531083
 23
2.926050827892988
 33
0.0
 14
3.560329661531083
 24
2.926050827892988
 34
0.0
100
AcDbRotatedDimension
1001
ACAD
1000
DSTYLE
1002
{
1070
    40
1040
0.5
1070
    41
1040
0.125
1070
    42
1040
0.063
1070
    44
1040
0.063
1070
    78
1070
     4
1070
   140
1040
0.125
1070
   141
1040
-0.125
1070
   174
1070
     1
1070
   271
1070
     3
1070
   272
1070
     3
1070
   279
1070
     2
1070
   284
1070
     4
1070
   285
1070
     4
1070
   286
1070
     4
1070
   340
1005
21
1002
}
  0
DIMENSION
  5
C92
330
17
100
AcDbEntity
  8
3
100
AcDbDimension
  2
*D4
 10
2.408952591024148
 20
2.40255843724858
 30
0.0
 11
1.863231921746148
 21
3.005350601710555
 31
0.0
 70
    35
 71
     5
 42
0.5549999999999999
  3
STANDARD
100
AcDbDiametricDimension
 15
2.152094702338216
 25
2.894543218537398
 35
0.0
 40
0.0
1001
ACAD
1000
DSTYLE
1002
{
1070
    40
1040
0.5
1070
    41
1040
0.125
1070
    42
1040
0.063
1070
    44
1040
0.063
1070
    78
1070
     4
1070
   140
1040
0.125
1070
   141
1040
-0.125
1070
   174
1070
     1
1070
   271
1070
     3
1070
   272
1070
     3
1070
   279
1070
     2
1070
   284
1070
     4
1070
   285
1070
     4
1070
   286
1070
     4
1070
   340
1005
21
1002
}
1001
ACAD_DSTYLE_DIMRADIAL_EXTENSION
1070
   387
1070
     1
1070
   388
1040
0.0
1070
   390
1040
0.0
  0
LINE
  5
CA9
330
17
100
AcDbEntity
  8
0
100
AcDbLine
 10
2.515463770247667
 20
0.9781033913486636
 30
0.0
 11
2.515463770247667
 21
0.4701030413486853
 31
0.0
  0
DIMENSION
  5
CAA
330
17
100
AcDbEntity
  8
3
100
AcDbDimension
  2
*D5
 10
2.375122090133692
 20
2.762371452106541
 30
0.0
 11
1.875015964469719
 21
2.438597919715289
 31
0.0
 70
    35
 71
     5
 42
0.2959999999999998
  3
STANDARD
100
AcDbDiametricDimension
 15
2.185925203228675
 25
2.534730203679437
 35
0.0
 40
0.0
1001
ACAD_DSTYLE_DIMRADIAL_EXTENSION
1070
   387
1070
     1
1070
   388
1040
0.0
1070
   390
1040
0.0
1001
ACAD
1000
DSTYLE
1002
{
1070
    40
1040
0.5
1070
    41
1040
0.125
1070
    42
1040
0.063
1070
    44
1040
0.063
1070
    78
1070
     4
1070
   140
1040
0.125
1070
   141
1040
-0.125
1070
   174
1070
     1
1070
   271
1070
     3
1070
   272
1070
     3
1070
   279
1070
     2
1070
   284
1070
     4
1070
   285
1070
     4
1070
   286
1070
     4
1070
   340
1005
21
1002
}
  0
ENDSEC
  0
SECTION
  2
OBJECTS
  0
DICTIONARY
  5
C
330
0
100
AcDbDictionary
281
     1
  3
ACAD_CIP_PREVIOUS_PRODUCT_INFO
350
C78
  3
ACAD_COLOR
350
C59
  3
ACAD_DETAILVIEWSTYLE
350
C72
  3
ACAD_GROUP
350
D
  3
ACAD_LAYOUT
350
B7C
  3
ACAD_MATERIAL
350
C27
  3
ACAD_MLEADERSTYLE
350
C6E
  3
ACAD_MLINESTYLE
350
1A
  3
ACAD_PLOTSETTINGS
350
B7D
  3
ACAD_PLOTSTYLENAME
350
B7A
  3
ACAD_SCALELIST
350
C5C
  3
ACAD_SECTIONVIEWSTYLE
350
C70
  3
ACAD_TABLESTYLE
350
C5A
  3
ACAD_VISUALSTYLE
350
C40
  3
ACDB_RECOMPOSE_DATA
350
D3D
  3
ACDBVARIABLEDICTIONARY
350
2F
  3
AcDsDecomposeData
350
D44
  3
DWGPROPS
350
D3E
  0
DICTIONARY
  5
CC5
330
2
100
AcDbDictionary
280
     1
281
     1
  3
ACAD_LAYERSTATES
360
CC6
  0
DICTIONARY
  5
CBA
330
E
100
AcDbDictionary
280
     1
281
     1
  3
ADSK_XREC_LAYER_RECONCILED
360
CBB
  0
DICTIONARY
  5
CBC
330
27
100
AcDbDictionary
280
     1
281
     1
  3
ADSK_XREC_LAYER_RECONCILED
360
CBD
  0
DICTIONARY
  5
CBE
330
28
100
AcDbDictionary
280
     1
281
     1
  3
ADSK_XREC_LAYER_RECONCILED
360
CBF
  0
DICTIONARY
  5
CC0
330
29
100
AcDbDictionary
280
     1
281
     1
  3
ADSK_XREC_LAYER_RECONCILED
360
CC1
  0
DICTIONARY
  5
D84
330
C98
100
AcDbDictionary
280
     1
281
     1
  3
ACAD_MTEXT_RT
360
D85
  0
DICTIONARY
  5
D86
330
CB0
100
AcDbDictionary
280
     1
281
     1
  3
ACAD_MTEXT_RT
360
D87
  0
XRECORD
  5
C78
102
{ACAD_REACTORS
330
C
102
}
330
C
100
AcDbXrecord
280
     1
300
AMECH_PP
300
2015
300
PDSU_F_S
  0
DICTIONARY
  5
C59
102
{ACAD_REACTORS
330
C
102
}
330
C
100
AcDbDictionary
281
     1
  0
DICTIONARY
  5
C72
102
{ACAD_REACTORS
330
C
102
}
330
C
100
AcDbDictionary
281
     1
  3
Imperial24
350
C73
  0
DICTIONARY
  5
D
102
{ACAD_REACTORS
330
C
102
}
330
C
100
AcDbDictionary
281
     1
  0
DICTIONARY
  5
B7C
102
{ACAD_REACTORS
330
C
102
}
330
C
100
AcDbDictionary
281
     1
  3
Layout1
350
B7F
  3
Model
350
B7E
  0
DICTIONARY
  5
C27
102
{ACAD_REACTORS
330
C
102
}
330
C
100
AcDbDictionary
281
     1
  3
ByBlock
350
C30
  3
ByLayer
350
C28
  3
Global
350
C38
  0
DICTIONARY
  5
C6E
102
{ACAD_REACTORS
330
C
102
}
330
C
100
AcDbDictionary
281
     1
  3
Standard
350
C6F
  0
DICTIONARY
  5
1A
102
{ACAD_REACTORS
330
C
102
}
330
C
100
AcDbDictionary
281
     1
  3
STANDARD
350
1B
  0
DICTIONARY
  5
B7D
102
{ACAD_REACTORS
330
C
102
}
330
C
100
AcDbDictionary
281
     1
  0
ACDBDICTIONARYWDFLT
  5
B7A
102
{ACAD_REACTORS
330
C
102
}
330
C
100
AcDbDictionary
281
     1
  3
Normal
350
B7B
100
AcDbDictionaryWithDefault
340
B7B
  0
DICTIONARY
  5
C5C
102
{ACAD_REACTORS
330
C
102
}
330
C
100
AcDbDictionary
281
     1
  3
A0
350
C5D
  3
A1
350
C5E
  3
A2
350
C5F
  3
A3
350
C60
  3
A4
350
C61
  3
A5
350
C62
  3
A6
350
C63
  3
A7
350
C64
  3
A8
350
C65
  3
A9
350
C66
  3
B0
350
C67
  3
B1
350
C68
  3
B2
350
C69
  3
B3
350
C6A
  3
B4
350
C6B
  3
B5
350
C6C
  3
B6
350
C6D
  0
DICTIONARY
  5
C70
102
{ACAD_REACTORS
330
C
102
}
330
C
100
AcDbDictionary
281
     1
  3
Imperial24
350
C71
  0
DICTIONARY
  5
C5A
102
{ACAD_REACTORS
330
C
102
}
330
C
100
AcDbDictionary
281
     1
  3
Standard
350
C5B
  0
DICTIONARY
  5
C40
102
{ACAD_REACTORS
330
C
102
}
330
C
100
AcDbDictionary
281
     1
  3
2dWireframe
350
C46
  3
Basic
350
C45
  3
Brighten
350
C4C
  3
ColorChange
350
C50
  3
Conceptual
350
C49
  3
Dim
350
C4B
  3
EdgeColorOff
350
C58
  3
Facepattern
350
C4F
  3
Flat
350
C41
  3
FlatWithEdges
350
C42
  3
Gouraud
350
C43
  3
GouraudWithEdges
350
C44
  3
Hidden
350
C48
  3
JitterOff
350
C56
  3
Linepattern
350
C4E
  3
OverhangOff
350
C57
  3
Realistic
350
C4A
  3
Shaded
350
C55
  3
Shaded with edges
350
C54
  3
Shades of Gray
350
C51
  3
Sketchy
350
C52
  3
Thicken
350
C4D
  3
Wireframe
350
C47
  3
X-Ray
350
C53
  0
XRECORD
  5
D3D
102
{ACAD_REACTORS
330
C
102
}
330
C
100
AcDbXrecord
280
     1
 90
        1
330
C5B
  0
DICTIONARY
  5
2F
102
{ACAD_REACTORS
330
C
102
}
330
C
100
AcDbDictionary
281
     1
  3
CANNOSCALE
350
D25
  3
CMLEADERSTYLE
350
D21
  3
CTABLESTYLE
350
D20
  3
CVIEWDETAILSTYLE
350
D22
  3
CVIEWSECTIONSTYLE
350
D23
  3
DIMADEC
350
30
  3
DIMASSOC
350
B85
  3
INDEXCTL
350
D37
  3
LAYEREVAL
350
D27
  3
LAYERNOTIFY
350
D28
  3
LIGHTINGUNITS
350
D26
  3
LOFTANG1
350
D38
  3
LOFTANG2
350
D39
  3
LONGITUDE
350
D3A
  3
MSLTSCALE
350
D24
  3
SORTENTS
350
D36
  3
XCLIPFRAME
350
D3B
  0
DICTIONARY
  5
D44
102
{ACAD_REACTORS
330
C
102
}
330
C
100
AcDbDictionary
281
     1
  3
AcDsRecords
350
D46
  3
AcDsSchemas
350
D45
1001
ACAD
1070
     2
  0
XRECORD
  5
D3E
102
{ACAD_REACTORS
330
C
102
}
330
C
100
AcDbXrecord
280
     1
  1
DWGPROPS COOKIE
  2

  3

  4

  6

  7

  8
jmilewski
  9

300
=
301
=
302
=
303
=
304
=
305
=
306
=
307
=
308
=
309
=
 40
0.2631833217592592
 41
2449051.539295139
 42
2457155.471636157
  1

 90
        0
  0
DICTIONARY
  5
CC6
102
{ACAD_REACTORS
330
CC5
102
}
330
CC5
100
AcDbDictionary
281
     1
  0
XRECORD
  5
CBB
102
{ACAD_REACTORS
330
CBA
102
}
330
CBA
100
AcDbXrecord
280
     1
290
     1
  0
XRECORD
  5
CBD
102
{ACAD_REACTORS
330
CBC
102
}
330
CBC
100
AcDbXrecord
280
     1
290
     1
  0
XRECORD
  5
CBF
102
{ACAD_REACTORS
330
CBE
102
}
330
CBE
100
AcDbXrecord
280
     1
290
     1
  0
XRECORD
  5
CC1
102
{ACAD_REACTORS
330
CC0
102
}
330
CC0
100
AcDbXrecord
280
     1
290
     1
  0
XRECORD
  5
D85
102
{ACAD_REACTORS
330
D84
102
}
330
D84
100
AcDbXrecord
280
     1
 40
6567.0
  1
\A1;\U+2205.555
  0
XRECORD
  5
D87
102
{ACAD_REACTORS
330
D86
102
}
330
D86
100
AcDbXrecord
280
     1
 40
6599.0
  1
\A1;\U+2205.296
  0
ACDBDETAILVIEWSTYLE
  5
C73
102
{ACAD_XDICTIONARY
360
D2D
102
}
102
{ACAD_REACTORS
330
C72
102
}
330
C72
100
AcDbModelDocViewStyle
 70
     0
  3
Imperial24
290
     0
100
AcDbDetailViewStyle
 70
     0
 71
     0
 90
        3
 71
     1
340
F
 40
0.24
340
0
 40
0.24
300

 40
0.36
280
     3
 71
     2
340
13
 90
       25
 71
     3
340
F
 40
0.24
 90
        1
 40
0.75
 90
        1
300
%<\AcVar ViewType \f "%tc1">% %<\AcVar ViewDetailId>%\PSCALE %<\AcVar ViewScale \f "%sn">%
 71
     4
340
13
 90
       25
340
13
 90
       25
280
     0
  0
LAYOUT
  5
B7F
102
{ACAD_XDICTIONARY
360
D49
102
}
102
{ACAD_REACTORS
330
B7C
102
}
330
B7C
100
AcDbPlotSettings
  1

  2
EPSON Stylus Photo 1200
  4

  6

 40
0.0
 41
0.0
 42
0.0
 43
0.0
 44
0.0
 45
0.0
 46
0.0
 47
0.0
 48
0.0
 49
0.0
140
0.0
141
0.0
142
1.0
143
1.0
 70
   688
 72
     0
 73
     0
 74
     5
  7
black.ctb
 75
    16
147
1.0
148
0.0
149
0.0
100
AcDbLayout
  1
Layout1
 70
     0
 71
     1
 10
0.0
 20
0.0
 11
12.0
 21
9.0
 12
0.0
 22
0.0
 32
0.0
 14
1.000000000000000E+20
 24
1.000000000000000E+20
 34
1.000000000000000E+20
 15
-1.000000000000000E+20
 25
-1.000000000000000E+20
 35
-1.000000000000000E+20
146
0.0
 13
0.0
 23
0.0
 33
0.0
 16
1.0
 26
0.0
 36
0.0
 17
0.0
 27
1.0
 37
0.0
 76
     0
330
14
  0
LAYOUT
  5
B7E
102
{ACAD_XDICTIONARY
360
D47
102
}
102
{ACAD_REACTORS
330
B7C
102
}
330
B7C
100
AcDbPlotSettings
  1

  2
EPSON Stylus Photo 1200
  4
Letter
  6

 40
3.757083177566528
 41
3.757076978683471
 42
3.757080078125
 43
3.757080078125
 44
215.8999938964844
 45
279.3999938964844
 46
0.0
 47
0.0
 48
0.0
 49
0.0
140
0.0
141
0.0
142
1.0
143
1.0
 70
 11952
 72
     0
 73
     1
 74
     0
  7

 75
     0
147
1.0
148
-14.94192532492115
149
-1.236567378090162
100
AcDbLayout
  1
Model
 70
     1
 71
     0
 10
0.0
 20
0.0
 11
12.0
 21
9.0
 12
0.0
 22
0.0
 32
0.0
 14
0.0
 24
0.0
 34
0.0
 15
0.0
 25
0.0
 35
0.0
146
0.0
 13
0.0
 23
0.0
 33
0.0
 16
1.0
 26
0.0
 36
0.0
 17
0.0
 27
1.0
 37
0.0
 76
     0
330
17
331
C25
  0
MATERIAL
  5
C30
102
{ACAD_XDICTIONARY
360
C31
102
}
102
{ACAD_REACTORS
330
C27
102
}
330
C27
100
AcDbMaterial
  1
ByBlock
 72
     0
 43
0.0208333333333333
 43
0.0
 43
0.0
 43
0.0
 43
0.0
 43
0.0208333333333333
 43
0.0
 43
0.0
 43
0.0
 43
0.0
 43
1.0
 43
0.0
 43
0.0
 43
0.0
 43
0.0
 43
1.0
 77
     0
 47
0.0208333333333333
 47
0.0
 47
0.0
 47
0.0
 47
0.0
 47
0.0208333333333333
 47
0.0
 47
0.0
 47
0.0
 47
0.0
 47
1.0
 47
0.0
 47
0.0
 47
0.0
 47
0.0
 47
1.0
171
     0
 49
0.0208333333333333
 49
0.0
 49
0.0
 49
0.0
 49
0.0
 49
0.0208333333333333
 49
0.0
 49
0.0
 49
0.0
 49
0.0
 49
1.0
 49
0.0
 49
0.0
 49
0.0
 49
0.0
 49
1.0
175
     0
142
0.0208333333333333
142
0.0
142
0.0
142
0.0
142
0.0
142
0.0208333333333333
142
0.0
142
0.0
142
0.0
142
0.0
142
1.0
142
0.0
142
0.0
142
0.0
142
0.0
142
1.0
179
     0
144
0.0208333333333333
144
0.0
144
0.0
144
0.0
144
0.0
144
0.0208333333333333
144
0.0
144
0.0
144
0.0
144
0.0
144
1.0
144
0.0
144
0.0
144
0.0
144
0.0
144
1.0
147
0.0208333333333333
147
0.0
147
0.0
147
0.0
147
0.0
147
0.0208333333333333
147
0.0
147
0.0
147
0.0
147
0.0
147
1.0
147
0.0
147
0.0
147
0.0
147
0.0
147
1.0
  0
MATERIAL
  5
C28
102
{ACAD_XDICTIONARY
360
C29
102
}
102
{ACAD_REACTORS
330
C27
102
}
330
C27
100
AcDbMaterial
  1
ByLayer
 72
     0
 43
0.0208333333333333
 43
0.0
 43
0.0
 43
0.0
 43
0.0
 43
0.0208333333333333
 43
0.0
 43
0.0
 43
0.0
 43
0.0
 43
1.0
 43
0.0
 43
0.0
 43
0.0
 43
0.0
 43
1.0
 77
     0
 47
0.0208333333333333
 47
0.0
 47
0.0
 47
0.0
 47
0.0
 47
0.0208333333333333
 47
0.0
 47
0.0
 47
0.0
 47
0.0
 47
1.0
 47
0.0
 47
0.0
 47
0.0
 47
0.0
 47
1.0
171
     0
 49
0.0208333333333333
 49
0.0
 49
0.0
 49
0.0
 49
0.0
 49
0.0208333333333333
 49
0.0
 49
0.0
 49
0.0
 49
0.0
 49
1.0
 49
0.0
 49
0.0
 49
0.0
 49
0.0
 49
1.0
175
     0
142
0.0208333333333333
142
0.0
142
0.0
142
0.0
142
0.0
142
0.0208333333333333
142
0.0
142
0.0
142
0.0
142
0.0
142
1.0
142
0.0
142
0.0
142
0.0
142
0.0
142
1.0
179
     0
144
0.0208333333333333
144
0.0
144
0.0
144
0.0
144
0.0
144
0.0208333333333333
144
0.0
144
0.0
144
0.0
144
0.0
144
1.0
144
0.0
144
0.0
144
0.0
144
0.0
144
1.0
147
0.0208333333333333
147
0.0
147
0.0
147
0.0
147
0.0
147
0.0208333333333333
147
0.0
147
0.0
147
0.0
147
0.0
147
1.0
147
0.0
147
0.0
147
0.0
147
0.0
147
1.0
  0
MATERIAL
  5
C38
102
{ACAD_XDICTIONARY
360
C39
102
}
102
{ACAD_REACTORS
330
C27
102
}
330
C27
100
AcDbMaterial
  1
Global
 72
     0
 43
0.0208333333333333
 43
0.0
 43
0.0
 43
0.0
 43
0.0
 43
0.0208333333333333
 43
0.0
 43
0.0
 43
0.0
 43
0.0
 43
1.0
 43
0.0
 43
0.0
 43
0.0
 43
0.0
 43
1.0
 77
     0
 47
0.0208333333333333
 47
0.0
 47
0.0
 47
0.0
 47
0.0
 47
0.0208333333333333
 47
0.0
 47
0.0
 47
0.0
 47
0.0
 47
1.0
 47
0.0
 47
0.0
 47
0.0
 47
0.0
 47
1.0
171
     0
 49
0.0208333333333333
 49
0.0
 49
0.0
 49
0.0
 49
0.0
 49
0.0208333333333333
 49
0.0
 49
0.0
 49
0.0
 49
0.0
 49
1.0
 49
0.0
 49
0.0
 49
0.0
 49
0.0
 49
1.0
175
     0
142
0.0208333333333333
142
0.0
142
0.0
142
0.0
142
0.0
142
0.0208333333333333
142
0.0
142
0.0
142
0.0
142
0.0
142
1.0
142
0.0
142
0.0
142
0.0
142
0.0
142
1.0
179
     0
144
0.0208333333333333
144
0.0
144
0.0
144
0.0
144
0.0
144
0.0208333333333333
144
0.0
144
0.0
144
0.0
144
0.0
144
1.0
144
0.0
144
0.0
144
0.0
144
0.0
144
1.0
147
0.0208333333333333
147
0.0
147
0.0
147
0.0
147
0.0
147
0.0208333333333333
147
0.0
147
0.0
147
0.0
147
0.0
147
1.0
147
0.0
147
0.0
147
0.0
147
0.0
147
1.0
  0
MLEADERSTYLE
  5
C6F
102
{ACAD_XDICTIONARY
360
D80
102
}
102
{ACAD_REACTORS
330
C6E
102
}
330
C6E
100
AcDbMLeaderStyle
170
     2
171
     1
172
     0
 90
        2
 40
0.0
 41
0.0
173
     1
 91
-1056964608
340
11
 92
       -2
290
     1
 42
0.09
291
     1
 43
0.36
  3
Standard
 44
0.18
300

342
F
174
     1
178
     6
175
     1
176
     0
 93
-1056964608
 45
0.18
292
     0
297
     0
 46
0.18
 94
-1056964608
 47
1.0
 49
1.0
140
1.0
293
     1
141
0.0
294
     1
177
     0
142
1.0
295
     0
296
     0
143
0.125
1001
ACAD_MLEADERVER
1070
     2
  0
MLINESTYLE
  5
1B
102
{ACAD_REACTORS
330
1A
102
}
330
1A
100
AcDbMlineStyle
  2
STANDARD
 70
     0
  3

 62
   256
 51
90.0
 52
90.0
 71
     2
 49
0.5
 62
   256
  6
BYLAYER
 49
-0.5
 62
   256
  6
BYLAYER
  0
ACDBPLACEHOLDER
  5
B7B
102
{ACAD_REACTORS
330
B7A
102
}
330
B7A
  0
SCALE
  5
C5D
102
{ACAD_REACTORS
330
C5C
102
}
330
C5C
100
AcDbScale
 70
     0
300
1:1
140
1.0
141
1.0
290
     1
  0
SCALE
  5
C5E
102
{ACAD_REACTORS
330
C5C
102
}
330
C5C
100
AcDbScale
 70
     0
300
1/128" = 1'-0"
140
0.0078125
141
12.0
290
     0
  0
SCALE
  5
C5F
102
{ACAD_REACTORS
330
C5C
102
}
330
C5C
100
AcDbScale
 70
     0
300
1/64" = 1'-0"
140
0.015625
141
12.0
290
     0
  0
SCALE
  5
C60
102
{ACAD_REACTORS
330
C5C
102
}
330
C5C
100
AcDbScale
 70
     0
300
1/32" = 1'-0"
140
0.03125
141
12.0
290
     0
  0
SCALE
  5
C61
102
{ACAD_REACTORS
330
C5C
102
}
330
C5C
100
AcDbScale
 70
     0
300
1/16" = 1'-0"
140
0.0625
141
12.0
290
     0
  0
SCALE
  5
C62
102
{ACAD_REACTORS
330
C5C
102
}
330
C5C
100
AcDbScale
 70
     0
300
3/32" = 1'-0"
140
0.09375
141
12.0
290
     0
  0
SCALE
  5
C63
102
{ACAD_REACTORS
330
C5C
102
}
330
C5C
100
AcDbScale
 70
     0
300
1/8" = 1'-0"
140
0.125
141
12.0
290
     0
  0
SCALE
  5
C64
102
{ACAD_REACTORS
330
C5C
102
}
330
C5C
100
AcDbScale
 70
     0
300
3/16" = 1'-0"
140
0.1875
141
12.0
290
     0
  0
SCALE
  5
C65
102
{ACAD_REACTORS
330
C5C
102
}
330
C5C
100
AcDbScale
 70
     0
300
1/4" = 1'-0"
140
0.25
141
12.0
290
     0
  0
SCALE
  5
C66
102
{ACAD_REACTORS
330
C5C
102
}
330
C5C
100
AcDbScale
 70
     0
300
3/8" = 1'-0"
140
0.375
141
12.0
290
     0
  0
SCALE
  5
C67
102
{ACAD_REACTORS
330
C5C
102
}
330
C5C
100
AcDbScale
 70
     0
300
1/2" = 1'-0"
140
0.5
141
12.0
290
     0
  0
SCALE
  5
C68
102
{ACAD_REACTORS
330
C5C
102
}
330
C5C
100
AcDbScale
 70
     0
300
3/4" = 1'-0"
140
0.75
141
12.0
290
     0
  0
SCALE
  5
C69
102
{ACAD_REACTORS
330
C5C
102
}
330
C5C
100
AcDbScale
 70
     0
300
1" = 1'-0"
140
1.0
141
12.0
290
     0
  0
SCALE
  5
C6A
102
{ACAD_REACTORS
330
C5C
102
}
330
C5C
100
AcDbScale
 70
     0
300
1-1/2" = 1'-0"
140
1.5
141
12.0
290
     0
  0
SCALE
  5
C6B
102
{ACAD_REACTORS
330
C5C
102
}
330
C5C
100
AcDbScale
 70
     0
300
3" = 1'-0"
140
3.0
141
12.0
290
     0
  0
SCALE
  5
C6C
102
{ACAD_REACTORS
330
C5C
102
}
330
C5C
100
AcDbScale
 70
     0
300
6" = 1'-0"
140
6.0
141
12.0
290
     0
  0
SCALE
  5
C6D
102
{ACAD_REACTORS
330
C5C
102
}
330
C5C
100
AcDbScale
 70
     0
300
1'-0" = 1'-0"
140
12.0
141
12.0
290
     0
  0
ACDBSECTIONVIEWSTYLE
  5
C71
102
{ACAD_XDICTIONARY
360
D2B
102
}
102
{ACAD_REACTORS
330
C70
102
}
330
C70
100
AcDbModelDocViewStyle
 70
     0
  3
Imperial24
290
     0
100
AcDbSectionViewStyle
 70
     0
 71
     0
 90
       78
 71
     1
340
F
 40
0.24
340
0
340
0
 40
0.24
300
I, O, Q, S, X, Z
 40
0.48
 90
        3
 40
0.18
 90
        1
 71
     2
340
13
 90
       25
340
13
 90
       50
 40
0.24
 40
0.0
 40
0.24
 71
     3
340
F
 40
0.24
 90
        1
 40
0.75
 90
        1
300
%<\AcVar ViewType \f "%tc1">% %<\AcVar ViewSectionStartId>%-%<\AcVar ViewSectionEndId>%\PSCALE %<\AcVar ViewScale \f "%sn">%
 71
     4
300
ANSI31
 40
1.0
 90
        0
290
     0
290
     0
 90
        6
 40
0.0
 40
1.570796326794896
 40
0.2617993877991494
 40
1.308996938995747
 40
-0.2617993877991494
 40
1.832595714594045
  0
TABLESTYLE
  5
C5B
102
{ACAD_XDICTIONARY
360
D29
102
}
102
{ACAD_REACTORS
330
C5A
102
}
330
C5A
100
AcDbTableStyle
  3
Standard
 70
     0
 71
     0
 40
0.06
 41
0.06
280
     0
281
     0
  7
STANDARD
140
0.18
170
     2
 62
     0
 63
     7
283
     0
274
    -2
284
     1
 64
     0
275
    -2
285
     1
 65
     0
276
    -2
286
     1
 66
     0
277
    -2
287
     1
 67
     0
278
    -2
288
     1
 68
     0
279
    -2
289
     1
 69
     0
  7
STANDARD
140
0.25
170
     5
 62
     0
 63
     7
283
     0
274
    -2
284
     1
 64
     0
275
    -2
285
     1
 65
     0
276
    -2
286
     1
 66
     0
277
    -2
287
     1
 67
     0
278
    -2
288
     1
 68
     0
279
    -2
289
     1
 69
     0
  7
STANDARD
140
0.18
170
     5
 62
     0
 63
     7
283
     0
274
    -2
284
     1
 64
     0
275
    -2
285
     1
 65
     0
276
    -2
286
     1
 66
     0
277
    -2
287
     1
 67
     0
278
    -2
288
     1
 68
     0
279
    -2
289
     1
 69
     0
  0
VISUALSTYLE
  5
C46
102
{ACAD_XDICTIONARY
360
D58
102
}
102
{ACAD_REACTORS
330
C40
102
}
330
C40
100
AcDbVisualStyle
  2
2dWireframe
 70
     4
 71
     0
 72
     2
 73
     0
 90
        0
 40
-0.6
 41
-30.0
 62
     5
 63
     7
 74
     1
 91
        4
 64
     7
 65
   257
 75
     1
175
     1
 42
1.0
 92
        0
 66
   257
 43
1.0
 76
     1
 77
     6
 78
     2
 67
     7
 79
     5
170
     0
171
     0
290
     0
174
     0
 93
        1
 44
0.0
173
     0
291
     0
 45
0.0
1001
ACAD
1000
AcDbSavedByObjectVersion
1070
     0
  0
VISUALSTYLE
  5
C45
102
{ACAD_XDICTIONARY
360
D56
102
}
102
{ACAD_REACTORS
330
C40
102
}
330
C40
100
AcDbVisualStyle
  2
Basic
 70
     7
 71
     1
 72
     0
 73
     1
 90
        0
 40
-0.6
 41
-30.0
 62
     5
 63
     7
 74
     0
 91
        4
 64
     7
 65
   257
 75
     1
175
     1
 42
1.0
 92
        8
 66
     7
 43
1.0
 76
     1
 77
     6
 78
     2
 67
     7
 79
     5
170
     0
171
     0
290
     0
174
     0
 93
        1
 44
0.0
173
     0
291
     1
 45
0.0
1001
ACAD
1000
AcDbSavedByObjectVersion
1070
     0
  0
VISUALSTYLE
  5
C4C
102
{ACAD_XDICTIONARY
360
D64
102
}
102
{ACAD_REACTORS
330
C40
102
}
330
C40
100
AcDbVisualStyle
  2
Brighten
 70
    12
 71
     2
 72
     2
 73
     0
 90
        0
 40
-0.6
 41
-30.0
 62
     5
 63
     7
 74
     1
 91
        4
 64
     7
 65
   257
 75
     1
175
     1
 42
1.0
 92
        8
 66
     7
 43
1.0
 76
     1
 77
     6
 78
     2
 67
     7
 79
     5
170
     0
171
     0
290
     0
174
     0
 93
        1
 44
50.0
173
     0
291
     1
 45
0.0
1001
ACAD
1000
AcDbSavedByObjectVersion
1070
     0
  0
VISUALSTYLE
  5
C50
102
{ACAD_XDICTIONARY
360
D6C
102
}
102
{ACAD_REACTORS
330
C40
102
}
330
C40
100
AcDbVisualStyle
  2
ColorChange
 70
    16
 71
     2
 72
     2
 73
     3
 90
        0
 40
-0.6
 41
-30.0
 62
     5
 63
     8
 74
     1
 91
        4
 64
     7
 65
   257
 75
     1
175
     1
 42
1.0
 92
        8
 66
     8
 43
1.0
 76
     1
 77
     6
 78
     2
 67
     7
 79
     5
170
     0
171
     0
290
     0
174
     0
 93
        1
 44
0.0
173
     0
291
     1
 45
0.0
1001
ACAD
1000
AcDbSavedByObjectVersion
1070
     0
  0
VISUALSTYLE
  5
C49
102
{ACAD_XDICTIONARY
360
D5E
102
}
102
{ACAD_REACTORS
330
C40
102
}
330
C40
100
AcDbVisualStyle
  2
Conceptual
 70
     9
 71
     3
 72
     2
 73
     0
 90
        0
 40
-0.6
 41
-30.0
 62
     5
 63
     7
 74
     2
 91
        2
 64
     7
 65
   257
 75
     1
175
     1
 42
179.0
 92
        8
 66
     7
 43
1.0
 76
     1
 77
     6
 78
     2
 67
     7
 79
     3
170
     0
171
     0
290
     0
174
     0
 93
        1
 44
0.0
173
     0
291
     0
 45
0.0
1001
ACAD
1000
AcDbSavedByObjectVersion
1070
     0
  0
VISUALSTYLE
  5
C4B
102
{ACAD_XDICTIONARY
360
D62
102
}
102
{ACAD_REACTORS
330
C40
102
}
330
C40
100
AcDbVisualStyle
  2
Dim
 70
    11
 71
     2
 72
     2
 73
     0
 90
        0
 40
-0.6
 41
-30.0
 62
     5
 63
     7
 74
     1
 91
        4
 64
     7
 65
   257
 75
     1
175
     1
 42
1.0
 92
        8
 66
     7
 43
1.0
 76
     1
 77
     6
 78
     2
 67
     7
 79
     5
170
     0
171
     0
290
     0
174
     0
 93
        1
 44
-50.0
173
     0
291
     1
 45
0.0
1001
ACAD
1000
AcDbSavedByObjectVersion
1070
     0
  0
VISUALSTYLE
  5
C58
102
{ACAD_XDICTIONARY
360
D7C
102
}
102
{ACAD_REACTORS
330
C40
102
}
330
C40
100
AcDbVisualStyle
  2
EdgeColorOff
 70
    22
 71
     2
 72
     2
 73
     0
 90
        0
 40
-0.6
 41
-30.0
 62
     5
 63
     7
 74
     1
 91
        4
 64
     7
 65
   257
 75
     1
175
     1
 42
1.0
 92
        8
 66
     7
 43
1.0
 76
     1
 77
     6
 78
     2
 67
     7
 79
     5
170
     0
171
     0
290
     0
174
     0
 93
        1
 44
0.0
173
     0
291
     1
 45
0.0
1001
ACAD
1000
AcDbSavedByObjectVersion
1070
     0
  0
VISUALSTYLE
  5
C4F
102
{ACAD_XDICTIONARY
360
D6A
102
}
102
{ACAD_REACTORS
330
C40
102
}
330
C40
100
AcDbVisualStyle
  2
Facepattern
 70
    15
 71
     2
 72
     2
 73
     0
 90
        0
 40
-0.6
 41
-30.0
 62
     5
 63
     7
 74
     1
 91
        4
 64
     7
 65
   257
 75
     1
175
     1
 42
1.0
 92
        8
 66
     7
 43
1.0
 76
     1
 77
     6
 78
     2
 67
     7
 79
     5
170
     0
171
     0
290
     0
174
     0
 93
        1
 44
0.0
173
     0
291
     1
 45
0.0
1001
ACAD
1000
AcDbSavedByObjectVersion
1070
     0
  0
VISUALSTYLE
  5
C41
102
{ACAD_XDICTIONARY
360
D4E
102
}
102
{ACAD_REACTORS
330
C40
102
}
330
C40
100
AcDbVisualStyle
  2
Flat
 70
     0
 71
     2
 72
     1
 73
     1
 90
        2
 40
-0.6
 41
30.0
 62
     5
 63
     7
 74
     0
 91
        0
 64
     7
 65
   257
 75
     1
175
     1
 42
1.0
 92
        8
 66
     7
 43
1.0
 76
     1
 77
     6
 78
     2
 67
     7
 79
     5
170
     0
171
     0
290
     0
174
     0
 93
       13
 44
0.0
173
     0
291
     1
 45
0.0
1001
ACAD
1000
AcDbSavedByObjectVersion
1070
     0
  0
VISUALSTYLE
  5
C42
102
{ACAD_XDICTIONARY
360
D50
102
}
102
{ACAD_REACTORS
330
C40
102
}
330
C40
100
AcDbVisualStyle
  2
FlatWithEdges
 70
     1
 71
     2
 72
     1
 73
     1
 90
        2
 40
-0.6
 41
30.0
 62
     5
 63
     7
 74
     1
 91
        0
 64
     7
 65
   257
 75
     1
175
     1
 42
1.0
 92
        0
 66
   257
 43
1.0
 76
     1
 77
     6
 78
     2
 67
     7
 79
     5
170
     0
171
     0
290
     0
174
     0
 93
       13
 44
0.0
173
     0
291
     1
 45
0.0
1001
ACAD
1000
AcDbSavedByObjectVersion
1070
     0
  0
VISUALSTYLE
  5
C43
102
{ACAD_XDICTIONARY
360
D52
102
}
102
{ACAD_REACTORS
330
C40
102
}
330
C40
100
AcDbVisualStyle
  2
Gouraud
 70
     2
 71
     2
 72
     2
 73
     1
 90
        2
 40
-0.6
 41
30.0
 62
     5
 63
     7
 74
     0
 91
        0
 64
     7
 65
   257
 75
     1
175
     1
 42
1.0
 92
        0
 66
     7
 43
1.0
 76
     1
 77
     6
 78
     2
 67
     7
 79
     5
170
     0
171
     0
290
     0
174
     0
 93
       13
 44
0.0
173
     0
291
     1
 45
0.0
1001
ACAD
1000
AcDbSavedByObjectVersion
1070
     0
  0
VISUALSTYLE
  5
C44
102
{ACAD_XDICTIONARY
360
D54
102
}
102
{ACAD_REACTORS
330
C40
102
}
330
C40
100
AcDbVisualStyle
  2
GouraudWithEdges
 70
     3
 71
     2
 72
     2
 73
     1
 90
        2
 40
-0.6
 41
30.0
 62
     5
 63
     7
 74
     1
 91
        0
 64
     7
 65
   257
 75
     1
175
     1
 42
1.0
 92
        0
 66
   257
 43
1.0
 76
     1
 77
     6
 78
     2
 67
     7
 79
     5
170
     0
171
     0
290
     0
174
     0
 93
       13
 44
0.0
173
     0
291
     1
 45
0.0
1001
ACAD
1000
AcDbSavedByObjectVersion
1070
     0
  0
VISUALSTYLE
  5
C48
102
{ACAD_XDICTIONARY
360
D5C
102
}
102
{ACAD_REACTORS
330
C40
102
}
330
C40
100
AcDbVisualStyle
  2
Hidden
 70
     6
 71
     1
 72
     2
 73
     2
 90
        0
 40
-0.6
 41
-30.0
 62
     5
 63
     7
 74
     2
 91
        2
 64
     7
 65
   257
 75
     2
175
     1
 42
40.0
 92
        0
 66
   257
 43
1.0
 76
     1
 77
     6
 78
     2
 67
     7
 79
     3
170
     0
171
     0
290
     0
174
     0
 93
        1
 44
0.0
173
     0
291
     0
 45
0.0
1001
ACAD
1000
AcDbSavedByObjectVersion
1070
     0
  0
VISUALSTYLE
  5
C56
102
{ACAD_XDICTIONARY
360
D78
102
}
102
{ACAD_REACTORS
330
C40
102
}
330
C40
100
AcDbVisualStyle
  2
JitterOff
 70
    20
 71
     2
 72
     2
 73
     0
 90
        0
 40
-0.6
 41
-30.0
 62
     5
 63
     7
 74
     1
 91
        4
 64
     7
 65
   257
 75
     1
175
     1
 42
1.0
 92
       10
 66
     7
 43
1.0
 76
     1
 77
     6
 78
     2
 67
     7
 79
     5
170
     0
171
     0
290
     0
174
     0
 93
        1
 44
0.0
173
     0
291
     1
 45
0.0
1001
ACAD
1000
AcDbSavedByObjectVersion
1070
     0
  0
VISUALSTYLE
  5
C4E
102
{ACAD_XDICTIONARY
360
D68
102
}
102
{ACAD_REACTORS
330
C40
102
}
330
C40
100
AcDbVisualStyle
  2
Linepattern
 70
    14
 71
     2
 72
     2
 73
     0
 90
        0
 40
-0.6
 41
-30.0
 62
     5
 63
     7
 74
     1
 91
        4
 64
     7
 65
   257
 75
     7
175
     7
 42
1.0
 92
        8
 66
     7
 43
1.0
 76
     1
 77
     6
 78
     2
 67
     7
 79
     5
170
     0
171
     0
290
     0
174
     0
 93
        1
 44
0.0
173
     0
291
     1
 45
0.0
1001
ACAD
1000
AcDbSavedByObjectVersion
1070
     0
  0
VISUALSTYLE
  5
C57
102
{ACAD_XDICTIONARY
360
D7A
102
}
102
{ACAD_REACTORS
330
C40
102
}
330
C40
100
AcDbVisualStyle
  2
OverhangOff
 70
    21
 71
     2
 72
     2
 73
     0
 90
        0
 40
-0.6
 41
-30.0
 62
     5
 63
     7
 74
     1
 91
        4
 64
     7
 65
   257
 75
     1
175
     1
 42
1.0
 92
        9
 66
     7
 43
1.0
 76
     1
 77
     6
 78
     2
 67
     7
 79
     5
170
     0
171
     0
290
     0
174
     0
 93
        1
 44
0.0
173
     0
291
     1
 45
0.0
1001
ACAD
1000
AcDbSavedByObjectVersion
1070
     0
  0
VISUALSTYLE
  5
C4A
102
{ACAD_XDICTIONARY
360
D60
102
}
102
{ACAD_REACTORS
330
C40
102
}
330
C40
100
AcDbVisualStyle
  2
Realistic
 70
     8
 71
     2
 72
     3
 73
     0
 90
        2
 40
-0.6
 41
30.0
 62
     5
 63
     7
 74
     0
 91
        0
 64
     7
 65
   257
 75
     1
175
     1
 42
1.0
 92
        8
 66
   257
 43
1.0
 76
     1
 77
     6
 78
     2
 67
     7
 79
     3
170
     0
171
     0
290
     0
174
     0
 93
       13
 44
0.0
173
     0
291
     0
 45
0.0
1001
ACAD
1000
AcDbSavedByObjectVersion
1070
     0
  0
VISUALSTYLE
  5
C55
102
{ACAD_XDICTIONARY
360
D76
102
}
102
{ACAD_REACTORS
330
C40
102
}
330
C40
100
AcDbVisualStyle
  2
Shaded
 70
    27
 71
     2
 72
     2
 73
     1
 90
        2
 40
-0.6
 41
30.0
 62
     5
 63
     7
 74
     0
 91
        4
 64
     7
 65
   257
 75
     1
175
     1
 42
1.0
 92
        8
 66
   257
 43
1.0
 76
     1
 77
     6
 78
     2
 67
     8
 79
     3
170
     0
171
     0
290
     0
174
     0
 93
        5
 44
0.0
173
     0
291
     0
 45
0.0
1001
ACAD
1000
AcDbSavedByObjectVersion
1070
     0
  0
VISUALSTYLE
  5
C54
102
{ACAD_XDICTIONARY
360
D74
102
}
102
{ACAD_REACTORS
330
C40
102
}
330
C40
100
AcDbVisualStyle
  2
Shaded with edges
 70
    26
 71
     2
 72
     2
 73
     1
 90
        2
 40
-0.6
 41
30.0
 62
     5
 63
     7
 74
     1
 91
       10
 64
     7
 65
   257
 75
     2
175
     1
 42
1.0
 92
        8
 66
   257
 43
1.0
 76
     1
 77
     6
 78
     2
 67
     7
 79
     3
170
     0
171
     0
290
     0
174
     0
 93
        5
 44
0.0
173
     0
291
     0
 45
0.0
1001
ACAD
1000
AcDbSavedByObjectVersion
1070
     0
  0
VISUALSTYLE
  5
C51
102
{ACAD_XDICTIONARY
360
D6E
102
}
102
{ACAD_REACTORS
330
C40
102
}
330
C40
100
AcDbVisualStyle
  2
Shades of Gray
 70
    23
 71
     2
 72
     2
 73
     3
 90
        0
 40
-0.6
 41
-30.0
 62
     5
 63
     7
 74
     2
 91
        2
 64
     7
 65
     7
 75
     1
175
     1
 42
40.0
 92
        8
 66
     7
 43
1.0
 76
     1
 77
     6
 78
     2
 67
     7
 79
     3
170
     0
171
     0
290
     0
174
     0
 93
        1
 44
0.0
173
     0
291
     0
 45
0.0
1001
ACAD
1000
AcDbSavedByObjectVersion
1070
     0
  0
VISUALSTYLE
  5
C52
102
{ACAD_XDICTIONARY
360
D70
102
}
102
{ACAD_REACTORS
330
C40
102
}
330
C40
100
AcDbVisualStyle
  2
Sketchy
 70
    24
 71
     1
 72
     2
 73
     2
 90
        0
 40
-0.6
 41
-30.0
 62
     5
 63
     7
 74
     2
 91
        2
 64
     7
 65
     7
 75
     1
175
     1
 42
40.0
 92
       11
 66
     7
 43
1.0
 76
     1
 77
     6
 78
     2
 67
     7
 79
     6
170
     0
171
     0
290
     0
174
     0
 93
        1
 44
0.0
173
     0
291
     0
 45
0.0
1001
ACAD
1000
AcDbSavedByObjectVersion
1070
     0
  0
VISUALSTYLE
  5
C4D
102
{ACAD_XDICTIONARY
360
D66
102
}
102
{ACAD_REACTORS
330
C40
102
}
330
C40
100
AcDbVisualStyle
  2
Thicken
 70
    13
 71
     2
 72
     2
 73
     0
 90
        0
 40
-0.6
 41
-30.0
 62
     5
 63
     7
 74
     1
 91
        4
 64
     7
 65
   257
 75
     1
175
     1
 42
1.0
 92
       12
 66
     7
 43
1.0
 76
     1
 77
     6
 78
     2
 67
     7
 79
     5
170
     0
171
     0
290
     0
174
     0
 93
        1
 44
0.0
173
     0
291
     1
 45
0.0
1001
ACAD
1000
AcDbSavedByObjectVersion
1070
     0
  0
VISUALSTYLE
  5
C47
102
{ACAD_XDICTIONARY
360
D5A
102
}
102
{ACAD_REACTORS
330
C40
102
}
330
C40
100
AcDbVisualStyle
  2
Wireframe
 70
     5
 71
     0
 72
     2
 73
     0
 90
        0
 40
-0.6
 41
-30.0
 62
     5
 63
     7
 74
     1
 91
        4
 64
     7
 65
   257
 75
     1
175
     1
 42
1.0
 92
        0
 66
   257
 43
1.0
 76
     1
 77
     6
 78
     2
 67
     7
 79
     3
170
     0
171
     0
290
     0
174
     0
 93
        1
 44
0.0
173
     0
291
     0
 45
0.0
1001
ACAD
1000
AcDbSavedByObjectVersion
1070
     0
  0
VISUALSTYLE
  5
C53
102
{ACAD_XDICTIONARY
360
D72
102
}
102
{ACAD_REACTORS
330
C40
102
}
330
C40
100
AcDbVisualStyle
  2
X-Ray
 70
    25
 71
     2
 72
     2
 73
     1
 90
        1
 40
0.5
 41
-30.0
 62
     5
 63
     7
 74
     1
 91
        0
 64
     7
 65
   257
 75
     1
175
     1
 42
1.0
 92
        8
 66
     7
 43
1.0
 76
     1
 77
     6
 78
     2
 67
     7
 79
     3
170
     0
171
     0
290
     0
174
     0
 93
       13
 44
0.0
173
     0
291
     0
 45
0.0
1001
ACAD
1000
AcDbSavedByObjectVersion
1070
     0
  0
DICTIONARYVAR
  5
D25
102
{ACAD_REACTORS
330
2F
102
}
330
2F
100
DictionaryVariables
280
     0
  1
1:1
  0
DICTIONARYVAR
  5
D21
102
{ACAD_REACTORS
330
2F
102
}
330
2F
100
DictionaryVariables
280
     0
  1
STANDARD
  0
DICTIONARYVAR
  5
D20
102
{ACAD_REACTORS
330
2F
102
}
330
2F
100
DictionaryVariables
280
     0
  1
STANDARD
  0
DICTIONARYVAR
  5
D22
102
{ACAD_REACTORS
330
2F
102
}
330
2F
100
DictionaryVariables
280
     0
  1
Imperial24
  0
DICTIONARYVAR
  5
D23
102
{ACAD_REACTORS
330
2F
102
}
330
2F
100
DictionaryVariables
280
     0
  1
Imperial24
  0
DICTIONARYVAR
  5
30
102
{ACAD_REACTORS
330
2F
102
}
330
2F
100
DictionaryVariables
280
     0
  1
2
  0
DICTIONARYVAR
  5
B85
102
{ACAD_REACTORS
330
2F
102
}
330
2F
100
DictionaryVariables
280
     0
  1
1
  0
DICTIONARYVAR
  5
D37
102
{ACAD_REACTORS
330
2F
102
}
330
2F
100
DictionaryVariables
280
     0
  1
0
  0
DICTIONARYVAR
  5
D27
102
{ACAD_REACTORS
330
2F
102
}
330
2F
100
DictionaryVariables
280
     0
  1
1
  0
DICTIONARYVAR
  5
D28
102
{ACAD_REACTORS
330
2F
102
}
330
2F
100
DictionaryVariables
280
     0
  1
15
  0
DICTIONARYVAR
  5
D26
102
{ACAD_REACTORS
330
2F
102
}
330
2F
100
DictionaryVariables
280
     0
  1
0
  0
DICTIONARYVAR
  5
D38
102
{ACAD_REACTORS
330
2F
102
}
330
2F
100
DictionaryVariables
280
     0
  1
1.570796
  0
DICTIONARYVAR
  5
D39
102
{ACAD_REACTORS
330
2F
102
}
330
2F
100
DictionaryVariables
280
     0
  1
1.570796
  0
DICTIONARYVAR
  5
D3A
102
{ACAD_REACTORS
330
2F
102
}
330
2F
100
DictionaryVariables
280
     0
  1
-122.394000
  0
DICTIONARYVAR
  5
D24
102
{ACAD_REACTORS
330
2F
102
}
330
2F
100
DictionaryVariables
280
     0
  1
0
  0
DICTIONARYVAR
  5
D36
102
{ACAD_REACTORS
330
2F
102
}
330
2F
100
DictionaryVariables
280
     0
  1
127
  0
DICTIONARYVAR
  5
D3B
102
{ACAD_REACTORS
330
2F
102
}
330
2F
100
DictionaryVariables
280
     0
  1
2
  0
DICTIONARY
  5
D46
102
{ACAD_REACTORS
330
D44
102
}
330
D44
100
AcDbDictionary
281
     1
  0
DICTIONARY
  5
D45
102
{ACAD_REACTORS
330
D44
102
}
330
D44
100
AcDbDictionary
281
     1
  3
8796088027504
350
D3F
  3
8796088027520
350
D40
  3
8796088027536
350
D41
  3
8796088027552
350
D42
  3
8796088027568
350
D43
  0
DICTIONARY
  5
D2D
330
C73
100
AcDbDictionary
280
     1
281
     1
  3
ACAD_XREC_ROUNDTRIP
360
D83
  0
DICTIONARY
  5
D49
330
B7F
100
AcDbDictionary
280
     1
281
     1
  3
ACAD_XREC_ROUNDTRIP
360
D4A
  0
DICTIONARY
  5
D47
330
B7E
100
AcDbDictionary
280
     1
281
     1
  3
ACAD_XREC_ROUNDTRIP
360
D48
  0
DICTIONARY
  5
C31
330
C30
100
AcDbDictionary
280
     1
281
     1
  3
ACAD_XREC_ROUNDTRIP
360
D4C
  3
BUMPTILE
360
C33
  3
DIFFUSETILE
360
C32
  3
OPACITYTILE
360
C36
  3
REFLECTIONTILE
360
C35
  3
REFRACTIONTILE
360
C37
  3
SPECULARTILE
360
C34
  0
DICTIONARY
  5
C29
330
C28
100
AcDbDictionary
280
     1
281
     1
  3
ACAD_XREC_ROUNDTRIP
360
D4B
  3
BUMPTILE
360
C2B
  3
DIFFUSETILE
360
C2A
  3
OPACITYTILE
360
C2E
  3
REFLECTIONTILE
360
C2D
  3
REFRACTIONTILE
360
C2F
  3
SPECULARTILE
360
C2C
  0
DICTIONARY
  5
C39
330
C38
100
AcDbDictionary
280
     1
281
     1
  3
ACAD_XREC_ROUNDTRIP
360
D4D
  3
BUMPTILE
360
C3B
  3
DIFFUSETILE
360
C3A
  3
OPACITYTILE
360
C3E
  3
REFLECTIONTILE
360
C3D
  3
REFRACTIONTILE
360
C3F
  3
SPECULARTILE
360
C3C
  0
DICTIONARY
  5
D80
330
C6F
100
AcDbDictionary
280
     1
281
     1
  3
ACAD_XREC_ROUNDTRIP
360
D81
  0
DICTIONARY
  5
D2B
330
C71
100
AcDbDictionary
280
     1
281
     1
  3
ACAD_XREC_ROUNDTRIP
360
D82
  0
DICTIONARY
  5
D29
330
C5B
100
AcDbDictionary
280
     1
281
     1
  3
ACAD_ROUNDTRIP_2008_TABLESTYLE_CELLSTYLEMAP
360
D3C
  3
ACAD_XREC_ROUNDTRIP
360
D7E
  0
DICTIONARY
  5
D58
330
C46
100
AcDbDictionary
280
     1
281
     1
  3
ACAD_XREC_ROUNDTRIP
360
D59
  0
DICTIONARY
  5
D56
330
C45
100
AcDbDictionary
280
     1
281
     1
  3
ACAD_XREC_ROUNDTRIP
360
D57
  0
DICTIONARY
  5
D64
330
C4C
100
AcDbDictionary
280
     1
281
     1
  3
ACAD_XREC_ROUNDTRIP
360
D65
  0
DICTIONARY
  5
D6C
330
C50
100
AcDbDictionary
280
     1
281
     1
  3
ACAD_XREC_ROUNDTRIP
360
D6D
  0
DICTIONARY
  5
D5E
330
C49
100
AcDbDictionary
280
     1
281
     1
  3
ACAD_XREC_ROUNDTRIP
360
D5F
  0
DICTIONARY
  5
D62
330
C4B
100
AcDbDictionary
280
     1
281
     1
  3
ACAD_XREC_ROUNDTRIP
360
D63
  0
DICTIONARY
  5
D7C
330
C58
100
AcDbDictionary
280
     1
281
     1
  3
ACAD_XREC_ROUNDTRIP
360
D7D
  0
DICTIONARY
  5
D6A
330
C4F
100
AcDbDictionary
280
     1
281
     1
  3
ACAD_XREC_ROUNDTRIP
360
D6B
  0
DICTIONARY
  5
D4E
330
C41
100
AcDbDictionary
280
     1
281
     1
  3
ACAD_XREC_ROUNDTRIP
360
D4F
  0
DICTIONARY
  5
D50
330
C42
100
AcDbDictionary
280
     1
281
     1
  3
ACAD_XREC_ROUNDTRIP
360
D51
  0
DICTIONARY
  5
D52
330
C43
100
AcDbDictionary
280
     1
281
     1
  3
ACAD_XREC_ROUNDTRIP
360
D53
  0
DICTIONARY
  5
D54
330
C44
100
AcDbDictionary
280
     1
281
     1
  3
ACAD_XREC_ROUNDTRIP
360
D55
  0
DICTIONARY
  5
D5C
330
C48
100
AcDbDictionary
280
     1
281
     1
  3
ACAD_XREC_ROUNDTRIP
360
D5D
  0
DICTIONARY
  5
D78
330
C56
100
AcDbDictionary
280
     1
281
     1
  3
ACAD_XREC_ROUNDTRIP
360
D79
  0
DICTIONARY
  5
D68
330
C4E
100
AcDbDictionary
280
     1
281
     1
  3
ACAD_XREC_ROUNDTRIP
360
D69
  0
DICTIONARY
  5
D7A
330
C57
100
AcDbDictionary
280
     1
281
     1
  3
ACAD_XREC_ROUNDTRIP
360
D7B
  0
DICTIONARY
  5
D60
330
C4A
100
AcDbDictionary
280
     1
281
     1
  3
ACAD_XREC_ROUNDTRIP
360
D61
  0
DICTIONARY
  5
D76
330
C55
100
AcDbDictionary
280
     1
281
     1
  3
ACAD_XREC_ROUNDTRIP
360
D77
  0
DICTIONARY
  5
D74
330
C54
100
AcDbDictionary
280
     1
281
     1
  3
ACAD_XREC_ROUNDTRIP
360
D75
  0
DICTIONARY
  5
D6E
330
C51
100
AcDbDictionary
280
     1
281
     1
  3
ACAD_XREC_ROUNDTRIP
360
D6F
  0
DICTIONARY
  5
D70
330
C52
100
AcDbDictionary
280
     1
281
     1
  3
ACAD_XREC_ROUNDTRIP
360
D71
  0
DICTIONARY
  5
D66
330
C4D
100
AcDbDictionary
280
     1
281
     1
  3
ACAD_XREC_ROUNDTRIP
360
D67
  0
DICTIONARY
  5
D5A
330
C47
100
AcDbDictionary
280
     1
281
     1
  3
ACAD_XREC_ROUNDTRIP
360
D5B
  0
DICTIONARY
  5
D72
330
C53
100
AcDbDictionary
280
     1
281
     1
  3
ACAD_XREC_ROUNDTRIP
360
D73
  0
XRECORD
  5
D3F
102
{ACAD_REACTORS
330
D45
102
}
330
D45
100
AcDbXrecord
280
     1
  1
AcDb_Thumbnail_Schema
102
{ATTRRECORD
341
D40
  2
AcDbDs::TreatedAsObjectData
280
     1
291
     1
102
ATTRRECORD}
102
{ATTRRECORD
341
D41
  2
AcDbDs::Legacy
280
     1
291
     1
102
ATTRRECORD}
  2
AcDbDs::ID
280
    10
 91
        8
102
{ATTRRECORD
341
D42
  2
AcDs:Indexable
280
     1
291
     1
102
ATTRRECORD}
102
{ATTRRECORD
341
D43
  2
AcDbDs::HandleAttribute
280
     7
282
     1
102
ATTRRECORD}
  2
Thumbnail_Data
280
    15
 91
        0
  0
XRECORD
  5
D40
102
{ACAD_REACTORS
330
D45
102
}
330
D45
100
AcDbXrecord
280
     1
  1
AcDbDs::TreatedAsObjectDataSchema
  2
AcDbDs::TreatedAsObjectData
280
     1
 91
        0
  0
XRECORD
  5
D41
102
{ACAD_REACTORS
330
D45
102
}
330
D45
100
AcDbXrecord
280
     1
  1
AcDbDs::LegacySchema
  2
AcDbDs::Legacy
280
     1
 91
        0
  0
XRECORD
  5
D42
102
{ACAD_REACTORS
330
D45
102
}
330
D45
100
AcDbXrecord
280
     1
  1
AcDbDs::IndexedPropertySchema
  2
AcDs:Indexable
280
     1
 91
        0
  0
XRECORD
  5
D43
102
{ACAD_REACTORS
330
D45
102
}
330
D45
100
AcDbXrecord
280
     1
  1
AcDbDs::HandleAttributeSchema
  2
AcDbDs::HandleAttribute
280
     7
 91
        1
284
     1
  0
XRECORD
  5
D83
102
{ACAD_REACTORS
330
D2D
102
}
330
D2D
100
AcDbXrecord
280
     1
102
DISPLAYNAME
  1
Imperial24
102
FLAGS
 90
        0
  0
XRECORD
  5
D4A
102
{ACAD_REACTORS
330
D49
102
}
330
D49
100
AcDbXrecord
280
     1
102
SHADEPLOT
 70
     0
102
SHADEPLOTRESLEVEL
 70
     2
102
SHADEPLOTCUSTOMDPI
 70
   300
  0
XRECORD
  5
D48
102
{ACAD_REACTORS
330
D47
102
}
330
D47
100
AcDbXrecord
280
     1
102
SHADEPLOT
 70
     0
102
SHADEPLOTRESLEVEL
 70
     2
102
SHADEPLOTCUSTOMDPI
 70
   300
  0
XRECORD
  5
D4C
102
{ACAD_REACTORS
330
C31
102
}
330
C31
100
AcDbXrecord
280
     1
102
MATERIAL
148
0.0
149
0.0
149
0.0
 93
        0
 94
      127
282
     0
 72
     0
 77
     0
171
     0
175
     0
179
     0
273
     0
  0
XRECORD
  5
C33
102
{ACAD_REACTORS
330
C31
102
}
330
C31
100
AcDbXrecord
280
     1
270
     1
271
     1
  0
XRECORD
  5
C32
102
{ACAD_REACTORS
330
C31
102
}
330
C31
100
AcDbXrecord
280
     1
270
     1
271
     1
  0
XRECORD
  5
C36
102
{ACAD_REACTORS
330
C31
102
}
330
C31
100
AcDbXrecord
280
     1
270
     1
271
     1
  0
XRECORD
  5
C35
102
{ACAD_REACTORS
330
C31
102
}
330
C31
100
AcDbXrecord
280
     1
270
     1
271
     1
  0
XRECORD
  5
C37
102
{ACAD_REACTORS
330
C31
102
}
330
C31
100
AcDbXrecord
280
     1
270
     1
271
     1
  0
XRECORD
  5
C34
102
{ACAD_REACTORS
330
C31
102
}
330
C31
100
AcDbXrecord
280
     1
270
     1
271
     1
  0
XRECORD
  5
D4B
102
{ACAD_REACTORS
330
C29
102
}
330
C29
100
AcDbXrecord
280
     1
102
MATERIAL
148
0.0
149
0.0
149
0.0
 93
        0
 94
      127
282
     0
 72
     0
 77
     0
171
     0
175
     0
179
     0
273
     0
  0
XRECORD
  5
C2B
102
{ACAD_REACTORS
330
C29
102
}
330
C29
100
AcDbXrecord
280
     1
270
     1
271
     1
  0
XRECORD
  5
C2A
102
{ACAD_REACTORS
330
C29
102
}
330
C29
100
AcDbXrecord
280
     1
270
     1
271
     1
  0
XRECORD
  5
C2E
102
{ACAD_REACTORS
330
C29
102
}
330
C29
100
AcDbXrecord
280
     1
270
     1
271
     1
  0
XRECORD
  5
C2D
102
{ACAD_REACTORS
330
C29
102
}
330
C29
100
AcDbXrecord
280
     1
270
     1
271
     1
  0
XRECORD
  5
C2F
102
{ACAD_REACTORS
330
C29
102
}
330
C29
100
AcDbXrecord
280
     1
270
     1
271
     1
  0
XRECORD
  5
C2C
102
{ACAD_REACTORS
330
C29
102
}
330
C29
100
AcDbXrecord
280
     1
270
     1
271
     1
  0
XRECORD
  5
D4D
102
{ACAD_REACTORS
330
C39
102
}
330
C39
100
AcDbXrecord
280
     1
102
MATERIAL
148
0.0
149
0.0
149
0.0
 93
        0
 94
      127
282
     0
 72
     0
 77
     0
171
     0
175
     0
179
     0
273
     0
  0
XRECORD
  5
C3B
102
{ACAD_REACTORS
330
C39
102
}
330
C39
100
AcDbXrecord
280
     1
270
     1
271
     1
  0
XRECORD
  5
C3A
102
{ACAD_REACTORS
330
C39
102
}
330
C39
100
AcDbXrecord
280
     1
270
     1
271
     1
  0
XRECORD
  5
C3E
102
{ACAD_REACTORS
330
C39
102
}
330
C39
100
AcDbXrecord
280
     1
270
     1
271
     1
  0
XRECORD
  5
C3D
102
{ACAD_REACTORS
330
C39
102
}
330
C39
100
AcDbXrecord
280
     1
270
     1
271
     1
  0
XRECORD
  5
C3F
102
{ACAD_REACTORS
330
C39
102
}
330
C39
100
AcDbXrecord
280
     1
270
     1
271
     1
  0
XRECORD
  5
C3C
102
{ACAD_REACTORS
330
C39
102
}
330
C39
100
AcDbXrecord
280
     1
270
     1
271
     1
  0
XRECORD
  5
D81
102
{ACAD_REACTORS
330
D80
102
}
330
D80
100
AcDbXrecord
280
     1
102
ACAD_ROUNDTRIP_2012_MLEADER_STYLE
298
     1
  0
XRECORD
  5
D82
102
{ACAD_REACTORS
330
D2B
102
}
330
D2B
100
AcDbXrecord
280
     1
102
DISPLAYNAME
  1
Imperial24
102
FLAGS
 90
        0
  0
CELLSTYLEMAP
  5
D3C
102
{ACAD_REACTORS
330
D29
102
}
330
D29
100
AcDbCellStyleMap
 90
        3
300
CELLSTYLE
  1
TABLEFORMAT_BEGIN
 90
        5
170
     1
 91
        0
 92
    32768
 62
   257
 93
        1
300
CONTENTFORMAT
  1
CONTENTFORMAT_BEGIN
 90
        0
 91
        0
 92
      512
 93
        0
300

 40
0.0
140
1.0
 94
        5
 62
     0
340
F
144
0.25
309
CONTENTFORMAT_END
171
     1
301
MARGIN
  1
CELLMARGIN_BEGIN
 40
0.06
 40
0.06
 40
0.06
 40
0.06
 40
0.18
 40
0.18
309
CELLMARGIN_END
 94
        6
 95
        1
302
GRIDFORMAT
  1
GRIDFORMAT_BEGIN
 90
        0
 91
        1
 62
     0
 92
       -2
340
0
 93
        0
 40
0.045
309
GRIDFORMAT_END
 95
        2
302
GRIDFORMAT
  1
GRIDFORMAT_BEGIN
 90
        0
 91
        1
 62
     0
 92
       -2
340
0
 93
        0
 40
0.045
309
GRIDFORMAT_END
 95
        4
302
GRIDFORMAT
  1
GRIDFORMAT_BEGIN
 90
        0
 91
        1
 62
     0
 92
       -2
340
0
 93
        0
 40
0.045
309
GRIDFORMAT_END
 95
        8
302
GRIDFORMAT
  1
GRIDFORMAT_BEGIN
 90
        0
 91
        1
 62
     0
 92
       -2
340
0
 93
        0
 40
0.045
309
GRIDFORMAT_END
 95
       16
302
GRIDFORMAT
  1
GRIDFORMAT_BEGIN
 90
        0
 91
        1
 62
     0
 92
       -2
340
0
 93
        0
 40
0.045
309
GRIDFORMAT_END
 95
       32
302
GRIDFORMAT
  1
GRIDFORMAT_BEGIN
 90
        0
 91
        1
 62
     0
 92
       -2
340
0
 93
        0
 40
0.045
309
GRIDFORMAT_END
309
TABLEFORMAT_END
  1
CELLSTYLE_BEGIN
 90
        1
 91
        1
300
_TITLE
309
CELLSTYLE_END
300
CELLSTYLE
  1
TABLEFORMAT_BEGIN
 90
        5
170
     1
 91
        0
 92
        0
 62
   257
 93
        1
300
CONTENTFORMAT
  1
CONTENTFORMAT_BEGIN
 90
        0
 91
        0
 92
      512
 93
        0
300

 40
0.0
140
1.0
 94
        5
 62
     0
340
F
144
0.18
309
CONTENTFORMAT_END
171
     1
301
MARGIN
  1
CELLMARGIN_BEGIN
 40
0.06
 40
0.06
 40
0.06
 40
0.06
 40
0.18
 40
0.18
309
CELLMARGIN_END
 94
        6
 95
        1
302
GRIDFORMAT
  1
GRIDFORMAT_BEGIN
 90
        0
 91
        1
 62
     0
 92
       -2
340
0
 93
        0
 40
0.045
309
GRIDFORMAT_END
 95
        2
302
GRIDFORMAT
  1
GRIDFORMAT_BEGIN
 90
        0
 91
        1
 62
     0
 92
       -2
340
0
 93
        0
 40
0.045
309
GRIDFORMAT_END
 95
        4
302
GRIDFORMAT
  1
GRIDFORMAT_BEGIN
 90
        0
 91
        1
 62
     0
 92
       -2
340
0
 93
        0
 40
0.045
309
GRIDFORMAT_END
 95
        8
302
GRIDFORMAT
  1
GRIDFORMAT_BEGIN
 90
        0
 91
        1
 62
     0
 92
       -2
340
0
 93
        0
 40
0.045
309
GRIDFORMAT_END
 95
       16
302
GRIDFORMAT
  1
GRIDFORMAT_BEGIN
 90
        0
 91
        1
 62
     0
 92
       -2
340
0
 93
        0
 40
0.045
309
GRIDFORMAT_END
 95
       32
302
GRIDFORMAT
  1
GRIDFORMAT_BEGIN
 90
        0
 91
        1
 62
     0
 92
       -2
340
0
 93
        0
 40
0.045
309
GRIDFORMAT_END
309
TABLEFORMAT_END
  1
CELLSTYLE_BEGIN
 90
        2
 91
        1
300
_HEADER
309
CELLSTYLE_END
300
CELLSTYLE
  1
TABLEFORMAT_BEGIN
 90
        5
170
     1
 91
        0
 92
        0
 62
   257
 93
        1
300
CONTENTFORMAT
  1
CONTENTFORMAT_BEGIN
 90
        0
 91
        0
 92
      512
 93
        0
300

 40
0.0
140
1.0
 94
        2
 62
     0
340
F
144
0.18
309
CONTENTFORMAT_END
171
     1
301
MARGIN
  1
CELLMARGIN_BEGIN
 40
0.06
 40
0.06
 40
0.06
 40
0.06
 40
0.18
 40
0.18
309
CELLMARGIN_END
 94
        6
 95
        1
302
GRIDFORMAT
  1
GRIDFORMAT_BEGIN
 90
        0
 91
        1
 62
     0
 92
       -2
340
0
 93
        0
 40
0.045
309
GRIDFORMAT_END
 95
        2
302
GRIDFORMAT
  1
GRIDFORMAT_BEGIN
 90
        0
 91
        1
 62
     0
 92
       -2
340
0
 93
        0
 40
0.045
309
GRIDFORMAT_END
 95
        4
302
GRIDFORMAT
  1
GRIDFORMAT_BEGIN
 90
        0
 91
        1
 62
     0
 92
       -2
340
0
 93
        0
 40
0.045
309
GRIDFORMAT_END
 95
        8
302
GRIDFORMAT
  1
GRIDFORMAT_BEGIN
 90
        0
 91
        1
 62
     0
 92
       -2
340
0
 93
        0
 40
0.045
309
GRIDFORMAT_END
 95
       16
302
GRIDFORMAT
  1
GRIDFORMAT_BEGIN
 90
        0
 91
        1
 62
     0
 92
       -2
340
0
 93
        0
 40
0.045
309
GRIDFORMAT_END
 95
       32
302
GRIDFORMAT
  1
GRIDFORMAT_BEGIN
 90
        0
 91
        1
 62
     0
 92
       -2
340
0
 93
        0
 40
0.045
309
GRIDFORMAT_END
309
TABLEFORMAT_END
  1
CELLSTYLE_BEGIN
 90
        3
 91
        2
300
_DATA
309
CELLSTYLE_END
  0
XRECORD
  5
D7E
102
{ACAD_REACTORS
330
D29
102
}
330
D29
100
AcDbXrecord
280
     1
102
ACAD_ROUNDTRIP_PRE2007_TABLESTYLE
 90
      512
 91
        0
  1

 92
      512
 93
        0
  2

 94
      512
 95
        0
  3

  0
XRECORD
  5
D59
102
{ACAD_REACTORS
330
D58
102
}
330
D58
100
AcDbXrecord
280
     1
102
RTVSPost2010Prop28
280
     1
102
RTVSPost2010PropOp28
 70
     1
102
RTVSPost2010Prop29
280
     1
102
RTVSPost2010PropOp29
 70
     1
102
RTVSPost2010Prop30
280
     0
102
RTVSPost2010PropOp30
 70
     1
102
RTVSPost2010Prop31
280
     0
102
RTVSPost2010PropOp31
 70
     1
102
RTVSPost2010Prop32
280
     0
102
RTVSPost2010PropOp32
 70
     1
102
RTVSPost2010Prop33
280
     0
102
RTVSPost2010PropOp33
 70
     1
102
RTVSPost2010Prop34
280
     0
102
RTVSPost2010PropOp34
 70
     1
102
RTVSPost2010Prop35
280
     0
102
RTVSPost2010PropOp35
 70
     1
102
RTVSPost2010Prop36
280
     0
102
RTVSPost2010PropOp36
 70
     1
102
RTVSPost2010Prop37
 90
       50
102
RTVSPost2010PropOp37
 70
     1
102
RTVSPost2010Prop38
140
0.0
102
RTVSPost2010PropOp38
 70
     1
102
RTVSPost2010Prop39
140
1.0
102
RTVSPost2010PropOp39
 70
     1
102
RTVSPost2010Prop40
 90
        0
102
RTVSPost2010PropOp40
 70
     1
102
RTVSPost2010Prop41ColorIndex
 90
       18
102
RTVSPost2010Prop41ColorRGB
 90
-16777216
102
RTVSPost2010PropOp41
 70
     1
102
RTVSPost2010Prop42
 90
       50
102
RTVSPost2010PropOp42
 70
     1
102
RTVSPost2010Prop43
 90
        3
102
RTVSPost2010PropOp43
 70
     1
102
RTVSPost2010Prop44ColorIndex
 90
        5
102
RTVSPost2010Prop44ColorRGB
 90
      255
102
RTVSPost2010PropOp44
 70
     1
102
RTVSPost2010Prop45
280
     0
102
RTVSPost2010PropOp45
 70
     1
102
RTVSPost2010Prop46
 90
       50
102
RTVSPost2010PropOp46
 70
     1
102
RTVSPost2010Prop47
 90
       50
102
RTVSPost2010PropOp47
 70
     1
102
RTVSPost2010Prop48
 90
       50
102
RTVSPost2010PropOp48
 70
     1
102
RTVSPost2010Prop49
280
     0
102
RTVSPost2010PropOp49
 70
     1
102
RTVSPost2010Prop50
 90
       50
102
RTVSPost2010PropOp50
 70
     1
102
RTVSPost2010Prop51ColorIndex
 90
      256
102
RTVSPost2010Prop51ColorRGB
 90
-16777216
102
RTVSPost2010PropOp51
 70
     0
102
RTVSPost2010Prop52
140
1.0
102
RTVSPost2010PropOp52
 70
     0
102
RTVSPost2010Prop53
 90
        2
102
RTVSPost2010PropOp53
 70
     1
102
RTVSPost2010Prop54
  1
strokes_ogs.tif
102
RTVSPost2010PropOp54
 70
     1
102
RTVSPost2010Prop55
280
     0
102
RTVSPost2010PropOp55
 70
     1
102
RTVSPost2010Prop56
140
1.0
102
RTVSPost2010PropOp56
 70
     1
102
RTVSPost2010Prop57
140
1.0
102
RTVSPost2010PropOp57
 70
     1
102
RTVSPropertyOp0
 70
     1
102
RTVSPropertyOp1
 70
     1
102
RTVSPropertyOp2
 70
     1
102
RTVSPropertyOp3
 70
     1
102
RTVSPropertyOp4
 70
     1
102
RTVSPropertyOp5
 70
     1
102
RTVSPropertyOp6
 70
     1
102
RTVSPropertyOp7
 70
     1
102
RTVSPropertyOp8
 70
     1
102
RTVSPropertyOp9
 70
     1
102
RTVSPropertyOp10
 70
     1
102
RTVSPropertyOp11
 70
     1
102
RTVSPropertyOp12
 70
     1
102
RTVSPropertyOp13
 70
     1
102
RTVSPropertyOp14
 70
     1
102
RTVSPropertyOp15
 70
     1
102
RTVSPropertyOp16
 70
     1
102
RTVSPropertyOp17
 70
     1
102
RTVSPropertyOp18
 70
     1
102
RTVSPropertyOp19
 70
     1
102
RTVSPropertyOp20
 70
     1
102
RTVSPropertyOp21
 70
     1
102
RTVSPropertyOp22
 70
     1
102
RTVSPropertyOp23
 70
     1
102
RTVSPropertyOp24
 70
     1
102
RTVSPropertyOp25
 70
     1
102
RTVSPropertyOp26
 70
     1
102
RTVSPropertyOp27
 70
     1
102
RTVSPropertyOp28
 70
     1
102
RTVSPropertyOp29
 70
     1
102
RTVSPropertyOp30
 70
     1
102
RTVSPropertyOp31
 70
     1
102
RTVSPropertyOp32
 70
     1
102
RTVSPropertyOp33
 70
     1
102
RTVSPropertyOp34
 70
     1
102
RTVSPropertyOp35
 70
     1
102
RTVSPropertyOp36
 70
     1
102
RTVSPropertyOp37
 70
     1
102
RTVSPropertyOp38
 70
     1
102
RTVSPropertyOp39
 70
     1
102
RTVSPropertyOp40
 70
     1
102
RTVSPropertyOp41
 70
     1
102
RTVSPropertyOp42
 70
     1
102
RTVSPropertyOp43
 70
     1
102
RTVSPropertyOp44
 70
     1
102
RTVSPropertyOp45
 70
     1
102
RTVSPropertyOp46
 70
     1
102
RTVSPropertyOp47
 70
     1
102
RTVSPropertyOp48
 70
     1
102
RTVSPropertyOp49
 70
     1
102
RTVSPropertyOp50
 70
     1
102
RTVSPropertyOp51
 70
     0
102
RTVSPropertyOp52
 70
     0
102
RTVSPropertyOp53
 70
     1
102
RTVSPropertyOp54
 70
     1
102
RTVSPropertyOp55
 70
     1
102
RTVSPropertyOp56
 70
     1
102
RTVSPropertyOp57
 70
     1
102
RTVSPropertyOp58
 70
     1
102
RTVSPropertyOp59
 70
     1
102
RTVSPropertyOp60
 70
     1
102
RTVSPropertyOp61
 70
     1
102
RTVSPropertyOp62
 70
     1
  0
XRECORD
  5
D57
102
{ACAD_REACTORS
330
D56
102
}
330
D56
100
AcDbXrecord
280
     1
102
RTVSPost2010Prop28
280
     0
102
RTVSPost2010PropOp28
 70
     1
102
RTVSPost2010Prop29
280
     1
102
RTVSPost2010PropOp29
 70
     1
102
RTVSPost2010Prop30
280
     1
102
RTVSPost2010PropOp30
 70
     1
102
RTVSPost2010Prop31
280
     0
102
RTVSPost2010PropOp31
 70
     1
102
RTVSPost2010Prop32
280
     0
102
RTVSPost2010PropOp32
 70
     1
102
RTVSPost2010Prop33
280
     0
102
RTVSPost2010PropOp33
 70
     1
102
RTVSPost2010Prop34
280
     0
102
RTVSPost2010PropOp34
 70
     1
102
RTVSPost2010Prop35
280
     0
102
RTVSPost2010PropOp35
 70
     1
102
RTVSPost2010Prop36
280
     0
102
RTVSPost2010PropOp36
 70
     1
102
RTVSPost2010Prop37
 90
       50
102
RTVSPost2010PropOp37
 70
     1
102
RTVSPost2010Prop38
140
0.0
102
RTVSPost2010PropOp38
 70
     1
102
RTVSPost2010Prop39
140
1.0
102
RTVSPost2010PropOp39
 70
     1
102
RTVSPost2010Prop40
 90
        0
102
RTVSPost2010PropOp40
 70
     1
102
RTVSPost2010Prop41ColorIndex
 90
       18
102
RTVSPost2010Prop41ColorRGB
 90
-16777216
102
RTVSPost2010PropOp41
 70
     1
102
RTVSPost2010Prop42
 90
       50
102
RTVSPost2010PropOp42
 70
     1
102
RTVSPost2010Prop43
 90
        3
102
RTVSPost2010PropOp43
 70
     1
102
RTVSPost2010Prop44ColorIndex
 90
        5
102
RTVSPost2010Prop44ColorRGB
 90
      255
102
RTVSPost2010PropOp44
 70
     1
102
RTVSPost2010Prop45
280
     0
102
RTVSPost2010PropOp45
 70
     1
102
RTVSPost2010Prop46
 90
       50
102
RTVSPost2010PropOp46
 70
     1
102
RTVSPost2010Prop47
 90
       50
102
RTVSPost2010PropOp47
 70
     1
102
RTVSPost2010Prop48
 90
       50
102
RTVSPost2010PropOp48
 70
     1
102
RTVSPost2010Prop49
280
     0
102
RTVSPost2010PropOp49
 70
     1
102
RTVSPost2010Prop50
 90
       50
102
RTVSPost2010PropOp50
 70
     1
102
RTVSPost2010Prop51ColorIndex
 90
      256
102
RTVSPost2010Prop51ColorRGB
 90
-16777216
102
RTVSPost2010PropOp51
 70
     0
102
RTVSPost2010Prop52
140
1.0
102
RTVSPost2010PropOp52
 70
     0
102
RTVSPost2010Prop53
 90
        2
102
RTVSPost2010PropOp53
 70
     1
102
RTVSPost2010Prop54
  1
strokes_ogs.tif
102
RTVSPost2010PropOp54
 70
     1
102
RTVSPost2010Prop55
280
     0
102
RTVSPost2010PropOp55
 70
     1
102
RTVSPost2010Prop56
140
1.0
102
RTVSPost2010PropOp56
 70
     1
102
RTVSPost2010Prop57
140
1.0
102
RTVSPost2010PropOp57
 70
     1
102
RTVSPropertyOp0
 70
     1
102
RTVSPropertyOp1
 70
     1
102
RTVSPropertyOp2
 70
     1
102
RTVSPropertyOp3
 70
     1
102
RTVSPropertyOp4
 70
     1
102
RTVSPropertyOp5
 70
     1
102
RTVSPropertyOp6
 70
     1
102
RTVSPropertyOp7
 70
     1
102
RTVSPropertyOp8
 70
     1
102
RTVSPropertyOp9
 70
     1
102
RTVSPropertyOp10
 70
     1
102
RTVSPropertyOp11
 70
     1
102
RTVSPropertyOp12
 70
     1
102
RTVSPropertyOp13
 70
     1
102
RTVSPropertyOp14
 70
     1
102
RTVSPropertyOp15
 70
     1
102
RTVSPropertyOp16
 70
     1
102
RTVSPropertyOp17
 70
     1
102
RTVSPropertyOp18
 70
     1
102
RTVSPropertyOp19
 70
     1
102
RTVSPropertyOp20
 70
     1
102
RTVSPropertyOp21
 70
     1
102
RTVSPropertyOp22
 70
     1
102
RTVSPropertyOp23
 70
     1
102
RTVSPropertyOp24
 70
     1
102
RTVSPropertyOp25
 70
     1
102
RTVSPropertyOp26
 70
     1
102
RTVSPropertyOp27
 70
     1
102
RTVSPropertyOp28
 70
     1
102
RTVSPropertyOp29
 70
     1
102
RTVSPropertyOp30
 70
     1
102
RTVSPropertyOp31
 70
     1
102
RTVSPropertyOp32
 70
     1
102
RTVSPropertyOp33
 70
     1
102
RTVSPropertyOp34
 70
     1
102
RTVSPropertyOp35
 70
     1
102
RTVSPropertyOp36
 70
     1
102
RTVSPropertyOp37
 70
     1
102
RTVSPropertyOp38
 70
     1
102
RTVSPropertyOp39
 70
     1
102
RTVSPropertyOp40
 70
     1
102
RTVSPropertyOp41
 70
     1
102
RTVSPropertyOp42
 70
     1
102
RTVSPropertyOp43
 70
     1
102
RTVSPropertyOp44
 70
     1
102
RTVSPropertyOp45
 70
     1
102
RTVSPropertyOp46
 70
     1
102
RTVSPropertyOp47
 70
     1
102
RTVSPropertyOp48
 70
     1
102
RTVSPropertyOp49
 70
     1
102
RTVSPropertyOp50
 70
     1
102
RTVSPropertyOp51
 70
     0
102
RTVSPropertyOp52
 70
     0
102
RTVSPropertyOp53
 70
     1
102
RTVSPropertyOp54
 70
     1
102
RTVSPropertyOp55
 70
     1
102
RTVSPropertyOp56
 70
     1
102
RTVSPropertyOp57
 70
     1
102
RTVSPropertyOp58
 70
     1
102
RTVSPropertyOp59
 70
     1
102
RTVSPropertyOp60
 70
     1
102
RTVSPropertyOp61
 70
     1
102
RTVSPropertyOp62
 70
     1
  0
XRECORD
  5
D65
102
{ACAD_REACTORS
330
D64
102
}
330
D64
100
AcDbXrecord
280
     1
102
RTVSPost2010Prop28
280
     0
102
RTVSPost2010PropOp28
 70
     1
102
RTVSPost2010Prop29
280
     1
102
RTVSPost2010PropOp29
 70
     1
102
RTVSPost2010Prop30
280
     1
102
RTVSPost2010PropOp30
 70
     1
102
RTVSPost2010Prop31
280
     0
102
RTVSPost2010PropOp31
 70
     1
102
RTVSPost2010Prop32
280
     0
102
RTVSPost2010PropOp32
 70
     1
102
RTVSPost2010Prop33
280
     0
102
RTVSPost2010PropOp33
 70
     1
102
RTVSPost2010Prop34
280
     0
102
RTVSPost2010PropOp34
 70
     1
102
RTVSPost2010Prop35
280
     0
102
RTVSPost2010PropOp35
 70
     1
102
RTVSPost2010Prop36
280
     0
102
RTVSPost2010PropOp36
 70
     1
102
RTVSPost2010Prop37
 90
       50
102
RTVSPost2010PropOp37
 70
     1
102
RTVSPost2010Prop38
140
0.0
102
RTVSPost2010PropOp38
 70
     1
102
RTVSPost2010Prop39
140
1.0
102
RTVSPost2010PropOp39
 70
     1
102
RTVSPost2010Prop40
 90
        0
102
RTVSPost2010PropOp40
 70
     1
102
RTVSPost2010Prop41ColorIndex
 90
       18
102
RTVSPost2010Prop41ColorRGB
 90
-16777216
102
RTVSPost2010PropOp41
 70
     1
102
RTVSPost2010Prop42
 90
       50
102
RTVSPost2010PropOp42
 70
     1
102
RTVSPost2010Prop43
 90
        3
102
RTVSPost2010PropOp43
 70
     1
102
RTVSPost2010Prop44ColorIndex
 90
        5
102
RTVSPost2010Prop44ColorRGB
 90
      255
102
RTVSPost2010PropOp44
 70
     1
102
RTVSPost2010Prop45
280
     0
102
RTVSPost2010PropOp45
 70
     1
102
RTVSPost2010Prop46
 90
       50
102
RTVSPost2010PropOp46
 70
     1
102
RTVSPost2010Prop47
 90
       50
102
RTVSPost2010PropOp47
 70
     1
102
RTVSPost2010Prop48
 90
       50
102
RTVSPost2010PropOp48
 70
     1
102
RTVSPost2010Prop49
280
     0
102
RTVSPost2010PropOp49
 70
     1
102
RTVSPost2010Prop50
 90
       50
102
RTVSPost2010PropOp50
 70
     1
102
RTVSPost2010Prop51ColorIndex
 90
      256
102
RTVSPost2010Prop51ColorRGB
 90
-16777216
102
RTVSPost2010PropOp51
 70
     0
102
RTVSPost2010Prop52
140
1.0
102
RTVSPost2010PropOp52
 70
     0
102
RTVSPost2010Prop53
 90
        2
102
RTVSPost2010PropOp53
 70
     1
102
RTVSPost2010Prop54
  1
strokes_ogs.tif
102
RTVSPost2010PropOp54
 70
     1
102
RTVSPost2010Prop55
280
     0
102
RTVSPost2010PropOp55
 70
     1
102
RTVSPost2010Prop56
140
1.0
102
RTVSPost2010PropOp56
 70
     1
102
RTVSPost2010Prop57
140
1.0
102
RTVSPost2010PropOp57
 70
     1
102
RTVSPropertyOp0
 70
     1
102
RTVSPropertyOp1
 70
     1
102
RTVSPropertyOp2
 70
     1
102
RTVSPropertyOp3
 70
     1
102
RTVSPropertyOp4
 70
     1
102
RTVSPropertyOp5
 70
     1
102
RTVSPropertyOp6
 70
     1
102
RTVSPropertyOp7
 70
     1
102
RTVSPropertyOp8
 70
     1
102
RTVSPropertyOp9
 70
     1
102
RTVSPropertyOp10
 70
     1
102
RTVSPropertyOp11
 70
     1
102
RTVSPropertyOp12
 70
     1
102
RTVSPropertyOp13
 70
     1
102
RTVSPropertyOp14
 70
     1
102
RTVSPropertyOp15
 70
     1
102
RTVSPropertyOp16
 70
     1
102
RTVSPropertyOp17
 70
     1
102
RTVSPropertyOp18
 70
     1
102
RTVSPropertyOp19
 70
     1
102
RTVSPropertyOp20
 70
     1
102
RTVSPropertyOp21
 70
     1
102
RTVSPropertyOp22
 70
     1
102
RTVSPropertyOp23
 70
     1
102
RTVSPropertyOp24
 70
     1
102
RTVSPropertyOp25
 70
     1
102
RTVSPropertyOp26
 70
     1
102
RTVSPropertyOp27
 70
     1
102
RTVSPropertyOp28
 70
     1
102
RTVSPropertyOp29
 70
     1
102
RTVSPropertyOp30
 70
     1
102
RTVSPropertyOp31
 70
     1
102
RTVSPropertyOp32
 70
     1
102
RTVSPropertyOp33
 70
     1
102
RTVSPropertyOp34
 70
     1
102
RTVSPropertyOp35
 70
     1
102
RTVSPropertyOp36
 70
     1
102
RTVSPropertyOp37
 70
     1
102
RTVSPropertyOp38
 70
     1
102
RTVSPropertyOp39
 70
     1
102
RTVSPropertyOp40
 70
     1
102
RTVSPropertyOp41
 70
     1
102
RTVSPropertyOp42
 70
     1
102
RTVSPropertyOp43
 70
     1
102
RTVSPropertyOp44
 70
     1
102
RTVSPropertyOp45
 70
     1
102
RTVSPropertyOp46
 70
     1
102
RTVSPropertyOp47
 70
     1
102
RTVSPropertyOp48
 70
     1
102
RTVSPropertyOp49
 70
     1
102
RTVSPropertyOp50
 70
     1
102
RTVSPropertyOp51
 70
     0
102
RTVSPropertyOp52
 70
     0
102
RTVSPropertyOp53
 70
     1
102
RTVSPropertyOp54
 70
     1
102
RTVSPropertyOp55
 70
     1
102
RTVSPropertyOp56
 70
     1
102
RTVSPropertyOp57
 70
     1
102
RTVSPropertyOp58
 70
     1
102
RTVSPropertyOp59
 70
     1
102
RTVSPropertyOp60
 70
     1
102
RTVSPropertyOp61
 70
     1
102
RTVSPropertyOp62
 70
     1
  0
XRECORD
  5
D6D
102
{ACAD_REACTORS
330
D6C
102
}
330
D6C
100
AcDbXrecord
280
     1
102
RTVSPost2010Prop28
280
     0
102
RTVSPost2010PropOp28
 70
     1
102
RTVSPost2010Prop29
280
     1
102
RTVSPost2010PropOp29
 70
     1
102
RTVSPost2010Prop30
280
     1
102
RTVSPost2010PropOp30
 70
     1
102
RTVSPost2010Prop31
280
     0
102
RTVSPost2010PropOp31
 70
     1
102
RTVSPost2010Prop32
280
     0
102
RTVSPost2010PropOp32
 70
     1
102
RTVSPost2010Prop33
280
     0
102
RTVSPost2010PropOp33
 70
     1
102
RTVSPost2010Prop34
280
     0
102
RTVSPost2010PropOp34
 70
     1
102
RTVSPost2010Prop35
280
     0
102
RTVSPost2010PropOp35
 70
     1
102
RTVSPost2010Prop36
280
     0
102
RTVSPost2010PropOp36
 70
     1
102
RTVSPost2010Prop37
 90
       50
102
RTVSPost2010PropOp37
 70
     1
102
RTVSPost2010Prop38
140
0.0
102
RTVSPost2010PropOp38
 70
     1
102
RTVSPost2010Prop39
140
1.0
102
RTVSPost2010PropOp39
 70
     1
102
RTVSPost2010Prop40
 90
        0
102
RTVSPost2010PropOp40
 70
     1
102
RTVSPost2010Prop41ColorIndex
 90
       18
102
RTVSPost2010Prop41ColorRGB
 90
-16777216
102
RTVSPost2010PropOp41
 70
     1
102
RTVSPost2010Prop42
 90
       50
102
RTVSPost2010PropOp42
 70
     1
102
RTVSPost2010Prop43
 90
        3
102
RTVSPost2010PropOp43
 70
     1
102
RTVSPost2010Prop44ColorIndex
 90
        5
102
RTVSPost2010Prop44ColorRGB
 90
      255
102
RTVSPost2010PropOp44
 70
     1
102
RTVSPost2010Prop45
280
     0
102
RTVSPost2010PropOp45
 70
     1
102
RTVSPost2010Prop46
 90
       50
102
RTVSPost2010PropOp46
 70
     1
102
RTVSPost2010Prop47
 90
       50
102
RTVSPost2010PropOp47
 70
     1
102
RTVSPost2010Prop48
 90
       50
102
RTVSPost2010PropOp48
 70
     1
102
RTVSPost2010Prop49
280
     0
102
RTVSPost2010PropOp49
 70
     1
102
RTVSPost2010Prop50
 90
       50
102
RTVSPost2010PropOp50
 70
     1
102
RTVSPost2010Prop51ColorIndex
 90
      256
102
RTVSPost2010Prop51ColorRGB
 90
-16777216
102
RTVSPost2010PropOp51
 70
     0
102
RTVSPost2010Prop52
140
1.0
102
RTVSPost2010PropOp52
 70
     0
102
RTVSPost2010Prop53
 90
        2
102
RTVSPost2010PropOp53
 70
     1
102
RTVSPost2010Prop54
  1
strokes_ogs.tif
102
RTVSPost2010PropOp54
 70
     1
102
RTVSPost2010Prop55
280
     0
102
RTVSPost2010PropOp55
 70
     1
102
RTVSPost2010Prop56
140
1.0
102
RTVSPost2010PropOp56
 70
     1
102
RTVSPost2010Prop57
140
1.0
102
RTVSPost2010PropOp57
 70
     1
102
RTVSPropertyOp0
 70
     1
102
RTVSPropertyOp1
 70
     1
102
RTVSPropertyOp2
 70
     1
102
RTVSPropertyOp3
 70
     1
102
RTVSPropertyOp4
 70
     1
102
RTVSPropertyOp5
 70
     1
102
RTVSPropertyOp6
 70
     1
102
RTVSPropertyOp7
 70
     1
102
RTVSPropertyOp8
 70
     1
102
RTVSPropertyOp9
 70
     1
102
RTVSPropertyOp10
 70
     1
102
RTVSPropertyOp11
 70
     1
102
RTVSPropertyOp12
 70
     1
102
RTVSPropertyOp13
 70
     1
102
RTVSPropertyOp14
 70
     1
102
RTVSPropertyOp15
 70
     1
102
RTVSPropertyOp16
 70
     1
102
RTVSPropertyOp17
 70
     1
102
RTVSPropertyOp18
 70
     1
102
RTVSPropertyOp19
 70
     1
102
RTVSPropertyOp20
 70
     1
102
RTVSPropertyOp21
 70
     1
102
RTVSPropertyOp22
 70
     1
102
RTVSPropertyOp23
 70
     1
102
RTVSPropertyOp24
 70
     1
102
RTVSPropertyOp25
 70
     1
102
RTVSPropertyOp26
 70
     1
102
RTVSPropertyOp27
 70
     1
102
RTVSPropertyOp28
 70
     1
102
RTVSPropertyOp29
 70
     1
102
RTVSPropertyOp30
 70
     1
102
RTVSPropertyOp31
 70
     1
102
RTVSPropertyOp32
 70
     1
102
RTVSPropertyOp33
 70
     1
102
RTVSPropertyOp34
 70
     1
102
RTVSPropertyOp35
 70
     1
102
RTVSPropertyOp36
 70
     1
102
RTVSPropertyOp37
 70
     1
102
RTVSPropertyOp38
 70
     1
102
RTVSPropertyOp39
 70
     1
102
RTVSPropertyOp40
 70
     1
102
RTVSPropertyOp41
 70
     1
102
RTVSPropertyOp42
 70
     1
102
RTVSPropertyOp43
 70
     1
102
RTVSPropertyOp44
 70
     1
102
RTVSPropertyOp45
 70
     1
102
RTVSPropertyOp46
 70
     1
102
RTVSPropertyOp47
 70
     1
102
RTVSPropertyOp48
 70
     1
102
RTVSPropertyOp49
 70
     1
102
RTVSPropertyOp50
 70
     1
102
RTVSPropertyOp51
 70
     0
102
RTVSPropertyOp52
 70
     0
102
RTVSPropertyOp53
 70
     1
102
RTVSPropertyOp54
 70
     1
102
RTVSPropertyOp55
 70
     1
102
RTVSPropertyOp56
 70
     1
102
RTVSPropertyOp57
 70
     1
102
RTVSPropertyOp58
 70
     1
102
RTVSPropertyOp59
 70
     1
102
RTVSPropertyOp60
 70
     1
102
RTVSPropertyOp61
 70
     1
102
RTVSPropertyOp62
 70
     1
  0
XRECORD
  5
D5F
102
{ACAD_REACTORS
330
D5E
102
}
330
D5E
100
AcDbXrecord
280
     1
102
RTVSPost2010Prop28
280
     0
102
RTVSPost2010PropOp28
 70
     1
102
RTVSPost2010Prop29
280
     1
102
RTVSPost2010PropOp29
 70
     1
102
RTVSPost2010Prop30
280
     1
102
RTVSPost2010PropOp30
 70
     1
102
RTVSPost2010Prop31
280
     0
102
RTVSPost2010PropOp31
 70
     1
102
RTVSPost2010Prop32
280
     0
102
RTVSPost2010PropOp32
 70
     1
102
RTVSPost2010Prop33
280
     0
102
RTVSPost2010PropOp33
 70
     1
102
RTVSPost2010Prop34
280
     0
102
RTVSPost2010PropOp34
 70
     1
102
RTVSPost2010Prop35
280
     0
102
RTVSPost2010PropOp35
 70
     1
102
RTVSPost2010Prop36
280
     0
102
RTVSPost2010PropOp36
 70
     1
102
RTVSPost2010Prop37
 90
       50
102
RTVSPost2010PropOp37
 70
     1
102
RTVSPost2010Prop38
140
0.0
102
RTVSPost2010PropOp38
 70
     1
102
RTVSPost2010Prop39
140
1.0
102
RTVSPost2010PropOp39
 70
     1
102
RTVSPost2010Prop40
 90
        0
102
RTVSPost2010PropOp40
 70
     1
102
RTVSPost2010Prop41ColorIndex
 90
       18
102
RTVSPost2010Prop41ColorRGB
 90
-16777216
102
RTVSPost2010PropOp41
 70
     1
102
RTVSPost2010Prop42
 90
       50
102
RTVSPost2010PropOp42
 70
     1
102
RTVSPost2010Prop43
 90
        3
102
RTVSPost2010PropOp43
 70
     1
102
RTVSPost2010Prop44ColorIndex
 90
        5
102
RTVSPost2010Prop44ColorRGB
 90
      255
102
RTVSPost2010PropOp44
 70
     1
102
RTVSPost2010Prop45
280
     0
102
RTVSPost2010PropOp45
 70
     1
102
RTVSPost2010Prop46
 90
       50
102
RTVSPost2010PropOp46
 70
     1
102
RTVSPost2010Prop47
 90
       50
102
RTVSPost2010PropOp47
 70
     1
102
RTVSPost2010Prop48
 90
       50
102
RTVSPost2010PropOp48
 70
     1
102
RTVSPost2010Prop49
280
     0
102
RTVSPost2010PropOp49
 70
     1
102
RTVSPost2010Prop50
 90
       50
102
RTVSPost2010PropOp50
 70
     1
102
RTVSPost2010Prop51ColorIndex
 90
      256
102
RTVSPost2010Prop51ColorRGB
 90
-16777216
102
RTVSPost2010PropOp51
 70
     0
102
RTVSPost2010Prop52
140
1.0
102
RTVSPost2010PropOp52
 70
     0
102
RTVSPost2010Prop53
 90
        2
102
RTVSPost2010PropOp53
 70
     1
102
RTVSPost2010Prop54
  1
strokes_ogs.tif
102
RTVSPost2010PropOp54
 70
     1
102
RTVSPost2010Prop55
280
     0
102
RTVSPost2010PropOp55
 70
     1
102
RTVSPost2010Prop56
140
1.0
102
RTVSPost2010PropOp56
 70
     1
102
RTVSPost2010Prop57
140
1.0
102
RTVSPost2010PropOp57
 70
     1
102
RTVSPropertyOp0
 70
     1
102
RTVSPropertyOp1
 70
     1
102
RTVSPropertyOp2
 70
     1
102
RTVSPropertyOp3
 70
     1
102
RTVSPropertyOp4
 70
     1
102
RTVSPropertyOp5
 70
     1
102
RTVSPropertyOp6
 70
     1
102
RTVSPropertyOp7
 70
     1
102
RTVSPropertyOp8
 70
     1
102
RTVSPropertyOp9
 70
     1
102
RTVSPropertyOp10
 70
     1
102
RTVSPropertyOp11
 70
     1
102
RTVSPropertyOp12
 70
     1
102
RTVSPropertyOp13
 70
     1
102
RTVSPropertyOp14
 70
     1
102
RTVSPropertyOp15
 70
     1
102
RTVSPropertyOp16
 70
     1
102
RTVSPropertyOp17
 70
     1
102
RTVSPropertyOp18
 70
     1
102
RTVSPropertyOp19
 70
     1
102
RTVSPropertyOp20
 70
     1
102
RTVSPropertyOp21
 70
     1
102
RTVSPropertyOp22
 70
     1
102
RTVSPropertyOp23
 70
     1
102
RTVSPropertyOp24
 70
     1
102
RTVSPropertyOp25
 70
     1
102
RTVSPropertyOp26
 70
     1
102
RTVSPropertyOp27
 70
     1
102
RTVSPropertyOp28
 70
     1
102
RTVSPropertyOp29
 70
     1
102
RTVSPropertyOp30
 70
     1
102
RTVSPropertyOp31
 70
     1
102
RTVSPropertyOp32
 70
     1
102
RTVSPropertyOp33
 70
     1
102
RTVSPropertyOp34
 70
     1
102
RTVSPropertyOp35
 70
     1
102
RTVSPropertyOp36
 70
     1
102
RTVSPropertyOp37
 70
     1
102
RTVSPropertyOp38
 70
     1
102
RTVSPropertyOp39
 70
     1
102
RTVSPropertyOp40
 70
     1
102
RTVSPropertyOp41
 70
     1
102
RTVSPropertyOp42
 70
     1
102
RTVSPropertyOp43
 70
     1
102
RTVSPropertyOp44
 70
     1
102
RTVSPropertyOp45
 70
     1
102
RTVSPropertyOp46
 70
     1
102
RTVSPropertyOp47
 70
     1
102
RTVSPropertyOp48
 70
     1
102
RTVSPropertyOp49
 70
     1
102
RTVSPropertyOp50
 70
     1
102
RTVSPropertyOp51
 70
     0
102
RTVSPropertyOp52
 70
     0
102
RTVSPropertyOp53
 70
     1
102
RTVSPropertyOp54
 70
     1
102
RTVSPropertyOp55
 70
     1
102
RTVSPropertyOp56
 70
     1
102
RTVSPropertyOp57
 70
     1
102
RTVSPropertyOp58
 70
     1
102
RTVSPropertyOp59
 70
     1
102
RTVSPropertyOp60
 70
     1
102
RTVSPropertyOp61
 70
     1
102
RTVSPropertyOp62
 70
     1
  0
XRECORD
  5
D63
102
{ACAD_REACTORS
330
D62
102
}
330
D62
100
AcDbXrecord
280
     1
102
RTVSPost2010Prop28
280
     0
102
RTVSPost2010PropOp28
 70
     1
102
RTVSPost2010Prop29
280
     1
102
RTVSPost2010PropOp29
 70
     1
102
RTVSPost2010Prop30
280
     1
102
RTVSPost2010PropOp30
 70
     1
102
RTVSPost2010Prop31
280
     0
102
RTVSPost2010PropOp31
 70
     1
102
RTVSPost2010Prop32
280
     0
102
RTVSPost2010PropOp32
 70
     1
102
RTVSPost2010Prop33
280
     0
102
RTVSPost2010PropOp33
 70
     1
102
RTVSPost2010Prop34
280
     0
102
RTVSPost2010PropOp34
 70
     1
102
RTVSPost2010Prop35
280
     0
102
RTVSPost2010PropOp35
 70
     1
102
RTVSPost2010Prop36
280
     0
102
RTVSPost2010PropOp36
 70
     1
102
RTVSPost2010Prop37
 90
       50
102
RTVSPost2010PropOp37
 70
     1
102
RTVSPost2010Prop38
140
0.0
102
RTVSPost2010PropOp38
 70
     1
102
RTVSPost2010Prop39
140
1.0
102
RTVSPost2010PropOp39
 70
     1
102
RTVSPost2010Prop40
 90
        0
102
RTVSPost2010PropOp40
 70
     1
102
RTVSPost2010Prop41ColorIndex
 90
       18
102
RTVSPost2010Prop41ColorRGB
 90
-16777216
102
RTVSPost2010PropOp41
 70
     1
102
RTVSPost2010Prop42
 90
       50
102
RTVSPost2010PropOp42
 70
     1
102
RTVSPost2010Prop43
 90
        3
102
RTVSPost2010PropOp43
 70
     1
102
RTVSPost2010Prop44ColorIndex
 90
        5
102
RTVSPost2010Prop44ColorRGB
 90
      255
102
RTVSPost2010PropOp44
 70
     1
102
RTVSPost2010Prop45
280
     0
102
RTVSPost2010PropOp45
 70
     1
102
RTVSPost2010Prop46
 90
       50
102
RTVSPost2010PropOp46
 70
     1
102
RTVSPost2010Prop47
 90
       50
102
RTVSPost2010PropOp47
 70
     1
102
RTVSPost2010Prop48
 90
       50
102
RTVSPost2010PropOp48
 70
     1
102
RTVSPost2010Prop49
280
     0
102
RTVSPost2010PropOp49
 70
     1
102
RTVSPost2010Prop50
 90
       50
102
RTVSPost2010PropOp50
 70
     1
102
RTVSPost2010Prop51ColorIndex
 90
      256
102
RTVSPost2010Prop51ColorRGB
 90
-16777216
102
RTVSPost2010PropOp51
 70
     0
102
RTVSPost2010Prop52
140
1.0
102
RTVSPost2010PropOp52
 70
     0
102
RTVSPost2010Prop53
 90
        2
102
RTVSPost2010PropOp53
 70
     1
102
RTVSPost2010Prop54
  1
strokes_ogs.tif
102
RTVSPost2010PropOp54
 70
     1
102
RTVSPost2010Prop55
280
     0
102
RTVSPost2010PropOp55
 70
     1
102
RTVSPost2010Prop56
140
1.0
102
RTVSPost2010PropOp56
 70
     1
102
RTVSPost2010Prop57
140
1.0
102
RTVSPost2010PropOp57
 70
     1
102
RTVSPropertyOp0
 70
     1
102
RTVSPropertyOp1
 70
     1
102
RTVSPropertyOp2
 70
     1
102
RTVSPropertyOp3
 70
     1
102
RTVSPropertyOp4
 70
     1
102
RTVSPropertyOp5
 70
     1
102
RTVSPropertyOp6
 70
     1
102
RTVSPropertyOp7
 70
     1
102
RTVSPropertyOp8
 70
     1
102
RTVSPropertyOp9
 70
     1
102
RTVSPropertyOp10
 70
     1
102
RTVSPropertyOp11
 70
     1
102
RTVSPropertyOp12
 70
     1
102
RTVSPropertyOp13
 70
     1
102
RTVSPropertyOp14
 70
     1
102
RTVSPropertyOp15
 70
     1
102
RTVSPropertyOp16
 70
     1
102
RTVSPropertyOp17
 70
     1
102
RTVSPropertyOp18
 70
     1
102
RTVSPropertyOp19
 70
     1
102
RTVSPropertyOp20
 70
     1
102
RTVSPropertyOp21
 70
     1
102
RTVSPropertyOp22
 70
     1
102
RTVSPropertyOp23
 70
     1
102
RTVSPropertyOp24
 70
     1
102
RTVSPropertyOp25
 70
     1
102
RTVSPropertyOp26
 70
     1
102
RTVSPropertyOp27
 70
     1
102
RTVSPropertyOp28
 70
     1
102
RTVSPropertyOp29
 70
     1
102
RTVSPropertyOp30
 70
     1
102
RTVSPropertyOp31
 70
     1
102
RTVSPropertyOp32
 70
     1
102
RTVSPropertyOp33
 70
     1
102
RTVSPropertyOp34
 70
     1
102
RTVSPropertyOp35
 70
     1
102
RTVSPropertyOp36
 70
     1
102
RTVSPropertyOp37
 70
     1
102
RTVSPropertyOp38
 70
     1
102
RTVSPropertyOp39
 70
     1
102
RTVSPropertyOp40
 70
     1
102
RTVSPropertyOp41
 70
     1
102
RTVSPropertyOp42
 70
     1
102
RTVSPropertyOp43
 70
     1
102
RTVSPropertyOp44
 70
     1
102
RTVSPropertyOp45
 70
     1
102
RTVSPropertyOp46
 70
     1
102
RTVSPropertyOp47
 70
     1
102
RTVSPropertyOp48
 70
     1
102
RTVSPropertyOp49
 70
     1
102
RTVSPropertyOp50
 70
     1
102
RTVSPropertyOp51
 70
     0
102
RTVSPropertyOp52
 70
     0
102
RTVSPropertyOp53
 70
     1
102
RTVSPropertyOp54
 70
     1
102
RTVSPropertyOp55
 70
     1
102
RTVSPropertyOp56
 70
     1
102
RTVSPropertyOp57
 70
     1
102
RTVSPropertyOp58
 70
     1
102
RTVSPropertyOp59
 70
     1
102
RTVSPropertyOp60
 70
     1
102
RTVSPropertyOp61
 70
     1
102
RTVSPropertyOp62
 70
     1
  0
XRECORD
  5
D7D
102
{ACAD_REACTORS
330
D7C
102
}
330
D7C
100
AcDbXrecord
280
     1
102
RTVSPost2010Prop28
280
     0
102
RTVSPost2010PropOp28
 70
     0
102
RTVSPost2010Prop29
280
     1
102
RTVSPost2010PropOp29
 70
     0
102
RTVSPost2010Prop30
280
     1
102
RTVSPost2010PropOp30
 70
     0
102
RTVSPost2010Prop31
280
     0
102
RTVSPost2010PropOp31
 70
     0
102
RTVSPost2010Prop32
280
     0
102
RTVSPost2010PropOp32
 70
     0
102
RTVSPost2010Prop33
280
     0
102
RTVSPost2010PropOp33
 70
     0
102
RTVSPost2010Prop34
280
     0
102
RTVSPost2010PropOp34
 70
     0
102
RTVSPost2010Prop35
280
     0
102
RTVSPost2010PropOp35
 70
     0
102
RTVSPost2010Prop36
280
     0
102
RTVSPost2010PropOp36
 70
     0
102
RTVSPost2010Prop37
 90
       50
102
RTVSPost2010PropOp37
 70
     0
102
RTVSPost2010Prop38
140
0.0
102
RTVSPost2010PropOp38
 70
     0
102
RTVSPost2010Prop39
140
1.0
102
RTVSPost2010PropOp39
 70
     0
102
RTVSPost2010Prop40
 90
        0
102
RTVSPost2010PropOp40
 70
     0
102
RTVSPost2010Prop41ColorIndex
 90
       18
102
RTVSPost2010Prop41ColorRGB
 90
-16777216
102
RTVSPost2010PropOp41
 70
     0
102
RTVSPost2010Prop42
 90
       50
102
RTVSPost2010PropOp42
 70
     0
102
RTVSPost2010Prop43
 90
        3
102
RTVSPost2010PropOp43
 70
     0
102
RTVSPost2010Prop44ColorIndex
 90
        5
102
RTVSPost2010Prop44ColorRGB
 90
      255
102
RTVSPost2010PropOp44
 70
     0
102
RTVSPost2010Prop45
280
     0
102
RTVSPost2010PropOp45
 70
     0
102
RTVSPost2010Prop46
 90
       50
102
RTVSPost2010PropOp46
 70
     0
102
RTVSPost2010Prop47
 90
       50
102
RTVSPost2010PropOp47
 70
     0
102
RTVSPost2010Prop48
 90
       50
102
RTVSPost2010PropOp48
 70
     0
102
RTVSPost2010Prop49
280
     0
102
RTVSPost2010PropOp49
 70
     0
102
RTVSPost2010Prop50
 90
       50
102
RTVSPost2010PropOp50
 70
     0
102
RTVSPost2010Prop51ColorIndex
 90
      256
102
RTVSPost2010Prop51ColorRGB
 90
-16777216
102
RTVSPost2010PropOp51
 70
     0
102
RTVSPost2010Prop52
140
1.0
102
RTVSPost2010PropOp52
 70
     0
102
RTVSPost2010Prop53
 90
        2
102
RTVSPost2010PropOp53
 70
     0
102
RTVSPost2010Prop54
  1
strokes_ogs.tif
102
RTVSPost2010PropOp54
 70
     0
102
RTVSPost2010Prop55
280
     0
102
RTVSPost2010PropOp55
 70
     0
102
RTVSPost2010Prop56
140
1.0
102
RTVSPost2010PropOp56
 70
     0
102
RTVSPost2010Prop57
140
1.0
102
RTVSPost2010PropOp57
 70
     0
102
RTVSPropertyOp0
 70
     0
102
RTVSPropertyOp1
 70
     0
102
RTVSPropertyOp2
 70
     0
102
RTVSPropertyOp3
 70
     0
102
RTVSPropertyOp4
 70
     0
102
RTVSPropertyOp5
 70
     0
102
RTVSPropertyOp6
 70
     0
102
RTVSPropertyOp7
 70
     0
102
RTVSPropertyOp8
 70
     0
102
RTVSPropertyOp9
 70
     0
102
RTVSPropertyOp10
 70
     0
102
RTVSPropertyOp11
 70
     0
102
RTVSPropertyOp12
 70
     0
102
RTVSPropertyOp13
 70
     0
102
RTVSPropertyOp14
 70
     2
102
RTVSPropertyOp15
 70
     0
102
RTVSPropertyOp16
 70
     0
102
RTVSPropertyOp17
 70
     0
102
RTVSPropertyOp18
 70
     0
102
RTVSPropertyOp19
 70
     0
102
RTVSPropertyOp20
 70
     0
102
RTVSPropertyOp21
 70
     0
102
RTVSPropertyOp22
 70
     0
102
RTVSPropertyOp23
 70
     0
102
RTVSPropertyOp24
 70
     0
102
RTVSPropertyOp25
 70
     0
102
RTVSPropertyOp26
 70
     0
102
RTVSPropertyOp27
 70
     0
102
RTVSPropertyOp28
 70
     0
102
RTVSPropertyOp29
 70
     0
102
RTVSPropertyOp30
 70
     0
102
RTVSPropertyOp31
 70
     0
102
RTVSPropertyOp32
 70
     0
102
RTVSPropertyOp33
 70
     0
102
RTVSPropertyOp34
 70
     0
102
RTVSPropertyOp35
 70
     0
102
RTVSPropertyOp36
 70
     0
102
RTVSPropertyOp37
 70
     0
102
RTVSPropertyOp38
 70
     0
102
RTVSPropertyOp39
 70
     0
102
RTVSPropertyOp40
 70
     0
102
RTVSPropertyOp41
 70
     0
102
RTVSPropertyOp42
 70
     0
102
RTVSPropertyOp43
 70
     0
102
RTVSPropertyOp44
 70
     0
102
RTVSPropertyOp45
 70
     0
102
RTVSPropertyOp46
 70
     0
102
RTVSPropertyOp47
 70
     0
102
RTVSPropertyOp48
 70
     0
102
RTVSPropertyOp49
 70
     0
102
RTVSPropertyOp50
 70
     0
102
RTVSPropertyOp51
 70
     0
102
RTVSPropertyOp52
 70
     0
102
RTVSPropertyOp53
 70
     0
102
RTVSPropertyOp54
 70
     0
102
RTVSPropertyOp55
 70
     0
102
RTVSPropertyOp56
 70
     0
102
RTVSPropertyOp57
 70
     0
102
RTVSPropertyOp58
 70
     1
102
RTVSPropertyOp59
 70
     1
102
RTVSPropertyOp60
 70
     1
102
RTVSPropertyOp61
 70
     1
102
RTVSPropertyOp62
 70
     1
  0
XRECORD
  5
D6B
102
{ACAD_REACTORS
330
D6A
102
}
330
D6A
100
AcDbXrecord
280
     1
102
RTVSPost2010Prop28
280
     0
102
RTVSPost2010PropOp28
 70
     1
102
RTVSPost2010Prop29
280
     1
102
RTVSPost2010PropOp29
 70
     1
102
RTVSPost2010Prop30
280
     1
102
RTVSPost2010PropOp30
 70
     1
102
RTVSPost2010Prop31
280
     0
102
RTVSPost2010PropOp31
 70
     1
102
RTVSPost2010Prop32
280
     0
102
RTVSPost2010PropOp32
 70
     1
102
RTVSPost2010Prop33
280
     0
102
RTVSPost2010PropOp33
 70
     1
102
RTVSPost2010Prop34
280
     0
102
RTVSPost2010PropOp34
 70
     1
102
RTVSPost2010Prop35
280
     0
102
RTVSPost2010PropOp35
 70
     1
102
RTVSPost2010Prop36
280
     0
102
RTVSPost2010PropOp36
 70
     1
102
RTVSPost2010Prop37
 90
       50
102
RTVSPost2010PropOp37
 70
     1
102
RTVSPost2010Prop38
140
0.0
102
RTVSPost2010PropOp38
 70
     1
102
RTVSPost2010Prop39
140
1.0
102
RTVSPost2010PropOp39
 70
     1
102
RTVSPost2010Prop40
 90
        0
102
RTVSPost2010PropOp40
 70
     1
102
RTVSPost2010Prop41ColorIndex
 90
       18
102
RTVSPost2010Prop41ColorRGB
 90
-16777216
102
RTVSPost2010PropOp41
 70
     1
102
RTVSPost2010Prop42
 90
       50
102
RTVSPost2010PropOp42
 70
     1
102
RTVSPost2010Prop43
 90
        3
102
RTVSPost2010PropOp43
 70
     1
102
RTVSPost2010Prop44ColorIndex
 90
        5
102
RTVSPost2010Prop44ColorRGB
 90
      255
102
RTVSPost2010PropOp44
 70
     1
102
RTVSPost2010Prop45
280
     0
102
RTVSPost2010PropOp45
 70
     1
102
RTVSPost2010Prop46
 90
       50
102
RTVSPost2010PropOp46
 70
     1
102
RTVSPost2010Prop47
 90
       50
102
RTVSPost2010PropOp47
 70
     1
102
RTVSPost2010Prop48
 90
       50
102
RTVSPost2010PropOp48
 70
     1
102
RTVSPost2010Prop49
280
     0
102
RTVSPost2010PropOp49
 70
     1
102
RTVSPost2010Prop50
 90
       50
102
RTVSPost2010PropOp50
 70
     1
102
RTVSPost2010Prop51ColorIndex
 90
      256
102
RTVSPost2010Prop51ColorRGB
 90
-16777216
102
RTVSPost2010PropOp51
 70
     0
102
RTVSPost2010Prop52
140
1.0
102
RTVSPost2010PropOp52
 70
     0
102
RTVSPost2010Prop53
 90
        2
102
RTVSPost2010PropOp53
 70
     1
102
RTVSPost2010Prop54
  1
strokes_ogs.tif
102
RTVSPost2010PropOp54
 70
     1
102
RTVSPost2010Prop55
280
     0
102
RTVSPost2010PropOp55
 70
     1
102
RTVSPost2010Prop56
140
1.0
102
RTVSPost2010PropOp56
 70
     1
102
RTVSPost2010Prop57
140
1.0
102
RTVSPost2010PropOp57
 70
     1
102
RTVSPropertyOp0
 70
     1
102
RTVSPropertyOp1
 70
     1
102
RTVSPropertyOp2
 70
     1
102
RTVSPropertyOp3
 70
     1
102
RTVSPropertyOp4
 70
     1
102
RTVSPropertyOp5
 70
     1
102
RTVSPropertyOp6
 70
     1
102
RTVSPropertyOp7
 70
     1
102
RTVSPropertyOp8
 70
     1
102
RTVSPropertyOp9
 70
     1
102
RTVSPropertyOp10
 70
     1
102
RTVSPropertyOp11
 70
     1
102
RTVSPropertyOp12
 70
     1
102
RTVSPropertyOp13
 70
     1
102
RTVSPropertyOp14
 70
     1
102
RTVSPropertyOp15
 70
     1
102
RTVSPropertyOp16
 70
     1
102
RTVSPropertyOp17
 70
     1
102
RTVSPropertyOp18
 70
     1
102
RTVSPropertyOp19
 70
     1
102
RTVSPropertyOp20
 70
     1
102
RTVSPropertyOp21
 70
     1
102
RTVSPropertyOp22
 70
     1
102
RTVSPropertyOp23
 70
     1
102
RTVSPropertyOp24
 70
     1
102
RTVSPropertyOp25
 70
     1
102
RTVSPropertyOp26
 70
     1
102
RTVSPropertyOp27
 70
     1
102
RTVSPropertyOp28
 70
     1
102
RTVSPropertyOp29
 70
     1
102
RTVSPropertyOp30
 70
     1
102
RTVSPropertyOp31
 70
     1
102
RTVSPropertyOp32
 70
     1
102
RTVSPropertyOp33
 70
     1
102
RTVSPropertyOp34
 70
     1
102
RTVSPropertyOp35
 70
     1
102
RTVSPropertyOp36
 70
     1
102
RTVSPropertyOp37
 70
     1
102
RTVSPropertyOp38
 70
     1
102
RTVSPropertyOp39
 70
     1
102
RTVSPropertyOp40
 70
     1
102
RTVSPropertyOp41
 70
     1
102
RTVSPropertyOp42
 70
     1
102
RTVSPropertyOp43
 70
     1
102
RTVSPropertyOp44
 70
     1
102
RTVSPropertyOp45
 70
     1
102
RTVSPropertyOp46
 70
     1
102
RTVSPropertyOp47
 70
     1
102
RTVSPropertyOp48
 70
     1
102
RTVSPropertyOp49
 70
     1
102
RTVSPropertyOp50
 70
     1
102
RTVSPropertyOp51
 70
     0
102
RTVSPropertyOp52
 70
     0
102
RTVSPropertyOp53
 70
     1
102
RTVSPropertyOp54
 70
     1
102
RTVSPropertyOp55
 70
     1
102
RTVSPropertyOp56
 70
     1
102
RTVSPropertyOp57
 70
     1
102
RTVSPropertyOp58
 70
     1
102
RTVSPropertyOp59
 70
     1
102
RTVSPropertyOp60
 70
     1
102
RTVSPropertyOp61
 70
     1
102
RTVSPropertyOp62
 70
     1
  0
XRECORD
  5
D4F
102
{ACAD_REACTORS
330
D4E
102
}
330
D4E
100
AcDbXrecord
280
     1
102
RTVSPost2010Prop28
280
     0
102
RTVSPost2010PropOp28
 70
     1
102
RTVSPost2010Prop29
280
     1
102
RTVSPost2010PropOp29
 70
     1
102
RTVSPost2010Prop30
280
     1
102
RTVSPost2010PropOp30
 70
     1
102
RTVSPost2010Prop31
280
     0
102
RTVSPost2010PropOp31
 70
     1
102
RTVSPost2010Prop32
280
     0
102
RTVSPost2010PropOp32
 70
     1
102
RTVSPost2010Prop33
280
     0
102
RTVSPost2010PropOp33
 70
     1
102
RTVSPost2010Prop34
280
     0
102
RTVSPost2010PropOp34
 70
     1
102
RTVSPost2010Prop35
280
     0
102
RTVSPost2010PropOp35
 70
     1
102
RTVSPost2010Prop36
280
     0
102
RTVSPost2010PropOp36
 70
     1
102
RTVSPost2010Prop37
 90
       50
102
RTVSPost2010PropOp37
 70
     1
102
RTVSPost2010Prop38
140
0.0
102
RTVSPost2010PropOp38
 70
     1
102
RTVSPost2010Prop39
140
1.0
102
RTVSPost2010PropOp39
 70
     1
102
RTVSPost2010Prop40
 90
        0
102
RTVSPost2010PropOp40
 70
     1
102
RTVSPost2010Prop41ColorIndex
 90
       18
102
RTVSPost2010Prop41ColorRGB
 90
-16777216
102
RTVSPost2010PropOp41
 70
     1
102
RTVSPost2010Prop42
 90
       50
102
RTVSPost2010PropOp42
 70
     1
102
RTVSPost2010Prop43
 90
        3
102
RTVSPost2010PropOp43
 70
     1
102
RTVSPost2010Prop44ColorIndex
 90
        5
102
RTVSPost2010Prop44ColorRGB
 90
      255
102
RTVSPost2010PropOp44
 70
     1
102
RTVSPost2010Prop45
280
     0
102
RTVSPost2010PropOp45
 70
     1
102
RTVSPost2010Prop46
 90
       50
102
RTVSPost2010PropOp46
 70
     1
102
RTVSPost2010Prop47
 90
       50
102
RTVSPost2010PropOp47
 70
     1
102
RTVSPost2010Prop48
 90
       50
102
RTVSPost2010PropOp48
 70
     1
102
RTVSPost2010Prop49
280
     0
102
RTVSPost2010PropOp49
 70
     1
102
RTVSPost2010Prop50
 90
       50
102
RTVSPost2010PropOp50
 70
     1
102
RTVSPost2010Prop51ColorIndex
 90
      256
102
RTVSPost2010Prop51ColorRGB
 90
-16777216
102
RTVSPost2010PropOp51
 70
     0
102
RTVSPost2010Prop52
140
1.0
102
RTVSPost2010PropOp52
 70
     0
102
RTVSPost2010Prop53
 90
        2
102
RTVSPost2010PropOp53
 70
     1
102
RTVSPost2010Prop54
  1
strokes_ogs.tif
102
RTVSPost2010PropOp54
 70
     1
102
RTVSPost2010Prop55
280
     0
102
RTVSPost2010PropOp55
 70
     1
102
RTVSPost2010Prop56
140
1.0
102
RTVSPost2010PropOp56
 70
     1
102
RTVSPost2010Prop57
140
1.0
102
RTVSPost2010PropOp57
 70
     1
102
RTVSPropertyOp0
 70
     1
102
RTVSPropertyOp1
 70
     1
102
RTVSPropertyOp2
 70
     1
102
RTVSPropertyOp3
 70
     1
102
RTVSPropertyOp4
 70
     1
102
RTVSPropertyOp5
 70
     1
102
RTVSPropertyOp6
 70
     1
102
RTVSPropertyOp7
 70
     1
102
RTVSPropertyOp8
 70
     1
102
RTVSPropertyOp9
 70
     1
102
RTVSPropertyOp10
 70
     1
102
RTVSPropertyOp11
 70
     1
102
RTVSPropertyOp12
 70
     1
102
RTVSPropertyOp13
 70
     1
102
RTVSPropertyOp14
 70
     1
102
RTVSPropertyOp15
 70
     1
102
RTVSPropertyOp16
 70
     1
102
RTVSPropertyOp17
 70
     1
102
RTVSPropertyOp18
 70
     1
102
RTVSPropertyOp19
 70
     1
102
RTVSPropertyOp20
 70
     1
102
RTVSPropertyOp21
 70
     1
102
RTVSPropertyOp22
 70
     1
102
RTVSPropertyOp23
 70
     1
102
RTVSPropertyOp24
 70
     1
102
RTVSPropertyOp25
 70
     1
102
RTVSPropertyOp26
 70
     1
102
RTVSPropertyOp27
 70
     1
102
RTVSPropertyOp28
 70
     1
102
RTVSPropertyOp29
 70
     1
102
RTVSPropertyOp30
 70
     1
102
RTVSPropertyOp31
 70
     1
102
RTVSPropertyOp32
 70
     1
102
RTVSPropertyOp33
 70
     1
102
RTVSPropertyOp34
 70
     1
102
RTVSPropertyOp35
 70
     1
102
RTVSPropertyOp36
 70
     1
102
RTVSPropertyOp37
 70
     1
102
RTVSPropertyOp38
 70
     1
102
RTVSPropertyOp39
 70
     1
102
RTVSPropertyOp40
 70
     1
102
RTVSPropertyOp41
 70
     1
102
RTVSPropertyOp42
 70
     1
102
RTVSPropertyOp43
 70
     1
102
RTVSPropertyOp44
 70
     1
102
RTVSPropertyOp45
 70
     1
102
RTVSPropertyOp46
 70
     1
102
RTVSPropertyOp47
 70
     1
102
RTVSPropertyOp48
 70
     1
102
RTVSPropertyOp49
 70
     1
102
RTVSPropertyOp50
 70
     1
102
RTVSPropertyOp51
 70
     0
102
RTVSPropertyOp52
 70
     0
102
RTVSPropertyOp53
 70
     1
102
RTVSPropertyOp54
 70
     1
102
RTVSPropertyOp55
 70
     1
102
RTVSPropertyOp56
 70
     1
102
RTVSPropertyOp57
 70
     1
102
RTVSPropertyOp58
 70
     1
102
RTVSPropertyOp59
 70
     1
102
RTVSPropertyOp60
 70
     1
102
RTVSPropertyOp61
 70
     1
102
RTVSPropertyOp62
 70
     1
  0
XRECORD
  5
D51
102
{ACAD_REACTORS
330
D50
102
}
330
D50
100
AcDbXrecord
280
     1
102
RTVSPost2010Prop28
280
     0
102
RTVSPost2010PropOp28
 70
     1
102
RTVSPost2010Prop29
280
     1
102
RTVSPost2010PropOp29
 70
     1
102
RTVSPost2010Prop30
280
     1
102
RTVSPost2010PropOp30
 70
     1
102
RTVSPost2010Prop31
280
     0
102
RTVSPost2010PropOp31
 70
     1
102
RTVSPost2010Prop32
280
     0
102
RTVSPost2010PropOp32
 70
     1
102
RTVSPost2010Prop33
280
     0
102
RTVSPost2010PropOp33
 70
     1
102
RTVSPost2010Prop34
280
     0
102
RTVSPost2010PropOp34
 70
     1
102
RTVSPost2010Prop35
280
     0
102
RTVSPost2010PropOp35
 70
     1
102
RTVSPost2010Prop36
280
     0
102
RTVSPost2010PropOp36
 70
     1
102
RTVSPost2010Prop37
 90
       50
102
RTVSPost2010PropOp37
 70
     1
102
RTVSPost2010Prop38
140
0.0
102
RTVSPost2010PropOp38
 70
     1
102
RTVSPost2010Prop39
140
1.0
102
RTVSPost2010PropOp39
 70
     1
102
RTVSPost2010Prop40
 90
        0
102
RTVSPost2010PropOp40
 70
     1
102
RTVSPost2010Prop41ColorIndex
 90
       18
102
RTVSPost2010Prop41ColorRGB
 90
-16777216
102
RTVSPost2010PropOp41
 70
     1
102
RTVSPost2010Prop42
 90
       50
102
RTVSPost2010PropOp42
 70
     1
102
RTVSPost2010Prop43
 90
        3
102
RTVSPost2010PropOp43
 70
     1
102
RTVSPost2010Prop44ColorIndex
 90
        5
102
RTVSPost2010Prop44ColorRGB
 90
      255
102
RTVSPost2010PropOp44
 70
     1
102
RTVSPost2010Prop45
280
     0
102
RTVSPost2010PropOp45
 70
     1
102
RTVSPost2010Prop46
 90
       50
102
RTVSPost2010PropOp46
 70
     1
102
RTVSPost2010Prop47
 90
       50
102
RTVSPost2010PropOp47
 70
     1
102
RTVSPost2010Prop48
 90
       50
102
RTVSPost2010PropOp48
 70
     1
102
RTVSPost2010Prop49
280
     0
102
RTVSPost2010PropOp49
 70
     1
102
RTVSPost2010Prop50
 90
       50
102
RTVSPost2010PropOp50
 70
     1
102
RTVSPost2010Prop51ColorIndex
 90
      256
102
RTVSPost2010Prop51ColorRGB
 90
-16777216
102
RTVSPost2010PropOp51
 70
     0
102
RTVSPost2010Prop52
140
1.0
102
RTVSPost2010PropOp52
 70
     0
102
RTVSPost2010Prop53
 90
        2
102
RTVSPost2010PropOp53
 70
     1
102
RTVSPost2010Prop54
  1
strokes_ogs.tif
102
RTVSPost2010PropOp54
 70
     1
102
RTVSPost2010Prop55
280
     0
102
RTVSPost2010PropOp55
 70
     1
102
RTVSPost2010Prop56
140
1.0
102
RTVSPost2010PropOp56
 70
     1
102
RTVSPost2010Prop57
140
1.0
102
RTVSPost2010PropOp57
 70
     1
102
RTVSPropertyOp0
 70
     1
102
RTVSPropertyOp1
 70
     1
102
RTVSPropertyOp2
 70
     1
102
RTVSPropertyOp3
 70
     1
102
RTVSPropertyOp4
 70
     1
102
RTVSPropertyOp5
 70
     1
102
RTVSPropertyOp6
 70
     1
102
RTVSPropertyOp7
 70
     1
102
RTVSPropertyOp8
 70
     1
102
RTVSPropertyOp9
 70
     1
102
RTVSPropertyOp10
 70
     1
102
RTVSPropertyOp11
 70
     1
102
RTVSPropertyOp12
 70
     1
102
RTVSPropertyOp13
 70
     1
102
RTVSPropertyOp14
 70
     1
102
RTVSPropertyOp15
 70
     1
102
RTVSPropertyOp16
 70
     1
102
RTVSPropertyOp17
 70
     1
102
RTVSPropertyOp18
 70
     1
102
RTVSPropertyOp19
 70
     1
102
RTVSPropertyOp20
 70
     1
102
RTVSPropertyOp21
 70
     1
102
RTVSPropertyOp22
 70
     1
102
RTVSPropertyOp23
 70
     1
102
RTVSPropertyOp24
 70
     1
102
RTVSPropertyOp25
 70
     1
102
RTVSPropertyOp26
 70
     1
102
RTVSPropertyOp27
 70
     1
102
RTVSPropertyOp28
 70
     1
102
RTVSPropertyOp29
 70
     1
102
RTVSPropertyOp30
 70
     1
102
RTVSPropertyOp31
 70
     1
102
RTVSPropertyOp32
 70
     1
102
RTVSPropertyOp33
 70
     1
102
RTVSPropertyOp34
 70
     1
102
RTVSPropertyOp35
 70
     1
102
RTVSPropertyOp36
 70
     1
102
RTVSPropertyOp37
 70
     1
102
RTVSPropertyOp38
 70
     1
102
RTVSPropertyOp39
 70
     1
102
RTVSPropertyOp40
 70
     1
102
RTVSPropertyOp41
 70
     1
102
RTVSPropertyOp42
 70
     1
102
RTVSPropertyOp43
 70
     1
102
RTVSPropertyOp44
 70
     1
102
RTVSPropertyOp45
 70
     1
102
RTVSPropertyOp46
 70
     1
102
RTVSPropertyOp47
 70
     1
102
RTVSPropertyOp48
 70
     1
102
RTVSPropertyOp49
 70
     1
102
RTVSPropertyOp50
 70
     1
102
RTVSPropertyOp51
 70
     0
102
RTVSPropertyOp52
 70
     0
102
RTVSPropertyOp53
 70
     1
102
RTVSPropertyOp54
 70
     1
102
RTVSPropertyOp55
 70
     1
102
RTVSPropertyOp56
 70
     1
102
RTVSPropertyOp57
 70
     1
102
RTVSPropertyOp58
 70
     1
102
RTVSPropertyOp59
 70
     1
102
RTVSPropertyOp60
 70
     1
102
RTVSPropertyOp61
 70
     1
102
RTVSPropertyOp62
 70
     1
  0
XRECORD
  5
D53
102
{ACAD_REACTORS
330
D52
102
}
330
D52
100
AcDbXrecord
280
     1
102
RTVSPost2010Prop28
280
     0
102
RTVSPost2010PropOp28
 70
     1
102
RTVSPost2010Prop29
280
     1
102
RTVSPost2010PropOp29
 70
     1
102
RTVSPost2010Prop30
280
     1
102
RTVSPost2010PropOp30
 70
     1
102
RTVSPost2010Prop31
280
     0
102
RTVSPost2010PropOp31
 70
     1
102
RTVSPost2010Prop32
280
     0
102
RTVSPost2010PropOp32
 70
     1
102
RTVSPost2010Prop33
280
     0
102
RTVSPost2010PropOp33
 70
     1
102
RTVSPost2010Prop34
280
     0
102
RTVSPost2010PropOp34
 70
     1
102
RTVSPost2010Prop35
280
     0
102
RTVSPost2010PropOp35
 70
     1
102
RTVSPost2010Prop36
280
     0
102
RTVSPost2010PropOp36
 70
     1
102
RTVSPost2010Prop37
 90
       50
102
RTVSPost2010PropOp37
 70
     1
102
RTVSPost2010Prop38
140
0.0
102
RTVSPost2010PropOp38
 70
     1
102
RTVSPost2010Prop39
140
1.0
102
RTVSPost2010PropOp39
 70
     1
102
RTVSPost2010Prop40
 90
        0
102
RTVSPost2010PropOp40
 70
     1
102
RTVSPost2010Prop41ColorIndex
 90
       18
102
RTVSPost2010Prop41ColorRGB
 90
-16777216
102
RTVSPost2010PropOp41
 70
     1
102
RTVSPost2010Prop42
 90
       50
102
RTVSPost2010PropOp42
 70
     1
102
RTVSPost2010Prop43
 90
        3
102
RTVSPost2010PropOp43
 70
     1
102
RTVSPost2010Prop44ColorIndex
 90
        5
102
RTVSPost2010Prop44ColorRGB
 90
      255
102
RTVSPost2010PropOp44
 70
     1
102
RTVSPost2010Prop45
280
     0
102
RTVSPost2010PropOp45
 70
     1
102
RTVSPost2010Prop46
 90
       50
102
RTVSPost2010PropOp46
 70
     1
102
RTVSPost2010Prop47
 90
       50
102
RTVSPost2010PropOp47
 70
     1
102
RTVSPost2010Prop48
 90
       50
102
RTVSPost2010PropOp48
 70
     1
102
RTVSPost2010Prop49
280
     0
102
RTVSPost2010PropOp49
 70
     1
102
RTVSPost2010Prop50
 90
       50
102
RTVSPost2010PropOp50
 70
     1
102
RTVSPost2010Prop51ColorIndex
 90
      256
102
RTVSPost2010Prop51ColorRGB
 90
-16777216
102
RTVSPost2010PropOp51
 70
     0
102
RTVSPost2010Prop52
140
1.0
102
RTVSPost2010PropOp52
 70
     0
102
RTVSPost2010Prop53
 90
        2
102
RTVSPost2010PropOp53
 70
     1
102
RTVSPost2010Prop54
  1
strokes_ogs.tif
102
RTVSPost2010PropOp54
 70
     1
102
RTVSPost2010Prop55
280
     0
102
RTVSPost2010PropOp55
 70
     1
102
RTVSPost2010Prop56
140
1.0
102
RTVSPost2010PropOp56
 70
     1
102
RTVSPost2010Prop57
140
1.0
102
RTVSPost2010PropOp57
 70
     1
102
RTVSPropertyOp0
 70
     1
102
RTVSPropertyOp1
 70
     1
102
RTVSPropertyOp2
 70
     1
102
RTVSPropertyOp3
 70
     1
102
RTVSPropertyOp4
 70
     1
102
RTVSPropertyOp5
 70
     1
102
RTVSPropertyOp6
 70
     1
102
RTVSPropertyOp7
 70
     1
102
RTVSPropertyOp8
 70
     1
102
RTVSPropertyOp9
 70
     1
102
RTVSPropertyOp10
 70
     1
102
RTVSPropertyOp11
 70
     1
102
RTVSPropertyOp12
 70
     1
102
RTVSPropertyOp13
 70
     1
102
RTVSPropertyOp14
 70
     1
102
RTVSPropertyOp15
 70
     1
102
RTVSPropertyOp16
 70
     1
102
RTVSPropertyOp17
 70
     1
102
RTVSPropertyOp18
 70
     1
102
RTVSPropertyOp19
 70
     1
102
RTVSPropertyOp20
 70
     1
102
RTVSPropertyOp21
 70
     1
102
RTVSPropertyOp22
 70
     1
102
RTVSPropertyOp23
 70
     1
102
RTVSPropertyOp24
 70
     1
102
RTVSPropertyOp25
 70
     1
102
RTVSPropertyOp26
 70
     1
102
RTVSPropertyOp27
 70
     1
102
RTVSPropertyOp28
 70
     1
102
RTVSPropertyOp29
 70
     1
102
RTVSPropertyOp30
 70
     1
102
RTVSPropertyOp31
 70
     1
102
RTVSPropertyOp32
 70
     1
102
RTVSPropertyOp33
 70
     1
102
RTVSPropertyOp34
 70
     1
102
RTVSPropertyOp35
 70
     1
102
RTVSPropertyOp36
 70
     1
102
RTVSPropertyOp37
 70
     1
102
RTVSPropertyOp38
 70
     1
102
RTVSPropertyOp39
 70
     1
102
RTVSPropertyOp40
 70
     1
102
RTVSPropertyOp41
 70
     1
102
RTVSPropertyOp42
 70
     1
102
RTVSPropertyOp43
 70
     1
102
RTVSPropertyOp44
 70
     1
102
RTVSPropertyOp45
 70
     1
102
RTVSPropertyOp46
 70
     1
102
RTVSPropertyOp47
 70
     1
102
RTVSPropertyOp48
 70
     1
102
RTVSPropertyOp49
 70
     1
102
RTVSPropertyOp50
 70
     1
102
RTVSPropertyOp51
 70
     0
102
RTVSPropertyOp52
 70
     0
102
RTVSPropertyOp53
 70
     1
102
RTVSPropertyOp54
 70
     1
102
RTVSPropertyOp55
 70
     1
102
RTVSPropertyOp56
 70
     1
102
RTVSPropertyOp57
 70
     1
102
RTVSPropertyOp58
 70
     1
102
RTVSPropertyOp59
 70
     1
102
RTVSPropertyOp60
 70
     1
102
RTVSPropertyOp61
 70
     1
102
RTVSPropertyOp62
 70
     1
  0
XRECORD
  5
D55
102
{ACAD_REACTORS
330
D54
102
}
330
D54
100
AcDbXrecord
280
     1
102
RTVSPost2010Prop28
280
     0
102
RTVSPost2010PropOp28
 70
     1
102
RTVSPost2010Prop29
280
     1
102
RTVSPost2010PropOp29
 70
     1
102
RTVSPost2010Prop30
280
     1
102
RTVSPost2010PropOp30
 70
     1
102
RTVSPost2010Prop31
280
     0
102
RTVSPost2010PropOp31
 70
     1
102
RTVSPost2010Prop32
280
     0
102
RTVSPost2010PropOp32
 70
     1
102
RTVSPost2010Prop33
280
     0
102
RTVSPost2010PropOp33
 70
     1
102
RTVSPost2010Prop34
280
     0
102
RTVSPost2010PropOp34
 70
     1
102
RTVSPost2010Prop35
280
     0
102
RTVSPost2010PropOp35
 70
     1
102
RTVSPost2010Prop36
280
     0
102
RTVSPost2010PropOp36
 70
     1
102
RTVSPost2010Prop37
 90
       50
102
RTVSPost2010PropOp37
 70
     1
102
RTVSPost2010Prop38
140
0.0
102
RTVSPost2010PropOp38
 70
     1
102
RTVSPost2010Prop39
140
1.0
102
RTVSPost2010PropOp39
 70
     1
102
RTVSPost2010Prop40
 90
        0
102
RTVSPost2010PropOp40
 70
     1
102
RTVSPost2010Prop41ColorIndex
 90
       18
102
RTVSPost2010Prop41ColorRGB
 90
-16777216
102
RTVSPost2010PropOp41
 70
     1
102
RTVSPost2010Prop42
 90
       50
102
RTVSPost2010PropOp42
 70
     1
102
RTVSPost2010Prop43
 90
        3
102
RTVSPost2010PropOp43
 70
     1
102
RTVSPost2010Prop44ColorIndex
 90
        5
102
RTVSPost2010Prop44ColorRGB
 90
      255
102
RTVSPost2010PropOp44
 70
     1
102
RTVSPost2010Prop45
280
     0
102
RTVSPost2010PropOp45
 70
     1
102
RTVSPost2010Prop46
 90
       50
102
RTVSPost2010PropOp46
 70
     1
102
RTVSPost2010Prop47
 90
       50
102
RTVSPost2010PropOp47
 70
     1
102
RTVSPost2010Prop48
 90
       50
102
RTVSPost2010PropOp48
 70
     1
102
RTVSPost2010Prop49
280
     0
102
RTVSPost2010PropOp49
 70
     1
102
RTVSPost2010Prop50
 90
       50
102
RTVSPost2010PropOp50
 70
     1
102
RTVSPost2010Prop51ColorIndex
 90
      256
102
RTVSPost2010Prop51ColorRGB
 90
-16777216
102
RTVSPost2010PropOp51
 70
     0
102
RTVSPost2010Prop52
140
1.0
102
RTVSPost2010PropOp52
 70
     0
102
RTVSPost2010Prop53
 90
        2
102
RTVSPost2010PropOp53
 70
     1
102
RTVSPost2010Prop54
  1
strokes_ogs.tif
102
RTVSPost2010PropOp54
 70
     1
102
RTVSPost2010Prop55
280
     0
102
RTVSPost2010PropOp55
 70
     1
102
RTVSPost2010Prop56
140
1.0
102
RTVSPost2010PropOp56
 70
     1
102
RTVSPost2010Prop57
140
1.0
102
RTVSPost2010PropOp57
 70
     1
102
RTVSPropertyOp0
 70
     1
102
RTVSPropertyOp1
 70
     1
102
RTVSPropertyOp2
 70
     1
102
RTVSPropertyOp3
 70
     1
102
RTVSPropertyOp4
 70
     1
102
RTVSPropertyOp5
 70
     1
102
RTVSPropertyOp6
 70
     1
102
RTVSPropertyOp7
 70
     1
102
RTVSPropertyOp8
 70
     1
102
RTVSPropertyOp9
 70
     1
102
RTVSPropertyOp10
 70
     1
102
RTVSPropertyOp11
 70
     1
102
RTVSPropertyOp12
 70
     1
102
RTVSPropertyOp13
 70
     1
102
RTVSPropertyOp14
 70
     1
102
RTVSPropertyOp15
 70
     1
102
RTVSPropertyOp16
 70
     1
102
RTVSPropertyOp17
 70
     1
102
RTVSPropertyOp18
 70
     1
102
RTVSPropertyOp19
 70
     1
102
RTVSPropertyOp20
 70
     1
102
RTVSPropertyOp21
 70
     1
102
RTVSPropertyOp22
 70
     1
102
RTVSPropertyOp23
 70
     1
102
RTVSPropertyOp24
 70
     1
102
RTVSPropertyOp25
 70
     1
102
RTVSPropertyOp26
 70
     1
102
RTVSPropertyOp27
 70
     1
102
RTVSPropertyOp28
 70
     1
102
RTVSPropertyOp29
 70
     1
102
RTVSPropertyOp30
 70
     1
102
RTVSPropertyOp31
 70
     1
102
RTVSPropertyOp32
 70
     1
102
RTVSPropertyOp33
 70
     1
102
RTVSPropertyOp34
 70
     1
102
RTVSPropertyOp35
 70
     1
102
RTVSPropertyOp36
 70
     1
102
RTVSPropertyOp37
 70
     1
102
RTVSPropertyOp38
 70
     1
102
RTVSPropertyOp39
 70
     1
102
RTVSPropertyOp40
 70
     1
102
RTVSPropertyOp41
 70
     1
102
RTVSPropertyOp42
 70
     1
102
RTVSPropertyOp43
 70
     1
102
RTVSPropertyOp44
 70
     1
102
RTVSPropertyOp45
 70
     1
102
RTVSPropertyOp46
 70
     1
102
RTVSPropertyOp47
 70
     1
102
RTVSPropertyOp48
 70
     1
102
RTVSPropertyOp49
 70
     1
102
RTVSPropertyOp50
 70
     1
102
RTVSPropertyOp51
 70
     0
102
RTVSPropertyOp52
 70
     0
102
RTVSPropertyOp53
 70
     1
102
RTVSPropertyOp54
 70
     1
102
RTVSPropertyOp55
 70
     1
102
RTVSPropertyOp56
 70
     1
102
RTVSPropertyOp57
 70
     1
102
RTVSPropertyOp58
 70
     1
102
RTVSPropertyOp59
 70
     1
102
RTVSPropertyOp60
 70
     1
102
RTVSPropertyOp61
 70
     1
102
RTVSPropertyOp62
 70
     1
  0
XRECORD
  5
D5D
102
{ACAD_REACTORS
330
D5C
102
}
330
D5C
100
AcDbXrecord
280
     1
102
RTVSPost2010Prop28
280
     0
102
RTVSPost2010PropOp28
 70
     1
102
RTVSPost2010Prop29
280
     1
102
RTVSPost2010PropOp29
 70
     1
102
RTVSPost2010Prop30
280
     1
102
RTVSPost2010PropOp30
 70
     1
102
RTVSPost2010Prop31
280
     0
102
RTVSPost2010PropOp31
 70
     1
102
RTVSPost2010Prop32
280
     0
102
RTVSPost2010PropOp32
 70
     1
102
RTVSPost2010Prop33
280
     0
102
RTVSPost2010PropOp33
 70
     1
102
RTVSPost2010Prop34
280
     0
102
RTVSPost2010PropOp34
 70
     1
102
RTVSPost2010Prop35
280
     0
102
RTVSPost2010PropOp35
 70
     1
102
RTVSPost2010Prop36
280
     0
102
RTVSPost2010PropOp36
 70
     1
102
RTVSPost2010Prop37
 90
       50
102
RTVSPost2010PropOp37
 70
     1
102
RTVSPost2010Prop38
140
0.0
102
RTVSPost2010PropOp38
 70
     1
102
RTVSPost2010Prop39
140
1.0
102
RTVSPost2010PropOp39
 70
     1
102
RTVSPost2010Prop40
 90
        0
102
RTVSPost2010PropOp40
 70
     1
102
RTVSPost2010Prop41ColorIndex
 90
       18
102
RTVSPost2010Prop41ColorRGB
 90
-16777216
102
RTVSPost2010PropOp41
 70
     1
102
RTVSPost2010Prop42
 90
       50
102
RTVSPost2010PropOp42
 70
     1
102
RTVSPost2010Prop43
 90
        3
102
RTVSPost2010PropOp43
 70
     1
102
RTVSPost2010Prop44ColorIndex
 90
        5
102
RTVSPost2010Prop44ColorRGB
 90
      255
102
RTVSPost2010PropOp44
 70
     1
102
RTVSPost2010Prop45
280
     0
102
RTVSPost2010PropOp45
 70
     1
102
RTVSPost2010Prop46
 90
       50
102
RTVSPost2010PropOp46
 70
     1
102
RTVSPost2010Prop47
 90
       50
102
RTVSPost2010PropOp47
 70
     1
102
RTVSPost2010Prop48
 90
       50
102
RTVSPost2010PropOp48
 70
     1
102
RTVSPost2010Prop49
280
     0
102
RTVSPost2010PropOp49
 70
     1
102
RTVSPost2010Prop50
 90
       50
102
RTVSPost2010PropOp50
 70
     1
102
RTVSPost2010Prop51ColorIndex
 90
      256
102
RTVSPost2010Prop51ColorRGB
 90
-16777216
102
RTVSPost2010PropOp51
 70
     0
102
RTVSPost2010Prop52
140
1.0
102
RTVSPost2010PropOp52
 70
     0
102
RTVSPost2010Prop53
 90
        2
102
RTVSPost2010PropOp53
 70
     1
102
RTVSPost2010Prop54
  1
strokes_ogs.tif
102
RTVSPost2010PropOp54
 70
     1
102
RTVSPost2010Prop55
280
     0
102
RTVSPost2010PropOp55
 70
     1
102
RTVSPost2010Prop56
140
1.0
102
RTVSPost2010PropOp56
 70
     1
102
RTVSPost2010Prop57
140
1.0
102
RTVSPost2010PropOp57
 70
     1
102
RTVSPropertyOp0
 70
     1
102
RTVSPropertyOp1
 70
     1
102
RTVSPropertyOp2
 70
     1
102
RTVSPropertyOp3
 70
     1
102
RTVSPropertyOp4
 70
     1
102
RTVSPropertyOp5
 70
     1
102
RTVSPropertyOp6
 70
     1
102
RTVSPropertyOp7
 70
     1
102
RTVSPropertyOp8
 70
     1
102
RTVSPropertyOp9
 70
     1
102
RTVSPropertyOp10
 70
     1
102
RTVSPropertyOp11
 70
     1
102
RTVSPropertyOp12
 70
     1
102
RTVSPropertyOp13
 70
     1
102
RTVSPropertyOp14
 70
     1
102
RTVSPropertyOp15
 70
     1
102
RTVSPropertyOp16
 70
     1
102
RTVSPropertyOp17
 70
     1
102
RTVSPropertyOp18
 70
     1
102
RTVSPropertyOp19
 70
     1
102
RTVSPropertyOp20
 70
     1
102
RTVSPropertyOp21
 70
     1
102
RTVSPropertyOp22
 70
     1
102
RTVSPropertyOp23
 70
     1
102
RTVSPropertyOp24
 70
     1
102
RTVSPropertyOp25
 70
     1
102
RTVSPropertyOp26
 70
     1
102
RTVSPropertyOp27
 70
     1
102
RTVSPropertyOp28
 70
     1
102
RTVSPropertyOp29
 70
     1
102
RTVSPropertyOp30
 70
     1
102
RTVSPropertyOp31
 70
     1
102
RTVSPropertyOp32
 70
     1
102
RTVSPropertyOp33
 70
     1
102
RTVSPropertyOp34
 70
     1
102
RTVSPropertyOp35
 70
     1
102
RTVSPropertyOp36
 70
     1
102
RTVSPropertyOp37
 70
     1
102
RTVSPropertyOp38
 70
     1
102
RTVSPropertyOp39
 70
     1
102
RTVSPropertyOp40
 70
     1
102
RTVSPropertyOp41
 70
     1
102
RTVSPropertyOp42
 70
     1
102
RTVSPropertyOp43
 70
     1
102
RTVSPropertyOp44
 70
     1
102
RTVSPropertyOp45
 70
     1
102
RTVSPropertyOp46
 70
     1
102
RTVSPropertyOp47
 70
     1
102
RTVSPropertyOp48
 70
     1
102
RTVSPropertyOp49
 70
     1
102
RTVSPropertyOp50
 70
     1
102
RTVSPropertyOp51
 70
     0
102
RTVSPropertyOp52
 70
     0
102
RTVSPropertyOp53
 70
     1
102
RTVSPropertyOp54
 70
     1
102
RTVSPropertyOp55
 70
     1
102
RTVSPropertyOp56
 70
     1
102
RTVSPropertyOp57
 70
     1
102
RTVSPropertyOp58
 70
     1
102
RTVSPropertyOp59
 70
     1
102
RTVSPropertyOp60
 70
     1
102
RTVSPropertyOp61
 70
     1
102
RTVSPropertyOp62
 70
     1
  0
XRECORD
  5
D79
102
{ACAD_REACTORS
330
D78
102
}
330
D78
100
AcDbXrecord
280
     1
102
RTVSPost2010Prop28
280
     0
102
RTVSPost2010PropOp28
 70
     0
102
RTVSPost2010Prop29
280
     1
102
RTVSPost2010PropOp29
 70
     0
102
RTVSPost2010Prop30
280
     1
102
RTVSPost2010PropOp30
 70
     0
102
RTVSPost2010Prop31
280
     0
102
RTVSPost2010PropOp31
 70
     0
102
RTVSPost2010Prop32
280
     0
102
RTVSPost2010PropOp32
 70
     0
102
RTVSPost2010Prop33
280
     0
102
RTVSPost2010PropOp33
 70
     0
102
RTVSPost2010Prop34
280
     0
102
RTVSPost2010PropOp34
 70
     0
102
RTVSPost2010Prop35
280
     0
102
RTVSPost2010PropOp35
 70
     0
102
RTVSPost2010Prop36
280
     0
102
RTVSPost2010PropOp36
 70
     0
102
RTVSPost2010Prop37
 90
       50
102
RTVSPost2010PropOp37
 70
     0
102
RTVSPost2010Prop38
140
0.0
102
RTVSPost2010PropOp38
 70
     0
102
RTVSPost2010Prop39
140
1.0
102
RTVSPost2010PropOp39
 70
     0
102
RTVSPost2010Prop40
 90
        0
102
RTVSPost2010PropOp40
 70
     0
102
RTVSPost2010Prop41ColorIndex
 90
       18
102
RTVSPost2010Prop41ColorRGB
 90
-16777216
102
RTVSPost2010PropOp41
 70
     0
102
RTVSPost2010Prop42
 90
       50
102
RTVSPost2010PropOp42
 70
     0
102
RTVSPost2010Prop43
 90
        3
102
RTVSPost2010PropOp43
 70
     0
102
RTVSPost2010Prop44ColorIndex
 90
        5
102
RTVSPost2010Prop44ColorRGB
 90
      255
102
RTVSPost2010PropOp44
 70
     0
102
RTVSPost2010Prop45
280
     0
102
RTVSPost2010PropOp45
 70
     0
102
RTVSPost2010Prop46
 90
       50
102
RTVSPost2010PropOp46
 70
     0
102
RTVSPost2010Prop47
 90
       50
102
RTVSPost2010PropOp47
 70
     0
102
RTVSPost2010Prop48
 90
       50
102
RTVSPost2010PropOp48
 70
     0
102
RTVSPost2010Prop49
280
     0
102
RTVSPost2010PropOp49
 70
     0
102
RTVSPost2010Prop50
 90
       50
102
RTVSPost2010PropOp50
 70
     0
102
RTVSPost2010Prop51ColorIndex
 90
      256
102
RTVSPost2010Prop51ColorRGB
 90
-16777216
102
RTVSPost2010PropOp51
 70
     0
102
RTVSPost2010Prop52
140
1.0
102
RTVSPost2010PropOp52
 70
     0
102
RTVSPost2010Prop53
 90
        2
102
RTVSPost2010PropOp53
 70
     0
102
RTVSPost2010Prop54
  1
strokes_ogs.tif
102
RTVSPost2010PropOp54
 70
     0
102
RTVSPost2010Prop55
280
     0
102
RTVSPost2010PropOp55
 70
     0
102
RTVSPost2010Prop56
140
1.0
102
RTVSPost2010PropOp56
 70
     0
102
RTVSPost2010Prop57
140
1.0
102
RTVSPost2010PropOp57
 70
     0
102
RTVSPropertyOp0
 70
     0
102
RTVSPropertyOp1
 70
     0
102
RTVSPropertyOp2
 70
     0
102
RTVSPropertyOp3
 70
     0
102
RTVSPropertyOp4
 70
     0
102
RTVSPropertyOp5
 70
     0
102
RTVSPropertyOp6
 70
     0
102
RTVSPropertyOp7
 70
     0
102
RTVSPropertyOp8
 70
     0
102
RTVSPropertyOp9
 70
     0
102
RTVSPropertyOp10
 70
     0
102
RTVSPropertyOp11
 70
     0
102
RTVSPropertyOp12
 70
     0
102
RTVSPropertyOp13
 70
     0
102
RTVSPropertyOp14
 70
     2
102
RTVSPropertyOp15
 70
     0
102
RTVSPropertyOp16
 70
     0
102
RTVSPropertyOp17
 70
     0
102
RTVSPropertyOp18
 70
     0
102
RTVSPropertyOp19
 70
     0
102
RTVSPropertyOp20
 70
     0
102
RTVSPropertyOp21
 70
     0
102
RTVSPropertyOp22
 70
     0
102
RTVSPropertyOp23
 70
     0
102
RTVSPropertyOp24
 70
     0
102
RTVSPropertyOp25
 70
     0
102
RTVSPropertyOp26
 70
     0
102
RTVSPropertyOp27
 70
     0
102
RTVSPropertyOp28
 70
     0
102
RTVSPropertyOp29
 70
     0
102
RTVSPropertyOp30
 70
     0
102
RTVSPropertyOp31
 70
     0
102
RTVSPropertyOp32
 70
     0
102
RTVSPropertyOp33
 70
     0
102
RTVSPropertyOp34
 70
     0
102
RTVSPropertyOp35
 70
     0
102
RTVSPropertyOp36
 70
     0
102
RTVSPropertyOp37
 70
     0
102
RTVSPropertyOp38
 70
     0
102
RTVSPropertyOp39
 70
     0
102
RTVSPropertyOp40
 70
     0
102
RTVSPropertyOp41
 70
     0
102
RTVSPropertyOp42
 70
     0
102
RTVSPropertyOp43
 70
     0
102
RTVSPropertyOp44
 70
     0
102
RTVSPropertyOp45
 70
     0
102
RTVSPropertyOp46
 70
     0
102
RTVSPropertyOp47
 70
     0
102
RTVSPropertyOp48
 70
     0
102
RTVSPropertyOp49
 70
     0
102
RTVSPropertyOp50
 70
     0
102
RTVSPropertyOp51
 70
     0
102
RTVSPropertyOp52
 70
     0
102
RTVSPropertyOp53
 70
     0
102
RTVSPropertyOp54
 70
     0
102
RTVSPropertyOp55
 70
     0
102
RTVSPropertyOp56
 70
     0
102
RTVSPropertyOp57
 70
     0
102
RTVSPropertyOp58
 70
     1
102
RTVSPropertyOp59
 70
     1
102
RTVSPropertyOp60
 70
     1
102
RTVSPropertyOp61
 70
     1
102
RTVSPropertyOp62
 70
     1
  0
XRECORD
  5
D69
102
{ACAD_REACTORS
330
D68
102
}
330
D68
100
AcDbXrecord
280
     1
102
RTVSPost2010Prop28
280
     0
102
RTVSPost2010PropOp28
 70
     1
102
RTVSPost2010Prop29
280
     1
102
RTVSPost2010PropOp29
 70
     1
102
RTVSPost2010Prop30
280
     1
102
RTVSPost2010PropOp30
 70
     1
102
RTVSPost2010Prop31
280
     0
102
RTVSPost2010PropOp31
 70
     1
102
RTVSPost2010Prop32
280
     0
102
RTVSPost2010PropOp32
 70
     1
102
RTVSPost2010Prop33
280
     0
102
RTVSPost2010PropOp33
 70
     1
102
RTVSPost2010Prop34
280
     0
102
RTVSPost2010PropOp34
 70
     1
102
RTVSPost2010Prop35
280
     0
102
RTVSPost2010PropOp35
 70
     1
102
RTVSPost2010Prop36
280
     0
102
RTVSPost2010PropOp36
 70
     1
102
RTVSPost2010Prop37
 90
       50
102
RTVSPost2010PropOp37
 70
     1
102
RTVSPost2010Prop38
140
0.0
102
RTVSPost2010PropOp38
 70
     1
102
RTVSPost2010Prop39
140
1.0
102
RTVSPost2010PropOp39
 70
     1
102
RTVSPost2010Prop40
 90
        0
102
RTVSPost2010PropOp40
 70
     1
102
RTVSPost2010Prop41ColorIndex
 90
       18
102
RTVSPost2010Prop41ColorRGB
 90
-16777216
102
RTVSPost2010PropOp41
 70
     1
102
RTVSPost2010Prop42
 90
       50
102
RTVSPost2010PropOp42
 70
     1
102
RTVSPost2010Prop43
 90
        3
102
RTVSPost2010PropOp43
 70
     1
102
RTVSPost2010Prop44ColorIndex
 90
        5
102
RTVSPost2010Prop44ColorRGB
 90
      255
102
RTVSPost2010PropOp44
 70
     1
102
RTVSPost2010Prop45
280
     0
102
RTVSPost2010PropOp45
 70
     1
102
RTVSPost2010Prop46
 90
       50
102
RTVSPost2010PropOp46
 70
     1
102
RTVSPost2010Prop47
 90
       50
102
RTVSPost2010PropOp47
 70
     1
102
RTVSPost2010Prop48
 90
       50
102
RTVSPost2010PropOp48
 70
     1
102
RTVSPost2010Prop49
280
     0
102
RTVSPost2010PropOp49
 70
     1
102
RTVSPost2010Prop50
 90
       50
102
RTVSPost2010PropOp50
 70
     1
102
RTVSPost2010Prop51ColorIndex
 90
      256
102
RTVSPost2010Prop51ColorRGB
 90
-16777216
102
RTVSPost2010PropOp51
 70
     0
102
RTVSPost2010Prop52
140
1.0
102
RTVSPost2010PropOp52
 70
     0
102
RTVSPost2010Prop53
 90
        2
102
RTVSPost2010PropOp53
 70
     1
102
RTVSPost2010Prop54
  1
strokes_ogs.tif
102
RTVSPost2010PropOp54
 70
     1
102
RTVSPost2010Prop55
280
     0
102
RTVSPost2010PropOp55
 70
     1
102
RTVSPost2010Prop56
140
1.0
102
RTVSPost2010PropOp56
 70
     1
102
RTVSPost2010Prop57
140
1.0
102
RTVSPost2010PropOp57
 70
     1
102
RTVSPropertyOp0
 70
     1
102
RTVSPropertyOp1
 70
     1
102
RTVSPropertyOp2
 70
     1
102
RTVSPropertyOp3
 70
     1
102
RTVSPropertyOp4
 70
     1
102
RTVSPropertyOp5
 70
     1
102
RTVSPropertyOp6
 70
     1
102
RTVSPropertyOp7
 70
     1
102
RTVSPropertyOp8
 70
     1
102
RTVSPropertyOp9
 70
     1
102
RTVSPropertyOp10
 70
     1
102
RTVSPropertyOp11
 70
     1
102
RTVSPropertyOp12
 70
     1
102
RTVSPropertyOp13
 70
     1
102
RTVSPropertyOp14
 70
     1
102
RTVSPropertyOp15
 70
     1
102
RTVSPropertyOp16
 70
     1
102
RTVSPropertyOp17
 70
     1
102
RTVSPropertyOp18
 70
     1
102
RTVSPropertyOp19
 70
     1
102
RTVSPropertyOp20
 70
     1
102
RTVSPropertyOp21
 70
     1
102
RTVSPropertyOp22
 70
     1
102
RTVSPropertyOp23
 70
     1
102
RTVSPropertyOp24
 70
     1
102
RTVSPropertyOp25
 70
     1
102
RTVSPropertyOp26
 70
     1
102
RTVSPropertyOp27
 70
     1
102
RTVSPropertyOp28
 70
     1
102
RTVSPropertyOp29
 70
     1
102
RTVSPropertyOp30
 70
     1
102
RTVSPropertyOp31
 70
     1
102
RTVSPropertyOp32
 70
     1
102
RTVSPropertyOp33
 70
     1
102
RTVSPropertyOp34
 70
     1
102
RTVSPropertyOp35
 70
     1
102
RTVSPropertyOp36
 70
     1
102
RTVSPropertyOp37
 70
     1
102
RTVSPropertyOp38
 70
     1
102
RTVSPropertyOp39
 70
     1
102
RTVSPropertyOp40
 70
     1
102
RTVSPropertyOp41
 70
     1
102
RTVSPropertyOp42
 70
     1
102
RTVSPropertyOp43
 70
     1
102
RTVSPropertyOp44
 70
     1
102
RTVSPropertyOp45
 70
     1
102
RTVSPropertyOp46
 70
     1
102
RTVSPropertyOp47
 70
     1
102
RTVSPropertyOp48
 70
     1
102
RTVSPropertyOp49
 70
     1
102
RTVSPropertyOp50
 70
     1
102
RTVSPropertyOp51
 70
     0
102
RTVSPropertyOp52
 70
     0
102
RTVSPropertyOp53
 70
     1
102
RTVSPropertyOp54
 70
     1
102
RTVSPropertyOp55
 70
     1
102
RTVSPropertyOp56
 70
     1
102
RTVSPropertyOp57
 70
     1
102
RTVSPropertyOp58
 70
     1
102
RTVSPropertyOp59
 70
     1
102
RTVSPropertyOp60
 70
     1
102
RTVSPropertyOp61
 70
     1
102
RTVSPropertyOp62
 70
     1
  0
XRECORD
  5
D7B
102
{ACAD_REACTORS
330
D7A
102
}
330
D7A
100
AcDbXrecord
280
     1
102
RTVSPost2010Prop28
280
     0
102
RTVSPost2010PropOp28
 70
     0
102
RTVSPost2010Prop29
280
     1
102
RTVSPost2010PropOp29
 70
     0
102
RTVSPost2010Prop30
280
     1
102
RTVSPost2010PropOp30
 70
     0
102
RTVSPost2010Prop31
280
     0
102
RTVSPost2010PropOp31
 70
     0
102
RTVSPost2010Prop32
280
     0
102
RTVSPost2010PropOp32
 70
     0
102
RTVSPost2010Prop33
280
     0
102
RTVSPost2010PropOp33
 70
     0
102
RTVSPost2010Prop34
280
     0
102
RTVSPost2010PropOp34
 70
     0
102
RTVSPost2010Prop35
280
     0
102
RTVSPost2010PropOp35
 70
     0
102
RTVSPost2010Prop36
280
     0
102
RTVSPost2010PropOp36
 70
     0
102
RTVSPost2010Prop37
 90
       50
102
RTVSPost2010PropOp37
 70
     0
102
RTVSPost2010Prop38
140
0.0
102
RTVSPost2010PropOp38
 70
     0
102
RTVSPost2010Prop39
140
1.0
102
RTVSPost2010PropOp39
 70
     0
102
RTVSPost2010Prop40
 90
        0
102
RTVSPost2010PropOp40
 70
     0
102
RTVSPost2010Prop41ColorIndex
 90
       18
102
RTVSPost2010Prop41ColorRGB
 90
-16777216
102
RTVSPost2010PropOp41
 70
     0
102
RTVSPost2010Prop42
 90
       50
102
RTVSPost2010PropOp42
 70
     0
102
RTVSPost2010Prop43
 90
        3
102
RTVSPost2010PropOp43
 70
     0
102
RTVSPost2010Prop44ColorIndex
 90
        5
102
RTVSPost2010Prop44ColorRGB
 90
      255
102
RTVSPost2010PropOp44
 70
     0
102
RTVSPost2010Prop45
280
     0
102
RTVSPost2010PropOp45
 70
     0
102
RTVSPost2010Prop46
 90
       50
102
RTVSPost2010PropOp46
 70
     0
102
RTVSPost2010Prop47
 90
       50
102
RTVSPost2010PropOp47
 70
     0
102
RTVSPost2010Prop48
 90
       50
102
RTVSPost2010PropOp48
 70
     0
102
RTVSPost2010Prop49
280
     0
102
RTVSPost2010PropOp49
 70
     0
102
RTVSPost2010Prop50
 90
       50
102
RTVSPost2010PropOp50
 70
     0
102
RTVSPost2010Prop51ColorIndex
 90
      256
102
RTVSPost2010Prop51ColorRGB
 90
-16777216
102
RTVSPost2010PropOp51
 70
     0
102
RTVSPost2010Prop52
140
1.0
102
RTVSPost2010PropOp52
 70
     0
102
RTVSPost2010Prop53
 90
        2
102
RTVSPost2010PropOp53
 70
     0
102
RTVSPost2010Prop54
  1
strokes_ogs.tif
102
RTVSPost2010PropOp54
 70
     0
102
RTVSPost2010Prop55
280
     0
102
RTVSPost2010PropOp55
 70
     0
102
RTVSPost2010Prop56
140
1.0
102
RTVSPost2010PropOp56
 70
     0
102
RTVSPost2010Prop57
140
1.0
102
RTVSPost2010PropOp57
 70
     0
102
RTVSPropertyOp0
 70
     0
102
RTVSPropertyOp1
 70
     0
102
RTVSPropertyOp2
 70
     0
102
RTVSPropertyOp3
 70
     0
102
RTVSPropertyOp4
 70
     0
102
RTVSPropertyOp5
 70
     0
102
RTVSPropertyOp6
 70
     0
102
RTVSPropertyOp7
 70
     0
102
RTVSPropertyOp8
 70
     0
102
RTVSPropertyOp9
 70
     0
102
RTVSPropertyOp10
 70
     0
102
RTVSPropertyOp11
 70
     0
102
RTVSPropertyOp12
 70
     0
102
RTVSPropertyOp13
 70
     0
102
RTVSPropertyOp14
 70
     2
102
RTVSPropertyOp15
 70
     0
102
RTVSPropertyOp16
 70
     0
102
RTVSPropertyOp17
 70
     0
102
RTVSPropertyOp18
 70
     0
102
RTVSPropertyOp19
 70
     0
102
RTVSPropertyOp20
 70
     0
102
RTVSPropertyOp21
 70
     0
102
RTVSPropertyOp22
 70
     0
102
RTVSPropertyOp23
 70
     0
102
RTVSPropertyOp24
 70
     0
102
RTVSPropertyOp25
 70
     0
102
RTVSPropertyOp26
 70
     0
102
RTVSPropertyOp27
 70
     0
102
RTVSPropertyOp28
 70
     0
102
RTVSPropertyOp29
 70
     0
102
RTVSPropertyOp30
 70
     0
102
RTVSPropertyOp31
 70
     0
102
RTVSPropertyOp32
 70
     0
102
RTVSPropertyOp33
 70
     0
102
RTVSPropertyOp34
 70
     0
102
RTVSPropertyOp35
 70
     0
102
RTVSPropertyOp36
 70
     0
102
RTVSPropertyOp37
 70
     0
102
RTVSPropertyOp38
 70
     0
102
RTVSPropertyOp39
 70
     0
102
RTVSPropertyOp40
 70
     0
102
RTVSPropertyOp41
 70
     0
102
RTVSPropertyOp42
 70
     0
102
RTVSPropertyOp43
 70
     0
102
RTVSPropertyOp44
 70
     0
102
RTVSPropertyOp45
 70
     0
102
RTVSPropertyOp46
 70
     0
102
RTVSPropertyOp47
 70
     0
102
RTVSPropertyOp48
 70
     0
102
RTVSPropertyOp49
 70
     0
102
RTVSPropertyOp50
 70
     0
102
RTVSPropertyOp51
 70
     0
102
RTVSPropertyOp52
 70
     0
102
RTVSPropertyOp53
 70
     0
102
RTVSPropertyOp54
 70
     0
102
RTVSPropertyOp55
 70
     0
102
RTVSPropertyOp56
 70
     0
102
RTVSPropertyOp57
 70
     0
102
RTVSPropertyOp58
 70
     1
102
RTVSPropertyOp59
 70
     1
102
RTVSPropertyOp60
 70
     1
102
RTVSPropertyOp61
 70
     1
102
RTVSPropertyOp62
 70
     1
  0
XRECORD
  5
D61
102
{ACAD_REACTORS
330
D60
102
}
330
D60
100
AcDbXrecord
280
     1
102
RTVSPost2010Prop28
280
     0
102
RTVSPost2010PropOp28
 70
     1
102
RTVSPost2010Prop29
280
     1
102
RTVSPost2010PropOp29
 70
     1
102
RTVSPost2010Prop30
280
     1
102
RTVSPost2010PropOp30
 70
     1
102
RTVSPost2010Prop31
280
     0
102
RTVSPost2010PropOp31
 70
     1
102
RTVSPost2010Prop32
280
     0
102
RTVSPost2010PropOp32
 70
     1
102
RTVSPost2010Prop33
280
     0
102
RTVSPost2010PropOp33
 70
     1
102
RTVSPost2010Prop34
280
     0
102
RTVSPost2010PropOp34
 70
     1
102
RTVSPost2010Prop35
280
     0
102
RTVSPost2010PropOp35
 70
     1
102
RTVSPost2010Prop36
280
     0
102
RTVSPost2010PropOp36
 70
     1
102
RTVSPost2010Prop37
 90
       50
102
RTVSPost2010PropOp37
 70
     1
102
RTVSPost2010Prop38
140
0.0
102
RTVSPost2010PropOp38
 70
     1
102
RTVSPost2010Prop39
140
1.0
102
RTVSPost2010PropOp39
 70
     1
102
RTVSPost2010Prop40
 90
        0
102
RTVSPost2010PropOp40
 70
     1
102
RTVSPost2010Prop41ColorIndex
 90
       18
102
RTVSPost2010Prop41ColorRGB
 90
-16777216
102
RTVSPost2010PropOp41
 70
     1
102
RTVSPost2010Prop42
 90
       50
102
RTVSPost2010PropOp42
 70
     1
102
RTVSPost2010Prop43
 90
        3
102
RTVSPost2010PropOp43
 70
     1
102
RTVSPost2010Prop44ColorIndex
 90
        5
102
RTVSPost2010Prop44ColorRGB
 90
      255
102
RTVSPost2010PropOp44
 70
     1
102
RTVSPost2010Prop45
280
     0
102
RTVSPost2010PropOp45
 70
     1
102
RTVSPost2010Prop46
 90
       50
102
RTVSPost2010PropOp46
 70
     1
102
RTVSPost2010Prop47
 90
       50
102
RTVSPost2010PropOp47
 70
     1
102
RTVSPost2010Prop48
 90
       50
102
RTVSPost2010PropOp48
 70
     1
102
RTVSPost2010Prop49
280
     0
102
RTVSPost2010PropOp49
 70
     1
102
RTVSPost2010Prop50
 90
       50
102
RTVSPost2010PropOp50
 70
     1
102
RTVSPost2010Prop51ColorIndex
 90
      256
102
RTVSPost2010Prop51ColorRGB
 90
-16777216
102
RTVSPost2010PropOp51
 70
     0
102
RTVSPost2010Prop52
140
1.0
102
RTVSPost2010PropOp52
 70
     0
102
RTVSPost2010Prop53
 90
        2
102
RTVSPost2010PropOp53
 70
     1
102
RTVSPost2010Prop54
  1
strokes_ogs.tif
102
RTVSPost2010PropOp54
 70
     1
102
RTVSPost2010Prop55
280
     0
102
RTVSPost2010PropOp55
 70
     1
102
RTVSPost2010Prop56
140
1.0
102
RTVSPost2010PropOp56
 70
     1
102
RTVSPost2010Prop57
140
1.0
102
RTVSPost2010PropOp57
 70
     1
102
RTVSPropertyOp0
 70
     1
102
RTVSPropertyOp1
 70
     1
102
RTVSPropertyOp2
 70
     1
102
RTVSPropertyOp3
 70
     1
102
RTVSPropertyOp4
 70
     1
102
RTVSPropertyOp5
 70
     1
102
RTVSPropertyOp6
 70
     1
102
RTVSPropertyOp7
 70
     1
102
RTVSPropertyOp8
 70
     1
102
RTVSPropertyOp9
 70
     1
102
RTVSPropertyOp10
 70
     1
102
RTVSPropertyOp11
 70
     1
102
RTVSPropertyOp12
 70
     1
102
RTVSPropertyOp13
 70
     1
102
RTVSPropertyOp14
 70
     1
102
RTVSPropertyOp15
 70
     1
102
RTVSPropertyOp16
 70
     1
102
RTVSPropertyOp17
 70
     1
102
RTVSPropertyOp18
 70
     1
102
RTVSPropertyOp19
 70
     1
102
RTVSPropertyOp20
 70
     1
102
RTVSPropertyOp21
 70
     1
102
RTVSPropertyOp22
 70
     1
102
RTVSPropertyOp23
 70
     1
102
RTVSPropertyOp24
 70
     1
102
RTVSPropertyOp25
 70
     1
102
RTVSPropertyOp26
 70
     1
102
RTVSPropertyOp27
 70
     1
102
RTVSPropertyOp28
 70
     1
102
RTVSPropertyOp29
 70
     1
102
RTVSPropertyOp30
 70
     1
102
RTVSPropertyOp31
 70
     1
102
RTVSPropertyOp32
 70
     1
102
RTVSPropertyOp33
 70
     1
102
RTVSPropertyOp34
 70
     1
102
RTVSPropertyOp35
 70
     1
102
RTVSPropertyOp36
 70
     1
102
RTVSPropertyOp37
 70
     1
102
RTVSPropertyOp38
 70
     1
102
RTVSPropertyOp39
 70
     1
102
RTVSPropertyOp40
 70
     1
102
RTVSPropertyOp41
 70
     1
102
RTVSPropertyOp42
 70
     1
102
RTVSPropertyOp43
 70
     1
102
RTVSPropertyOp44
 70
     1
102
RTVSPropertyOp45
 70
     1
102
RTVSPropertyOp46
 70
     1
102
RTVSPropertyOp47
 70
     1
102
RTVSPropertyOp48
 70
     1
102
RTVSPropertyOp49
 70
     1
102
RTVSPropertyOp50
 70
     1
102
RTVSPropertyOp51
 70
     0
102
RTVSPropertyOp52
 70
     0
102
RTVSPropertyOp53
 70
     1
102
RTVSPropertyOp54
 70
     1
102
RTVSPropertyOp55
 70
     1
102
RTVSPropertyOp56
 70
     1
102
RTVSPropertyOp57
 70
     1
102
RTVSPropertyOp58
 70
     1
102
RTVSPropertyOp59
 70
     1
102
RTVSPropertyOp60
 70
     1
102
RTVSPropertyOp61
 70
     1
102
RTVSPropertyOp62
 70
     1
  0
XRECORD
  5
D77
102
{ACAD_REACTORS
330
D76
102
}
330
D76
100
AcDbXrecord
280
     1
102
RTVSPost2010Prop28
280
     0
102
RTVSPost2010PropOp28
 70
     1
102
RTVSPost2010Prop29
280
     1
102
RTVSPost2010PropOp29
 70
     1
102
RTVSPost2010Prop30
280
     1
102
RTVSPost2010PropOp30
 70
     1
102
RTVSPost2010Prop31
280
     0
102
RTVSPost2010PropOp31
 70
     1
102
RTVSPost2010Prop32
280
     0
102
RTVSPost2010PropOp32
 70
     1
102
RTVSPost2010Prop33
280
     0
102
RTVSPost2010PropOp33
 70
     1
102
RTVSPost2010Prop34
280
     0
102
RTVSPost2010PropOp34
 70
     1
102
RTVSPost2010Prop35
280
     0
102
RTVSPost2010PropOp35
 70
     1
102
RTVSPost2010Prop36
280
     0
102
RTVSPost2010PropOp36
 70
     1
102
RTVSPost2010Prop37
 90
       50
102
RTVSPost2010PropOp37
 70
     1
102
RTVSPost2010Prop38
140
0.0
102
RTVSPost2010PropOp38
 70
     1
102
RTVSPost2010Prop39
140
1.0
102
RTVSPost2010PropOp39
 70
     1
102
RTVSPost2010Prop40
 90
        0
102
RTVSPost2010PropOp40
 70
     1
102
RTVSPost2010Prop41ColorIndex
 90
       18
102
RTVSPost2010Prop41ColorRGB
 90
-16777216
102
RTVSPost2010PropOp41
 70
     1
102
RTVSPost2010Prop42
 90
       50
102
RTVSPost2010PropOp42
 70
     1
102
RTVSPost2010Prop43
 90
        3
102
RTVSPost2010PropOp43
 70
     1
102
RTVSPost2010Prop44ColorIndex
 90
        5
102
RTVSPost2010Prop44ColorRGB
 90
      255
102
RTVSPost2010PropOp44
 70
     1
102
RTVSPost2010Prop45
280
     0
102
RTVSPost2010PropOp45
 70
     1
102
RTVSPost2010Prop46
 90
       50
102
RTVSPost2010PropOp46
 70
     1
102
RTVSPost2010Prop47
 90
       50
102
RTVSPost2010PropOp47
 70
     1
102
RTVSPost2010Prop48
 90
       50
102
RTVSPost2010PropOp48
 70
     1
102
RTVSPost2010Prop49
280
     0
102
RTVSPost2010PropOp49
 70
     1
102
RTVSPost2010Prop50
 90
       50
102
RTVSPost2010PropOp50
 70
     1
102
RTVSPost2010Prop51ColorIndex
 90
      256
102
RTVSPost2010Prop51ColorRGB
 90
-16777216
102
RTVSPost2010PropOp51
 70
     0
102
RTVSPost2010Prop52
140
1.0
102
RTVSPost2010PropOp52
 70
     0
102
RTVSPost2010Prop53
 90
        2
102
RTVSPost2010PropOp53
 70
     1
102
RTVSPost2010Prop54
  1
strokes_ogs.tif
102
RTVSPost2010PropOp54
 70
     1
102
RTVSPost2010Prop55
280
     0
102
RTVSPost2010PropOp55
 70
     1
102
RTVSPost2010Prop56
140
1.0
102
RTVSPost2010PropOp56
 70
     1
102
RTVSPost2010Prop57
140
1.0
102
RTVSPost2010PropOp57
 70
     1
102
RTVSPropertyOp0
 70
     1
102
RTVSPropertyOp1
 70
     1
102
RTVSPropertyOp2
 70
     1
102
RTVSPropertyOp3
 70
     1
102
RTVSPropertyOp4
 70
     1
102
RTVSPropertyOp5
 70
     1
102
RTVSPropertyOp6
 70
     1
102
RTVSPropertyOp7
 70
     1
102
RTVSPropertyOp8
 70
     1
102
RTVSPropertyOp9
 70
     1
102
RTVSPropertyOp10
 70
     1
102
RTVSPropertyOp11
 70
     1
102
RTVSPropertyOp12
 70
     1
102
RTVSPropertyOp13
 70
     1
102
RTVSPropertyOp14
 70
     1
102
RTVSPropertyOp15
 70
     1
102
RTVSPropertyOp16
 70
     1
102
RTVSPropertyOp17
 70
     1
102
RTVSPropertyOp18
 70
     1
102
RTVSPropertyOp19
 70
     1
102
RTVSPropertyOp20
 70
     1
102
RTVSPropertyOp21
 70
     1
102
RTVSPropertyOp22
 70
     1
102
RTVSPropertyOp23
 70
     1
102
RTVSPropertyOp24
 70
     1
102
RTVSPropertyOp25
 70
     1
102
RTVSPropertyOp26
 70
     1
102
RTVSPropertyOp27
 70
     1
102
RTVSPropertyOp28
 70
     1
102
RTVSPropertyOp29
 70
     1
102
RTVSPropertyOp30
 70
     1
102
RTVSPropertyOp31
 70
     1
102
RTVSPropertyOp32
 70
     1
102
RTVSPropertyOp33
 70
     1
102
RTVSPropertyOp34
 70
     1
102
RTVSPropertyOp35
 70
     1
102
RTVSPropertyOp36
 70
     1
102
RTVSPropertyOp37
 70
     1
102
RTVSPropertyOp38
 70
     1
102
RTVSPropertyOp39
 70
     1
102
RTVSPropertyOp40
 70
     1
102
RTVSPropertyOp41
 70
     1
102
RTVSPropertyOp42
 70
     1
102
RTVSPropertyOp43
 70
     1
102
RTVSPropertyOp44
 70
     1
102
RTVSPropertyOp45
 70
     1
102
RTVSPropertyOp46
 70
     1
102
RTVSPropertyOp47
 70
     1
102
RTVSPropertyOp48
 70
     1
102
RTVSPropertyOp49
 70
     1
102
RTVSPropertyOp50
 70
     1
102
RTVSPropertyOp51
 70
     0
102
RTVSPropertyOp52
 70
     0
102
RTVSPropertyOp53
 70
     1
102
RTVSPropertyOp54
 70
     1
102
RTVSPropertyOp55
 70
     1
102
RTVSPropertyOp56
 70
     1
102
RTVSPropertyOp57
 70
     1
102
RTVSPropertyOp58
 70
     1
102
RTVSPropertyOp59
 70
     1
102
RTVSPropertyOp60
 70
     1
102
RTVSPropertyOp61
 70
     1
102
RTVSPropertyOp62
 70
     1
  0
XRECORD
  5
D75
102
{ACAD_REACTORS
330
D74
102
}
330
D74
100
AcDbXrecord
280
     1
102
RTVSPost2010Prop28
280
     0
102
RTVSPost2010PropOp28
 70
     1
102
RTVSPost2010Prop29
280
     1
102
RTVSPost2010PropOp29
 70
     1
102
RTVSPost2010Prop30
280
     1
102
RTVSPost2010PropOp30
 70
     1
102
RTVSPost2010Prop31
280
     0
102
RTVSPost2010PropOp31
 70
     1
102
RTVSPost2010Prop32
280
     0
102
RTVSPost2010PropOp32
 70
     1
102
RTVSPost2010Prop33
280
     0
102
RTVSPost2010PropOp33
 70
     1
102
RTVSPost2010Prop34
280
     0
102
RTVSPost2010PropOp34
 70
     1
102
RTVSPost2010Prop35
280
     0
102
RTVSPost2010PropOp35
 70
     1
102
RTVSPost2010Prop36
280
     0
102
RTVSPost2010PropOp36
 70
     1
102
RTVSPost2010Prop37
 90
       50
102
RTVSPost2010PropOp37
 70
     1
102
RTVSPost2010Prop38
140
0.0
102
RTVSPost2010PropOp38
 70
     1
102
RTVSPost2010Prop39
140
1.0
102
RTVSPost2010PropOp39
 70
     1
102
RTVSPost2010Prop40
 90
        0
102
RTVSPost2010PropOp40
 70
     1
102
RTVSPost2010Prop41ColorIndex
 90
       18
102
RTVSPost2010Prop41ColorRGB
 90
-16777216
102
RTVSPost2010PropOp41
 70
     1
102
RTVSPost2010Prop42
 90
       50
102
RTVSPost2010PropOp42
 70
     1
102
RTVSPost2010Prop43
 90
        3
102
RTVSPost2010PropOp43
 70
     1
102
RTVSPost2010Prop44ColorIndex
 90
        5
102
RTVSPost2010Prop44ColorRGB
 90
      255
102
RTVSPost2010PropOp44
 70
     1
102
RTVSPost2010Prop45
280
     0
102
RTVSPost2010PropOp45
 70
     1
102
RTVSPost2010Prop46
 90
       50
102
RTVSPost2010PropOp46
 70
     1
102
RTVSPost2010Prop47
 90
       50
102
RTVSPost2010PropOp47
 70
     1
102
RTVSPost2010Prop48
 90
       50
102
RTVSPost2010PropOp48
 70
     1
102
RTVSPost2010Prop49
280
     0
102
RTVSPost2010PropOp49
 70
     1
102
RTVSPost2010Prop50
 90
       50
102
RTVSPost2010PropOp50
 70
     1
102
RTVSPost2010Prop51ColorIndex
 90
      256
102
RTVSPost2010Prop51ColorRGB
 90
-16777216
102
RTVSPost2010PropOp51
 70
     0
102
RTVSPost2010Prop52
140
1.0
102
RTVSPost2010PropOp52
 70
     0
102
RTVSPost2010Prop53
 90
        2
102
RTVSPost2010PropOp53
 70
     1
102
RTVSPost2010Prop54
  1
strokes_ogs.tif
102
RTVSPost2010PropOp54
 70
     1
102
RTVSPost2010Prop55
280
     0
102
RTVSPost2010PropOp55
 70
     1
102
RTVSPost2010Prop56
140
1.0
102
RTVSPost2010PropOp56
 70
     1
102
RTVSPost2010Prop57
140
1.0
102
RTVSPost2010PropOp57
 70
     1
102
RTVSPropertyOp0
 70
     1
102
RTVSPropertyOp1
 70
     1
102
RTVSPropertyOp2
 70
     1
102
RTVSPropertyOp3
 70
     1
102
RTVSPropertyOp4
 70
     1
102
RTVSPropertyOp5
 70
     1
102
RTVSPropertyOp6
 70
     1
102
RTVSPropertyOp7
 70
     1
102
RTVSPropertyOp8
 70
     1
102
RTVSPropertyOp9
 70
     1
102
RTVSPropertyOp10
 70
     1
102
RTVSPropertyOp11
 70
     1
102
RTVSPropertyOp12
 70
     1
102
RTVSPropertyOp13
 70
     1
102
RTVSPropertyOp14
 70
     1
102
RTVSPropertyOp15
 70
     1
102
RTVSPropertyOp16
 70
     1
102
RTVSPropertyOp17
 70
     1
102
RTVSPropertyOp18
 70
     1
102
RTVSPropertyOp19
 70
     1
102
RTVSPropertyOp20
 70
     1
102
RTVSPropertyOp21
 70
     1
102
RTVSPropertyOp22
 70
     1
102
RTVSPropertyOp23
 70
     1
102
RTVSPropertyOp24
 70
     1
102
RTVSPropertyOp25
 70
     1
102
RTVSPropertyOp26
 70
     1
102
RTVSPropertyOp27
 70
     1
102
RTVSPropertyOp28
 70
     1
102
RTVSPropertyOp29
 70
     1
102
RTVSPropertyOp30
 70
     1
102
RTVSPropertyOp31
 70
     1
102
RTVSPropertyOp32
 70
     1
102
RTVSPropertyOp33
 70
     1
102
RTVSPropertyOp34
 70
     1
102
RTVSPropertyOp35
 70
     1
102
RTVSPropertyOp36
 70
     1
102
RTVSPropertyOp37
 70
     1
102
RTVSPropertyOp38
 70
     1
102
RTVSPropertyOp39
 70
     1
102
RTVSPropertyOp40
 70
     1
102
RTVSPropertyOp41
 70
     1
102
RTVSPropertyOp42
 70
     1
102
RTVSPropertyOp43
 70
     1
102
RTVSPropertyOp44
 70
     1
102
RTVSPropertyOp45
 70
     1
102
RTVSPropertyOp46
 70
     1
102
RTVSPropertyOp47
 70
     1
102
RTVSPropertyOp48
 70
     1
102
RTVSPropertyOp49
 70
     1
102
RTVSPropertyOp50
 70
     1
102
RTVSPropertyOp51
 70
     0
102
RTVSPropertyOp52
 70
     0
102
RTVSPropertyOp53
 70
     1
102
RTVSPropertyOp54
 70
     1
102
RTVSPropertyOp55
 70
     1
102
RTVSPropertyOp56
 70
     1
102
RTVSPropertyOp57
 70
     1
102
RTVSPropertyOp58
 70
     1
102
RTVSPropertyOp59
 70
     1
102
RTVSPropertyOp60
 70
     1
102
RTVSPropertyOp61
 70
     1
102
RTVSPropertyOp62
 70
     1
  0
XRECORD
  5
D6F
102
{ACAD_REACTORS
330
D6E
102
}
330
D6E
100
AcDbXrecord
280
     1
102
RTVSPost2010Prop28
280
     0
102
RTVSPost2010PropOp28
 70
     1
102
RTVSPost2010Prop29
280
     1
102
RTVSPost2010PropOp29
 70
     1
102
RTVSPost2010Prop30
280
     1
102
RTVSPost2010PropOp30
 70
     1
102
RTVSPost2010Prop31
280
     0
102
RTVSPost2010PropOp31
 70
     1
102
RTVSPost2010Prop32
280
     0
102
RTVSPost2010PropOp32
 70
     1
102
RTVSPost2010Prop33
280
     0
102
RTVSPost2010PropOp33
 70
     1
102
RTVSPost2010Prop34
280
     0
102
RTVSPost2010PropOp34
 70
     1
102
RTVSPost2010Prop35
280
     0
102
RTVSPost2010PropOp35
 70
     1
102
RTVSPost2010Prop36
280
     0
102
RTVSPost2010PropOp36
 70
     1
102
RTVSPost2010Prop37
 90
       50
102
RTVSPost2010PropOp37
 70
     1
102
RTVSPost2010Prop38
140
0.0
102
RTVSPost2010PropOp38
 70
     1
102
RTVSPost2010Prop39
140
1.0
102
RTVSPost2010PropOp39
 70
     1
102
RTVSPost2010Prop40
 90
        0
102
RTVSPost2010PropOp40
 70
     1
102
RTVSPost2010Prop41ColorIndex
 90
       18
102
RTVSPost2010Prop41ColorRGB
 90
-16777216
102
RTVSPost2010PropOp41
 70
     1
102
RTVSPost2010Prop42
 90
       50
102
RTVSPost2010PropOp42
 70
     1
102
RTVSPost2010Prop43
 90
        3
102
RTVSPost2010PropOp43
 70
     1
102
RTVSPost2010Prop44ColorIndex
 90
        5
102
RTVSPost2010Prop44ColorRGB
 90
      255
102
RTVSPost2010PropOp44
 70
     1
102
RTVSPost2010Prop45
280
     0
102
RTVSPost2010PropOp45
 70
     1
102
RTVSPost2010Prop46
 90
       50
102
RTVSPost2010PropOp46
 70
     1
102
RTVSPost2010Prop47
 90
       50
102
RTVSPost2010PropOp47
 70
     1
102
RTVSPost2010Prop48
 90
       50
102
RTVSPost2010PropOp48
 70
     1
102
RTVSPost2010Prop49
280
     0
102
RTVSPost2010PropOp49
 70
     1
102
RTVSPost2010Prop50
 90
       50
102
RTVSPost2010PropOp50
 70
     1
102
RTVSPost2010Prop51ColorIndex
 90
      256
102
RTVSPost2010Prop51ColorRGB
 90
-16777216
102
RTVSPost2010PropOp51
 70
     0
102
RTVSPost2010Prop52
140
1.0
102
RTVSPost2010PropOp52
 70
     0
102
RTVSPost2010Prop53
 90
        2
102
RTVSPost2010PropOp53
 70
     1
102
RTVSPost2010Prop54
  1
strokes_ogs.tif
102
RTVSPost2010PropOp54
 70
     1
102
RTVSPost2010Prop55
280
     0
102
RTVSPost2010PropOp55
 70
     1
102
RTVSPost2010Prop56
140
1.0
102
RTVSPost2010PropOp56
 70
     1
102
RTVSPost2010Prop57
140
1.0
102
RTVSPost2010PropOp57
 70
     1
102
RTVSPropertyOp0
 70
     1
102
RTVSPropertyOp1
 70
     1
102
RTVSPropertyOp2
 70
     1
102
RTVSPropertyOp3
 70
     1
102
RTVSPropertyOp4
 70
     1
102
RTVSPropertyOp5
 70
     1
102
RTVSPropertyOp6
 70
     1
102
RTVSPropertyOp7
 70
     1
102
RTVSPropertyOp8
 70
     1
102
RTVSPropertyOp9
 70
     1
102
RTVSPropertyOp10
 70
     1
102
RTVSPropertyOp11
 70
     1
102
RTVSPropertyOp12
 70
     1
102
RTVSPropertyOp13
 70
     1
102
RTVSPropertyOp14
 70
     1
102
RTVSPropertyOp15
 70
     1
102
RTVSPropertyOp16
 70
     1
102
RTVSPropertyOp17
 70
     1
102
RTVSPropertyOp18
 70
     1
102
RTVSPropertyOp19
 70
     1
102
RTVSPropertyOp20
 70
     1
102
RTVSPropertyOp21
 70
     1
102
RTVSPropertyOp22
 70
     1
102
RTVSPropertyOp23
 70
     1
102
RTVSPropertyOp24
 70
     1
102
RTVSPropertyOp25
 70
     1
102
RTVSPropertyOp26
 70
     1
102
RTVSPropertyOp27
 70
     1
102
RTVSPropertyOp28
 70
     1
102
RTVSPropertyOp29
 70
     1
102
RTVSPropertyOp30
 70
     1
102
RTVSPropertyOp31
 70
     1
102
RTVSPropertyOp32
 70
     1
102
RTVSPropertyOp33
 70
     1
102
RTVSPropertyOp34
 70
     1
102
RTVSPropertyOp35
 70
     1
102
RTVSPropertyOp36
 70
     1
102
RTVSPropertyOp37
 70
     1
102
RTVSPropertyOp38
 70
     1
102
RTVSPropertyOp39
 70
     1
102
RTVSPropertyOp40
 70
     1
102
RTVSPropertyOp41
 70
     1
102
RTVSPropertyOp42
 70
     1
102
RTVSPropertyOp43
 70
     1
102
RTVSPropertyOp44
 70
     1
102
RTVSPropertyOp45
 70
     1
102
RTVSPropertyOp46
 70
     1
102
RTVSPropertyOp47
 70
     1
102
RTVSPropertyOp48
 70
     1
102
RTVSPropertyOp49
 70
     1
102
RTVSPropertyOp50
 70
     1
102
RTVSPropertyOp51
 70
     0
102
RTVSPropertyOp52
 70
     0
102
RTVSPropertyOp53
 70
     1
102
RTVSPropertyOp54
 70
     1
102
RTVSPropertyOp55
 70
     1
102
RTVSPropertyOp56
 70
     1
102
RTVSPropertyOp57
 70
     1
102
RTVSPropertyOp58
 70
     1
102
RTVSPropertyOp59
 70
     1
102
RTVSPropertyOp60
 70
     1
102
RTVSPropertyOp61
 70
     1
102
RTVSPropertyOp62
 70
     1
  0
XRECORD
  5
D71
102
{ACAD_REACTORS
330
D70
102
}
330
D70
100
AcDbXrecord
280
     1
102
RTVSPost2010Prop28
280
     0
102
RTVSPost2010PropOp28
 70
     1
102
RTVSPost2010Prop29
280
     1
102
RTVSPost2010PropOp29
 70
     1
102
RTVSPost2010Prop30
280
     1
102
RTVSPost2010PropOp30
 70
     1
102
RTVSPost2010Prop31
280
     0
102
RTVSPost2010PropOp31
 70
     1
102
RTVSPost2010Prop32
280
     0
102
RTVSPost2010PropOp32
 70
     1
102
RTVSPost2010Prop33
280
     0
102
RTVSPost2010PropOp33
 70
     1
102
RTVSPost2010Prop34
280
     0
102
RTVSPost2010PropOp34
 70
     1
102
RTVSPost2010Prop35
280
     0
102
RTVSPost2010PropOp35
 70
     1
102
RTVSPost2010Prop36
280
     0
102
RTVSPost2010PropOp36
 70
     1
102
RTVSPost2010Prop37
 90
       50
102
RTVSPost2010PropOp37
 70
     1
102
RTVSPost2010Prop38
140
0.0
102
RTVSPost2010PropOp38
 70
     1
102
RTVSPost2010Prop39
140
1.0
102
RTVSPost2010PropOp39
 70
     1
102
RTVSPost2010Prop40
 90
        0
102
RTVSPost2010PropOp40
 70
     1
102
RTVSPost2010Prop41ColorIndex
 90
       18
102
RTVSPost2010Prop41ColorRGB
 90
-16777216
102
RTVSPost2010PropOp41
 70
     1
102
RTVSPost2010Prop42
 90
       50
102
RTVSPost2010PropOp42
 70
     1
102
RTVSPost2010Prop43
 90
        3
102
RTVSPost2010PropOp43
 70
     1
102
RTVSPost2010Prop44ColorIndex
 90
        5
102
RTVSPost2010Prop44ColorRGB
 90
      255
102
RTVSPost2010PropOp44
 70
     1
102
RTVSPost2010Prop45
280
     0
102
RTVSPost2010PropOp45
 70
     1
102
RTVSPost2010Prop46
 90
       50
102
RTVSPost2010PropOp46
 70
     1
102
RTVSPost2010Prop47
 90
       50
102
RTVSPost2010PropOp47
 70
     1
102
RTVSPost2010Prop48
 90
       50
102
RTVSPost2010PropOp48
 70
     1
102
RTVSPost2010Prop49
280
     0
102
RTVSPost2010PropOp49
 70
     1
102
RTVSPost2010Prop50
 90
       50
102
RTVSPost2010PropOp50
 70
     1
102
RTVSPost2010Prop51ColorIndex
 90
      256
102
RTVSPost2010Prop51ColorRGB
 90
-16777216
102
RTVSPost2010PropOp51
 70
     0
102
RTVSPost2010Prop52
140
1.0
102
RTVSPost2010PropOp52
 70
     0
102
RTVSPost2010Prop53
 90
        2
102
RTVSPost2010PropOp53
 70
     1
102
RTVSPost2010Prop54
  1
strokes_ogs.tif
102
RTVSPost2010PropOp54
 70
     1
102
RTVSPost2010Prop55
280
     0
102
RTVSPost2010PropOp55
 70
     1
102
RTVSPost2010Prop56
140
1.0
102
RTVSPost2010PropOp56
 70
     1
102
RTVSPost2010Prop57
140
1.0
102
RTVSPost2010PropOp57
 70
     1
102
RTVSPropertyOp0
 70
     1
102
RTVSPropertyOp1
 70
     1
102
RTVSPropertyOp2
 70
     1
102
RTVSPropertyOp3
 70
     1
102
RTVSPropertyOp4
 70
     1
102
RTVSPropertyOp5
 70
     1
102
RTVSPropertyOp6
 70
     1
102
RTVSPropertyOp7
 70
     1
102
RTVSPropertyOp8
 70
     1
102
RTVSPropertyOp9
 70
     1
102
RTVSPropertyOp10
 70
     1
102
RTVSPropertyOp11
 70
     1
102
RTVSPropertyOp12
 70
     1
102
RTVSPropertyOp13
 70
     1
102
RTVSPropertyOp14
 70
     1
102
RTVSPropertyOp15
 70
     1
102
RTVSPropertyOp16
 70
     1
102
RTVSPropertyOp17
 70
     1
102
RTVSPropertyOp18
 70
     1
102
RTVSPropertyOp19
 70
     1
102
RTVSPropertyOp20
 70
     1
102
RTVSPropertyOp21
 70
     1
102
RTVSPropertyOp22
 70
     1
102
RTVSPropertyOp23
 70
     1
102
RTVSPropertyOp24
 70
     1
102
RTVSPropertyOp25
 70
     1
102
RTVSPropertyOp26
 70
     1
102
RTVSPropertyOp27
 70
     1
102
RTVSPropertyOp28
 70
     1
102
RTVSPropertyOp29
 70
     1
102
RTVSPropertyOp30
 70
     1
102
RTVSPropertyOp31
 70
     1
102
RTVSPropertyOp32
 70
     1
102
RTVSPropertyOp33
 70
     1
102
RTVSPropertyOp34
 70
     1
102
RTVSPropertyOp35
 70
     1
102
RTVSPropertyOp36
 70
     1
102
RTVSPropertyOp37
 70
     1
102
RTVSPropertyOp38
 70
     1
102
RTVSPropertyOp39
 70
     1
102
RTVSPropertyOp40
 70
     1
102
RTVSPropertyOp41
 70
     1
102
RTVSPropertyOp42
 70
     1
102
RTVSPropertyOp43
 70
     1
102
RTVSPropertyOp44
 70
     1
102
RTVSPropertyOp45
 70
     1
102
RTVSPropertyOp46
 70
     1
102
RTVSPropertyOp47
 70
     1
102
RTVSPropertyOp48
 70
     1
102
RTVSPropertyOp49
 70
     1
102
RTVSPropertyOp50
 70
     1
102
RTVSPropertyOp51
 70
     0
102
RTVSPropertyOp52
 70
     0
102
RTVSPropertyOp53
 70
     1
102
RTVSPropertyOp54
 70
     1
102
RTVSPropertyOp55
 70
     1
102
RTVSPropertyOp56
 70
     1
102
RTVSPropertyOp57
 70
     1
102
RTVSPropertyOp58
 70
     1
102
RTVSPropertyOp59
 70
     1
102
RTVSPropertyOp60
 70
     1
102
RTVSPropertyOp61
 70
     1
102
RTVSPropertyOp62
 70
     1
  0
XRECORD
  5
D67
102
{ACAD_REACTORS
330
D66
102
}
330
D66
100
AcDbXrecord
280
     1
102
RTVSPost2010Prop28
280
     0
102
RTVSPost2010PropOp28
 70
     1
102
RTVSPost2010Prop29
280
     1
102
RTVSPost2010PropOp29
 70
     1
102
RTVSPost2010Prop30
280
     1
102
RTVSPost2010PropOp30
 70
     1
102
RTVSPost2010Prop31
280
     0
102
RTVSPost2010PropOp31
 70
     1
102
RTVSPost2010Prop32
280
     0
102
RTVSPost2010PropOp32
 70
     1
102
RTVSPost2010Prop33
280
     0
102
RTVSPost2010PropOp33
 70
     1
102
RTVSPost2010Prop34
280
     0
102
RTVSPost2010PropOp34
 70
     1
102
RTVSPost2010Prop35
280
     0
102
RTVSPost2010PropOp35
 70
     1
102
RTVSPost2010Prop36
280
     0
102
RTVSPost2010PropOp36
 70
     1
102
RTVSPost2010Prop37
 90
       50
102
RTVSPost2010PropOp37
 70
     1
102
RTVSPost2010Prop38
140
0.0
102
RTVSPost2010PropOp38
 70
     1
102
RTVSPost2010Prop39
140
1.0
102
RTVSPost2010PropOp39
 70
     1
102
RTVSPost2010Prop40
 90
        0
102
RTVSPost2010PropOp40
 70
     1
102
RTVSPost2010Prop41ColorIndex
 90
       18
102
RTVSPost2010Prop41ColorRGB
 90
-16777216
102
RTVSPost2010PropOp41
 70
     1
102
RTVSPost2010Prop42
 90
       50
102
RTVSPost2010PropOp42
 70
     1
102
RTVSPost2010Prop43
 90
        3
102
RTVSPost2010PropOp43
 70
     1
102
RTVSPost2010Prop44ColorIndex
 90
        5
102
RTVSPost2010Prop44ColorRGB
 90
      255
102
RTVSPost2010PropOp44
 70
     1
102
RTVSPost2010Prop45
280
     0
102
RTVSPost2010PropOp45
 70
     1
102
RTVSPost2010Prop46
 90
       50
102
RTVSPost2010PropOp46
 70
     1
102
RTVSPost2010Prop47
 90
       50
102
RTVSPost2010PropOp47
 70
     1
102
RTVSPost2010Prop48
 90
       50
102
RTVSPost2010PropOp48
 70
     1
102
RTVSPost2010Prop49
280
     0
102
RTVSPost2010PropOp49
 70
     1
102
RTVSPost2010Prop50
 90
       50
102
RTVSPost2010PropOp50
 70
     1
102
RTVSPost2010Prop51ColorIndex
 90
      256
102
RTVSPost2010Prop51ColorRGB
 90
-16777216
102
RTVSPost2010PropOp51
 70
     0
102
RTVSPost2010Prop52
140
1.0
102
RTVSPost2010PropOp52
 70
     0
102
RTVSPost2010Prop53
 90
        2
102
RTVSPost2010PropOp53
 70
     1
102
RTVSPost2010Prop54
  1
strokes_ogs.tif
102
RTVSPost2010PropOp54
 70
     1
102
RTVSPost2010Prop55
280
     0
102
RTVSPost2010PropOp55
 70
     1
102
RTVSPost2010Prop56
140
1.0
102
RTVSPost2010PropOp56
 70
     1
102
RTVSPost2010Prop57
140
1.0
102
RTVSPost2010PropOp57
 70
     1
102
RTVSPropertyOp0
 70
     1
102
RTVSPropertyOp1
 70
     1
102
RTVSPropertyOp2
 70
     1
102
RTVSPropertyOp3
 70
     1
102
RTVSPropertyOp4
 70
     1
102
RTVSPropertyOp5
 70
     1
102
RTVSPropertyOp6
 70
     1
102
RTVSPropertyOp7
 70
     1
102
RTVSPropertyOp8
 70
     1
102
RTVSPropertyOp9
 70
     1
102
RTVSPropertyOp10
 70
     1
102
RTVSPropertyOp11
 70
     1
102
RTVSPropertyOp12
 70
     1
102
RTVSPropertyOp13
 70
     1
102
RTVSPropertyOp14
 70
     1
102
RTVSPropertyOp15
 70
     1
102
RTVSPropertyOp16
 70
     1
102
RTVSPropertyOp17
 70
     1
102
RTVSPropertyOp18
 70
     1
102
RTVSPropertyOp19
 70
     1
102
RTVSPropertyOp20
 70
     1
102
RTVSPropertyOp21
 70
     1
102
RTVSPropertyOp22
 70
     1
102
RTVSPropertyOp23
 70
     1
102
RTVSPropertyOp24
 70
     1
102
RTVSPropertyOp25
 70
     1
102
RTVSPropertyOp26
 70
     1
102
RTVSPropertyOp27
 70
     1
102
RTVSPropertyOp28
 70
     1
102
RTVSPropertyOp29
 70
     1
102
RTVSPropertyOp30
 70
     1
102
RTVSPropertyOp31
 70
     1
102
RTVSPropertyOp32
 70
     1
102
RTVSPropertyOp33
 70
     1
102
RTVSPropertyOp34
 70
     1
102
RTVSPropertyOp35
 70
     1
102
RTVSPropertyOp36
 70
     1
102
RTVSPropertyOp37
 70
     1
102
RTVSPropertyOp38
 70
     1
102
RTVSPropertyOp39
 70
     1
102
RTVSPropertyOp40
 70
     1
102
RTVSPropertyOp41
 70
     1
102
RTVSPropertyOp42
 70
     1
102
RTVSPropertyOp43
 70
     1
102
RTVSPropertyOp44
 70
     1
102
RTVSPropertyOp45
 70
     1
102
RTVSPropertyOp46
 70
     1
102
RTVSPropertyOp47
 70
     1
102
RTVSPropertyOp48
 70
     1
102
RTVSPropertyOp49
 70
     1
102
RTVSPropertyOp50
 70
     1
102
RTVSPropertyOp51
 70
     0
102
RTVSPropertyOp52
 70
     0
102
RTVSPropertyOp53
 70
     1
102
RTVSPropertyOp54
 70
     1
102
RTVSPropertyOp55
 70
     1
102
RTVSPropertyOp56
 70
     1
102
RTVSPropertyOp57
 70
     1
102
RTVSPropertyOp58
 70
     1
102
RTVSPropertyOp59
 70
     1
102
RTVSPropertyOp60
 70
     1
102
RTVSPropertyOp61
 70
     1
102
RTVSPropertyOp62
 70
     1
  0
XRECORD
  5
D5B
102
{ACAD_REACTORS
330
D5A
102
}
330
D5A
100
AcDbXrecord
280
     1
102
RTVSPost2010Prop28
280
     0
102
RTVSPost2010PropOp28
 70
     1
102
RTVSPost2010Prop29
280
     1
102
RTVSPost2010PropOp29
 70
     1
102
RTVSPost2010Prop30
280
     1
102
RTVSPost2010PropOp30
 70
     1
102
RTVSPost2010Prop31
280
     0
102
RTVSPost2010PropOp31
 70
     1
102
RTVSPost2010Prop32
280
     0
102
RTVSPost2010PropOp32
 70
     1
102
RTVSPost2010Prop33
280
     0
102
RTVSPost2010PropOp33
 70
     1
102
RTVSPost2010Prop34
280
     0
102
RTVSPost2010PropOp34
 70
     1
102
RTVSPost2010Prop35
280
     0
102
RTVSPost2010PropOp35
 70
     1
102
RTVSPost2010Prop36
280
     0
102
RTVSPost2010PropOp36
 70
     1
102
RTVSPost2010Prop37
 90
       50
102
RTVSPost2010PropOp37
 70
     1
102
RTVSPost2010Prop38
140
0.0
102
RTVSPost2010PropOp38
 70
     1
102
RTVSPost2010Prop39
140
1.0
102
RTVSPost2010PropOp39
 70
     1
102
RTVSPost2010Prop40
 90
        0
102
RTVSPost2010PropOp40
 70
     1
102
RTVSPost2010Prop41ColorIndex
 90
       18
102
RTVSPost2010Prop41ColorRGB
 90
-16777216
102
RTVSPost2010PropOp41
 70
     1
102
RTVSPost2010Prop42
 90
       50
102
RTVSPost2010PropOp42
 70
     1
102
RTVSPost2010Prop43
 90
        3
102
RTVSPost2010PropOp43
 70
     1
102
RTVSPost2010Prop44ColorIndex
 90
        5
102
RTVSPost2010Prop44ColorRGB
 90
      255
102
RTVSPost2010PropOp44
 70
     1
102
RTVSPost2010Prop45
280
     0
102
RTVSPost2010PropOp45
 70
     1
102
RTVSPost2010Prop46
 90
       50
102
RTVSPost2010PropOp46
 70
     1
102
RTVSPost2010Prop47
 90
       50
102
RTVSPost2010PropOp47
 70
     1
102
RTVSPost2010Prop48
 90
       50
102
RTVSPost2010PropOp48
 70
     1
102
RTVSPost2010Prop49
280
     0
102
RTVSPost2010PropOp49
 70
     1
102
RTVSPost2010Prop50
 90
       50
102
RTVSPost2010PropOp50
 70
     1
102
RTVSPost2010Prop51ColorIndex
 90
      256
102
RTVSPost2010Prop51ColorRGB
 90
-16777216
102
RTVSPost2010PropOp51
 70
     0
102
RTVSPost2010Prop52
140
1.0
102
RTVSPost2010PropOp52
 70
     0
102
RTVSPost2010Prop53
 90
        2
102
RTVSPost2010PropOp53
 70
     1
102
RTVSPost2010Prop54
  1
strokes_ogs.tif
102
RTVSPost2010PropOp54
 70
     1
102
RTVSPost2010Prop55
280
     0
102
RTVSPost2010PropOp55
 70
     1
102
RTVSPost2010Prop56
140
1.0
102
RTVSPost2010PropOp56
 70
     1
102
RTVSPost2010Prop57
140
1.0
102
RTVSPost2010PropOp57
 70
     1
102
RTVSPropertyOp0
 70
     1
102
RTVSPropertyOp1
 70
     1
102
RTVSPropertyOp2
 70
     1
102
RTVSPropertyOp3
 70
     1
102
RTVSPropertyOp4
 70
     1
102
RTVSPropertyOp5
 70
     1
102
RTVSPropertyOp6
 70
     1
102
RTVSPropertyOp7
 70
     1
102
RTVSPropertyOp8
 70
     1
102
RTVSPropertyOp9
 70
     1
102
RTVSPropertyOp10
 70
     1
102
RTVSPropertyOp11
 70
     1
102
RTVSPropertyOp12
 70
     1
102
RTVSPropertyOp13
 70
     1
102
RTVSPropertyOp14
 70
     1
102
RTVSPropertyOp15
 70
     1
102
RTVSPropertyOp16
 70
     1
102
RTVSPropertyOp17
 70
     1
102
RTVSPropertyOp18
 70
     1
102
RTVSPropertyOp19
 70
     1
102
RTVSPropertyOp20
 70
     1
102
RTVSPropertyOp21
 70
     1
102
RTVSPropertyOp22
 70
     1
102
RTVSPropertyOp23
 70
     1
102
RTVSPropertyOp24
 70
     1
102
RTVSPropertyOp25
 70
     1
102
RTVSPropertyOp26
 70
     1
102
RTVSPropertyOp27
 70
     1
102
RTVSPropertyOp28
 70
     1
102
RTVSPropertyOp29
 70
     1
102
RTVSPropertyOp30
 70
     1
102
RTVSPropertyOp31
 70
     1
102
RTVSPropertyOp32
 70
     1
102
RTVSPropertyOp33
 70
     1
102
RTVSPropertyOp34
 70
     1
102
RTVSPropertyOp35
 70
     1
102
RTVSPropertyOp36
 70
     1
102
RTVSPropertyOp37
 70
     1
102
RTVSPropertyOp38
 70
     1
102
RTVSPropertyOp39
 70
     1
102
RTVSPropertyOp40
 70
     1
102
RTVSPropertyOp41
 70
     1
102
RTVSPropertyOp42
 70
     1
102
RTVSPropertyOp43
 70
     1
102
RTVSPropertyOp44
 70
     1
102
RTVSPropertyOp45
 70
     1
102
RTVSPropertyOp46
 70
     1
102
RTVSPropertyOp47
 70
     1
102
RTVSPropertyOp48
 70
     1
102
RTVSPropertyOp49
 70
     1
102
RTVSPropertyOp50
 70
     1
102
RTVSPropertyOp51
 70
     0
102
RTVSPropertyOp52
 70
     0
102
RTVSPropertyOp53
 70
     1
102
RTVSPropertyOp54
 70
     1
102
RTVSPropertyOp55
 70
     1
102
RTVSPropertyOp56
 70
     1
102
RTVSPropertyOp57
 70
     1
102
RTVSPropertyOp58
 70
     1
102
RTVSPropertyOp59
 70
     1
102
RTVSPropertyOp60
 70
     1
102
RTVSPropertyOp61
 70
     1
102
RTVSPropertyOp62
 70
     1
  0
XRECORD
  5
D73
102
{ACAD_REACTORS
330
D72
102
}
330
D72
100
AcDbXrecord
280
     1
102
RTVSPost2010Prop28
280
     0
102
RTVSPost2010PropOp28
 70
     1
102
RTVSPost2010Prop29
280
     1
102
RTVSPost2010PropOp29
 70
     1
102
RTVSPost2010Prop30
280
     1
102
RTVSPost2010PropOp30
 70
     1
102
RTVSPost2010Prop31
280
     0
102
RTVSPost2010PropOp31
 70
     1
102
RTVSPost2010Prop32
280
     0
102
RTVSPost2010PropOp32
 70
     1
102
RTVSPost2010Prop33
280
     0
102
RTVSPost2010PropOp33
 70
     1
102
RTVSPost2010Prop34
280
     0
102
RTVSPost2010PropOp34
 70
     1
102
RTVSPost2010Prop35
280
     0
102
RTVSPost2010PropOp35
 70
     1
102
RTVSPost2010Prop36
280
     0
102
RTVSPost2010PropOp36
 70
     1
102
RTVSPost2010Prop37
 90
       50
102
RTVSPost2010PropOp37
 70
     1
102
RTVSPost2010Prop38
140
0.0
102
RTVSPost2010PropOp38
 70
     1
102
RTVSPost2010Prop39
140
1.0
102
RTVSPost2010PropOp39
 70
     1
102
RTVSPost2010Prop40
 90
        0
102
RTVSPost2010PropOp40
 70
     1
102
RTVSPost2010Prop41ColorIndex
 90
       18
102
RTVSPost2010Prop41ColorRGB
 90
-16777216
102
RTVSPost2010PropOp41
 70
     1
102
RTVSPost2010Prop42
 90
       50
102
RTVSPost2010PropOp42
 70
     1
102
RTVSPost2010Prop43
 90
        3
102
RTVSPost2010PropOp43
 70
     1
102
RTVSPost2010Prop44ColorIndex
 90
        5
102
RTVSPost2010Prop44ColorRGB
 90
      255
102
RTVSPost2010PropOp44
 70
     1
102
RTVSPost2010Prop45
280
     0
102
RTVSPost2010PropOp45
 70
     1
102
RTVSPost2010Prop46
 90
       50
102
RTVSPost2010PropOp46
 70
     1
102
RTVSPost2010Prop47
 90
       50
102
RTVSPost2010PropOp47
 70
     1
102
RTVSPost2010Prop48
 90
       50
102
RTVSPost2010PropOp48
 70
     1
102
RTVSPost2010Prop49
280
     0
102
RTVSPost2010PropOp49
 70
     1
102
RTVSPost2010Prop50
 90
       50
102
RTVSPost2010PropOp50
 70
     1
102
RTVSPost2010Prop51ColorIndex
 90
      256
102
RTVSPost2010Prop51ColorRGB
 90
-16777216
102
RTVSPost2010PropOp51
 70
     0
102
RTVSPost2010Prop52
140
1.0
102
RTVSPost2010PropOp52
 70
     0
102
RTVSPost2010Prop53
 90
        2
102
RTVSPost2010PropOp53
 70
     1
102
RTVSPost2010Prop54
  1
strokes_ogs.tif
102
RTVSPost2010PropOp54
 70
     1
102
RTVSPost2010Prop55
280
     0
102
RTVSPost2010PropOp55
 70
     1
102
RTVSPost2010Prop56
140
1.0
102
RTVSPost2010PropOp56
 70
     1
102
RTVSPost2010Prop57
140
1.0
102
RTVSPost2010PropOp57
 70
     1
102
RTVSPropertyOp0
 70
     1
102
RTVSPropertyOp1
 70
     1
102
RTVSPropertyOp2
 70
     1
102
RTVSPropertyOp3
 70
     1
102
RTVSPropertyOp4
 70
     1
102
RTVSPropertyOp5
 70
     1
102
RTVSPropertyOp6
 70
     1
102
RTVSPropertyOp7
 70
     1
102
RTVSPropertyOp8
 70
     1
102
RTVSPropertyOp9
 70
     1
102
RTVSPropertyOp10
 70
     1
102
RTVSPropertyOp11
 70
     1
102
RTVSPropertyOp12
 70
     1
102
RTVSPropertyOp13
 70
     1
102
RTVSPropertyOp14
 70
     1
102
RTVSPropertyOp15
 70
     1
102
RTVSPropertyOp16
 70
     1
102
RTVSPropertyOp17
 70
     1
102
RTVSPropertyOp18
 70
     1
102
RTVSPropertyOp19
 70
     1
102
RTVSPropertyOp20
 70
     1
102
RTVSPropertyOp21
 70
     1
102
RTVSPropertyOp22
 70
     1
102
RTVSPropertyOp23
 70
     1
102
RTVSPropertyOp24
 70
     1
102
RTVSPropertyOp25
 70
     1
102
RTVSPropertyOp26
 70
     1
102
RTVSPropertyOp27
 70
     1
102
RTVSPropertyOp28
 70
     1
102
RTVSPropertyOp29
 70
     1
102
RTVSPropertyOp30
 70
     1
102
RTVSPropertyOp31
 70
     1
102
RTVSPropertyOp32
 70
     1
102
RTVSPropertyOp33
 70
     1
102
RTVSPropertyOp34
 70
     1
102
RTVSPropertyOp35
 70
     1
102
RTVSPropertyOp36
 70
     1
102
RTVSPropertyOp37
 70
     1
102
RTVSPropertyOp38
 70
     1
102
RTVSPropertyOp39
 70
     1
102
RTVSPropertyOp40
 70
     1
102
RTVSPropertyOp41
 70
     1
102
RTVSPropertyOp42
 70
     1
102
RTVSPropertyOp43
 70
     1
102
RTVSPropertyOp44
 70
     1
102
RTVSPropertyOp45
 70
     1
102
RTVSPropertyOp46
 70
     1
102
RTVSPropertyOp47
 70
     1
102
RTVSPropertyOp48
 70
     1
102
RTVSPropertyOp49
 70
     1
102
RTVSPropertyOp50
 70
     1
102
RTVSPropertyOp51
 70
     0
102
RTVSPropertyOp52
 70
     0
102
RTVSPropertyOp53
 70
     1
102
RTVSPropertyOp54
 70
     1
102
RTVSPropertyOp55
 70
     1
102
RTVSPropertyOp56
 70
     1
102
RTVSPropertyOp57
 70
     1
102
RTVSPropertyOp58
 70
     1
102
RTVSPropertyOp59
 70
     1
102
RTVSPropertyOp60
 70
     1
102
RTVSPropertyOp61
 70
     1
102
RTVSPropertyOp62
 70
     1
  0
ENDSEC
  0
EOF
