  0
SECTION
  2
HEADER
  9
$ACADVER
  1
AC1015
  9
$ACADMAINTVER
 70
    20
  9
$DWGCODEPAGE
  3
ANSI_1252
  9
$INSBASE
 10
0.0
 20
0.0
 30
0.0
  9
$EXTMIN
 10
3.510926655059797
 20
0.2862927784078968
 30
0.0
  9
$EXTMAX
 10
9.035926655059796
 20
4.536292778407896
 30
0.0
  9
$LIMMIN
 10
0.0
 20
0.0
  9
$LIMMAX
 10
12.0
 20
9.0
  9
$ORTHOMODE
 70
     0
  9
$REGENMODE
 70
     1
  9
$FILLMODE
 70
     1
  9
$QTEXTMODE
 70
     0
  9
$MIRRTEXT
 70
     1
  9
$LTSCALE
 40
0.125
  9
$ATTMODE
 70
     1
  9
$TEXTSIZE
 40
0.06
  9
$TRACEWID
 40
0.05
  9
$TEXTSTYLE
  7
ROMANS
  9
$CLAYER
  8
0
  9
$CELTYPE
  6
BYLAYER
  9
$CECOLOR
 62
   256
  9
$CELTSCALE
 40
1.0
  9
$DISPSILH
 70
     0
  9
$DIMSCALE
 40
1.0
  9
$DIMASZ
 40
0.063
  9
$DIMEXO
 40
0.031
  9
$DIMDLI
 40
0.125
  9
$DIMRND
 40
0.0
  9
$DIMDLE
 40
0.0
  9
$DIMEXE
 40
0.031
  9
$DIMTP
 40
0.0
  9
$DIMTM
 40
0.0
  9
$DIMTXT
 40
0.063
  9
$DIMCEN
 40
0.063
  9
$DIMTSZ
 40
0.0
  9
$DIMTOL
 70
     0
  9
$DIMLIM
 70
     0
  9
$DIMTIH
 70
     0
  9
$DIMTOH
 70
     0
  9
$DIMSE1
 70
     0
  9
$DIMSE2
 70
     0
  9
$DIMTAD
 70
     0
  9
$DIMZIN
 70
     4
  9
$DIMBLK
  1

  9
$DIMASO
 70
     1
  9
$DIMSHO
 70
     0
  9
$DIMPOST
  1

  9
$DIMAPOST
  1

  9
$DIMALT
 70
     0
  9
$DIMALTD
 70
     2
  9
$DIMALTF
 40
25.4
  9
$DIMLFAC
 40
1.0
  9
$DIMTOFL
 70
     0
  9
$DIMTVP
 40
0.0
  9
$DIMTIX
 70
     1
  9
$DIMSOXD
 70
     0
  9
$DIMSAH
 70
     0
  9
$DIMBLK1
  1

  9
$DIMBLK2
  1

  9
$DIMSTYLE
  2
STANDARD
  9
$DIMCLRD
 70
     0
  9
$DIMCLRE
 70
     0
  9
$DIMCLRT
 70
     0
  9
$DIMTFAC
 40
1.0
  9
$DIMGAP
 40
0.045
  9
$DIMJUST
 70
     0
  9
$DIMSD1
 70
     0
  9
$DIMSD2
 70
     0
  9
$DIMTOLJ
 70
     1
  9
$DIMTZIN
 70
     4
  9
$DIMALTZ
 70
     4
  9
$DIMALTTZ
 70
     4
  9
$DIMUPT
 70
     0
  9
$DIMDEC
 70
     3
  9
$DIMTDEC
 70
     3
  9
$DIMALTU
 70
     2
  9
$DIMALTTD
 70
     2
  9
$DIMTXSTY
  7
ROMANS
  9
$DIMAUNIT
 70
     0
  9
$DIMADEC
 70
     0
  9
$DIMALTRND
 40
0.0
  9
$DIMAZIN
 70
     0
  9
$DIMDSEP
 70
    46
  9
$DIMATFIT
 70
     3
  9
$DIMFRAC
 70
     0
  9
$DIMLDRBLK
  1

  9
$DIMLUNIT
 70
     2
  9
$DIMLWD
 70
    -2
  9
$DIMLWE
 70
    -2
  9
$DIMTMOVE
 70
     2
  9
$LUNITS
 70
     2
  9
$LUPREC
 70
     3
  9
$SKETCHINC
 40
0.1
  9
$FILLETRAD
 40
0.0
  9
$AUNITS
 70
     0
  9
$AUPREC
 70
     0
  9
$MENU
  1
ACAD
  9
$ELEVATION
 40
0.0
  9
$PELEVATION
 40
0.0
  9
$THICKNESS
 40
0.0
  9
$LIMCHECK
 70
     0
  9
$CHAMFERA
 40
0.0
  9
$CHAMFERB
 40
0.0
  9
$CHAMFERC
 40
0.0
  9
$CHAMFERD
 40
0.0
  9
$SKPOLY
 70
     0
  9
$TDCREATE
 40
2451071.405263657
  9
$TDUCREATE
 40
2451071.571930324
  9
$TDUPDATE
 40
2457155.470984803
  9
$TDUUPDATE
 40
2457155.637651470
  9
$TDINDWG
 40
0.3394412731
  9
$TDUSRTIMER
 40
0.3394412616
  9
$USRTIMER
 70
     1
  9
$ANGBASE
 50
0.0
  9
$ANGDIR
 70
     0
  9
$PDMODE
 70
     0
  9
$PDSIZE
 40
0.0
  9
$PLINEWID
 40
0.0
  9
$SPLFRAME
 70
     0
  9
$SPLINETYPE
 70
     6
  9
$SPLINESEGS
 70
     8
  9
$HANDSEED
  5
138D
  9
$SURFTAB1
 70
     6
  9
$SURFTAB2
 70
     6
  9
$SURFTYPE
 70
     6
  9
$SURFU
 70
     6
  9
$SURFV
 70
     6
  9
$UCSBASE
  2

  9
$UCSNAME
  2

  9
$UCSORG
 10
0.0
 20
0.0
 30
0.0
  9
$UCSXDIR
 10
1.0
 20
0.0
 30
0.0
  9
$UCSYDIR
 10
0.0
 20
1.0
 30
0.0
  9
$UCSORTHOREF
  2

  9
$UCSORTHOVIEW
 70
     0
  9
$UCSORGTOP
 10
0.0
 20
0.0
 30
0.0
  9
$UCSORGBOTTOM
 10
0.0
 20
0.0
 30
0.0
  9
$UCSORGLEFT
 10
0.0
 20
0.0
 30
0.0
  9
$UCSORGRIGHT
 10
0.0
 20
0.0
 30
0.0
  9
$UCSORGFRONT
 10
0.0
 20
0.0
 30
0.0
  9
$UCSORGBACK
 10
0.0
 20
0.0
 30
0.0
  9
$PUCSBASE
  2

  9
$PUCSNAME
  2

  9
$PUCSORG
 10
0.0
 20
0.0
 30
0.0
  9
$PUCSXDIR
 10
1.0
 20
0.0
 30
0.0
  9
$PUCSYDIR
 10
0.0
 20
1.0
 30
0.0
  9
$PUCSORTHOREF
  2

  9
$PUCSORTHOVIEW
 70
     0
  9
$PUCSORGTOP
 10
0.0
 20
0.0
 30
0.0
  9
$PUCSORGBOTTOM
 10
0.0
 20
0.0
 30
0.0
  9
$PUCSORGLEFT
 10
0.0
 20
0.0
 30
0.0
  9
$PUCSORGRIGHT
 10
0.0
 20
0.0
 30
0.0
  9
$PUCSORGFRONT
 10
0.0
 20
0.0
 30
0.0
  9
$PUCSORGBACK
 10
0.0
 20
0.0
 30
0.0
  9
$USERI1
 70
     0
  9
$USERI2
 70
     0
  9
$USERI3
 70
     0
  9
$USERI4
 70
     0
  9
$USERI5
 70
     0
  9
$USERR1
 40
0.0
  9
$USERR2
 40
0.0
  9
$USERR3
 40
0.0
  9
$USERR4
 40
0.0
  9
$USERR5
 40
0.0
  9
$WORLDVIEW
 70
     1
  9
$SHADEDGE
 70
     3
  9
$SHADEDIF
 70
    70
  9
$TILEMODE
 70
     1
  9
$MAXACTVP
 70
    16
  9
$PINSBASE
 10
0.0
 20
0.0
 30
0.0
  9
$PLIMCHECK
 70
     0
  9
$PEXTMIN
 10
1.000000000000000E+20
 20
1.000000000000000E+20
 30
1.000000000000000E+20
  9
$PEXTMAX
 10
-1.000000000000000E+20
 20
-1.000000000000000E+20
 30
-1.000000000000000E+20
  9
$PLIMMIN
 10
0.0
 20
0.0
  9
$PLIMMAX
 10
12.0
 20
9.0
  9
$UNITMODE
 70
     0
  9
$VISRETAIN
 70
     0
  9
$PLINEGEN
 70
     0
  9
$PSLTSCALE
 70
     0
  9
$TREEDEPTH
 70
  3020
  9
$CMLSTYLE
  2
STANDARD
  9
$CMLJUST
 70
     0
  9
$CMLSCALE
 40
1.0
  9
$PROXYGRAPHICS
 70
     1
  9
$MEASUREMENT
 70
     0
  9
$CELWEIGHT
370
    -1
  9
$ENDCAPS
280
     0
  9
$JOINSTYLE
280
     0
  9
$LWDISPLAY
290
     0
  9
$INSUNITS
 70
     0
  9
$HYPERLINKBASE
  1

  9
$STYLESHEET
  1
1500BLACK.CTB
  9
$XEDIT
290
     1
  9
$CEPSNTYPE
380
     0
  9
$PSTYLEMODE
290
     1
  9
$FINGERPRINTGUID
  2
{34CEB425-D2AB-11D5-8B45-00A0CCD630B6}
  9
$VERSIONGUID
  2
{0467C467-DEC4-4998-A819-B430554CA6D8}
  9
$EXTNAMES
290
     1
  9
$PSVPSCALE
 40
0.0
  9
$OLESTARTUP
290
     0
  0
ENDSEC
  0
SECTION
  2
CLASSES
  0
CLASS
  1
DICTIONARYVAR
  2
AcDbDictionaryVar
  3
ObjectDBX Classes
 90
        0
280
     0
281
     0
  0
CLASS
  1
ACDBDICTIONARYWDFLT
  2
AcDbDictionaryWithDefault
  3
ObjectDBX Classes
 90
        0
280
     0
281
     0
  0
CLASS
  1
MATERIAL
  2
AcDbMaterial
  3
ObjectDBX Classes
 90
     1153
280
     0
281
     0
  0
CLASS
  1
VISUALSTYLE
  2
AcDbVisualStyle
  3
ObjectDBX Classes
 90
     4095
280
     0
281
     0
  0
CLASS
  1
TABLESTYLE
  2
AcDbTableStyle
  3
ObjectDBX Classes
 90
     4095
280
     0
281
     0
  0
CLASS
  1
SCALE
  2
AcDbScale
  3
ObjectDBX Classes
 90
     1153
280
     0
281
     0
  0
CLASS
  1
MLEADERSTYLE
  2
AcDbMLeaderStyle
  3
ACDB_MLEADERSTYLE_CLASS
 90
     4095
280
     0
281
     0
  0
CLASS
  1
ACDBSECTIONVIEWSTYLE
  2
AcDbSectionViewStyle
  3
ObjectDBX Classes
 90
     1025
280
     0
281
     0
  0
CLASS
  1
ACDBDETAILVIEWSTYLE
  2
AcDbDetailViewStyle
  3
ObjectDBX Classes
 90
     1025
280
     0
281
     0
  0
CLASS
  1
CELLSTYLEMAP
  2
AcDbCellStyleMap
  3
ObjectDBX Classes
 90
     1152
280
     0
281
     0
  0
CLASS
  1
ACDBPLACEHOLDER
  2
AcDbPlaceHolder
  3
ObjectDBX Classes
 90
        0
280
     0
281
     0
  0
CLASS
  1
LAYOUT
  2
AcDbLayout
  3
ObjectDBX Classes
 90
        0
280
     0
281
     0
  0
ENDSEC
  0
SECTION
  2
TABLES
  0
TABLE
  2
VPORT
  5
8
330
0
100
AcDbSymbolTable
 70
     1
  0
VPORT
  5
1251
330
8
100
AcDbSymbolTableRecord
100
AcDbViewportTableRecord
  2
*Active
 70
     0
 10
0.0
 20
0.0
 11
1.0
 21
1.0
 12
6.20967685632514
 22
2.2985327854566
 13
0.0
 23
0.0
 14
1.0
 24
1.0
 15
0.0
 25
0.0
 16
0.0
 26
0.0
 36
1.0
 17
0.0
 27
0.0
 37
0.0
 40
4.455742448777039
 41
2.080545229244113
 42
50.0
 43
0.0
 44
0.0
 50
0.0
 51
0.0
 71
     0
 72
   250
 73
     1
 74
     0
 75
     0
 76
     0
 77
     0
 78
     0
281
     0
 65
     1
110
0.0
120
0.0
130
0.0
111
1.0
121
0.0
131
0.0
112
0.0
122
1.0
132
0.0
 79
     0
146
0.0
1001
ACAD_NAV_VCDISPLAY
1070
     3
  0
ENDTAB
  0
TABLE
  2
LTYPE
  5
5
330
0
100
AcDbSymbolTable
 70
     3
  0
LTYPE
  5
11
330
5
100
AcDbSymbolTableRecord
100
AcDbLinetypeTableRecord
  2
BYBLOCK
 70
     0
  3

 72
    65
 73
     0
 40
0.0
  0
LTYPE
  5
12
330
5
100
AcDbSymbolTableRecord
100
AcDbLinetypeTableRecord
  2
BYLAYER
 70
     0
  3

 72
    65
 73
     0
 40
0.0
  0
LTYPE
  5
13
330
5
100
AcDbSymbolTableRecord
100
AcDbLinetypeTableRecord
  2
CONTINUOUS
 70
     0
  3
Solid line
 72
    65
 73
     0
 40
0.0
  0
LTYPE
  5
4D
330
5
100
AcDbSymbolTableRecord
100
AcDbLinetypeTableRecord
  2
CENTER
 70
     0
  3
____ _ ____ _ ____ _ ____ _ ____ _ ____ _ ____ 
 72
    65
 73
     4
 40
2.0
 49
1.25
 74
     0
 49
-0.25
 74
     0
 49
0.25
 74
     0
 49
-0.25
 74
     0
  0
LTYPE
  5
4E
330
5
100
AcDbSymbolTableRecord
100
AcDbLinetypeTableRecord
  2
HIDDEN
 70
     0
  3
__ __ __ __ __ __ __ __ __ __ __ __ __ __ __ __
 72
    65
 73
     2
 40
0.375
 49
0.25
 74
     0
 49
-0.125
 74
     0
  0
ENDTAB
  0
TABLE
  2
LAYER
  5
2
102
{ACAD_XDICTIONARY
360
12CF
102
}
330
0
100
AcDbSymbolTable
 70
     6
  0
LAYER
  5
E
102
{ACAD_XDICTIONARY
360
12C2
102
}
330
2
100
AcDbSymbolTableRecord
100
AcDbLayerTableRecord
  2
0
 70
     0
 62
     7
  6
CONTINUOUS
370
    -3
390
E19
  0
LAYER
  5
51
102
{ACAD_XDICTIONARY
360
12C4
102
}
330
2
100
AcDbSymbolTableRecord
100
AcDbLayerTableRecord
  2
2
 70
     0
 62
     2
  6
CONTINUOUS
370
    -3
390
E19
  0
LAYER
  5
52
102
{ACAD_XDICTIONARY
360
12C6
102
}
330
2
100
AcDbSymbolTableRecord
100
AcDbLayerTableRecord
  2
3
 70
     0
 62
     3
  6
CONTINUOUS
370
    -3
390
E19
  0
LAYER
  5
53
102
{ACAD_XDICTIONARY
360
12C8
102
}
330
2
100
AcDbSymbolTableRecord
100
AcDbLayerTableRecord
  2
4
 70
     0
 62
     4
  6
CONTINUOUS
370
    -3
390
E19
  0
LAYER
  5
54
330
2
100
AcDbSymbolTableRecord
100
AcDbLayerTableRecord
  2
DEFPOINTS
 70
     0
 62
     7
  6
CONTINUOUS
290
     0
370
    -3
390
E19
  0
LAYER
  5
55
102
{ACAD_XDICTIONARY
360
12CA
102
}
330
2
100
AcDbSymbolTableRecord
100
AcDbLayerTableRecord
  2
DIM
 70
     0
 62
     3
  6
CONTINUOUS
370
    -3
390
E19
  0
ENDTAB
  0
TABLE
  2
STYLE
  5
3
330
0
100
AcDbSymbolTable
 70
     4
  0
STYLE
  5
F
330
3
100
AcDbSymbolTableRecord
100
AcDbTextStyleTableRecord
  2
STANDARD
 70
     0
 40
0.0
 41
1.0
 50
0.0
 71
     0
 42
0.06
  3
txt
  4

  0
STYLE
  5
49
330
3
100
AcDbSymbolTableRecord
100
AcDbTextStyleTableRecord
  2
SIMPLEX
 70
     0
 40
0.0
 41
1.0
 50
0.0
 71
     0
 42
0.078
  3
SIMPLEX
  4

  0
STYLE
  5
4A
330
3
100
AcDbSymbolTableRecord
100
AcDbTextStyleTableRecord
  2
ROMANS
 70
     0
 40
0.0
 41
1.0
 50
0.0
 71
     0
 42
0.06
  3
romans
  4

  0
STYLE
  5
4C
330
3
100
AcDbSymbolTableRecord
100
AcDbTextStyleTableRecord
  2
T
 70
     0
 40
0.0
 41
1.0
 50
0.0
 71
     0
 42
1.0
  3
ROMI____.PFB
  4

  0
ENDTAB
  0
TABLE
  2
VIEW
  5
6
330
0
100
AcDbSymbolTable
 70
     0
  0
ENDTAB
  0
TABLE
  2
UCS
  5
7
330
0
100
AcDbSymbolTable
 70
     0
  0
ENDTAB
  0
TABLE
  2
APPID
  5
9
330
0
100
AcDbSymbolTable
 70
     5
  0
APPID
  5
10
330
9
100
AcDbSymbolTableRecord
100
AcDbRegAppTableRecord
  2
ACAD
 70
     0
  0
APPID
  5
12A5
330
9
100
AcDbSymbolTableRecord
100
AcDbRegAppTableRecord
  2
ACAD_EXEMPT_FROM_CAD_STANDARDS
 70
     0
  0
APPID
  5
12B6
330
9
100
AcDbSymbolTableRecord
100
AcDbRegAppTableRecord
  2
ACAD_DSTYLE_DIMRADIAL_EXTENSION
 70
     0
  0
APPID
  5
12D5
330
9
100
AcDbSymbolTableRecord
100
AcDbRegAppTableRecord
  2
ACAD_NAV_VCDISPLAY
 70
     0
  0
APPID
  5
1386
330
9
100
AcDbSymbolTableRecord
100
AcDbRegAppTableRecord
  2
ACAD_MLEADERVER
 70
     0
  0
ENDTAB
  0
TABLE
  2
DIMSTYLE
  5
A
330
0
100
AcDbSymbolTable
 70
     1
100
AcDbDimStyleTable
 71
     1
340
4DD
  0
DIMSTYLE
105
4DD
102
{ACAD_REACTORS
330
DEE
330
12B7
102
}
330
A
100
AcDbSymbolTableRecord
100
AcDbDimStyleTableRecord
  2
STANDARD
 70
     0
340
F
  0
ENDTAB
  0
TABLE
  2
BLOCK_RECORD
  5
1
330
0
100
AcDbSymbolTable
 70
     3
  0
BLOCK_RECORD
  5
17
102
{ACAD_XDICTIONARY
360
EE6
102
}
330
1
100
AcDbSymbolTableRecord
100
AcDbBlockTableRecord
  2
*MODEL_SPACE
340
E1C
  0
BLOCK_RECORD
  5
14
102
{ACAD_XDICTIONARY
360
EE4
102
}
330
1
100
AcDbSymbolTableRecord
100
AcDbBlockTableRecord
  2
*PAPER_SPACE
340
E1D
  0
BLOCK_RECORD
  5
DE1
330
1
100
AcDbSymbolTableRecord
100
AcDbBlockTableRecord
  2
*D0
340
0
  0
BLOCK_RECORD
  5
E24
330
1
100
AcDbSymbolTableRecord
100
AcDbBlockTableRecord
  2
*D1
340
0
  0
BLOCK_RECORD
  5
12B8
330
1
100
AcDbSymbolTableRecord
100
AcDbBlockTableRecord
  2
*D2
340
0
  0
ENDTAB
  0
ENDSEC
  0
SECTION
  2
BLOCKS
  0
BLOCK
  5
58
330
17
100
AcDbEntity
  8
0
100
AcDbBlockBegin
  2
*MODEL_SPACE
 70
     0
 10
0.0
 20
0.0
 30
0.0
  3
*MODEL_SPACE
  1

  0
ENDBLK
  5
59
330
17
100
AcDbEntity
  8
0
100
AcDbBlockEnd
  0
BLOCK
  5
56
330
14
100
AcDbEntity
 67
     1
  8
0
100
AcDbBlockBegin
  2
*PAPER_SPACE
 70
     0
 10
0.0
 20
0.0
 30
0.0
  3
*PAPER_SPACE
  1

  0
ENDBLK
  5
57
330
14
100
AcDbEntity
 67
     1
  8
0
100
AcDbBlockEnd
  0
BLOCK
  5
DEF
330
DE1
100
AcDbEntity
  8
0
100
AcDbBlockBegin
  2
*D0
 70
     1
 10
0.0
 20
0.0
 30
0.0
  3
*D0
  1

  0
LINE
  5
12AC
330
DE1
100
AcDbEntity
  8
3
 62
     0
370
    -2
100
AcDbLine
 10
6.73619063310103
 20
3.134210827954418
 30
0.0
 11
6.73619063310103
 21
3.588734607863214
 31
0.0
  0
LINE
  5
12AD
330
DE1
100
AcDbEntity
  8
3
 62
     0
370
    -2
100
AcDbLine
 10
7.288190633101027
 20
3.03171082795442
 30
0.0
 11
7.288190633101027
 21
3.588734607863214
 31
0.0
  0
LINE
  5
12AE
330
DE1
100
AcDbEntity
  8
3
 62
     0
370
    -2
100
AcDbLine
 10
6.79919063310103
 20
3.557734607863212
 30
0.0
 11
6.872690633101028
 21
3.557734607863212
 31
0.0
  0
LINE
  5
12AF
330
DE1
100
AcDbEntity
  8
3
 62
     0
370
    -2
100
AcDbLine
 10
7.225190633101028
 20
3.557734607863212
 30
0.0
 11
7.151690633101027
 21
3.557734607863212
 31
0.0
  0
SOLID
  5
12B0
330
DE1
100
AcDbEntity
  8
3
 62
     0
100
AcDbTrace
 10
6.79919063310103
 20
3.568234607863213
 30
0.0
 11
6.79919063310103
 21
3.547234607863212
 31
0.0
 12
6.73619063310103
 22
3.557734607863212
 32
0.0
 13
6.73619063310103
 23
3.557734607863212
 33
0.0
  0
SOLID
  5
12B1
330
DE1
100
AcDbEntity
  8
3
 62
     0
100
AcDbTrace
 10
7.225190633101028
 20
3.568234607863213
 30
0.0
 11
7.225190633101028
 21
3.547234607863212
 31
0.0
 12
7.288190633101027
 22
3.557734607863212
 32
0.0
 13
7.288190633101027
 23
3.557734607863212
 33
0.0
  0
MTEXT
  5
12B2
330
DE1
100
AcDbEntity
  8
3
 62
     0
100
AcDbMText
 10
7.012190633101027
 20
3.557734607863212
 30
0.0
 40
0.063
 41
0.0
 71
     5
 72
     1
  1
\A1;.552
  7
ROMANS
 73
     1
 44
1.0
1001
ACAD
1000
MTEXTBEGIN
1070
    73
1070
     1
1070
    44
1040
1.0
1070
    74
1070
     0
1000
MTEXTEND
  0
POINT
  5
12B3
330
DE1
100
AcDbEntity
  8
DEFPOINTS
 62
     0
100
AcDbPoint
 10
6.73619063310103
 20
3.103210827954418
 30
0.0
  0
POINT
  5
12B4
330
DE1
100
AcDbEntity
  8
DEFPOINTS
 62
     0
100
AcDbPoint
 10
7.288190633101027
 20
3.000710827954419
 30
0.0
  0
POINT
  5
12B5
330
DE1
100
AcDbEntity
  8
DEFPOINTS
 62
     0
100
AcDbPoint
 10
7.288190633101027
 20
3.557734607863212
 30
0.0
  0
ENDBLK
  5
DFA
330
DE1
100
AcDbEntity
  8
0
100
AcDbBlockEnd
  0
BLOCK
  5
E2F
330
E24
100
AcDbEntity
  8
0
100
AcDbBlockBegin
  2
*D1
 70
     1
 10
0.0
 20
0.0
 30
0.0
  3
*D1
  1

  0
LINE
  5
1226
330
E24
100
AcDbEntity
  8
3
 62
     0
100
AcDbLine
 10
6.830190633101032
 20
3.134210827954418
 30
0.0
 11
6.830190633101032
 21
3.343523928479642
 31
0.0
  0
LINE
  5
1227
330
E24
100
AcDbEntity
  8
3
 62
     0
100
AcDbLine
 10
7.233190633101031
 20
2.870210827954418
 30
0.0
 11
7.233190633101031
 21
3.343523928479642
 31
0.0
  0
LINE
  5
1228
330
E24
100
AcDbEntity
  8
3
 62
     0
100
AcDbLine
 10
6.767190633101031
 20
3.312523928479642
 30
0.0
 11
6.70419063310103
 21
3.312523928479642
 31
0.0
  0
LINE
  5
1229
330
E24
100
AcDbEntity
  8
3
 62
     0
100
AcDbLine
 10
7.296190633101032
 20
3.312523928479642
 30
0.0
 11
7.359190633101031
 21
3.312523928479642
 31
0.0
  0
SOLID
  5
122A
330
E24
100
AcDbEntity
  8
3
 62
     0
100
AcDbTrace
 10
6.767190633101031
 20
3.323023928479642
 30
0.0
 11
6.767190633101031
 21
3.302023928479642
 31
0.0
 12
6.830190633101032
 22
3.312523928479642
 32
0.0
 13
6.830190633101032
 23
3.312523928479642
 33
0.0
  0
SOLID
  5
122B
330
E24
100
AcDbEntity
  8
3
 62
     0
100
AcDbTrace
 10
7.296190633101032
 20
3.323023928479642
 30
0.0
 11
7.296190633101032
 21
3.302023928479642
 31
0.0
 12
7.233190633101031
 22
3.312523928479642
 32
0.0
 13
7.233190633101031
 23
3.312523928479642
 33
0.0
  0
MTEXT
  5
122C
330
E24
100
AcDbEntity
  8
3
 62
     0
100
AcDbMText
 10
7.031690633101031
 20
3.312523928479642
 30
0.0
 40
0.063
 41
0.0
 71
     5
 72
     1
  1
\A1;.403
  7
ROMANS
 73
     1
 44
1.0
1001
ACAD
1000
MTEXTBEGIN
1070
    73
1070
     1
1070
    44
1040
1.0
1070
    74
1070
     0
1000
MTEXTEND
  0
POINT
  5
122D
330
E24
100
AcDbEntity
  8
DEFPOINTS
 62
     0
100
AcDbPoint
 10
6.830190633101032
 20
3.103210827954418
 30
0.0
  0
POINT
  5
122E
330
E24
100
AcDbEntity
  8
DEFPOINTS
 62
     0
100
AcDbPoint
 10
7.233190633101031
 20
2.839210827954417
 30
0.0
  0
POINT
  5
122F
330
E24
100
AcDbEntity
  8
DEFPOINTS
 62
     0
100
AcDbPoint
 10
7.233190633101031
 20
3.312523928479642
 30
0.0
  0
ENDBLK
  5
E30
330
E24
100
AcDbEntity
  8
0
100
AcDbBlockEnd
  0
BLOCK
  5
12B9
330
12B8
100
AcDbEntity
  8
0
100
AcDbBlockBegin
  2
*D2
 70
     1
 10
0.0
 20
0.0
 30
0.0
  3
*D2
  1

  0
LINE
  5
12BB
330
12B8
100
AcDbEntity
  8
0
 62
     0
370
    -2
100
AcDbLine
 10
5.400849550721936
 20
3.205541584161326
 30
0.0
 11
5.420097764930551
 21
3.145554033371356
 31
0.0
  0
MTEXT
  5
12BC
102
{ACAD_XDICTIONARY
360
138B
102
}
330
12B8
100
AcDbEntity
  8
0
 62
     0
100
AcDbMText
 10
5.349062688684467
 20
3.366936661286721
 30
0.0
 40
0.063
 41
0.0
 71
     5
 72
     1
  1
\A1;\U+2205.738
  7
ROMANS
 11
0.3055272096605778
 21
-0.9521833458725382
 31
0.0
 73
     1
 44
1.0
1001
ACAD
1000
MTEXTBEGIN
1070
    73
1070
     1
1070
    44
1040
1.0
1070
    74
1070
     0
1000
MTEXTEND
  0
SOLID
  5
12BD
330
12B8
100
AcDbEntity
  8
0
 62
     0
100
AcDbTrace
 10
5.430095690062215
 20
3.148762069072791
 30
0.0
 11
5.410099839798888
 21
3.142345997669919
 31
0.0
 12
5.439345979139169
 22
3.085566482581385
 32
0.0
 13
5.439345979139169
 23
3.085566482581385
 33
0.0
  0
LINE
  5
12BE
330
12B8
100
AcDbEntity
  8
0
 62
     0
370
    -2
100
AcDbLine
 10
5.489085519503922
 20
2.734210827954418
 30
0.0
 11
5.615085519503922
 21
2.734210827954418
 31
0.0
  0
LINE
  5
12BF
330
12B8
100
AcDbEntity
  8
0
 62
     0
370
    -2
100
AcDbLine
 10
5.552085519503922
 20
2.671210827954419
 30
0.0
 11
5.552085519503922
 21
2.797210827954419
 31
0.0
  0
POINT
  5
12C0
330
12B8
100
AcDbEntity
  8
DEFPOINTS
 62
     0
100
AcDbPoint
 10
5.439345979139169
 20
3.085566482581385
 30
0.0
  0
POINT
  5
12C1
330
12B8
100
AcDbEntity
  8
DEFPOINTS
 62
     0
100
AcDbPoint
 10
5.664825059868674
 20
2.382855173327453
 30
0.0
  0
ENDBLK
  5
12BA
330
12B8
100
AcDbEntity
  8
0
100
AcDbBlockEnd
  0
ENDSEC
  0
SECTION
  2
ENTITIES
  0
LINE
  5
37B
102
{ACAD_REACTORS
330
DD2
102
}
330
17
100
AcDbEntity
  8
0
100
AcDbLine
 10
6.830190633101032
 20
2.365210827954419
 30
0.0
 11
6.830190633101032
 21
2.474210827954419
 31
0.0
  0
LINE
  5
3BD
102
{ACAD_REACTORS
330
DD2
102
}
330
17
100
AcDbEntity
  8
0
  6
Continuous
100
AcDbLine
 10
6.955190633101032
 20
2.906210827954419
 30
0.0
 11
7.190190633101031
 21
2.906210827954419
 31
0.0
  0
LINE
  5
3BE
102
{ACAD_REACTORS
330
DD2
102
}
330
17
100
AcDbEntity
  8
0
  6
Continuous
100
AcDbLine
 10
6.955190633101032
 20
2.56221082795442
 30
0.0
 11
7.190190633101027
 21
2.56221082795442
 31
0.0
  0
LINE
  5
3C0
102
{ACAD_REACTORS
330
DD2
102
}
330
17
100
AcDbEntity
  8
0
100
AcDbLine
 10
6.955190633101032
 20
2.969210827954418
 30
0.0
 11
7.28819063310103
 21
2.969210827954413
 31
0.0
  0
LINE
  5
3C1
102
{ACAD_REACTORS
330
DD2
102
}
330
17
100
AcDbEntity
  8
0
100
AcDbLine
 10
6.99519063310103
 20
3.000710827954419
 30
0.0
 11
7.288190633101027
 21
3.000710827954419
 31
0.0
  0
LWPOLYLINE
  5
3C2
102
{ACAD_REACTORS
330
DD2
102
}
330
17
100
AcDbEntity
  8
0
100
AcDbPolyline
 90
        5
 70
     0
 43
0.0
 10
6.861190633101028
 20
2.453710827954419
 10
6.89119063310103
 20
2.42521082795442
 10
6.92119063310103
 20
2.453710827954419
 10
6.951190633101028
 20
2.42521082795442
 10
6.986190633101028
 20
2.453710827954419
  0
LINE
  5
3C9
102
{ACAD_REACTORS
330
DD2
102
}
330
17
100
AcDbEntity
  8
0
  6
Continuous
100
AcDbLine
 10
6.830190633101032
 20
2.474210827954419
 30
0.0
 11
6.861190633101028
 21
2.474210827954419
 31
0.0
  0
LINE
  5
3CA
102
{ACAD_REACTORS
330
DD2
102
}
330
17
100
AcDbEntity
  8
0
100
AcDbLine
 10
6.861190633101028
 20
2.474210827954419
 30
0.0
 11
6.861190633101028
 21
2.453710827954419
 31
0.0
  0
LINE
  5
3CB
102
{ACAD_REACTORS
330
DD2
102
}
330
17
100
AcDbEntity
  8
0
100
AcDbLine
 10
6.986190633101028
 20
2.453710827954419
 30
0.0
 11
6.99519063310103
 21
2.445160827954418
 31
0.0
  0
LINE
  5
3CC
102
{ACAD_REACTORS
330
DD2
102
}
330
17
100
AcDbEntity
  8
0
100
AcDbLine
 10
6.99519063310103
 20
2.445160827954418
 30
0.0
 11
6.99519063310103
 21
2.56221082795442
 31
0.0
  0
LINE
  5
3CD
102
{ACAD_REACTORS
330
DD2
102
}
330
17
100
AcDbEntity
  8
0
100
AcDbLine
 10
6.955190633101032
 20
2.499210827954418
 30
0.0
 11
6.99519063310103
 21
2.499210827954419
 31
0.0
  0
LINE
  5
3CE
102
{ACAD_REACTORS
330
DD2
102
}
330
17
100
AcDbEntity
  8
0
100
AcDbLine
 10
6.955190633101032
 20
2.499210827954418
 30
0.0
 11
6.955190633101032
 21
2.56221082795442
 31
0.0
  0
POINT
  5
3CF
330
17
100
AcDbEntity
  8
0
  6
ByBlock
100
AcDbPoint
 10
6.986190633101028
 20
2.453710827954419
 30
0.0
  0
LINE
  5
3D1
102
{ACAD_REACTORS
330
DD2
102
}
330
17
100
AcDbEntity
  8
0
100
AcDbLine
 10
6.99519063310103
 20
3.000710827954419
 30
0.0
 11
6.99519063310103
 21
3.023260827954419
 31
0.0
  0
LINE
  5
3D2
102
{ACAD_REACTORS
330
DD2
102
}
330
17
100
AcDbEntity
  8
0
100
AcDbLine
 10
6.986190633101028
 20
3.014710827954418
 30
0.0
 11
6.99519063310103
 21
3.023260827954419
 31
0.0
  0
LINE
  5
3D4
102
{ACAD_REACTORS
330
DD2
102
}
330
17
100
AcDbEntity
  8
0
100
AcDbLine
 10
6.830190633101032
 20
3.103210827954418
 30
0.0
 11
6.830190633101032
 21
2.994210827954418
 31
0.0
  0
LWPOLYLINE
  5
3D5
102
{ACAD_REACTORS
330
DD2
102
}
330
17
100
AcDbEntity
  8
0
100
AcDbPolyline
 90
        5
 70
     0
 43
0.0
 10
6.861190633101028
 20
3.014710827954418
 10
6.89119063310103
 20
3.043210827954418
 10
6.92119063310103
 20
3.014710827954418
 10
6.951190633101028
 20
3.043210827954418
 10
6.986190633101028
 20
3.014710827954418
  0
LINE
  5
3DC
102
{ACAD_REACTORS
330
DD2
102
}
330
17
100
AcDbEntity
  8
0
100
AcDbLine
 10
6.861190633101028
 20
3.014710827954418
 30
0.0
 11
6.861190633101028
 21
2.994210827954418
 31
0.0
  0
LINE
  5
3DD
102
{ACAD_REACTORS
330
DD2
102
}
330
17
100
AcDbEntity
  8
0
  6
Continuous
100
AcDbLine
 10
6.830190633101032
 20
2.994210827954418
 30
0.0
 11
6.861190633101028
 21
2.994210827954418
 31
0.0
  0
LINE
  5
3DE
102
{ACAD_REACTORS
330
DD2
102
}
330
17
100
AcDbEntity
  8
0
100
AcDbLine
 10
6.955190633101032
 20
2.906210827954419
 30
0.0
 11
6.955190633101032
 21
2.969210827954418
 31
0.0
  0
LINE
  5
3DF
330
17
100
AcDbEntity
  8
0
100
AcDbLine
 10
7.19019063310103
 20
2.467710827954419
 30
0.0
 11
7.190190633101027
 21
2.56221082795442
 31
0.0
  0
LINE
  5
3E0
102
{ACAD_REACTORS
330
DD2
102
}
330
17
100
AcDbEntity
  8
0
100
AcDbLine
 10
7.288190633101032
 20
2.467710827954419
 30
0.0
 11
7.288190633101027
 21
3.000710827954419
 31
0.0
  0
LINE
  5
3E1
330
17
100
AcDbEntity
  8
0
100
AcDbLine
 10
7.19019063310103
 20
2.467710827954419
 30
0.0
 11
7.288190633101032
 21
2.467710827954419
 31
0.0
  0
LINE
  5
3E2
330
17
100
AcDbEntity
  8
0
100
AcDbLine
 10
7.19019063310103
 20
2.499210827954423
 30
0.0
 11
7.28819063310103
 21
2.499210827954424
 31
0.0
  0
LINE
  5
4EC
102
{ACAD_REACTORS
330
DD2
102
}
330
17
100
AcDbEntity
  8
0
100
AcDbLine
 10
6.73619063310103
 20
3.103210827954418
 30
0.0
 11
6.830190633101032
 21
3.103210827954418
 31
0.0
  0
LINE
  5
4ED
102
{ACAD_REACTORS
330
DD2
102
}
330
17
100
AcDbEntity
  8
0
100
AcDbLine
 10
6.73619063310103
 20
2.365210827954419
 30
0.0
 11
6.830190633101032
 21
2.365210827954419
 31
0.0
  0
MTEXT
  5
58F
330
17
100
AcDbEntity
  8
0
100
AcDbMText
 10
-0.6916593441488336
 20
1.867381878131538
 30
0.0
 40
0.063
 41
0.0
 71
     6
 72
     1
  1
\A1;
  7
ROMANS
 73
     1
 44
1.0
1001
ACAD
1000
MTEXTBEGIN
1070
    73
1070
     1
1070
    44
1040
1.0
1070
    74
1070
     0
1000
MTEXTEND
  0
LINE
  5
765
102
{ACAD_REACTORS
330
DD2
102
}
330
17
100
AcDbEntity
  8
0
100
AcDbLine
 10
6.73619063310103
 20
2.365210827954419
 30
0.0
 11
6.73619063310103
 21
2.609210827954418
 31
0.0
  0
TEXT
  5
787
330
17
100
AcDbEntity
  8
3
100
AcDbText
 10
0.5746283706990403
 20
2.318703028757095
 30
0.0
 40
0.063
  1
 
  7
ROMANS
 72
     2
 11
0.6376283706990403
 21
2.318703028757095
 31
0.0
100
AcDbText
  0
MTEXT
  5
78C
330
17
100
AcDbEntity
  8
0
100
AcDbMText
 10
2.819267310910964
 20
2.153674656539435
 30
0.0
 40
0.063
 41
0.0
 71
     6
 72
     1
  1
\A1;
  7
ROMANS
 73
     1
 44
1.0
1001
ACAD
1000
MTEXTBEGIN
1070
    73
1070
     1
1070
    44
1040
1.0
1070
    74
1070
     0
1000
MTEXTEND
  0
LINE
  5
7AC
330
17
100
AcDbEntity
  8
0
100
AcDbLine
 10
6.026390425307465
 20
1.077054269477156
 30
0.0
 11
6.534380363697537
 21
1.077054269477156
 31
0.0
  0
LINE
  5
7AD
330
17
100
AcDbEntity
  8
0
100
AcDbLine
 10
6.026390425307465
 20
1.135668493137542
 30
0.0
 11
6.534380363697537
 21
1.135668493137542
 31
0.0
  0
TEXT
  5
7AE
330
17
100
AcDbEntity
  8
3
100
AcDbText
 10
6.041675749855844
 20
1.094798159150284
 30
0.0
 40
0.0247685554963471
  1
DIMENSIONS ARE IN INCHES
 41
0.9163641132346455
  7
SIMPLEX
 72
     5
 11
6.518313073119622
 21
1.094798159150284
 31
0.0
100
AcDbText
  0
TEXT
  5
7AF
330
17
100
AcDbEntity
  8
3
100
AcDbText
 10
6.041675749855844
 20
1.154915134031869
 30
0.0
 40
0.0247685554963471
  1
UNLESS OTHERWISE SPECIFIED
 41
0.8436671689696847
  7
SIMPLEX
 72
     5
 11
6.518313073119622
 21
1.154915134031869
 31
0.0
100
AcDbText
  0
LINE
  5
7B0
330
17
100
AcDbEntity
  8
0
100
AcDbLine
 10
6.026390425307465
 20
0.7566579928861348
 30
0.0
 11
6.534380363697537
 21
0.7566579928861348
 31
0.0
  0
LINE
  5
7B1
330
17
100
AcDbEntity
  8
0
100
AcDbLine
 10
6.026390425307465
 20
1.194293128407875
 30
0.0
 11
8.598426655059794
 21
1.194293128407875
 31
0.0
  0
LINE
  5
7B3
330
17
100
AcDbEntity
  8
4
100
AcDbLine
 10
9.035926655059796
 20
0.2862927784078968
 30
0.0
 11
3.510926655059797
 21
0.2862927784078977
 31
0.0
  0
LINE
  5
7B4
330
17
100
AcDbEntity
  8
4
100
AcDbLine
 10
8.598426655059794
 20
0.6862927784078972
 30
0.0
 11
3.948426655059797
 21
0.6862927784078976
 31
0.0
  0
LINE
  5
7B5
330
17
100
AcDbEntity
  8
4
100
AcDbLine
 10
8.598426655059794
 20
4.136292778407896
 30
0.0
 11
3.948426655059797
 21
4.136292778407896
 31
0.0
  0
LINE
  5
7B6
330
17
100
AcDbEntity
  8
4
100
AcDbLine
 10
3.510926655059797
 20
0.2862927784078977
 30
0.0
 11
3.510926655059797
 21
4.536292778407896
 31
0.0
  0
LINE
  5
7B7
330
17
100
AcDbEntity
  8
4
100
AcDbLine
 10
3.948426655059797
 20
0.6862927784078976
 30
0.0
 11
3.948426655059797
 21
4.136292778407896
 31
0.0
  0
LINE
  5
7BB
330
17
100
AcDbEntity
  8
3
100
AcDbLine
 10
4.010680778690848
 20
1.988245903407896
 30
0.0
 11
3.948426655059797
 21
1.988245903407896
 31
0.0
  0
TEXT
  5
7BC
330
17
100
AcDbEntity
  8
2
100
AcDbText
 10
3.963417909590698
 20
2.301579894294679
 30
0.0
 40
0.039
  1
3
  7
SIMPLEX
 72
     1
 11
3.976417909590698
 21
2.301579894294679
 31
0.0
100
AcDbText
  0
LINE
  5
7BD
330
17
100
AcDbEntity
  8
4
100
AcDbLine
 10
6.026390425307465
 20
1.194293128407875
 30
0.0
 11
6.026390425307465
 21
0.686292778407876
 31
0.0
  0
TEXT
  5
7C8
330
17
100
AcDbEntity
  8
3
100
AcDbText
 10
6.114571692315961
 20
0.7700830855948229
 30
0.0
 40
0.0309098445084086
  1
HOLES %%P .005
  7
SIMPLEX
 72
     1
 11
6.282367991075894
 21
0.7700830855948229
 31
0.0
100
AcDbText
  0
TEXT
  5
7C9
330
17
100
AcDbEntity
  8
3
100
AcDbText
 10
6.159902099783932
 20
0.7253002826947821
 30
0.0
 40
0.0210186942657178
  1
DO NOT SCALE
  7
SIMPLEX
 72
     1
 11
6.278007143753204
 21
0.7253002826947821
 31
0.0
100
AcDbText
  0
TEXT
  5
7CA
330
17
100
AcDbEntity
  8
3
100
AcDbText
 10
6.141886076127603
 20
0.6953538403817432
 30
0.0
 40
0.0210186942657178
  1
READ ALL NOTES
  7
SIMPLEX
 72
     1
 11
6.278007143753204
 21
0.6953538403817432
 31
0.0
100
AcDbText
  0
TEXT
  5
7CB
330
17
100
AcDbEntity
  8
3
100
AcDbText
 10
6.138857998715425
 20
1.030066378035809
 30
0.0
 40
0.0309098445084086
  1
TOLERANCES
  7
SIMPLEX
 72
     1
 11
6.282367991075894
 21
1.030066378035809
 31
0.0
100
AcDbText
  0
TEXT
  5
7CC
330
17
100
AcDbEntity
  8
3
100
AcDbText
 10
6.154312920969629
 20
0.9820363050810623
 30
0.0
 40
0.0309098445084086
  1
.XX %%P .010
  7
SIMPLEX
 72
     1
 11
6.282367991075894
 21
0.9820363050810623
 31
0.0
100
AcDbText
  0
TEXT
  5
7CD
330
17
100
AcDbEntity
  8
3
100
AcDbText
 10
6.11825143570982
 20
0.9290480002094971
 30
0.0
 40
0.0309098445084086
  1
.XXX %%P .005 
  7
SIMPLEX
 72
     1
 11
6.282367991075894
 21
0.9290480002094971
 31
0.0
100
AcDbText
  0
TEXT
  5
7CE
330
17
100
AcDbEntity
  8
3
100
AcDbText
 10
6.1005886674193
 20
0.8230713904663875
 30
0.0
 40
0.0309098445084086
  1
ANGLES %%P 1/2%%D
  7
SIMPLEX
 72
     1
 11
6.282367991075894
 21
0.8230713904663875
 31
0.0
100
AcDbText
  0
TEXT
  5
7CF
330
17
100
AcDbEntity
  8
3
100
AcDbText
 10
6.05569579801423
 20
0.8760596953379531
 30
0.0
 40
0.0309098445084086
  1
FRACTIONS %%P 1/32
  7
SIMPLEX
 72
     1
 11
6.282367991075894
 21
0.8760596953379531
 31
0.0
100
AcDbText
  0
LINE
  5
7D2
330
17
100
AcDbEntity
  8
3
100
AcDbLine
 10
4.010680778690848
 20
2.704261528407896
 30
0.0
 11
3.948426655059797
 21
2.704261528407896
 31
0.0
  0
TEXT
  5
7D3
330
17
100
AcDbEntity
  8
2
100
AcDbText
 10
3.968711457881673
 20
3.015053437695392
 30
0.0
 40
0.039
  1
2
  7
SIMPLEX
 72
     1
 11
3.981711457881673
 21
3.015053437695392
 31
0.0
100
AcDbText
  0
LINE
  5
7D4
330
17
100
AcDbEntity
  8
3
100
AcDbLine
 10
4.010680778690848
 20
3.420277153407896
 30
0.0
 11
3.948426655059797
 21
3.420277153407896
 31
0.0
  0
TEXT
  5
7D5
330
17
100
AcDbEntity
  8
2
100
AcDbText
 10
3.971775052447842
 20
3.734333715390596
 30
0.0
 40
0.039
  1
1
  7
SIMPLEX
 72
     1
 11
3.9764179095907
 21
3.734333715390596
 31
0.0
100
AcDbText
  0
TEXT
  5
7D6
330
17
100
AcDbEntity
  8
2
100
AcDbText
 10
4.434228714806153
 20
4.072572288168101
 30
0.0
 40
0.039
  1
A
  7
SIMPLEX
 72
     1
 11
4.449085857663297
 21
4.072572288168101
 31
0.0
100
AcDbText
  0
LINE
  5
7D7
330
17
100
AcDbEntity
  8
3
100
AcDbLine
 10
4.826936533565238
 20
4.073855890710937
 30
0.0
 11
4.826936533565238
 21
4.136292778407898
 31
0.0
  0
TEXT
  5
7D8
330
17
100
AcDbEntity
  8
2
100
AcDbText
 10
5.195746786160686
 20
4.072572288168101
 30
0.0
 40
0.039
  1
B
  7
SIMPLEX
 72
     1
 11
5.208746786160686
 21
4.072572288168101
 31
0.0
100
AcDbText
  0
LINE
  5
7D9
330
17
100
AcDbEntity
  8
3
100
AcDbLine
 10
5.581234557864149
 20
4.073855890710937
 30
0.0
 11
5.581234557864149
 21
4.136292778407898
 31
0.0
  0
TEXT
  5
7DA
330
17
100
AcDbEntity
  8
2
100
AcDbText
 10
5.932618397085694
 20
4.072572288168101
 30
0.0
 40
0.039
  1
C
  7
SIMPLEX
 72
     1
 11
5.946546968514265
 21
4.072572288168101
 31
0.0
100
AcDbText
  0
LINE
  5
7DB
330
17
100
AcDbEntity
  8
3
100
AcDbLine
 10
6.335532582163062
 20
4.073855890710937
 30
0.0
 11
6.335532582163062
 21
4.136292778407898
 31
0.0
  0
LINE
  5
7DC
330
17
100
AcDbEntity
  8
4
100
AcDbLine
 10
9.035926655059796
 20
4.536292778407896
 30
0.0
 11
9.035926655059796
 21
0.2862927784078968
 31
0.0
  0
LINE
  5
7DD
330
17
100
AcDbEntity
  8
4
100
AcDbLine
 10
8.598426655059794
 20
4.136292778407896
 30
0.0
 11
8.598426655059798
 21
0.6862927784078982
 31
0.0
  0
TEXT
  5
7DE
330
17
100
AcDbEntity
  8
3
100
AcDbText
 10
8.313398703508937
 20
0.8643625003591633
 30
0.0
 40
0.0195380745534632
  1
SCALE:
  7
SIMPLEX
100
AcDbText
  0
TEXT
  5
7DF
330
17
100
AcDbEntity
  8
3
100
AcDbText
 10
8.054689642592871
 20
0.7157689483751512
 30
0.0
 40
0.039
  1
5502.10
  7
SIMPLEX
 72
     1
 11
8.166118214021443
 21
0.7157689483751512
 31
0.0
100
AcDbText
  0
LINE
  5
7E0
330
17
100
AcDbEntity
  8
0
100
AcDbLine
 10
7.897669002686748
 20
0.8307113466528335
 30
0.0
 11
8.598426655059798
 21
0.8307113466528335
 31
0.0
  0
LINE
  5
7E1
330
17
100
AcDbEntity
  8
0
100
AcDbLine
 10
6.534380363697517
 20
1.039718302103342
 30
0.0
 11
8.598426655059798
 21
1.039718302103342
 31
0.0
  0
LINE
  5
7E2
330
17
100
AcDbEntity
  8
0
100
AcDbLine
 10
6.534380363697517
 20
0.9207496730494364
 30
0.0
 11
8.598426655059798
 21
0.9207496730494364
 31
0.0
  0
LINE
  5
7E3
330
17
100
AcDbEntity
  8
0
100
AcDbLine
 10
6.534380363697537
 20
0.686292778407876
 30
0.0
 11
6.534380363697537
 21
1.194282716797927
 31
0.0
  0
LINE
  5
7E4
330
17
100
AcDbEntity
  8
0
100
AcDbLine
 10
6.534380363697537
 20
0.8537540089822709
 30
0.0
 11
7.897669002686748
 21
0.8537540089822709
 31
0.0
  0
TEXT
  5
7E5
330
17
100
AcDbEntity
  8
3
100
AcDbText
 10
6.554179663339422
 20
0.8793313100786463
 30
0.0
 40
0.0195380745534632
  1
FILE PATH
  7
SIMPLEX
100
AcDbText
  0
TEXT
  5
7E6
330
17
100
AcDbEntity
  8
3
100
AcDbText
 10
6.551064119157437
 20
0.8107871336852419
 30
0.0
 40
0.0195380745534632
  1
MAT'L DESCRIPTION:
  7
SIMPLEX
100
AcDbText
  0
TEXT
  5
7E7
330
17
100
AcDbEntity
  8
3
100
AcDbText
 10
6.555229489323138
 20
0.998901971263297
 30
0.0
 40
0.0195380745534632
  1
NAME:
  7
SIMPLEX
100
AcDbText
  0
TEXT
  5
7E8
330
17
100
AcDbEntity
  8
3
100
AcDbText
 10
6.70923946944338
 20
0.7320811548724056
 30
0.0
 40
0.039
  1
MATERIAL: ALUM. ALLOY 2011-T3
  7
SIMPLEX
 72
     1
 11
7.21623946944338
 21
0.7320811548724056
 31
0.0
100
AcDbText
  0
TEXT
  5
7E9
330
17
100
AcDbEntity
  8
3
100
AcDbText
 10
6.965352268037951
 20
0.8726536289801188
 30
0.0
 40
0.0290726549355533
  1
DWG/PART NO/550210
  7
SIMPLEX
 72
     1
 11
7.218007483549307
 21
0.8726536289801188
 31
0.0
100
AcDbText
  0
TEXT
  5
7EA
330
17
100
AcDbEntity
  8
3
100
AcDbText
 10
7.916221565086277
 20
0.7940870063711856
 30
0.0
 40
0.02
  1
PART/DWG. NO.
  7
SIMPLEX
100
AcDbText
  0
LINE
  5
7EB
330
17
100
AcDbEntity
  8
0
100
AcDbLine
 10
7.897669002686748
 20
0.686292778407876
 30
0.0
 11
7.897669002686748
 21
0.9207496730494364
 31
0.0
  0
TEXT
  5
7EC
330
17
100
AcDbEntity
  8
3
100
AcDbText
 10
7.007377237083876
 20
0.9418673497519208
 30
0.0
 40
0.0390761491069264
  1
ADJUSTABLE BASE SCREW ASSEMBLY
  7
SIMPLEX
 72
     1
 11
7.566538323113942
 21
0.9418673497519208
 31
0.0
100
AcDbText
  0
TEXT
  5
7ED
330
17
100
AcDbEntity
  8
3
100
AcDbText
 10
8.126938741000312
 20
0.8671684894865688
 30
0.0
 40
0.0193817699570355
  1
OF
  7
SIMPLEX
100
AcDbText
  0
TEXT
  5
7EE
330
17
100
AcDbEntity
  8
3
100
AcDbText
 10
7.926296649640423
 20
0.8673345391199314
 30
0.0
 40
0.02
  1
SHEET
  7
SIMPLEX
100
AcDbText
  0
TEXT
  5
7EF
330
17
100
AcDbEntity
  8
3
100
AcDbText
 10
8.058880248160747
 20
0.8566424507086827
 30
0.0
 40
0.0390761491069264
  1
1
  7
SIMPLEX
100
AcDbText
  0
TEXT
  5
7F0
330
17
100
AcDbEntity
  8
3
100
AcDbText
 10
8.211139698107411
 20
0.8566424507086827
 30
0.0
 40
0.0390761491069264
  1
1
  7
SIMPLEX
100
AcDbText
  0
LINE
  5
7F1
330
17
100
AcDbEntity
  8
0
100
AcDbLine
 10
8.260928482166356
 20
0.8307113466528335
 30
0.0
 11
8.260928482166356
 21
0.9207496730494364
 31
0.0
  0
LINE
  5
7F7
330
17
100
AcDbEntity
  8
0
100
AcDbLine
 10
8.430804050763978
 20
0.6862927784078972
 30
0.0
 11
8.430804050763978
 21
0.8307113466528335
 31
0.0
  0
TEXT
  5
7F8
330
17
100
AcDbEntity
  8
3
100
AcDbText
 10
8.503942863158183
 20
0.7157689483751512
 30
0.0
 40
0.039
  1
B
  7
SIMPLEX
 72
     1
 11
8.516942863158183
 21
0.7157689483751512
 31
0.0
100
AcDbText
  0
TEXT
  5
7F9
330
17
100
AcDbEntity
  8
3
100
AcDbText
 10
8.489895631062527
 20
0.7939661965895644
 30
0.0
 40
0.0195380745534632
  1
REV.
  7
SIMPLEX
100
AcDbText
  0
TEXT
  5
7FA
330
17
100
AcDbEntity
  8
3
100
AcDbText
 10
8.447004325609023
 20
0.8604138045169712
 30
0.0
 40
0.039
  1
2=1
  7
SIMPLEX
 72
     1
 11
8.494361468466166
 21
0.8604138045169712
 31
0.0
100
AcDbText
  0
TEXT
  5
7FB
330
17
100
AcDbEntity
  8
2
100
AcDbText
 10
7.44286702386571
 20
4.072572288168101
 30
0.0
 40
0.039
  1
E
  7
SIMPLEX
 72
     1
 11
7.454938452437139
 21
4.072572288168101
 31
0.0
100
AcDbText
  0
TEXT
  5
7FC
330
17
100
AcDbEntity
  8
2
100
AcDbText
 10
6.676812337403799
 20
4.072572288168101
 30
0.0
 40
0.039
  1
D
  7
SIMPLEX
 72
     1
 11
6.689812337403798
 21
4.072572288168101
 31
0.0
100
AcDbText
  0
LINE
  5
7FD
330
17
100
AcDbEntity
  8
3
100
AcDbLine
 10
7.089830606461973
 20
4.073855890710937
 30
0.0
 11
7.089830606461973
 21
4.136292778407898
 31
0.0
  0
LINE
  5
7FE
330
17
100
AcDbEntity
  8
3
100
AcDbLine
 10
7.844128630760883
 20
4.073855890710937
 30
0.0
 11
7.844128630760883
 21
4.136292778407898
 31
0.0
  0
TEXT
  5
7FF
330
17
100
AcDbEntity
  8
2
100
AcDbText
 10
8.197062765827151
 20
4.072572288168101
 30
0.0
 40
0.039
  1
F
  7
SIMPLEX
 72
     1
 11
8.209134194398579
 21
4.072572288168101
 31
0.0
100
AcDbText
  0
LINE
  5
800
330
17
100
AcDbEntity
  8
4
100
AcDbLine
 10
9.035926655059796
 20
4.536292778407896
 30
0.0
 11
3.510926655059797
 21
4.536292778407896
 31
0.0
  0
LINE
  5
807
330
17
100
AcDbEntity
  8
4
100
AcDbLine
 10
3.510926655059797
 20
0.2862927784078977
 30
0.0
 11
3.510926655059797
 21
0.3563958197565831
 31
0.0
  0
LINE
  5
80A
330
17
100
AcDbEntity
  8
DIM
  6
CENTER
100
AcDbLine
 10
5.034874565427625
 20
2.734210827954418
 30
0.0
 11
6.069296473580218
 21
2.734210827954418
 31
0.0
  0
LINE
  5
80B
330
17
100
AcDbEntity
  8
DIM
  6
CENTER
100
AcDbLine
 10
5.552085519503922
 20
2.216999873878123
 30
0.0
 11
5.552085519503922
 21
3.251421782030716
 31
0.0
  0
LWPOLYLINE
  5
811
330
17
100
AcDbEntity
  8
4
  6
Continuous
100
AcDbPolyline
 90
      114
 70
     0
 43
0.0
 10
6.924465369402862
 20
1.075482697107328
 10
6.923669906024831
 20
1.076133530780269
 10
6.922874442646777
 20
1.07707362386341
 10
6.922078979268726
 20
1.078375291209295
 10
6.921283515890694
 20
1.079966217965401
 10
6.920560367365206
 20
1.081846404131684
 10
6.919981848544809
 20
1.084160479413255
 10
6.919547959429501
 20
1.08683612895759
 10
6.919258700019322
 20
1.08987335276467
 10
6.919258700019322
 20
1.137745785152426
 10
6.919186385166778
 20
1.139047452498311
 10
6.918897125756558
 20
1.140421434696762
 10
6.918390921788705
 20
1.141795416895192
 10
6.917667773263216
 20
1.143097084241077
 10
6.916727680180077
 20
1.144398751586981
 10
6.91557064253928
 20
1.145700418932867
 10
6.914268975193394
 20
1.146929771426208
 10
6.912750363289856
 20
1.148159123919547
 10
6.911087121681206
 20
1.149243846707779
 10
6.909206935514923
 20
1.150256254643485
 10
6.907109804791008
 20
1.151124032874083
 10
6.904940359214502
 20
1.151919496252114
 10
6.902481654227822
 20
1.152498015072512
 10
6.899950634388597
 20
1.153004219040365
 10
6.897202669991717
 20
1.153293478450564
 10
6.894310075889746
 20
1.153438108155654
 10
6.891200537230124
 20
1.153293478450564
 10
6.888163313423044
 20
1.152859589335256
 10
6.885198404468511
 20
1.151991811104659
 10
6.882378125219067
 20
1.150907088316428
 10
6.879702475674752
 20
1.149460791265432
 10
6.877099140982982
 20
1.147797549656804
 10
6.874712750848845
 20
1.145845048637956
 10
6.872470990419795
 20
1.143675603061474
 10
6.870446174548428
 20
1.141289212927337
 10
6.868565988382142
 20
1.138758193088112
 10
6.866975061626037
 20
1.136082543543777
 10
6.865673394280152
 20
1.133262264294352
 10
6.8645886714919
 20
1.130297355339817
 10
6.863793208113869
 20
1.127260131532737
 10
6.863287004146014
 20
1.124150592873115
 10
6.863142374440927
 20
1.120968739360947
 10
6.863142374440927
 20
1.085679091316795
 10
6.862997744735817
 20
1.083437330887768
 10
6.862491540767983
 20
1.081557144721486
 10
6.861840707095042
 20
1.079966217965401
 10
6.860972928864423
 20
1.078664550619494
 10
6.860105150633847
 20
1.077652142683809
 10
6.859237372403249
 20
1.076784364453212
 10
6.858369594172652
 20
1.076133530780269
 10
6.857718760499713
 20
1.075555011959872
 10
6.873049509240195
 20
1.075555011959872
 10
6.875074325111566
 20
1.07584427137007
 10
6.876809881572762
 20
1.076567419895557
 10
6.878328493476321
 20
1.077652142683809
 10
6.879630160822205
 20
1.079098439734804
 10
6.880714883610436
 20
1.080689366490888
 10
6.88151034698849
 20
1.082424922952083
 10
6.882016550956342
 20
1.08423279426582
 10
6.882305810366519
 20
1.086040665579537
 10
6.882450440071607
 20
1.088644000271329
 10
6.882088865808887
 20
1.091319649815664
 10
6.881582661841033
 20
1.093922984507435
 10
6.88093182816809
 20
1.09645400434668
 10
6.880064049937494
 20
1.100069746974136
 10
6.87926858655944
 20
1.103685489601614
 10
6.878545438033957
 20
1.10730123222909
 10
6.877822289508468
 20
1.110916974856569
 10
6.877171455835524
 20
1.114532717484046
 10
6.876665251867673
 20
1.118220774964067
 10
6.876231362752362
 20
1.121836517591545
 10
6.875942103342184
 20
1.125524575071565
 10
6.875869788489642
 20
1.128561798878644
 10
6.876086733047273
 20
1.131671337538268
 10
6.876592937015125
 20
1.134708561345347
 10
6.877388400393159
 20
1.137673470299882
 10
6.878545438033957
 20
1.140421434696762
 10
6.880064049937494
 20
1.142952454535987
 10
6.881944236103778
 20
1.145121900112469
 10
6.884330626237914
 20
1.146929771426208
 10
6.885704608436364
 20
1.147652919951695
 10
6.887150905487338
 20
1.148159123919547
 10
6.888669517390879
 20
1.148520698182291
 10
6.890188129294418
 20
1.148737642739946
 10
6.891779056050522
 20
1.148737642739946
 10
6.893369982806587
 20
1.148520698182291
 10
6.894888594710145
 20
1.148159123919547
 10
6.896407206613664
 20
1.147652919951695
 10
6.897781188812117
 20
1.146929771426208
 10
6.899082856158018
 20
1.14606199319561
 10
6.900312208651341
 20
1.144977270407359
 10
6.901324616587027
 20
1.143747917914019
 10
6.902192394817644
 20
1.142373935715589
 10
6.90291554334313
 20
1.140783008959504
 10
6.903421747310985
 20
1.139047452498311
 10
6.903638691868618
 20
1.137167266332028
 10
6.903638691868618
 20
1.085823721021905
 10
6.903711006721163
 20
1.084594368528564
 10
6.903927951278817
 20
1.083509645740312
 10
6.904289525541561
 20
1.082424922952083
 10
6.90472341465687
 20
1.081412515016375
 10
6.905301933477268
 20
1.080544736785777
 10
6.905952767150211
 20
1.079676958555202
 10
6.906675915675696
 20
1.07888149517715
 10
6.907543693906295
 20
1.078158346651663
 10
6.908483786989433
 20
1.077579827831264
 10
6.909423880072576
 20
1.077001309010866
 10
6.910436288008263
 20
1.076567419895557
 10
6.911521010796514
 20
1.076205845632814
 10
6.912605733584767
 20
1.07584427137007
 10
6.913762771225563
 20
1.075627326812415
 10
6.914847494013793
 20
1.075555011959872
 10
6.916004531654569
 20
1.075482697107328
 10
6.924465369402862
 20
1.075482697107328
  0
LINE
  5
812
330
17
100
AcDbEntity
  8
0
100
AcDbLine
 10
6.588535664052512
 20
1.177205435472663
 30
0.0
 11
6.588535664052512
 21
1.177205435472663
 31
0.0
  0
LWPOLYLINE
  5
813
330
17
100
AcDbEntity
  8
4
  6
Continuous
100
AcDbPolyline
 90
       18
 70
     0
 43
0.0
 10
6.590713512033897
 20
1.087169862484886
 10
6.590683873394971
 20
1.0866956442619
 10
6.590624596117103
 20
1.086221426038915
 10
6.590476402922414
 20
1.085806485093799
 10
6.590298571088782
 20
1.085421182787629
 10
6.590002184699429
 20
1.085065519120407
 10
6.589646521032188
 20
1.084798771369956
 10
6.589231580087067
 20
1.084620939536345
 10
6.588698084586212
 20
1.084532023619529
 10
6.588194227724303
 20
1.084561662258475
 10
6.587720009501317
 20
1.084709855453161
 10
6.587364345834074
 20
1.084976603203589
 10
6.587067959444722
 20
1.085332266870834
 10
6.586830850333217
 20
1.085747207815929
 10
6.586653018499602
 20
1.08619178739999
 10
6.586534463943861
 20
1.086666005622975
 10
6.586504825304938
 20
1.087169862484886
 10
6.590713512033897
 20
1.087169862484886
  0
LWPOLYLINE
  5
814
330
17
100
AcDbEntity
  8
4
  6
Continuous
100
AcDbPolyline
 90
       18
 70
     0
 43
0.0
 10
6.586475186665992
 20
1.088918542182142
 10
6.586445548027045
 20
1.090193003656412
 10
6.586445548027045
 20
1.091586019686425
 10
6.586445548027045
 20
1.093097590272199
 10
6.586564102582787
 20
1.094727715413692
 10
6.586771573055367
 20
1.096446756472023
 10
6.587156875361535
 20
1.098284352086075
 10
6.587749648140263
 20
1.100210863616965
 10
6.588609168669417
 20
1.102226291064649
 10
6.589320496003908
 20
1.100329418172706
 10
6.589883630143688
 20
1.098462183919709
 10
6.590298571088782
 20
1.096654226944582
 10
6.590594957478159
 20
1.094905547247325
 10
6.59077278931179
 20
1.093216144827939
 10
6.59083206658966
 20
1.091674935603241
 10
6.59083206658966
 20
1.090222642295359
 10
6.59077278931179
 20
1.088918542182142
 10
6.586475186665992
 20
1.088918542182142
  0
LWPOLYLINE
  5
815
330
17
100
AcDbEntity
  8
4
  6
Continuous
100
AcDbPolyline
 90
       18
 70
     0
 43
0.0
 10
6.598479990883052
 20
1.088918542182142
 10
6.598450352244102
 20
1.090193003656412
 10
6.598450352244102
 20
1.091586019686425
 10
6.598450352244102
 20
1.093097590272199
 10
6.598568906799846
 20
1.094727715413692
 10
6.598776377272405
 20
1.096446756472023
 10
6.599161679578593
 20
1.098284352086075
 10
6.5997544523573
 20
1.100210863616965
 10
6.600613972886478
 20
1.102226291064649
 10
6.601325300220942
 20
1.100329418172706
 10
6.601888434360726
 20
1.098462183919709
 10
6.602303375305838
 20
1.096654226944582
 10
6.602599761695214
 20
1.094905547247325
 10
6.602777593528847
 20
1.093216144827939
 10
6.602836870806697
 20
1.091674935603241
 10
6.602836870806697
 20
1.090222642295359
 10
6.602777593528847
 20
1.088918542182142
 10
6.598479990883052
 20
1.088918542182142
  0
LWPOLYLINE
  5
816
330
17
100
AcDbEntity
  8
4
  6
Continuous
100
AcDbPolyline
 90
       18
 70
     0
 43
0.0
 10
6.602718316250957
 20
1.087169862484886
 10
6.602688677612031
 20
1.0866956442619
 10
6.602629400334161
 20
1.086221426038915
 10
6.602481207139472
 20
1.085806485093799
 10
6.602303375305838
 20
1.085421182787629
 10
6.602006988916487
 20
1.085065519120407
 10
6.601651325249244
 20
1.084798771369956
 10
6.601236384304127
 20
1.084620939536345
 10
6.600702888803271
 20
1.084532023619529
 10
6.60019903194136
 20
1.084561662258475
 10
6.599724813718374
 20
1.084709855453161
 10
6.59936915005113
 20
1.084976603203589
 10
6.599072763661755
 20
1.085332266870834
 10
6.598835654550275
 20
1.085747207815929
 10
6.598657822716662
 20
1.08619178739999
 10
6.598539268160901
 20
1.086666005622975
 10
6.598509629521976
 20
1.087169862484886
 10
6.602718316250957
 20
1.087169862484886
  0
LWPOLYLINE
  5
817
330
17
100
AcDbEntity
  8
4
  6
Continuous
100
AcDbPolyline
 90
       21
 70
     0
 43
0.0
 10
6.584963616080217
 20
1.172143619920335
 10
6.584963616080217
 20
1.087229139762757
 10
6.588283143641116
 20
1.054300611904283
 10
6.592225082619672
 20
1.087229139762757
 10
6.592225082619672
 20
1.171995426725647
 10
6.592136166702876
 20
1.173210610922047
 10
6.591899057591374
 20
1.174277601923759
 10
6.591543393924128
 20
1.175166761091862
 10
6.591098814340088
 20
1.175907727065274
 10
6.590535680200284
 20
1.176470861205077
 10
6.589913268782613
 20
1.176885802150172
 10
6.589261218726013
 20
1.177122911261675
 10
6.588609168669417
 20
1.177211827178469
 10
6.587927479973875
 20
1.1771525499006
 10
6.587275429917275
 20
1.176915440789118
 10
6.586653018499602
 20
1.176500499844002
 10
6.586089884359822
 20
1.175967004343145
 10
6.585645304775762
 20
1.175255677008677
 10
6.585289641108539
 20
1.174366517840577
 10
6.585052531997034
 20
1.173329165477789
 10
6.584963616080217
 20
1.172143619920335
  0
LWPOLYLINE
  5
818
330
17
100
AcDbEntity
  8
4
  6
Continuous
100
AcDbPolyline
 90
       21
 70
     0
 43
0.0
 10
6.596968420297277
 20
1.165095469004945
 10
6.596968420297277
 20
1.087229139762757
 10
6.600287947858157
 20
1.054300611904283
 10
6.604229886836731
 20
1.087229139762757
 10
6.604229886836731
 20
1.164947275810259
 10
6.604140970919911
 20
1.166162460006659
 10
6.603903861808411
 20
1.16722945100837
 10
6.603548198141186
 20
1.168118610176472
 10
6.603103618557125
 20
1.168859576149887
 10
6.602540484417342
 20
1.169422710289689
 10
6.601918072999672
 20
1.169837651234803
 10
6.601266022943072
 20
1.170074760346285
 10
6.600613972886478
 20
1.170163676263103
 10
6.599932284190932
 20
1.170104398985231
 10
6.599280234134334
 20
1.169867289873729
 10
6.598657822716662
 20
1.169452348928613
 10
6.59809468857688
 20
1.168918853427757
 10
6.597650108992819
 20
1.168207526093289
 10
6.597294445325576
 20
1.167318366925188
 10
6.597057336214072
 20
1.16628101456242
 10
6.596968420297277
 20
1.165095469004945
  0
LWPOLYLINE
  5
819
330
17
100
AcDbEntity
  8
4
  6
Continuous
100
AcDbPolyline
 90
       21
 70
     0
 43
0.0
 10
6.572632786834882
 20
1.160005767714243
 10
6.572632786834882
 20
1.087258778401702
 10
6.576278339424058
 20
1.054300611904283
 10
6.580042446569
 20
1.087110585207015
 10
6.580042446569
 20
1.16027251546467
 10
6.579953530652184
 20
1.161458061022125
 10
6.579716421540702
 20
1.162465774745967
 10
6.579360757873456
 20
1.163325295275123
 10
6.578886539650472
 20
1.164036622609611
 10
6.578323405510667
 20
1.164540479471521
 10
6.577700994093017
 20
1.164925781777692
 10
6.577019305397474
 20
1.165133252250249
 10
6.576337616701931
 20
1.16519252952812
 10
6.575655928006387
 20
1.165073974972379
 10
6.574974239310842
 20
1.16480722722195
 10
6.574351827893193
 20
1.164392286276834
 10
6.573788693753392
 20
1.163829152137053
 10
6.573314475530425
 20
1.163088186163639
 10
6.57295881186316
 20
1.162228665634464
 10
6.572721702751678
 20
1.161191313271697
 10
6.572632786834882
 20
1.160005767714243
  0
LWPOLYLINE
  5
81A
330
17
100
AcDbEntity
  8
4
  6
Continuous
100
AcDbPolyline
 90
       18
 70
     0
 43
0.0
 10
6.573877609670207
 20
1.088799987626401
 10
6.573847971031281
 20
1.090519028684711
 10
6.573966525587023
 20
1.092297347020914
 10
6.574173996059558
 20
1.094075665357095
 10
6.574470382448932
 20
1.09582434505435
 10
6.574855684755103
 20
1.09748410883479
 10
6.575300264339164
 20
1.098966040781618
 10
6.575804121201076
 20
1.100270140894835
 10
6.576367255340877
 20
1.101277854618677
 10
6.576841473563843
 20
1.100299779533759
 10
6.577315691786852
 20
1.099054956698435
 10
6.577760271370889
 20
1.097543386112661
 10
6.578145573677057
 20
1.095853983693297
 10
6.578471598705357
 20
1.094075665357095
 10
6.57870870781686
 20
1.092267708381968
 10
6.578827262372602
 20
1.090489390045787
 10
6.578827262372602
 20
1.088799987626401
 10
6.573877609670207
 20
1.088799987626401
  0
LWPOLYLINE
  5
81B
330
17
100
AcDbEntity
  8
4
  6
Continuous
100
AcDbPolyline
 90
       18
 70
     0
 43
0.0
 10
6.578767985094732
 20
1.087169862484886
 10
6.578767985094732
 20
1.0866956442619
 10
6.57870870781686
 20
1.086221426038915
 10
6.578560514622173
 20
1.085776846454874
 10
6.578323405510667
 20
1.085332266870834
 10
6.578027019121317
 20
1.084946964564644
 10
6.577612078176201
 20
1.08465057817529
 10
6.577137859953217
 20
1.084443107702733
 10
6.576545087174491
 20
1.084383830424862
 10
6.575952314395762
 20
1.084472746341657
 10
6.575448457533851
 20
1.08465057817529
 10
6.575003877949789
 20
1.084917325925719
 10
6.574618575643621
 20
1.085302628231888
 10
6.574351827893193
 20
1.085717569177004
 10
6.574114718781713
 20
1.086162148761044
 10
6.573996164225947
 20
1.086666005622975
 10
6.573936886948077
 20
1.087169862484886
 10
6.578767985094732
 20
1.087169862484886
  0
LWPOLYLINE
  5
81C
330
17
100
AcDbEntity
  8
4
  6
Continuous
100
AcDbPolyline
 90
       61
 70
     0
 43
0.0
 10
6.748907415539632
 20
1.118293089816611
 10
6.751004546263549
 20
1.118437719521721
 10
6.753029362134942
 20
1.11872697893192
 10
6.754837233448657
 20
1.119160868047208
 10
6.756500475057307
 20
1.119739386867606
 10
6.757946772108304
 20
1.120462535393093
 10
6.759320754306755
 20
1.121257998771145
 10
6.760550106800095
 20
1.122198091854288
 10
6.761634829588325
 20
1.123282814642518
 10
6.762574922671466
 20
1.124439852283314
 10
6.763370386049497
 20
1.125669204776654
 10
6.764021219722462
 20
1.126970872122539
 10
6.764527423690295
 20
1.128417169173534
 10
6.764961312805602
 20
1.129863466224529
 10
6.765250572215781
 20
1.131382078128069
 10
6.765395201920912
 20
1.132973004884153
 10
6.765467516773457
 20
1.134636246492803
 10
6.765395201920912
 20
1.136154858396343
 10
6.765105942510691
 20
1.137673470299882
 10
6.764744368247949
 20
1.139119767350855
 10
6.76416584942755
 20
1.14056606440185
 10
6.763515015754608
 20
1.14194004660028
 10
6.762719552376553
 20
1.143241713946187
 10
6.761779459293436
 20
1.144471066439527
 10
6.760767051357728
 20
1.145628104080322
 10
6.759610013716932
 20
1.146640512016009
 10
6.758380661223593
 20
1.14758060509915
 10
6.75715130873025
 20
1.148376068477202
 10
6.755777326531821
 20
1.149099217002689
 10
6.754331029480827
 20
1.149677735823087
 10
6.752884732429832
 20
1.150039310085831
 10
6.751366120526312
 20
1.150328569496031
 10
6.749847508622752
 20
1.150400884348574
 10
6.699227111838117
 20
1.150400884348574
 10
6.699950260363621
 20
1.149822365528176
 10
6.700601094036566
 20
1.149243846707779
 10
6.70125192770953
 20
1.148593013034835
 10
6.701830446529928
 20
1.148014494214438
 10
6.702408965350304
 20
1.14743597539404
 10
6.702987484170703
 20
1.146712826868552
 10
6.703493688138535
 20
1.145989678343066
 10
6.703999892106389
 20
1.145121900112469
 10
6.704723040631876
 20
1.143530973356385
 10
6.705301559452274
 20
1.141650787190102
 10
6.70566313371504
 20
1.139842915876363
 10
6.705807763420128
 20
1.138396618825369
 10
6.70588007827267
 20
1.073385566383389
 10
6.723307957737116
 20
1.088644000271329
 10
6.723307957737116
 20
1.118799293784465
 10
6.730973332107336
 20
1.11887160863701
 10
6.757078993877706
 20
1.075627326812415
 10
6.779568913020601
 20
1.075482697107328
 10
6.77819493082215
 20
1.076278160485359
 10
6.776820948623721
 20
1.077218253568521
 10
6.775519281277812
 20
1.078158346651663
 10
6.774217613931927
 20
1.079243069439894
 10
6.77298826143859
 20
1.080255477375579
 10
6.771831223797793
 20
1.081412515016375
 10
6.770674186156996
 20
1.08256955265717
 10
6.7695171485162
 20
1.083798905150512
 10
6.748907415539632
 20
1.118293089816611
  0
LWPOLYLINE
  5
81D
330
17
100
AcDbEntity
  8
4
  6
Continuous
100
AcDbPolyline
 90
       21
 70
     0
 43
0.0
 10
6.748618156129412
 20
1.134636246492803
 10
6.748401211571777
 20
1.132394486063754
 10
6.747750377898835
 20
1.130297355339817
 10
6.746737969963127
 20
1.128489484026079
 10
6.7453639877647
 20
1.126898557269994
 10
6.743700746156052
 20
1.12559688992411
 10
6.741820559989767
 20
1.124656796840967
 10
6.739723429265851
 20
1.12407827802057
 10
6.737553983689346
 20
1.123861333462915
 10
6.723018698326892
 20
1.123861333462915
 10
6.723018698326892
 20
1.142446250568134
 10
6.721572401275921
 20
1.145989678343066
 10
6.737843243099543
 20
1.145989678343066
 10
6.740012688676028
 20
1.145772733785412
 10
6.742109819399965
 20
1.145121900112469
 10
6.743917690713702
 20
1.144109492176782
 10
6.745508617469789
 20
1.142735509978332
 10
6.746810284815672
 20
1.140999953517139
 10
6.747750377898835
 20
1.139119767350855
 10
6.748401211571777
 20
1.136950321774374
 10
6.748618156129412
 20
1.134636246492803
  0
LWPOLYLINE
  5
81E
330
17
100
AcDbEntity
  8
4
  6
Continuous
100
AcDbPolyline
 90
       59
 70
     0
 43
0.0
 10
6.648978289782103
 20
1.130152725634729
 10
6.656354404742146
 20
1.135793284133578
 10
6.657511442382944
 20
1.135720969281033
 10
6.658596165171192
 20
1.135576339575944
 10
6.659680887959427
 20
1.135287080165745
 10
6.660693295895113
 20
1.134997820755547
 10
6.661778018683362
 20
1.134563931640237
 10
6.66279042661907
 20
1.134057727672405
 10
6.663730519702189
 20
1.133479208852007
 10
6.664670612785352
 20
1.132828375179063
 10
6.665538391015928
 20
1.1321775415061
 10
6.666406169246527
 20
1.131454392980614
 10
6.667273947477124
 20
1.130731244455126
 10
6.668069410855156
 20
1.129935781077074
 10
6.668792559380662
 20
1.129140317699043
 10
6.669515707906172
 20
1.128344854320989
 10
6.670166541579111
 20
1.127621705795504
 10
6.67074506039949
 20
1.12682624241745
 10
6.672769876270883
 20
1.123644388905282
 10
6.674360803026968
 20
1.120317905688005
 10
6.675517840667763
 20
1.116774477913071
 10
6.676313304045815
 20
1.113158735285594
 10
6.676819508013648
 20
1.109470677805573
 10
6.677036452571302
 20
1.105710305473007
 10
6.677181082276391
 20
1.101949933140442
 10
6.677108767423846
 20
1.098189560807854
 10
6.676964137718758
 20
1.096237059789026
 10
6.676602563455992
 20
1.094356873622744
 10
6.676024044635594
 20
1.092549002309006
 10
6.675300896110107
 20
1.090813445847812
 10
6.674433117879511
 20
1.089150204239182
 10
6.673348395091282
 20
1.087559277483078
 10
6.672191357450484
 20
1.086112980432103
 10
6.670889690104599
 20
1.084738998233653
 10
6.669443393053605
 20
1.083509645740312
 10
6.667997096002608
 20
1.082352608099517
 10
6.666406169246527
 20
1.081340200163831
 10
6.664815242490441
 20
1.080400107080689
 10
6.663224315734336
 20
1.079604643702635
 10
6.661561074125731
 20
1.079026124882239
 10
6.659897832517081
 20
1.078519920914406
 10
6.658306905760976
 20
1.078158346651663
 10
6.657366812677852
 20
1.078230661504207
 10
6.656426719594692
 20
1.078302976356751
 10
6.655486626511572
 20
1.078519920914406
 10
6.654618848280954
 20
1.078809180324604
 10
6.653751070050377
 20
1.079170754587349
 10
6.652955606672326
 20
1.079604643702635
 10
6.652160143294272
 20
1.080183162523034
 10
6.65150930962133
 20
1.080761681343432
 10
6.650786161095843
 20
1.08148482986894
 10
6.650279957127988
 20
1.082280293246972
 10
6.649846068012702
 20
1.083148071477568
 10
6.649484493749956
 20
1.084088164560711
 10
6.649267549192302
 20
1.085028257643853
 10
6.649122919487192
 20
1.086040665579537
 10
6.648978289782103
 20
1.087053073515245
 10
6.648978289782103
 20
1.088065481450932
 10
6.648978289782103
 20
1.130152725634729
  0
LWPOLYLINE
  5
81F
330
17
100
AcDbEntity
  8
4
  6
Continuous
100
AcDbPolyline
 90
       83
 70
     0
 43
0.0
 10
6.678338119917187
 20
1.142590880273244
 10
6.677181082276391
 20
1.143675603061474
 10
6.676024044635594
 20
1.144760325849725
 10
6.67486700699482
 20
1.145772733785412
 10
6.67363765450148
 20
1.146712826868552
 10
6.672335987155574
 20
1.147508290246606
 10
6.670889690104599
 20
1.148231438772093
 10
6.669298763348495
 20
1.148882272445035
 10
6.667490892034757
 20
1.149316161560344
 10
6.633792170746711
 20
1.130658929602583
 10
6.633647541041622
 20
1.08256955265717
 10
6.633719855894163
 20
1.08177408927914
 10
6.633864485599253
 20
1.080906311048543
 10
6.634153745009473
 20
1.080183162523034
 10
6.634515319272197
 20
1.079460013997547
 10
6.634949208387506
 20
1.078809180324604
 10
6.635455412355358
 20
1.078158346651663
 10
6.636033931175759
 20
1.077652142683809
 10
6.636684764848699
 20
1.077145938715955
 10
6.637769487636952
 20
1.076495105043012
 10
6.638926525277724
 20
1.075916586222614
 10
6.640083562918522
 20
1.075410382254782
 10
6.641312915411861
 20
1.074976493139474
 10
6.642542267905201
 20
1.074687233729274
 10
6.643771620398543
 20
1.074397974319075
 10
6.645073287744429
 20
1.074181029761442
 10
6.646374955090335
 20
1.073964085203787
 10
6.647676622436217
 20
1.073891770351242
 10
6.648978289782103
 20
1.073819455498677
 10
6.650279957127988
 20
1.073819455498677
 10
6.651653939326418
 20
1.073891770351242
 10
6.652955606672326
 20
1.073964085203787
 10
6.654257274018232
 20
1.074108714908877
 10
6.655558941364116
 20
1.074253344613987
 10
6.656860608709999
 20
1.074470289171642
 10
6.65837922061354
 20
1.074687233729274
 10
6.659897832517081
 20
1.075048807992017
 10
6.661344129568053
 20
1.075410382254782
 10
6.66279042661907
 20
1.07584427137007
 10
6.664236723670043
 20
1.076350475337924
 10
6.665683020721017
 20
1.076928994158322
 10
6.667057002919487
 20
1.077579827831264
 10
6.66843098511792
 20
1.078230661504207
 10
6.669732652463803
 20
1.078953810029694
 10
6.671106634662233
 20
1.079749273407746
 10
6.672335987155574
 20
1.080617051638343
 10
6.67363765450148
 20
1.08148482986894
 10
6.67486700699482
 20
1.082424922952083
 10
6.676024044635594
 20
1.083365016035223
 10
6.677181082276391
 20
1.08437742397091
 10
6.678338119917187
 20
1.085389831906596
 10
6.680145991230928
 20
1.087270018072878
 10
6.681809232839574
 20
1.089222519091727
 10
6.68340015959566
 20
1.091247334963099
 10
6.684774141794111
 20
1.093416780539603
 10
6.686075809139996
 20
1.095730855821173
 10
6.687232846780791
 20
1.098044931102766
 10
6.68817293986391
 20
1.100431321236902
 10
6.689040718094532
 20
1.102890026223583
 10
6.689691551767472
 20
1.105348731210264
 10
6.690197755735304
 20
1.107952065902034
 10
6.690559329998047
 20
1.110483085741259
 10
6.690776274555704
 20
1.113086420433051
 10
6.690848589408246
 20
1.115617440272275
 10
6.690703959703137
 20
1.118220774964067
 10
6.690414700292959
 20
1.120824109655836
 10
6.68998081117765
 20
1.123355129495084
 10
6.689619236914907
 20
1.124729111693512
 10
6.689257662652162
 20
1.126103093891964
 10
6.688823773536856
 20
1.127477076090393
 10
6.688317569569022
 20
1.128778743436278
 10
6.687739050748623
 20
1.130080410782184
 10
6.687088217075682
 20
1.131382078128069
 10
6.686437383402718
 20
1.132611430621409
 10
6.685714234877229
 20
1.133840783114749
 10
6.684918771499198
 20
1.13507013560809
 10
6.684050993268603
 20
1.136227173248886
 10
6.683183215038004
 20
1.137384210889683
 10
6.682315436807409
 20
1.138468933677913
 10
6.681375343724266
 20
1.139553656466165
 10
6.68036293578858
 20
1.14056606440185
 10
6.679350527852894
 20
1.141578472337537
 10
6.678338119917187
 20
1.142590880273244
  0
LWPOLYLINE
  5
820
330
17
100
AcDbEntity
  8
4
  6
Continuous
100
AcDbPolyline
 90
        5
 70
     0
 43
0.0
 10
6.901541561144702
 20
1.113520309548339
 10
6.880353309347693
 20
1.127043186975104
 10
6.880353309347693
 20
1.113809568958538
 10
6.901613875997246
 20
1.10238382225573
 10
6.901541561144702
 20
1.113520309548339
  0
LWPOLYLINE
  5
821
330
17
100
AcDbEntity
  8
4
  6
Continuous
100
AcDbPolyline
 90
      271
 70
     0
 43
0.0
 10
6.837866169329232
 20
1.121547258181345
 10
6.836853761393546
 20
1.122125777001744
 10
6.835841353457838
 20
1.122631980969575
 10
6.834756630669606
 20
1.123065870084885
 10
6.833744222733923
 20
1.123499759200172
 10
6.83265949994567
 20
1.12393364831546
 10
6.83157477715742
 20
1.124222907725659
 10
6.830490054369187
 20
1.124584481988424
 10
6.829405331580956
 20
1.124873741398624
 10
6.828248293940164
 20
1.125090685956257
 10
6.827163571151911
 20
1.125235315661366
 10
6.825934218658571
 20
1.125379945366456
 10
6.824777181017775
 20
1.125524575071565
 10
6.823547828524434
 20
1.12559688992411
 10
6.822318476031091
 20
1.12559688992411
 10
6.821089123537752
 20
1.12559688992411
 10
6.819787456191867
 20
1.125524575071565
 10
6.80272115099019
 20
1.110338456036169
 10
6.804022818336075
 20
1.110627715446369
 10
6.805324485681959
 20
1.110916974856569
 10
6.806626153027863
 20
1.111206234266768
 10
6.807927820373772
 20
1.111423178824421
 10
6.809229487719657
 20
1.111640123382054
 10
6.810531155065542
 20
1.111784753087165
 10
6.811832822411427
 20
1.111929382792254
 10
6.813206804609856
 20
1.112001697644799
 10
6.814508471955742
 20
1.112074012497364
 10
6.815810139301646
 20
1.112074012497364
 10
6.817111806647554
 20
1.112074012497364
 10
6.818413473993437
 20
1.112001697644799
 10
6.819715141339321
 20
1.111857067939709
 10
6.821016808685206
 20
1.111640123382054
 10
6.822318476031091
 20
1.111423178824421
 10
6.823620143376976
 20
1.111133919414222
 10
6.824487921607597
 20
1.110844660004024
 10
6.825428014690717
 20
1.110627715446369
 10
6.826295792921312
 20
1.110266141183625
 10
6.827163571151911
 20
1.109976881773427
 10
6.828031349382507
 20
1.109615307510684
 10
6.828899127613103
 20
1.109253733247918
 10
6.829694590991133
 20
1.10881984413263
 10
6.830562369221754
 20
1.108385955017342
 10
6.831357832599786
 20
1.107879751049489
 10
6.832080981125272
 20
1.107373547081635
 10
6.832804129650758
 20
1.106867343113804
 10
6.833527278176267
 20
1.106288824293405
 10
6.834178111849211
 20
1.105637990620462
 10
6.834828945522152
 20
1.10498715694752
 10
6.835407464342551
 20
1.104264008422012
 10
6.835985983162946
 20
1.103540859896524
 10
6.836853761393546
 20
1.102239192550619
 10
6.837576909919031
 20
1.100792895499645
 10
6.838083113886887
 20
1.09934659844865
 10
6.838444688149628
 20
1.097755671692566
 10
6.838661632707284
 20
1.096237059789026
 10
6.83858931785474
 20
1.094646133032943
 10
6.838227743591976
 20
1.093127521129404
 10
6.837649224771577
 20
1.091681224078407
 10
6.836781446540999
 20
1.090379556732522
 10
6.835769038605294
 20
1.089294833944271
 10
6.834612000964497
 20
1.08835474086113
 10
6.833238018766066
 20
1.087559277483078
 10
6.831791721715096
 20
1.086908443810135
 10
6.83034542466408
 20
1.086402239842302
 10
6.828754497908016
 20
1.085968350726993
 10
6.827235886004456
 20
1.085679091316795
 10
6.82651273747897
 20
1.08560677646425
 10
6.825717274100937
 20
1.085462146759161
 10
6.824994125575427
 20
1.085389831906596
 10
6.824198662197376
 20
1.085389831906596
 10
6.823403198819343
 20
1.08531751705405
 10
6.822680050293857
 20
1.08531751705405
 10
6.821884586915785
 20
1.08531751705405
 10
6.821089123537752
 20
1.08531751705405
 10
6.820365975012266
 20
1.08531751705405
 10
6.819570511634235
 20
1.085389831906596
 10
6.818775048256161
 20
1.085389831906596
 10
6.81797958487813
 20
1.085534461611705
 10
6.817256436352638
 20
1.08560677646425
 10
6.816460972974589
 20
1.08575140616936
 10
6.81573782444908
 20
1.085896035874449
 10
6.814942361071048
 20
1.086040665579537
 10
6.814074582840475
 20
1.086257610137193
 10
6.813206804609856
 20
1.086474554694848
 10
6.812411341231825
 20
1.086763814105047
 10
6.811543563001227
 20
1.087053073515245
 10
6.810748099623173
 20
1.087414647777989
 10
6.809952636245141
 20
1.087776222040732
 10
6.80915717286709
 20
1.088210111156041
 10
6.808361709489036
 20
1.088644000271329
 10
6.807638560963551
 20
1.089077889386617
 10
6.806843097585518
 20
1.08958409335447
 10
6.806119949060011
 20
1.090090297322324
 10
6.805396800534503
 20
1.090596501290157
 10
6.804673652009014
 20
1.09110270525801
 10
6.804022818336075
 20
1.091681224078407
 10
6.803299669810588
 20
1.092259742898805
 10
6.802648836137644
 20
1.092838261719204
 10
6.801564113349392
 20
1.093922984507435
 10
6.800551705413707
 20
1.095080022148231
 10
6.799539297478021
 20
1.096237059789026
 10
6.798526889542315
 20
1.097394097429823
 10
6.797586796459195
 20
1.098551135070597
 10
6.796719018228576
 20
1.099780487563938
 10
6.795778925145454
 20
1.101082154909845
 10
6.794983461767382
 20
1.102311507403185
 10
6.794187998389351
 20
1.10361317474907
 10
6.793464849863862
 20
1.10498715694752
 10
6.792814016190921
 20
1.106288824293405
 10
6.792163182517978
 20
1.107662806491835
 10
6.791584663697578
 20
1.109109103542829
 10
6.791150774582273
 20
1.110483085741259
 10
6.790716885466982
 20
1.112001697644799
 10
6.790355311204241
 20
1.113447994695794
 10
6.789849107236388
 20
1.116774477913071
 10
6.789632162678753
 20
1.120245590835438
 10
6.789849107236388
 20
1.123716703757827
 10
6.790427626056785
 20
1.127043186975104
 10
6.791440033992471
 20
1.130225040487272
 10
6.792958645896009
 20
1.133117634589262
 10
6.794911146914837
 20
1.135720969281033
 10
6.797369851901517
 20
1.13781810000497
 10
6.798237630132136
 20
1.138324303972823
 10
6.799105408362712
 20
1.138758193088112
 10
6.800045501445874
 20
1.139192082203399
 10
6.800913279676451
 20
1.139553656466165
 10
6.801853372759615
 20
1.139842915876363
 10
6.802865780695277
 20
1.140132175286562
 10
6.803805873778441
 20
1.140349119844197
 10
6.804818281714128
 20
1.140493749549307
 10
6.805758374797266
 20
1.140638379254395
 10
6.806770782732976
 20
1.140710694106939
 10
6.807783190668638
 20
1.140710694106939
 10
6.808795598604347
 20
1.140710694106939
 10
6.809808006540055
 20
1.140710694106939
 10
6.81082041447572
 20
1.140638379254395
 10
6.811760507558882
 20
1.140493749549307
 10
6.812772915494567
 20
1.140349119844197
 10
6.814074582840475
 20
1.140132175286562
 10
6.81537625018636
 20
1.139842915876363
 10
6.816677917532245
 20
1.139553656466165
 10
6.817907270025583
 20
1.139119767350855
 10
6.819136622518922
 20
1.138685878235567
 10
6.820365975012266
 20
1.138179674267714
 10
6.821595327505606
 20
1.137673470299882
 10
6.822824679998944
 20
1.137094951479484
 10
6.823981717639742
 20
1.13644411780652
 10
6.825066440427995
 20
1.135793284133578
 10
6.826223478068769
 20
1.134997820755547
 10
6.827308200856998
 20
1.134274672230038
 10
6.828392923645249
 20
1.133406893999462
 10
6.829405331580956
 20
1.132611430621409
 10
6.830417739516642
 20
1.131671337538268
 10
6.831357832599786
 20
1.130731244455126
 10
6.844736080321442
 20
1.13796272971006
 10
6.843868302090823
 20
1.139553656466165
 10
6.842855894155158
 20
1.140999953517139
 10
6.841698856514361
 20
1.142373935715589
 10
6.840397189168476
 20
1.143603288208929
 10
6.839023206970027
 20
1.144760325849725
 10
6.837504595066486
 20
1.145772733785412
 10
6.835985983162946
 20
1.146712826868552
 10
6.834395056406862
 20
1.14758060509915
 10
6.833165703913523
 20
1.148159123919547
 10
6.831864036567639
 20
1.148737642739946
 10
6.830634684074298
 20
1.149243846707779
 10
6.829333016728411
 20
1.149677735823087
 10
6.827959034529942
 20
1.150111624938376
 10
6.826657367184057
 20
1.150400884348574
 10
6.825283384985628
 20
1.150690143758774
 10
6.823909402787197
 20
1.150907088316428
 10
6.822535420588747
 20
1.151051718021517
 10
6.821161438390298
 20
1.151124032874083
 10
6.819715141339321
 20
1.151196347726626
 10
6.818341159140891
 20
1.151196347726626
 10
6.816967176942422
 20
1.151124032874083
 10
6.815593194743992
 20
1.150979403168972
 10
6.814219212545562
 20
1.150762458611317
 10
6.812845230347112
 20
1.150473199201119
 10
6.811543563001227
 20
1.15018393979092
 10
6.810314210507887
 20
1.149750050675633
 10
6.809012543161982
 20
1.149316161560344
 10
6.807783190668638
 20
1.148882272445035
 10
6.806626153027863
 20
1.148303753624636
 10
6.805396800534503
 20
1.147725234804239
 10
6.804239762893727
 20
1.147074401131296
 10
6.803082725252952
 20
1.146423567458353
 10
6.801925687612157
 20
1.145700418932867
 10
6.800840964823906
 20
1.144977270407359
 10
6.799756242035655
 20
1.144181807029327
 10
6.798671519247423
 20
1.143386343651274
 10
6.797586796459195
 20
1.142518565420677
 10
6.796574388523486
 20
1.141650787190102
 10
6.795489665735233
 20
1.140783008959504
 10
6.79447725779955
 20
1.139915230728907
 10
6.793030960748554
 20
1.138613563383022
 10
6.791656978550125
 20
1.137311896037116
 10
6.790282996351696
 20
1.135937913838688
 10
6.788981329005787
 20
1.134491616787692
 10
6.787679661659902
 20
1.133045319736697
 10
6.786450309166562
 20
1.131599022685723
 10
6.785293271525768
 20
1.130080410782184
 10
6.784136233884992
 20
1.128489484026079
 10
6.783123825949283
 20
1.126898557269994
 10
6.782111418013577
 20
1.125235315661366
 10
6.781171324930459
 20
1.123572074052717
 10
6.780375861552385
 20
1.121836517591545
 10
6.779652713026893
 20
1.12010096113035
 10
6.779001879353955
 20
1.118293089816611
 10
6.778423360533557
 20
1.116485218502873
 10
6.777989471418269
 20
1.11460503233659
 10
6.777555582302981
 20
1.112074012497364
 10
6.777338637745327
 20
1.109470677805573
 10
6.777266322892761
 20
1.106939657966347
 10
6.777338637745327
 20
1.104336323274557
 10
6.777627897155526
 20
1.101805303435331
 10
6.778134101123379
 20
1.099274283596106
 10
6.778784934796322
 20
1.09674326375688
 10
6.779652713026893
 20
1.094356873622744
 10
6.780231231847295
 20
1.093055206276837
 10
6.780882065520239
 20
1.091753538930952
 10
6.781532899193178
 20
1.090524186437612
 10
6.782328362571255
 20
1.089367148796815
 10
6.783123825949283
 20
1.088210111156041
 10
6.783991604179862
 20
1.087053073515245
 10
6.784931697263022
 20
1.085968350726993
 10
6.785871790346165
 20
1.084955942791308
 10
6.786884198281851
 20
1.083943534855622
 10
6.787968921070102
 20
1.08300344177248
 10
6.789053643858355
 20
1.082063348689318
 10
6.790138366646562
 20
1.081195570458742
 10
6.791295404287358
 20
1.080400107080689
 10
6.792524756780699
 20
1.079676958555202
 10
6.79375410927404
 20
1.078953810029694
 10
6.794983461767382
 20
1.078302976356751
 10
6.797876055869371
 20
1.07707362386341
 10
6.800840964823906
 20
1.076061215927725
 10
6.803878188630986
 20
1.075338067402217
 10
6.80698772729061
 20
1.074759548581839
 10
6.810097265950234
 20
1.074470289171642
 10
6.813206804609856
 20
1.07432565946653
 10
6.816316343269478
 20
1.074470289171642
 10
6.819498196781667
 20
1.074831863434384
 10
6.822535420588747
 20
1.075410382254782
 10
6.825500329543261
 20
1.076205845632814
 10
6.828465238497796
 20
1.077290568421065
 10
6.831285517747242
 20
1.078519920914406
 10
6.833961167291554
 20
1.080038532817945
 10
6.836492187130779
 20
1.08177408927914
 10
6.838878577264916
 20
1.083726590297968
 10
6.841120337693964
 20
1.085896035874449
 10
6.842783579302616
 20
1.087848536893277
 10
6.844302191206133
 20
1.089945667617215
 10
6.845676173404561
 20
1.092042798341152
 10
6.846833211045357
 20
1.094356873622744
 10
6.847845618981065
 20
1.096670948904314
 10
6.848641082359097
 20
1.09905733903845
 10
6.849147286326951
 20
1.101516044025132
 10
6.849508860589715
 20
1.104047063864358
 10
6.849581175442259
 20
1.10607187973575
 10
6.849436545737151
 20
1.108024380754579
 10
6.849074971474405
 20
1.109976881773427
 10
6.848424137801463
 20
1.111929382792254
 10
6.847556359570866
 20
1.113520309548339
 10
6.846543951635179
 20
1.114966606599332
 10
6.845314599141841
 20
1.116340588797784
 10
6.844012931795933
 20
1.117569941291123
 10
6.842566634744937
 20
1.118654664079355
 10
6.841048022841422
 20
1.119739386867606
 10
6.839457096085316
 20
1.120679479950748
 10
6.837866169329232
 20
1.121547258181345
  0
LWPOLYLINE
  5
822
330
17
100
AcDbEntity
  8
4
  6
Continuous
 62
     4
100
AcDbPolyline
 90
       96
 70
     0
 43
0.0
 10
7.002442745745235
 20
1.075555011959872
 10
7.001285708104441
 20
1.076278160485359
 10
7.000056355611098
 20
1.077145938715955
 10
6.998754688265213
 20
1.078230661504207
 10
6.997597650624419
 20
1.079460013997547
 10
6.996512927836167
 20
1.080833996195976
 10
6.995645149605589
 20
1.082497237804627
 10
6.995066630785192
 20
1.084305109118365
 10
6.994849686227516
 20
1.086402239842302
 10
6.994849686227516
 20
1.134346987082603
 10
6.99470505652243
 20
1.136371802953975
 10
6.994415797112228
 20
1.138251989120258
 10
6.993837278291852
 20
1.140059860433997
 10
6.993114129766346
 20
1.141723102042647
 10
6.992246351535746
 20
1.143386343651274
 10
6.991161628747495
 20
1.144832640702271
 10
6.989932276254156
 20
1.146206622900699
 10
6.988558294055727
 20
1.147508290246606
 10
6.987111997004753
 20
1.14866532788738
 10
6.985521070248648
 20
1.149677735823087
 10
6.983857828639997
 20
1.150545514053685
 10
6.982194587031388
 20
1.151340977431715
 10
6.980386715717651
 20
1.151919496252114
 10
6.978578844403911
 20
1.152353385367423
 10
6.976698658237628
 20
1.152714959630167
 10
6.974818472071325
 20
1.152859589335256
 10
6.973516804725419
 20
1.152859589335256
 10
6.972215137379534
 20
1.152859589335256
 10
6.970985784886193
 20
1.152714959630167
 10
6.969684117540307
 20
1.152570329925057
 10
6.968454765046969
 20
1.152353385367423
 10
6.967153097701084
 20
1.151991811104659
 10
6.965923745207744
 20
1.151630236841916
 10
6.964694392714402
 20
1.151268662579172
 10
6.963465040221063
 20
1.150762458611317
 10
6.962308002580265
 20
1.150256254643485
 10
6.961150964939471
 20
1.149677735823087
 10
6.959993927298674
 20
1.149099217002689
 10
6.958836889657876
 20
1.148376068477202
 10
6.957752166869667
 20
1.147725234804239
 10
6.956667444081418
 20
1.147002086278751
 10
6.95565503614571
 20
1.146206622900699
 10
6.955221147030422
 20
1.147219030836406
 10
6.954642628210025
 20
1.148303753624636
 10
6.953847164831969
 20
1.149316161560344
 10
6.952979386601393
 20
1.150256254643485
 10
6.952111608370778
 20
1.151051718021517
 10
6.951243830140201
 20
1.151702551694459
 10
6.95044836676217
 20
1.152136440809768
 10
6.949869847941773
 20
1.152281070514857
 10
6.932152709067152
 20
1.152281070514857
 10
6.933237431855382
 20
1.151268662579172
 10
6.934466784348722
 20
1.150111624938376
 10
6.935840766547173
 20
1.148737642739946
 10
6.937142433893057
 20
1.147146715983863
 10
6.9383717863864
 20
1.145338844670124
 10
6.939311879469538
 20
1.14345865850382
 10
6.940035027995048
 20
1.141361527779903
 10
6.940251972552681
 20
1.139192082203399
 10
6.940251972552681
 20
1.075627326812415
 10
6.95652281437633
 20
1.088788629976418
 10
6.95652281437633
 20
1.134780876197892
 10
6.956595129228872
 20
1.135937913838688
 10
6.956812073786507
 20
1.137022636626918
 10
6.957245962901816
 20
1.138035044562625
 10
6.957752166869667
 20
1.139047452498311
 10
6.958330685690045
 20
1.140059860433997
 10
6.959053834215555
 20
1.140927638664593
 10
6.959921612446128
 20
1.141795416895192
 10
6.960789390676727
 20
1.142590880273244
 10
6.961801798612412
 20
1.143241713946187
 10
6.96281420654812
 20
1.143820232766584
 10
6.963898929336372
 20
1.144398751586981
 10
6.964983652124602
 20
1.144760325849725
 10
6.966140689765378
 20
1.145121900112469
 10
6.967297727406172
 20
1.145266529817557
 10
6.968382450194424
 20
1.145411159522667
 10
6.969539487835221
 20
1.145338844670124
 10
6.97134735914896
 20
1.145049585259924
 10
6.973082915610152
 20
1.144471066439527
 10
6.974746157218781
 20
1.143675603061474
 10
6.976192454269774
 20
1.142590880273244
 10
6.977421806763117
 20
1.141289212927337
 10
6.978361899846238
 20
1.139770601023797
 10
6.978940418666637
 20
1.13796272971006
 10
6.979157363224311
 20
1.135937913838688
 10
6.979157363224311
 20
1.084594368528564
 10
6.979374307781943
 20
1.082714182362281
 10
6.979952826602342
 20
1.080978625901088
 10
6.980820604832938
 20
1.079460013997547
 10
6.982049957326257
 20
1.078158346651663
 10
6.983496254377273
 20
1.07707362386341
 10
6.985159495985905
 20
1.076205845632814
 10
6.986967367299642
 20
1.075699641664981
 10
6.988919868318467
 20
1.075555011959872
 10
7.002442745745235
 20
1.075555011959872
  0
LWPOLYLINE
  5
823
330
17
100
AcDbEntity
  8
4
  6
Continuous
100
AcDbPolyline
 90
      213
 70
     0
 43
0.0
 10
7.108458833845183
 20
1.147797549656804
 10
7.106795592236575
 20
1.148448383329746
 10
7.105132350627925
 20
1.149026902150146
 10
7.103469109019275
 20
1.149533106117978
 10
7.101733552558103
 20
1.149966995233287
 10
7.099997996096909
 20
1.150256254643485
 10
7.098262439635736
 20
1.150545514053685
 10
7.096526883174543
 20
1.150762458611317
 10
7.094791326713348
 20
1.150907088316428
 10
7.092983455399609
 20
1.150979403168972
 10
7.091247898938417
 20
1.150979403168972
 10
7.089440027624677
 20
1.150907088316428
 10
7.087704471163505
 20
1.150762458611317
 10
7.085896599849768
 20
1.150545514053685
 10
7.084161043388571
 20
1.150328569496031
 10
7.082425486927398
 20
1.149966995233287
 10
7.080689930466204
 20
1.149605420970521
 10
7.077652706659127
 20
1.14866532788738
 10
7.074687797704592
 20
1.14729134568895
 10
7.071867518455167
 20
1.145700418932867
 10
7.069119554058286
 20
1.143747917914019
 10
7.066588534219062
 20
1.141578472337537
 10
7.064202144084926
 20
1.139119767350855
 10
7.062105013360986
 20
1.136516432659085
 10
7.060224827194703
 20
1.133768468262206
 10
7.058706215291166
 20
1.130875874160215
 10
7.057549177650369
 20
1.127838650353137
 10
7.056681399419773
 20
1.124801426546057
 10
7.05631982515703
 20
1.121691887886434
 10
7.056392140009572
 20
1.11858234922681
 10
7.056898343977427
 20
1.115472810567187
 10
7.057910751913134
 20
1.112435586760107
 10
7.059501678669195
 20
1.109542992658117
 10
7.059863252931963
 20
1.109109103542829
 10
7.060297142047248
 20
1.108747529280086
 10
7.060731031162537
 20
1.108458269869887
 10
7.06123723513039
 20
1.108169010459688
 10
7.061743439098243
 20
1.108024380754579
 10
7.062249643066097
 20
1.107952065902034
 10
7.062828161886494
 20
1.107952065902034
 10
7.063406680706893
 20
1.108096695607144
 10
7.083944098830918
 20
1.112001697644799
 10
7.085101136471713
 20
1.112218642202454
 10
7.086258174112508
 20
1.112363271907564
 10
7.087487526605849
 20
1.112580216465197
 10
7.088644564246647
 20
1.112652531317762
 10
7.089873916739986
 20
1.112797161022851
 10
7.091030954380781
 20
1.112869475875396
 10
7.092187992021578
 20
1.112869475875396
 10
7.093417344514919
 20
1.112869475875396
 10
7.094574382155714
 20
1.112797161022851
 10
7.09573141979649
 20
1.112724846170307
 10
7.096888457437287
 20
1.112580216465197
 10
7.098045495078062
 20
1.112363271907564
 10
7.099130217866312
 20
1.112074012497364
 10
7.100287255507107
 20
1.111784753087165
 10
7.101371978295362
 20
1.111350863971855
 10
7.102456701083589
 20
1.110916974856569
 10
7.104915406070272
 20
1.109398362953029
 10
7.106723277384009
 20
1.107228917376547
 10
7.107952629877352
 20
1.1046978975373
 10
7.108675778402859
 20
1.101805303435331
 10
7.108748093255402
 20
1.098768079628252
 10
7.108241889287548
 20
1.095658540968629
 10
7.107229481351863
 20
1.092765946866639
 10
7.105710869448324
 20
1.090090297322324
 10
7.104626146660073
 20
1.088860944828984
 10
7.103541423871821
 20
1.087631592335644
 10
7.102239756525936
 20
1.086619184399935
 10
7.10093808918005
 20
1.085679091316795
 10
7.099564106981621
 20
1.084811313086198
 10
7.098045495078062
 20
1.084088164560711
 10
7.096526883174543
 20
1.083581960592856
 10
7.094935956418438
 20
1.083148071477568
 10
7.093055770252155
 20
1.082931126919915
 10
7.091175584085871
 20
1.082931126919915
 10
7.089367712772133
 20
1.083075756625024
 10
7.087487526605849
 20
1.083509645740312
 10
7.085751970144657
 20
1.084015849708167
 10
7.083944098830918
 20
1.084738998233653
 10
7.082280857222288
 20
1.08560677646425
 10
7.080617615613662
 20
1.086619184399935
 10
7.079026688857553
 20
1.087776222040732
 10
7.077508076954036
 20
1.089005574534072
 10
7.076061779903019
 20
1.090379556732522
 10
7.074687797704592
 20
1.091825853783497
 10
7.073458445211249
 20
1.093344465687037
 10
7.072229092717909
 20
1.094935392443142
 10
7.071144369929659
 20
1.096598634051771
 10
7.070204276846537
 20
1.098261875660399
 10
7.053499545907603
 20
1.090668816142722
 10
7.054367324138199
 20
1.08849937056624
 10
7.055452046926433
 20
1.086402239842302
 10
7.056898343977427
 20
1.084522053675998
 10
7.058561585586075
 20
1.082714182362281
 10
7.060441771752358
 20
1.081050940753631
 10
7.062538902476275
 20
1.079532328850091
 10
7.064780662905322
 20
1.078158346651663
 10
7.067167053039461
 20
1.076928994158322
 10
7.069698072878686
 20
1.075916586222614
 10
7.072301407570455
 20
1.075048807992017
 10
7.075049371967357
 20
1.07432565946653
 10
7.077725021511672
 20
1.073891770351242
 10
7.080472985908549
 20
1.073530196088499
 10
7.083220950305429
 20
1.073457881235934
 10
7.085896599849768
 20
1.073602510941044
 10
7.088572249394101
 20
1.073891770351242
 10
7.090597065265472
 20
1.07432565946653
 10
7.092549566284302
 20
1.074904178286929
 10
7.094502067303151
 20
1.075555011959872
 10
7.096382253469453
 20
1.076350475337924
 10
7.098190124783172
 20
1.077290568421065
 10
7.099997996096909
 20
1.078375291209295
 10
7.101661237705539
 20
1.079460013997547
 10
7.103324479314188
 20
1.080761681343432
 10
7.104843091217726
 20
1.082063348689318
 10
7.106361703121267
 20
1.083509645740312
 10
7.107735685319696
 20
1.085028257643853
 10
7.10903735266558
 20
1.086691499252502
 10
7.11019439030638
 20
1.08835474086113
 10
7.111279113094629
 20
1.090090297322324
 10
7.112219206177769
 20
1.091898168636063
 10
7.113086984408366
 20
1.093778354802345
 10
7.113882447786401
 20
1.095875485526284
 10
7.114460966606798
 20
1.097972616250221
 10
7.114894855722105
 20
1.100069746974136
 10
7.115256429984849
 20
1.102311507403185
 10
7.11540105968996
 20
1.104480952979667
 10
7.11540105968996
 20
1.106650398556149
 10
7.115256429984849
 20
1.10881984413263
 10
7.114894855722105
 20
1.110989289709113
 10
7.114460966606798
 20
1.112869475875396
 10
7.113882447786401
 20
1.114677347189134
 10
7.113159299260911
 20
1.116412903650327
 10
7.112291521030337
 20
1.118148460111523
 10
7.111206798242084
 20
1.119667072015061
 10
7.109977445748744
 20
1.121113369066035
 10
7.108531148697749
 20
1.122415036411942
 10
7.107012536794209
 20
1.123499759200172
 10
7.106361703121267
 20
1.12393364831546
 10
7.10563855459578
 20
1.12436753743077
 10
7.104915406070272
 20
1.124729111693512
 10
7.104192257544762
 20
1.125090685956257
 10
7.103469109019275
 20
1.12545226021902
 10
7.102673645641244
 20
1.125741519629198
 10
7.101950497115758
 20
1.125958464186854
 10
7.101155033737707
 20
1.126175408744507
 10
7.100359570359652
 20
1.126392353302163
 10
7.099564106981621
 20
1.126609297859795
 10
7.098768643603568
 20
1.126753927564906
 10
7.097973180225516
 20
1.126898557269994
 10
7.097177716847485
 20
1.127043186975104
 10
7.096382253469453
 20
1.127115501827649
 10
7.095514475238834
 20
1.127260131532737
 10
7.094719011860803
 20
1.127332446385303
 10
7.093923548482772
 20
1.127332446385303
 10
7.093128085104699
 20
1.127332446385303
 10
7.092332621726668
 20
1.127404761237849
 10
7.091537158348634
 20
1.127404761237849
 10
7.090741694970583
 20
1.127404761237849
 10
7.089946231592532
 20
1.127477076090393
 10
7.089078453361933
 20
1.127477076090393
 10
7.088210675131337
 20
1.127477076090393
 10
7.087342896900762
 20
1.127477076090393
 10
7.086475118670164
 20
1.127404761237849
 10
7.085462710734477
 20
1.127332446385303
 10
7.084522617651315
 20
1.127260131532737
 10
7.083510209715628
 20
1.127187816680194
 10
7.082425486927398
 20
1.127043186975104
 10
7.081340764139148
 20
1.12682624241745
 10
7.080183726498352
 20
1.126609297859795
 10
7.063623625264527
 20
1.123572074052717
 10
7.063189736149219
 20
1.125090685956257
 10
7.062972791591586
 20
1.126536983007252
 10
7.063045106444127
 20
1.128055594910791
 10
7.063262051001782
 20
1.129501891961785
 10
7.063768254969614
 20
1.13094818901276
 10
7.064346773790013
 20
1.132322171211211
 10
7.065214552020611
 20
1.133696153409639
 10
7.066154645103752
 20
1.134925505902981
 10
7.067239367892004
 20
1.136082543543777
 10
7.068468720385346
 20
1.137239581184573
 10
7.069770387731231
 20
1.138179674267714
 10
7.071216684782223
 20
1.139047452498311
 10
7.072735296685763
 20
1.139770601023797
 10
7.074253908589303
 20
1.140421434696762
 10
7.075844835345387
 20
1.14085532381205
 10
7.077508076954036
 20
1.141144583222249
 10
7.078954374005012
 20
1.141216898074792
 10
7.080472985908549
 20
1.141216898074792
 10
7.081919282959544
 20
1.141072268369704
 10
7.083365580010521
 20
1.14085532381205
 10
7.084811877061537
 20
1.14056606440185
 10
7.086258174112508
 20
1.140132175286562
 10
7.087632156310938
 20
1.139625971318708
 10
7.089006138509389
 20
1.139047452498311
 10
7.090380120707839
 20
1.138396618825369
 10
7.09175410290627
 20
1.13767347029986
 10
7.093055770252155
 20
1.136950321774374
 10
7.09435743759804
 20
1.136082543543777
 10
7.095586790091379
 20
1.135214765313179
 10
7.096816142584719
 20
1.134346987082603
 10
7.098045495078062
 20
1.133406893999462
 10
7.099202532718857
 20
1.1324668009163
 10
7.117932079529183
 20
1.141289212927337
 10
7.116919671593477
 20
1.142301620863044
 10
7.115834948805247
 20
1.14331402879873
 10
7.114750226017017
 20
1.144254121881872
 10
7.113520873523675
 20
1.145049585259924
 10
7.112291521030337
 20
1.145845048637956
 10
7.111062168536995
 20
1.146568197163464
 10
7.10976050119109
 20
1.147219030836406
 10
7.108458833845183
 20
1.147797549656804
  0
LWPOLYLINE
  5
824
330
17
100
AcDbEntity
  8
4
  6
Continuous
100
AcDbPolyline
 90
      104
 70
     0
 43
0.0
 10
7.164990443697607
 20
1.152208755662312
 10
7.167015259568977
 20
1.150039310085831
 10
7.167883037799575
 20
1.14880995759249
 10
7.168606186325061
 20
1.14758060509915
 10
7.169257019998026
 20
1.146423567458353
 10
7.169763223965857
 20
1.145338844670124
 10
7.170197113081144
 20
1.144181807029327
 10
7.170486372491366
 20
1.143024769388532
 10
7.170631002196454
 20
1.141867731747735
 10
7.170703317048999
 20
1.140638379254395
 10
7.170703317048999
 20
1.084449738823454
 10
7.16889544573526
 20
1.084666683381108
 10
7.167087574421522
 20
1.085028257643853
 10
7.165352017960326
 20
1.085462146759161
 10
7.163616461499157
 20
1.086040665579537
 10
7.161953219890526
 20
1.086763814105047
 10
7.160289978281878
 20
1.087486962630533
 10
7.158626736673229
 20
1.08835474086113
 10
7.157108124769709
 20
1.089294833944271
 10
7.155589512866148
 20
1.090379556732522
 10
7.154143215815173
 20
1.091464279520754
 10
7.152769233616746
 20
1.092693632014094
 10
7.151467566270839
 20
1.093995299359979
 10
7.150165898924954
 20
1.095296966705886
 10
7.149008861284159
 20
1.096743263756859
 10
7.147924138495928
 20
1.098261875660399
 10
7.146911730560223
 20
1.099780487563938
 10
7.145320803804137
 20
1.102673081665928
 10
7.144019136458251
 20
1.105710305473007
 10
7.143006728522565
 20
1.108892158985175
 10
7.142355894849623
 20
1.112146327349909
 10
7.142066635439403
 20
1.115472810567187
 10
7.142211265144513
 20
1.118726978931899
 10
7.142862098817454
 20
1.122053462149178
 10
7.143946821605687
 20
1.125235315661366
 10
7.144525340426083
 20
1.126609297859795
 10
7.145176174099026
 20
1.12791096520568
 10
7.145899322624535
 20
1.129212632551587
 10
7.146622471150043
 20
1.130441985044928
 10
7.147417934528074
 20
1.131743652390812
 10
7.148285712758673
 20
1.132973004884153
 10
7.149153490989268
 20
1.134130042524948
 10
7.150021269219844
 20
1.13535939501829
 10
7.150961362303007
 20
1.136516432659085
 10
7.151901455386125
 20
1.137601155447315
 10
7.152913863321836
 20
1.138758193088112
 10
7.153926271257519
 20
1.139842915876363
 10
7.154938679193207
 20
1.140927638664593
 10
7.156023401981457
 20
1.14194004660028
 10
7.157035809917167
 20
1.142952454535987
 10
7.158120532705393
 20
1.143964862471672
 10
7.158988310935992
 20
1.144977270407359
 10
7.159566829756392
 20
1.146134308048154
 10
7.159928404019132
 20
1.14729134568895
 10
7.159928404019132
 20
1.148520698182291
 10
7.159783774314023
 20
1.149605420970521
 10
7.159349885198735
 20
1.150690143758774
 10
7.158843681230903
 20
1.15155792198937
 10
7.158120532705393
 20
1.152208755662312
 10
7.132231815492678
 20
1.152208755662312
 10
7.133461167986021
 20
1.151051718021517
 10
7.134835150184447
 20
1.149605420970521
 10
7.136136817530355
 20
1.147869864509349
 10
7.137221540318584
 20
1.145989678343066
 10
7.138017003696637
 20
1.143892547619129
 10
7.138378577959382
 20
1.141723102042647
 10
7.138089318549203
 20
1.139553656466165
 10
7.137076910613497
 20
1.137456525742226
 10
7.129122276833054
 20
1.123572074052717
 10
7.127169775814228
 20
1.119522442309952
 10
7.125940423320888
 20
1.115255866009532
 10
7.125361904500491
 20
1.110844660004024
 10
7.125434219353032
 20
1.10636113914595
 10
7.126157367878523
 20
1.101877618287876
 10
7.127603664929514
 20
1.097611041987455
 10
7.129628480800908
 20
1.09356141024469
 10
7.132304130345223
 20
1.089945667617215
 10
7.133605797691108
 20
1.08849937056624
 10
7.134979779889561
 20
1.08712538836779
 10
7.136426076940552
 20
1.085751406169339
 10
7.137944688844093
 20
1.084449738823454
 10
7.139463300747633
 20
1.083292701182657
 10
7.141126542356282
 20
1.082135663541882
 10
7.142789783964889
 20
1.081050940753631
 10
7.144525340426083
 20
1.080110847670489
 10
7.146260896887277
 20
1.079170754587349
 10
7.148068768201015
 20
1.078375291209295
 10
7.149876639514754
 20
1.077724457536354
 10
7.151756825681038
 20
1.077145938715955
 10
7.153637011847322
 20
1.076639734748124
 10
7.155589512866148
 20
1.076350475337924
 10
7.157469699032454
 20
1.076133530780269
 10
7.159422200051302
 20
1.076061215927725
 10
7.187118788577738
 20
1.076061215927725
 10
7.187118788577738
 20
1.141361527779903
 10
7.18719110343028
 20
1.142807824830876
 10
7.187263418282822
 20
1.144254121881872
 10
7.187480362840478
 20
1.145628104080302
 10
7.187769622250678
 20
1.147074401131296
 10
7.188203511365985
 20
1.148448383329746
 10
7.188709715333818
 20
1.149750050675633
 10
7.189288234154217
 20
1.150979403168972
 10
7.18993906782716
 20
1.152208755662312
 10
7.164990443697607
 20
1.152208755662312
  0
LWPOLYLINE
  5
825
330
17
100
AcDbEntity
  8
4
  6
Continuous
100
AcDbPolyline
 90
       73
 70
     0
 43
0.0
 10
7.371832516334325
 20
1.094790762738031
 10
7.373061868827665
 20
1.094067614212544
 10
7.374074276763373
 20
1.093127521129404
 10
7.374942054993947
 20
1.091970483488607
 10
7.375592888666892
 20
1.090668816142722
 10
7.375954462929657
 20
1.089222519091727
 10
7.376026777782201
 20
1.087776222040732
 10
7.375809833224566
 20
1.086402239842302
 10
7.37523131440417
 20
1.085028257643853
 10
7.374580480731227
 20
1.08423279426582
 10
7.373929647058262
 20
1.083509645740312
 10
7.37313418368021
 20
1.082858812067371
 10
7.372266405449634
 20
1.082280293246972
 10
7.371326312366472
 20
1.081846404131684
 10
7.370313904430807
 20
1.08148482986894
 10
7.369229181642555
 20
1.081267885311287
 10
7.368144458854304
 20
1.081195570458742
 10
7.341749537673754
 20
1.081195570458742
 10
7.355995563625987
 20
1.093272150834492
 10
7.356863341856605
 20
1.094067614212544
 10
7.35751417552955
 20
1.094863077590575
 10
7.358092694349925
 20
1.095586226116084
 10
7.358454268612669
 20
1.09630937464157
 10
7.358743528022889
 20
1.097032523167057
 10
7.358888157727978
 20
1.097827986545111
 10
7.359032787433067
 20
1.098551135070597
 10
7.359032787433067
 20
1.09934659844865
 10
7.359032787433067
 20
1.14729134568895
 10
7.358888157727978
 20
1.148303753624636
 10
7.358598898317778
 20
1.149316161560344
 10
7.358092694349925
 20
1.150111624938376
 10
7.357441860676983
 20
1.150834773463883
 10
7.356646397298931
 20
1.151413292284261
 10
7.355778619068355
 20
1.15184718139957
 10
7.354766211132647
 20
1.152136440809768
 10
7.353753803196963
 20
1.152208755662312
 10
7.338133795046278
 20
1.152208755662312
 10
7.339218517834529
 20
1.151124032874083
 10
7.34015861091765
 20
1.150111624938376
 10
7.340954074295702
 20
1.14895458729758
 10
7.341604907968666
 20
1.147797549656804
 10
7.342183426789044
 20
1.146495882310899
 10
7.342545001051787
 20
1.145121900112469
 10
7.342761945609441
 20
1.143530973356385
 10
7.342834260462007
 20
1.141723102042647
 10
7.342834260462007
 20
1.091681224078407
 10
7.329962216708182
 20
1.076061215927725
 10
7.378630112473971
 20
1.076061215927725
 10
7.379425575852023
 20
1.076133530780269
 10
7.38029335408262
 20
1.076205845632814
 10
7.381088817460652
 20
1.076350475337924
 10
7.381956595691269
 20
1.076639734748124
 10
7.382824373921845
 20
1.076928994158322
 10
7.383619837299899
 20
1.077290568421065
 10
7.384415300677951
 20
1.077652142683809
 10
7.385210764055982
 20
1.078086031799097
 10
7.386006227434013
 20
1.078592235766951
 10
7.386729375959522
 20
1.079098439734804
 10
7.38745252448503
 20
1.079676958555202
 10
7.388175673010516
 20
1.080255477375579
 10
7.388754191830915
 20
1.080833996195976
 10
7.389405025503856
 20
1.08148482986894
 10
7.38991122947171
 20
1.082135663541882
 10
7.390417433439544
 20
1.082786497214826
 10
7.391574471080337
 20
1.085100572496396
 10
7.392297619605847
 20
1.087703907188187
 10
7.392659193868571
 20
1.090596501290157
 10
7.392586879016024
 20
1.09356141024469
 10
7.392080675048172
 20
1.096381689494116
 10
7.391212896817597
 20
1.098985024185906
 10
7.389983544324255
 20
1.101154469762389
 10
7.388320302715603
 20
1.102817711371017
 10
7.371832516334325
 20
1.094790762738031
  0
LWPOLYLINE
  5
826
330
17
100
AcDbEntity
  8
4
  6
Continuous
100
AcDbPolyline
 90
       21
 70
     0
 43
0.0
 10
7.286789993175776
 20
1.148159123919547
 10
7.304507132050398
 20
1.148159123919547
 10
7.306821207331966
 20
1.147942179361894
 10
7.308918338055907
 20
1.14729134568895
 10
7.310870839074755
 20
1.146278937753264
 10
7.312606395535946
 20
1.144904955554814
 10
7.313980377734377
 20
1.143241713946187
 10
7.315065100522631
 20
1.141289212927337
 10
7.315715934195572
 20
1.139192082203399
 10
7.315932878753204
 20
1.136878006921829
 10
7.315788249048114
 20
1.134997820755547
 10
7.315354359932807
 20
1.133117634589262
 10
7.314631211407321
 20
1.131454392980614
 10
7.313691118324179
 20
1.129863466224529
 10
7.312461765830837
 20
1.128561798878644
 10
7.311015468779842
 20
1.127549390942937
 10
7.309352227171196
 20
1.126898557269994
 10
7.307399726152367
 20
1.126681612712362
 10
7.290116476393055
 20
1.126681612712362
 10
7.290116476393055
 20
1.144254121881872
 10
7.286789993175776
 20
1.148159123919547
  0
LWPOLYLINE
  5
827
330
17
100
AcDbEntity
  8
4
  6
Continuous
100
AcDbPolyline
 90
       21
 70
     0
 43
0.0
 10
7.21678123569348
 20
1.148303753624636
 10
7.2344983745681
 20
1.148303753624636
 10
7.236740134997128
 20
1.148086809067004
 10
7.238909580573609
 20
1.14743597539404
 10
7.240789766739911
 20
1.146423567458353
 10
7.242525323201085
 20
1.145049585259924
 10
7.243899305399535
 20
1.143386343651274
 10
7.244984028187767
 20
1.141506157484992
 10
7.245634861860732
 20
1.139409026761055
 10
7.245851806418363
 20
1.137094951479484
 10
7.245707176713275
 20
1.135214765313179
 10
7.245273287597965
 20
1.133334579146896
 10
7.244622453925021
 20
1.131599022685723
 10
7.243682360841882
 20
1.130080410782184
 10
7.242453008348541
 20
1.128778743436278
 10
7.241006711297545
 20
1.127766335500592
 10
7.239343469688895
 20
1.127115501827649
 10
7.237390968670068
 20
1.126898557269994
 10
7.220107718910757
 20
1.126898557269994
 10
7.220107718910757
 20
1.144471066439527
 10
7.21678123569348
 20
1.148303753624636
  0
LWPOLYLINE
  5
828
330
17
100
AcDbEntity
  8
4
  6
Continuous
100
AcDbPolyline
 90
       46
 70
     0
 43
0.0
 10
7.237246338964981
 20
1.152281070514857
 10
7.197979374030627
 20
1.152281070514857
 10
7.198847152261206
 20
1.151124032874083
 10
7.199642615639237
 20
1.149822365528176
 10
7.200438079017309
 20
1.148520698182291
 10
7.201088912690253
 20
1.147146715983863
 10
7.201595116658084
 20
1.145700418932867
 10
7.202029005773372
 20
1.144254121881872
 10
7.20231826518359
 20
1.142880139683442
 10
7.202390580036136
 20
1.141433842632447
 10
7.202390580036136
 20
1.074687233729274
 10
7.219963089205669
 20
1.091536594373297
 10
7.219963089205669
 20
1.12147494332878
 10
7.243537731136771
 20
1.12147494332878
 10
7.245128657892878
 20
1.121547258181345
 10
7.246647269796394
 20
1.121619573033889
 10
7.248165881699955
 20
1.121836517591545
 10
7.249612178750927
 20
1.122125777001744
 10
7.251058475801924
 20
1.12255966611703
 10
7.252432458000375
 20
1.123138184937428
 10
7.25373412534626
 20
1.123789018610372
 10
7.254891162987057
 20
1.124584481988424
 10
7.256048200627852
 20
1.125524575071565
 10
7.256988293710971
 20
1.126681612712362
 10
7.257856071941589
 20
1.12791096520568
 10
7.258579220467078
 20
1.129357262256675
 10
7.259085424434932
 20
1.131020503865325
 10
7.259519313550219
 20
1.132828375179063
 10
7.259736258107872
 20
1.134853191050436
 10
7.259736258107872
 20
1.137094951479484
 10
7.259519313550219
 20
1.139481341613599
 10
7.259085424434932
 20
1.141578472337537
 10
7.258362275909424
 20
1.14345865850382
 10
7.257494497678825
 20
1.145121900112469
 10
7.256337460038031
 20
1.146568197163464
 10
7.25510810754469
 20
1.147797549656804
 10
7.253661810493715
 20
1.148882272445035
 10
7.252070883737611
 20
1.149750050675633
 10
7.250407642128982
 20
1.150473199201119
 10
7.248599770815244
 20
1.151051718021517
 10
7.246791899501505
 20
1.151485607136826
 10
7.244911713335222
 20
1.151774866547024
 10
7.242959212316373
 20
1.152064125957225
 10
7.241006711297545
 20
1.152208755662312
 10
7.239126525131263
 20
1.152281070514857
 10
7.237246338964981
 20
1.152281070514857
  0
LWPOLYLINE
  5
829
330
17
100
AcDbEntity
  8
4
  6
Continuous
100
AcDbPolyline
 90
       46
 70
     0
 43
0.0
 10
7.307255096447277
 20
1.152064125957225
 10
7.267988131512925
 20
1.152064125957225
 10
7.268855909743503
 20
1.150907088316428
 10
7.269723687974099
 20
1.149605420970521
 10
7.270446836499607
 20
1.148303753624636
 10
7.271097670172549
 20
1.146929771426208
 10
7.271676188992947
 20
1.145483474375212
 10
7.272110078108212
 20
1.144037177324217
 10
7.272399337518434
 20
1.142663195125788
 10
7.272471652370977
 20
1.141216898074792
 10
7.272471652370977
 20
1.074470289171642
 10
7.289971846687945
 20
1.091319649815664
 10
7.289971846687945
 20
1.121257998771145
 10
7.313546488619067
 20
1.121257998771145
 10
7.315065100522631
 20
1.12133031362369
 10
7.316656027278693
 20
1.121402628476235
 10
7.318102324329707
 20
1.121619573033889
 10
7.319620936233227
 20
1.121908832444087
 10
7.320994918431657
 20
1.122342721559377
 10
7.322368900630107
 20
1.122921240379774
 10
7.323670567976011
 20
1.123572074052717
 10
7.324899920469351
 20
1.12436753743077
 10
7.325984643257584
 20
1.12530763051391
 10
7.326924736340722
 20
1.126464668154707
 10
7.327792514571322
 20
1.127694020648047
 10
7.328515663096831
 20
1.129140317699043
 10
7.329021867064661
 20
1.130803559307672
 10
7.329455756179952
 20
1.132611430621409
 10
7.329672700737606
 20
1.134636246492803
 10
7.329672700737606
 20
1.136878006921829
 10
7.329455756179952
 20
1.139264397055965
 10
7.329021867064661
 20
1.141433842632447
 10
7.328298718539155
 20
1.14331402879873
 10
7.327430940308579
 20
1.144977270407359
 10
7.326273902667781
 20
1.146423567458353
 10
7.325044550174444
 20
1.147652919951695
 10
7.323598253123447
 20
1.14866532788738
 10
7.322079641219906
 20
1.149533106117978
 10
7.320344084758714
 20
1.150256254643485
 10
7.318608528297543
 20
1.150834773463883
 10
7.316800656983802
 20
1.151268662579172
 10
7.314920470817518
 20
1.15155792198937
 10
7.312967969798671
 20
1.15184718139957
 10
7.311015468779842
 20
1.151991811104659
 10
7.309135282613561
 20
1.152064125957225
 10
7.307255096447277
 20
1.152064125957225
  0
LWPOLYLINE
  5
82A
330
17
100
AcDbEntity
  8
4
  6
Continuous
100
AcDbPolyline
 90
      133
 70
     0
 43
0.0
 10
7.458976129792183
 20
1.152281070514857
 10
7.443573066199156
 20
1.152281070514857
 10
7.444657788987409
 20
1.151124032874083
 10
7.445597882070527
 20
1.149966995233287
 10
7.446321030596036
 20
1.14880995759249
 10
7.446971864268976
 20
1.147725234804239
 10
7.447478068236834
 20
1.146640512016009
 10
7.447839642499574
 20
1.145555789227757
 10
7.448128901909773
 20
1.144398751586981
 10
7.44820121676232
 20
1.143241713946187
 10
7.44820121676232
 20
1.103757804454159
 10
7.446899549416435
 20
1.103902434159269
 10
7.445525567217985
 20
1.104119378716924
 10
7.444223899872099
 20
1.104336323274557
 10
7.442849917673667
 20
1.104625582684755
 10
7.441548250327785
 20
1.10498715694752
 10
7.440174268129331
 20
1.105348731210264
 10
7.438872600783428
 20
1.105782620325552
 10
7.437570933437543
 20
1.10621650944084
 10
7.436341580944201
 20
1.106722713408694
 10
7.435039913598316
 20
1.10730123222909
 10
7.433882875957521
 20
1.107879751049489
 10
7.432653523464181
 20
1.108530584722432
 10
7.431496485823384
 20
1.109253733247918
 10
7.430339448182587
 20
1.109976881773427
 10
7.429254725394359
 20
1.110844660004024
 10
7.428242317458672
 20
1.1117124382346
 10
7.426362131292386
 20
1.113592624400904
 10
7.42469888968374
 20
1.115689755124842
 10
7.423252592632766
 20
1.117931515553868
 10
7.421950925286856
 20
1.120390220540548
 10
7.420938517351173
 20
1.12284892552723
 10
7.420070739120576
 20
1.125524575071565
 10
7.419492220300177
 20
1.128200224615879
 10
7.419130646037434
 20
1.13094818901276
 10
7.418913701479801
 20
1.133696153409639
 10
7.418913701479801
 20
1.136516432659085
 10
7.419202960889981
 20
1.139264397055965
 10
7.419636850005287
 20
1.142012361452845
 10
7.420287683678231
 20
1.144760325849725
 10
7.421227776761371
 20
1.147363660541495
 10
7.422312499549603
 20
1.149894680380742
 10
7.423614166895487
 20
1.152281070514857
 10
7.403872212149495
 20
1.152281070514857
 10
7.402425915098521
 20
1.147652919951695
 10
7.401413507162812
 20
1.14316939909362
 10
7.400907303194959
 20
1.138685878235567
 10
7.400834988342416
 20
1.134419301935147
 10
7.401124247752615
 20
1.130225040487272
 10
7.401919711130669
 20
1.126247723597052
 10
7.403076748771462
 20
1.122415036411942
 10
7.404595360674981
 20
1.118726978931899
 10
7.406547861693809
 20
1.115328180862077
 10
7.408789622122855
 20
1.112074012497364
 10
7.411392956814627
 20
1.109109103542829
 10
7.414285550916619
 20
1.10636113914595
 10
7.41753971928133
 20
1.103974749011813
 10
7.421083147056262
 20
1.101805303435331
 10
7.424843519388827
 20
1.099997432121593
 10
7.428893151131611
 20
1.098478820218053
 10
7.430050188772411
 20
1.098117245955309
 10
7.431279541265751
 20
1.097827986545111
 10
7.432508893759091
 20
1.097538727134911
 10
7.433810561104976
 20
1.097249467724713
 10
7.435039913598316
 20
1.097032523167057
 10
7.436341580944201
 20
1.096887893461969
 10
7.437570933437543
 20
1.096670948904314
 10
7.438872600783428
 20
1.096598634051771
 10
7.440101953276768
 20
1.09645400434668
 10
7.441331305770107
 20
1.096381689494116
 10
7.442560658263447
 20
1.09630937464157
 10
7.443717695904246
 20
1.09630937464157
 10
7.444874733545041
 20
1.09630937464157
 10
7.445959456333294
 20
1.09630937464157
 10
7.447044179121544
 20
1.096381689494116
 10
7.44805658705721
 20
1.09645400434668
 10
7.44805658705721
 20
1.088788629976418
 10
7.440174268129331
 20
1.08437742397091
 10
7.43858334137325
 20
1.084015849708167
 10
7.436992414617142
 20
1.083798905150512
 10
7.435401487861061
 20
1.083798905150512
 10
7.433955190810066
 20
1.084015849708167
 10
7.432436578906544
 20
1.084305109118365
 10
7.431062596708097
 20
1.084811313086198
 10
7.429760929362211
 20
1.085462146759161
 10
7.428459262016307
 20
1.086185295284648
 10
7.427229909522965
 20
1.087053073515245
 10
7.426072871882167
 20
1.087993166598387
 10
7.424988149093938
 20
1.089077889386617
 10
7.423975741158252
 20
1.090162612174869
 10
7.423035648075089
 20
1.091391964668209
 10
7.422167869844513
 20
1.092621317161549
 10
7.421372406466482
 20
1.093850669654891
 10
7.42072157279354
 20
1.095152337000774
 10
7.40683712110403
 20
1.088716315123873
 10
7.407487954776972
 20
1.087486962630533
 10
7.408283418155003
 20
1.086257610137193
 10
7.409078881533053
 20
1.084955942791308
 10
7.409946659763652
 20
1.083726590297968
 10
7.410959067699337
 20
1.082497237804627
 10
7.411971475635025
 20
1.081267885311287
 10
7.413128513275821
 20
1.080183162523034
 10
7.414285550916619
 20
1.079026124882239
 10
7.415514903409956
 20
1.078013716946552
 10
7.416888885608388
 20
1.07707362386341
 10
7.418335182659402
 20
1.076278160485359
 10
7.419781479710377
 20
1.075482697107328
 10
7.421372406466482
 20
1.074904178286929
 10
7.422963333222543
 20
1.074397974319075
 10
7.42469888968374
 20
1.074036400056332
 10
7.426506760997478
 20
1.073891770351242
 10
7.427085279817875
 20
1.073891770351242
 10
7.427663798638276
 20
1.073964085203787
 10
7.428314632311215
 20
1.074036400056332
 10
7.428965465984159
 20
1.074108714908877
 10
7.429543984804557
 20
1.074253344613987
 10
7.430194818477497
 20
1.074470289171642
 10
7.430773337297897
 20
1.074687233729274
 10
7.431351856118296
 20
1.074904178286929
 10
7.462664187272205
 20
1.093344465687037
 10
7.463387335797713
 20
1.093922984507435
 10
7.463893539765547
 20
1.094718447885487
 10
7.464110484323222
 20
1.095658540968629
 10
7.464182799175768
 20
1.096670948904314
 10
7.464182799175768
 20
1.145121900112469
 10
7.464038169470657
 20
1.146785141721097
 10
7.463748910060457
 20
1.148303753624636
 10
7.463242706092602
 20
1.149533106117978
 10
7.462591872419662
 20
1.150545514053685
 10
7.461796409041631
 20
1.151268662579172
 10
7.460856315958467
 20
1.15184718139957
 10
7.459916222875348
 20
1.152136440809768
 10
7.458976129792183
 20
1.152281070514857
  0
LWPOLYLINE
  5
82B
330
17
100
AcDbEntity
  8
4
  6
Continuous
100
AcDbPolyline
 90
      138
 70
     0
 43
0.0
 10
7.740325296219226
 20
1.151051718021517
 10
7.741843908122763
 20
1.149966995233287
 10
7.743073260616103
 20
1.148737642739946
 10
7.744085668551789
 20
1.147363660541495
 10
7.744808817077277
 20
1.145917363490501
 10
7.745387335897677
 20
1.14439875158696
 10
7.745748910160442
 20
1.142807824830876
 10
7.745965854718074
 20
1.141072268369704
 10
7.74603816957062
 20
1.139264397055965
 10
7.74603816957062
 20
1.084955942791308
 10
7.744736502224735
 20
1.084955942791308
 10
7.743434834878847
 20
1.085028257643853
 10
7.742133167532962
 20
1.085172887348963
 10
7.740903815039621
 20
1.085389831906596
 10
7.739602147693737
 20
1.085679091316795
 10
7.738372795200398
 20
1.086040665579537
 10
7.737143442707058
 20
1.086474554694848
 10
7.735986405066261
 20
1.086908443810135
 10
7.73475705257292
 20
1.087486962630533
 10
7.733600014932125
 20
1.088065481450932
 10
7.732515292143872
 20
1.088716315123873
 10
7.731430569355643
 20
1.089439463649382
 10
7.730345846567391
 20
1.090234927027412
 10
7.729261123779158
 20
1.091030390405465
 10
7.728248715843454
 20
1.091898168636063
 10
7.727308622760332
 20
1.092765946866639
 10
7.725645381151684
 20
1.094429188475287
 10
7.724126769248144
 20
1.096237059789026
 10
7.722752787049695
 20
1.098117245955309
 10
7.721523434556353
 20
1.100142061826703
 10
7.720438711768121
 20
1.102239192550619
 10
7.719570933537523
 20
1.104336323274557
 10
7.718847785012036
 20
1.106578083703604
 10
7.718341581044183
 20
1.10881984413263
 10
7.718052321633986
 20
1.110916974856569
 10
7.717835377076332
 20
1.113014105580505
 10
7.717835377076332
 20
1.115183551156988
 10
7.71798000678142
 20
1.117280681880925
 10
7.718269266191641
 20
1.119377812604863
 10
7.718703155306927
 20
1.12147494332878
 10
7.719353988979892
 20
1.123499759200172
 10
7.720221767210468
 20
1.12545226021902
 10
7.720872600883411
 20
1.126681612712362
 10
7.721523434556353
 20
1.12791096520568
 10
7.722174268229296
 20
1.129068002846477
 10
7.722897416754802
 20
1.130225040487272
 10
7.723548250427747
 20
1.131382078128069
 10
7.724271398953255
 20
1.1324668009163
 10
7.725066862331286
 20
1.133551523704551
 10
7.725862325709317
 20
1.134563931640237
 10
7.726657789087392
 20
1.135648654428489
 10
7.727453252465423
 20
1.136661062364175
 10
7.728321030695997
 20
1.13767347029986
 10
7.729188808926616
 20
1.138685878235567
 10
7.730128902009737
 20
1.139625971318708
 10
7.7310689950929
 20
1.140638379254395
 10
7.732009088176018
 20
1.141578472337537
 10
7.733021496111727
 20
1.142590880273244
 10
7.733889274342322
 20
1.143603288208929
 10
7.734467793162701
 20
1.144688010997159
 10
7.734829367425464
 20
1.145772733785412
 10
7.734901682278008
 20
1.146857456573664
 10
7.734829367425464
 20
1.147942179361894
 10
7.734612422867832
 20
1.149026902150146
 10
7.734250848605067
 20
1.150039310085831
 10
7.733744644637212
 20
1.151051718021517
 10
7.707783612571972
 20
1.151051718021517
 10
7.708362131392371
 20
1.150545514053685
 10
7.708940650212771
 20
1.150039310085831
 10
7.709519169033146
 20
1.149533106117978
 10
7.710097687853545
 20
1.14895458729758
 10
7.710603891821378
 20
1.148376068477202
 10
7.711110095789231
 20
1.147725234804239
 10
7.711543984904539
 20
1.147074401131296
 10
7.711977874019829
 20
1.146423567458353
 10
7.712845652250423
 20
1.144471066439527
 10
7.713279541365735
 20
1.142373935715589
 10
7.713279541365735
 20
1.140204490139106
 10
7.712990281955515
 20
1.138035044562625
 10
7.712411763135117
 20
1.135720969281033
 10
7.711471670051995
 20
1.133479208852007
 10
7.710386947263745
 20
1.131382078128069
 10
7.709157594770402
 20
1.129357262256675
 10
7.707855927424518
 20
1.127332446385303
 10
7.706481945226068
 20
1.125379945366456
 10
7.705107963027616
 20
1.123355129495084
 10
7.703878610534276
 20
1.12133031362369
 10
7.702866202598611
 20
1.119305497752297
 10
7.701998424367991
 20
1.117280681880925
 10
7.701347590695051
 20
1.115111236304443
 10
7.700841386727199
 20
1.11294179072794
 10
7.70055212731702
 20
1.110772345151459
 10
7.700407497611931
 20
1.108530584722432
 10
7.700407497611931
 20
1.106288824293405
 10
7.700624442169565
 20
1.104047063864358
 10
7.700913701579763
 20
1.102600766813383
 10
7.701202960989962
 20
1.101154469762389
 10
7.701636850105272
 20
1.099708172711393
 10
7.702143054073106
 20
1.098334190512965
 10
7.702721572893502
 20
1.096960208314514
 10
7.703372406566442
 20
1.095658540968629
 10
7.704023240239387
 20
1.094284558770177
 10
7.70481870361744
 20
1.093055206276837
 10
7.705614166995471
 20
1.091825853783497
 10
7.706481945226068
 20
1.090596501290157
 10
7.70742203830921
 20
1.089439463649382
 10
7.708434446244917
 20
1.088282426008585
 10
7.709446854180603
 20
1.087197703220334
 10
7.710459262116287
 20
1.086112980432103
 10
7.711543984904539
 20
1.085100572496396
 10
7.712701022545336
 20
1.084160479413255
 10
7.714002689891219
 20
1.083148071477568
 10
7.715448986942193
 20
1.082207978394428
 10
7.716895283993213
 20
1.081340200163831
 10
7.71841389589673
 20
1.080544736785777
 10
7.720004822652835
 20
1.07982158826029
 10
7.721595749408897
 20
1.079170754587349
 10
7.723258991017549
 20
1.078519920914406
 10
7.724922232626197
 20
1.078013716946552
 10
7.726585474234823
 20
1.077579827831264
 10
7.728248715843454
 20
1.077145938715955
 10
7.729984272304647
 20
1.076784364453212
 10
7.731719828765842
 20
1.076567419895557
 10
7.733383070374468
 20
1.076350475337924
 10
7.735118626835664
 20
1.076205845632814
 10
7.736781868444292
 20
1.076061215927725
 10
7.738445110052942
 20
1.076061215927725
 10
7.762670585657009
 20
1.076061215927725
 10
7.762670585657009
 20
1.14194004660028
 10
7.762670585657009
 20
1.143097084241077
 10
7.762670585657009
 20
1.144254121881872
 10
7.762815215362119
 20
1.145483474375212
 10
7.763032159919752
 20
1.146712826868552
 10
7.763466049035062
 20
1.147869864509349
 10
7.764044567855459
 20
1.14895458729758
 10
7.764912346086035
 20
1.150039310085831
 10
7.76606938372683
 20
1.151051718021517
 10
7.740325296219226
 20
1.151051718021517
  0
LWPOLYLINE
  5
82C
330
17
100
AcDbEntity
  8
4
  6
Continuous
100
AcDbPolyline
 90
       96
 70
     0
 43
0.0
 10
7.614517569317788
 20
1.076061215927725
 10
7.613360531676992
 20
1.076856679305757
 10
7.612203494036196
 20
1.077652142683809
 10
7.61119108610051
 20
1.078592235766951
 10
7.610323307869913
 20
1.079532328850091
 10
7.609600159344427
 20
1.080617051638343
 10
7.609021640524028
 20
1.081846404131684
 10
7.608660066261285
 20
1.083148071477568
 10
7.608515436556174
 20
1.084522053675998
 10
7.608515436556174
 20
1.131454392980614
 10
7.608515436556174
 20
1.133406893999462
 10
7.608370806851064
 20
1.13535939501829
 10
7.608081547440887
 20
1.137456525742226
 10
7.607503028620488
 20
1.139481341613599
 10
7.606635250389892
 20
1.141578472337537
 10
7.605261268191441
 20
1.143530973356385
 10
7.603453396877702
 20
1.145483474375212
 10
7.600994691891022
 20
1.147363660541495
 10
7.599476079987505
 20
1.148303753624636
 10
7.597885153231398
 20
1.149099217002689
 10
7.596294226475316
 20
1.149750050675633
 10
7.594558670014142
 20
1.150328569496031
 10
7.592823113552946
 20
1.150690143758774
 10
7.591087557091753
 20
1.150907088316428
 10
7.589352000630561
 20
1.151051718021517
 10
7.587544129316822
 20
1.151051718021517
 10
7.58580857285565
 20
1.150907088316428
 10
7.584073016394453
 20
1.150690143758774
 10
7.582409774785825
 20
1.150400884348574
 10
7.580746533177177
 20
1.149966995233287
 10
7.579227921273656
 20
1.149460791265432
 10
7.577709309370098
 20
1.14880995759249
 10
7.576263012319125
 20
1.148159123919547
 10
7.57496134497324
 20
1.147363660541495
 10
7.574238196447732
 20
1.147002086278751
 10
7.573587362774786
 20
1.146640512016009
 10
7.572864214249277
 20
1.146278937753264
 10
7.572213380576337
 20
1.145845048637956
 10
7.571562546903396
 20
1.145338844670124
 10
7.570839398377906
 20
1.144832640702271
 10
7.570188564704965
 20
1.144181807029327
 10
7.569393101326912
 20
1.143530973356385
 10
7.569031527064168
 20
1.144904955554814
 10
7.568453008243769
 20
1.146134308048154
 10
7.56780217457083
 20
1.147219030836406
 10
7.567006711192797
 20
1.148231438772093
 10
7.566138932962179
 20
1.149099217002689
 10
7.565198839879057
 20
1.149822365528176
 10
7.564258746795895
 20
1.150473199201119
 10
7.563246338860208
 20
1.150979403168972
 10
7.546686237626387
 20
1.150979403168972
 10
7.548204849529925
 20
1.14989468038072
 10
7.549506516875811
 20
1.14866532788738
 10
7.550591239664062
 20
1.147363660541495
 10
7.551531332747182
 20
1.145845048637956
 10
7.552254481272691
 20
1.144254121881872
 10
7.552760685240524
 20
1.142446250568134
 10
7.553122259503287
 20
1.14056606440185
 10
7.553194574355829
 20
1.138468933677913
 10
7.553194574355829
 20
1.074253344613987
 10
7.570043934999878
 20
1.087270018072878
 10
7.570043934999878
 20
1.131743652390812
 10
7.570333194410052
 20
1.134130042524948
 10
7.571056342935539
 20
1.136227173248886
 10
7.572141065723793
 20
1.138035044562625
 10
7.573587362774786
 20
1.139553656466165
 10
7.575250604383414
 20
1.140783008959504
 10
7.577058475697156
 20
1.141650787190102
 10
7.579010976715982
 20
1.142229306010479
 10
7.580963477734831
 20
1.142446250568134
 10
7.582120515375628
 20
1.142446250568134
 10
7.583277553016403
 20
1.142301620863044
 10
7.584362275804655
 20
1.142084676305389
 10
7.585446998592903
 20
1.141795416895192
 10
7.586459406528589
 20
1.141433842632447
 10
7.587471814464277
 20
1.140927638664593
 10
7.588411907547437
 20
1.14042143469674
 10
7.589279685778013
 20
1.139770601023797
 10
7.590147464008612
 20
1.139119767350855
 10
7.59087061253412
 20
1.138396618825369
 10
7.591449131354519
 20
1.137528840594771
 10
7.592027650174896
 20
1.136733377216718
 10
7.592461539290185
 20
1.135793284133578
 10
7.592750798700401
 20
1.134853191050436
 10
7.592967743258037
 20
1.133840783114749
 10
7.593040058110581
 20
1.132756060326499
 10
7.593040058110581
 20
1.083148071477568
 10
7.593112372963124
 20
1.081991033836772
 10
7.593257002668234
 20
1.080761681343432
 10
7.593618576930982
 20
1.079604643702635
 10
7.594124780898831
 20
1.078447606061862
 10
7.594920244276865
 20
1.077507512978719
 10
7.595932652212572
 20
1.076712049600667
 10
7.597306634411002
 20
1.076205845632814
 10
7.599042190872196
 20
1.076061215927725
 10
7.614517569317788
 20
1.076061215927725
  0
LWPOLYLINE
  5
82D
330
17
100
AcDbEntity
  8
4
  6
Continuous
100
AcDbPolyline
 90
       21
 70
     0
 43
0.0
 10
7.534410822086306
 20
1.150907088316428
 10
7.515319701013232
 20
1.150907088316428
 10
7.516259794096395
 20
1.150256254643485
 10
7.517199887179518
 20
1.149388476412889
 10
7.51813998026268
 20
1.148520698182291
 10
7.518935443640712
 20
1.147508290246606
 10
7.519658592166217
 20
1.146495882310899
 10
7.520237110986596
 20
1.145338844670124
 10
7.52059868524936
 20
1.144181807029327
 10
7.520743314954452
 20
1.142952454535987
 10
7.520743314954452
 20
1.076350475337924
 10
7.53874971323929
 20
1.076350475337924
 10
7.53874971323929
 20
1.146568197163464
 10
7.538677398386727
 20
1.14758060509915
 10
7.538460453829072
 20
1.148448383329746
 10
7.538026564713781
 20
1.149171531855234
 10
7.537520360745951
 20
1.149822365528176
 10
7.536869527072987
 20
1.150256254643485
 10
7.536146378547503
 20
1.150617828906228
 10
7.535350915169447
 20
1.150834773463883
 10
7.534410822086306
 20
1.150907088316428
  0
LWPOLYLINE
  5
82E
330
17
100
AcDbEntity
  8
4
  6
Continuous
100
AcDbPolyline
 90
       34
 70
     0
 43
0.0
 10
7.646382156770067
 20
1.145266529817557
 10
7.649202436019472
 20
1.144977270407359
 10
7.651950400416374
 20
1.14439875158696
 10
7.654553735108144
 20
1.143386343651274
 10
7.657084754947367
 20
1.142012361452845
 10
7.65939883022896
 20
1.14042143469674
 10
7.661640590658008
 20
1.138468933677913
 10
7.663665406529381
 20
1.136299488101432
 10
7.665545592695662
 20
1.133913097967294
 10
7.667281149156859
 20
1.131237448422959
 10
7.668727446207832
 20
1.128489484026079
 10
7.670029113553717
 20
1.125524575071565
 10
7.671113836341969
 20
1.122487351264487
 10
7.671981614572565
 20
1.119305497752297
 10
7.672560133392963
 20
1.116051329387584
 10
7.67299402250825
 20
1.112797161022851
 10
7.673066337360795
 20
1.109470677805573
 10
7.672849392803163
 20
1.106433453998495
 10
7.672270873982764
 20
1.103540859896524
 10
7.671403095752167
 20
1.10072058064708
 10
7.670246058111391
 20
1.098117245955309
 10
7.668799761060398
 20
1.095586226116084
 10
7.667136519451767
 20
1.093272150834492
 10
7.665256333285462
 20
1.091175020110554
 10
7.663303832266615
 20
1.089222519091727
 10
7.6612067015427
 20
1.087414647777989
 10
7.659037255966217
 20
1.085823721021905
 10
7.656795495537192
 20
1.084449738823454
 10
7.654626049960688
 20
1.083292701182657
 10
7.652384289531662
 20
1.082424922952083
 10
7.650287158807722
 20
1.081701774426574
 10
7.648262342936352
 20
1.081267885311287
 10
7.646382156770067
 20
1.081050940753631
 10
7.646382156770067
 20
1.145266529817557
  0
LWPOLYLINE
  5
82F
330
17
100
AcDbEntity
  8
4
  6
Continuous
100
AcDbPolyline
 90
       44
 70
     0
 43
0.0
 10
7.654553735108144
 20
1.151268662579172
 10
7.622518255428723
 20
1.151268662579172
 10
7.623530663364411
 20
1.150690143758774
 10
7.624687701005206
 20
1.14989468038072
 10
7.625772423793458
 20
1.148737642739946
 10
7.626857146581713
 20
1.14743597539404
 10
7.62779723966483
 20
1.145917363490501
 10
7.628592703042882
 20
1.144181807029327
 10
7.629026592158171
 20
1.142373935715589
 10
7.629243536715847
 20
1.14042143469674
 10
7.629243536715847
 20
1.076061215927725
 10
7.653252067762259
 20
1.076061215927725
 10
7.657301699505024
 20
1.076278160485359
 10
7.6612067015427
 20
1.076856679305757
 10
7.664967073875266
 20
1.077796772388899
 10
7.668510501650197
 20
1.079098439734804
 10
7.671836984867455
 20
1.080761681343432
 10
7.675018838379644
 20
1.082786497214826
 10
7.677911432481612
 20
1.085028257643853
 10
7.680587082025971
 20
1.087631592335644
 10
7.682973472160085
 20
1.090451871585067
 10
7.685142917736568
 20
1.09356141024469
 10
7.687023103902851
 20
1.096887893461969
 10
7.688541715806411
 20
1.100431321236902
 10
7.689771068299752
 20
1.104191693569468
 10
7.690711161382871
 20
1.108096695607144
 10
7.691217365350726
 20
1.112218642202454
 10
7.69143430990838
 20
1.116485218502873
 10
7.691289680203268
 20
1.12010096113035
 10
7.690711161382871
 20
1.123572074052717
 10
7.689771068299752
 20
1.126898557269994
 10
7.688469400953843
 20
1.130080410782184
 10
7.686878474197762
 20
1.133189949441807
 10
7.684998288031477
 20
1.136010228691231
 10
7.682828842454973
 20
1.138685878235567
 10
7.680370137468295
 20
1.141144583222249
 10
7.677766802776522
 20
1.143386343651274
 10
7.674874208674531
 20
1.145411159522667
 10
7.671836984867455
 20
1.147146715983863
 10
7.668582816502744
 20
1.148593013034835
 10
7.665256333285462
 20
1.149750050675633
 10
7.661785220363098
 20
1.150617828906228
 10
7.658169477735619
 20
1.151124032874083
 10
7.654553735108144
 20
1.151268662579172
  0
LWPOLYLINE
  5
830
330
17
100
AcDbEntity
  8
4
  6
Continuous
100
AcDbPolyline
 90
      133
 70
     0
 43
0.0
 10
7.853132345157356
 20
1.14758060509915
 10
7.851902992664017
 20
1.146278937753264
 10
7.850745955023219
 20
1.144760325849725
 10
7.849733547087534
 20
1.14316939909362
 10
7.848648824299303
 20
1.141506157484992
 10
7.847564101511053
 20
1.139915230728907
 10
7.846407063870255
 20
1.138324303972823
 10
7.84525002622946
 20
1.136878006921829
 10
7.84387604403103
 20
1.135648654428489
 10
7.843369840063176
 20
1.135287080165745
 10
7.842863636095324
 20
1.134925505902981
 10
7.842357432127469
 20
1.134563931640237
 10
7.841851228159637
 20
1.134202357377494
 10
7.841345024191805
 20
1.133840783114749
 10
7.840766505371407
 20
1.133479208852007
 10
7.840187986551009
 20
1.133117634589262
 10
7.8394648380255
 20
1.132756060326499
 10
7.865715129500983
 20
1.132756060326499
 10
7.864558091860186
 20
1.131815967243356
 10
7.863473369071932
 20
1.130875874160215
 10
7.862460961136227
 20
1.129935781077074
 10
7.861448553200562
 20
1.128923373141389
 10
7.8605084601174
 20
1.127838650353137
 10
7.859568367034258
 20
1.126753927564906
 10
7.85870058880366
 20
1.125669204776654
 10
7.857905125425628
 20
1.124512167135857
 10
7.857037347195011
 20
1.123282814642518
 10
7.856314198669525
 20
1.121981147296633
 10
7.855591050144039
 20
1.120607165098204
 10
7.85486790161855
 20
1.119233182899752
 10
7.854144753093065
 20
1.117714570996212
 10
7.853493919420099
 20
1.116195959092674
 10
7.852843085747156
 20
1.114532717484046
 10
7.852264566926757
 20
1.112797161022851
 10
7.851252158991074
 20
1.10896447383772
 10
7.850673640170674
 20
1.10513178665261
 10
7.850601325318132
 20
1.101226784614932
 10
7.850962899580853
 20
1.097321782577256
 10
7.851758362958928
 20
1.09356141024469
 10
7.853060030304812
 20
1.08987335276467
 10
7.854723271913463
 20
1.086402239842302
 10
7.856892717489922
 20
1.083220386330113
 10
7.857977440278174
 20
1.081918718984228
 10
7.859206792771514
 20
1.080689366490888
 10
7.860580774969944
 20
1.079460013997547
 10
7.862099386873505
 20
1.078375291209295
 10
7.863617998777022
 20
1.077290568421065
 10
7.865281240385674
 20
1.076278160485359
 10
7.867016796846866
 20
1.075410382254782
 10
7.868824668160606
 20
1.074614918876729
 10
7.870632539474343
 20
1.073891770351242
 10
7.872512725640627
 20
1.0732409366783
 10
7.874320596954365
 20
1.072734732710447
 10
7.876200783120649
 20
1.072373158447704
 10
7.878080969286933
 20
1.072083899037505
 10
7.879888840600669
 20
1.072011584184939
 10
7.881696711914409
 20
1.072011584184939
 10
7.883432268375581
 20
1.07215621389005
 10
7.885601713952062
 20
1.072517788152792
 10
7.887771159528567
 20
1.072951677268102
 10
7.889868290252483
 20
1.073530196088499
 10
7.891893106123855
 20
1.074253344613987
 10
7.893917921995268
 20
1.075048807992017
 10
7.895798108161553
 20
1.075988901075159
 10
7.897678294327834
 20
1.07707362386341
 10
7.899341535936462
 20
1.078302976356751
 10
7.901004777545093
 20
1.079676958555202
 10
7.902451074596107
 20
1.081123255606176
 10
7.903825056794538
 20
1.082714182362281
 10
7.905054409287878
 20
1.084449738823454
 10
7.90613913207613
 20
1.086329924989737
 10
7.907006910306706
 20
1.088282426008585
 10
7.907730058832192
 20
1.090451871585067
 10
7.90830857765259
 20
1.092693632014094
 10
7.906717650896527
 20
1.091319649815664
 10
7.905054409287878
 20
1.090090297322324
 10
7.903246537974139
 20
1.088933259681527
 10
7.901438666660402
 20
1.087993166598387
 10
7.899558480494119
 20
1.08712538836779
 10
7.89760597947529
 20
1.086402239842302
 10
7.895581163603898
 20
1.085823721021905
 10
7.893556347732504
 20
1.085389831906596
 10
7.891531531861132
 20
1.085100572496396
 10
7.889434401137195
 20
1.085028257643853
 10
7.887409585265801
 20
1.085028257643853
 10
7.885384769394431
 20
1.085245202201507
 10
7.883359953523037
 20
1.08560677646425
 10
7.881407452504188
 20
1.086185295284648
 10
7.87945495148536
 20
1.086908443810135
 10
7.877574765319076
 20
1.087776222040732
 10
7.87576689400534
 20
1.088933259681527
 10
7.874103652396691
 20
1.090162612174869
 10
7.872585040493172
 20
1.091608909225864
 10
7.871138743442177
 20
1.093127521129404
 10
7.869909390948835
 20
1.094863077590575
 10
7.868752353308039
 20
1.096598634051771
 10
7.867812260224897
 20
1.098478820218053
 10
7.866944481994301
 20
1.100431321236902
 10
7.866221333468793
 20
1.102456137108274
 10
7.865715129500983
 20
1.104480952979667
 10
7.865281240385674
 20
1.106578083703604
 10
7.864991980975453
 20
1.108747529280086
 10
7.864847351270363
 20
1.110844660004024
 10
7.864847351270363
 20
1.113014105580505
 10
7.864991980975453
 20
1.115183551156988
 10
7.865281240385674
 20
1.117280681880925
 10
7.866076703763705
 20
1.119739386867606
 10
7.866944481994301
 20
1.121908832444087
 10
7.867884575077441
 20
1.12393364831546
 10
7.868969297865694
 20
1.125813834481764
 10
7.870126335506491
 20
1.127621705795504
 10
7.871500317704919
 20
1.129284947404131
 10
7.873091244461027
 20
1.131020503865325
 10
7.874899115774764
 20
1.132683745473954
 10
7.888638937759143
 20
1.132683745473954
 10
7.889434401137195
 20
1.132683745473954
 10
7.890374494220337
 20
1.132828375179063
 10
7.891386902156022
 20
1.132973004884153
 10
7.892399310091706
 20
1.133262264294352
 10
7.893411718027413
 20
1.133551523704551
 10
7.894279496257992
 20
1.133985412819839
 10
7.895074959636065
 20
1.134419301935147
 10
7.895653478456442
 20
1.134997820755547
 10
7.908814781620445
 20
1.151051718021517
 10
7.861376238347997
 20
1.151051718021517
 10
7.860002256149548
 20
1.150979403168972
 10
7.85884521850875
 20
1.150907088316428
 10
7.857760495720519
 20
1.150690143758774
 10
7.856820402637379
 20
1.150328569496031
 10
7.855880309554237
 20
1.14989468038072
 10
7.855012531323638
 20
1.149316161560344
 10
7.854072438240499
 20
1.148520698182291
 10
7.853132345157356
 20
1.14758060509915
  0
LWPOLYLINE
  5
831
330
17
100
AcDbEntity
  8
4
  6
Continuous
100
AcDbPolyline
 90
      205
 70
     0
 43
0.0
 10
7.836654825802518
 20
1.142518565420677
 10
7.834702324783689
 20
1.144543381292072
 10
7.832605194059751
 20
1.146423567458353
 10
7.830218803925615
 20
1.148014494214438
 10
7.827687784086389
 20
1.149388476412889
 10
7.825012134542054
 20
1.150545514053685
 10
7.822264170145174
 20
1.151485607136826
 10
7.819299261190661
 20
1.152208755662312
 10
7.816334352236127
 20
1.152714959630167
 10
7.81336944328159
 20
1.153004219040365
 10
7.810332219474513
 20
1.153076533892909
 10
7.807222680814891
 20
1.152859589335256
 10
7.804257771860354
 20
1.152498015072512
 10
7.80129286290582
 20
1.15184718139957
 10
7.798400268803852
 20
1.150979403168972
 10
7.795652304406972
 20
1.149822365528176
 10
7.792976654862657
 20
1.148520698182291
 10
7.790951838991242
 20
1.14729134568895
 10
7.789071652824961
 20
1.145989678343066
 10
7.787263781511222
 20
1.144471066439527
 10
7.785600539902592
 20
1.142880139683442
 10
7.784009613146508
 20
1.141144583222249
 10
7.782563316095536
 20
1.13933671190851
 10
7.781261648749628
 20
1.137384210889683
 10
7.780032296256287
 20
1.13535939501829
 10
7.7790198883206
 20
1.133334579146896
 10
7.778079795237441
 20
1.131165133570415
 10
7.777356646711952
 20
1.128923373141389
 10
7.776778127891553
 20
1.126681612712362
 10
7.776344238776268
 20
1.124439852283314
 10
7.776127294218611
 20
1.122125777001744
 10
7.775982664513525
 20
1.119739386867606
 10
7.776127294218611
 20
1.117425311586014
 10
7.776199609071157
 20
1.116268273945218
 10
7.776344238776268
 20
1.115038921451877
 10
7.776488868481377
 20
1.113881883811103
 10
7.776778127891553
 20
1.112724846170307
 10
7.777139702154321
 20
1.111640123382054
 10
7.777718220974718
 20
1.110627715446369
 10
7.778441369500205
 20
1.109832252068317
 10
7.779381462583347
 20
1.109253733247918
 10
7.779815351698633
 20
1.109036788690285
 10
7.780249240813941
 20
1.108892158985175
 10
7.780755444781798
 20
1.10881984413263
 10
7.781189333897062
 20
1.10881984413263
 10
7.781695537864917
 20
1.108892158985175
 10
7.78220174183277
 20
1.108892158985175
 10
7.782707945800626
 20
1.109036788690285
 10
7.783358779473567
 20
1.109109103542829
 10
7.804836290680753
 20
1.112869475875396
 10
7.805776383763917
 20
1.113014105580505
 10
7.806788791699582
 20
1.113158735285594
 10
7.807728884782744
 20
1.113231050138139
 10
7.808741292718432
 20
1.113303364990705
 10
7.80968138580157
 20
1.113303364990705
 10
7.810693793737276
 20
1.113303364990705
 10
7.811633886820398
 20
1.113303364990705
 10
7.812646294756104
 20
1.113231050138139
 10
7.813586387839228
 20
1.113158735285594
 10
7.814598795774933
 20
1.113014105580505
 10
7.815538888858074
 20
1.112869475875396
 10
7.816478981941217
 20
1.112652531317762
 10
7.817491389876923
 20
1.112435586760107
 10
7.818431482960063
 20
1.112146327349909
 10
7.819299261190661
 20
1.111857067939709
 10
7.820239354273781
 20
1.111495493676966
 10
7.822408799850284
 20
1.110338456036169
 10
7.824144356311481
 20
1.108747529280086
 10
7.825518338509907
 20
1.106867343113804
 10
7.826386116740486
 20
1.104770212389865
 10
7.826892320708338
 20
1.102456137108274
 10
7.827036950413448
 20
1.100069746974136
 10
7.826747691003251
 20
1.097683356840023
 10
7.826024542477762
 20
1.095369281558429
 10
7.825301393952275
 20
1.093850669654891
 10
7.824505930574201
 20
1.092404372603895
 10
7.823493522638536
 20
1.09110270525801
 10
7.822408799850284
 20
1.08987335276467
 10
7.821179447356946
 20
1.088716315123873
 10
7.819877780011061
 20
1.087703907188187
 10
7.818503797812608
 20
1.08683612895759
 10
7.817057500761613
 20
1.086040665579537
 10
7.815538888858074
 20
1.085389831906596
 10
7.813947962101989
 20
1.084883627938762
 10
7.812357035345907
 20
1.084522053675998
 10
7.810766108589821
 20
1.08437742397091
 10
7.809102866981172
 20
1.084305109118365
 10
7.807439625372522
 20
1.084449738823454
 10
7.805848698616459
 20
1.084738998233653
 10
7.804257771860354
 20
1.085172887348963
 10
7.802956104514472
 20
1.085679091316795
 10
7.80172675202113
 20
1.086257610137193
 10
7.800569714380333
 20
1.08683612895759
 10
7.799412676739536
 20
1.087559277483078
 10
7.798255639098762
 20
1.088282426008585
 10
7.797170916310513
 20
1.089150204239182
 10
7.796086193522281
 20
1.089945667617215
 10
7.795073785586573
 20
1.090885760700355
 10
7.794133692503431
 20
1.091825853783497
 10
7.793121284567747
 20
1.092838261719204
 10
7.792253506337147
 20
1.093850669654891
 10
7.791385728106551
 20
1.094863077590575
 10
7.790517949875978
 20
1.095947800378828
 10
7.789722486497923
 20
1.097104838019624
 10
7.788927023119871
 20
1.098189560807854
 10
7.788203874594382
 20
1.09934659844865
 10
7.771065254540159
 20
1.090885760700355
 10
7.772439236738592
 20
1.088644000271329
 10
7.774030163494697
 20
1.086619184399935
 10
7.775765719955867
 20
1.084666683381108
 10
7.777645906122153
 20
1.082858812067371
 10
7.779670721993546
 20
1.081267885311287
 10
7.781840167570027
 20
1.07982158826029
 10
7.784081927999053
 20
1.078519920914406
 10
7.786468318133191
 20
1.077435198126154
 10
7.788927023119871
 20
1.076495105043012
 10
7.791385728106551
 20
1.075699641664981
 10
7.793989062798321
 20
1.075121122844584
 10
7.796592397490112
 20
1.074687233729274
 10
7.799195732181902
 20
1.074470289171642
 10
7.801799066873674
 20
1.074470289171642
 10
7.804402401565464
 20
1.074687233729274
 10
7.807005736257234
 20
1.075048807992017
 10
7.809609070949027
 20
1.075699641664981
 10
7.812140090788251
 20
1.076495105043012
 10
7.814526480922387
 20
1.077507512978719
 10
7.816912871056525
 20
1.078809180324604
 10
7.819154631485552
 20
1.080183162523034
 10
7.821251762209492
 20
1.081774089279118
 10
7.82327657808086
 20
1.083509645740312
 10
7.825156764247168
 20
1.085462146759161
 10
7.826820005855792
 20
1.087486962630533
 10
7.828410932611897
 20
1.08958409335447
 10
7.829784914810327
 20
1.091898168636063
 10
7.830941952451124
 20
1.094284558770177
 10
7.831954360386808
 20
1.096670948904314
 10
7.832749823764861
 20
1.099201968743561
 10
7.833328342585259
 20
1.101805303435331
 10
7.833617601995436
 20
1.104480952979667
 10
7.833689916847983
 20
1.106505768851039
 10
7.833617601995436
 20
1.108530584722432
 10
7.833400657437804
 20
1.110483085741259
 10
7.83303908317504
 20
1.112507901612653
 10
7.832460564354661
 20
1.114388087778936
 10
7.8318097306817
 20
1.116268273945218
 10
7.830941952451124
 20
1.118076145258956
 10
7.829857229662875
 20
1.11981170172015
 10
7.828989451432298
 20
1.120968739360947
 10
7.828049358349133
 20
1.121981147296633
 10
7.827036950413448
 20
1.122921240379774
 10
7.825879912772651
 20
1.123789018610372
 10
7.824722875131877
 20
1.124584481988424
 10
7.823493522638536
 20
1.125235315661366
 10
7.82219185529263
 20
1.125886149334309
 10
7.820817873094179
 20
1.126392353302163
 10
7.81944389089575
 20
1.126898557269994
 10
7.818069908697322
 20
1.127260131532737
 10
7.816623611646326
 20
1.127621705795504
 10
7.815249629447874
 20
1.12791096520568
 10
7.813803332396902
 20
1.128127909763335
 10
7.812357035345907
 20
1.128272539468446
 10
7.810910738294913
 20
1.128417169173534
 10
7.809536756096481
 20
1.128489484026079
 10
7.808668977865884
 20
1.128561798878644
 10
7.807728884782744
 20
1.128561798878644
 10
7.806861106552148
 20
1.128489484026079
 10
7.805993328321551
 20
1.128489484026079
 10
7.805125550090951
 20
1.128417169173534
 10
7.804185457007809
 20
1.128344854320989
 10
7.803317678777236
 20
1.128200224615879
 10
7.802449900546617
 20
1.128127909763335
 10
7.801582122316039
 20
1.127983280058246
 10
7.800714344085422
 20
1.127838650353137
 10
7.799774251002301
 20
1.127694020648047
 10
7.798906472771705
 20
1.127549390942937
 10
7.798038694541108
 20
1.127404761237849
 10
7.797170916310513
 20
1.127260131532737
 10
7.796230823227371
 20
1.127115501827649
 10
7.795363044996775
 20
1.126970872122539
 10
7.782491001242971
 20
1.123861333462915
 10
7.78220174183277
 20
1.125090685956257
 10
7.782346371537858
 20
1.126970872122539
 10
7.782852575505713
 20
1.129284947404131
 10
7.783648038883764
 20
1.131888282095922
 10
7.78480507652454
 20
1.134491616787692
 10
7.786251373575557
 20
1.136950321774374
 10
7.787914615184186
 20
1.138975137645767
 10
7.789867116203012
 20
1.140493749549307
 10
7.791602672664207
 20
1.141289212927337
 10
7.793410543977923
 20
1.141867731747735
 10
7.795290730144227
 20
1.142301620863044
 10
7.797243231163077
 20
1.142518565420677
 10
7.799195732181902
 20
1.142590880273244
 10
7.801220548053278
 20
1.142518565420677
 10
7.803173049072103
 20
1.142229306010479
 10
7.805125550090951
 20
1.141795416895192
 10
7.807078051109802
 20
1.141216898074792
 10
7.808885922423541
 20
1.140493749549307
 10
7.810693793737276
 20
1.139698286171254
 10
7.812357035345907
 20
1.138758193088112
 10
7.813875647249447
 20
1.13767347029986
 10
7.815249629447874
 20
1.13644411780652
 10
7.816478981941217
 20
1.135142450460634
 10
7.817563704729467
 20
1.133768468262206
 10
7.836654825802518
 20
1.142518565420677
  0
LWPOLYLINE
  5
832
330
17
100
AcDbEntity
  8
4
  6
Continuous
100
AcDbPolyline
 90
       21
 70
     0
 43
0.0
 10
7.967819371899232
 20
1.135214765313179
 10
7.967602427341556
 20
1.132973004884153
 10
7.966951593668611
 20
1.130875874160215
 10
7.965939185732927
 20
1.129068002846477
 10
7.964565203534474
 20
1.127477076090393
 10
7.96290196192587
 20
1.126175408744507
 10
7.961021775759565
 20
1.125235315661366
 10
7.958996959888173
 20
1.124656796840967
 10
7.95682751431171
 20
1.124439852283314
 10
7.942292228949257
 20
1.124439852283314
 10
7.942292228949257
 20
1.143024769388532
 10
7.940773617045699
 20
1.146568197163464
 10
7.957044458869344
 20
1.146568197163464
 10
7.959286219298392
 20
1.146351252605809
 10
7.961311035169765
 20
1.145700418932867
 10
7.963118906483502
 20
1.144688010997159
 10
7.964709833239608
 20
1.14331402879873
 10
7.966011500585491
 20
1.141578472337537
 10
7.966951593668611
 20
1.139698286171254
 10
7.967602427341556
 20
1.137528840594771
 10
7.967819371899232
 20
1.135214765313179
  0
LWPOLYLINE
  5
833
330
17
100
AcDbEntity
  8
4
  6
Continuous
100
AcDbPolyline
 90
       61
 70
     0
 43
0.0
 10
7.968180946161955
 20
1.11887160863701
 10
7.970278076885912
 20
1.119016238342099
 10
7.972302892757284
 20
1.119305497752297
 10
7.974110764071022
 20
1.119739386867606
 10
7.97577400567965
 20
1.120317905688005
 10
7.977220302730647
 20
1.121041054213491
 10
7.978594284929076
 20
1.121836517591545
 10
7.979823637422414
 20
1.122776610674685
 10
7.980908360210667
 20
1.123861333462915
 10
7.981848453293831
 20
1.125018371103711
 10
7.982643916671862
 20
1.126247723597052
 10
7.983294750344806
 20
1.127549390942937
 10
7.983800954312656
 20
1.128995687993932
 10
7.984234843427945
 20
1.130441985044928
 10
7.984524102838146
 20
1.131960596948466
 10
7.984668732543232
 20
1.133551523704551
 10
7.984741047395798
 20
1.135214765313179
 10
7.984668732543232
 20
1.136733377216718
 10
7.984379473133057
 20
1.138251989120258
 10
7.98401789887029
 20
1.139698286171254
 10
7.983439380049895
 20
1.141144583222249
 10
7.982788546376951
 20
1.142518565420677
 10
7.981920768146374
 20
1.143820232766584
 10
7.981052989915758
 20
1.145049585259924
 10
7.979968267127525
 20
1.146206622900699
 10
7.978883544339296
 20
1.147219030836406
 10
7.977654191845954
 20
1.148159123919547
 10
7.97635252450007
 20
1.14895458729758
 10
7.974978542301618
 20
1.149677735823087
 10
7.973604560103168
 20
1.150256254643485
 10
7.972158263052196
 20
1.150617828906228
 10
7.970639651148633
 20
1.150907088316428
 10
7.969121039245116
 20
1.150979403168972
 10
7.918428327607934
 20
1.150979403168972
 10
7.919151476133422
 20
1.150400884348574
 10
7.919802309806364
 20
1.149822365528176
 10
7.920453143479307
 20
1.149171531855234
 10
7.921031662299705
 20
1.148593013034835
 10
7.921610181120105
 20
1.148014494214438
 10
7.922188699940501
 20
1.14729134568895
 10
7.922694903908355
 20
1.146568197163464
 10
7.923201107876187
 20
1.145700418932867
 10
7.923924256401694
 20
1.144109492176782
 10
7.924502775222094
 20
1.142229306010479
 10
7.924864349484816
 20
1.14042143469674
 10
7.925008979189924
 20
1.138975137645767
 10
7.92508129404249
 20
1.073964085203787
 10
7.942509173506892
 20
1.089222519091727
 10
7.942509173506892
 20
1.119377812604863
 10
7.950174547877156
 20
1.119450127457408
 10
7.976280209647503
 20
1.076205845632814
 10
7.998770128790376
 20
1.076061215927725
 10
7.997396146591946
 20
1.076856679305757
 10
7.996022164393518
 20
1.077796772388899
 10
7.994720497047633
 20
1.07873686547206
 10
7.993491144554293
 20
1.07982158826029
 10
7.992261792060951
 20
1.080833996195976
 10
7.991104754420157
 20
1.081991033836772
 10
7.989947716779361
 20
1.083148071477568
 10
7.988790679138563
 20
1.08437742397091
 10
7.968180946161955
 20
1.11887160863701
  0
LWPOLYLINE
  5
834
330
17
100
AcDbEntity
  8
4
  6
Continuous
100
AcDbPolyline
 90
       21
 70
     0
 43
0.0
 10
8.001053418479742
 20
1.151051718021517
 10
8.002427400678174
 20
1.150328569496031
 10
8.003584438318965
 20
1.149460791265432
 10
8.004596846254653
 20
1.148448383329746
 10
8.005319994780162
 20
1.14729134568895
 10
8.005898513600557
 20
1.145989678343066
 10
8.006332402715846
 20
1.144615696144616
 10
8.006549347273502
 20
1.143097084241077
 10
8.006621662126047
 20
1.141506157484992
 10
8.006621662126047
 20
1.076061215927725
 10
8.024411115853213
 20
1.076061215927725
 10
8.024411115853213
 20
1.141723102042647
 10
8.024483430705751
 20
1.143241713946187
 10
8.024845004968522
 20
1.144543381292072
 10
8.025278894083808
 20
1.145845048637956
 10
8.026002042609293
 20
1.147002086278751
 10
8.026797505987348
 20
1.148086809067004
 10
8.027809913923036
 20
1.149171531855234
 10
8.028894636711264
 20
1.150111624938376
 10
8.03019630405717
 20
1.151051718021517
 10
8.001053418479742
 20
1.151051718021517
  0
TEXT
  5
835
330
17
100
AcDbEntity
  8
4
100
AcDbText
 10
8.203820114629195
 20
1.07497774240278
 30
0.0
 40
0.04
  1
inc., erie, pa.
 41
0.9
  7
T
100
AcDbText
  0
LWPOLYLINE
  5
836
330
17
100
AcDbEntity
  8
4
  6
Continuous
 62
     4
100
AcDbPolyline
 90
      205
 70
     0
 43
0.0
 10
8.167716544744623
 20
1.142012361452845
 10
8.165764043725797
 20
1.144037177324217
 10
8.163666913001835
 20
1.145845048637956
 10
8.161280522867722
 20
1.14743597539404
 10
8.158749503028474
 20
1.148882272445035
 10
8.156073853484162
 20
1.150039310085831
 10
8.153325889087257
 20
1.150979403168972
 10
8.150433294985289
 20
1.151702551694459
 10
8.147468386030777
 20
1.152208755662312
 10
8.1444311622237
 20
1.152425700219968
 10
8.141393938416619
 20
1.152498015072512
 10
8.138356714609543
 20
1.152353385367423
 10
8.135319490802462
 20
1.151919496252114
 10
8.132354581847927
 20
1.151268662579172
 10
8.129461987745937
 20
1.150400884348574
 10
8.126714023349077
 20
1.149316161560344
 10
8.124038373804722
 20
1.148014494214438
 10
8.12201355793335
 20
1.146785141721097
 10
8.120133371767067
 20
1.145411159522667
 10
8.118325500453327
 20
1.143964862471672
 10
8.116662258844678
 20
1.142373935715589
 10
8.115071332088616
 20
1.140638379254395
 10
8.1136250350376
 20
1.138758193088112
 10
8.11225105283917
 20
1.136878006921829
 10
8.111094015198375
 20
1.134853191050436
 10
8.110009292410142
 20
1.132756060326499
 10
8.109069199327002
 20
1.130586614750015
 10
8.108346050801515
 20
1.128417169173534
 10
8.107767531981117
 20
1.126175408744507
 10
8.107333642865807
 20
1.123861333462915
 10
8.107044383455608
 20
1.121547258181345
 10
8.106972068603061
 20
1.119233182899752
 10
8.107116698308175
 20
1.116919107618182
 10
8.107189013160716
 20
1.115689755124842
 10
8.107333642865807
 20
1.114532717484046
 10
8.107478272570897
 20
1.113303364990705
 10
8.107767531981117
 20
1.112146327349909
 10
8.108201421096403
 20
1.111061604561657
 10
8.108707625064237
 20
1.110049196625972
 10
8.109503088442288
 20
1.109253733247918
 10
8.110443181525432
 20
1.108675214427542
 10
8.110877070640738
 20
1.108458269869887
 10
8.111310959756027
 20
1.108313640164777
 10
8.111817163723884
 20
1.108313640164777
 10
8.11225105283917
 20
1.108313640164777
 10
8.112757256807022
 20
1.108313640164777
 10
8.113263460774877
 20
1.108385955017342
 10
8.113841979595273
 20
1.108530584722432
 10
8.114492813268217
 20
1.108602899574975
 10
8.135970324475405
 20
1.112363271907564
 10
8.136910417558546
 20
1.112507901612653
 10
8.137922825494232
 20
1.112580216465197
 10
8.138862918577395
 20
1.112724846170307
 10
8.139875326513058
 20
1.112724846170307
 10
8.140815419596222
 20
1.112797161022851
 10
8.141827827531907
 20
1.112797161022851
 10
8.14276792061505
 20
1.112724846170307
 10
8.143780328550757
 20
1.112652531317762
 10
8.144720421633877
 20
1.112580216465197
 10
8.145732829569585
 20
1.112435586760107
 10
8.146672922652726
 20
1.112290957054997
 10
8.147613015735867
 20
1.112074012497364
 10
8.148553108819008
 20
1.111857067939709
 10
8.149493201902147
 20
1.111640123382054
 10
8.150433294985289
 20
1.111350863971855
 10
8.15130107321589
 20
1.110989289709113
 10
8.153470518792392
 20
1.109832252068317
 10
8.155278390106106
 20
1.108241325312232
 10
8.156580057452012
 20
1.10636113914595
 10
8.157520150535134
 20
1.104191693569468
 10
8.15802635450299
 20
1.101949933140442
 10
8.158098669355535
 20
1.099563543006304
 10
8.157809409945352
 20
1.097177152872168
 10
8.157086261419848
 20
1.094790762738031
 10
8.156363112894338
 20
1.093272150834492
 10
8.155567649516306
 20
1.091825853783497
 10
8.154555241580602
 20
1.090524186437612
 10
8.153470518792392
 20
1.089294833944271
 10
8.152313481151598
 20
1.088137796303475
 10
8.151011813805691
 20
1.08712538836779
 10
8.149565516754693
 20
1.086257610137193
 10
8.148119219703717
 20
1.085462146759161
 10
8.146600607800182
 20
1.084811313086198
 10
8.145081995896642
 20
1.08437742397091
 10
8.143418754287992
 20
1.084015849708167
 10
8.141827827531907
 20
1.083798905150512
 10
8.140236900775825
 20
1.083726590297968
 10
8.138573659167175
 20
1.083871220003056
 10
8.136982732411091
 20
1.084160479413255
 10
8.135391805655004
 20
1.084666683381108
 10
8.134090138309119
 20
1.085172887348963
 10
8.132860785815783
 20
1.085751406169339
 10
8.131631433322437
 20
1.086329924989737
 10
8.130474395681645
 20
1.087053073515245
 10
8.129317358040847
 20
1.087776222040732
 10
8.128232635252597
 20
1.088571685418785
 10
8.127220227316932
 20
1.089439463649382
 10
8.126135504528678
 20
1.090379556732522
 10
8.125195411445517
 20
1.091319649815664
 10
8.124255318362397
 20
1.092259742898805
 10
8.123315225279235
 20
1.093272150834492
 10
8.12244744704866
 20
1.094356873622744
 10
8.121579668818037
 20
1.095441596410974
 10
8.12078420544001
 20
1.096526319199225
 10
8.11998874206198
 20
1.097611041987455
 10
8.119265593536471
 20
1.098768079628252
 10
8.102054658629702
 20
1.090379556732522
 10
8.103428640828131
 20
1.088137796303475
 10
8.105019567584218
 20
1.086040665579537
 10
8.10675512404541
 20
1.084088164560711
 10
8.108635310211692
 20
1.082352608099517
 10
8.110660126083086
 20
1.080689366490888
 10
8.112829571659569
 20
1.079243069439894
 10
8.115143646941158
 20
1.077941402094009
 10
8.117457722222731
 20
1.076856679305757
 10
8.119916427209432
 20
1.075916586222614
 10
8.12244744704866
 20
1.075121122844584
 10
8.125050781740428
 20
1.074542604024185
 10
8.1276541164322
 20
1.074181029761442
 10
8.130257451123988
 20
1.073964085203787
 10
8.132860785815783
 20
1.073964085203787
 10
8.135464120507553
 20
1.074108714908877
 10
8.138067455199317
 20
1.074542604024185
 10
8.140670789891133
 20
1.075121122844584
 10
8.14320180973036
 20
1.075988901075159
 10
8.145588199864493
 20
1.077001309010866
 10
8.147974589998611
 20
1.078230661504207
 10
8.150216350427637
 20
1.079676958555202
 10
8.152385796004139
 20
1.081267885311287
 10
8.154338297022967
 20
1.083003441772459
 10
8.156218483189249
 20
1.084883627938762
 10
8.157954039650443
 20
1.086908443810135
 10
8.159472651553983
 20
1.089077889386617
 10
8.160846633752433
 20
1.091319649815664
 10
8.162075986245753
 20
1.0937060399498
 10
8.163016079328892
 20
1.096164744936482
 10
8.163811542706946
 20
1.098695764775708
 10
8.164390061527345
 20
1.101299099467478
 10
8.164679320937544
 20
1.103902434159269
 10
8.164823950642633
 20
1.105927250030662
 10
8.164751635790089
 20
1.107952065902034
 10
8.164534691232457
 20
1.109976881773427
 10
8.164173116969692
 20
1.111929382792254
 10
8.163594598149295
 20
1.113881883811103
 10
8.162871449623807
 20
1.115762069977386
 10
8.162003671393211
 20
1.117569941291123
 10
8.16091894860498
 20
1.119305497752297
 10
8.160051170374359
 20
1.120390220540548
 10
8.159111077291237
 20
1.12147494332878
 10
8.158098669355535
 20
1.122415036411942
 10
8.157013946567303
 20
1.123210499789974
 10
8.155784594073942
 20
1.124005963168025
 10
8.154555241580602
 20
1.124729111693512
 10
8.153253574234717
 20
1.12530763051391
 10
8.151951906888829
 20
1.125886149334309
 10
8.150577924690402
 20
1.126320038449596
 10
8.149203942491951
 20
1.126753927564906
 10
8.147757645440957
 20
1.127115501827649
 10
8.146311348389982
 20
1.127404761237849
 10
8.144865051338985
 20
1.127621705795504
 10
8.143418754287992
 20
1.127766335500592
 10
8.141972457237017
 20
1.12791096520568
 10
8.140598475038567
 20
1.127983280058246
 10
8.139730696807967
 20
1.127983280058246
 10
8.138790603724826
 20
1.127983280058246
 10
8.137922825494232
 20
1.127983280058246
 10
8.137055047263656
 20
1.12791096520568
 10
8.136187269033039
 20
1.127838650353137
 10
8.135319490802462
 20
1.127766335500592
 10
8.134451712571866
 20
1.127694020648047
 10
8.133583934341267
 20
1.127549390942937
 10
8.132643841258126
 20
1.127404761237849
 10
8.13177606302753
 20
1.127260131532737
 10
8.130908284796934
 20
1.127115501827649
 10
8.130040506566333
 20
1.127043186975104
 10
8.12917272833576
 20
1.126898557269994
 10
8.12830495010516
 20
1.126753927564906
 10
8.127364857022021
 20
1.126609297859795
 10
8.126497078791423
 20
1.126464668154707
 10
8.113552720185055
 20
1.123282814642518
 10
8.113335775627422
 20
1.124512167135857
 10
8.113480405332509
 20
1.126392353302163
 10
8.11391429444782
 20
1.128706428583734
 10
8.114782072678393
 20
1.131309763275524
 10
8.115866795466647
 20
1.133913097967294
 10
8.117313092517639
 20
1.136371802953975
 10
8.119048648978813
 20
1.138396618825369
 10
8.121001149997661
 20
1.139915230728907
 10
8.122736706458837
 20
1.140710694106939
 10
8.124544577772574
 20
1.141361527779903
 10
8.126424763938857
 20
1.141723102042647
 10
8.128377264957709
 20
1.142012361452845
 10
8.130329765976558
 20
1.142084676305389
 10
8.132354581847927
 20
1.14194004660028
 10
8.134307082866753
 20
1.141723102042647
 10
8.136259583885603
 20
1.141289212927337
 10
8.138212084904431
 20
1.140710694106939
 10
8.140019956218168
 20
1.139987545581452
 10
8.141755512679342
 20
1.139119767350855
 10
8.143418754287992
 20
1.138179674267714
 10
8.14493736619153
 20
1.137094951479484
 10
8.146383663242524
 20
1.135865598986143
 10
8.147613015735867
 20
1.134563931640237
 10
8.148625423671571
 20
1.133189949441807
 10
8.167716544744623
 20
1.142012361452845
  0
LWPOLYLINE
  5
837
330
17
100
AcDbEntity
  8
4
  6
Continuous
100
AcDbPolyline
 90
       88
 70
     0
 43
0.0
 10
8.085565432326047
 20
1.150979403168972
 10
8.03819920390617
 20
1.150979403168972
 10
8.039500871252055
 20
1.149966995233287
 10
8.04080253859794
 20
1.14880995759249
 10
8.041959576238735
 20
1.147508290246606
 10
8.043044299026966
 20
1.146206622900699
 10
8.043912077257562
 20
1.144688010997159
 10
8.044562910930505
 20
1.14316939909362
 10
8.044996800045812
 20
1.141433842632447
 10
8.045213744603445
 20
1.139698286171254
 10
8.045213744603445
 20
1.089439463649382
 10
8.032992534522582
 20
1.076061215927725
 10
8.076598390609921
 20
1.076061215927725
 10
8.077466168840517
 20
1.076061215927725
 10
8.078333947071097
 20
1.076205845632814
 10
8.079201725301713
 20
1.076278160485359
 10
8.079997188679744
 20
1.076495105043012
 10
8.080864966910343
 20
1.076712049600667
 10
8.081732745140937
 20
1.077001309010866
 10
8.082528208518972
 20
1.077290568421065
 10
8.083395986749566
 20
1.077724457536354
 10
8.084191450127621
 20
1.078086031799097
 10
8.084986913505652
 20
1.078519920914406
 10
8.085710062031161
 20
1.079026124882239
 10
8.08643321055667
 20
1.079532328850091
 10
8.087156359082152
 20
1.080110847670489
 10
8.087879507607642
 20
1.080689366490888
 10
8.088458026428039
 20
1.081267885311287
 10
8.08910886010098
 20
1.081918718984228
 10
8.090844416562177
 20
1.084088164560711
 10
8.092218398760607
 20
1.086619184399935
 10
8.093230806696315
 20
1.089294833944271
 10
8.093809325516712
 20
1.092042798341152
 10
8.093881640369254
 20
1.094863077590575
 10
8.093447751253947
 20
1.097466412282366
 10
8.092363028465692
 20
1.099925117269049
 10
8.090699786857086
 20
1.10209456284553
 10
8.074935149001294
 20
1.095296966705886
 10
8.075730612379325
 20
1.094139929065089
 10
8.07638144605227
 20
1.092838261719204
 10
8.076887650020122
 20
1.091536594373297
 10
8.077249224282866
 20
1.090162612174869
 10
8.077466168840517
 20
1.088788629976418
 10
8.077466168840517
 20
1.087414647777989
 10
8.077249224282866
 20
1.086040665579537
 10
8.076815335167577
 20
1.084738998233653
 10
8.076236816347178
 20
1.083798905150512
 10
8.075585982674237
 20
1.082931126919915
 10
8.074718204443641
 20
1.082135663541882
 10
8.073850426213045
 20
1.081557144721486
 10
8.072838018277337
 20
1.081050940753631
 10
8.071825610341672
 20
1.080617051638343
 10
8.070740887553418
 20
1.080400107080689
 10
8.069656164765168
 20
1.080327792228144
 10
8.044996800045812
 20
1.080327792228144
 10
8.061339956721983
 20
1.097249467724713
 10
8.061339956721983
 20
1.113737254105992
 10
8.080575707500143
 20
1.113737254105992
 10
8.080575707500143
 20
1.119522442309952
 10
8.061629216132182
 20
1.119522442309952
 10
8.061629216132182
 20
1.141506157484992
 10
8.058230418062361
 20
1.146785141721097
 10
8.069149960797313
 20
1.146785141721097
 10
8.071608665783994
 20
1.146640512016009
 10
8.073633481655409
 20
1.14606199319561
 10
8.075224408411472
 20
1.145121900112469
 10
8.07638144605227
 20
1.143820232766584
 10
8.077032279725212
 20
1.142301620863044
 10
8.077249224282866
 20
1.14056606440185
 10
8.076959964872667
 20
1.138613563383022
 10
8.076164501494634
 20
1.136661062364175
 10
8.093086176991201
 20
1.131526707833157
 10
8.094243214631998
 20
1.132756060326499
 10
8.095110992862597
 20
1.134130042524948
 10
8.095761826535539
 20
1.135648654428489
 10
8.096123400798282
 20
1.137167266332028
 10
8.096268030503392
 20
1.138758193088112
 10
8.096123400798282
 20
1.14042143469674
 10
8.095834141388085
 20
1.142012361452845
 10
8.095327937420229
 20
1.143603288208929
 10
8.094677103747287
 20
1.145049585259924
 10
8.093809325516712
 20
1.146495882310899
 10
8.092796917581003
 20
1.147725234804239
 10
8.091567565087665
 20
1.14880995759249
 10
8.09026589774178
 20
1.149750050675633
 10
8.088819600690781
 20
1.150400884348574
 10
8.087228673934699
 20
1.150834773463883
 10
8.085565432326047
 20
1.150979403168972
  0
MTEXT
  5
839
330
17
100
AcDbEntity
  8
0
100
AcDbMText
 10
5.432942246391403
 20
0.9930669994218932
 30
0.0
 40
0.063
 41
0.0
 71
     4
 72
     1
  1
\A1;
  7
ROMANS
 73
     1
 44
1.0
1001
ACAD
1000
MTEXTBEGIN
1070
    73
1070
     1
1070
    44
1040
1.0
1070
    74
1070
     0
1000
MTEXTEND
  0
CIRCLE
  5
83A
330
17
100
AcDbEntity
  8
0
100
AcDbCircle
 10
5.552085519503922
 20
2.734210827954418
 30
0.0
 40
0.369
  0
MTEXT
  5
A26
330
17
100
AcDbEntity
  8
0
100
AcDbMText
 10
5.749827901697249
 20
3.627724502875948
 30
0.0
 40
0.063
 41
0.0
 71
     4
 72
     1
  1
\A1;
  7
ROMANS
 73
     1
 44
1.0
1001
ACAD
1000
MTEXTBEGIN
1070
    73
1070
     1
1070
    44
1040
1.0
1070
    74
1070
     0
1000
MTEXTEND
  0
LINE
  5
C9E
330
17
100
AcDbEntity
  8
0
100
AcDbLine
 10
7.233190633101031
 20
2.629210827954417
 30
0.0
 11
7.233190633101031
 21
2.839210827954417
 31
0.0
  0
LINE
  5
C9F
102
{ACAD_REACTORS
330
DD2
102
}
330
17
100
AcDbEntity
  8
0
100
AcDbLine
 10
7.213190633101032
 20
2.859210827954417
 30
0.0
 11
6.659190633101031
 21
2.859210827954417
 31
0.0
  0
LINE
  5
CA0
330
17
100
AcDbEntity
  8
0
100
AcDbLine
 10
6.639190633101032
 20
2.629210827954417
 30
0.0
 11
6.639190633101032
 21
2.709210827954418
 31
0.0
  0
LINE
  5
CA1
102
{ACAD_REACTORS
330
DD2
102
}
330
17
100
AcDbEntity
  8
0
100
AcDbLine
 10
7.213190633101032
 20
2.609210827954418
 30
0.0
 11
6.659190633101031
 21
2.609210827954418
 31
0.0
  0
LINE
  5
CA2
330
17
100
AcDbEntity
  8
0
100
AcDbLine
 10
6.659190633101031
 20
2.609210827954418
 30
0.0
 11
6.639190633101032
 21
2.629210827954417
 31
0.0
  0
LINE
  5
CA3
330
17
100
AcDbEntity
  8
0
100
AcDbLine
 10
6.659190633101031
 20
2.859210827954417
 30
0.0
 11
6.639190633101032
 21
2.839210827954417
 31
0.0
  0
LINE
  5
CA4
330
17
100
AcDbEntity
  8
0
100
AcDbLine
 10
7.233190633101031
 20
2.629210827954417
 30
0.0
 11
7.213190633101032
 21
2.609210827954418
 31
0.0
  0
LINE
  5
CA5
330
17
100
AcDbEntity
  8
0
100
AcDbLine
 10
7.233190633101031
 20
2.839210827954417
 30
0.0
 11
7.213190633101032
 21
2.859210827954417
 31
0.0
  0
LINE
  5
CA6
330
17
100
AcDbEntity
  8
0
100
AcDbLine
 10
6.659190633101031
 20
2.609210827954418
 30
0.0
 11
6.659190633101031
 21
2.709210827954418
 31
0.0
  0
LINE
  5
CA7
330
17
100
AcDbEntity
  8
0
100
AcDbLine
 10
7.173790633101031
 20
2.609210827954418
 30
0.0
 11
7.173790633101031
 21
2.859210827954417
 31
0.0
  0
LINE
  5
CA8
330
17
100
AcDbEntity
  8
0
100
AcDbLine
 10
7.203490633101031
 20
2.629210827954417
 30
0.0
 11
7.203490633101031
 21
2.839210827954417
 31
0.0
  0
LINE
  5
CA9
330
17
100
AcDbEntity
  8
0
100
AcDbLine
 10
7.114390633101031
 20
2.609210827954418
 30
0.0
 11
7.114390633101031
 21
2.859210827954417
 31
0.0
  0
LINE
  5
CAA
330
17
100
AcDbEntity
  8
0
100
AcDbLine
 10
7.144090633101031
 20
2.629210827954417
 30
0.0
 11
7.144090633101031
 21
2.839210827954417
 31
0.0
  0
LINE
  5
CAB
330
17
100
AcDbEntity
  8
0
100
AcDbLine
 10
7.054990633101032
 20
2.609210827954418
 30
0.0
 11
7.054990633101032
 21
2.859210827954417
 31
0.0
  0
LINE
  5
CAC
330
17
100
AcDbEntity
  8
0
100
AcDbLine
 10
7.084690633101032
 20
2.629210827954417
 30
0.0
 11
7.084690633101032
 21
2.839210827954417
 31
0.0
  0
LINE
  5
CAD
330
17
100
AcDbEntity
  8
0
100
AcDbLine
 10
6.995590633101032
 20
2.609210827954418
 30
0.0
 11
6.995590633101032
 21
2.859210827954417
 31
0.0
  0
LINE
  5
CAE
330
17
100
AcDbEntity
  8
0
100
AcDbLine
 10
7.025290633101032
 20
2.629210827954417
 30
0.0
 11
7.025290633101032
 21
2.839210827954417
 31
0.0
  0
LINE
  5
CAF
330
17
100
AcDbEntity
  8
0
100
AcDbLine
 10
6.936190633101031
 20
2.609210827954418
 30
0.0
 11
6.936190633101031
 21
2.709210827954418
 31
0.0
  0
LINE
  5
CB0
330
17
100
AcDbEntity
  8
0
100
AcDbLine
 10
6.965890633101031
 20
2.629210827954417
 30
0.0
 11
6.965890633101031
 21
2.839210827954417
 31
0.0
  0
LINE
  5
CB1
330
17
100
AcDbEntity
  8
0
100
AcDbLine
 10
6.87679063310103
 20
2.609210827954418
 30
0.0
 11
6.87679063310103
 21
2.709210827954418
 31
0.0
  0
LINE
  5
CB2
330
17
100
AcDbEntity
  8
0
100
AcDbLine
 10
6.90649063310103
 20
2.629210827954417
 30
0.0
 11
6.90649063310103
 21
2.709210827954418
 31
0.0
  0
LINE
  5
CB3
330
17
100
AcDbEntity
  8
0
100
AcDbLine
 10
6.81739063310103
 20
2.609210827954418
 30
0.0
 11
6.81739063310103
 21
2.709210827954418
 31
0.0
  0
LINE
  5
CB4
330
17
100
AcDbEntity
  8
0
100
AcDbLine
 10
6.84709063310103
 20
2.629210827954417
 30
0.0
 11
6.84709063310103
 21
2.709210827954418
 31
0.0
  0
LINE
  5
CB5
330
17
100
AcDbEntity
  8
DIM
  6
CENTER
100
AcDbLine
 10
6.484380827073827
 20
2.734210827954417
 30
0.0
 11
7.328190633101031
 21
2.734210827954418
 31
0.0
  0
LINE
  5
CB6
330
17
100
AcDbEntity
  8
0
100
AcDbLine
 10
6.639190633101032
 20
2.709210827954418
 30
0.0
 11
6.951190633101031
 21
2.709210827954418
 31
0.0
  0
LINE
  5
CB7
330
17
100
AcDbEntity
  8
0
100
AcDbLine
 10
6.639190633101032
 20
2.759210827954417
 30
0.0
 11
6.951190633101031
 21
2.759210827954417
 31
0.0
  0
LINE
  5
CB8
330
17
100
AcDbEntity
  8
0
100
AcDbLine
 10
6.639190633101032
 20
2.759210827954417
 30
0.0
 11
6.639190633101032
 21
2.839210827954417
 31
0.0
  0
LINE
  5
CB9
330
17
100
AcDbEntity
  8
0
100
AcDbLine
 10
6.659190633101031
 20
2.759210827954417
 30
0.0
 11
6.659190633101031
 21
2.859210827954417
 31
0.0
  0
CIRCLE
  5
CBA
330
17
100
AcDbEntity
  8
0
100
AcDbCircle
 10
5.552085519503922
 20
2.734210827954418
 30
0.0
 40
0.1249999999999996
  0
CIRCLE
  5
CBB
330
17
100
AcDbEntity
  8
0
100
AcDbCircle
 10
5.552085519503922
 20
2.734210827954418
 30
0.0
 40
0.0759999999999996
  0
LINE
  5
CBC
330
17
100
AcDbEntity
  8
0
  6
HIDDEN
100
AcDbLine
 10
6.639190633101032
 20
2.658210827954417
 30
0.0
 11
7.233190633101031
 21
2.658210827954417
 31
0.0
  0
LINE
  5
CBD
330
17
100
AcDbEntity
  8
0
  6
HIDDEN
100
AcDbLine
 10
6.639190633101032
 20
2.810210827954416
 30
0.0
 11
7.233190633101031
 21
2.810210827954416
 31
0.0
  0
CIRCLE
  5
CBE
330
17
100
AcDbEntity
  8
0
100
AcDbCircle
 10
5.552085519503922
 20
2.734210827954418
 30
0.0
 40
0.1049999999999995
  0
LINE
  5
CBF
330
17
100
AcDbEntity
  8
0
100
AcDbLine
 10
5.674560006643079
 20
2.709210827954419
 30
0.0
 11
5.623855986967914
 21
2.709210827954419
 31
0.0
  0
LINE
  5
CC0
330
17
100
AcDbEntity
  8
0
100
AcDbLine
 10
5.674560006643079
 20
2.759210827954419
 30
0.0
 11
5.623855986967914
 21
2.759210827954419
 31
0.0
  0
LINE
  5
CC1
330
17
100
AcDbEntity
  8
0
100
AcDbLine
 10
5.480315052039927
 20
2.709210827954419
 30
0.0
 11
5.429611032364761
 21
2.709210827954419
 31
0.0
  0
LINE
  5
CC2
330
17
100
AcDbEntity
  8
0
100
AcDbLine
 10
5.480315052039929
 20
2.759210827954419
 30
0.0
 11
5.429611032364761
 21
2.759210827954419
 31
0.0
  0
LINE
  5
CC3
330
17
100
AcDbEntity
  8
0
100
AcDbLine
 10
6.793190633101032
 20
2.629210827954417
 30
0.0
 11
6.793190633101032
 21
2.709210827954418
 31
0.0
  0
LINE
  5
CC4
330
17
100
AcDbEntity
  8
0
100
AcDbLine
 10
6.951190633101031
 20
2.709210827954418
 30
0.0
 11
6.951190633101031
 21
2.759210827954417
 31
0.0
  0
LINE
  5
CCA
330
17
100
AcDbEntity
  8
0
100
AcDbLine
 10
6.793190633101032
 20
2.759210827954417
 30
0.0
 11
6.793190633101032
 21
2.839210827954417
 31
0.0
  0
LINE
  5
CCB
330
17
100
AcDbEntity
  8
0
100
AcDbLine
 10
6.81739063310103
 20
2.759210827954417
 30
0.0
 11
6.81739063310103
 21
2.859210827954417
 31
0.0
  0
LINE
  5
CCC
330
17
100
AcDbEntity
  8
0
100
AcDbLine
 10
6.84709063310103
 20
2.759210827954417
 30
0.0
 11
6.84709063310103
 21
2.839210827954417
 31
0.0
  0
LINE
  5
CCD
330
17
100
AcDbEntity
  8
0
100
AcDbLine
 10
6.87679063310103
 20
2.759210827954417
 30
0.0
 11
6.87679063310103
 21
2.859210827954417
 31
0.0
  0
LINE
  5
CCE
330
17
100
AcDbEntity
  8
0
100
AcDbLine
 10
6.90649063310103
 20
2.759210827954417
 30
0.0
 11
6.90649063310103
 21
2.839210827954417
 31
0.0
  0
LINE
  5
CCF
330
17
100
AcDbEntity
  8
0
100
AcDbLine
 10
6.936190633101031
 20
2.759210827954417
 30
0.0
 11
6.936190633101031
 21
2.859210827954417
 31
0.0
  0
LINE
  5
DA3
330
17
100
AcDbEntity
  8
0
100
AcDbLine
 10
6.99519063310103
 20
2.906210827954418
 30
0.0
 11
6.99519063310103
 21
2.969210827954418
 31
0.0
  0
LINE
  5
DA4
330
17
100
AcDbEntity
  8
0
100
AcDbLine
 10
7.190190633101031
 20
2.906210827954419
 30
0.0
 11
7.19019063310103
 21
2.969210827954415
 31
0.0
  0
LINE
  5
DAD
102
{ACAD_REACTORS
330
DD2
102
}
330
17
100
AcDbEntity
  8
0
100
AcDbLine
 10
7.15019063310103
 20
2.859210827954417
 30
0.0
 11
7.15019063310103
 21
2.906210827954419
 31
0.0
  0
LINE
  5
DAE
102
{ACAD_REACTORS
330
DD2
102
}
330
17
100
AcDbEntity
  8
0
100
AcDbLine
 10
7.150190633101027
 20
2.609210827954418
 30
0.0
 11
7.150190633101026
 21
2.56221082795442
 31
0.0
  0
LINE
  5
DAF
102
{ACAD_REACTORS
330
DD2
102
}
330
17
100
AcDbEntity
  8
0
100
AcDbLine
 10
6.736190633101028
 20
2.859210827954417
 30
0.0
 11
6.73619063310103
 21
3.103210827954418
 31
0.0
  0
HATCH
  5
DD2
330
17
100
AcDbEntity
  8
3
100
AcDbHatch
 10
0.0
 20
0.0
 30
0.0
210
0.0
220
0.0
230
1.0
  2
ANSI31
 70
     0
 71
     1
 91
        2
 92
        7
 72
     0
 73
     1
 93
       18
 10
7.15019063310103
 20
2.859210827954417
 10
7.150190633101031
 20
2.906210827954419
 10
6.955190633101032
 20
2.906210827954418
 10
6.955190633101032
 20
2.969210827954418
 10
7.288190633101027
 20
2.969210827954413
 10
7.28819063310103
 20
3.000710827954419
 10
6.99519063310103
 20
3.000710827954419
 10
6.995190633101032
 20
3.023260827954421
 10
6.986190633101028
 20
3.014710827954418
 10
6.951190633101028
 20
3.043210827954418
 10
6.92119063310103
 20
3.014710827954418
 10
6.89119063310103
 20
3.043210827954418
 10
6.861190633101028
 20
3.014710827954417
 10
6.86119063310103
 20
2.99421082795442
 10
6.830190633101032
 20
2.994210827954418
 10
6.830190633101032
 20
3.103210827954418
 10
6.736190633101028
 20
3.103210827954418
 10
6.736190633101028
 20
2.859210827954417
 97
       15
330
3C0
330
3E0
330
3C1
330
3D1
330
3D2
330
3D5
330
3DC
330
3DD
330
3D4
330
4EC
330
DAF
330
C9F
330
DAD
330
3BD
330
3DE
 92
        7
 72
     0
 73
     1
 93
       16
 10
6.830190633101032
 20
2.474210827954419
 10
6.86119063310103
 20
2.474210827954419
 10
6.861190633101031
 20
2.453710827954419
 10
6.891190633101028
 20
2.42521082795442
 10
6.921190633101032
 20
2.453710827954419
 10
6.951190633101027
 20
2.42521082795442
 10
6.98619063310103
 20
2.453710827954421
 10
6.99519063310103
 20
2.445160827954418
 10
6.99519063310103
 20
2.499210827954419
 10
6.955190633101032
 20
2.499210827954418
 10
6.955190633101032
 20
2.56221082795442
 10
7.150190633101027
 20
2.56221082795442
 10
7.150190633101026
 20
2.609210827954418
 10
6.736190633101031
 20
2.609210827954418
 10
6.73619063310103
 20
2.365210827954419
 10
6.830190633101032
 20
2.365210827954419
 97
       13
330
3BE
330
DAE
330
CA1
330
765
330
4ED
330
37B
330
3C9
330
3CA
330
3C2
330
3CB
330
3CC
330
3CD
330
3CE
 75
     0
 76
     1
 52
0.0
 41
0.5
 77
     0
 78
     1
 53
45.0
 43
1.358279822451333
 44
0.0
 45
-0.0441941738241592
 46
0.0441941738241592
 79
     0
 47
0.0028402273810209
 98
        2
 10
6.818741398397389
 20
2.921493682732872
 10
6.818741398397389
 20
2.52670207620646
  0
DIMENSION
  5
DEE
330
17
100
AcDbEntity
  8
3
100
AcDbDimension
  2
*D0
 10
7.288190633101027
 20
3.557734607863212
 30
0.0
 11
7.012190633101027
 21
3.557734607863212
 31
0.0
 70
    32
 71
     5
 42
0.5519999999999988
  3
STANDARD
100
AcDbAlignedDimension
 13
6.73619063310103
 23
3.103210827954418
 33
0.0
 14
7.288190633101027
 24
3.000710827954419
 34
0.0
100
AcDbRotatedDimension
1001
ACAD
1000
DSTYLE
1002
{
1070
   287
1070
     5
1070
   287
1070
     5
1070
   287
1070
     5
1070
    41
1040
0.063
1070
    42
1040
0.031
1070
    43
1040
0.125
1070
    44
1040
0.031
1070
    73
1070
     0
1070
    74
1070
     0
1070
    78
1070
     4
1070
   140
1040
0.063
1070
   141
1040
0.063
1070
   147
1040
0.045
1070
   174
1070
     1
1070
   271
1070
     3
1070
   272
1070
     3
1070
   279
1070
     2
1070
   284
1070
     4
1070
   285
1070
     4
1070
   286
1070
     4
1070
   340
1005
4A
1002
}
  0
TEXT
  5
E22
330
17
100
AcDbEntity
  8
2
100
AcDbText
 10
3.962489338162126
 20
1.58556426929468
 30
0.0
 40
0.039
  1
4
  7
SIMPLEX
 72
     1
 11
3.976417909590698
 21
1.58556426929468
 31
0.0
100
AcDbText
  0
DIMENSION
  5
12B7
330
17
100
AcDbEntity
  8
0
100
AcDbDimension
  2
*D2
 10
5.664825059868674
 20
2.382855173327453
 30
0.0
 11
5.349062688684467
 21
3.366936661286721
 31
0.0
 70
    35
 71
     5
 42
0.7380000000000004
  3
STANDARD
100
AcDbDiametricDimension
 15
5.439345979139169
 25
3.085566482581385
 35
0.0
 40
0.0
1001
ACAD
1000
DSTYLE
1002
{
1070
    41
1040
0.063
1070
    42
1040
0.031
1070
    43
1040
0.125
1070
    44
1040
0.031
1070
    73
1070
     0
1070
    74
1070
     0
1070
    78
1070
     4
1070
   140
1040
0.063
1070
   141
1040
0.063
1070
   147
1040
0.045
1070
   174
1070
     1
1070
   271
1070
     3
1070
   272
1070
     3
1070
   279
1070
     2
1070
   284
1070
     4
1070
   285
1070
     4
1070
   286
1070
     4
1070
   340
1005
4A
1002
}
1001
ACAD_DSTYLE_DIMRADIAL_EXTENSION
1070
   387
1070
     1
1070
   388
1040
0.0
1070
   390
1040
0.0
  0
ENDSEC
  0
SECTION
  2
OBJECTS
  0
DICTIONARY
  5
C
330
0
100
AcDbDictionary
281
     1
  3
ACAD_CIP_PREVIOUS_PRODUCT_INFO
350
12A4
  3
ACAD_COLOR
350
1285
  3
ACAD_DETAILVIEWSTYLE
350
129E
  3
ACAD_GROUP
350
D
  3
ACAD_LAYOUT
350
E1A
  3
ACAD_MATERIAL
350
1253
  3
ACAD_MLEADERSTYLE
350
129A
  3
ACAD_MLINESTYLE
350
1A
  3
ACAD_PLOTSETTINGS
350
E1B
  3
ACAD_PLOTSTYLENAME
350
E18
  3
ACAD_SCALELIST
350
1288
  3
ACAD_SECTIONVIEWSTYLE
350
129C
  3
ACAD_TABLESTYLE
350
1286
  3
ACAD_VISUALSTYLE
350
126C
  3
ACDB_RECOMPOSE_DATA
350
1344
  3
ACDBVARIABLEDICTIONARY
350
5A
  3
AcDsDecomposeData
350
134B
  3
DWGPROPS
350
1345
  0
DICTIONARY
  5
12CF
330
2
100
AcDbDictionary
280
     1
281
     1
  3
ACAD_LAYERSTATES
360
12D0
  0
DICTIONARY
  5
12C2
330
E
100
AcDbDictionary
280
     1
281
     1
  3
ADSK_XREC_LAYER_RECONCILED
360
12C3
  0
DICTIONARY
  5
12C4
330
51
100
AcDbDictionary
280
     1
281
     1
  3
ADSK_XREC_LAYER_RECONCILED
360
12C5
  0
DICTIONARY
  5
12C6
330
52
100
AcDbDictionary
280
     1
281
     1
  3
ADSK_XREC_LAYER_RECONCILED
360
12C7
  0
DICTIONARY
  5
12C8
330
53
100
AcDbDictionary
280
     1
281
     1
  3
ADSK_XREC_LAYER_RECONCILED
360
12C9
  0
DICTIONARY
  5
12CA
330
55
100
AcDbDictionary
280
     1
281
     1
  3
ADSK_XREC_LAYER_RECONCILED
360
12CB
  0
DICTIONARY
  5
EE6
330
17
100
AcDbDictionary
280
     1
281
     1
  3
ACAD_LAYOUTSELFREF
360
1217
  0
DICTIONARY
  5
EE4
330
14
100
AcDbDictionary
280
     1
281
     1
  3
ACAD_LAYOUTSELFREF
360
1216
  0
DICTIONARY
  5
138B
330
12BC
100
AcDbDictionary
280
     1
281
     1
  3
ACAD_MTEXT_RT
360
138C
  0
XRECORD
  5
12A4
102
{ACAD_REACTORS
330
C
102
}
330
C
100
AcDbXrecord
280
     1
300
AMECH_PP
300
2015
300
PDSU_F_S
  0
DICTIONARY
  5
1285
102
{ACAD_REACTORS
330
C
102
}
330
C
100
AcDbDictionary
281
     1
  0
DICTIONARY
  5
129E
102
{ACAD_REACTORS
330
C
102
}
330
C
100
AcDbDictionary
281
     1
  3
Imperial24
350
129F
  0
DICTIONARY
  5
D
102
{ACAD_REACTORS
330
C
102
}
330
C
100
AcDbDictionary
281
     1
  0
DICTIONARY
  5
E1A
102
{ACAD_REACTORS
330
C
102
}
330
C
100
AcDbDictionary
281
     1
  3
Layout1
350
E1D
  3
Model
350
E1C
  0
DICTIONARY
  5
1253
102
{ACAD_REACTORS
330
C
102
}
330
C
100
AcDbDictionary
281
     1
  3
ByBlock
350
125C
  3
ByLayer
350
1254
  3
Global
350
1264
  0
DICTIONARY
  5
129A
102
{ACAD_REACTORS
330
C
102
}
330
C
100
AcDbDictionary
281
     1
  3
Standard
350
129B
  0
DICTIONARY
  5
1A
102
{ACAD_REACTORS
330
C
102
}
330
C
100
AcDbDictionary
281
     1
  3
STANDARD
350
1B
  0
DICTIONARY
  5
E1B
102
{ACAD_REACTORS
330
C
102
}
330
C
100
AcDbDictionary
281
     1
  0
ACDBDICTIONARYWDFLT
  5
E18
102
{ACAD_REACTORS
330
C
102
}
330
C
100
AcDbDictionary
281
     1
  3
Normal
350
E19
100
AcDbDictionaryWithDefault
340
E19
  0
DICTIONARY
  5
1288
102
{ACAD_REACTORS
330
C
102
}
330
C
100
AcDbDictionary
281
     1
  3
A0
350
1289
  3
A1
350
128A
  3
A2
350
128B
  3
A3
350
128C
  3
A4
350
128D
  3
A5
350
128E
  3
A6
350
128F
  3
A7
350
1290
  3
A8
350
1291
  3
A9
350
1292
  3
B0
350
1293
  3
B1
350
1294
  3
B2
350
1295
  3
B3
350
1296
  3
B4
350
1297
  3
B5
350
1298
  3
B6
350
1299
  0
DICTIONARY
  5
129C
102
{ACAD_REACTORS
330
C
102
}
330
C
100
AcDbDictionary
281
     1
  3
Imperial24
350
129D
  0
DICTIONARY
  5
1286
102
{ACAD_REACTORS
330
C
102
}
330
C
100
AcDbDictionary
281
     1
  3
Standard
350
1287
  0
DICTIONARY
  5
126C
102
{ACAD_REACTORS
330
C
102
}
330
C
100
AcDbDictionary
281
     1
  3
2dWireframe
350
1272
  3
Basic
350
1271
  3
Brighten
350
1278
  3
ColorChange
350
127C
  3
Conceptual
350
1275
  3
Dim
350
1277
  3
EdgeColorOff
350
1284
  3
Facepattern
350
127B
  3
Flat
350
126D
  3
FlatWithEdges
350
126E
  3
Gouraud
350
126F
  3
GouraudWithEdges
350
1270
  3
Hidden
350
1274
  3
JitterOff
350
1282
  3
Linepattern
350
127A
  3
OverhangOff
350
1283
  3
Realistic
350
1276
  3
Shaded
350
1281
  3
Shaded with edges
350
1280
  3
Shades of Gray
350
127D
  3
Sketchy
350
127E
  3
Thicken
350
1279
  3
Wireframe
350
1273
  3
X-Ray
350
127F
  0
XRECORD
  5
1344
102
{ACAD_REACTORS
330
C
102
}
330
C
100
AcDbXrecord
280
     1
 90
        1
330
1287
  0
DICTIONARY
  5
5A
102
{ACAD_REACTORS
330
C
102
}
330
C
100
AcDbDictionary
281
     1
  3
CANNOSCALE
350
132D
  3
CMLEADERSTYLE
350
1329
  3
CTABLESTYLE
350
1328
  3
CVIEWDETAILSTYLE
350
132A
  3
CVIEWSECTIONSTYLE
350
132B
  3
DIMADEC
350
5B
  3
DIMASSOC
350
1236
  3
INDEXCTL
350
133E
  3
LAYEREVAL
350
132F
  3
LAYERNOTIFY
350
1330
  3
LIGHTINGUNITS
350
132E
  3
LOFTANG1
350
133F
  3
LOFTANG2
350
1340
  3
LONGITUDE
350
1341
  3
MSLTSCALE
350
132C
  3
SORTENTS
350
96C
  3
XCLIPFRAME
350
1342
  0
DICTIONARY
  5
134B
102
{ACAD_REACTORS
330
C
102
}
330
C
100
AcDbDictionary
281
     1
  3
AcDsRecords
350
134D
  3
AcDsSchemas
350
134C
1001
ACAD
1070
     2
  0
XRECORD
  5
1345
102
{ACAD_REACTORS
330
C
102
}
330
C
100
AcDbXrecord
280
     1
  1
DWGPROPS COOKIE
  2

  3

  4

  6

  7

  8
jmilewski
  9

300
=
301
=
302
=
303
=
304
=
305
=
306
=
307
=
308
=
309
=
 40
0.3394399768518518
 41
2451071.405263657
 42
2457155.470984803
  1

 90
        0
  0
DICTIONARY
  5
12D0
102
{ACAD_REACTORS
330
12CF
102
}
330
12CF
100
AcDbDictionary
281
     1
  0
XRECORD
  5
12C3
102
{ACAD_REACTORS
330
12C2
102
}
330
12C2
100
AcDbXrecord
280
     1
290
     1
  0
XRECORD
  5
12C5
102
{ACAD_REACTORS
330
12C4
102
}
330
12C4
100
AcDbXrecord
280
     1
290
     1
  0
XRECORD
  5
12C7
102
{ACAD_REACTORS
330
12C6
102
}
330
12C6
100
AcDbXrecord
280
     1
290
     1
  0
XRECORD
  5
12C9
102
{ACAD_REACTORS
330
12C8
102
}
330
12C8
100
AcDbXrecord
280
     1
290
     1
  0
XRECORD
  5
12CB
102
{ACAD_REACTORS
330
12CA
102
}
330
12CA
100
AcDbXrecord
280
     1
290
     1
  0
XRECORD
  5
1217
102
{ACAD_REACTORS
330
EE6
102
}
330
EE6
100
AcDbXrecord
280
     1
340
17
  0
XRECORD
  5
1216
102
{ACAD_REACTORS
330
EE4
102
}
330
EE4
100
AcDbXrecord
280
     1
340
14
  0
XRECORD
  5
138C
102
{ACAD_REACTORS
330
138B
102
}
330
138B
100
AcDbXrecord
280
     1
 40
6610.0
  1
\A1;\U+2205.738
  0
ACDBDETAILVIEWSTYLE
  5
129F
102
{ACAD_XDICTIONARY
360
1335
102
}
102
{ACAD_REACTORS
330
129E
102
}
330
129E
100
AcDbModelDocViewStyle
 70
     0
  3
Imperial24
290
     0
100
AcDbDetailViewStyle
 70
     0
 71
     0
 90
        3
 71
     1
340
F
 40
0.24
340
0
 40
0.24
300

 40
0.36
280
     3
 71
     2
340
13
 90
       25
 71
     3
340
F
 40
0.24
 90
        1
 40
0.75
 90
        1
300
%<\AcVar ViewType \f "%tc1">% %<\AcVar ViewDetailId>%\PSCALE %<\AcVar ViewScale \f "%sn">%
 71
     4
340
13
 90
       25
340
13
 90
       25
280
     0
  0
LAYOUT
  5
E1D
102
{ACAD_XDICTIONARY
360
1350
102
}
102
{ACAD_REACTORS
330
E1A
102
}
330
E1A
100
AcDbPlotSettings
  1

  2
EPSON Stylus Photo 1200
  4

  6

 40
0.0
 41
0.0
 42
0.0
 43
0.0
 44
0.0
 45
0.0
 46
0.0
 47
0.0
 48
0.0
 49
0.0
140
0.0
141
0.0
142
1.0
143
1.0
 70
   688
 72
     0
 73
     0
 74
     5
  7
1500BLACK.ctb
 75
    16
147
1.0
148
0.0
149
0.0
100
AcDbLayout
  1
Layout1
 70
     0
 71
     1
 10
0.0
 20
0.0
 11
12.0
 21
9.0
 12
0.0
 22
0.0
 32
0.0
 14
1.000000000000000E+20
 24
1.000000000000000E+20
 34
1.000000000000000E+20
 15
-1.000000000000000E+20
 25
-1.000000000000000E+20
 35
-1.000000000000000E+20
146
0.0
 13
0.0
 23
0.0
 33
0.0
 16
1.0
 26
0.0
 36
0.0
 17
0.0
 27
1.0
 37
0.0
 76
     0
330
14
  0
LAYOUT
  5
E1C
102
{ACAD_XDICTIONARY
360
134E
102
}
102
{ACAD_REACTORS
330
E1A
102
}
330
E1A
100
AcDbPlotSettings
  1

  2
EPSON Stylus Photo 1200
  4
Letter
  6

 40
3.757083177566528
 41
3.757076978683471
 42
3.757080078125
 43
3.757080078125
 44
215.8999938964844
 45
279.3999938964844
 46
-3.809999999999998
 47
-4.318
 48
0.0
 49
0.0
140
0.0
141
0.0
142
1.0
143
0.5
 70
 11940
 72
     0
 73
     1
 74
     1
  7
1500BLACK.ctb
 75
     0
147
2.0
148
-89.17130208300809
149
-7.265836111998458
100
AcDbLayout
  1
Model
 70
     1
 71
     0
 10
0.0
 20
0.0
 11
12.0
 21
9.0
 12
0.0
 22
0.0
 32
0.0
 14
0.0
 24
0.0
 34
0.0
 15
0.0
 25
0.0
 35
0.0
146
0.0
 13
0.0
 23
0.0
 33
0.0
 16
1.0
 26
0.0
 36
0.0
 17
0.0
 27
1.0
 37
0.0
 76
     0
330
17
331
1251
  0
MATERIAL
  5
125C
102
{ACAD_XDICTIONARY
360
125D
102
}
102
{ACAD_REACTORS
330
1253
102
}
330
1253
100
AcDbMaterial
  1
ByBlock
 72
     0
 43
0.0208333333333333
 43
0.0
 43
0.0
 43
0.0
 43
0.0
 43
0.0208333333333333
 43
0.0
 43
0.0
 43
0.0
 43
0.0
 43
1.0
 43
0.0
 43
0.0
 43
0.0
 43
0.0
 43
1.0
 77
     0
 47
0.0208333333333333
 47
0.0
 47
0.0
 47
0.0
 47
0.0
 47
0.0208333333333333
 47
0.0
 47
0.0
 47
0.0
 47
0.0
 47
1.0
 47
0.0
 47
0.0
 47
0.0
 47
0.0
 47
1.0
171
     0
 49
0.0208333333333333
 49
0.0
 49
0.0
 49
0.0
 49
0.0
 49
0.0208333333333333
 49
0.0
 49
0.0
 49
0.0
 49
0.0
 49
1.0
 49
0.0
 49
0.0
 49
0.0
 49
0.0
 49
1.0
175
     0
142
0.0208333333333333
142
0.0
142
0.0
142
0.0
142
0.0
142
0.0208333333333333
142
0.0
142
0.0
142
0.0
142
0.0
142
1.0
142
0.0
142
0.0
142
0.0
142
0.0
142
1.0
179
     0
144
0.0208333333333333
144
0.0
144
0.0
144
0.0
144
0.0
144
0.0208333333333333
144
0.0
144
0.0
144
0.0
144
0.0
144
1.0
144
0.0
144
0.0
144
0.0
144
0.0
144
1.0
147
0.0208333333333333
147
0.0
147
0.0
147
0.0
147
0.0
147
0.0208333333333333
147
0.0
147
0.0
147
0.0
147
0.0
147
1.0
147
0.0
147
0.0
147
0.0
147
0.0
147
1.0
  0
MATERIAL
  5
1254
102
{ACAD_XDICTIONARY
360
1255
102
}
102
{ACAD_REACTORS
330
1253
102
}
330
1253
100
AcDbMaterial
  1
ByLayer
 72
     0
 43
0.0208333333333333
 43
0.0
 43
0.0
 43
0.0
 43
0.0
 43
0.0208333333333333
 43
0.0
 43
0.0
 43
0.0
 43
0.0
 43
1.0
 43
0.0
 43
0.0
 43
0.0
 43
0.0
 43
1.0
 77
     0
 47
0.0208333333333333
 47
0.0
 47
0.0
 47
0.0
 47
0.0
 47
0.0208333333333333
 47
0.0
 47
0.0
 47
0.0
 47
0.0
 47
1.0
 47
0.0
 47
0.0
 47
0.0
 47
0.0
 47
1.0
171
     0
 49
0.0208333333333333
 49
0.0
 49
0.0
 49
0.0
 49
0.0
 49
0.0208333333333333
 49
0.0
 49
0.0
 49
0.0
 49
0.0
 49
1.0
 49
0.0
 49
0.0
 49
0.0
 49
0.0
 49
1.0
175
     0
142
0.0208333333333333
142
0.0
142
0.0
142
0.0
142
0.0
142
0.0208333333333333
142
0.0
142
0.0
142
0.0
142
0.0
142
1.0
142
0.0
142
0.0
142
0.0
142
0.0
142
1.0
179
     0
144
0.0208333333333333
144
0.0
144
0.0
144
0.0
144
0.0
144
0.0208333333333333
144
0.0
144
0.0
144
0.0
144
0.0
144
1.0
144
0.0
144
0.0
144
0.0
144
0.0
144
1.0
147
0.0208333333333333
147
0.0
147
0.0
147
0.0
147
0.0
147
0.0208333333333333
147
0.0
147
0.0
147
0.0
147
0.0
147
1.0
147
0.0
147
0.0
147
0.0
147
0.0
147
1.0
  0
MATERIAL
  5
1264
102
{ACAD_XDICTIONARY
360
1265
102
}
102
{ACAD_REACTORS
330
1253
102
}
330
1253
100
AcDbMaterial
  1
Global
 72
     0
 43
0.0208333333333333
 43
0.0
 43
0.0
 43
0.0
 43
0.0
 43
0.0208333333333333
 43
0.0
 43
0.0
 43
0.0
 43
0.0
 43
1.0
 43
0.0
 43
0.0
 43
0.0
 43
0.0
 43
1.0
 77
     0
 47
0.0208333333333333
 47
0.0
 47
0.0
 47
0.0
 47
0.0
 47
0.0208333333333333
 47
0.0
 47
0.0
 47
0.0
 47
0.0
 47
1.0
 47
0.0
 47
0.0
 47
0.0
 47
0.0
 47
1.0
171
     0
 49
0.0208333333333333
 49
0.0
 49
0.0
 49
0.0
 49
0.0
 49
0.0208333333333333
 49
0.0
 49
0.0
 49
0.0
 49
0.0
 49
1.0
 49
0.0
 49
0.0
 49
0.0
 49
0.0
 49
1.0
175
     0
142
0.0208333333333333
142
0.0
142
0.0
142
0.0
142
0.0
142
0.0208333333333333
142
0.0
142
0.0
142
0.0
142
0.0
142
1.0
142
0.0
142
0.0
142
0.0
142
0.0
142
1.0
179
     0
144
0.0208333333333333
144
0.0
144
0.0
144
0.0
144
0.0
144
0.0208333333333333
144
0.0
144
0.0
144
0.0
144
0.0
144
1.0
144
0.0
144
0.0
144
0.0
144
0.0
144
1.0
147
0.0208333333333333
147
0.0
147
0.0
147
0.0
147
0.0
147
0.0208333333333333
147
0.0
147
0.0
147
0.0
147
0.0
147
1.0
147
0.0
147
0.0
147
0.0
147
0.0
147
1.0
  0
MLEADERSTYLE
  5
129B
102
{ACAD_XDICTIONARY
360
1387
102
}
102
{ACAD_REACTORS
330
129A
102
}
330
129A
100
AcDbMLeaderStyle
170
     2
171
     1
172
     0
 90
        2
 40
0.0
 41
0.0
173
     1
 91
-1056964608
340
11
 92
       -2
290
     1
 42
0.09
291
     1
 43
0.36
  3
Standard
 44
0.18
300

342
F
174
     1
178
     6
175
     1
176
     0
 93
-1056964608
 45
0.18
292
     0
297
     0
 46
0.18
 94
-1056964608
 47
1.0
 49
1.0
140
1.0
293
     1
141
0.0
294
     1
177
     0
142
1.0
295
     0
296
     0
143
0.125
1001
ACAD_MLEADERVER
1070
     2
  0
MLINESTYLE
  5
1B
102
{ACAD_REACTORS
330
1A
102
}
330
1A
100
AcDbMlineStyle
  2
STANDARD
 70
     0
  3

 62
   256
 51
90.0
 52
90.0
 71
     2
 49
0.5
 62
   256
  6
BYLAYER
 49
-0.5
 62
   256
  6
BYLAYER
  0
ACDBPLACEHOLDER
  5
E19
102
{ACAD_REACTORS
330
E18
102
}
330
E18
  0
SCALE
  5
1289
102
{ACAD_REACTORS
330
1288
102
}
330
1288
100
AcDbScale
 70
     0
300
1:1
140
1.0
141
1.0
290
     1
  0
SCALE
  5
128A
102
{ACAD_REACTORS
330
1288
102
}
330
1288
100
AcDbScale
 70
     0
300
1/128" = 1'-0"
140
0.0078125
141
12.0
290
     0
  0
SCALE
  5
128B
102
{ACAD_REACTORS
330
1288
102
}
330
1288
100
AcDbScale
 70
     0
300
1/64" = 1'-0"
140
0.015625
141
12.0
290
     0
  0
SCALE
  5
128C
102
{ACAD_REACTORS
330
1288
102
}
330
1288
100
AcDbScale
 70
     0
300
1/32" = 1'-0"
140
0.03125
141
12.0
290
     0
  0
SCALE
  5
128D
102
{ACAD_REACTORS
330
1288
102
}
330
1288
100
AcDbScale
 70
     0
300
1/16" = 1'-0"
140
0.0625
141
12.0
290
     0
  0
SCALE
  5
128E
102
{ACAD_REACTORS
330
1288
102
}
330
1288
100
AcDbScale
 70
     0
300
3/32" = 1'-0"
140
0.09375
141
12.0
290
     0
  0
SCALE
  5
128F
102
{ACAD_REACTORS
330
1288
102
}
330
1288
100
AcDbScale
 70
     0
300
1/8" = 1'-0"
140
0.125
141
12.0
290
     0
  0
SCALE
  5
1290
102
{ACAD_REACTORS
330
1288
102
}
330
1288
100
AcDbScale
 70
     0
300
3/16" = 1'-0"
140
0.1875
141
12.0
290
     0
  0
SCALE
  5
1291
102
{ACAD_REACTORS
330
1288
102
}
330
1288
100
AcDbScale
 70
     0
300
1/4" = 1'-0"
140
0.25
141
12.0
290
     0
  0
SCALE
  5
1292
102
{ACAD_REACTORS
330
1288
102
}
330
1288
100
AcDbScale
 70
     0
300
3/8" = 1'-0"
140
0.375
141
12.0
290
     0
  0
SCALE
  5
1293
102
{ACAD_REACTORS
330
1288
102
}
330
1288
100
AcDbScale
 70
     0
300
1/2" = 1'-0"
140
0.5
141
12.0
290
     0
  0
SCALE
  5
1294
102
{ACAD_REACTORS
330
1288
102
}
330
1288
100
AcDbScale
 70
     0
300
3/4" = 1'-0"
140
0.75
141
12.0
290
     0
  0
SCALE
  5
1295
102
{ACAD_REACTORS
330
1288
102
}
330
1288
100
AcDbScale
 70
     0
300
1" = 1'-0"
140
1.0
141
12.0
290
     0
  0
SCALE
  5
1296
102
{ACAD_REACTORS
330
1288
102
}
330
1288
100
AcDbScale
 70
     0
300
1-1/2" = 1'-0"
140
1.5
141
12.0
290
     0
  0
SCALE
  5
1297
102
{ACAD_REACTORS
330
1288
102
}
330
1288
100
AcDbScale
 70
     0
300
3" = 1'-0"
140
3.0
141
12.0
290
     0
  0
SCALE
  5
1298
102
{ACAD_REACTORS
330
1288
102
}
330
1288
100
AcDbScale
 70
     0
300
6" = 1'-0"
140
6.0
141
12.0
290
     0
  0
SCALE
  5
1299
102
{ACAD_REACTORS
330
1288
102
}
330
1288
100
AcDbScale
 70
     0
300
1'-0" = 1'-0"
140
12.0
141
12.0
290
     0
  0
ACDBSECTIONVIEWSTYLE
  5
129D
102
{ACAD_XDICTIONARY
360
1333
102
}
102
{ACAD_REACTORS
330
129C
102
}
330
129C
100
AcDbModelDocViewStyle
 70
     0
  3
Imperial24
290
     0
100
AcDbSectionViewStyle
 70
     0
 71
     0
 90
       78
 71
     1
340
F
 40
0.24
340
0
340
0
 40
0.24
300
I, O, Q, S, X, Z
 40
0.48
 90
        3
 40
0.18
 90
        1
 71
     2
340
13
 90
       25
340
13
 90
       50
 40
0.24
 40
0.0
 40
0.24
 71
     3
340
F
 40
0.24
 90
        1
 40
0.75
 90
        1
300
%<\AcVar ViewType \f "%tc1">% %<\AcVar ViewSectionStartId>%-%<\AcVar ViewSectionEndId>%\PSCALE %<\AcVar ViewScale \f "%sn">%
 71
     4
300
ANSI31
 40
1.0
 90
        0
290
     0
290
     0
 90
        6
 40
0.0
 40
1.570796326794896
 40
0.2617993877991494
 40
1.308996938995747
 40
-0.2617993877991494
 40
1.832595714594045
  0
TABLESTYLE
  5
1287
102
{ACAD_XDICTIONARY
360
1331
102
}
102
{ACAD_REACTORS
330
1286
102
}
330
1286
100
AcDbTableStyle
  3
Standard
 70
     0
 71
     0
 40
0.06
 41
0.06
280
     0
281
     0
  7
STANDARD
140
0.18
170
     2
 62
     0
 63
     7
283
     0
274
    -2
284
     1
 64
     0
275
    -2
285
     1
 65
     0
276
    -2
286
     1
 66
     0
277
    -2
287
     1
 67
     0
278
    -2
288
     1
 68
     0
279
    -2
289
     1
 69
     0
  7
STANDARD
140
0.25
170
     5
 62
     0
 63
     7
283
     0
274
    -2
284
     1
 64
     0
275
    -2
285
     1
 65
     0
276
    -2
286
     1
 66
     0
277
    -2
287
     1
 67
     0
278
    -2
288
     1
 68
     0
279
    -2
289
     1
 69
     0
  7
STANDARD
140
0.18
170
     5
 62
     0
 63
     7
283
     0
274
    -2
284
     1
 64
     0
275
    -2
285
     1
 65
     0
276
    -2
286
     1
 66
     0
277
    -2
287
     1
 67
     0
278
    -2
288
     1
 68
     0
279
    -2
289
     1
 69
     0
  0
VISUALSTYLE
  5
1272
102
{ACAD_XDICTIONARY
360
135F
102
}
102
{ACAD_REACTORS
330
126C
102
}
330
126C
100
AcDbVisualStyle
  2
2dWireframe
 70
     4
 71
     0
 72
     2
 73
     0
 90
        0
 40
-0.6
 41
-30.0
 62
     5
 63
     7
 74
     1
 91
        4
 64
     7
 65
   257
 75
     1
175
     1
 42
1.0
 92
        0
 66
   257
 43
1.0
 76
     1
 77
     6
 78
     2
 67
     7
 79
     5
170
     0
171
     0
290
     0
174
     0
 93
        1
 44
0.0
173
     0
291
     0
 45
0.0
1001
ACAD
1000
AcDbSavedByObjectVersion
1070
     0
  0
VISUALSTYLE
  5
1271
102
{ACAD_XDICTIONARY
360
135D
102
}
102
{ACAD_REACTORS
330
126C
102
}
330
126C
100
AcDbVisualStyle
  2
Basic
 70
     7
 71
     1
 72
     0
 73
     1
 90
        0
 40
-0.6
 41
-30.0
 62
     5
 63
     7
 74
     0
 91
        4
 64
     7
 65
   257
 75
     1
175
     1
 42
1.0
 92
        8
 66
     7
 43
1.0
 76
     1
 77
     6
 78
     2
 67
     7
 79
     5
170
     0
171
     0
290
     0
174
     0
 93
        1
 44
0.0
173
     0
291
     1
 45
0.0
1001
ACAD
1000
AcDbSavedByObjectVersion
1070
     0
  0
VISUALSTYLE
  5
1278
102
{ACAD_XDICTIONARY
360
136B
102
}
102
{ACAD_REACTORS
330
126C
102
}
330
126C
100
AcDbVisualStyle
  2
Brighten
 70
    12
 71
     2
 72
     2
 73
     0
 90
        0
 40
-0.6
 41
-30.0
 62
     5
 63
     7
 74
     1
 91
        4
 64
     7
 65
   257
 75
     1
175
     1
 42
1.0
 92
        8
 66
     7
 43
1.0
 76
     1
 77
     6
 78
     2
 67
     7
 79
     5
170
     0
171
     0
290
     0
174
     0
 93
        1
 44
50.0
173
     0
291
     1
 45
0.0
1001
ACAD
1000
AcDbSavedByObjectVersion
1070
     0
  0
VISUALSTYLE
  5
127C
102
{ACAD_XDICTIONARY
360
1373
102
}
102
{ACAD_REACTORS
330
126C
102
}
330
126C
100
AcDbVisualStyle
  2
ColorChange
 70
    16
 71
     2
 72
     2
 73
     3
 90
        0
 40
-0.6
 41
-30.0
 62
     5
 63
     8
 74
     1
 91
        4
 64
     7
 65
   257
 75
     1
175
     1
 42
1.0
 92
        8
 66
     8
 43
1.0
 76
     1
 77
     6
 78
     2
 67
     7
 79
     5
170
     0
171
     0
290
     0
174
     0
 93
        1
 44
0.0
173
     0
291
     1
 45
0.0
1001
ACAD
1000
AcDbSavedByObjectVersion
1070
     0
  0
VISUALSTYLE
  5
1275
102
{ACAD_XDICTIONARY
360
1365
102
}
102
{ACAD_REACTORS
330
126C
102
}
330
126C
100
AcDbVisualStyle
  2
Conceptual
 70
     9
 71
     3
 72
     2
 73
     0
 90
        0
 40
-0.6
 41
-30.0
 62
     5
 63
     7
 74
     2
 91
        2
 64
     7
 65
   257
 75
     1
175
     1
 42
179.0
 92
        8
 66
     7
 43
1.0
 76
     1
 77
     6
 78
     2
 67
     7
 79
     3
170
     0
171
     0
290
     0
174
     0
 93
        1
 44
0.0
173
     0
291
     0
 45
0.0
1001
ACAD
1000
AcDbSavedByObjectVersion
1070
     0
  0
VISUALSTYLE
  5
1277
102
{ACAD_XDICTIONARY
360
1369
102
}
102
{ACAD_REACTORS
330
126C
102
}
330
126C
100
AcDbVisualStyle
  2
Dim
 70
    11
 71
     2
 72
     2
 73
     0
 90
        0
 40
-0.6
 41
-30.0
 62
     5
 63
     7
 74
     1
 91
        4
 64
     7
 65
   257
 75
     1
175
     1
 42
1.0
 92
        8
 66
     7
 43
1.0
 76
     1
 77
     6
 78
     2
 67
     7
 79
     5
170
     0
171
     0
290
     0
174
     0
 93
        1
 44
-50.0
173
     0
291
     1
 45
0.0
1001
ACAD
1000
AcDbSavedByObjectVersion
1070
     0
  0
VISUALSTYLE
  5
1284
102
{ACAD_XDICTIONARY
360
1383
102
}
102
{ACAD_REACTORS
330
126C
102
}
330
126C
100
AcDbVisualStyle
  2
EdgeColorOff
 70
    22
 71
     2
 72
     2
 73
     0
 90
        0
 40
-0.6
 41
-30.0
 62
     5
 63
     7
 74
     1
 91
        4
 64
     7
 65
   257
 75
     1
175
     1
 42
1.0
 92
        8
 66
     7
 43
1.0
 76
     1
 77
     6
 78
     2
 67
     7
 79
     5
170
     0
171
     0
290
     0
174
     0
 93
        1
 44
0.0
173
     0
291
     1
 45
0.0
1001
ACAD
1000
AcDbSavedByObjectVersion
1070
     0
  0
VISUALSTYLE
  5
127B
102
{ACAD_XDICTIONARY
360
1371
102
}
102
{ACAD_REACTORS
330
126C
102
}
330
126C
100
AcDbVisualStyle
  2
Facepattern
 70
    15
 71
     2
 72
     2
 73
     0
 90
        0
 40
-0.6
 41
-30.0
 62
     5
 63
     7
 74
     1
 91
        4
 64
     7
 65
   257
 75
     1
175
     1
 42
1.0
 92
        8
 66
     7
 43
1.0
 76
     1
 77
     6
 78
     2
 67
     7
 79
     5
170
     0
171
     0
290
     0
174
     0
 93
        1
 44
0.0
173
     0
291
     1
 45
0.0
1001
ACAD
1000
AcDbSavedByObjectVersion
1070
     0
  0
VISUALSTYLE
  5
126D
102
{ACAD_XDICTIONARY
360
1355
102
}
102
{ACAD_REACTORS
330
126C
102
}
330
126C
100
AcDbVisualStyle
  2
Flat
 70
     0
 71
     2
 72
     1
 73
     1
 90
        2
 40
-0.6
 41
30.0
 62
     5
 63
     7
 74
     0
 91
        0
 64
     7
 65
   257
 75
     1
175
     1
 42
1.0
 92
        8
 66
     7
 43
1.0
 76
     1
 77
     6
 78
     2
 67
     7
 79
     5
170
     0
171
     0
290
     0
174
     0
 93
       13
 44
0.0
173
     0
291
     1
 45
0.0
1001
ACAD
1000
AcDbSavedByObjectVersion
1070
     0
  0
VISUALSTYLE
  5
126E
102
{ACAD_XDICTIONARY
360
1357
102
}
102
{ACAD_REACTORS
330
126C
102
}
330
126C
100
AcDbVisualStyle
  2
FlatWithEdges
 70
     1
 71
     2
 72
     1
 73
     1
 90
        2
 40
-0.6
 41
30.0
 62
     5
 63
     7
 74
     1
 91
        0
 64
     7
 65
   257
 75
     1
175
     1
 42
1.0
 92
        0
 66
   257
 43
1.0
 76
     1
 77
     6
 78
     2
 67
     7
 79
     5
170
     0
171
     0
290
     0
174
     0
 93
       13
 44
0.0
173
     0
291
     1
 45
0.0
1001
ACAD
1000
AcDbSavedByObjectVersion
1070
     0
  0
VISUALSTYLE
  5
126F
102
{ACAD_XDICTIONARY
360
1359
102
}
102
{ACAD_REACTORS
330
126C
102
}
330
126C
100
AcDbVisualStyle
  2
Gouraud
 70
     2
 71
     2
 72
     2
 73
     1
 90
        2
 40
-0.6
 41
30.0
 62
     5
 63
     7
 74
     0
 91
        0
 64
     7
 65
   257
 75
     1
175
     1
 42
1.0
 92
        0
 66
     7
 43
1.0
 76
     1
 77
     6
 78
     2
 67
     7
 79
     5
170
     0
171
     0
290
     0
174
     0
 93
       13
 44
0.0
173
     0
291
     1
 45
0.0
1001
ACAD
1000
AcDbSavedByObjectVersion
1070
     0
  0
VISUALSTYLE
  5
1270
102
{ACAD_XDICTIONARY
360
135B
102
}
102
{ACAD_REACTORS
330
126C
102
}
330
126C
100
AcDbVisualStyle
  2
GouraudWithEdges
 70
     3
 71
     2
 72
     2
 73
     1
 90
        2
 40
-0.6
 41
30.0
 62
     5
 63
     7
 74
     1
 91
        0
 64
     7
 65
   257
 75
     1
175
     1
 42
1.0
 92
        0
 66
   257
 43
1.0
 76
     1
 77
     6
 78
     2
 67
     7
 79
     5
170
     0
171
     0
290
     0
174
     0
 93
       13
 44
0.0
173
     0
291
     1
 45
0.0
1001
ACAD
1000
AcDbSavedByObjectVersion
1070
     0
  0
VISUALSTYLE
  5
1274
102
{ACAD_XDICTIONARY
360
1363
102
}
102
{ACAD_REACTORS
330
126C
102
}
330
126C
100
AcDbVisualStyle
  2
Hidden
 70
     6
 71
     1
 72
     2
 73
     2
 90
        0
 40
-0.6
 41
-30.0
 62
     5
 63
     7
 74
     2
 91
        2
 64
     7
 65
   257
 75
     2
175
     1
 42
40.0
 92
        0
 66
   257
 43
1.0
 76
     1
 77
     6
 78
     2
 67
     7
 79
     3
170
     0
171
     0
290
     0
174
     0
 93
        1
 44
0.0
173
     0
291
     0
 45
0.0
1001
ACAD
1000
AcDbSavedByObjectVersion
1070
     0
  0
VISUALSTYLE
  5
1282
102
{ACAD_XDICTIONARY
360
137F
102
}
102
{ACAD_REACTORS
330
126C
102
}
330
126C
100
AcDbVisualStyle
  2
JitterOff
 70
    20
 71
     2
 72
     2
 73
     0
 90
        0
 40
-0.6
 41
-30.0
 62
     5
 63
     7
 74
     1
 91
        4
 64
     7
 65
   257
 75
     1
175
     1
 42
1.0
 92
       10
 66
     7
 43
1.0
 76
     1
 77
     6
 78
     2
 67
     7
 79
     5
170
     0
171
     0
290
     0
174
     0
 93
        1
 44
0.0
173
     0
291
     1
 45
0.0
1001
ACAD
1000
AcDbSavedByObjectVersion
1070
     0
  0
VISUALSTYLE
  5
127A
102
{ACAD_XDICTIONARY
360
136F
102
}
102
{ACAD_REACTORS
330
126C
102
}
330
126C
100
AcDbVisualStyle
  2
Linepattern
 70
    14
 71
     2
 72
     2
 73
     0
 90
        0
 40
-0.6
 41
-30.0
 62
     5
 63
     7
 74
     1
 91
        4
 64
     7
 65
   257
 75
     7
175
     7
 42
1.0
 92
        8
 66
     7
 43
1.0
 76
     1
 77
     6
 78
     2
 67
     7
 79
     5
170
     0
171
     0
290
     0
174
     0
 93
        1
 44
0.0
173
     0
291
     1
 45
0.0
1001
ACAD
1000
AcDbSavedByObjectVersion
1070
     0
  0
VISUALSTYLE
  5
1283
102
{ACAD_XDICTIONARY
360
1381
102
}
102
{ACAD_REACTORS
330
126C
102
}
330
126C
100
AcDbVisualStyle
  2
OverhangOff
 70
    21
 71
     2
 72
     2
 73
     0
 90
        0
 40
-0.6
 41
-30.0
 62
     5
 63
     7
 74
     1
 91
        4
 64
     7
 65
   257
 75
     1
175
     1
 42
1.0
 92
        9
 66
     7
 43
1.0
 76
     1
 77
     6
 78
     2
 67
     7
 79
     5
170
     0
171
     0
290
     0
174
     0
 93
        1
 44
0.0
173
     0
291
     1
 45
0.0
1001
ACAD
1000
AcDbSavedByObjectVersion
1070
     0
  0
VISUALSTYLE
  5
1276
102
{ACAD_XDICTIONARY
360
1367
102
}
102
{ACAD_REACTORS
330
126C
102
}
330
126C
100
AcDbVisualStyle
  2
Realistic
 70
     8
 71
     2
 72
     3
 73
     0
 90
        2
 40
-0.6
 41
30.0
 62
     5
 63
     7
 74
     0
 91
        0
 64
     7
 65
   257
 75
     1
175
     1
 42
1.0
 92
        8
 66
   257
 43
1.0
 76
     1
 77
     6
 78
     2
 67
     7
 79
     3
170
     0
171
     0
290
     0
174
     0
 93
       13
 44
0.0
173
     0
291
     0
 45
0.0
1001
ACAD
1000
AcDbSavedByObjectVersion
1070
     0
  0
VISUALSTYLE
  5
1281
102
{ACAD_XDICTIONARY
360
137D
102
}
102
{ACAD_REACTORS
330
126C
102
}
330
126C
100
AcDbVisualStyle
  2
Shaded
 70
    27
 71
     2
 72
     2
 73
     1
 90
        2
 40
-0.6
 41
30.0
 62
     5
 63
     7
 74
     0
 91
        4
 64
     7
 65
   257
 75
     1
175
     1
 42
1.0
 92
        8
 66
   257
 43
1.0
 76
     1
 77
     6
 78
     2
 67
     8
 79
     3
170
     0
171
     0
290
     0
174
     0
 93
        5
 44
0.0
173
     0
291
     0
 45
0.0
1001
ACAD
1000
AcDbSavedByObjectVersion
1070
     0
  0
VISUALSTYLE
  5
1280
102
{ACAD_XDICTIONARY
360
137B
102
}
102
{ACAD_REACTORS
330
126C
102
}
330
126C
100
AcDbVisualStyle
  2
Shaded with edges
 70
    26
 71
     2
 72
     2
 73
     1
 90
        2
 40
-0.6
 41
30.0
 62
     5
 63
     7
 74
     1
 91
       10
 64
     7
 65
   257
 75
     2
175
     1
 42
1.0
 92
        8
 66
   257
 43
1.0
 76
     1
 77
     6
 78
     2
 67
     7
 79
     3
170
     0
171
     0
290
     0
174
     0
 93
        5
 44
0.0
173
     0
291
     0
 45
0.0
1001
ACAD
1000
AcDbSavedByObjectVersion
1070
     0
  0
VISUALSTYLE
  5
127D
102
{ACAD_XDICTIONARY
360
1375
102
}
102
{ACAD_REACTORS
330
126C
102
}
330
126C
100
AcDbVisualStyle
  2
Shades of Gray
 70
    23
 71
     2
 72
     2
 73
     3
 90
        0
 40
-0.6
 41
-30.0
 62
     5
 63
     7
 74
     2
 91
        2
 64
     7
 65
     7
 75
     1
175
     1
 42
40.0
 92
        8
 66
     7
 43
1.0
 76
     1
 77
     6
 78
     2
 67
     7
 79
     3
170
     0
171
     0
290
     0
174
     0
 93
        1
 44
0.0
173
     0
291
     0
 45
0.0
1001
ACAD
1000
AcDbSavedByObjectVersion
1070
     0
  0
VISUALSTYLE
  5
127E
102
{ACAD_XDICTIONARY
360
1377
102
}
102
{ACAD_REACTORS
330
126C
102
}
330
126C
100
AcDbVisualStyle
  2
Sketchy
 70
    24
 71
     1
 72
     2
 73
     2
 90
        0
 40
-0.6
 41
-30.0
 62
     5
 63
     7
 74
     2
 91
        2
 64
     7
 65
     7
 75
     1
175
     1
 42
40.0
 92
       11
 66
     7
 43
1.0
 76
     1
 77
     6
 78
     2
 67
     7
 79
     6
170
     0
171
     0
290
     0
174
     0
 93
        1
 44
0.0
173
     0
291
     0
 45
0.0
1001
ACAD
1000
AcDbSavedByObjectVersion
1070
     0
  0
VISUALSTYLE
  5
1279
102
{ACAD_XDICTIONARY
360
136D
102
}
102
{ACAD_REACTORS
330
126C
102
}
330
126C
100
AcDbVisualStyle
  2
Thicken
 70
    13
 71
     2
 72
     2
 73
     0
 90
        0
 40
-0.6
 41
-30.0
 62
     5
 63
     7
 74
     1
 91
        4
 64
     7
 65
   257
 75
     1
175
     1
 42
1.0
 92
       12
 66
     7
 43
1.0
 76
     1
 77
     6
 78
     2
 67
     7
 79
     5
170
     0
171
     0
290
     0
174
     0
 93
        1
 44
0.0
173
     0
291
     1
 45
0.0
1001
ACAD
1000
AcDbSavedByObjectVersion
1070
     0
  0
VISUALSTYLE
  5
1273
102
{ACAD_XDICTIONARY
360
1361
102
}
102
{ACAD_REACTORS
330
126C
102
}
330
126C
100
AcDbVisualStyle
  2
Wireframe
 70
     5
 71
     0
 72
     2
 73
     0
 90
        0
 40
-0.6
 41
-30.0
 62
     5
 63
     7
 74
     1
 91
        4
 64
     7
 65
   257
 75
     1
175
     1
 42
1.0
 92
        0
 66
   257
 43
1.0
 76
     1
 77
     6
 78
     2
 67
     7
 79
     3
170
     0
171
     0
290
     0
174
     0
 93
        1
 44
0.0
173
     0
291
     0
 45
0.0
1001
ACAD
1000
AcDbSavedByObjectVersion
1070
     0
  0
VISUALSTYLE
  5
127F
102
{ACAD_XDICTIONARY
360
1379
102
}
102
{ACAD_REACTORS
330
126C
102
}
330
126C
100
AcDbVisualStyle
  2
X-Ray
 70
    25
 71
     2
 72
     2
 73
     1
 90
        1
 40
0.5
 41
-30.0
 62
     5
 63
     7
 74
     1
 91
        0
 64
     7
 65
   257
 75
     1
175
     1
 42
1.0
 92
        8
 66
     7
 43
1.0
 76
     1
 77
     6
 78
     2
 67
     7
 79
     3
170
     0
171
     0
290
     0
174
     0
 93
       13
 44
0.0
173
     0
291
     0
 45
0.0
1001
ACAD
1000
AcDbSavedByObjectVersion
1070
     0
  0
DICTIONARYVAR
  5
132D
102
{ACAD_REACTORS
330
5A
102
}
330
5A
100
DictionaryVariables
280
     0
  1
1:1
  0
DICTIONARYVAR
  5
1329
102
{ACAD_REACTORS
330
5A
102
}
330
5A
100
DictionaryVariables
280
     0
  1
STANDARD
  0
DICTIONARYVAR
  5
1328
102
{ACAD_REACTORS
330
5A
102
}
330
5A
100
DictionaryVariables
280
     0
  1
STANDARD
  0
DICTIONARYVAR
  5
132A
102
{ACAD_REACTORS
330
5A
102
}
330
5A
100
DictionaryVariables
280
     0
  1
Imperial24
  0
DICTIONARYVAR
  5
132B
102
{ACAD_REACTORS
330
5A
102
}
330
5A
100
DictionaryVariables
280
     0
  1
Imperial24
  0
DICTIONARYVAR
  5
5B
102
{ACAD_REACTORS
330
5A
102
}
330
5A
100
DictionaryVariables
280
     0
  1
0
  0
DICTIONARYVAR
  5
1236
102
{ACAD_REACTORS
330
5A
102
}
330
5A
100
DictionaryVariables
280
     0
  1
1
  0
DICTIONARYVAR
  5
133E
102
{ACAD_REACTORS
330
5A
102
}
330
5A
100
DictionaryVariables
280
     0
  1
0
  0
DICTIONARYVAR
  5
132F
102
{ACAD_REACTORS
330
5A
102
}
330
5A
100
DictionaryVariables
280
     0
  1
1
  0
DICTIONARYVAR
  5
1330
102
{ACAD_REACTORS
330
5A
102
}
330
5A
100
DictionaryVariables
280
     0
  1
15
  0
DICTIONARYVAR
  5
132E
102
{ACAD_REACTORS
330
5A
102
}
330
5A
100
DictionaryVariables
280
     0
  1
0
  0
DICTIONARYVAR
  5
133F
102
{ACAD_REACTORS
330
5A
102
}
330
5A
100
DictionaryVariables
280
     0
  1
1.570796
  0
DICTIONARYVAR
  5
1340
102
{ACAD_REACTORS
330
5A
102
}
330
5A
100
DictionaryVariables
280
     0
  1
1.570796
  0
DICTIONARYVAR
  5
1341
102
{ACAD_REACTORS
330
5A
102
}
330
5A
100
DictionaryVariables
280
     0
  1
-122.394000
  0
DICTIONARYVAR
  5
132C
102
{ACAD_REACTORS
330
5A
102
}
330
5A
100
DictionaryVariables
280
     0
  1
0
  0
DICTIONARYVAR
  5
96C
102
{ACAD_REACTORS
330
5A
102
}
330
5A
100
DictionaryVariables
280
     0
  1
96
  0
DICTIONARYVAR
  5
1342
102
{ACAD_REACTORS
330
5A
102
}
330
5A
100
DictionaryVariables
280
     0
  1
2
  0
DICTIONARY
  5
134D
102
{ACAD_REACTORS
330
134B
102
}
330
134B
100
AcDbDictionary
281
     1
  0
DICTIONARY
  5
134C
102
{ACAD_REACTORS
330
134B
102
}
330
134B
100
AcDbDictionary
281
     1
  3
8796087789024
350
1346
  3
8796087789040
350
1347
  3
8796087789056
350
1348
  3
8796087789072
350
1349
  3
8796087789088
350
134A
  0
DICTIONARY
  5
1335
330
129F
100
AcDbDictionary
280
     1
281
     1
  3
ACAD_XREC_ROUNDTRIP
360
138A
  0
DICTIONARY
  5
1350
330
E1D
100
AcDbDictionary
280
     1
281
     1
  3
ACAD_XREC_ROUNDTRIP
360
1351
  0
DICTIONARY
  5
134E
330
E1C
100
AcDbDictionary
280
     1
281
     1
  3
ACAD_XREC_ROUNDTRIP
360
134F
  0
DICTIONARY
  5
125D
330
125C
100
AcDbDictionary
280
     1
281
     1
  3
ACAD_XREC_ROUNDTRIP
360
1353
  3
BUMPTILE
360
125F
  3
DIFFUSETILE
360
125E
  3
OPACITYTILE
360
1262
  3
REFLECTIONTILE
360
1261
  3
REFRACTIONTILE
360
1263
  3
SPECULARTILE
360
1260
  0
DICTIONARY
  5
1255
330
1254
100
AcDbDictionary
280
     1
281
     1
  3
ACAD_XREC_ROUNDTRIP
360
1352
  3
BUMPTILE
360
1257
  3
DIFFUSETILE
360
1256
  3
OPACITYTILE
360
125A
  3
REFLECTIONTILE
360
1259
  3
REFRACTIONTILE
360
125B
  3
SPECULARTILE
360
1258
  0
DICTIONARY
  5
1265
330
1264
100
AcDbDictionary
280
     1
281
     1
  3
ACAD_XREC_ROUNDTRIP
360
1354
  3
BUMPTILE
360
1267
  3
DIFFUSETILE
360
1266
  3
OPACITYTILE
360
126A
  3
REFLECTIONTILE
360
1269
  3
REFRACTIONTILE
360
126B
  3
SPECULARTILE
360
1268
  0
DICTIONARY
  5
1387
330
129B
100
AcDbDictionary
280
     1
281
     1
  3
ACAD_XREC_ROUNDTRIP
360
1388
  0
DICTIONARY
  5
1333
330
129D
100
AcDbDictionary
280
     1
281
     1
  3
ACAD_XREC_ROUNDTRIP
360
1389
  0
DICTIONARY
  5
1331
330
1287
100
AcDbDictionary
280
     1
281
     1
  3
ACAD_ROUNDTRIP_2008_TABLESTYLE_CELLSTYLEMAP
360
1343
  3
ACAD_XREC_ROUNDTRIP
360
1385
  0
DICTIONARY
  5
135F
330
1272
100
AcDbDictionary
280
     1
281
     1
  3
ACAD_XREC_ROUNDTRIP
360
1360
  0
DICTIONARY
  5
135D
330
1271
100
AcDbDictionary
280
     1
281
     1
  3
ACAD_XREC_ROUNDTRIP
360
135E
  0
DICTIONARY
  5
136B
330
1278
100
AcDbDictionary
280
     1
281
     1
  3
ACAD_XREC_ROUNDTRIP
360
136C
  0
DICTIONARY
  5
1373
330
127C
100
AcDbDictionary
280
     1
281
     1
  3
ACAD_XREC_ROUNDTRIP
360
1374
  0
DICTIONARY
  5
1365
330
1275
100
AcDbDictionary
280
     1
281
     1
  3
ACAD_XREC_ROUNDTRIP
360
1366
  0
DICTIONARY
  5
1369
330
1277
100
AcDbDictionary
280
     1
281
     1
  3
ACAD_XREC_ROUNDTRIP
360
136A
  0
DICTIONARY
  5
1383
330
1284
100
AcDbDictionary
280
     1
281
     1
  3
ACAD_XREC_ROUNDTRIP
360
1384
  0
DICTIONARY
  5
1371
330
127B
100
AcDbDictionary
280
     1
281
     1
  3
ACAD_XREC_ROUNDTRIP
360
1372
  0
DICTIONARY
  5
1355
330
126D
100
AcDbDictionary
280
     1
281
     1
  3
ACAD_XREC_ROUNDTRIP
360
1356
  0
DICTIONARY
  5
1357
330
126E
100
AcDbDictionary
280
     1
281
     1
  3
ACAD_XREC_ROUNDTRIP
360
1358
  0
DICTIONARY
  5
1359
330
126F
100
AcDbDictionary
280
     1
281
     1
  3
ACAD_XREC_ROUNDTRIP
360
135A
  0
DICTIONARY
  5
135B
330
1270
100
AcDbDictionary
280
     1
281
     1
  3
ACAD_XREC_ROUNDTRIP
360
135C
  0
DICTIONARY
  5
1363
330
1274
100
AcDbDictionary
280
     1
281
     1
  3
ACAD_XREC_ROUNDTRIP
360
1364
  0
DICTIONARY
  5
137F
330
1282
100
AcDbDictionary
280
     1
281
     1
  3
ACAD_XREC_ROUNDTRIP
360
1380
  0
DICTIONARY
  5
136F
330
127A
100
AcDbDictionary
280
     1
281
     1
  3
ACAD_XREC_ROUNDTRIP
360
1370
  0
DICTIONARY
  5
1381
330
1283
100
AcDbDictionary
280
     1
281
     1
  3
ACAD_XREC_ROUNDTRIP
360
1382
  0
DICTIONARY
  5
1367
330
1276
100
AcDbDictionary
280
     1
281
     1
  3
ACAD_XREC_ROUNDTRIP
360
1368
  0
DICTIONARY
  5
137D
330
1281
100
AcDbDictionary
280
     1
281
     1
  3
ACAD_XREC_ROUNDTRIP
360
137E
  0
DICTIONARY
  5
137B
330
1280
100
AcDbDictionary
280
     1
281
     1
  3
ACAD_XREC_ROUNDTRIP
360
137C
  0
DICTIONARY
  5
1375
330
127D
100
AcDbDictionary
280
     1
281
     1
  3
ACAD_XREC_ROUNDTRIP
360
1376
  0
DICTIONARY
  5
1377
330
127E
100
AcDbDictionary
280
     1
281
     1
  3
ACAD_XREC_ROUNDTRIP
360
1378
  0
DICTIONARY
  5
136D
330
1279
100
AcDbDictionary
280
     1
281
     1
  3
ACAD_XREC_ROUNDTRIP
360
136E
  0
DICTIONARY
  5
1361
330
1273
100
AcDbDictionary
280
     1
281
     1
  3
ACAD_XREC_ROUNDTRIP
360
1362
  0
DICTIONARY
  5
1379
330
127F
100
AcDbDictionary
280
     1
281
     1
  3
ACAD_XREC_ROUNDTRIP
360
137A
  0
XRECORD
  5
1346
102
{ACAD_REACTORS
330
134C
102
}
330
134C
100
AcDbXrecord
280
     1
  1
AcDb_Thumbnail_Schema
102
{ATTRRECORD
341
1347
  2
AcDbDs::TreatedAsObjectData
280
     1
291
     1
102
ATTRRECORD}
102
{ATTRRECORD
341
1348
  2
AcDbDs::Legacy
280
     1
291
     1
102
ATTRRECORD}
  2
AcDbDs::ID
280
    10
 91
        8
102
{ATTRRECORD
341
1349
  2
AcDs:Indexable
280
     1
291
     1
102
ATTRRECORD}
102
{ATTRRECORD
341
134A
  2
AcDbDs::HandleAttribute
280
     7
282
     1
102
ATTRRECORD}
  2
Thumbnail_Data
280
    15
 91
        0
  0
XRECORD
  5
1347
102
{ACAD_REACTORS
330
134C
102
}
330
134C
100
AcDbXrecord
280
     1
  1
AcDbDs::TreatedAsObjectDataSchema
  2
AcDbDs::TreatedAsObjectData
280
     1
 91
        0
  0
XRECORD
  5
1348
102
{ACAD_REACTORS
330
134C
102
}
330
134C
100
AcDbXrecord
280
     1
  1
AcDbDs::LegacySchema
  2
AcDbDs::Legacy
280
     1
 91
        0
  0
XRECORD
  5
1349
102
{ACAD_REACTORS
330
134C
102
}
330
134C
100
AcDbXrecord
280
     1
  1
AcDbDs::IndexedPropertySchema
  2
AcDs:Indexable
280
     1
 91
        0
  0
XRECORD
  5
134A
102
{ACAD_REACTORS
330
134C
102
}
330
134C
100
AcDbXrecord
280
     1
  1
AcDbDs::HandleAttributeSchema
  2
AcDbDs::HandleAttribute
280
     7
 91
        1
284
     1
  0
XRECORD
  5
138A
102
{ACAD_REACTORS
330
1335
102
}
330
1335
100
AcDbXrecord
280
     1
102
DISPLAYNAME
  1
Imperial24
102
FLAGS
 90
        0
  0
XRECORD
  5
1351
102
{ACAD_REACTORS
330
1350
102
}
330
1350
100
AcDbXrecord
280
     1
102
SHADEPLOT
 70
     0
102
SHADEPLOTRESLEVEL
 70
     2
102
SHADEPLOTCUSTOMDPI
 70
   300
  0
XRECORD
  5
134F
102
{ACAD_REACTORS
330
134E
102
}
330
134E
100
AcDbXrecord
280
     1
102
SHADEPLOT
 70
     0
102
SHADEPLOTRESLEVEL
 70
     2
102
SHADEPLOTCUSTOMDPI
 70
   300
  0
XRECORD
  5
1353
102
{ACAD_REACTORS
330
125D
102
}
330
125D
100
AcDbXrecord
280
     1
102
MATERIAL
148
0.0
149
0.0
149
0.0
 93
        0
 94
      127
282
     0
 72
     0
 77
     0
171
     0
175
     0
179
     0
273
     0
  0
XRECORD
  5
125F
102
{ACAD_REACTORS
330
125D
102
}
330
125D
100
AcDbXrecord
280
     1
270
     1
271
     1
  0
XRECORD
  5
125E
102
{ACAD_REACTORS
330
125D
102
}
330
125D
100
AcDbXrecord
280
     1
270
     1
271
     1
  0
XRECORD
  5
1262
102
{ACAD_REACTORS
330
125D
102
}
330
125D
100
AcDbXrecord
280
     1
270
     1
271
     1
  0
XRECORD
  5
1261
102
{ACAD_REACTORS
330
125D
102
}
330
125D
100
AcDbXrecord
280
     1
270
     1
271
     1
  0
XRECORD
  5
1263
102
{ACAD_REACTORS
330
125D
102
}
330
125D
100
AcDbXrecord
280
     1
270
     1
271
     1
  0
XRECORD
  5
1260
102
{ACAD_REACTORS
330
125D
102
}
330
125D
100
AcDbXrecord
280
     1
270
     1
271
     1
  0
XRECORD
  5
1352
102
{ACAD_REACTORS
330
1255
102
}
330
1255
100
AcDbXrecord
280
     1
102
MATERIAL
148
0.0
149
0.0
149
0.0
 93
        0
 94
      127
282
     0
 72
     0
 77
     0
171
     0
175
     0
179
     0
273
     0
  0
XRECORD
  5
1257
102
{ACAD_REACTORS
330
1255
102
}
330
1255
100
AcDbXrecord
280
     1
270
     1
271
     1
  0
XRECORD
  5
1256
102
{ACAD_REACTORS
330
1255
102
}
330
1255
100
AcDbXrecord
280
     1
270
     1
271
     1
  0
XRECORD
  5
125A
102
{ACAD_REACTORS
330
1255
102
}
330
1255
100
AcDbXrecord
280
     1
270
     1
271
     1
  0
XRECORD
  5
1259
102
{ACAD_REACTORS
330
1255
102
}
330
1255
100
AcDbXrecord
280
     1
270
     1
271
     1
  0
XRECORD
  5
125B
102
{ACAD_REACTORS
330
1255
102
}
330
1255
100
AcDbXrecord
280
     1
270
     1
271
     1
  0
XRECORD
  5
1258
102
{ACAD_REACTORS
330
1255
102
}
330
1255
100
AcDbXrecord
280
     1
270
     1
271
     1
  0
XRECORD
  5
1354
102
{ACAD_REACTORS
330
1265
102
}
330
1265
100
AcDbXrecord
280
     1
102
MATERIAL
148
0.0
149
0.0
149
0.0
 93
        0
 94
      127
282
     0
 72
     0
 77
     0
171
     0
175
     0
179
     0
273
     0
  0
XRECORD
  5
1267
102
{ACAD_REACTORS
330
1265
102
}
330
1265
100
AcDbXrecord
280
     1
270
     1
271
     1
  0
XRECORD
  5
1266
102
{ACAD_REACTORS
330
1265
102
}
330
1265
100
AcDbXrecord
280
     1
270
     1
271
     1
  0
XRECORD
  5
126A
102
{ACAD_REACTORS
330
1265
102
}
330
1265
100
AcDbXrecord
280
     1
270
     1
271
     1
  0
XRECORD
  5
1269
102
{ACAD_REACTORS
330
1265
102
}
330
1265
100
AcDbXrecord
280
     1
270
     1
271
     1
  0
XRECORD
  5
126B
102
{ACAD_REACTORS
330
1265
102
}
330
1265
100
AcDbXrecord
280
     1
270
     1
271
     1
  0
XRECORD
  5
1268
102
{ACAD_REACTORS
330
1265
102
}
330
1265
100
AcDbXrecord
280
     1
270
     1
271
     1
  0
XRECORD
  5
1388
102
{ACAD_REACTORS
330
1387
102
}
330
1387
100
AcDbXrecord
280
     1
102
ACAD_ROUNDTRIP_2012_MLEADER_STYLE
298
     1
  0
XRECORD
  5
1389
102
{ACAD_REACTORS
330
1333
102
}
330
1333
100
AcDbXrecord
280
     1
102
DISPLAYNAME
  1
Imperial24
102
FLAGS
 90
        0
  0
CELLSTYLEMAP
  5
1343
102
{ACAD_REACTORS
330
1331
102
}
330
1331
100
AcDbCellStyleMap
 90
        3
300
CELLSTYLE
  1
TABLEFORMAT_BEGIN
 90
        5
170
     1
 91
        0
 92
    32768
 62
   257
 93
        1
300
CONTENTFORMAT
  1
CONTENTFORMAT_BEGIN
 90
        0
 91
        0
 92
      512
 93
        0
300

 40
0.0
140
1.0
 94
        5
 62
     0
340
F
144
0.25
309
CONTENTFORMAT_END
171
     1
301
MARGIN
  1
CELLMARGIN_BEGIN
 40
0.06
 40
0.06
 40
0.06
 40
0.06
 40
0.18
 40
0.18
309
CELLMARGIN_END
 94
        6
 95
        1
302
GRIDFORMAT
  1
GRIDFORMAT_BEGIN
 90
        0
 91
        1
 62
     0
 92
       -2
340
0
 93
        0
 40
0.045
309
GRIDFORMAT_END
 95
        2
302
GRIDFORMAT
  1
GRIDFORMAT_BEGIN
 90
        0
 91
        1
 62
     0
 92
       -2
340
0
 93
        0
 40
0.045
309
GRIDFORMAT_END
 95
        4
302
GRIDFORMAT
  1
GRIDFORMAT_BEGIN
 90
        0
 91
        1
 62
     0
 92
       -2
340
0
 93
        0
 40
0.045
309
GRIDFORMAT_END
 95
        8
302
GRIDFORMAT
  1
GRIDFORMAT_BEGIN
 90
        0
 91
        1
 62
     0
 92
       -2
340
0
 93
        0
 40
0.045
309
GRIDFORMAT_END
 95
       16
302
GRIDFORMAT
  1
GRIDFORMAT_BEGIN
 90
        0
 91
        1
 62
     0
 92
       -2
340
0
 93
        0
 40
0.045
309
GRIDFORMAT_END
 95
       32
302
GRIDFORMAT
  1
GRIDFORMAT_BEGIN
 90
        0
 91
        1
 62
     0
 92
       -2
340
0
 93
        0
 40
0.045
309
GRIDFORMAT_END
309
TABLEFORMAT_END
  1
CELLSTYLE_BEGIN
 90
        1
 91
        1
300
_TITLE
309
CELLSTYLE_END
300
CELLSTYLE
  1
TABLEFORMAT_BEGIN
 90
        5
170
     1
 91
        0
 92
        0
 62
   257
 93
        1
300
CONTENTFORMAT
  1
CONTENTFORMAT_BEGIN
 90
        0
 91
        0
 92
      512
 93
        0
300

 40
0.0
140
1.0
 94
        5
 62
     0
340
F
144
0.18
309
CONTENTFORMAT_END
171
     1
301
MARGIN
  1
CELLMARGIN_BEGIN
 40
0.06
 40
0.06
 40
0.06
 40
0.06
 40
0.18
 40
0.18
309
CELLMARGIN_END
 94
        6
 95
        1
302
GRIDFORMAT
  1
GRIDFORMAT_BEGIN
 90
        0
 91
        1
 62
     0
 92
       -2
340
0
 93
        0
 40
0.045
309
GRIDFORMAT_END
 95
        2
302
GRIDFORMAT
  1
GRIDFORMAT_BEGIN
 90
        0
 91
        1
 62
     0
 92
       -2
340
0
 93
        0
 40
0.045
309
GRIDFORMAT_END
 95
        4
302
GRIDFORMAT
  1
GRIDFORMAT_BEGIN
 90
        0
 91
        1
 62
     0
 92
       -2
340
0
 93
        0
 40
0.045
309
GRIDFORMAT_END
 95
        8
302
GRIDFORMAT
  1
GRIDFORMAT_BEGIN
 90
        0
 91
        1
 62
     0
 92
       -2
340
0
 93
        0
 40
0.045
309
GRIDFORMAT_END
 95
       16
302
GRIDFORMAT
  1
GRIDFORMAT_BEGIN
 90
        0
 91
        1
 62
     0
 92
       -2
340
0
 93
        0
 40
0.045
309
GRIDFORMAT_END
 95
       32
302
GRIDFORMAT
  1
GRIDFORMAT_BEGIN
 90
        0
 91
        1
 62
     0
 92
       -2
340
0
 93
        0
 40
0.045
309
GRIDFORMAT_END
309
TABLEFORMAT_END
  1
CELLSTYLE_BEGIN
 90
        2
 91
        1
300
_HEADER
309
CELLSTYLE_END
300
CELLSTYLE
  1
TABLEFORMAT_BEGIN
 90
        5
170
     1
 91
        0
 92
        0
 62
   257
 93
        1
300
CONTENTFORMAT
  1
CONTENTFORMAT_BEGIN
 90
        0
 91
        0
 92
      512
 93
        0
300

 40
0.0
140
1.0
 94
        2
 62
     0
340
F
144
0.18
309
CONTENTFORMAT_END
171
     1
301
MARGIN
  1
CELLMARGIN_BEGIN
 40
0.06
 40
0.06
 40
0.06
 40
0.06
 40
0.18
 40
0.18
309
CELLMARGIN_END
 94
        6
 95
        1
302
GRIDFORMAT
  1
GRIDFORMAT_BEGIN
 90
        0
 91
        1
 62
     0
 92
       -2
340
0
 93
        0
 40
0.045
309
GRIDFORMAT_END
 95
        2
302
GRIDFORMAT
  1
GRIDFORMAT_BEGIN
 90
        0
 91
        1
 62
     0
 92
       -2
340
0
 93
        0
 40
0.045
309
GRIDFORMAT_END
 95
        4
302
GRIDFORMAT
  1
GRIDFORMAT_BEGIN
 90
        0
 91
        1
 62
     0
 92
       -2
340
0
 93
        0
 40
0.045
309
GRIDFORMAT_END
 95
        8
302
GRIDFORMAT
  1
GRIDFORMAT_BEGIN
 90
        0
 91
        1
 62
     0
 92
       -2
340
0
 93
        0
 40
0.045
309
GRIDFORMAT_END
 95
       16
302
GRIDFORMAT
  1
GRIDFORMAT_BEGIN
 90
        0
 91
        1
 62
     0
 92
       -2
340
0
 93
        0
 40
0.045
309
GRIDFORMAT_END
 95
       32
302
GRIDFORMAT
  1
GRIDFORMAT_BEGIN
 90
        0
 91
        1
 62
     0
 92
       -2
340
0
 93
        0
 40
0.045
309
GRIDFORMAT_END
309
TABLEFORMAT_END
  1
CELLSTYLE_BEGIN
 90
        3
 91
        2
300
_DATA
309
CELLSTYLE_END
  0
XRECORD
  5
1385
102
{ACAD_REACTORS
330
1331
102
}
330
1331
100
AcDbXrecord
280
     1
102
ACAD_ROUNDTRIP_PRE2007_TABLESTYLE
 90
      512
 91
        0
  1

 92
      512
 93
        0
  2

 94
      512
 95
        0
  3

  0
XRECORD
  5
1360
102
{ACAD_REACTORS
330
135F
102
}
330
135F
100
AcDbXrecord
280
     1
102
RTVSPost2010Prop28
280
     1
102
RTVSPost2010PropOp28
 70
     1
102
RTVSPost2010Prop29
280
     1
102
RTVSPost2010PropOp29
 70
     1
102
RTVSPost2010Prop30
280
     0
102
RTVSPost2010PropOp30
 70
     1
102
RTVSPost2010Prop31
280
     0
102
RTVSPost2010PropOp31
 70
     1
102
RTVSPost2010Prop32
280
     0
102
RTVSPost2010PropOp32
 70
     1
102
RTVSPost2010Prop33
280
     0
102
RTVSPost2010PropOp33
 70
     1
102
RTVSPost2010Prop34
280
     0
102
RTVSPost2010PropOp34
 70
     1
102
RTVSPost2010Prop35
280
     0
102
RTVSPost2010PropOp35
 70
     1
102
RTVSPost2010Prop36
280
     0
102
RTVSPost2010PropOp36
 70
     1
102
RTVSPost2010Prop37
 90
       50
102
RTVSPost2010PropOp37
 70
     1
102
RTVSPost2010Prop38
140
0.0
102
RTVSPost2010PropOp38
 70
     1
102
RTVSPost2010Prop39
140
1.0
102
RTVSPost2010PropOp39
 70
     1
102
RTVSPost2010Prop40
 90
        0
102
RTVSPost2010PropOp40
 70
     1
102
RTVSPost2010Prop41ColorIndex
 90
       18
102
RTVSPost2010Prop41ColorRGB
 90
-16777216
102
RTVSPost2010PropOp41
 70
     1
102
RTVSPost2010Prop42
 90
       50
102
RTVSPost2010PropOp42
 70
     1
102
RTVSPost2010Prop43
 90
        3
102
RTVSPost2010PropOp43
 70
     1
102
RTVSPost2010Prop44ColorIndex
 90
        5
102
RTVSPost2010Prop44ColorRGB
 90
      255
102
RTVSPost2010PropOp44
 70
     1
102
RTVSPost2010Prop45
280
     0
102
RTVSPost2010PropOp45
 70
     1
102
RTVSPost2010Prop46
 90
       50
102
RTVSPost2010PropOp46
 70
     1
102
RTVSPost2010Prop47
 90
       50
102
RTVSPost2010PropOp47
 70
     1
102
RTVSPost2010Prop48
 90
       50
102
RTVSPost2010PropOp48
 70
     1
102
RTVSPost2010Prop49
280
     0
102
RTVSPost2010PropOp49
 70
     1
102
RTVSPost2010Prop50
 90
       50
102
RTVSPost2010PropOp50
 70
     1
102
RTVSPost2010Prop51ColorIndex
 90
      256
102
RTVSPost2010Prop51ColorRGB
 90
-16777216
102
RTVSPost2010PropOp51
 70
     0
102
RTVSPost2010Prop52
140
1.0
102
RTVSPost2010PropOp52
 70
     0
102
RTVSPost2010Prop53
 90
        2
102
RTVSPost2010PropOp53
 70
     1
102
RTVSPost2010Prop54
  1
strokes_ogs.tif
102
RTVSPost2010PropOp54
 70
     1
102
RTVSPost2010Prop55
280
     0
102
RTVSPost2010PropOp55
 70
     1
102
RTVSPost2010Prop56
140
1.0
102
RTVSPost2010PropOp56
 70
     1
102
RTVSPost2010Prop57
140
1.0
102
RTVSPost2010PropOp57
 70
     1
102
RTVSPropertyOp0
 70
     1
102
RTVSPropertyOp1
 70
     1
102
RTVSPropertyOp2
 70
     1
102
RTVSPropertyOp3
 70
     1
102
RTVSPropertyOp4
 70
     1
102
RTVSPropertyOp5
 70
     1
102
RTVSPropertyOp6
 70
     1
102
RTVSPropertyOp7
 70
     1
102
RTVSPropertyOp8
 70
     1
102
RTVSPropertyOp9
 70
     1
102
RTVSPropertyOp10
 70
     1
102
RTVSPropertyOp11
 70
     1
102
RTVSPropertyOp12
 70
     1
102
RTVSPropertyOp13
 70
     1
102
RTVSPropertyOp14
 70
     1
102
RTVSPropertyOp15
 70
     1
102
RTVSPropertyOp16
 70
     1
102
RTVSPropertyOp17
 70
     1
102
RTVSPropertyOp18
 70
     1
102
RTVSPropertyOp19
 70
     1
102
RTVSPropertyOp20
 70
     1
102
RTVSPropertyOp21
 70
     1
102
RTVSPropertyOp22
 70
     1
102
RTVSPropertyOp23
 70
     1
102
RTVSPropertyOp24
 70
     1
102
RTVSPropertyOp25
 70
     1
102
RTVSPropertyOp26
 70
     1
102
RTVSPropertyOp27
 70
     1
102
RTVSPropertyOp28
 70
     1
102
RTVSPropertyOp29
 70
     1
102
RTVSPropertyOp30
 70
     1
102
RTVSPropertyOp31
 70
     1
102
RTVSPropertyOp32
 70
     1
102
RTVSPropertyOp33
 70
     1
102
RTVSPropertyOp34
 70
     1
102
RTVSPropertyOp35
 70
     1
102
RTVSPropertyOp36
 70
     1
102
RTVSPropertyOp37
 70
     1
102
RTVSPropertyOp38
 70
     1
102
RTVSPropertyOp39
 70
     1
102
RTVSPropertyOp40
 70
     1
102
RTVSPropertyOp41
 70
     1
102
RTVSPropertyOp42
 70
     1
102
RTVSPropertyOp43
 70
     1
102
RTVSPropertyOp44
 70
     1
102
RTVSPropertyOp45
 70
     1
102
RTVSPropertyOp46
 70
     1
102
RTVSPropertyOp47
 70
     1
102
RTVSPropertyOp48
 70
     1
102
RTVSPropertyOp49
 70
     1
102
RTVSPropertyOp50
 70
     1
102
RTVSPropertyOp51
 70
     0
102
RTVSPropertyOp52
 70
     0
102
RTVSPropertyOp53
 70
     1
102
RTVSPropertyOp54
 70
     1
102
RTVSPropertyOp55
 70
     1
102
RTVSPropertyOp56
 70
     1
102
RTVSPropertyOp57
 70
     1
102
RTVSPropertyOp58
 70
     1
102
RTVSPropertyOp59
 70
     1
102
RTVSPropertyOp60
 70
     1
102
RTVSPropertyOp61
 70
     1
102
RTVSPropertyOp62
 70
     1
  0
XRECORD
  5
135E
102
{ACAD_REACTORS
330
135D
102
}
330
135D
100
AcDbXrecord
280
     1
102
RTVSPost2010Prop28
280
     0
102
RTVSPost2010PropOp28
 70
     1
102
RTVSPost2010Prop29
280
     1
102
RTVSPost2010PropOp29
 70
     1
102
RTVSPost2010Prop30
280
     1
102
RTVSPost2010PropOp30
 70
     1
102
RTVSPost2010Prop31
280
     0
102
RTVSPost2010PropOp31
 70
     1
102
RTVSPost2010Prop32
280
     0
102
RTVSPost2010PropOp32
 70
     1
102
RTVSPost2010Prop33
280
     0
102
RTVSPost2010PropOp33
 70
     1
102
RTVSPost2010Prop34
280
     0
102
RTVSPost2010PropOp34
 70
     1
102
RTVSPost2010Prop35
280
     0
102
RTVSPost2010PropOp35
 70
     1
102
RTVSPost2010Prop36
280
     0
102
RTVSPost2010PropOp36
 70
     1
102
RTVSPost2010Prop37
 90
       50
102
RTVSPost2010PropOp37
 70
     1
102
RTVSPost2010Prop38
140
0.0
102
RTVSPost2010PropOp38
 70
     1
102
RTVSPost2010Prop39
140
1.0
102
RTVSPost2010PropOp39
 70
     1
102
RTVSPost2010Prop40
 90
        0
102
RTVSPost2010PropOp40
 70
     1
102
RTVSPost2010Prop41ColorIndex
 90
       18
102
RTVSPost2010Prop41ColorRGB
 90
-16777216
102
RTVSPost2010PropOp41
 70
     1
102
RTVSPost2010Prop42
 90
       50
102
RTVSPost2010PropOp42
 70
     1
102
RTVSPost2010Prop43
 90
        3
102
RTVSPost2010PropOp43
 70
     1
102
RTVSPost2010Prop44ColorIndex
 90
        5
102
RTVSPost2010Prop44ColorRGB
 90
      255
102
RTVSPost2010PropOp44
 70
     1
102
RTVSPost2010Prop45
280
     0
102
RTVSPost2010PropOp45
 70
     1
102
RTVSPost2010Prop46
 90
       50
102
RTVSPost2010PropOp46
 70
     1
102
RTVSPost2010Prop47
 90
       50
102
RTVSPost2010PropOp47
 70
     1
102
RTVSPost2010Prop48
 90
       50
102
RTVSPost2010PropOp48
 70
     1
102
RTVSPost2010Prop49
280
     0
102
RTVSPost2010PropOp49
 70
     1
102
RTVSPost2010Prop50
 90
       50
102
RTVSPost2010PropOp50
 70
     1
102
RTVSPost2010Prop51ColorIndex
 90
      256
102
RTVSPost2010Prop51ColorRGB
 90
-16777216
102
RTVSPost2010PropOp51
 70
     0
102
RTVSPost2010Prop52
140
1.0
102
RTVSPost2010PropOp52
 70
     0
102
RTVSPost2010Prop53
 90
        2
102
RTVSPost2010PropOp53
 70
     1
102
RTVSPost2010Prop54
  1
strokes_ogs.tif
102
RTVSPost2010PropOp54
 70
     1
102
RTVSPost2010Prop55
280
     0
102
RTVSPost2010PropOp55
 70
     1
102
RTVSPost2010Prop56
140
1.0
102
RTVSPost2010PropOp56
 70
     1
102
RTVSPost2010Prop57
140
1.0
102
RTVSPost2010PropOp57
 70
     1
102
RTVSPropertyOp0
 70
     1
102
RTVSPropertyOp1
 70
     1
102
RTVSPropertyOp2
 70
     1
102
RTVSPropertyOp3
 70
     1
102
RTVSPropertyOp4
 70
     1
102
RTVSPropertyOp5
 70
     1
102
RTVSPropertyOp6
 70
     1
102
RTVSPropertyOp7
 70
     1
102
RTVSPropertyOp8
 70
     1
102
RTVSPropertyOp9
 70
     1
102
RTVSPropertyOp10
 70
     1
102
RTVSPropertyOp11
 70
     1
102
RTVSPropertyOp12
 70
     1
102
RTVSPropertyOp13
 70
     1
102
RTVSPropertyOp14
 70
     1
102
RTVSPropertyOp15
 70
     1
102
RTVSPropertyOp16
 70
     1
102
RTVSPropertyOp17
 70
     1
102
RTVSPropertyOp18
 70
     1
102
RTVSPropertyOp19
 70
     1
102
RTVSPropertyOp20
 70
     1
102
RTVSPropertyOp21
 70
     1
102
RTVSPropertyOp22
 70
     1
102
RTVSPropertyOp23
 70
     1
102
RTVSPropertyOp24
 70
     1
102
RTVSPropertyOp25
 70
     1
102
RTVSPropertyOp26
 70
     1
102
RTVSPropertyOp27
 70
     1
102
RTVSPropertyOp28
 70
     1
102
RTVSPropertyOp29
 70
     1
102
RTVSPropertyOp30
 70
     1
102
RTVSPropertyOp31
 70
     1
102
RTVSPropertyOp32
 70
     1
102
RTVSPropertyOp33
 70
     1
102
RTVSPropertyOp34
 70
     1
102
RTVSPropertyOp35
 70
     1
102
RTVSPropertyOp36
 70
     1
102
RTVSPropertyOp37
 70
     1
102
RTVSPropertyOp38
 70
     1
102
RTVSPropertyOp39
 70
     1
102
RTVSPropertyOp40
 70
     1
102
RTVSPropertyOp41
 70
     1
102
RTVSPropertyOp42
 70
     1
102
RTVSPropertyOp43
 70
     1
102
RTVSPropertyOp44
 70
     1
102
RTVSPropertyOp45
 70
     1
102
RTVSPropertyOp46
 70
     1
102
RTVSPropertyOp47
 70
     1
102
RTVSPropertyOp48
 70
     1
102
RTVSPropertyOp49
 70
     1
102
RTVSPropertyOp50
 70
     1
102
RTVSPropertyOp51
 70
     0
102
RTVSPropertyOp52
 70
     0
102
RTVSPropertyOp53
 70
     1
102
RTVSPropertyOp54
 70
     1
102
RTVSPropertyOp55
 70
     1
102
RTVSPropertyOp56
 70
     1
102
RTVSPropertyOp57
 70
     1
102
RTVSPropertyOp58
 70
     1
102
RTVSPropertyOp59
 70
     1
102
RTVSPropertyOp60
 70
     1
102
RTVSPropertyOp61
 70
     1
102
RTVSPropertyOp62
 70
     1
  0
XRECORD
  5
136C
102
{ACAD_REACTORS
330
136B
102
}
330
136B
100
AcDbXrecord
280
     1
102
RTVSPost2010Prop28
280
     0
102
RTVSPost2010PropOp28
 70
     1
102
RTVSPost2010Prop29
280
     1
102
RTVSPost2010PropOp29
 70
     1
102
RTVSPost2010Prop30
280
     1
102
RTVSPost2010PropOp30
 70
     1
102
RTVSPost2010Prop31
280
     0
102
RTVSPost2010PropOp31
 70
     1
102
RTVSPost2010Prop32
280
     0
102
RTVSPost2010PropOp32
 70
     1
102
RTVSPost2010Prop33
280
     0
102
RTVSPost2010PropOp33
 70
     1
102
RTVSPost2010Prop34
280
     0
102
RTVSPost2010PropOp34
 70
     1
102
RTVSPost2010Prop35
280
     0
102
RTVSPost2010PropOp35
 70
     1
102
RTVSPost2010Prop36
280
     0
102
RTVSPost2010PropOp36
 70
     1
102
RTVSPost2010Prop37
 90
       50
102
RTVSPost2010PropOp37
 70
     1
102
RTVSPost2010Prop38
140
0.0
102
RTVSPost2010PropOp38
 70
     1
102
RTVSPost2010Prop39
140
1.0
102
RTVSPost2010PropOp39
 70
     1
102
RTVSPost2010Prop40
 90
        0
102
RTVSPost2010PropOp40
 70
     1
102
RTVSPost2010Prop41ColorIndex
 90
       18
102
RTVSPost2010Prop41ColorRGB
 90
-16777216
102
RTVSPost2010PropOp41
 70
     1
102
RTVSPost2010Prop42
 90
       50
102
RTVSPost2010PropOp42
 70
     1
102
RTVSPost2010Prop43
 90
        3
102
RTVSPost2010PropOp43
 70
     1
102
RTVSPost2010Prop44ColorIndex
 90
        5
102
RTVSPost2010Prop44ColorRGB
 90
      255
102
RTVSPost2010PropOp44
 70
     1
102
RTVSPost2010Prop45
280
     0
102
RTVSPost2010PropOp45
 70
     1
102
RTVSPost2010Prop46
 90
       50
102
RTVSPost2010PropOp46
 70
     1
102
RTVSPost2010Prop47
 90
       50
102
RTVSPost2010PropOp47
 70
     1
102
RTVSPost2010Prop48
 90
       50
102
RTVSPost2010PropOp48
 70
     1
102
RTVSPost2010Prop49
280
     0
102
RTVSPost2010PropOp49
 70
     1
102
RTVSPost2010Prop50
 90
       50
102
RTVSPost2010PropOp50
 70
     1
102
RTVSPost2010Prop51ColorIndex
 90
      256
102
RTVSPost2010Prop51ColorRGB
 90
-16777216
102
RTVSPost2010PropOp51
 70
     0
102
RTVSPost2010Prop52
140
1.0
102
RTVSPost2010PropOp52
 70
     0
102
RTVSPost2010Prop53
 90
        2
102
RTVSPost2010PropOp53
 70
     1
102
RTVSPost2010Prop54
  1
strokes_ogs.tif
102
RTVSPost2010PropOp54
 70
     1
102
RTVSPost2010Prop55
280
     0
102
RTVSPost2010PropOp55
 70
     1
102
RTVSPost2010Prop56
140
1.0
102
RTVSPost2010PropOp56
 70
     1
102
RTVSPost2010Prop57
140
1.0
102
RTVSPost2010PropOp57
 70
     1
102
RTVSPropertyOp0
 70
     1
102
RTVSPropertyOp1
 70
     1
102
RTVSPropertyOp2
 70
     1
102
RTVSPropertyOp3
 70
     1
102
RTVSPropertyOp4
 70
     1
102
RTVSPropertyOp5
 70
     1
102
RTVSPropertyOp6
 70
     1
102
RTVSPropertyOp7
 70
     1
102
RTVSPropertyOp8
 70
     1
102
RTVSPropertyOp9
 70
     1
102
RTVSPropertyOp10
 70
     1
102
RTVSPropertyOp11
 70
     1
102
RTVSPropertyOp12
 70
     1
102
RTVSPropertyOp13
 70
     1
102
RTVSPropertyOp14
 70
     1
102
RTVSPropertyOp15
 70
     1
102
RTVSPropertyOp16
 70
     1
102
RTVSPropertyOp17
 70
     1
102
RTVSPropertyOp18
 70
     1
102
RTVSPropertyOp19
 70
     1
102
RTVSPropertyOp20
 70
     1
102
RTVSPropertyOp21
 70
     1
102
RTVSPropertyOp22
 70
     1
102
RTVSPropertyOp23
 70
     1
102
RTVSPropertyOp24
 70
     1
102
RTVSPropertyOp25
 70
     1
102
RTVSPropertyOp26
 70
     1
102
RTVSPropertyOp27
 70
     1
102
RTVSPropertyOp28
 70
     1
102
RTVSPropertyOp29
 70
     1
102
RTVSPropertyOp30
 70
     1
102
RTVSPropertyOp31
 70
     1
102
RTVSPropertyOp32
 70
     1
102
RTVSPropertyOp33
 70
     1
102
RTVSPropertyOp34
 70
     1
102
RTVSPropertyOp35
 70
     1
102
RTVSPropertyOp36
 70
     1
102
RTVSPropertyOp37
 70
     1
102
RTVSPropertyOp38
 70
     1
102
RTVSPropertyOp39
 70
     1
102
RTVSPropertyOp40
 70
     1
102
RTVSPropertyOp41
 70
     1
102
RTVSPropertyOp42
 70
     1
102
RTVSPropertyOp43
 70
     1
102
RTVSPropertyOp44
 70
     1
102
RTVSPropertyOp45
 70
     1
102
RTVSPropertyOp46
 70
     1
102
RTVSPropertyOp47
 70
     1
102
RTVSPropertyOp48
 70
     1
102
RTVSPropertyOp49
 70
     1
102
RTVSPropertyOp50
 70
     1
102
RTVSPropertyOp51
 70
     0
102
RTVSPropertyOp52
 70
     0
102
RTVSPropertyOp53
 70
     1
102
RTVSPropertyOp54
 70
     1
102
RTVSPropertyOp55
 70
     1
102
RTVSPropertyOp56
 70
     1
102
RTVSPropertyOp57
 70
     1
102
RTVSPropertyOp58
 70
     1
102
RTVSPropertyOp59
 70
     1
102
RTVSPropertyOp60
 70
     1
102
RTVSPropertyOp61
 70
     1
102
RTVSPropertyOp62
 70
     1
  0
XRECORD
  5
1374
102
{ACAD_REACTORS
330
1373
102
}
330
1373
100
AcDbXrecord
280
     1
102
RTVSPost2010Prop28
280
     0
102
RTVSPost2010PropOp28
 70
     1
102
RTVSPost2010Prop29
280
     1
102
RTVSPost2010PropOp29
 70
     1
102
RTVSPost2010Prop30
280
     1
102
RTVSPost2010PropOp30
 70
     1
102
RTVSPost2010Prop31
280
     0
102
RTVSPost2010PropOp31
 70
     1
102
RTVSPost2010Prop32
280
     0
102
RTVSPost2010PropOp32
 70
     1
102
RTVSPost2010Prop33
280
     0
102
RTVSPost2010PropOp33
 70
     1
102
RTVSPost2010Prop34
280
     0
102
RTVSPost2010PropOp34
 70
     1
102
RTVSPost2010Prop35
280
     0
102
RTVSPost2010PropOp35
 70
     1
102
RTVSPost2010Prop36
280
     0
102
RTVSPost2010PropOp36
 70
     1
102
RTVSPost2010Prop37
 90
       50
102
RTVSPost2010PropOp37
 70
     1
102
RTVSPost2010Prop38
140
0.0
102
RTVSPost2010PropOp38
 70
     1
102
RTVSPost2010Prop39
140
1.0
102
RTVSPost2010PropOp39
 70
     1
102
RTVSPost2010Prop40
 90
        0
102
RTVSPost2010PropOp40
 70
     1
102
RTVSPost2010Prop41ColorIndex
 90
       18
102
RTVSPost2010Prop41ColorRGB
 90
-16777216
102
RTVSPost2010PropOp41
 70
     1
102
RTVSPost2010Prop42
 90
       50
102
RTVSPost2010PropOp42
 70
     1
102
RTVSPost2010Prop43
 90
        3
102
RTVSPost2010PropOp43
 70
     1
102
RTVSPost2010Prop44ColorIndex
 90
        5
102
RTVSPost2010Prop44ColorRGB
 90
      255
102
RTVSPost2010PropOp44
 70
     1
102
RTVSPost2010Prop45
280
     0
102
RTVSPost2010PropOp45
 70
     1
102
RTVSPost2010Prop46
 90
       50
102
RTVSPost2010PropOp46
 70
     1
102
RTVSPost2010Prop47
 90
       50
102
RTVSPost2010PropOp47
 70
     1
102
RTVSPost2010Prop48
 90
       50
102
RTVSPost2010PropOp48
 70
     1
102
RTVSPost2010Prop49
280
     0
102
RTVSPost2010PropOp49
 70
     1
102
RTVSPost2010Prop50
 90
       50
102
RTVSPost2010PropOp50
 70
     1
102
RTVSPost2010Prop51ColorIndex
 90
      256
102
RTVSPost2010Prop51ColorRGB
 90
-16777216
102
RTVSPost2010PropOp51
 70
     0
102
RTVSPost2010Prop52
140
1.0
102
RTVSPost2010PropOp52
 70
     0
102
RTVSPost2010Prop53
 90
        2
102
RTVSPost2010PropOp53
 70
     1
102
RTVSPost2010Prop54
  1
strokes_ogs.tif
102
RTVSPost2010PropOp54
 70
     1
102
RTVSPost2010Prop55
280
     0
102
RTVSPost2010PropOp55
 70
     1
102
RTVSPost2010Prop56
140
1.0
102
RTVSPost2010PropOp56
 70
     1
102
RTVSPost2010Prop57
140
1.0
102
RTVSPost2010PropOp57
 70
     1
102
RTVSPropertyOp0
 70
     1
102
RTVSPropertyOp1
 70
     1
102
RTVSPropertyOp2
 70
     1
102
RTVSPropertyOp3
 70
     1
102
RTVSPropertyOp4
 70
     1
102
RTVSPropertyOp5
 70
     1
102
RTVSPropertyOp6
 70
     1
102
RTVSPropertyOp7
 70
     1
102
RTVSPropertyOp8
 70
     1
102
RTVSPropertyOp9
 70
     1
102
RTVSPropertyOp10
 70
     1
102
RTVSPropertyOp11
 70
     1
102
RTVSPropertyOp12
 70
     1
102
RTVSPropertyOp13
 70
     1
102
RTVSPropertyOp14
 70
     1
102
RTVSPropertyOp15
 70
     1
102
RTVSPropertyOp16
 70
     1
102
RTVSPropertyOp17
 70
     1
102
RTVSPropertyOp18
 70
     1
102
RTVSPropertyOp19
 70
     1
102
RTVSPropertyOp20
 70
     1
102
RTVSPropertyOp21
 70
     1
102
RTVSPropertyOp22
 70
     1
102
RTVSPropertyOp23
 70
     1
102
RTVSPropertyOp24
 70
     1
102
RTVSPropertyOp25
 70
     1
102
RTVSPropertyOp26
 70
     1
102
RTVSPropertyOp27
 70
     1
102
RTVSPropertyOp28
 70
     1
102
RTVSPropertyOp29
 70
     1
102
RTVSPropertyOp30
 70
     1
102
RTVSPropertyOp31
 70
     1
102
RTVSPropertyOp32
 70
     1
102
RTVSPropertyOp33
 70
     1
102
RTVSPropertyOp34
 70
     1
102
RTVSPropertyOp35
 70
     1
102
RTVSPropertyOp36
 70
     1
102
RTVSPropertyOp37
 70
     1
102
RTVSPropertyOp38
 70
     1
102
RTVSPropertyOp39
 70
     1
102
RTVSPropertyOp40
 70
     1
102
RTVSPropertyOp41
 70
     1
102
RTVSPropertyOp42
 70
     1
102
RTVSPropertyOp43
 70
     1
102
RTVSPropertyOp44
 70
     1
102
RTVSPropertyOp45
 70
     1
102
RTVSPropertyOp46
 70
     1
102
RTVSPropertyOp47
 70
     1
102
RTVSPropertyOp48
 70
     1
102
RTVSPropertyOp49
 70
     1
102
RTVSPropertyOp50
 70
     1
102
RTVSPropertyOp51
 70
     0
102
RTVSPropertyOp52
 70
     0
102
RTVSPropertyOp53
 70
     1
102
RTVSPropertyOp54
 70
     1
102
RTVSPropertyOp55
 70
     1
102
RTVSPropertyOp56
 70
     1
102
RTVSPropertyOp57
 70
     1
102
RTVSPropertyOp58
 70
     1
102
RTVSPropertyOp59
 70
     1
102
RTVSPropertyOp60
 70
     1
102
RTVSPropertyOp61
 70
     1
102
RTVSPropertyOp62
 70
     1
  0
XRECORD
  5
1366
102
{ACAD_REACTORS
330
1365
102
}
330
1365
100
AcDbXrecord
280
     1
102
RTVSPost2010Prop28
280
     0
102
RTVSPost2010PropOp28
 70
     1
102
RTVSPost2010Prop29
280
     1
102
RTVSPost2010PropOp29
 70
     1
102
RTVSPost2010Prop30
280
     1
102
RTVSPost2010PropOp30
 70
     1
102
RTVSPost2010Prop31
280
     0
102
RTVSPost2010PropOp31
 70
     1
102
RTVSPost2010Prop32
280
     0
102
RTVSPost2010PropOp32
 70
     1
102
RTVSPost2010Prop33
280
     0
102
RTVSPost2010PropOp33
 70
     1
102
RTVSPost2010Prop34
280
     0
102
RTVSPost2010PropOp34
 70
     1
102
RTVSPost2010Prop35
280
     0
102
RTVSPost2010PropOp35
 70
     1
102
RTVSPost2010Prop36
280
     0
102
RTVSPost2010PropOp36
 70
     1
102
RTVSPost2010Prop37
 90
       50
102
RTVSPost2010PropOp37
 70
     1
102
RTVSPost2010Prop38
140
0.0
102
RTVSPost2010PropOp38
 70
     1
102
RTVSPost2010Prop39
140
1.0
102
RTVSPost2010PropOp39
 70
     1
102
RTVSPost2010Prop40
 90
        0
102
RTVSPost2010PropOp40
 70
     1
102
RTVSPost2010Prop41ColorIndex
 90
       18
102
RTVSPost2010Prop41ColorRGB
 90
-16777216
102
RTVSPost2010PropOp41
 70
     1
102
RTVSPost2010Prop42
 90
       50
102
RTVSPost2010PropOp42
 70
     1
102
RTVSPost2010Prop43
 90
        3
102
RTVSPost2010PropOp43
 70
     1
102
RTVSPost2010Prop44ColorIndex
 90
        5
102
RTVSPost2010Prop44ColorRGB
 90
      255
102
RTVSPost2010PropOp44
 70
     1
102
RTVSPost2010Prop45
280
     0
102
RTVSPost2010PropOp45
 70
     1
102
RTVSPost2010Prop46
 90
       50
102
RTVSPost2010PropOp46
 70
     1
102
RTVSPost2010Prop47
 90
       50
102
RTVSPost2010PropOp47
 70
     1
102
RTVSPost2010Prop48
 90
       50
102
RTVSPost2010PropOp48
 70
     1
102
RTVSPost2010Prop49
280
     0
102
RTVSPost2010PropOp49
 70
     1
102
RTVSPost2010Prop50
 90
       50
102
RTVSPost2010PropOp50
 70
     1
102
RTVSPost2010Prop51ColorIndex
 90
      256
102
RTVSPost2010Prop51ColorRGB
 90
-16777216
102
RTVSPost2010PropOp51
 70
     0
102
RTVSPost2010Prop52
140
1.0
102
RTVSPost2010PropOp52
 70
     0
102
RTVSPost2010Prop53
 90
        2
102
RTVSPost2010PropOp53
 70
     1
102
RTVSPost2010Prop54
  1
strokes_ogs.tif
102
RTVSPost2010PropOp54
 70
     1
102
RTVSPost2010Prop55
280
     0
102
RTVSPost2010PropOp55
 70
     1
102
RTVSPost2010Prop56
140
1.0
102
RTVSPost2010PropOp56
 70
     1
102
RTVSPost2010Prop57
140
1.0
102
RTVSPost2010PropOp57
 70
     1
102
RTVSPropertyOp0
 70
     1
102
RTVSPropertyOp1
 70
     1
102
RTVSPropertyOp2
 70
     1
102
RTVSPropertyOp3
 70
     1
102
RTVSPropertyOp4
 70
     1
102
RTVSPropertyOp5
 70
     1
102
RTVSPropertyOp6
 70
     1
102
RTVSPropertyOp7
 70
     1
102
RTVSPropertyOp8
 70
     1
102
RTVSPropertyOp9
 70
     1
102
RTVSPropertyOp10
 70
     1
102
RTVSPropertyOp11
 70
     1
102
RTVSPropertyOp12
 70
     1
102
RTVSPropertyOp13
 70
     1
102
RTVSPropertyOp14
 70
     1
102
RTVSPropertyOp15
 70
     1
102
RTVSPropertyOp16
 70
     1
102
RTVSPropertyOp17
 70
     1
102
RTVSPropertyOp18
 70
     1
102
RTVSPropertyOp19
 70
     1
102
RTVSPropertyOp20
 70
     1
102
RTVSPropertyOp21
 70
     1
102
RTVSPropertyOp22
 70
     1
102
RTVSPropertyOp23
 70
     1
102
RTVSPropertyOp24
 70
     1
102
RTVSPropertyOp25
 70
     1
102
RTVSPropertyOp26
 70
     1
102
RTVSPropertyOp27
 70
     1
102
RTVSPropertyOp28
 70
     1
102
RTVSPropertyOp29
 70
     1
102
RTVSPropertyOp30
 70
     1
102
RTVSPropertyOp31
 70
     1
102
RTVSPropertyOp32
 70
     1
102
RTVSPropertyOp33
 70
     1
102
RTVSPropertyOp34
 70
     1
102
RTVSPropertyOp35
 70
     1
102
RTVSPropertyOp36
 70
     1
102
RTVSPropertyOp37
 70
     1
102
RTVSPropertyOp38
 70
     1
102
RTVSPropertyOp39
 70
     1
102
RTVSPropertyOp40
 70
     1
102
RTVSPropertyOp41
 70
     1
102
RTVSPropertyOp42
 70
     1
102
RTVSPropertyOp43
 70
     1
102
RTVSPropertyOp44
 70
     1
102
RTVSPropertyOp45
 70
     1
102
RTVSPropertyOp46
 70
     1
102
RTVSPropertyOp47
 70
     1
102
RTVSPropertyOp48
 70
     1
102
RTVSPropertyOp49
 70
     1
102
RTVSPropertyOp50
 70
     1
102
RTVSPropertyOp51
 70
     0
102
RTVSPropertyOp52
 70
     0
102
RTVSPropertyOp53
 70
     1
102
RTVSPropertyOp54
 70
     1
102
RTVSPropertyOp55
 70
     1
102
RTVSPropertyOp56
 70
     1
102
RTVSPropertyOp57
 70
     1
102
RTVSPropertyOp58
 70
     1
102
RTVSPropertyOp59
 70
     1
102
RTVSPropertyOp60
 70
     1
102
RTVSPropertyOp61
 70
     1
102
RTVSPropertyOp62
 70
     1
  0
XRECORD
  5
136A
102
{ACAD_REACTORS
330
1369
102
}
330
1369
100
AcDbXrecord
280
     1
102
RTVSPost2010Prop28
280
     0
102
RTVSPost2010PropOp28
 70
     1
102
RTVSPost2010Prop29
280
     1
102
RTVSPost2010PropOp29
 70
     1
102
RTVSPost2010Prop30
280
     1
102
RTVSPost2010PropOp30
 70
     1
102
RTVSPost2010Prop31
280
     0
102
RTVSPost2010PropOp31
 70
     1
102
RTVSPost2010Prop32
280
     0
102
RTVSPost2010PropOp32
 70
     1
102
RTVSPost2010Prop33
280
     0
102
RTVSPost2010PropOp33
 70
     1
102
RTVSPost2010Prop34
280
     0
102
RTVSPost2010PropOp34
 70
     1
102
RTVSPost2010Prop35
280
     0
102
RTVSPost2010PropOp35
 70
     1
102
RTVSPost2010Prop36
280
     0
102
RTVSPost2010PropOp36
 70
     1
102
RTVSPost2010Prop37
 90
       50
102
RTVSPost2010PropOp37
 70
     1
102
RTVSPost2010Prop38
140
0.0
102
RTVSPost2010PropOp38
 70
     1
102
RTVSPost2010Prop39
140
1.0
102
RTVSPost2010PropOp39
 70
     1
102
RTVSPost2010Prop40
 90
        0
102
RTVSPost2010PropOp40
 70
     1
102
RTVSPost2010Prop41ColorIndex
 90
       18
102
RTVSPost2010Prop41ColorRGB
 90
-16777216
102
RTVSPost2010PropOp41
 70
     1
102
RTVSPost2010Prop42
 90
       50
102
RTVSPost2010PropOp42
 70
     1
102
RTVSPost2010Prop43
 90
        3
102
RTVSPost2010PropOp43
 70
     1
102
RTVSPost2010Prop44ColorIndex
 90
        5
102
RTVSPost2010Prop44ColorRGB
 90
      255
102
RTVSPost2010PropOp44
 70
     1
102
RTVSPost2010Prop45
280
     0
102
RTVSPost2010PropOp45
 70
     1
102
RTVSPost2010Prop46
 90
       50
102
RTVSPost2010PropOp46
 70
     1
102
RTVSPost2010Prop47
 90
       50
102
RTVSPost2010PropOp47
 70
     1
102
RTVSPost2010Prop48
 90
       50
102
RTVSPost2010PropOp48
 70
     1
102
RTVSPost2010Prop49
280
     0
102
RTVSPost2010PropOp49
 70
     1
102
RTVSPost2010Prop50
 90
       50
102
RTVSPost2010PropOp50
 70
     1
102
RTVSPost2010Prop51ColorIndex
 90
      256
102
RTVSPost2010Prop51ColorRGB
 90
-16777216
102
RTVSPost2010PropOp51
 70
     0
102
RTVSPost2010Prop52
140
1.0
102
RTVSPost2010PropOp52
 70
     0
102
RTVSPost2010Prop53
 90
        2
102
RTVSPost2010PropOp53
 70
     1
102
RTVSPost2010Prop54
  1
strokes_ogs.tif
102
RTVSPost2010PropOp54
 70
     1
102
RTVSPost2010Prop55
280
     0
102
RTVSPost2010PropOp55
 70
     1
102
RTVSPost2010Prop56
140
1.0
102
RTVSPost2010PropOp56
 70
     1
102
RTVSPost2010Prop57
140
1.0
102
RTVSPost2010PropOp57
 70
     1
102
RTVSPropertyOp0
 70
     1
102
RTVSPropertyOp1
 70
     1
102
RTVSPropertyOp2
 70
     1
102
RTVSPropertyOp3
 70
     1
102
RTVSPropertyOp4
 70
     1
102
RTVSPropertyOp5
 70
     1
102
RTVSPropertyOp6
 70
     1
102
RTVSPropertyOp7
 70
     1
102
RTVSPropertyOp8
 70
     1
102
RTVSPropertyOp9
 70
     1
102
RTVSPropertyOp10
 70
     1
102
RTVSPropertyOp11
 70
     1
102
RTVSPropertyOp12
 70
     1
102
RTVSPropertyOp13
 70
     1
102
RTVSPropertyOp14
 70
     1
102
RTVSPropertyOp15
 70
     1
102
RTVSPropertyOp16
 70
     1
102
RTVSPropertyOp17
 70
     1
102
RTVSPropertyOp18
 70
     1
102
RTVSPropertyOp19
 70
     1
102
RTVSPropertyOp20
 70
     1
102
RTVSPropertyOp21
 70
     1
102
RTVSPropertyOp22
 70
     1
102
RTVSPropertyOp23
 70
     1
102
RTVSPropertyOp24
 70
     1
102
RTVSPropertyOp25
 70
     1
102
RTVSPropertyOp26
 70
     1
102
RTVSPropertyOp27
 70
     1
102
RTVSPropertyOp28
 70
     1
102
RTVSPropertyOp29
 70
     1
102
RTVSPropertyOp30
 70
     1
102
RTVSPropertyOp31
 70
     1
102
RTVSPropertyOp32
 70
     1
102
RTVSPropertyOp33
 70
     1
102
RTVSPropertyOp34
 70
     1
102
RTVSPropertyOp35
 70
     1
102
RTVSPropertyOp36
 70
     1
102
RTVSPropertyOp37
 70
     1
102
RTVSPropertyOp38
 70
     1
102
RTVSPropertyOp39
 70
     1
102
RTVSPropertyOp40
 70
     1
102
RTVSPropertyOp41
 70
     1
102
RTVSPropertyOp42
 70
     1
102
RTVSPropertyOp43
 70
     1
102
RTVSPropertyOp44
 70
     1
102
RTVSPropertyOp45
 70
     1
102
RTVSPropertyOp46
 70
     1
102
RTVSPropertyOp47
 70
     1
102
RTVSPropertyOp48
 70
     1
102
RTVSPropertyOp49
 70
     1
102
RTVSPropertyOp50
 70
     1
102
RTVSPropertyOp51
 70
     0
102
RTVSPropertyOp52
 70
     0
102
RTVSPropertyOp53
 70
     1
102
RTVSPropertyOp54
 70
     1
102
RTVSPropertyOp55
 70
     1
102
RTVSPropertyOp56
 70
     1
102
RTVSPropertyOp57
 70
     1
102
RTVSPropertyOp58
 70
     1
102
RTVSPropertyOp59
 70
     1
102
RTVSPropertyOp60
 70
     1
102
RTVSPropertyOp61
 70
     1
102
RTVSPropertyOp62
 70
     1
  0
XRECORD
  5
1384
102
{ACAD_REACTORS
330
1383
102
}
330
1383
100
AcDbXrecord
280
     1
102
RTVSPost2010Prop28
280
     0
102
RTVSPost2010PropOp28
 70
     0
102
RTVSPost2010Prop29
280
     1
102
RTVSPost2010PropOp29
 70
     0
102
RTVSPost2010Prop30
280
     1
102
RTVSPost2010PropOp30
 70
     0
102
RTVSPost2010Prop31
280
     0
102
RTVSPost2010PropOp31
 70
     0
102
RTVSPost2010Prop32
280
     0
102
RTVSPost2010PropOp32
 70
     0
102
RTVSPost2010Prop33
280
     0
102
RTVSPost2010PropOp33
 70
     0
102
RTVSPost2010Prop34
280
     0
102
RTVSPost2010PropOp34
 70
     0
102
RTVSPost2010Prop35
280
     0
102
RTVSPost2010PropOp35
 70
     0
102
RTVSPost2010Prop36
280
     0
102
RTVSPost2010PropOp36
 70
     0
102
RTVSPost2010Prop37
 90
       50
102
RTVSPost2010PropOp37
 70
     0
102
RTVSPost2010Prop38
140
0.0
102
RTVSPost2010PropOp38
 70
     0
102
RTVSPost2010Prop39
140
1.0
102
RTVSPost2010PropOp39
 70
     0
102
RTVSPost2010Prop40
 90
        0
102
RTVSPost2010PropOp40
 70
     0
102
RTVSPost2010Prop41ColorIndex
 90
       18
102
RTVSPost2010Prop41ColorRGB
 90
-16777216
102
RTVSPost2010PropOp41
 70
     0
102
RTVSPost2010Prop42
 90
       50
102
RTVSPost2010PropOp42
 70
     0
102
RTVSPost2010Prop43
 90
        3
102
RTVSPost2010PropOp43
 70
     0
102
RTVSPost2010Prop44ColorIndex
 90
        5
102
RTVSPost2010Prop44ColorRGB
 90
      255
102
RTVSPost2010PropOp44
 70
     0
102
RTVSPost2010Prop45
280
     0
102
RTVSPost2010PropOp45
 70
     0
102
RTVSPost2010Prop46
 90
       50
102
RTVSPost2010PropOp46
 70
     0
102
RTVSPost2010Prop47
 90
       50
102
RTVSPost2010PropOp47
 70
     0
102
RTVSPost2010Prop48
 90
       50
102
RTVSPost2010PropOp48
 70
     0
102
RTVSPost2010Prop49
280
     0
102
RTVSPost2010PropOp49
 70
     0
102
RTVSPost2010Prop50
 90
       50
102
RTVSPost2010PropOp50
 70
     0
102
RTVSPost2010Prop51ColorIndex
 90
      256
102
RTVSPost2010Prop51ColorRGB
 90
-16777216
102
RTVSPost2010PropOp51
 70
     0
102
RTVSPost2010Prop52
140
1.0
102
RTVSPost2010PropOp52
 70
     0
102
RTVSPost2010Prop53
 90
        2
102
RTVSPost2010PropOp53
 70
     0
102
RTVSPost2010Prop54
  1
strokes_ogs.tif
102
RTVSPost2010PropOp54
 70
     0
102
RTVSPost2010Prop55
280
     0
102
RTVSPost2010PropOp55
 70
     0
102
RTVSPost2010Prop56
140
1.0
102
RTVSPost2010PropOp56
 70
     0
102
RTVSPost2010Prop57
140
1.0
102
RTVSPost2010PropOp57
 70
     0
102
RTVSPropertyOp0
 70
     0
102
RTVSPropertyOp1
 70
     0
102
RTVSPropertyOp2
 70
     0
102
RTVSPropertyOp3
 70
     0
102
RTVSPropertyOp4
 70
     0
102
RTVSPropertyOp5
 70
     0
102
RTVSPropertyOp6
 70
     0
102
RTVSPropertyOp7
 70
     0
102
RTVSPropertyOp8
 70
     0
102
RTVSPropertyOp9
 70
     0
102
RTVSPropertyOp10
 70
     0
102
RTVSPropertyOp11
 70
     0
102
RTVSPropertyOp12
 70
     0
102
RTVSPropertyOp13
 70
     0
102
RTVSPropertyOp14
 70
     2
102
RTVSPropertyOp15
 70
     0
102
RTVSPropertyOp16
 70
     0
102
RTVSPropertyOp17
 70
     0
102
RTVSPropertyOp18
 70
     0
102
RTVSPropertyOp19
 70
     0
102
RTVSPropertyOp20
 70
     0
102
RTVSPropertyOp21
 70
     0
102
RTVSPropertyOp22
 70
     0
102
RTVSPropertyOp23
 70
     0
102
RTVSPropertyOp24
 70
     0
102
RTVSPropertyOp25
 70
     0
102
RTVSPropertyOp26
 70
     0
102
RTVSPropertyOp27
 70
     0
102
RTVSPropertyOp28
 70
     0
102
RTVSPropertyOp29
 70
     0
102
RTVSPropertyOp30
 70
     0
102
RTVSPropertyOp31
 70
     0
102
RTVSPropertyOp32
 70
     0
102
RTVSPropertyOp33
 70
     0
102
RTVSPropertyOp34
 70
     0
102
RTVSPropertyOp35
 70
     0
102
RTVSPropertyOp36
 70
     0
102
RTVSPropertyOp37
 70
     0
102
RTVSPropertyOp38
 70
     0
102
RTVSPropertyOp39
 70
     0
102
RTVSPropertyOp40
 70
     0
102
RTVSPropertyOp41
 70
     0
102
RTVSPropertyOp42
 70
     0
102
RTVSPropertyOp43
 70
     0
102
RTVSPropertyOp44
 70
     0
102
RTVSPropertyOp45
 70
     0
102
RTVSPropertyOp46
 70
     0
102
RTVSPropertyOp47
 70
     0
102
RTVSPropertyOp48
 70
     0
102
RTVSPropertyOp49
 70
     0
102
RTVSPropertyOp50
 70
     0
102
RTVSPropertyOp51
 70
     0
102
RTVSPropertyOp52
 70
     0
102
RTVSPropertyOp53
 70
     0
102
RTVSPropertyOp54
 70
     0
102
RTVSPropertyOp55
 70
     0
102
RTVSPropertyOp56
 70
     0
102
RTVSPropertyOp57
 70
     0
102
RTVSPropertyOp58
 70
     1
102
RTVSPropertyOp59
 70
     1
102
RTVSPropertyOp60
 70
     1
102
RTVSPropertyOp61
 70
     1
102
RTVSPropertyOp62
 70
     1
  0
XRECORD
  5
1372
102
{ACAD_REACTORS
330
1371
102
}
330
1371
100
AcDbXrecord
280
     1
102
RTVSPost2010Prop28
280
     0
102
RTVSPost2010PropOp28
 70
     1
102
RTVSPost2010Prop29
280
     1
102
RTVSPost2010PropOp29
 70
     1
102
RTVSPost2010Prop30
280
     1
102
RTVSPost2010PropOp30
 70
     1
102
RTVSPost2010Prop31
280
     0
102
RTVSPost2010PropOp31
 70
     1
102
RTVSPost2010Prop32
280
     0
102
RTVSPost2010PropOp32
 70
     1
102
RTVSPost2010Prop33
280
     0
102
RTVSPost2010PropOp33
 70
     1
102
RTVSPost2010Prop34
280
     0
102
RTVSPost2010PropOp34
 70
     1
102
RTVSPost2010Prop35
280
     0
102
RTVSPost2010PropOp35
 70
     1
102
RTVSPost2010Prop36
280
     0
102
RTVSPost2010PropOp36
 70
     1
102
RTVSPost2010Prop37
 90
       50
102
RTVSPost2010PropOp37
 70
     1
102
RTVSPost2010Prop38
140
0.0
102
RTVSPost2010PropOp38
 70
     1
102
RTVSPost2010Prop39
140
1.0
102
RTVSPost2010PropOp39
 70
     1
102
RTVSPost2010Prop40
 90
        0
102
RTVSPost2010PropOp40
 70
     1
102
RTVSPost2010Prop41ColorIndex
 90
       18
102
RTVSPost2010Prop41ColorRGB
 90
-16777216
102
RTVSPost2010PropOp41
 70
     1
102
RTVSPost2010Prop42
 90
       50
102
RTVSPost2010PropOp42
 70
     1
102
RTVSPost2010Prop43
 90
        3
102
RTVSPost2010PropOp43
 70
     1
102
RTVSPost2010Prop44ColorIndex
 90
        5
102
RTVSPost2010Prop44ColorRGB
 90
      255
102
RTVSPost2010PropOp44
 70
     1
102
RTVSPost2010Prop45
280
     0
102
RTVSPost2010PropOp45
 70
     1
102
RTVSPost2010Prop46
 90
       50
102
RTVSPost2010PropOp46
 70
     1
102
RTVSPost2010Prop47
 90
       50
102
RTVSPost2010PropOp47
 70
     1
102
RTVSPost2010Prop48
 90
       50
102
RTVSPost2010PropOp48
 70
     1
102
RTVSPost2010Prop49
280
     0
102
RTVSPost2010PropOp49
 70
     1
102
RTVSPost2010Prop50
 90
       50
102
RTVSPost2010PropOp50
 70
     1
102
RTVSPost2010Prop51ColorIndex
 90
      256
102
RTVSPost2010Prop51ColorRGB
 90
-16777216
102
RTVSPost2010PropOp51
 70
     0
102
RTVSPost2010Prop52
140
1.0
102
RTVSPost2010PropOp52
 70
     0
102
RTVSPost2010Prop53
 90
        2
102
RTVSPost2010PropOp53
 70
     1
102
RTVSPost2010Prop54
  1
strokes_ogs.tif
102
RTVSPost2010PropOp54
 70
     1
102
RTVSPost2010Prop55
280
     0
102
RTVSPost2010PropOp55
 70
     1
102
RTVSPost2010Prop56
140
1.0
102
RTVSPost2010PropOp56
 70
     1
102
RTVSPost2010Prop57
140
1.0
102
RTVSPost2010PropOp57
 70
     1
102
RTVSPropertyOp0
 70
     1
102
RTVSPropertyOp1
 70
     1
102
RTVSPropertyOp2
 70
     1
102
RTVSPropertyOp3
 70
     1
102
RTVSPropertyOp4
 70
     1
102
RTVSPropertyOp5
 70
     1
102
RTVSPropertyOp6
 70
     1
102
RTVSPropertyOp7
 70
     1
102
RTVSPropertyOp8
 70
     1
102
RTVSPropertyOp9
 70
     1
102
RTVSPropertyOp10
 70
     1
102
RTVSPropertyOp11
 70
     1
102
RTVSPropertyOp12
 70
     1
102
RTVSPropertyOp13
 70
     1
102
RTVSPropertyOp14
 70
     1
102
RTVSPropertyOp15
 70
     1
102
RTVSPropertyOp16
 70
     1
102
RTVSPropertyOp17
 70
     1
102
RTVSPropertyOp18
 70
     1
102
RTVSPropertyOp19
 70
     1
102
RTVSPropertyOp20
 70
     1
102
RTVSPropertyOp21
 70
     1
102
RTVSPropertyOp22
 70
     1
102
RTVSPropertyOp23
 70
     1
102
RTVSPropertyOp24
 70
     1
102
RTVSPropertyOp25
 70
     1
102
RTVSPropertyOp26
 70
     1
102
RTVSPropertyOp27
 70
     1
102
RTVSPropertyOp28
 70
     1
102
RTVSPropertyOp29
 70
     1
102
RTVSPropertyOp30
 70
     1
102
RTVSPropertyOp31
 70
     1
102
RTVSPropertyOp32
 70
     1
102
RTVSPropertyOp33
 70
     1
102
RTVSPropertyOp34
 70
     1
102
RTVSPropertyOp35
 70
     1
102
RTVSPropertyOp36
 70
     1
102
RTVSPropertyOp37
 70
     1
102
RTVSPropertyOp38
 70
     1
102
RTVSPropertyOp39
 70
     1
102
RTVSPropertyOp40
 70
     1
102
RTVSPropertyOp41
 70
     1
102
RTVSPropertyOp42
 70
     1
102
RTVSPropertyOp43
 70
     1
102
RTVSPropertyOp44
 70
     1
102
RTVSPropertyOp45
 70
     1
102
RTVSPropertyOp46
 70
     1
102
RTVSPropertyOp47
 70
     1
102
RTVSPropertyOp48
 70
     1
102
RTVSPropertyOp49
 70
     1
102
RTVSPropertyOp50
 70
     1
102
RTVSPropertyOp51
 70
     0
102
RTVSPropertyOp52
 70
     0
102
RTVSPropertyOp53
 70
     1
102
RTVSPropertyOp54
 70
     1
102
RTVSPropertyOp55
 70
     1
102
RTVSPropertyOp56
 70
     1
102
RTVSPropertyOp57
 70
     1
102
RTVSPropertyOp58
 70
     1
102
RTVSPropertyOp59
 70
     1
102
RTVSPropertyOp60
 70
     1
102
RTVSPropertyOp61
 70
     1
102
RTVSPropertyOp62
 70
     1
  0
XRECORD
  5
1356
102
{ACAD_REACTORS
330
1355
102
}
330
1355
100
AcDbXrecord
280
     1
102
RTVSPost2010Prop28
280
     0
102
RTVSPost2010PropOp28
 70
     1
102
RTVSPost2010Prop29
280
     1
102
RTVSPost2010PropOp29
 70
     1
102
RTVSPost2010Prop30
280
     1
102
RTVSPost2010PropOp30
 70
     1
102
RTVSPost2010Prop31
280
     0
102
RTVSPost2010PropOp31
 70
     1
102
RTVSPost2010Prop32
280
     0
102
RTVSPost2010PropOp32
 70
     1
102
RTVSPost2010Prop33
280
     0
102
RTVSPost2010PropOp33
 70
     1
102
RTVSPost2010Prop34
280
     0
102
RTVSPost2010PropOp34
 70
     1
102
RTVSPost2010Prop35
280
     0
102
RTVSPost2010PropOp35
 70
     1
102
RTVSPost2010Prop36
280
     0
102
RTVSPost2010PropOp36
 70
     1
102
RTVSPost2010Prop37
 90
       50
102
RTVSPost2010PropOp37
 70
     1
102
RTVSPost2010Prop38
140
0.0
102
RTVSPost2010PropOp38
 70
     1
102
RTVSPost2010Prop39
140
1.0
102
RTVSPost2010PropOp39
 70
     1
102
RTVSPost2010Prop40
 90
        0
102
RTVSPost2010PropOp40
 70
     1
102
RTVSPost2010Prop41ColorIndex
 90
       18
102
RTVSPost2010Prop41ColorRGB
 90
-16777216
102
RTVSPost2010PropOp41
 70
     1
102
RTVSPost2010Prop42
 90
       50
102
RTVSPost2010PropOp42
 70
     1
102
RTVSPost2010Prop43
 90
        3
102
RTVSPost2010PropOp43
 70
     1
102
RTVSPost2010Prop44ColorIndex
 90
        5
102
RTVSPost2010Prop44ColorRGB
 90
      255
102
RTVSPost2010PropOp44
 70
     1
102
RTVSPost2010Prop45
280
     0
102
RTVSPost2010PropOp45
 70
     1
102
RTVSPost2010Prop46
 90
       50
102
RTVSPost2010PropOp46
 70
     1
102
RTVSPost2010Prop47
 90
       50
102
RTVSPost2010PropOp47
 70
     1
102
RTVSPost2010Prop48
 90
       50
102
RTVSPost2010PropOp48
 70
     1
102
RTVSPost2010Prop49
280
     0
102
RTVSPost2010PropOp49
 70
     1
102
RTVSPost2010Prop50
 90
       50
102
RTVSPost2010PropOp50
 70
     1
102
RTVSPost2010Prop51ColorIndex
 90
      256
102
RTVSPost2010Prop51ColorRGB
 90
-16777216
102
RTVSPost2010PropOp51
 70
     0
102
RTVSPost2010Prop52
140
1.0
102
RTVSPost2010PropOp52
 70
     0
102
RTVSPost2010Prop53
 90
        2
102
RTVSPost2010PropOp53
 70
     1
102
RTVSPost2010Prop54
  1
strokes_ogs.tif
102
RTVSPost2010PropOp54
 70
     1
102
RTVSPost2010Prop55
280
     0
102
RTVSPost2010PropOp55
 70
     1
102
RTVSPost2010Prop56
140
1.0
102
RTVSPost2010PropOp56
 70
     1
102
RTVSPost2010Prop57
140
1.0
102
RTVSPost2010PropOp57
 70
     1
102
RTVSPropertyOp0
 70
     1
102
RTVSPropertyOp1
 70
     1
102
RTVSPropertyOp2
 70
     1
102
RTVSPropertyOp3
 70
     1
102
RTVSPropertyOp4
 70
     1
102
RTVSPropertyOp5
 70
     1
102
RTVSPropertyOp6
 70
     1
102
RTVSPropertyOp7
 70
     1
102
RTVSPropertyOp8
 70
     1
102
RTVSPropertyOp9
 70
     1
102
RTVSPropertyOp10
 70
     1
102
RTVSPropertyOp11
 70
     1
102
RTVSPropertyOp12
 70
     1
102
RTVSPropertyOp13
 70
     1
102
RTVSPropertyOp14
 70
     1
102
RTVSPropertyOp15
 70
     1
102
RTVSPropertyOp16
 70
     1
102
RTVSPropertyOp17
 70
     1
102
RTVSPropertyOp18
 70
     1
102
RTVSPropertyOp19
 70
     1
102
RTVSPropertyOp20
 70
     1
102
RTVSPropertyOp21
 70
     1
102
RTVSPropertyOp22
 70
     1
102
RTVSPropertyOp23
 70
     1
102
RTVSPropertyOp24
 70
     1
102
RTVSPropertyOp25
 70
     1
102
RTVSPropertyOp26
 70
     1
102
RTVSPropertyOp27
 70
     1
102
RTVSPropertyOp28
 70
     1
102
RTVSPropertyOp29
 70
     1
102
RTVSPropertyOp30
 70
     1
102
RTVSPropertyOp31
 70
     1
102
RTVSPropertyOp32
 70
     1
102
RTVSPropertyOp33
 70
     1
102
RTVSPropertyOp34
 70
     1
102
RTVSPropertyOp35
 70
     1
102
RTVSPropertyOp36
 70
     1
102
RTVSPropertyOp37
 70
     1
102
RTVSPropertyOp38
 70
     1
102
RTVSPropertyOp39
 70
     1
102
RTVSPropertyOp40
 70
     1
102
RTVSPropertyOp41
 70
     1
102
RTVSPropertyOp42
 70
     1
102
RTVSPropertyOp43
 70
     1
102
RTVSPropertyOp44
 70
     1
102
RTVSPropertyOp45
 70
     1
102
RTVSPropertyOp46
 70
     1
102
RTVSPropertyOp47
 70
     1
102
RTVSPropertyOp48
 70
     1
102
RTVSPropertyOp49
 70
     1
102
RTVSPropertyOp50
 70
     1
102
RTVSPropertyOp51
 70
     0
102
RTVSPropertyOp52
 70
     0
102
RTVSPropertyOp53
 70
     1
102
RTVSPropertyOp54
 70
     1
102
RTVSPropertyOp55
 70
     1
102
RTVSPropertyOp56
 70
     1
102
RTVSPropertyOp57
 70
     1
102
RTVSPropertyOp58
 70
     1
102
RTVSPropertyOp59
 70
     1
102
RTVSPropertyOp60
 70
     1
102
RTVSPropertyOp61
 70
     1
102
RTVSPropertyOp62
 70
     1
  0
XRECORD
  5
1358
102
{ACAD_REACTORS
330
1357
102
}
330
1357
100
AcDbXrecord
280
     1
102
RTVSPost2010Prop28
280
     0
102
RTVSPost2010PropOp28
 70
     1
102
RTVSPost2010Prop29
280
     1
102
RTVSPost2010PropOp29
 70
     1
102
RTVSPost2010Prop30
280
     1
102
RTVSPost2010PropOp30
 70
     1
102
RTVSPost2010Prop31
280
     0
102
RTVSPost2010PropOp31
 70
     1
102
RTVSPost2010Prop32
280
     0
102
RTVSPost2010PropOp32
 70
     1
102
RTVSPost2010Prop33
280
     0
102
RTVSPost2010PropOp33
 70
     1
102
RTVSPost2010Prop34
280
     0
102
RTVSPost2010PropOp34
 70
     1
102
RTVSPost2010Prop35
280
     0
102
RTVSPost2010PropOp35
 70
     1
102
RTVSPost2010Prop36
280
     0
102
RTVSPost2010PropOp36
 70
     1
102
RTVSPost2010Prop37
 90
       50
102
RTVSPost2010PropOp37
 70
     1
102
RTVSPost2010Prop38
140
0.0
102
RTVSPost2010PropOp38
 70
     1
102
RTVSPost2010Prop39
140
1.0
102
RTVSPost2010PropOp39
 70
     1
102
RTVSPost2010Prop40
 90
        0
102
RTVSPost2010PropOp40
 70
     1
102
RTVSPost2010Prop41ColorIndex
 90
       18
102
RTVSPost2010Prop41ColorRGB
 90
-16777216
102
RTVSPost2010PropOp41
 70
     1
102
RTVSPost2010Prop42
 90
       50
102
RTVSPost2010PropOp42
 70
     1
102
RTVSPost2010Prop43
 90
        3
102
RTVSPost2010PropOp43
 70
     1
102
RTVSPost2010Prop44ColorIndex
 90
        5
102
RTVSPost2010Prop44ColorRGB
 90
      255
102
RTVSPost2010PropOp44
 70
     1
102
RTVSPost2010Prop45
280
     0
102
RTVSPost2010PropOp45
 70
     1
102
RTVSPost2010Prop46
 90
       50
102
RTVSPost2010PropOp46
 70
     1
102
RTVSPost2010Prop47
 90
       50
102
RTVSPost2010PropOp47
 70
     1
102
RTVSPost2010Prop48
 90
       50
102
RTVSPost2010PropOp48
 70
     1
102
RTVSPost2010Prop49
280
     0
102
RTVSPost2010PropOp49
 70
     1
102
RTVSPost2010Prop50
 90
       50
102
RTVSPost2010PropOp50
 70
     1
102
RTVSPost2010Prop51ColorIndex
 90
      256
102
RTVSPost2010Prop51ColorRGB
 90
-16777216
102
RTVSPost2010PropOp51
 70
     0
102
RTVSPost2010Prop52
140
1.0
102
RTVSPost2010PropOp52
 70
     0
102
RTVSPost2010Prop53
 90
        2
102
RTVSPost2010PropOp53
 70
     1
102
RTVSPost2010Prop54
  1
strokes_ogs.tif
102
RTVSPost2010PropOp54
 70
     1
102
RTVSPost2010Prop55
280
     0
102
RTVSPost2010PropOp55
 70
     1
102
RTVSPost2010Prop56
140
1.0
102
RTVSPost2010PropOp56
 70
     1
102
RTVSPost2010Prop57
140
1.0
102
RTVSPost2010PropOp57
 70
     1
102
RTVSPropertyOp0
 70
     1
102
RTVSPropertyOp1
 70
     1
102
RTVSPropertyOp2
 70
     1
102
RTVSPropertyOp3
 70
     1
102
RTVSPropertyOp4
 70
     1
102
RTVSPropertyOp5
 70
     1
102
RTVSPropertyOp6
 70
     1
102
RTVSPropertyOp7
 70
     1
102
RTVSPropertyOp8
 70
     1
102
RTVSPropertyOp9
 70
     1
102
RTVSPropertyOp10
 70
     1
102
RTVSPropertyOp11
 70
     1
102
RTVSPropertyOp12
 70
     1
102
RTVSPropertyOp13
 70
     1
102
RTVSPropertyOp14
 70
     1
102
RTVSPropertyOp15
 70
     1
102
RTVSPropertyOp16
 70
     1
102
RTVSPropertyOp17
 70
     1
102
RTVSPropertyOp18
 70
     1
102
RTVSPropertyOp19
 70
     1
102
RTVSPropertyOp20
 70
     1
102
RTVSPropertyOp21
 70
     1
102
RTVSPropertyOp22
 70
     1
102
RTVSPropertyOp23
 70
     1
102
RTVSPropertyOp24
 70
     1
102
RTVSPropertyOp25
 70
     1
102
RTVSPropertyOp26
 70
     1
102
RTVSPropertyOp27
 70
     1
102
RTVSPropertyOp28
 70
     1
102
RTVSPropertyOp29
 70
     1
102
RTVSPropertyOp30
 70
     1
102
RTVSPropertyOp31
 70
     1
102
RTVSPropertyOp32
 70
     1
102
RTVSPropertyOp33
 70
     1
102
RTVSPropertyOp34
 70
     1
102
RTVSPropertyOp35
 70
     1
102
RTVSPropertyOp36
 70
     1
102
RTVSPropertyOp37
 70
     1
102
RTVSPropertyOp38
 70
     1
102
RTVSPropertyOp39
 70
     1
102
RTVSPropertyOp40
 70
     1
102
RTVSPropertyOp41
 70
     1
102
RTVSPropertyOp42
 70
     1
102
RTVSPropertyOp43
 70
     1
102
RTVSPropertyOp44
 70
     1
102
RTVSPropertyOp45
 70
     1
102
RTVSPropertyOp46
 70
     1
102
RTVSPropertyOp47
 70
     1
102
RTVSPropertyOp48
 70
     1
102
RTVSPropertyOp49
 70
     1
102
RTVSPropertyOp50
 70
     1
102
RTVSPropertyOp51
 70
     0
102
RTVSPropertyOp52
 70
     0
102
RTVSPropertyOp53
 70
     1
102
RTVSPropertyOp54
 70
     1
102
RTVSPropertyOp55
 70
     1
102
RTVSPropertyOp56
 70
     1
102
RTVSPropertyOp57
 70
     1
102
RTVSPropertyOp58
 70
     1
102
RTVSPropertyOp59
 70
     1
102
RTVSPropertyOp60
 70
     1
102
RTVSPropertyOp61
 70
     1
102
RTVSPropertyOp62
 70
     1
  0
XRECORD
  5
135A
102
{ACAD_REACTORS
330
1359
102
}
330
1359
100
AcDbXrecord
280
     1
102
RTVSPost2010Prop28
280
     0
102
RTVSPost2010PropOp28
 70
     1
102
RTVSPost2010Prop29
280
     1
102
RTVSPost2010PropOp29
 70
     1
102
RTVSPost2010Prop30
280
     1
102
RTVSPost2010PropOp30
 70
     1
102
RTVSPost2010Prop31
280
     0
102
RTVSPost2010PropOp31
 70
     1
102
RTVSPost2010Prop32
280
     0
102
RTVSPost2010PropOp32
 70
     1
102
RTVSPost2010Prop33
280
     0
102
RTVSPost2010PropOp33
 70
     1
102
RTVSPost2010Prop34
280
     0
102
RTVSPost2010PropOp34
 70
     1
102
RTVSPost2010Prop35
280
     0
102
RTVSPost2010PropOp35
 70
     1
102
RTVSPost2010Prop36
280
     0
102
RTVSPost2010PropOp36
 70
     1
102
RTVSPost2010Prop37
 90
       50
102
RTVSPost2010PropOp37
 70
     1
102
RTVSPost2010Prop38
140
0.0
102
RTVSPost2010PropOp38
 70
     1
102
RTVSPost2010Prop39
140
1.0
102
RTVSPost2010PropOp39
 70
     1
102
RTVSPost2010Prop40
 90
        0
102
RTVSPost2010PropOp40
 70
     1
102
RTVSPost2010Prop41ColorIndex
 90
       18
102
RTVSPost2010Prop41ColorRGB
 90
-16777216
102
RTVSPost2010PropOp41
 70
     1
102
RTVSPost2010Prop42
 90
       50
102
RTVSPost2010PropOp42
 70
     1
102
RTVSPost2010Prop43
 90
        3
102
RTVSPost2010PropOp43
 70
     1
102
RTVSPost2010Prop44ColorIndex
 90
        5
102
RTVSPost2010Prop44ColorRGB
 90
      255
102
RTVSPost2010PropOp44
 70
     1
102
RTVSPost2010Prop45
280
     0
102
RTVSPost2010PropOp45
 70
     1
102
RTVSPost2010Prop46
 90
       50
102
RTVSPost2010PropOp46
 70
     1
102
RTVSPost2010Prop47
 90
       50
102
RTVSPost2010PropOp47
 70
     1
102
RTVSPost2010Prop48
 90
       50
102
RTVSPost2010PropOp48
 70
     1
102
RTVSPost2010Prop49
280
     0
102
RTVSPost2010PropOp49
 70
     1
102
RTVSPost2010Prop50
 90
       50
102
RTVSPost2010PropOp50
 70
     1
102
RTVSPost2010Prop51ColorIndex
 90
      256
102
RTVSPost2010Prop51ColorRGB
 90
-16777216
102
RTVSPost2010PropOp51
 70
     0
102
RTVSPost2010Prop52
140
1.0
102
RTVSPost2010PropOp52
 70
     0
102
RTVSPost2010Prop53
 90
        2
102
RTVSPost2010PropOp53
 70
     1
102
RTVSPost2010Prop54
  1
strokes_ogs.tif
102
RTVSPost2010PropOp54
 70
     1
102
RTVSPost2010Prop55
280
     0
102
RTVSPost2010PropOp55
 70
     1
102
RTVSPost2010Prop56
140
1.0
102
RTVSPost2010PropOp56
 70
     1
102
RTVSPost2010Prop57
140
1.0
102
RTVSPost2010PropOp57
 70
     1
102
RTVSPropertyOp0
 70
     1
102
RTVSPropertyOp1
 70
     1
102
RTVSPropertyOp2
 70
     1
102
RTVSPropertyOp3
 70
     1
102
RTVSPropertyOp4
 70
     1
102
RTVSPropertyOp5
 70
     1
102
RTVSPropertyOp6
 70
     1
102
RTVSPropertyOp7
 70
     1
102
RTVSPropertyOp8
 70
     1
102
RTVSPropertyOp9
 70
     1
102
RTVSPropertyOp10
 70
     1
102
RTVSPropertyOp11
 70
     1
102
RTVSPropertyOp12
 70
     1
102
RTVSPropertyOp13
 70
     1
102
RTVSPropertyOp14
 70
     1
102
RTVSPropertyOp15
 70
     1
102
RTVSPropertyOp16
 70
     1
102
RTVSPropertyOp17
 70
     1
102
RTVSPropertyOp18
 70
     1
102
RTVSPropertyOp19
 70
     1
102
RTVSPropertyOp20
 70
     1
102
RTVSPropertyOp21
 70
     1
102
RTVSPropertyOp22
 70
     1
102
RTVSPropertyOp23
 70
     1
102
RTVSPropertyOp24
 70
     1
102
RTVSPropertyOp25
 70
     1
102
RTVSPropertyOp26
 70
     1
102
RTVSPropertyOp27
 70
     1
102
RTVSPropertyOp28
 70
     1
102
RTVSPropertyOp29
 70
     1
102
RTVSPropertyOp30
 70
     1
102
RTVSPropertyOp31
 70
     1
102
RTVSPropertyOp32
 70
     1
102
RTVSPropertyOp33
 70
     1
102
RTVSPropertyOp34
 70
     1
102
RTVSPropertyOp35
 70
     1
102
RTVSPropertyOp36
 70
     1
102
RTVSPropertyOp37
 70
     1
102
RTVSPropertyOp38
 70
     1
102
RTVSPropertyOp39
 70
     1
102
RTVSPropertyOp40
 70
     1
102
RTVSPropertyOp41
 70
     1
102
RTVSPropertyOp42
 70
     1
102
RTVSPropertyOp43
 70
     1
102
RTVSPropertyOp44
 70
     1
102
RTVSPropertyOp45
 70
     1
102
RTVSPropertyOp46
 70
     1
102
RTVSPropertyOp47
 70
     1
102
RTVSPropertyOp48
 70
     1
102
RTVSPropertyOp49
 70
     1
102
RTVSPropertyOp50
 70
     1
102
RTVSPropertyOp51
 70
     0
102
RTVSPropertyOp52
 70
     0
102
RTVSPropertyOp53
 70
     1
102
RTVSPropertyOp54
 70
     1
102
RTVSPropertyOp55
 70
     1
102
RTVSPropertyOp56
 70
     1
102
RTVSPropertyOp57
 70
     1
102
RTVSPropertyOp58
 70
     1
102
RTVSPropertyOp59
 70
     1
102
RTVSPropertyOp60
 70
     1
102
RTVSPropertyOp61
 70
     1
102
RTVSPropertyOp62
 70
     1
  0
XRECORD
  5
135C
102
{ACAD_REACTORS
330
135B
102
}
330
135B
100
AcDbXrecord
280
     1
102
RTVSPost2010Prop28
280
     0
102
RTVSPost2010PropOp28
 70
     1
102
RTVSPost2010Prop29
280
     1
102
RTVSPost2010PropOp29
 70
     1
102
RTVSPost2010Prop30
280
     1
102
RTVSPost2010PropOp30
 70
     1
102
RTVSPost2010Prop31
280
     0
102
RTVSPost2010PropOp31
 70
     1
102
RTVSPost2010Prop32
280
     0
102
RTVSPost2010PropOp32
 70
     1
102
RTVSPost2010Prop33
280
     0
102
RTVSPost2010PropOp33
 70
     1
102
RTVSPost2010Prop34
280
     0
102
RTVSPost2010PropOp34
 70
     1
102
RTVSPost2010Prop35
280
     0
102
RTVSPost2010PropOp35
 70
     1
102
RTVSPost2010Prop36
280
     0
102
RTVSPost2010PropOp36
 70
     1
102
RTVSPost2010Prop37
 90
       50
102
RTVSPost2010PropOp37
 70
     1
102
RTVSPost2010Prop38
140
0.0
102
RTVSPost2010PropOp38
 70
     1
102
RTVSPost2010Prop39
140
1.0
102
RTVSPost2010PropOp39
 70
     1
102
RTVSPost2010Prop40
 90
        0
102
RTVSPost2010PropOp40
 70
     1
102
RTVSPost2010Prop41ColorIndex
 90
       18
102
RTVSPost2010Prop41ColorRGB
 90
-16777216
102
RTVSPost2010PropOp41
 70
     1
102
RTVSPost2010Prop42
 90
       50
102
RTVSPost2010PropOp42
 70
     1
102
RTVSPost2010Prop43
 90
        3
102
RTVSPost2010PropOp43
 70
     1
102
RTVSPost2010Prop44ColorIndex
 90
        5
102
RTVSPost2010Prop44ColorRGB
 90
      255
102
RTVSPost2010PropOp44
 70
     1
102
RTVSPost2010Prop45
280
     0
102
RTVSPost2010PropOp45
 70
     1
102
RTVSPost2010Prop46
 90
       50
102
RTVSPost2010PropOp46
 70
     1
102
RTVSPost2010Prop47
 90
       50
102
RTVSPost2010PropOp47
 70
     1
102
RTVSPost2010Prop48
 90
       50
102
RTVSPost2010PropOp48
 70
     1
102
RTVSPost2010Prop49
280
     0
102
RTVSPost2010PropOp49
 70
     1
102
RTVSPost2010Prop50
 90
       50
102
RTVSPost2010PropOp50
 70
     1
102
RTVSPost2010Prop51ColorIndex
 90
      256
102
RTVSPost2010Prop51ColorRGB
 90
-16777216
102
RTVSPost2010PropOp51
 70
     0
102
RTVSPost2010Prop52
140
1.0
102
RTVSPost2010PropOp52
 70
     0
102
RTVSPost2010Prop53
 90
        2
102
RTVSPost2010PropOp53
 70
     1
102
RTVSPost2010Prop54
  1
strokes_ogs.tif
102
RTVSPost2010PropOp54
 70
     1
102
RTVSPost2010Prop55
280
     0
102
RTVSPost2010PropOp55
 70
     1
102
RTVSPost2010Prop56
140
1.0
102
RTVSPost2010PropOp56
 70
     1
102
RTVSPost2010Prop57
140
1.0
102
RTVSPost2010PropOp57
 70
     1
102
RTVSPropertyOp0
 70
     1
102
RTVSPropertyOp1
 70
     1
102
RTVSPropertyOp2
 70
     1
102
RTVSPropertyOp3
 70
     1
102
RTVSPropertyOp4
 70
     1
102
RTVSPropertyOp5
 70
     1
102
RTVSPropertyOp6
 70
     1
102
RTVSPropertyOp7
 70
     1
102
RTVSPropertyOp8
 70
     1
102
RTVSPropertyOp9
 70
     1
102
RTVSPropertyOp10
 70
     1
102
RTVSPropertyOp11
 70
     1
102
RTVSPropertyOp12
 70
     1
102
RTVSPropertyOp13
 70
     1
102
RTVSPropertyOp14
 70
     1
102
RTVSPropertyOp15
 70
     1
102
RTVSPropertyOp16
 70
     1
102
RTVSPropertyOp17
 70
     1
102
RTVSPropertyOp18
 70
     1
102
RTVSPropertyOp19
 70
     1
102
RTVSPropertyOp20
 70
     1
102
RTVSPropertyOp21
 70
     1
102
RTVSPropertyOp22
 70
     1
102
RTVSPropertyOp23
 70
     1
102
RTVSPropertyOp24
 70
     1
102
RTVSPropertyOp25
 70
     1
102
RTVSPropertyOp26
 70
     1
102
RTVSPropertyOp27
 70
     1
102
RTVSPropertyOp28
 70
     1
102
RTVSPropertyOp29
 70
     1
102
RTVSPropertyOp30
 70
     1
102
RTVSPropertyOp31
 70
     1
102
RTVSPropertyOp32
 70
     1
102
RTVSPropertyOp33
 70
     1
102
RTVSPropertyOp34
 70
     1
102
RTVSPropertyOp35
 70
     1
102
RTVSPropertyOp36
 70
     1
102
RTVSPropertyOp37
 70
     1
102
RTVSPropertyOp38
 70
     1
102
RTVSPropertyOp39
 70
     1
102
RTVSPropertyOp40
 70
     1
102
RTVSPropertyOp41
 70
     1
102
RTVSPropertyOp42
 70
     1
102
RTVSPropertyOp43
 70
     1
102
RTVSPropertyOp44
 70
     1
102
RTVSPropertyOp45
 70
     1
102
RTVSPropertyOp46
 70
     1
102
RTVSPropertyOp47
 70
     1
102
RTVSPropertyOp48
 70
     1
102
RTVSPropertyOp49
 70
     1
102
RTVSPropertyOp50
 70
     1
102
RTVSPropertyOp51
 70
     0
102
RTVSPropertyOp52
 70
     0
102
RTVSPropertyOp53
 70
     1
102
RTVSPropertyOp54
 70
     1
102
RTVSPropertyOp55
 70
     1
102
RTVSPropertyOp56
 70
     1
102
RTVSPropertyOp57
 70
     1
102
RTVSPropertyOp58
 70
     1
102
RTVSPropertyOp59
 70
     1
102
RTVSPropertyOp60
 70
     1
102
RTVSPropertyOp61
 70
     1
102
RTVSPropertyOp62
 70
     1
  0
XRECORD
  5
1364
102
{ACAD_REACTORS
330
1363
102
}
330
1363
100
AcDbXrecord
280
     1
102
RTVSPost2010Prop28
280
     0
102
RTVSPost2010PropOp28
 70
     1
102
RTVSPost2010Prop29
280
     1
102
RTVSPost2010PropOp29
 70
     1
102
RTVSPost2010Prop30
280
     1
102
RTVSPost2010PropOp30
 70
     1
102
RTVSPost2010Prop31
280
     0
102
RTVSPost2010PropOp31
 70
     1
102
RTVSPost2010Prop32
280
     0
102
RTVSPost2010PropOp32
 70
     1
102
RTVSPost2010Prop33
280
     0
102
RTVSPost2010PropOp33
 70
     1
102
RTVSPost2010Prop34
280
     0
102
RTVSPost2010PropOp34
 70
     1
102
RTVSPost2010Prop35
280
     0
102
RTVSPost2010PropOp35
 70
     1
102
RTVSPost2010Prop36
280
     0
102
RTVSPost2010PropOp36
 70
     1
102
RTVSPost2010Prop37
 90
       50
102
RTVSPost2010PropOp37
 70
     1
102
RTVSPost2010Prop38
140
0.0
102
RTVSPost2010PropOp38
 70
     1
102
RTVSPost2010Prop39
140
1.0
102
RTVSPost2010PropOp39
 70
     1
102
RTVSPost2010Prop40
 90
        0
102
RTVSPost2010PropOp40
 70
     1
102
RTVSPost2010Prop41ColorIndex
 90
       18
102
RTVSPost2010Prop41ColorRGB
 90
-16777216
102
RTVSPost2010PropOp41
 70
     1
102
RTVSPost2010Prop42
 90
       50
102
RTVSPost2010PropOp42
 70
     1
102
RTVSPost2010Prop43
 90
        3
102
RTVSPost2010PropOp43
 70
     1
102
RTVSPost2010Prop44ColorIndex
 90
        5
102
RTVSPost2010Prop44ColorRGB
 90
      255
102
RTVSPost2010PropOp44
 70
     1
102
RTVSPost2010Prop45
280
     0
102
RTVSPost2010PropOp45
 70
     1
102
RTVSPost2010Prop46
 90
       50
102
RTVSPost2010PropOp46
 70
     1
102
RTVSPost2010Prop47
 90
       50
102
RTVSPost2010PropOp47
 70
     1
102
RTVSPost2010Prop48
 90
       50
102
RTVSPost2010PropOp48
 70
     1
102
RTVSPost2010Prop49
280
     0
102
RTVSPost2010PropOp49
 70
     1
102
RTVSPost2010Prop50
 90
       50
102
RTVSPost2010PropOp50
 70
     1
102
RTVSPost2010Prop51ColorIndex
 90
      256
102
RTVSPost2010Prop51ColorRGB
 90
-16777216
102
RTVSPost2010PropOp51
 70
     0
102
RTVSPost2010Prop52
140
1.0
102
RTVSPost2010PropOp52
 70
     0
102
RTVSPost2010Prop53
 90
        2
102
RTVSPost2010PropOp53
 70
     1
102
RTVSPost2010Prop54
  1
strokes_ogs.tif
102
RTVSPost2010PropOp54
 70
     1
102
RTVSPost2010Prop55
280
     0
102
RTVSPost2010PropOp55
 70
     1
102
RTVSPost2010Prop56
140
1.0
102
RTVSPost2010PropOp56
 70
     1
102
RTVSPost2010Prop57
140
1.0
102
RTVSPost2010PropOp57
 70
     1
102
RTVSPropertyOp0
 70
     1
102
RTVSPropertyOp1
 70
     1
102
RTVSPropertyOp2
 70
     1
102
RTVSPropertyOp3
 70
     1
102
RTVSPropertyOp4
 70
     1
102
RTVSPropertyOp5
 70
     1
102
RTVSPropertyOp6
 70
     1
102
RTVSPropertyOp7
 70
     1
102
RTVSPropertyOp8
 70
     1
102
RTVSPropertyOp9
 70
     1
102
RTVSPropertyOp10
 70
     1
102
RTVSPropertyOp11
 70
     1
102
RTVSPropertyOp12
 70
     1
102
RTVSPropertyOp13
 70
     1
102
RTVSPropertyOp14
 70
     1
102
RTVSPropertyOp15
 70
     1
102
RTVSPropertyOp16
 70
     1
102
RTVSPropertyOp17
 70
     1
102
RTVSPropertyOp18
 70
     1
102
RTVSPropertyOp19
 70
     1
102
RTVSPropertyOp20
 70
     1
102
RTVSPropertyOp21
 70
     1
102
RTVSPropertyOp22
 70
     1
102
RTVSPropertyOp23
 70
     1
102
RTVSPropertyOp24
 70
     1
102
RTVSPropertyOp25
 70
     1
102
RTVSPropertyOp26
 70
     1
102
RTVSPropertyOp27
 70
     1
102
RTVSPropertyOp28
 70
     1
102
RTVSPropertyOp29
 70
     1
102
RTVSPropertyOp30
 70
     1
102
RTVSPropertyOp31
 70
     1
102
RTVSPropertyOp32
 70
     1
102
RTVSPropertyOp33
 70
     1
102
RTVSPropertyOp34
 70
     1
102
RTVSPropertyOp35
 70
     1
102
RTVSPropertyOp36
 70
     1
102
RTVSPropertyOp37
 70
     1
102
RTVSPropertyOp38
 70
     1
102
RTVSPropertyOp39
 70
     1
102
RTVSPropertyOp40
 70
     1
102
RTVSPropertyOp41
 70
     1
102
RTVSPropertyOp42
 70
     1
102
RTVSPropertyOp43
 70
     1
102
RTVSPropertyOp44
 70
     1
102
RTVSPropertyOp45
 70
     1
102
RTVSPropertyOp46
 70
     1
102
RTVSPropertyOp47
 70
     1
102
RTVSPropertyOp48
 70
     1
102
RTVSPropertyOp49
 70
     1
102
RTVSPropertyOp50
 70
     1
102
RTVSPropertyOp51
 70
     0
102
RTVSPropertyOp52
 70
     0
102
RTVSPropertyOp53
 70
     1
102
RTVSPropertyOp54
 70
     1
102
RTVSPropertyOp55
 70
     1
102
RTVSPropertyOp56
 70
     1
102
RTVSPropertyOp57
 70
     1
102
RTVSPropertyOp58
 70
     1
102
RTVSPropertyOp59
 70
     1
102
RTVSPropertyOp60
 70
     1
102
RTVSPropertyOp61
 70
     1
102
RTVSPropertyOp62
 70
     1
  0
XRECORD
  5
1380
102
{ACAD_REACTORS
330
137F
102
}
330
137F
100
AcDbXrecord
280
     1
102
RTVSPost2010Prop28
280
     0
102
RTVSPost2010PropOp28
 70
     0
102
RTVSPost2010Prop29
280
     1
102
RTVSPost2010PropOp29
 70
     0
102
RTVSPost2010Prop30
280
     1
102
RTVSPost2010PropOp30
 70
     0
102
RTVSPost2010Prop31
280
     0
102
RTVSPost2010PropOp31
 70
     0
102
RTVSPost2010Prop32
280
     0
102
RTVSPost2010PropOp32
 70
     0
102
RTVSPost2010Prop33
280
     0
102
RTVSPost2010PropOp33
 70
     0
102
RTVSPost2010Prop34
280
     0
102
RTVSPost2010PropOp34
 70
     0
102
RTVSPost2010Prop35
280
     0
102
RTVSPost2010PropOp35
 70
     0
102
RTVSPost2010Prop36
280
     0
102
RTVSPost2010PropOp36
 70
     0
102
RTVSPost2010Prop37
 90
       50
102
RTVSPost2010PropOp37
 70
     0
102
RTVSPost2010Prop38
140
0.0
102
RTVSPost2010PropOp38
 70
     0
102
RTVSPost2010Prop39
140
1.0
102
RTVSPost2010PropOp39
 70
     0
102
RTVSPost2010Prop40
 90
        0
102
RTVSPost2010PropOp40
 70
     0
102
RTVSPost2010Prop41ColorIndex
 90
       18
102
RTVSPost2010Prop41ColorRGB
 90
-16777216
102
RTVSPost2010PropOp41
 70
     0
102
RTVSPost2010Prop42
 90
       50
102
RTVSPost2010PropOp42
 70
     0
102
RTVSPost2010Prop43
 90
        3
102
RTVSPost2010PropOp43
 70
     0
102
RTVSPost2010Prop44ColorIndex
 90
        5
102
RTVSPost2010Prop44ColorRGB
 90
      255
102
RTVSPost2010PropOp44
 70
     0
102
RTVSPost2010Prop45
280
     0
102
RTVSPost2010PropOp45
 70
     0
102
RTVSPost2010Prop46
 90
       50
102
RTVSPost2010PropOp46
 70
     0
102
RTVSPost2010Prop47
 90
       50
102
RTVSPost2010PropOp47
 70
     0
102
RTVSPost2010Prop48
 90
       50
102
RTVSPost2010PropOp48
 70
     0
102
RTVSPost2010Prop49
280
     0
102
RTVSPost2010PropOp49
 70
     0
102
RTVSPost2010Prop50
 90
       50
102
RTVSPost2010PropOp50
 70
     0
102
RTVSPost2010Prop51ColorIndex
 90
      256
102
RTVSPost2010Prop51ColorRGB
 90
-16777216
102
RTVSPost2010PropOp51
 70
     0
102
RTVSPost2010Prop52
140
1.0
102
RTVSPost2010PropOp52
 70
     0
102
RTVSPost2010Prop53
 90
        2
102
RTVSPost2010PropOp53
 70
     0
102
RTVSPost2010Prop54
  1
strokes_ogs.tif
102
RTVSPost2010PropOp54
 70
     0
102
RTVSPost2010Prop55
280
     0
102
RTVSPost2010PropOp55
 70
     0
102
RTVSPost2010Prop56
140
1.0
102
RTVSPost2010PropOp56
 70
     0
102
RTVSPost2010Prop57
140
1.0
102
RTVSPost2010PropOp57
 70
     0
102
RTVSPropertyOp0
 70
     0
102
RTVSPropertyOp1
 70
     0
102
RTVSPropertyOp2
 70
     0
102
RTVSPropertyOp3
 70
     0
102
RTVSPropertyOp4
 70
     0
102
RTVSPropertyOp5
 70
     0
102
RTVSPropertyOp6
 70
     0
102
RTVSPropertyOp7
 70
     0
102
RTVSPropertyOp8
 70
     0
102
RTVSPropertyOp9
 70
     0
102
RTVSPropertyOp10
 70
     0
102
RTVSPropertyOp11
 70
     0
102
RTVSPropertyOp12
 70
     0
102
RTVSPropertyOp13
 70
     0
102
RTVSPropertyOp14
 70
     2
102
RTVSPropertyOp15
 70
     0
102
RTVSPropertyOp16
 70
     0
102
RTVSPropertyOp17
 70
     0
102
RTVSPropertyOp18
 70
     0
102
RTVSPropertyOp19
 70
     0
102
RTVSPropertyOp20
 70
     0
102
RTVSPropertyOp21
 70
     0
102
RTVSPropertyOp22
 70
     0
102
RTVSPropertyOp23
 70
     0
102
RTVSPropertyOp24
 70
     0
102
RTVSPropertyOp25
 70
     0
102
RTVSPropertyOp26
 70
     0
102
RTVSPropertyOp27
 70
     0
102
RTVSPropertyOp28
 70
     0
102
RTVSPropertyOp29
 70
     0
102
RTVSPropertyOp30
 70
     0
102
RTVSPropertyOp31
 70
     0
102
RTVSPropertyOp32
 70
     0
102
RTVSPropertyOp33
 70
     0
102
RTVSPropertyOp34
 70
     0
102
RTVSPropertyOp35
 70
     0
102
RTVSPropertyOp36
 70
     0
102
RTVSPropertyOp37
 70
     0
102
RTVSPropertyOp38
 70
     0
102
RTVSPropertyOp39
 70
     0
102
RTVSPropertyOp40
 70
     0
102
RTVSPropertyOp41
 70
     0
102
RTVSPropertyOp42
 70
     0
102
RTVSPropertyOp43
 70
     0
102
RTVSPropertyOp44
 70
     0
102
RTVSPropertyOp45
 70
     0
102
RTVSPropertyOp46
 70
     0
102
RTVSPropertyOp47
 70
     0
102
RTVSPropertyOp48
 70
     0
102
RTVSPropertyOp49
 70
     0
102
RTVSPropertyOp50
 70
     0
102
RTVSPropertyOp51
 70
     0
102
RTVSPropertyOp52
 70
     0
102
RTVSPropertyOp53
 70
     0
102
RTVSPropertyOp54
 70
     0
102
RTVSPropertyOp55
 70
     0
102
RTVSPropertyOp56
 70
     0
102
RTVSPropertyOp57
 70
     0
102
RTVSPropertyOp58
 70
     1
102
RTVSPropertyOp59
 70
     1
102
RTVSPropertyOp60
 70
     1
102
RTVSPropertyOp61
 70
     1
102
RTVSPropertyOp62
 70
     1
  0
XRECORD
  5
1370
102
{ACAD_REACTORS
330
136F
102
}
330
136F
100
AcDbXrecord
280
     1
102
RTVSPost2010Prop28
280
     0
102
RTVSPost2010PropOp28
 70
     1
102
RTVSPost2010Prop29
280
     1
102
RTVSPost2010PropOp29
 70
     1
102
RTVSPost2010Prop30
280
     1
102
RTVSPost2010PropOp30
 70
     1
102
RTVSPost2010Prop31
280
     0
102
RTVSPost2010PropOp31
 70
     1
102
RTVSPost2010Prop32
280
     0
102
RTVSPost2010PropOp32
 70
     1
102
RTVSPost2010Prop33
280
     0
102
RTVSPost2010PropOp33
 70
     1
102
RTVSPost2010Prop34
280
     0
102
RTVSPost2010PropOp34
 70
     1
102
RTVSPost2010Prop35
280
     0
102
RTVSPost2010PropOp35
 70
     1
102
RTVSPost2010Prop36
280
     0
102
RTVSPost2010PropOp36
 70
     1
102
RTVSPost2010Prop37
 90
       50
102
RTVSPost2010PropOp37
 70
     1
102
RTVSPost2010Prop38
140
0.0
102
RTVSPost2010PropOp38
 70
     1
102
RTVSPost2010Prop39
140
1.0
102
RTVSPost2010PropOp39
 70
     1
102
RTVSPost2010Prop40
 90
        0
102
RTVSPost2010PropOp40
 70
     1
102
RTVSPost2010Prop41ColorIndex
 90
       18
102
RTVSPost2010Prop41ColorRGB
 90
-16777216
102
RTVSPost2010PropOp41
 70
     1
102
RTVSPost2010Prop42
 90
       50
102
RTVSPost2010PropOp42
 70
     1
102
RTVSPost2010Prop43
 90
        3
102
RTVSPost2010PropOp43
 70
     1
102
RTVSPost2010Prop44ColorIndex
 90
        5
102
RTVSPost2010Prop44ColorRGB
 90
      255
102
RTVSPost2010PropOp44
 70
     1
102
RTVSPost2010Prop45
280
     0
102
RTVSPost2010PropOp45
 70
     1
102
RTVSPost2010Prop46
 90
       50
102
RTVSPost2010PropOp46
 70
     1
102
RTVSPost2010Prop47
 90
       50
102
RTVSPost2010PropOp47
 70
     1
102
RTVSPost2010Prop48
 90
       50
102
RTVSPost2010PropOp48
 70
     1
102
RTVSPost2010Prop49
280
     0
102
RTVSPost2010PropOp49
 70
     1
102
RTVSPost2010Prop50
 90
       50
102
RTVSPost2010PropOp50
 70
     1
102
RTVSPost2010Prop51ColorIndex
 90
      256
102
RTVSPost2010Prop51ColorRGB
 90
-16777216
102
RTVSPost2010PropOp51
 70
     0
102
RTVSPost2010Prop52
140
1.0
102
RTVSPost2010PropOp52
 70
     0
102
RTVSPost2010Prop53
 90
        2
102
RTVSPost2010PropOp53
 70
     1
102
RTVSPost2010Prop54
  1
strokes_ogs.tif
102
RTVSPost2010PropOp54
 70
     1
102
RTVSPost2010Prop55
280
     0
102
RTVSPost2010PropOp55
 70
     1
102
RTVSPost2010Prop56
140
1.0
102
RTVSPost2010PropOp56
 70
     1
102
RTVSPost2010Prop57
140
1.0
102
RTVSPost2010PropOp57
 70
     1
102
RTVSPropertyOp0
 70
     1
102
RTVSPropertyOp1
 70
     1
102
RTVSPropertyOp2
 70
     1
102
RTVSPropertyOp3
 70
     1
102
RTVSPropertyOp4
 70
     1
102
RTVSPropertyOp5
 70
     1
102
RTVSPropertyOp6
 70
     1
102
RTVSPropertyOp7
 70
     1
102
RTVSPropertyOp8
 70
     1
102
RTVSPropertyOp9
 70
     1
102
RTVSPropertyOp10
 70
     1
102
RTVSPropertyOp11
 70
     1
102
RTVSPropertyOp12
 70
     1
102
RTVSPropertyOp13
 70
     1
102
RTVSPropertyOp14
 70
     1
102
RTVSPropertyOp15
 70
     1
102
RTVSPropertyOp16
 70
     1
102
RTVSPropertyOp17
 70
     1
102
RTVSPropertyOp18
 70
     1
102
RTVSPropertyOp19
 70
     1
102
RTVSPropertyOp20
 70
     1
102
RTVSPropertyOp21
 70
     1
102
RTVSPropertyOp22
 70
     1
102
RTVSPropertyOp23
 70
     1
102
RTVSPropertyOp24
 70
     1
102
RTVSPropertyOp25
 70
     1
102
RTVSPropertyOp26
 70
     1
102
RTVSPropertyOp27
 70
     1
102
RTVSPropertyOp28
 70
     1
102
RTVSPropertyOp29
 70
     1
102
RTVSPropertyOp30
 70
     1
102
RTVSPropertyOp31
 70
     1
102
RTVSPropertyOp32
 70
     1
102
RTVSPropertyOp33
 70
     1
102
RTVSPropertyOp34
 70
     1
102
RTVSPropertyOp35
 70
     1
102
RTVSPropertyOp36
 70
     1
102
RTVSPropertyOp37
 70
     1
102
RTVSPropertyOp38
 70
     1
102
RTVSPropertyOp39
 70
     1
102
RTVSPropertyOp40
 70
     1
102
RTVSPropertyOp41
 70
     1
102
RTVSPropertyOp42
 70
     1
102
RTVSPropertyOp43
 70
     1
102
RTVSPropertyOp44
 70
     1
102
RTVSPropertyOp45
 70
     1
102
RTVSPropertyOp46
 70
     1
102
RTVSPropertyOp47
 70
     1
102
RTVSPropertyOp48
 70
     1
102
RTVSPropertyOp49
 70
     1
102
RTVSPropertyOp50
 70
     1
102
RTVSPropertyOp51
 70
     0
102
RTVSPropertyOp52
 70
     0
102
RTVSPropertyOp53
 70
     1
102
RTVSPropertyOp54
 70
     1
102
RTVSPropertyOp55
 70
     1
102
RTVSPropertyOp56
 70
     1
102
RTVSPropertyOp57
 70
     1
102
RTVSPropertyOp58
 70
     1
102
RTVSPropertyOp59
 70
     1
102
RTVSPropertyOp60
 70
     1
102
RTVSPropertyOp61
 70
     1
102
RTVSPropertyOp62
 70
     1
  0
XRECORD
  5
1382
102
{ACAD_REACTORS
330
1381
102
}
330
1381
100
AcDbXrecord
280
     1
102
RTVSPost2010Prop28
280
     0
102
RTVSPost2010PropOp28
 70
     0
102
RTVSPost2010Prop29
280
     1
102
RTVSPost2010PropOp29
 70
     0
102
RTVSPost2010Prop30
280
     1
102
RTVSPost2010PropOp30
 70
     0
102
RTVSPost2010Prop31
280
     0
102
RTVSPost2010PropOp31
 70
     0
102
RTVSPost2010Prop32
280
     0
102
RTVSPost2010PropOp32
 70
     0
102
RTVSPost2010Prop33
280
     0
102
RTVSPost2010PropOp33
 70
     0
102
RTVSPost2010Prop34
280
     0
102
RTVSPost2010PropOp34
 70
     0
102
RTVSPost2010Prop35
280
     0
102
RTVSPost2010PropOp35
 70
     0
102
RTVSPost2010Prop36
280
     0
102
RTVSPost2010PropOp36
 70
     0
102
RTVSPost2010Prop37
 90
       50
102
RTVSPost2010PropOp37
 70
     0
102
RTVSPost2010Prop38
140
0.0
102
RTVSPost2010PropOp38
 70
     0
102
RTVSPost2010Prop39
140
1.0
102
RTVSPost2010PropOp39
 70
     0
102
RTVSPost2010Prop40
 90
        0
102
RTVSPost2010PropOp40
 70
     0
102
RTVSPost2010Prop41ColorIndex
 90
       18
102
RTVSPost2010Prop41ColorRGB
 90
-16777216
102
RTVSPost2010PropOp41
 70
     0
102
RTVSPost2010Prop42
 90
       50
102
RTVSPost2010PropOp42
 70
     0
102
RTVSPost2010Prop43
 90
        3
102
RTVSPost2010PropOp43
 70
     0
102
RTVSPost2010Prop44ColorIndex
 90
        5
102
RTVSPost2010Prop44ColorRGB
 90
      255
102
RTVSPost2010PropOp44
 70
     0
102
RTVSPost2010Prop45
280
     0
102
RTVSPost2010PropOp45
 70
     0
102
RTVSPost2010Prop46
 90
       50
102
RTVSPost2010PropOp46
 70
     0
102
RTVSPost2010Prop47
 90
       50
102
RTVSPost2010PropOp47
 70
     0
102
RTVSPost2010Prop48
 90
       50
102
RTVSPost2010PropOp48
 70
     0
102
RTVSPost2010Prop49
280
     0
102
RTVSPost2010PropOp49
 70
     0
102
RTVSPost2010Prop50
 90
       50
102
RTVSPost2010PropOp50
 70
     0
102
RTVSPost2010Prop51ColorIndex
 90
      256
102
RTVSPost2010Prop51ColorRGB
 90
-16777216
102
RTVSPost2010PropOp51
 70
     0
102
RTVSPost2010Prop52
140
1.0
102
RTVSPost2010PropOp52
 70
     0
102
RTVSPost2010Prop53
 90
        2
102
RTVSPost2010PropOp53
 70
     0
102
RTVSPost2010Prop54
  1
strokes_ogs.tif
102
RTVSPost2010PropOp54
 70
     0
102
RTVSPost2010Prop55
280
     0
102
RTVSPost2010PropOp55
 70
     0
102
RTVSPost2010Prop56
140
1.0
102
RTVSPost2010PropOp56
 70
     0
102
RTVSPost2010Prop57
140
1.0
102
RTVSPost2010PropOp57
 70
     0
102
RTVSPropertyOp0
 70
     0
102
RTVSPropertyOp1
 70
     0
102
RTVSPropertyOp2
 70
     0
102
RTVSPropertyOp3
 70
     0
102
RTVSPropertyOp4
 70
     0
102
RTVSPropertyOp5
 70
     0
102
RTVSPropertyOp6
 70
     0
102
RTVSPropertyOp7
 70
     0
102
RTVSPropertyOp8
 70
     0
102
RTVSPropertyOp9
 70
     0
102
RTVSPropertyOp10
 70
     0
102
RTVSPropertyOp11
 70
     0
102
RTVSPropertyOp12
 70
     0
102
RTVSPropertyOp13
 70
     0
102
RTVSPropertyOp14
 70
     2
102
RTVSPropertyOp15
 70
     0
102
RTVSPropertyOp16
 70
     0
102
RTVSPropertyOp17
 70
     0
102
RTVSPropertyOp18
 70
     0
102
RTVSPropertyOp19
 70
     0
102
RTVSPropertyOp20
 70
     0
102
RTVSPropertyOp21
 70
     0
102
RTVSPropertyOp22
 70
     0
102
RTVSPropertyOp23
 70
     0
102
RTVSPropertyOp24
 70
     0
102
RTVSPropertyOp25
 70
     0
102
RTVSPropertyOp26
 70
     0
102
RTVSPropertyOp27
 70
     0
102
RTVSPropertyOp28
 70
     0
102
RTVSPropertyOp29
 70
     0
102
RTVSPropertyOp30
 70
     0
102
RTVSPropertyOp31
 70
     0
102
RTVSPropertyOp32
 70
     0
102
RTVSPropertyOp33
 70
     0
102
RTVSPropertyOp34
 70
     0
102
RTVSPropertyOp35
 70
     0
102
RTVSPropertyOp36
 70
     0
102
RTVSPropertyOp37
 70
     0
102
RTVSPropertyOp38
 70
     0
102
RTVSPropertyOp39
 70
     0
102
RTVSPropertyOp40
 70
     0
102
RTVSPropertyOp41
 70
     0
102
RTVSPropertyOp42
 70
     0
102
RTVSPropertyOp43
 70
     0
102
RTVSPropertyOp44
 70
     0
102
RTVSPropertyOp45
 70
     0
102
RTVSPropertyOp46
 70
     0
102
RTVSPropertyOp47
 70
     0
102
RTVSPropertyOp48
 70
     0
102
RTVSPropertyOp49
 70
     0
102
RTVSPropertyOp50
 70
     0
102
RTVSPropertyOp51
 70
     0
102
RTVSPropertyOp52
 70
     0
102
RTVSPropertyOp53
 70
     0
102
RTVSPropertyOp54
 70
     0
102
RTVSPropertyOp55
 70
     0
102
RTVSPropertyOp56
 70
     0
102
RTVSPropertyOp57
 70
     0
102
RTVSPropertyOp58
 70
     1
102
RTVSPropertyOp59
 70
     1
102
RTVSPropertyOp60
 70
     1
102
RTVSPropertyOp61
 70
     1
102
RTVSPropertyOp62
 70
     1
  0
XRECORD
  5
1368
102
{ACAD_REACTORS
330
1367
102
}
330
1367
100
AcDbXrecord
280
     1
102
RTVSPost2010Prop28
280
     0
102
RTVSPost2010PropOp28
 70
     1
102
RTVSPost2010Prop29
280
     1
102
RTVSPost2010PropOp29
 70
     1
102
RTVSPost2010Prop30
280
     1
102
RTVSPost2010PropOp30
 70
     1
102
RTVSPost2010Prop31
280
     0
102
RTVSPost2010PropOp31
 70
     1
102
RTVSPost2010Prop32
280
     0
102
RTVSPost2010PropOp32
 70
     1
102
RTVSPost2010Prop33
280
     0
102
RTVSPost2010PropOp33
 70
     1
102
RTVSPost2010Prop34
280
     0
102
RTVSPost2010PropOp34
 70
     1
102
RTVSPost2010Prop35
280
     0
102
RTVSPost2010PropOp35
 70
     1
102
RTVSPost2010Prop36
280
     0
102
RTVSPost2010PropOp36
 70
     1
102
RTVSPost2010Prop37
 90
       50
102
RTVSPost2010PropOp37
 70
     1
102
RTVSPost2010Prop38
140
0.0
102
RTVSPost2010PropOp38
 70
     1
102
RTVSPost2010Prop39
140
1.0
102
RTVSPost2010PropOp39
 70
     1
102
RTVSPost2010Prop40
 90
        0
102
RTVSPost2010PropOp40
 70
     1
102
RTVSPost2010Prop41ColorIndex
 90
       18
102
RTVSPost2010Prop41ColorRGB
 90
-16777216
102
RTVSPost2010PropOp41
 70
     1
102
RTVSPost2010Prop42
 90
       50
102
RTVSPost2010PropOp42
 70
     1
102
RTVSPost2010Prop43
 90
        3
102
RTVSPost2010PropOp43
 70
     1
102
RTVSPost2010Prop44ColorIndex
 90
        5
102
RTVSPost2010Prop44ColorRGB
 90
      255
102
RTVSPost2010PropOp44
 70
     1
102
RTVSPost2010Prop45
280
     0
102
RTVSPost2010PropOp45
 70
     1
102
RTVSPost2010Prop46
 90
       50
102
RTVSPost2010PropOp46
 70
     1
102
RTVSPost2010Prop47
 90
       50
102
RTVSPost2010PropOp47
 70
     1
102
RTVSPost2010Prop48
 90
       50
102
RTVSPost2010PropOp48
 70
     1
102
RTVSPost2010Prop49
280
     0
102
RTVSPost2010PropOp49
 70
     1
102
RTVSPost2010Prop50
 90
       50
102
RTVSPost2010PropOp50
 70
     1
102
RTVSPost2010Prop51ColorIndex
 90
      256
102
RTVSPost2010Prop51ColorRGB
 90
-16777216
102
RTVSPost2010PropOp51
 70
     0
102
RTVSPost2010Prop52
140
1.0
102
RTVSPost2010PropOp52
 70
     0
102
RTVSPost2010Prop53
 90
        2
102
RTVSPost2010PropOp53
 70
     1
102
RTVSPost2010Prop54
  1
strokes_ogs.tif
102
RTVSPost2010PropOp54
 70
     1
102
RTVSPost2010Prop55
280
     0
102
RTVSPost2010PropOp55
 70
     1
102
RTVSPost2010Prop56
140
1.0
102
RTVSPost2010PropOp56
 70
     1
102
RTVSPost2010Prop57
140
1.0
102
RTVSPost2010PropOp57
 70
     1
102
RTVSPropertyOp0
 70
     1
102
RTVSPropertyOp1
 70
     1
102
RTVSPropertyOp2
 70
     1
102
RTVSPropertyOp3
 70
     1
102
RTVSPropertyOp4
 70
     1
102
RTVSPropertyOp5
 70
     1
102
RTVSPropertyOp6
 70
     1
102
RTVSPropertyOp7
 70
     1
102
RTVSPropertyOp8
 70
     1
102
RTVSPropertyOp9
 70
     1
102
RTVSPropertyOp10
 70
     1
102
RTVSPropertyOp11
 70
     1
102
RTVSPropertyOp12
 70
     1
102
RTVSPropertyOp13
 70
     1
102
RTVSPropertyOp14
 70
     1
102
RTVSPropertyOp15
 70
     1
102
RTVSPropertyOp16
 70
     1
102
RTVSPropertyOp17
 70
     1
102
RTVSPropertyOp18
 70
     1
102
RTVSPropertyOp19
 70
     1
102
RTVSPropertyOp20
 70
     1
102
RTVSPropertyOp21
 70
     1
102
RTVSPropertyOp22
 70
     1
102
RTVSPropertyOp23
 70
     1
102
RTVSPropertyOp24
 70
     1
102
RTVSPropertyOp25
 70
     1
102
RTVSPropertyOp26
 70
     1
102
RTVSPropertyOp27
 70
     1
102
RTVSPropertyOp28
 70
     1
102
RTVSPropertyOp29
 70
     1
102
RTVSPropertyOp30
 70
     1
102
RTVSPropertyOp31
 70
     1
102
RTVSPropertyOp32
 70
     1
102
RTVSPropertyOp33
 70
     1
102
RTVSPropertyOp34
 70
     1
102
RTVSPropertyOp35
 70
     1
102
RTVSPropertyOp36
 70
     1
102
RTVSPropertyOp37
 70
     1
102
RTVSPropertyOp38
 70
     1
102
RTVSPropertyOp39
 70
     1
102
RTVSPropertyOp40
 70
     1
102
RTVSPropertyOp41
 70
     1
102
RTVSPropertyOp42
 70
     1
102
RTVSPropertyOp43
 70
     1
102
RTVSPropertyOp44
 70
     1
102
RTVSPropertyOp45
 70
     1
102
RTVSPropertyOp46
 70
     1
102
RTVSPropertyOp47
 70
     1
102
RTVSPropertyOp48
 70
     1
102
RTVSPropertyOp49
 70
     1
102
RTVSPropertyOp50
 70
     1
102
RTVSPropertyOp51
 70
     0
102
RTVSPropertyOp52
 70
     0
102
RTVSPropertyOp53
 70
     1
102
RTVSPropertyOp54
 70
     1
102
RTVSPropertyOp55
 70
     1
102
RTVSPropertyOp56
 70
     1
102
RTVSPropertyOp57
 70
     1
102
RTVSPropertyOp58
 70
     1
102
RTVSPropertyOp59
 70
     1
102
RTVSPropertyOp60
 70
     1
102
RTVSPropertyOp61
 70
     1
102
RTVSPropertyOp62
 70
     1
  0
XRECORD
  5
137E
102
{ACAD_REACTORS
330
137D
102
}
330
137D
100
AcDbXrecord
280
     1
102
RTVSPost2010Prop28
280
     0
102
RTVSPost2010PropOp28
 70
     1
102
RTVSPost2010Prop29
280
     1
102
RTVSPost2010PropOp29
 70
     1
102
RTVSPost2010Prop30
280
     1
102
RTVSPost2010PropOp30
 70
     1
102
RTVSPost2010Prop31
280
     0
102
RTVSPost2010PropOp31
 70
     1
102
RTVSPost2010Prop32
280
     0
102
RTVSPost2010PropOp32
 70
     1
102
RTVSPost2010Prop33
280
     0
102
RTVSPost2010PropOp33
 70
     1
102
RTVSPost2010Prop34
280
     0
102
RTVSPost2010PropOp34
 70
     1
102
RTVSPost2010Prop35
280
     0
102
RTVSPost2010PropOp35
 70
     1
102
RTVSPost2010Prop36
280
     0
102
RTVSPost2010PropOp36
 70
     1
102
RTVSPost2010Prop37
 90
       50
102
RTVSPost2010PropOp37
 70
     1
102
RTVSPost2010Prop38
140
0.0
102
RTVSPost2010PropOp38
 70
     1
102
RTVSPost2010Prop39
140
1.0
102
RTVSPost2010PropOp39
 70
     1
102
RTVSPost2010Prop40
 90
        0
102
RTVSPost2010PropOp40
 70
     1
102
RTVSPost2010Prop41ColorIndex
 90
       18
102
RTVSPost2010Prop41ColorRGB
 90
-16777216
102
RTVSPost2010PropOp41
 70
     1
102
RTVSPost2010Prop42
 90
       50
102
RTVSPost2010PropOp42
 70
     1
102
RTVSPost2010Prop43
 90
        3
102
RTVSPost2010PropOp43
 70
     1
102
RTVSPost2010Prop44ColorIndex
 90
        5
102
RTVSPost2010Prop44ColorRGB
 90
      255
102
RTVSPost2010PropOp44
 70
     1
102
RTVSPost2010Prop45
280
     0
102
RTVSPost2010PropOp45
 70
     1
102
RTVSPost2010Prop46
 90
       50
102
RTVSPost2010PropOp46
 70
     1
102
RTVSPost2010Prop47
 90
       50
102
RTVSPost2010PropOp47
 70
     1
102
RTVSPost2010Prop48
 90
       50
102
RTVSPost2010PropOp48
 70
     1
102
RTVSPost2010Prop49
280
     0
102
RTVSPost2010PropOp49
 70
     1
102
RTVSPost2010Prop50
 90
       50
102
RTVSPost2010PropOp50
 70
     1
102
RTVSPost2010Prop51ColorIndex
 90
      256
102
RTVSPost2010Prop51ColorRGB
 90
-16777216
102
RTVSPost2010PropOp51
 70
     0
102
RTVSPost2010Prop52
140
1.0
102
RTVSPost2010PropOp52
 70
     0
102
RTVSPost2010Prop53
 90
        2
102
RTVSPost2010PropOp53
 70
     1
102
RTVSPost2010Prop54
  1
strokes_ogs.tif
102
RTVSPost2010PropOp54
 70
     1
102
RTVSPost2010Prop55
280
     0
102
RTVSPost2010PropOp55
 70
     1
102
RTVSPost2010Prop56
140
1.0
102
RTVSPost2010PropOp56
 70
     1
102
RTVSPost2010Prop57
140
1.0
102
RTVSPost2010PropOp57
 70
     1
102
RTVSPropertyOp0
 70
     1
102
RTVSPropertyOp1
 70
     1
102
RTVSPropertyOp2
 70
     1
102
RTVSPropertyOp3
 70
     1
102
RTVSPropertyOp4
 70
     1
102
RTVSPropertyOp5
 70
     1
102
RTVSPropertyOp6
 70
     1
102
RTVSPropertyOp7
 70
     1
102
RTVSPropertyOp8
 70
     1
102
RTVSPropertyOp9
 70
     1
102
RTVSPropertyOp10
 70
     1
102
RTVSPropertyOp11
 70
     1
102
RTVSPropertyOp12
 70
     1
102
RTVSPropertyOp13
 70
     1
102
RTVSPropertyOp14
 70
     1
102
RTVSPropertyOp15
 70
     1
102
RTVSPropertyOp16
 70
     1
102
RTVSPropertyOp17
 70
     1
102
RTVSPropertyOp18
 70
     1
102
RTVSPropertyOp19
 70
     1
102
RTVSPropertyOp20
 70
     1
102
RTVSPropertyOp21
 70
     1
102
RTVSPropertyOp22
 70
     1
102
RTVSPropertyOp23
 70
     1
102
RTVSPropertyOp24
 70
     1
102
RTVSPropertyOp25
 70
     1
102
RTVSPropertyOp26
 70
     1
102
RTVSPropertyOp27
 70
     1
102
RTVSPropertyOp28
 70
     1
102
RTVSPropertyOp29
 70
     1
102
RTVSPropertyOp30
 70
     1
102
RTVSPropertyOp31
 70
     1
102
RTVSPropertyOp32
 70
     1
102
RTVSPropertyOp33
 70
     1
102
RTVSPropertyOp34
 70
     1
102
RTVSPropertyOp35
 70
     1
102
RTVSPropertyOp36
 70
     1
102
RTVSPropertyOp37
 70
     1
102
RTVSPropertyOp38
 70
     1
102
RTVSPropertyOp39
 70
     1
102
RTVSPropertyOp40
 70
     1
102
RTVSPropertyOp41
 70
     1
102
RTVSPropertyOp42
 70
     1
102
RTVSPropertyOp43
 70
     1
102
RTVSPropertyOp44
 70
     1
102
RTVSPropertyOp45
 70
     1
102
RTVSPropertyOp46
 70
     1
102
RTVSPropertyOp47
 70
     1
102
RTVSPropertyOp48
 70
     1
102
RTVSPropertyOp49
 70
     1
102
RTVSPropertyOp50
 70
     1
102
RTVSPropertyOp51
 70
     0
102
RTVSPropertyOp52
 70
     0
102
RTVSPropertyOp53
 70
     1
102
RTVSPropertyOp54
 70
     1
102
RTVSPropertyOp55
 70
     1
102
RTVSPropertyOp56
 70
     1
102
RTVSPropertyOp57
 70
     1
102
RTVSPropertyOp58
 70
     1
102
RTVSPropertyOp59
 70
     1
102
RTVSPropertyOp60
 70
     1
102
RTVSPropertyOp61
 70
     1
102
RTVSPropertyOp62
 70
     1
  0
XRECORD
  5
137C
102
{ACAD_REACTORS
330
137B
102
}
330
137B
100
AcDbXrecord
280
     1
102
RTVSPost2010Prop28
280
     0
102
RTVSPost2010PropOp28
 70
     1
102
RTVSPost2010Prop29
280
     1
102
RTVSPost2010PropOp29
 70
     1
102
RTVSPost2010Prop30
280
     1
102
RTVSPost2010PropOp30
 70
     1
102
RTVSPost2010Prop31
280
     0
102
RTVSPost2010PropOp31
 70
     1
102
RTVSPost2010Prop32
280
     0
102
RTVSPost2010PropOp32
 70
     1
102
RTVSPost2010Prop33
280
     0
102
RTVSPost2010PropOp33
 70
     1
102
RTVSPost2010Prop34
280
     0
102
RTVSPost2010PropOp34
 70
     1
102
RTVSPost2010Prop35
280
     0
102
RTVSPost2010PropOp35
 70
     1
102
RTVSPost2010Prop36
280
     0
102
RTVSPost2010PropOp36
 70
     1
102
RTVSPost2010Prop37
 90
       50
102
RTVSPost2010PropOp37
 70
     1
102
RTVSPost2010Prop38
140
0.0
102
RTVSPost2010PropOp38
 70
     1
102
RTVSPost2010Prop39
140
1.0
102
RTVSPost2010PropOp39
 70
     1
102
RTVSPost2010Prop40
 90
        0
102
RTVSPost2010PropOp40
 70
     1
102
RTVSPost2010Prop41ColorIndex
 90
       18
102
RTVSPost2010Prop41ColorRGB
 90
-16777216
102
RTVSPost2010PropOp41
 70
     1
102
RTVSPost2010Prop42
 90
       50
102
RTVSPost2010PropOp42
 70
     1
102
RTVSPost2010Prop43
 90
        3
102
RTVSPost2010PropOp43
 70
     1
102
RTVSPost2010Prop44ColorIndex
 90
        5
102
RTVSPost2010Prop44ColorRGB
 90
      255
102
RTVSPost2010PropOp44
 70
     1
102
RTVSPost2010Prop45
280
     0
102
RTVSPost2010PropOp45
 70
     1
102
RTVSPost2010Prop46
 90
       50
102
RTVSPost2010PropOp46
 70
     1
102
RTVSPost2010Prop47
 90
       50
102
RTVSPost2010PropOp47
 70
     1
102
RTVSPost2010Prop48
 90
       50
102
RTVSPost2010PropOp48
 70
     1
102
RTVSPost2010Prop49
280
     0
102
RTVSPost2010PropOp49
 70
     1
102
RTVSPost2010Prop50
 90
       50
102
RTVSPost2010PropOp50
 70
     1
102
RTVSPost2010Prop51ColorIndex
 90
      256
102
RTVSPost2010Prop51ColorRGB
 90
-16777216
102
RTVSPost2010PropOp51
 70
     0
102
RTVSPost2010Prop52
140
1.0
102
RTVSPost2010PropOp52
 70
     0
102
RTVSPost2010Prop53
 90
        2
102
RTVSPost2010PropOp53
 70
     1
102
RTVSPost2010Prop54
  1
strokes_ogs.tif
102
RTVSPost2010PropOp54
 70
     1
102
RTVSPost2010Prop55
280
     0
102
RTVSPost2010PropOp55
 70
     1
102
RTVSPost2010Prop56
140
1.0
102
RTVSPost2010PropOp56
 70
     1
102
RTVSPost2010Prop57
140
1.0
102
RTVSPost2010PropOp57
 70
     1
102
RTVSPropertyOp0
 70
     1
102
RTVSPropertyOp1
 70
     1
102
RTVSPropertyOp2
 70
     1
102
RTVSPropertyOp3
 70
     1
102
RTVSPropertyOp4
 70
     1
102
RTVSPropertyOp5
 70
     1
102
RTVSPropertyOp6
 70
     1
102
RTVSPropertyOp7
 70
     1
102
RTVSPropertyOp8
 70
     1
102
RTVSPropertyOp9
 70
     1
102
RTVSPropertyOp10
 70
     1
102
RTVSPropertyOp11
 70
     1
102
RTVSPropertyOp12
 70
     1
102
RTVSPropertyOp13
 70
     1
102
RTVSPropertyOp14
 70
     1
102
RTVSPropertyOp15
 70
     1
102
RTVSPropertyOp16
 70
     1
102
RTVSPropertyOp17
 70
     1
102
RTVSPropertyOp18
 70
     1
102
RTVSPropertyOp19
 70
     1
102
RTVSPropertyOp20
 70
     1
102
RTVSPropertyOp21
 70
     1
102
RTVSPropertyOp22
 70
     1
102
RTVSPropertyOp23
 70
     1
102
RTVSPropertyOp24
 70
     1
102
RTVSPropertyOp25
 70
     1
102
RTVSPropertyOp26
 70
     1
102
RTVSPropertyOp27
 70
     1
102
RTVSPropertyOp28
 70
     1
102
RTVSPropertyOp29
 70
     1
102
RTVSPropertyOp30
 70
     1
102
RTVSPropertyOp31
 70
     1
102
RTVSPropertyOp32
 70
     1
102
RTVSPropertyOp33
 70
     1
102
RTVSPropertyOp34
 70
     1
102
RTVSPropertyOp35
 70
     1
102
RTVSPropertyOp36
 70
     1
102
RTVSPropertyOp37
 70
     1
102
RTVSPropertyOp38
 70
     1
102
RTVSPropertyOp39
 70
     1
102
RTVSPropertyOp40
 70
     1
102
RTVSPropertyOp41
 70
     1
102
RTVSPropertyOp42
 70
     1
102
RTVSPropertyOp43
 70
     1
102
RTVSPropertyOp44
 70
     1
102
RTVSPropertyOp45
 70
     1
102
RTVSPropertyOp46
 70
     1
102
RTVSPropertyOp47
 70
     1
102
RTVSPropertyOp48
 70
     1
102
RTVSPropertyOp49
 70
     1
102
RTVSPropertyOp50
 70
     1
102
RTVSPropertyOp51
 70
     0
102
RTVSPropertyOp52
 70
     0
102
RTVSPropertyOp53
 70
     1
102
RTVSPropertyOp54
 70
     1
102
RTVSPropertyOp55
 70
     1
102
RTVSPropertyOp56
 70
     1
102
RTVSPropertyOp57
 70
     1
102
RTVSPropertyOp58
 70
     1
102
RTVSPropertyOp59
 70
     1
102
RTVSPropertyOp60
 70
     1
102
RTVSPropertyOp61
 70
     1
102
RTVSPropertyOp62
 70
     1
  0
XRECORD
  5
1376
102
{ACAD_REACTORS
330
1375
102
}
330
1375
100
AcDbXrecord
280
     1
102
RTVSPost2010Prop28
280
     0
102
RTVSPost2010PropOp28
 70
     1
102
RTVSPost2010Prop29
280
     1
102
RTVSPost2010PropOp29
 70
     1
102
RTVSPost2010Prop30
280
     1
102
RTVSPost2010PropOp30
 70
     1
102
RTVSPost2010Prop31
280
     0
102
RTVSPost2010PropOp31
 70
     1
102
RTVSPost2010Prop32
280
     0
102
RTVSPost2010PropOp32
 70
     1
102
RTVSPost2010Prop33
280
     0
102
RTVSPost2010PropOp33
 70
     1
102
RTVSPost2010Prop34
280
     0
102
RTVSPost2010PropOp34
 70
     1
102
RTVSPost2010Prop35
280
     0
102
RTVSPost2010PropOp35
 70
     1
102
RTVSPost2010Prop36
280
     0
102
RTVSPost2010PropOp36
 70
     1
102
RTVSPost2010Prop37
 90
       50
102
RTVSPost2010PropOp37
 70
     1
102
RTVSPost2010Prop38
140
0.0
102
RTVSPost2010PropOp38
 70
     1
102
RTVSPost2010Prop39
140
1.0
102
RTVSPost2010PropOp39
 70
     1
102
RTVSPost2010Prop40
 90
        0
102
RTVSPost2010PropOp40
 70
     1
102
RTVSPost2010Prop41ColorIndex
 90
       18
102
RTVSPost2010Prop41ColorRGB
 90
-16777216
102
RTVSPost2010PropOp41
 70
     1
102
RTVSPost2010Prop42
 90
       50
102
RTVSPost2010PropOp42
 70
     1
102
RTVSPost2010Prop43
 90
        3
102
RTVSPost2010PropOp43
 70
     1
102
RTVSPost2010Prop44ColorIndex
 90
        5
102
RTVSPost2010Prop44ColorRGB
 90
      255
102
RTVSPost2010PropOp44
 70
     1
102
RTVSPost2010Prop45
280
     0
102
RTVSPost2010PropOp45
 70
     1
102
RTVSPost2010Prop46
 90
       50
102
RTVSPost2010PropOp46
 70
     1
102
RTVSPost2010Prop47
 90
       50
102
RTVSPost2010PropOp47
 70
     1
102
RTVSPost2010Prop48
 90
       50
102
RTVSPost2010PropOp48
 70
     1
102
RTVSPost2010Prop49
280
     0
102
RTVSPost2010PropOp49
 70
     1
102
RTVSPost2010Prop50
 90
       50
102
RTVSPost2010PropOp50
 70
     1
102
RTVSPost2010Prop51ColorIndex
 90
      256
102
RTVSPost2010Prop51ColorRGB
 90
-16777216
102
RTVSPost2010PropOp51
 70
     0
102
RTVSPost2010Prop52
140
1.0
102
RTVSPost2010PropOp52
 70
     0
102
RTVSPost2010Prop53
 90
        2
102
RTVSPost2010PropOp53
 70
     1
102
RTVSPost2010Prop54
  1
strokes_ogs.tif
102
RTVSPost2010PropOp54
 70
     1
102
RTVSPost2010Prop55
280
     0
102
RTVSPost2010PropOp55
 70
     1
102
RTVSPost2010Prop56
140
1.0
102
RTVSPost2010PropOp56
 70
     1
102
RTVSPost2010Prop57
140
1.0
102
RTVSPost2010PropOp57
 70
     1
102
RTVSPropertyOp0
 70
     1
102
RTVSPropertyOp1
 70
     1
102
RTVSPropertyOp2
 70
     1
102
RTVSPropertyOp3
 70
     1
102
RTVSPropertyOp4
 70
     1
102
RTVSPropertyOp5
 70
     1
102
RTVSPropertyOp6
 70
     1
102
RTVSPropertyOp7
 70
     1
102
RTVSPropertyOp8
 70
     1
102
RTVSPropertyOp9
 70
     1
102
RTVSPropertyOp10
 70
     1
102
RTVSPropertyOp11
 70
     1
102
RTVSPropertyOp12
 70
     1
102
RTVSPropertyOp13
 70
     1
102
RTVSPropertyOp14
 70
     1
102
RTVSPropertyOp15
 70
     1
102
RTVSPropertyOp16
 70
     1
102
RTVSPropertyOp17
 70
     1
102
RTVSPropertyOp18
 70
     1
102
RTVSPropertyOp19
 70
     1
102
RTVSPropertyOp20
 70
     1
102
RTVSPropertyOp21
 70
     1
102
RTVSPropertyOp22
 70
     1
102
RTVSPropertyOp23
 70
     1
102
RTVSPropertyOp24
 70
     1
102
RTVSPropertyOp25
 70
     1
102
RTVSPropertyOp26
 70
     1
102
RTVSPropertyOp27
 70
     1
102
RTVSPropertyOp28
 70
     1
102
RTVSPropertyOp29
 70
     1
102
RTVSPropertyOp30
 70
     1
102
RTVSPropertyOp31
 70
     1
102
RTVSPropertyOp32
 70
     1
102
RTVSPropertyOp33
 70
     1
102
RTVSPropertyOp34
 70
     1
102
RTVSPropertyOp35
 70
     1
102
RTVSPropertyOp36
 70
     1
102
RTVSPropertyOp37
 70
     1
102
RTVSPropertyOp38
 70
     1
102
RTVSPropertyOp39
 70
     1
102
RTVSPropertyOp40
 70
     1
102
RTVSPropertyOp41
 70
     1
102
RTVSPropertyOp42
 70
     1
102
RTVSPropertyOp43
 70
     1
102
RTVSPropertyOp44
 70
     1
102
RTVSPropertyOp45
 70
     1
102
RTVSPropertyOp46
 70
     1
102
RTVSPropertyOp47
 70
     1
102
RTVSPropertyOp48
 70
     1
102
RTVSPropertyOp49
 70
     1
102
RTVSPropertyOp50
 70
     1
102
RTVSPropertyOp51
 70
     0
102
RTVSPropertyOp52
 70
     0
102
RTVSPropertyOp53
 70
     1
102
RTVSPropertyOp54
 70
     1
102
RTVSPropertyOp55
 70
     1
102
RTVSPropertyOp56
 70
     1
102
RTVSPropertyOp57
 70
     1
102
RTVSPropertyOp58
 70
     1
102
RTVSPropertyOp59
 70
     1
102
RTVSPropertyOp60
 70
     1
102
RTVSPropertyOp61
 70
     1
102
RTVSPropertyOp62
 70
     1
  0
XRECORD
  5
1378
102
{ACAD_REACTORS
330
1377
102
}
330
1377
100
AcDbXrecord
280
     1
102
RTVSPost2010Prop28
280
     0
102
RTVSPost2010PropOp28
 70
     1
102
RTVSPost2010Prop29
280
     1
102
RTVSPost2010PropOp29
 70
     1
102
RTVSPost2010Prop30
280
     1
102
RTVSPost2010PropOp30
 70
     1
102
RTVSPost2010Prop31
280
     0
102
RTVSPost2010PropOp31
 70
     1
102
RTVSPost2010Prop32
280
     0
102
RTVSPost2010PropOp32
 70
     1
102
RTVSPost2010Prop33
280
     0
102
RTVSPost2010PropOp33
 70
     1
102
RTVSPost2010Prop34
280
     0
102
RTVSPost2010PropOp34
 70
     1
102
RTVSPost2010Prop35
280
     0
102
RTVSPost2010PropOp35
 70
     1
102
RTVSPost2010Prop36
280
     0
102
RTVSPost2010PropOp36
 70
     1
102
RTVSPost2010Prop37
 90
       50
102
RTVSPost2010PropOp37
 70
     1
102
RTVSPost2010Prop38
140
0.0
102
RTVSPost2010PropOp38
 70
     1
102
RTVSPost2010Prop39
140
1.0
102
RTVSPost2010PropOp39
 70
     1
102
RTVSPost2010Prop40
 90
        0
102
RTVSPost2010PropOp40
 70
     1
102
RTVSPost2010Prop41ColorIndex
 90
       18
102
RTVSPost2010Prop41ColorRGB
 90
-16777216
102
RTVSPost2010PropOp41
 70
     1
102
RTVSPost2010Prop42
 90
       50
102
RTVSPost2010PropOp42
 70
     1
102
RTVSPost2010Prop43
 90
        3
102
RTVSPost2010PropOp43
 70
     1
102
RTVSPost2010Prop44ColorIndex
 90
        5
102
RTVSPost2010Prop44ColorRGB
 90
      255
102
RTVSPost2010PropOp44
 70
     1
102
RTVSPost2010Prop45
280
     0
102
RTVSPost2010PropOp45
 70
     1
102
RTVSPost2010Prop46
 90
       50
102
RTVSPost2010PropOp46
 70
     1
102
RTVSPost2010Prop47
 90
       50
102
RTVSPost2010PropOp47
 70
     1
102
RTVSPost2010Prop48
 90
       50
102
RTVSPost2010PropOp48
 70
     1
102
RTVSPost2010Prop49
280
     0
102
RTVSPost2010PropOp49
 70
     1
102
RTVSPost2010Prop50
 90
       50
102
RTVSPost2010PropOp50
 70
     1
102
RTVSPost2010Prop51ColorIndex
 90
      256
102
RTVSPost2010Prop51ColorRGB
 90
-16777216
102
RTVSPost2010PropOp51
 70
     0
102
RTVSPost2010Prop52
140
1.0
102
RTVSPost2010PropOp52
 70
     0
102
RTVSPost2010Prop53
 90
        2
102
RTVSPost2010PropOp53
 70
     1
102
RTVSPost2010Prop54
  1
strokes_ogs.tif
102
RTVSPost2010PropOp54
 70
     1
102
RTVSPost2010Prop55
280
     0
102
RTVSPost2010PropOp55
 70
     1
102
RTVSPost2010Prop56
140
1.0
102
RTVSPost2010PropOp56
 70
     1
102
RTVSPost2010Prop57
140
1.0
102
RTVSPost2010PropOp57
 70
     1
102
RTVSPropertyOp0
 70
     1
102
RTVSPropertyOp1
 70
     1
102
RTVSPropertyOp2
 70
     1
102
RTVSPropertyOp3
 70
     1
102
RTVSPropertyOp4
 70
     1
102
RTVSPropertyOp5
 70
     1
102
RTVSPropertyOp6
 70
     1
102
RTVSPropertyOp7
 70
     1
102
RTVSPropertyOp8
 70
     1
102
RTVSPropertyOp9
 70
     1
102
RTVSPropertyOp10
 70
     1
102
RTVSPropertyOp11
 70
     1
102
RTVSPropertyOp12
 70
     1
102
RTVSPropertyOp13
 70
     1
102
RTVSPropertyOp14
 70
     1
102
RTVSPropertyOp15
 70
     1
102
RTVSPropertyOp16
 70
     1
102
RTVSPropertyOp17
 70
     1
102
RTVSPropertyOp18
 70
     1
102
RTVSPropertyOp19
 70
     1
102
RTVSPropertyOp20
 70
     1
102
RTVSPropertyOp21
 70
     1
102
RTVSPropertyOp22
 70
     1
102
RTVSPropertyOp23
 70
     1
102
RTVSPropertyOp24
 70
     1
102
RTVSPropertyOp25
 70
     1
102
RTVSPropertyOp26
 70
     1
102
RTVSPropertyOp27
 70
     1
102
RTVSPropertyOp28
 70
     1
102
RTVSPropertyOp29
 70
     1
102
RTVSPropertyOp30
 70
     1
102
RTVSPropertyOp31
 70
     1
102
RTVSPropertyOp32
 70
     1
102
RTVSPropertyOp33
 70
     1
102
RTVSPropertyOp34
 70
     1
102
RTVSPropertyOp35
 70
     1
102
RTVSPropertyOp36
 70
     1
102
RTVSPropertyOp37
 70
     1
102
RTVSPropertyOp38
 70
     1
102
RTVSPropertyOp39
 70
     1
102
RTVSPropertyOp40
 70
     1
102
RTVSPropertyOp41
 70
     1
102
RTVSPropertyOp42
 70
     1
102
RTVSPropertyOp43
 70
     1
102
RTVSPropertyOp44
 70
     1
102
RTVSPropertyOp45
 70
     1
102
RTVSPropertyOp46
 70
     1
102
RTVSPropertyOp47
 70
     1
102
RTVSPropertyOp48
 70
     1
102
RTVSPropertyOp49
 70
     1
102
RTVSPropertyOp50
 70
     1
102
RTVSPropertyOp51
 70
     0
102
RTVSPropertyOp52
 70
     0
102
RTVSPropertyOp53
 70
     1
102
RTVSPropertyOp54
 70
     1
102
RTVSPropertyOp55
 70
     1
102
RTVSPropertyOp56
 70
     1
102
RTVSPropertyOp57
 70
     1
102
RTVSPropertyOp58
 70
     1
102
RTVSPropertyOp59
 70
     1
102
RTVSPropertyOp60
 70
     1
102
RTVSPropertyOp61
 70
     1
102
RTVSPropertyOp62
 70
     1
  0
XRECORD
  5
136E
102
{ACAD_REACTORS
330
136D
102
}
330
136D
100
AcDbXrecord
280
     1
102
RTVSPost2010Prop28
280
     0
102
RTVSPost2010PropOp28
 70
     1
102
RTVSPost2010Prop29
280
     1
102
RTVSPost2010PropOp29
 70
     1
102
RTVSPost2010Prop30
280
     1
102
RTVSPost2010PropOp30
 70
     1
102
RTVSPost2010Prop31
280
     0
102
RTVSPost2010PropOp31
 70
     1
102
RTVSPost2010Prop32
280
     0
102
RTVSPost2010PropOp32
 70
     1
102
RTVSPost2010Prop33
280
     0
102
RTVSPost2010PropOp33
 70
     1
102
RTVSPost2010Prop34
280
     0
102
RTVSPost2010PropOp34
 70
     1
102
RTVSPost2010Prop35
280
     0
102
RTVSPost2010PropOp35
 70
     1
102
RTVSPost2010Prop36
280
     0
102
RTVSPost2010PropOp36
 70
     1
102
RTVSPost2010Prop37
 90
       50
102
RTVSPost2010PropOp37
 70
     1
102
RTVSPost2010Prop38
140
0.0
102
RTVSPost2010PropOp38
 70
     1
102
RTVSPost2010Prop39
140
1.0
102
RTVSPost2010PropOp39
 70
     1
102
RTVSPost2010Prop40
 90
        0
102
RTVSPost2010PropOp40
 70
     1
102
RTVSPost2010Prop41ColorIndex
 90
       18
102
RTVSPost2010Prop41ColorRGB
 90
-16777216
102
RTVSPost2010PropOp41
 70
     1
102
RTVSPost2010Prop42
 90
       50
102
RTVSPost2010PropOp42
 70
     1
102
RTVSPost2010Prop43
 90
        3
102
RTVSPost2010PropOp43
 70
     1
102
RTVSPost2010Prop44ColorIndex
 90
        5
102
RTVSPost2010Prop44ColorRGB
 90
      255
102
RTVSPost2010PropOp44
 70
     1
102
RTVSPost2010Prop45
280
     0
102
RTVSPost2010PropOp45
 70
     1
102
RTVSPost2010Prop46
 90
       50
102
RTVSPost2010PropOp46
 70
     1
102
RTVSPost2010Prop47
 90
       50
102
RTVSPost2010PropOp47
 70
     1
102
RTVSPost2010Prop48
 90
       50
102
RTVSPost2010PropOp48
 70
     1
102
RTVSPost2010Prop49
280
     0
102
RTVSPost2010PropOp49
 70
     1
102
RTVSPost2010Prop50
 90
       50
102
RTVSPost2010PropOp50
 70
     1
102
RTVSPost2010Prop51ColorIndex
 90
      256
102
RTVSPost2010Prop51ColorRGB
 90
-16777216
102
RTVSPost2010PropOp51
 70
     0
102
RTVSPost2010Prop52
140
1.0
102
RTVSPost2010PropOp52
 70
     0
102
RTVSPost2010Prop53
 90
        2
102
RTVSPost2010PropOp53
 70
     1
102
RTVSPost2010Prop54
  1
strokes_ogs.tif
102
RTVSPost2010PropOp54
 70
     1
102
RTVSPost2010Prop55
280
     0
102
RTVSPost2010PropOp55
 70
     1
102
RTVSPost2010Prop56
140
1.0
102
RTVSPost2010PropOp56
 70
     1
102
RTVSPost2010Prop57
140
1.0
102
RTVSPost2010PropOp57
 70
     1
102
RTVSPropertyOp0
 70
     1
102
RTVSPropertyOp1
 70
     1
102
RTVSPropertyOp2
 70
     1
102
RTVSPropertyOp3
 70
     1
102
RTVSPropertyOp4
 70
     1
102
RTVSPropertyOp5
 70
     1
102
RTVSPropertyOp6
 70
     1
102
RTVSPropertyOp7
 70
     1
102
RTVSPropertyOp8
 70
     1
102
RTVSPropertyOp9
 70
     1
102
RTVSPropertyOp10
 70
     1
102
RTVSPropertyOp11
 70
     1
102
RTVSPropertyOp12
 70
     1
102
RTVSPropertyOp13
 70
     1
102
RTVSPropertyOp14
 70
     1
102
RTVSPropertyOp15
 70
     1
102
RTVSPropertyOp16
 70
     1
102
RTVSPropertyOp17
 70
     1
102
RTVSPropertyOp18
 70
     1
102
RTVSPropertyOp19
 70
     1
102
RTVSPropertyOp20
 70
     1
102
RTVSPropertyOp21
 70
     1
102
RTVSPropertyOp22
 70
     1
102
RTVSPropertyOp23
 70
     1
102
RTVSPropertyOp24
 70
     1
102
RTVSPropertyOp25
 70
     1
102
RTVSPropertyOp26
 70
     1
102
RTVSPropertyOp27
 70
     1
102
RTVSPropertyOp28
 70
     1
102
RTVSPropertyOp29
 70
     1
102
RTVSPropertyOp30
 70
     1
102
RTVSPropertyOp31
 70
     1
102
RTVSPropertyOp32
 70
     1
102
RTVSPropertyOp33
 70
     1
102
RTVSPropertyOp34
 70
     1
102
RTVSPropertyOp35
 70
     1
102
RTVSPropertyOp36
 70
     1
102
RTVSPropertyOp37
 70
     1
102
RTVSPropertyOp38
 70
     1
102
RTVSPropertyOp39
 70
     1
102
RTVSPropertyOp40
 70
     1
102
RTVSPropertyOp41
 70
     1
102
RTVSPropertyOp42
 70
     1
102
RTVSPropertyOp43
 70
     1
102
RTVSPropertyOp44
 70
     1
102
RTVSPropertyOp45
 70
     1
102
RTVSPropertyOp46
 70
     1
102
RTVSPropertyOp47
 70
     1
102
RTVSPropertyOp48
 70
     1
102
RTVSPropertyOp49
 70
     1
102
RTVSPropertyOp50
 70
     1
102
RTVSPropertyOp51
 70
     0
102
RTVSPropertyOp52
 70
     0
102
RTVSPropertyOp53
 70
     1
102
RTVSPropertyOp54
 70
     1
102
RTVSPropertyOp55
 70
     1
102
RTVSPropertyOp56
 70
     1
102
RTVSPropertyOp57
 70
     1
102
RTVSPropertyOp58
 70
     1
102
RTVSPropertyOp59
 70
     1
102
RTVSPropertyOp60
 70
     1
102
RTVSPropertyOp61
 70
     1
102
RTVSPropertyOp62
 70
     1
  0
XRECORD
  5
1362
102
{ACAD_REACTORS
330
1361
102
}
330
1361
100
AcDbXrecord
280
     1
102
RTVSPost2010Prop28
280
     0
102
RTVSPost2010PropOp28
 70
     1
102
RTVSPost2010Prop29
280
     1
102
RTVSPost2010PropOp29
 70
     1
102
RTVSPost2010Prop30
280
     1
102
RTVSPost2010PropOp30
 70
     1
102
RTVSPost2010Prop31
280
     0
102
RTVSPost2010PropOp31
 70
     1
102
RTVSPost2010Prop32
280
     0
102
RTVSPost2010PropOp32
 70
     1
102
RTVSPost2010Prop33
280
     0
102
RTVSPost2010PropOp33
 70
     1
102
RTVSPost2010Prop34
280
     0
102
RTVSPost2010PropOp34
 70
     1
102
RTVSPost2010Prop35
280
     0
102
RTVSPost2010PropOp35
 70
     1
102
RTVSPost2010Prop36
280
     0
102
RTVSPost2010PropOp36
 70
     1
102
RTVSPost2010Prop37
 90
       50
102
RTVSPost2010PropOp37
 70
     1
102
RTVSPost2010Prop38
140
0.0
102
RTVSPost2010PropOp38
 70
     1
102
RTVSPost2010Prop39
140
1.0
102
RTVSPost2010PropOp39
 70
     1
102
RTVSPost2010Prop40
 90
        0
102
RTVSPost2010PropOp40
 70
     1
102
RTVSPost2010Prop41ColorIndex
 90
       18
102
RTVSPost2010Prop41ColorRGB
 90
-16777216
102
RTVSPost2010PropOp41
 70
     1
102
RTVSPost2010Prop42
 90
       50
102
RTVSPost2010PropOp42
 70
     1
102
RTVSPost2010Prop43
 90
        3
102
RTVSPost2010PropOp43
 70
     1
102
RTVSPost2010Prop44ColorIndex
 90
        5
102
RTVSPost2010Prop44ColorRGB
 90
      255
102
RTVSPost2010PropOp44
 70
     1
102
RTVSPost2010Prop45
280
     0
102
RTVSPost2010PropOp45
 70
     1
102
RTVSPost2010Prop46
 90
       50
102
RTVSPost2010PropOp46
 70
     1
102
RTVSPost2010Prop47
 90
       50
102
RTVSPost2010PropOp47
 70
     1
102
RTVSPost2010Prop48
 90
       50
102
RTVSPost2010PropOp48
 70
     1
102
RTVSPost2010Prop49
280
     0
102
RTVSPost2010PropOp49
 70
     1
102
RTVSPost2010Prop50
 90
       50
102
RTVSPost2010PropOp50
 70
     1
102
RTVSPost2010Prop51ColorIndex
 90
      256
102
RTVSPost2010Prop51ColorRGB
 90
-16777216
102
RTVSPost2010PropOp51
 70
     0
102
RTVSPost2010Prop52
140
1.0
102
RTVSPost2010PropOp52
 70
     0
102
RTVSPost2010Prop53
 90
        2
102
RTVSPost2010PropOp53
 70
     1
102
RTVSPost2010Prop54
  1
strokes_ogs.tif
102
RTVSPost2010PropOp54
 70
     1
102
RTVSPost2010Prop55
280
     0
102
RTVSPost2010PropOp55
 70
     1
102
RTVSPost2010Prop56
140
1.0
102
RTVSPost2010PropOp56
 70
     1
102
RTVSPost2010Prop57
140
1.0
102
RTVSPost2010PropOp57
 70
     1
102
RTVSPropertyOp0
 70
     1
102
RTVSPropertyOp1
 70
     1
102
RTVSPropertyOp2
 70
     1
102
RTVSPropertyOp3
 70
     1
102
RTVSPropertyOp4
 70
     1
102
RTVSPropertyOp5
 70
     1
102
RTVSPropertyOp6
 70
     1
102
RTVSPropertyOp7
 70
     1
102
RTVSPropertyOp8
 70
     1
102
RTVSPropertyOp9
 70
     1
102
RTVSPropertyOp10
 70
     1
102
RTVSPropertyOp11
 70
     1
102
RTVSPropertyOp12
 70
     1
102
RTVSPropertyOp13
 70
     1
102
RTVSPropertyOp14
 70
     1
102
RTVSPropertyOp15
 70
     1
102
RTVSPropertyOp16
 70
     1
102
RTVSPropertyOp17
 70
     1
102
RTVSPropertyOp18
 70
     1
102
RTVSPropertyOp19
 70
     1
102
RTVSPropertyOp20
 70
     1
102
RTVSPropertyOp21
 70
     1
102
RTVSPropertyOp22
 70
     1
102
RTVSPropertyOp23
 70
     1
102
RTVSPropertyOp24
 70
     1
102
RTVSPropertyOp25
 70
     1
102
RTVSPropertyOp26
 70
     1
102
RTVSPropertyOp27
 70
     1
102
RTVSPropertyOp28
 70
     1
102
RTVSPropertyOp29
 70
     1
102
RTVSPropertyOp30
 70
     1
102
RTVSPropertyOp31
 70
     1
102
RTVSPropertyOp32
 70
     1
102
RTVSPropertyOp33
 70
     1
102
RTVSPropertyOp34
 70
     1
102
RTVSPropertyOp35
 70
     1
102
RTVSPropertyOp36
 70
     1
102
RTVSPropertyOp37
 70
     1
102
RTVSPropertyOp38
 70
     1
102
RTVSPropertyOp39
 70
     1
102
RTVSPropertyOp40
 70
     1
102
RTVSPropertyOp41
 70
     1
102
RTVSPropertyOp42
 70
     1
102
RTVSPropertyOp43
 70
     1
102
RTVSPropertyOp44
 70
     1
102
RTVSPropertyOp45
 70
     1
102
RTVSPropertyOp46
 70
     1
102
RTVSPropertyOp47
 70
     1
102
RTVSPropertyOp48
 70
     1
102
RTVSPropertyOp49
 70
     1
102
RTVSPropertyOp50
 70
     1
102
RTVSPropertyOp51
 70
     0
102
RTVSPropertyOp52
 70
     0
102
RTVSPropertyOp53
 70
     1
102
RTVSPropertyOp54
 70
     1
102
RTVSPropertyOp55
 70
     1
102
RTVSPropertyOp56
 70
     1
102
RTVSPropertyOp57
 70
     1
102
RTVSPropertyOp58
 70
     1
102
RTVSPropertyOp59
 70
     1
102
RTVSPropertyOp60
 70
     1
102
RTVSPropertyOp61
 70
     1
102
RTVSPropertyOp62
 70
     1
  0
XRECORD
  5
137A
102
{ACAD_REACTORS
330
1379
102
}
330
1379
100
AcDbXrecord
280
     1
102
RTVSPost2010Prop28
280
     0
102
RTVSPost2010PropOp28
 70
     1
102
RTVSPost2010Prop29
280
     1
102
RTVSPost2010PropOp29
 70
     1
102
RTVSPost2010Prop30
280
     1
102
RTVSPost2010PropOp30
 70
     1
102
RTVSPost2010Prop31
280
     0
102
RTVSPost2010PropOp31
 70
     1
102
RTVSPost2010Prop32
280
     0
102
RTVSPost2010PropOp32
 70
     1
102
RTVSPost2010Prop33
280
     0
102
RTVSPost2010PropOp33
 70
     1
102
RTVSPost2010Prop34
280
     0
102
RTVSPost2010PropOp34
 70
     1
102
RTVSPost2010Prop35
280
     0
102
RTVSPost2010PropOp35
 70
     1
102
RTVSPost2010Prop36
280
     0
102
RTVSPost2010PropOp36
 70
     1
102
RTVSPost2010Prop37
 90
       50
102
RTVSPost2010PropOp37
 70
     1
102
RTVSPost2010Prop38
140
0.0
102
RTVSPost2010PropOp38
 70
     1
102
RTVSPost2010Prop39
140
1.0
102
RTVSPost2010PropOp39
 70
     1
102
RTVSPost2010Prop40
 90
        0
102
RTVSPost2010PropOp40
 70
     1
102
RTVSPost2010Prop41ColorIndex
 90
       18
102
RTVSPost2010Prop41ColorRGB
 90
-16777216
102
RTVSPost2010PropOp41
 70
     1
102
RTVSPost2010Prop42
 90
       50
102
RTVSPost2010PropOp42
 70
     1
102
RTVSPost2010Prop43
 90
        3
102
RTVSPost2010PropOp43
 70
     1
102
RTVSPost2010Prop44ColorIndex
 90
        5
102
RTVSPost2010Prop44ColorRGB
 90
      255
102
RTVSPost2010PropOp44
 70
     1
102
RTVSPost2010Prop45
280
     0
102
RTVSPost2010PropOp45
 70
     1
102
RTVSPost2010Prop46
 90
       50
102
RTVSPost2010PropOp46
 70
     1
102
RTVSPost2010Prop47
 90
       50
102
RTVSPost2010PropOp47
 70
     1
102
RTVSPost2010Prop48
 90
       50
102
RTVSPost2010PropOp48
 70
     1
102
RTVSPost2010Prop49
280
     0
102
RTVSPost2010PropOp49
 70
     1
102
RTVSPost2010Prop50
 90
       50
102
RTVSPost2010PropOp50
 70
     1
102
RTVSPost2010Prop51ColorIndex
 90
      256
102
RTVSPost2010Prop51ColorRGB
 90
-16777216
102
RTVSPost2010PropOp51
 70
     0
102
RTVSPost2010Prop52
140
1.0
102
RTVSPost2010PropOp52
 70
     0
102
RTVSPost2010Prop53
 90
        2
102
RTVSPost2010PropOp53
 70
     1
102
RTVSPost2010Prop54
  1
strokes_ogs.tif
102
RTVSPost2010PropOp54
 70
     1
102
RTVSPost2010Prop55
280
     0
102
RTVSPost2010PropOp55
 70
     1
102
RTVSPost2010Prop56
140
1.0
102
RTVSPost2010PropOp56
 70
     1
102
RTVSPost2010Prop57
140
1.0
102
RTVSPost2010PropOp57
 70
     1
102
RTVSPropertyOp0
 70
     1
102
RTVSPropertyOp1
 70
     1
102
RTVSPropertyOp2
 70
     1
102
RTVSPropertyOp3
 70
     1
102
RTVSPropertyOp4
 70
     1
102
RTVSPropertyOp5
 70
     1
102
RTVSPropertyOp6
 70
     1
102
RTVSPropertyOp7
 70
     1
102
RTVSPropertyOp8
 70
     1
102
RTVSPropertyOp9
 70
     1
102
RTVSPropertyOp10
 70
     1
102
RTVSPropertyOp11
 70
     1
102
RTVSPropertyOp12
 70
     1
102
RTVSPropertyOp13
 70
     1
102
RTVSPropertyOp14
 70
     1
102
RTVSPropertyOp15
 70
     1
102
RTVSPropertyOp16
 70
     1
102
RTVSPropertyOp17
 70
     1
102
RTVSPropertyOp18
 70
     1
102
RTVSPropertyOp19
 70
     1
102
RTVSPropertyOp20
 70
     1
102
RTVSPropertyOp21
 70
     1
102
RTVSPropertyOp22
 70
     1
102
RTVSPropertyOp23
 70
     1
102
RTVSPropertyOp24
 70
     1
102
RTVSPropertyOp25
 70
     1
102
RTVSPropertyOp26
 70
     1
102
RTVSPropertyOp27
 70
     1
102
RTVSPropertyOp28
 70
     1
102
RTVSPropertyOp29
 70
     1
102
RTVSPropertyOp30
 70
     1
102
RTVSPropertyOp31
 70
     1
102
RTVSPropertyOp32
 70
     1
102
RTVSPropertyOp33
 70
     1
102
RTVSPropertyOp34
 70
     1
102
RTVSPropertyOp35
 70
     1
102
RTVSPropertyOp36
 70
     1
102
RTVSPropertyOp37
 70
     1
102
RTVSPropertyOp38
 70
     1
102
RTVSPropertyOp39
 70
     1
102
RTVSPropertyOp40
 70
     1
102
RTVSPropertyOp41
 70
     1
102
RTVSPropertyOp42
 70
     1
102
RTVSPropertyOp43
 70
     1
102
RTVSPropertyOp44
 70
     1
102
RTVSPropertyOp45
 70
     1
102
RTVSPropertyOp46
 70
     1
102
RTVSPropertyOp47
 70
     1
102
RTVSPropertyOp48
 70
     1
102
RTVSPropertyOp49
 70
     1
102
RTVSPropertyOp50
 70
     1
102
RTVSPropertyOp51
 70
     0
102
RTVSPropertyOp52
 70
     0
102
RTVSPropertyOp53
 70
     1
102
RTVSPropertyOp54
 70
     1
102
RTVSPropertyOp55
 70
     1
102
RTVSPropertyOp56
 70
     1
102
RTVSPropertyOp57
 70
     1
102
RTVSPropertyOp58
 70
     1
102
RTVSPropertyOp59
 70
     1
102
RTVSPropertyOp60
 70
     1
102
RTVSPropertyOp61
 70
     1
102
RTVSPropertyOp62
 70
     1
  0
ENDSEC
  0
EOF
