  0
SECTION
  2
HEADER
  9
$ACADVER
  1
AC1015
  9
$ACADMAINTVER
 70
    20
  9
$DWGCODEPAGE
  3
ANSI_1252
  9
$INSBASE
 10
0.0
 20
0.0
 30
0.0
  9
$EXTMIN
 10
-0.0000000000000012
 20
-0.000000000000002
 30
0.0
  9
$EXTMAX
 10
17.0
 20
11.0
 30
0.0
  9
$LIMMIN
 10
0.0
 20
0.0
  9
$LIMMAX
 10
12.0
 20
9.0
  9
$ORTHOMODE
 70
     0
  9
$REGENMODE
 70
     1
  9
$FILLMODE
 70
     1
  9
$QTEXTMODE
 70
     0
  9
$MIRRTEXT
 70
     1
  9
$LTSCALE
 40
0.25
  9
$ATTMODE
 70
     1
  9
$TEXTSIZE
 40
0.125
  9
$TRACEWID
 40
0.05
  9
$TEXTSTYLE
  7
SIMPLEX
  9
$CLAYER
  8
0
  9
$CELTYPE
  6
BYLAYER
  9
$CECOLOR
 62
   256
  9
$CELTSCALE
 40
1.0
  9
$DISPSILH
 70
     0
  9
$DIMSCALE
 40
1.0
  9
$DIMASZ
 40
0.125
  9
$DIMEXO
 40
0.063
  9
$DIMDLI
 40
0.38
  9
$DIMRND
 40
0.0
  9
$DIMDLE
 40
0.0
  9
$DIMEXE
 40
0.063
  9
$DIMTP
 40
0.0
  9
$DIMTM
 40
0.0
  9
$DIMTXT
 40
0.125
  9
$DIMCEN
 40
-0.125
  9
$DIMTSZ
 40
0.0
  9
$DIMTOL
 70
     0
  9
$DIMLIM
 70
     0
  9
$DIMTIH
 70
     1
  9
$DIMTOH
 70
     1
  9
$DIMSE1
 70
     0
  9
$DIMSE2
 70
     0
  9
$DIMTAD
 70
     0
  9
$DIMZIN
 70
     4
  9
$DIMBLK
  1

  9
$DIMASO
 70
     1
  9
$DIMSHO
 70
     0
  9
$DIMPOST
  1

  9
$DIMAPOST
  1

  9
$DIMALT
 70
     0
  9
$DIMALTD
 70
     2
  9
$DIMALTF
 40
25.4
  9
$DIMLFAC
 40
1.0
  9
$DIMTOFL
 70
     0
  9
$DIMTVP
 40
0.0
  9
$DIMTIX
 70
     0
  9
$DIMSOXD
 70
     0
  9
$DIMSAH
 70
     0
  9
$DIMBLK1
  1

  9
$DIMBLK2
  1

  9
$DIMSTYLE
  2
STANDARD
  9
$DIMCLRD
 70
     0
  9
$DIMCLRE
 70
     0
  9
$DIMCLRT
 70
     0
  9
$DIMTFAC
 40
1.0
  9
$DIMGAP
 40
0.09
  9
$DIMJUST
 70
     0
  9
$DIMSD1
 70
     0
  9
$DIMSD2
 70
     0
  9
$DIMTOLJ
 70
     1
  9
$DIMTZIN
 70
     4
  9
$DIMALTZ
 70
     4
  9
$DIMALTTZ
 70
     4
  9
$DIMUPT
 70
     0
  9
$DIMDEC
 70
     3
  9
$DIMTDEC
 70
     3
  9
$DIMALTU
 70
     2
  9
$DIMALTTD
 70
     2
  9
$DIMTXSTY
  7
SIMPLEX
  9
$DIMAUNIT
 70
     0
  9
$DIMADEC
 70
     0
  9
$DIMALTRND
 40
0.0
  9
$DIMAZIN
 70
     0
  9
$DIMDSEP
 70
    46
  9
$DIMATFIT
 70
     3
  9
$DIMFRAC
 70
     0
  9
$DIMLDRBLK
  1

  9
$DIMLUNIT
 70
     2
  9
$DIMLWD
 70
    -2
  9
$DIMLWE
 70
    -2
  9
$DIMTMOVE
 70
     2
  9
$LUNITS
 70
     2
  9
$LUPREC
 70
     3
  9
$SKETCHINC
 40
0.1
  9
$FILLETRAD
 40
0.0
  9
$AUNITS
 70
     0
  9
$AUPREC
 70
     2
  9
$MENU
  1
ACAD
  9
$ELEVATION
 40
0.0
  9
$PELEVATION
 40
0.0
  9
$THICKNESS
 40
0.0
  9
$LIMCHECK
 70
     0
  9
$CHAMFERA
 40
0.0
  9
$CHAMFERB
 40
0.0
  9
$CHAMFERC
 40
0.0
  9
$CHAMFERD
 40
0.0
  9
$SKPOLY
 70
     0
  9
$TDCREATE
 40
2450399.693569676
  9
$TDUCREATE
 40
2450399.860236343
  9
$TDUPDATE
 40
2457155.547755359
  9
$TDUUPDATE
 40
2457155.714422025
  9
$TDINDWG
 40
0.0042250347
  9
$TDUSRTIMER
 40
0.0042250116
  9
$USRTIMER
 70
     1
  9
$ANGBASE
 50
0.0
  9
$ANGDIR
 70
     0
  9
$PDMODE
 70
     0
  9
$PDSIZE
 40
0.0
  9
$PLINEWID
 40
0.0
  9
$SPLFRAME
 70
     0
  9
$SPLINETYPE
 70
     6
  9
$SPLINESEGS
 70
     8
  9
$HANDSEED
  5
D16
  9
$SURFTAB1
 70
     6
  9
$SURFTAB2
 70
     6
  9
$SURFTYPE
 70
     6
  9
$SURFU
 70
     6
  9
$SURFV
 70
     6
  9
$UCSBASE
  2

  9
$UCSNAME
  2

  9
$UCSORG
 10
0.0
 20
0.0
 30
0.0
  9
$UCSXDIR
 10
1.0
 20
0.0
 30
0.0
  9
$UCSYDIR
 10
0.0
 20
1.0
 30
0.0
  9
$UCSORTHOREF
  2

  9
$UCSORTHOVIEW
 70
     0
  9
$UCSORGTOP
 10
0.0
 20
0.0
 30
0.0
  9
$UCSORGBOTTOM
 10
0.0
 20
0.0
 30
0.0
  9
$UCSORGLEFT
 10
0.0
 20
0.0
 30
0.0
  9
$UCSORGRIGHT
 10
0.0
 20
0.0
 30
0.0
  9
$UCSORGFRONT
 10
0.0
 20
0.0
 30
0.0
  9
$UCSORGBACK
 10
0.0
 20
0.0
 30
0.0
  9
$PUCSBASE
  2

  9
$PUCSNAME
  2

  9
$PUCSORG
 10
0.0
 20
0.0
 30
0.0
  9
$PUCSXDIR
 10
1.0
 20
0.0
 30
0.0
  9
$PUCSYDIR
 10
0.0
 20
1.0
 30
0.0
  9
$PUCSORTHOREF
  2

  9
$PUCSORTHOVIEW
 70
     0
  9
$PUCSORGTOP
 10
0.0
 20
0.0
 30
0.0
  9
$PUCSORGBOTTOM
 10
0.0
 20
0.0
 30
0.0
  9
$PUCSORGLEFT
 10
0.0
 20
0.0
 30
0.0
  9
$PUCSORGRIGHT
 10
0.0
 20
0.0
 30
0.0
  9
$PUCSORGFRONT
 10
0.0
 20
0.0
 30
0.0
  9
$PUCSORGBACK
 10
0.0
 20
0.0
 30
0.0
  9
$USERI1
 70
     0
  9
$USERI2
 70
     0
  9
$USERI3
 70
     0
  9
$USERI4
 70
     0
  9
$USERI5
 70
     0
  9
$USERR1
 40
0.0
  9
$USERR2
 40
0.0
  9
$USERR3
 40
0.0
  9
$USERR4
 40
0.0
  9
$USERR5
 40
0.0
  9
$WORLDVIEW
 70
     1
  9
$SHADEDGE
 70
     3
  9
$SHADEDIF
 70
    70
  9
$TILEMODE
 70
     1
  9
$MAXACTVP
 70
    16
  9
$PINSBASE
 10
0.0
 20
0.0
 30
0.0
  9
$PLIMCHECK
 70
     0
  9
$PEXTMIN
 10
1.000000000000000E+20
 20
1.000000000000000E+20
 30
1.000000000000000E+20
  9
$PEXTMAX
 10
-1.000000000000000E+20
 20
-1.000000000000000E+20
 30
-1.000000000000000E+20
  9
$PLIMMIN
 10
0.0
 20
0.0
  9
$PLIMMAX
 10
12.0
 20
9.0
  9
$UNITMODE
 70
     0
  9
$VISRETAIN
 70
     0
  9
$PLINEGEN
 70
     0
  9
$PSLTSCALE
 70
     0
  9
$TREEDEPTH
 70
  3020
  9
$CMLSTYLE
  2
STANDARD
  9
$CMLJUST
 70
     0
  9
$CMLSCALE
 40
1.0
  9
$PROXYGRAPHICS
 70
     1
  9
$MEASUREMENT
 70
     0
  9
$CELWEIGHT
370
    -1
  9
$ENDCAPS
280
     0
  9
$JOINSTYLE
280
     0
  9
$LWDISPLAY
290
     0
  9
$INSUNITS
 70
     0
  9
$HYPERLINKBASE
  1

  9
$STYLESHEET
  1

  9
$XEDIT
290
     1
  9
$CEPSNTYPE
380
     0
  9
$PSTYLEMODE
290
     1
  9
$FINGERPRINTGUID
  2
{E6E24790-48CB-4667-9969-0AA13CB487C9}
  9
$VERSIONGUID
  2
{0FB7C57B-0C56-4B27-A27B-9AB54C8FE947}
  9
$EXTNAMES
290
     1
  9
$PSVPSCALE
 40
0.0
  9
$OLESTARTUP
290
     0
  0
ENDSEC
  0
SECTION
  2
CLASSES
  0
CLASS
  1
DICTIONARYVAR
  2
AcDbDictionaryVar
  3
ObjectDBX Classes
 90
        0
280
     0
281
     0
  0
CLASS
  1
ACDBDICTIONARYWDFLT
  2
AcDbDictionaryWithDefault
  3
ObjectDBX Classes
 90
        0
280
     0
281
     0
  0
CLASS
  1
MATERIAL
  2
AcDbMaterial
  3
ObjectDBX Classes
 90
     1153
280
     0
281
     0
  0
CLASS
  1
VISUALSTYLE
  2
AcDbVisualStyle
  3
ObjectDBX Classes
 90
     4095
280
     0
281
     0
  0
CLASS
  1
TABLESTYLE
  2
AcDbTableStyle
  3
ObjectDBX Classes
 90
     4095
280
     0
281
     0
  0
CLASS
  1
SCALE
  2
AcDbScale
  3
ObjectDBX Classes
 90
     1153
280
     0
281
     0
  0
CLASS
  1
MLEADERSTYLE
  2
AcDbMLeaderStyle
  3
ACDB_MLEADERSTYLE_CLASS
 90
     4095
280
     0
281
     0
  0
CLASS
  1
ACDBSECTIONVIEWSTYLE
  2
AcDbSectionViewStyle
  3
ObjectDBX Classes
 90
     1025
280
     0
281
     0
  0
CLASS
  1
ACDBDETAILVIEWSTYLE
  2
AcDbDetailViewStyle
  3
ObjectDBX Classes
 90
     1025
280
     0
281
     0
  0
CLASS
  1
CELLSTYLEMAP
  2
AcDbCellStyleMap
  3
ObjectDBX Classes
 90
     1152
280
     0
281
     0
  0
CLASS
  1
ACDBPLACEHOLDER
  2
AcDbPlaceHolder
  3
ObjectDBX Classes
 90
        0
280
     0
281
     0
  0
CLASS
  1
LAYOUT
  2
AcDbLayout
  3
ObjectDBX Classes
 90
        0
280
     0
281
     0
  0
ENDSEC
  0
SECTION
  2
TABLES
  0
TABLE
  2
VPORT
  5
8
330
0
100
AcDbSymbolTable
 70
     1
  0
VPORT
  5
BC2
330
8
100
AcDbSymbolTableRecord
100
AcDbViewportTableRecord
  2
*ACTIVE
 70
     0
 10
0.0
 20
0.0
 11
1.0
 21
1.0
 12
7.838154747516554
 22
5.364790330024051
 13
0.0
 23
0.0
 14
1.0
 24
1.0
 15
0.0
 25
0.0
 16
0.0
 26
0.0
 36
1.0
 17
0.0
 27
0.0
 37
0.0
 40
18.37192081155353
 41
2.080545229244113
 42
50.0
 43
0.0
 44
0.0
 50
0.0
 51
0.0
 71
     0
 72
   250
 73
     1
 74
     0
 75
     0
 76
     0
 77
     0
 78
     0
281
     0
 65
     1
110
0.0
120
0.0
130
0.0
111
1.0
121
0.0
131
0.0
112
0.0
122
1.0
132
0.0
 79
     0
146
0.0
1001
ACAD_NAV_VCDISPLAY
1070
     3
  0
ENDTAB
  0
TABLE
  2
LTYPE
  5
5
330
0
100
AcDbSymbolTable
 70
     2
  0
LTYPE
  5
11
330
5
100
AcDbSymbolTableRecord
100
AcDbLinetypeTableRecord
  2
BYBLOCK
 70
     0
  3

 72
    65
 73
     0
 40
0.0
  0
LTYPE
  5
12
330
5
100
AcDbSymbolTableRecord
100
AcDbLinetypeTableRecord
  2
BYLAYER
 70
     0
  3

 72
    65
 73
     0
 40
0.0
  0
LTYPE
  5
13
330
5
100
AcDbSymbolTableRecord
100
AcDbLinetypeTableRecord
  2
CONTINUOUS
 70
     0
  3
Solid line
 72
    65
 73
     0
 40
0.0
  0
LTYPE
  5
24
330
5
100
AcDbSymbolTableRecord
100
AcDbLinetypeTableRecord
  2
HIDDEN
 70
     0
  3

 72
    65
 73
     2
 40
0.25
 49
0.125
 74
     0
 49
-0.125
 74
     0
  0
ENDTAB
  0
TABLE
  2
LAYER
  5
2
102
{ACAD_XDICTIONARY
360
C27
102
}
330
0
100
AcDbSymbolTable
 70
     5
  0
LAYER
  5
E
102
{ACAD_XDICTIONARY
360
C1C
102
}
330
2
100
AcDbSymbolTableRecord
100
AcDbLayerTableRecord
  2
0
 70
     0
 62
     7
  6
CONTINUOUS
370
    -3
390
BC5
  0
LAYER
  5
28
102
{ACAD_XDICTIONARY
360
C1E
102
}
330
2
100
AcDbSymbolTableRecord
100
AcDbLayerTableRecord
  2
2
 70
     0
 62
     2
  6
CONTINUOUS
370
    -3
390
BC5
  0
LAYER
  5
29
102
{ACAD_XDICTIONARY
360
C20
102
}
330
2
100
AcDbSymbolTableRecord
100
AcDbLayerTableRecord
  2
3
 70
     0
 62
     3
  6
CONTINUOUS
370
    -3
390
BC5
  0
LAYER
  5
2A
102
{ACAD_XDICTIONARY
360
C22
102
}
330
2
100
AcDbSymbolTableRecord
100
AcDbLayerTableRecord
  2
4
 70
     0
 62
     4
  6
CONTINUOUS
370
    -3
390
BC5
  0
LAYER
  5
2B
330
2
100
AcDbSymbolTableRecord
100
AcDbLayerTableRecord
  2
DEFPOINTS
 70
     0
 62
     7
  6
CONTINUOUS
290
     0
370
    -3
390
BC5
  0
ENDTAB
  0
TABLE
  2
STYLE
  5
3
330
0
100
AcDbSymbolTable
 70
     4
  0
STYLE
  5
F
330
3
100
AcDbSymbolTableRecord
100
AcDbTextStyleTableRecord
  2
STANDARD
 70
     0
 40
0.0
 41
1.0
 50
0.0
 71
     0
 42
0.2
  3
txt
  4

  0
STYLE
  5
20
330
3
100
AcDbSymbolTableRecord
100
AcDbTextStyleTableRecord
  2
SIMPLEX
 70
     0
 40
0.0
 41
1.0
 50
0.0
 71
     0
 42
0.125
  3
SIMPLEX.shx
  4

  0
STYLE
  5
21
330
3
100
AcDbSymbolTableRecord
100
AcDbTextStyleTableRecord
  2
MED
 70
     0
 40
0.125
 41
1.0
 50
0.0
 71
     0
 42
0.078
  3
ROMANS
  4

  0
STYLE
  5
22
330
3
100
AcDbSymbolTableRecord
100
AcDbTextStyleTableRecord
  2
T
 70
     0
 40
0.0
 41
1.0
 50
0.0
 71
     0
 42
1.0
  3
ROMI____.PFB
  4

  0
ENDTAB
  0
TABLE
  2
VIEW
  5
6
330
0
100
AcDbSymbolTable
 70
     0
  0
ENDTAB
  0
TABLE
  2
UCS
  5
7
330
0
100
AcDbSymbolTable
 70
     0
  0
ENDTAB
  0
TABLE
  2
APPID
  5
9
330
0
100
AcDbSymbolTable
 70
     4
  0
APPID
  5
10
330
9
100
AcDbSymbolTableRecord
100
AcDbRegAppTableRecord
  2
ACAD
 70
     0
  0
APPID
  5
C2D
330
9
100
AcDbSymbolTableRecord
100
AcDbRegAppTableRecord
  2
ACAD_NAV_VCDISPLAY
 70
     0
  0
APPID
  5
C9A
330
9
100
AcDbSymbolTableRecord
100
AcDbRegAppTableRecord
  2
ACAD_DSTYLE_DIMRADIAL_EXTENSION
 70
     0
  0
APPID
  5
D0B
330
9
100
AcDbSymbolTableRecord
100
AcDbRegAppTableRecord
  2
ACAD_MLEADERVER
 70
     0
  0
ENDTAB
  0
TABLE
  2
DIMSTYLE
  5
A
330
0
100
AcDbSymbolTable
 70
     1
100
AcDbDimStyleTable
 71
     1
340
BC0
  0
DIMSTYLE
105
BC0
102
{ACAD_REACTORS
330
C9B
330
BBD
102
}
330
A
100
AcDbSymbolTableRecord
100
AcDbDimStyleTableRecord
  2
STANDARD
 70
     0
340
F
  0
ENDTAB
  0
TABLE
  2
BLOCK_RECORD
  5
1
330
0
100
AcDbSymbolTable
 70
     6
  0
BLOCK_RECORD
  5
17
330
1
100
AcDbSymbolTableRecord
100
AcDbBlockTableRecord
  2
*MODEL_SPACE
340
C15
  0
BLOCK_RECORD
  5
14
330
1
100
AcDbSymbolTableRecord
100
AcDbBlockTableRecord
  2
*PAPER_SPACE
340
C16
  0
BLOCK_RECORD
  5
1C
330
1
100
AcDbSymbolTableRecord
100
AcDbBlockTableRecord
  2
*D0
340
0
  0
BLOCK_RECORD
  5
1D
330
1
100
AcDbSymbolTableRecord
100
AcDbBlockTableRecord
  2
*D1
340
0
  0
BLOCK_RECORD
  5
1E
330
1
100
AcDbSymbolTableRecord
100
AcDbBlockTableRecord
  2
*D2
340
0
  0
BLOCK_RECORD
  5
1F
330
1
100
AcDbSymbolTableRecord
100
AcDbBlockTableRecord
  2
*D3
340
0
  0
BLOCK_RECORD
  5
C9C
330
1
100
AcDbSymbolTableRecord
100
AcDbBlockTableRecord
  2
*D4
340
0
  0
BLOCK_RECORD
  5
CA5
330
1
100
AcDbSymbolTableRecord
100
AcDbBlockTableRecord
  2
*D5
340
0
  0
ENDTAB
  0
ENDSEC
  0
SECTION
  2
BLOCKS
  0
BLOCK
  5
2E
330
17
100
AcDbEntity
  8
0
100
AcDbBlockBegin
  2
*MODEL_SPACE
 70
     0
 10
0.0
 20
0.0
 30
0.0
  3
*MODEL_SPACE
  1

  0
ENDBLK
  5
2F
330
17
100
AcDbEntity
  8
0
100
AcDbBlockEnd
  0
BLOCK
  5
2C
330
14
100
AcDbEntity
 67
     1
  8
0
100
AcDbBlockBegin
  2
*PAPER_SPACE
 70
     0
 10
0.0
 20
0.0
 30
0.0
  3
*PAPER_SPACE
  1

  0
ENDBLK
  5
2D
330
14
100
AcDbEntity
 67
     1
  8
0
100
AcDbBlockEnd
  0
BLOCK
  5
32
330
1C
100
AcDbEntity
  8
0
100
AcDbBlockBegin
  2
*D0
 70
     1
 10
0.0
 20
0.0
 30
0.0
  3
*D0
  1

  0
LINE
  5
33
330
1C
100
AcDbEntity
  8
0
  6
ByBlock
 62
     0
100
AcDbLine
 10
9.812850629201678
 20
6.927171972322633
 30
0.0
 11
9.812850629201678
 21
4.702439297853278
 31
0.0
  0
LINE
  5
34
330
1C
100
AcDbEntity
  8
0
  6
ByBlock
 62
     0
100
AcDbLine
 10
14.50035062920168
 20
6.927171972322633
 30
0.0
 11
14.50035062920168
 21
4.702439297853278
 31
0.0
  0
LINE
  5
35
330
1C
100
AcDbEntity
  8
0
  6
ByBlock
 62
     0
100
AcDbLine
 10
9.937850629201678
 20
4.76543929785328
 30
0.0
 11
11.72136253396358
 21
4.76543929785328
 31
0.0
  0
LINE
  5
36
330
1C
100
AcDbEntity
  8
0
  6
ByBlock
 62
     0
100
AcDbLine
 10
14.37535062920168
 20
4.76543929785328
 30
0.0
 11
12.59183872443977
 21
4.76543929785328
 31
0.0
  0
SOLID
  5
37
330
1C
100
AcDbEntity
  8
0
  6
ByBlock
 62
     0
100
AcDbTrace
 10
9.937850629201678
 20
4.786272631186613
 30
0.0
 11
9.937850629201678
 21
4.744605964519947
 31
0.0
 12
9.812850629201678
 22
4.76543929785328
 32
0.0
 13
9.812850629201678
 23
4.76543929785328
 33
0.0
  0
SOLID
  5
38
330
1C
100
AcDbEntity
  8
0
  6
ByBlock
 62
     0
100
AcDbTrace
 10
14.37535062920168
 20
4.786272631186613
 30
0.0
 11
14.37535062920168
 21
4.744605964519947
 31
0.0
 12
14.50035062920168
 22
4.76543929785328
 32
0.0
 13
14.50035062920168
 23
4.76543929785328
 33
0.0
  0
TEXT
  5
39
330
1C
100
AcDbEntity
  8
0
  6
ByBlock
 62
     0
100
AcDbText
 10
11.81136253396358
 20
4.70293929785328
 30
0.0
 40
0.125
  1
9-3/8"
  7
SIMPLEX
 72
     1
 11
12.15660062920168
 21
4.76543929785328
 31
0.0
100
AcDbText
 73
     2
  0
POINT
  5
3B
330
1C
100
AcDbEntity
  8
DEFPOINTS
  6
ByBlock
 62
     0
100
AcDbPoint
 10
9.812850629201678
 20
6.990171972322633
 30
0.0
  0
POINT
  5
3C
330
1C
100
AcDbEntity
  8
DEFPOINTS
  6
ByBlock
 62
     0
100
AcDbPoint
 10
14.50035062920168
 20
6.990171972322633
 30
0.0
  0
POINT
  5
3D
330
1C
100
AcDbEntity
  8
DEFPOINTS
  6
ByBlock
 62
     0
100
AcDbPoint
 10
14.50035062920168
 20
4.76543929785328
 30
0.0
  0
ENDBLK
  5
3E
330
1C
100
AcDbEntity
  8
0
100
AcDbBlockEnd
  0
BLOCK
  5
3F
330
1D
100
AcDbEntity
  8
0
100
AcDbBlockBegin
  2
*D1
 70
     1
 10
0.0
 20
0.0
 30
0.0
  3
*D1
  1

  0
LINE
  5
40
330
1D
100
AcDbEntity
  8
0
  6
ByBlock
 62
     0
100
AcDbLine
 10
9.437850629201678
 20
6.927171972322633
 30
0.0
 11
9.437850629201678
 21
4.337563806340741
 31
0.0
  0
LINE
  5
41
330
1D
100
AcDbEntity
  8
0
  6
ByBlock
 62
     0
100
AcDbLine
 10
14.87535062920168
 20
6.927171972322633
 30
0.0
 11
14.87535062920168
 21
4.337563806340741
 31
0.0
  0
LINE
  5
42
330
1D
100
AcDbEntity
  8
0
  6
ByBlock
 62
     0
100
AcDbLine
 10
9.562850629201678
 20
4.400563806340738
 30
0.0
 11
11.67374348634454
 21
4.400563806340738
 31
0.0
  0
LINE
  5
43
330
1D
100
AcDbEntity
  8
0
  6
ByBlock
 62
     0
100
AcDbLine
 10
14.75035062920168
 20
4.400563806340738
 30
0.0
 11
12.63945777205882
 21
4.400563806340738
 31
0.0
  0
SOLID
  5
44
330
1D
100
AcDbEntity
  8
0
  6
ByBlock
 62
     0
100
AcDbTrace
 10
9.562850629201678
 20
4.421397139674073
 30
0.0
 11
9.562850629201678
 21
4.379730473007406
 31
0.0
 12
9.437850629201678
 22
4.400563806340738
 32
0.0
 13
9.437850629201678
 23
4.400563806340738
 33
0.0
  0
SOLID
  5
45
330
1D
100
AcDbEntity
  8
0
  6
ByBlock
 62
     0
100
AcDbTrace
 10
14.75035062920168
 20
4.421397139674073
 30
0.0
 11
14.75035062920168
 21
4.379730473007406
 31
0.0
 12
14.87535062920168
 22
4.400563806340738
 32
0.0
 13
14.87535062920168
 23
4.400563806340738
 33
0.0
  0
TEXT
  5
46
330
1D
100
AcDbEntity
  8
0
  6
ByBlock
 62
     0
100
AcDbText
 10
11.76374348634453
 20
4.338063806340738
 30
0.0
 40
0.125
  1
10-7/8"
  7
SIMPLEX
 72
     1
 11
12.15660062920168
 21
4.400563806340738
 31
0.0
100
AcDbText
 73
     2
  0
POINT
  5
47
330
1D
100
AcDbEntity
  8
DEFPOINTS
  6
ByBlock
 62
     0
100
AcDbPoint
 10
9.437850629201678
 20
6.990171972322633
 30
0.0
  0
POINT
  5
48
330
1D
100
AcDbEntity
  8
DEFPOINTS
  6
ByBlock
 62
     0
100
AcDbPoint
 10
14.87535062920168
 20
6.990171972322633
 30
0.0
  0
POINT
  5
49
330
1D
100
AcDbEntity
  8
DEFPOINTS
  6
ByBlock
 62
     0
100
AcDbPoint
 10
14.87535062920168
 20
4.400563806340738
 30
0.0
  0
ENDBLK
  5
4A
330
1D
100
AcDbEntity
  8
0
100
AcDbBlockEnd
  0
BLOCK
  5
4B
330
1E
100
AcDbEntity
  8
0
100
AcDbBlockBegin
  2
*D2
 70
     1
 10
0.0
 20
0.0
 30
0.0
  3
*D2
  1

  0
LINE
  5
4C
330
1E
100
AcDbEntity
  8
0
  6
ByBlock
 62
     0
100
AcDbLine
 10
12.21960062920168
 20
5.552671972322633
 30
0.0
 11
15.42347650423209
 21
5.552671972322633
 31
0.0
  0
LINE
  5
4D
330
1E
100
AcDbEntity
  8
0
  6
ByBlock
 62
     0
100
AcDbLine
 10
12.21960062920168
 20
8.427671972322633
 30
0.0
 11
15.42347650423209
 21
8.427671972322633
 31
0.0
  0
LINE
  5
4E
330
1E
100
AcDbEntity
  8
0
  6
ByBlock
 62
     0
100
AcDbLine
 10
15.36047650423209
 20
5.677671972322633
 30
0.0
 11
15.36047650423209
 21
6.837671972322633
 31
0.0
  0
LINE
  5
4F
330
1E
100
AcDbEntity
  8
0
  6
ByBlock
 62
     0
100
AcDbLine
 10
15.36047650423209
 20
8.302671972322633
 30
0.0
 11
15.36047650423209
 21
7.142671972322633
 31
0.0
  0
SOLID
  5
50
330
1E
100
AcDbEntity
  8
0
  6
ByBlock
 62
     0
100
AcDbTrace
 10
15.33964317089876
 20
5.677671972322633
 30
0.0
 11
15.38130983756542
 21
5.677671972322633
 31
0.0
 12
15.36047650423209
 22
5.552671972322633
 32
0.0
 13
15.36047650423209
 23
5.552671972322633
 33
0.0
  0
SOLID
  5
51
330
1E
100
AcDbEntity
  8
0
  6
ByBlock
 62
     0
100
AcDbTrace
 10
15.33964317089876
 20
8.302671972322633
 30
0.0
 11
15.38130983756542
 21
8.302671972322633
 31
0.0
 12
15.36047650423209
 22
8.427671972322633
 32
0.0
 13
15.36047650423209
 23
8.427671972322633
 33
0.0
  0
TEXT
  5
52
330
1E
100
AcDbEntity
  8
0
  6
ByBlock
 62
     0
100
AcDbText
 10
15.01523840899399
 20
6.927671972322633
 30
0.0
 40
0.125
  1
5-3/4"
  7
SIMPLEX
 72
     1
 11
15.36047650423209
 21
6.990171972322633
 31
0.0
100
AcDbText
 73
     2
  0
POINT
  5
53
330
1E
100
AcDbEntity
  8
DEFPOINTS
  6
ByBlock
 62
     0
100
AcDbPoint
 10
12.15660062920168
 20
5.552671972322633
 30
0.0
  0
POINT
  5
54
330
1E
100
AcDbEntity
  8
DEFPOINTS
  6
ByBlock
 62
     0
100
AcDbPoint
 10
12.15660062920168
 20
8.427671972322633
 30
0.0
  0
POINT
  5
55
330
1E
100
AcDbEntity
  8
DEFPOINTS
  6
ByBlock
 62
     0
100
AcDbPoint
 10
15.36047650423209
 20
8.427671972322633
 30
0.0
  0
ENDBLK
  5
56
330
1E
100
AcDbEntity
  8
0
100
AcDbBlockEnd
  0
BLOCK
  5
57
330
1F
100
AcDbEntity
  8
0
100
AcDbBlockBegin
  2
*D3
 70
     1
 10
0.0
 20
0.0
 30
0.0
  3
*D3
  1

  0
LINE
  5
58
330
1F
100
AcDbEntity
  8
0
  6
ByBlock
 62
     0
100
AcDbLine
 10
12.21960062920168
 20
5.177671972322634
 30
0.0
 11
15.93796629560549
 21
5.177671972322634
 31
0.0
  0
LINE
  5
59
330
1F
100
AcDbEntity
  8
0
  6
ByBlock
 62
     0
100
AcDbLine
 10
12.21960062920168
 20
8.802671972322633
 30
0.0
 11
15.93796629560549
 21
8.802671972322633
 31
0.0
  0
LINE
  5
5A
330
1F
100
AcDbEntity
  8
0
  6
ByBlock
 62
     0
100
AcDbLine
 10
15.87496629560549
 20
5.302671972322634
 30
0.0
 11
15.87496629560549
 21
7.283164462338713
 31
0.0
  0
LINE
  5
5B
330
1F
100
AcDbEntity
  8
0
  6
ByBlock
 62
     0
100
AcDbLine
 10
15.87496629560549
 20
8.677671972322633
 30
0.0
 11
15.87496629560549
 21
7.588164462338713
 31
0.0
  0
SOLID
  5
5C
330
1F
100
AcDbEntity
  8
0
  6
ByBlock
 62
     0
100
AcDbTrace
 10
15.85413296227216
 20
5.302671972322634
 30
0.0
 11
15.89579962893883
 21
5.302671972322634
 31
0.0
 12
15.87496629560549
 22
5.177671972322634
 32
0.0
 13
15.87496629560549
 23
5.177671972322634
 33
0.0
  0
SOLID
  5
5D
330
1F
100
AcDbEntity
  8
0
  6
ByBlock
 62
     0
100
AcDbTrace
 10
15.85413296227216
 20
8.677671972322633
 30
0.0
 11
15.89579962893883
 21
8.677671972322633
 31
0.0
 12
15.87496629560549
 22
8.802671972322633
 32
0.0
 13
15.87496629560549
 23
8.802671972322633
 33
0.0
  0
TEXT
  5
5E
330
1F
100
AcDbEntity
  8
0
  6
ByBlock
 62
     0
100
AcDbText
 10
15.54163296227216
 20
7.373164462338713
 30
0.0
 40
0.125
  1
7-1/4"
  7
SIMPLEX
 72
     1
 11
15.87496629560549
 21
7.435664462338713
 31
0.0
100
AcDbText
 73
     2
  0
POINT
  5
5F
330
1F
100
AcDbEntity
  8
DEFPOINTS
  6
ByBlock
 62
     0
100
AcDbPoint
 10
12.15660062920168
 20
5.177671972322634
 30
0.0
  0
POINT
  5
60
330
1F
100
AcDbEntity
  8
DEFPOINTS
  6
ByBlock
 62
     0
100
AcDbPoint
 10
12.15660062920168
 20
8.802671972322633
 30
0.0
  0
POINT
  5
61
330
1F
100
AcDbEntity
  8
DEFPOINTS
  6
ByBlock
 62
     0
100
AcDbPoint
 10
15.87496629560549
 20
8.802671972322633
 30
0.0
  0
ENDBLK
  5
62
330
1F
100
AcDbEntity
  8
0
100
AcDbBlockEnd
  0
BLOCK
  5
C9D
330
C9C
100
AcDbEntity
  8
0
100
AcDbBlockBegin
  2
*D4
 70
     1
 10
0.0
 20
0.0
 30
0.0
  3
*D4
  1

  0
LINE
  5
C9F
330
C9C
100
AcDbEntity
  8
0
 62
     0
370
    -2
100
AcDbLine
 10
3.48022910103573
 20
8.786515830040258
 30
0.0
 11
4.170616320315154
 21
6.625160414897787
 31
0.0
  0
MTEXT
  5
CA0
102
{ACAD_XDICTIONARY
360
D14
102
}
330
C9C
100
AcDbEntity
  8
0
 62
     0
100
AcDbMText
 10
4.436490785125889
 20
6.119753540193246
 30
0.0
 40
0.125
 41
0.0
 71
     5
 72
     1
  1
\A1;\U+22052.519
  7
SIMPLEX
 73
     1
 44
1.0
1001
ACAD
1000
MTEXTBEGIN
1070
    73
1070
     1
1070
    44
1040
1.0
1070
    74
1070
     0
1000
MTEXTEND
  0
SOLID
  5
CA1
330
C9C
100
AcDbEntity
  8
0
 62
     0
100
AcDbTrace
 10
3.5000745903877
 20
8.792854941189196
 30
0.0
 11
3.460383611683758
 21
8.78017671889132
 31
0.0
 12
3.442194434142103
 22
8.905588766152082
 32
0.0
 13
3.442194434142103
 23
8.905588766152082
 33
0.0
  0
SOLID
  5
CA2
330
C9C
100
AcDbEntity
  8
0
 62
     0
100
AcDbTrace
 10
4.190461809667128
 20
6.631499526046726
 30
0.0
 11
4.150770830963185
 21
6.618821303748852
 31
0.0
 12
4.208650987208782
 22
6.506087478785962
 32
0.0
 13
4.208650987208782
 23
6.506087478785962
 33
0.0
  0
POINT
  5
CA3
330
C9C
100
AcDbEntity
  8
DEFPOINTS
 62
     0
100
AcDbPoint
 10
4.208650987208782
 20
6.506087478785962
 30
0.0
  0
POINT
  5
CA4
330
C9C
100
AcDbEntity
  8
DEFPOINTS
 62
     0
100
AcDbPoint
 10
3.442194434142103
 20
8.905588766152082
 30
0.0
  0
ENDBLK
  5
C9E
330
C9C
100
AcDbEntity
  8
0
100
AcDbBlockEnd
  0
BLOCK
  5
CA6
330
CA5
100
AcDbEntity
  8
0
100
AcDbBlockBegin
  2
*D5
 70
     1
 10
0.0
 20
0.0
 30
0.0
  3
*D5
  1

  0
LINE
  5
CB1
330
CA5
100
AcDbEntity
  8
3
 62
     0
370
    -2
100
AcDbLine
 10
12.21960062920168
 20
5.177671972322634
 30
0.0
 11
15.59562388710537
 21
5.177671972322632
 31
0.0
  0
LINE
  5
CB2
330
CA5
100
AcDbEntity
  8
3
 62
     0
370
    -2
100
AcDbLine
 10
12.21960062920168
 20
8.802671972322633
 30
0.0
 11
15.59562388710537
 21
8.802671972322633
 31
0.0
  0
LINE
  5
CB3
330
CA5
100
AcDbEntity
  8
3
 62
     0
370
    -2
100
AcDbLine
 10
15.53262388710537
 20
5.302671972322632
 30
0.0
 11
15.53262388710537
 21
7.250426367100616
 31
0.0
  0
LINE
  5
CB4
330
CA5
100
AcDbEntity
  8
3
 62
     0
370
    -2
100
AcDbLine
 10
15.53262388710537
 20
8.677671972322633
 30
0.0
 11
15.53262388710537
 21
7.620902557576807
 31
0.0
  0
MTEXT
  5
CB5
330
CA5
100
AcDbEntity
  8
3
 62
     0
100
AcDbMText
 10
15.54163296227216
 20
7.435664462338713
 30
0.0
 40
0.125
 41
0.0
 71
     5
 72
     1
  1
\A1;7-1/4"
  7
SIMPLEX
 73
     1
 44
1.0
1001
ACAD
1000
MTEXTBEGIN
1070
    73
1070
     1
1070
    44
1040
1.0
1070
    74
1070
     0
1000
MTEXTEND
  0
SOLID
  5
CB6
330
CA5
100
AcDbEntity
  8
3
 62
     0
100
AcDbTrace
 10
15.51179055377204
 20
5.302671972322632
 30
0.0
 11
15.55345722043871
 21
5.302671972322632
 31
0.0
 12
15.53262388710537
 22
5.177671972322632
 32
0.0
 13
15.53262388710537
 23
5.177671972322632
 33
0.0
  0
SOLID
  5
CB7
330
CA5
100
AcDbEntity
  8
3
 62
     0
100
AcDbTrace
 10
15.51179055377204
 20
8.677671972322633
 30
0.0
 11
15.55345722043871
 21
8.677671972322633
 31
0.0
 12
15.53262388710537
 22
8.802671972322633
 32
0.0
 13
15.53262388710537
 23
8.802671972322633
 33
0.0
  0
POINT
  5
CB8
330
CA5
100
AcDbEntity
  8
DEFPOINTS
 62
     0
100
AcDbPoint
 10
12.15660062920168
 20
5.177671972322634
 30
0.0
  0
POINT
  5
CB9
330
CA5
100
AcDbEntity
  8
DEFPOINTS
 62
     0
100
AcDbPoint
 10
12.15660062920168
 20
8.802671972322633
 30
0.0
  0
POINT
  5
CBA
330
CA5
100
AcDbEntity
  8
DEFPOINTS
 62
     0
100
AcDbPoint
 10
15.53262388710537
 20
8.802671972322633
 30
0.0
  0
ENDBLK
  5
CA7
330
CA5
100
AcDbEntity
  8
0
100
AcDbBlockEnd
  0
ENDSEC
  0
SECTION
  2
ENTITIES
  0
TEXT
  5
63
330
17
100
AcDbEntity
  8
2
100
AcDbText
 10
2.055812642700092
 20
10.08952497318785
 30
0.0
 40
0.078
  1
A
  7
SIMPLEX
 72
     1
 11
2.085526928414378
 21
10.08952497318785
 31
0.0
100
AcDbText
  0
TEXT
  5
64
330
17
100
AcDbEntity
  8
2
100
AcDbText
 10
0.9035334975977569
 20
8.810914507829126
 30
0.0
 40
0.078
  1
1
  7
SIMPLEX
 72
     1
 11
0.9128192118834711
 21
8.810914507829126
 31
0.0
100
AcDbText
  0
LINE
  5
70
330
17
100
AcDbEntity
  8
4
100
AcDbLine
 10
0.8499999999999985
 20
0.8
 30
0.0
 11
0.8499999999999985
 21
10.2
 31
0.0
  0
LINE
  5
71
330
17
100
AcDbEntity
  8
4
100
AcDbLine
 10
16.14999999999999
 20
10.2
 30
0.0
 11
0.8499999999999985
 21
10.2
 31
0.0
  0
LINE
  5
72
330
17
100
AcDbEntity
  8
4
100
AcDbLine
 10
16.14999999999999
 20
10.2
 30
0.0
 11
16.15
 21
0.8
 31
0.0
  0
LINE
  5
74
330
17
100
AcDbEntity
  8
4
100
AcDbLine
 10
16.14999999999999
 20
0.7999999999999982
 30
0.0
 11
0.8499999999999985
 21
0.8
 31
0.0
  0
LINE
  5
75
330
17
100
AcDbEntity
  8
3
100
AcDbLine
 10
3.248648892925475
 20
10.0624474252566
 30
0.0
 11
3.248648892925475
 21
10.2
 31
0.0
  0
LINE
  5
76
330
17
100
AcDbEntity
  8
3
100
AcDbLine
 10
0.9623497084130574
 20
8.119557940205281
 30
0.0
 11
0.8499999999999985
 21
8.119557940205281
 31
0.0
  0
LINE
  5
77
330
17
100
AcDbEntity
  8
3
100
AcDbLine
 10
5.38653509726791
 20
10.0624474252566
 30
0.0
 11
5.386535097267912
 21
10.2
 31
0.0
  0
LINE
  5
78
330
17
100
AcDbEntity
  8
3
100
AcDbLine
 10
7.549099261950316
 20
10.0624474252566
 30
0.0
 11
7.549099261950316
 21
10.2
 31
0.0
  0
LINE
  5
79
330
17
100
AcDbEntity
  8
3
100
AcDbLine
 10
9.699324446462735
 20
10.0624474252566
 30
0.0
 11
9.699324446462739
 21
10.2
 31
0.0
  0
LINE
  5
7A
330
17
100
AcDbEntity
  8
3
100
AcDbLine
 10
11.84954963097516
 20
10.0624474252566
 30
0.0
 11
11.84954963097516
 21
10.2
 31
0.0
  0
LINE
  5
7B
330
17
100
AcDbEntity
  8
3
100
AcDbLine
 10
13.99977481548758
 20
10.0624474252566
 30
0.0
 11
13.99977481548758
 21
10.2
 31
0.0
  0
LINE
  5
7C
330
17
100
AcDbEntity
  8
3
100
AcDbLine
 10
0.9623497084130574
 20
6.289668455153962
 30
0.0
 11
0.8499999999999985
 21
6.289668455153962
 31
0.0
  0
LINE
  5
7D
330
17
100
AcDbEntity
  8
3
100
AcDbLine
 10
0.9623497084130574
 20
4.459778970102641
 30
0.0
 11
0.8499999999999985
 21
4.459778970102641
 31
0.0
  0
LINE
  5
7E
330
17
100
AcDbEntity
  8
3
100
AcDbLine
 10
0.9623497084130574
 20
2.629889485051319
 30
0.0
 11
0.8499999999999985
 21
2.629889485051319
 31
0.0
  0
TEXT
  5
7F
330
17
100
AcDbEntity
  8
2
100
AcDbText
 10
0.8868192118834711
 20
7.129880025070506
 30
0.0
 40
0.078
  1
2
  7
SIMPLEX
 72
     1
 11
0.9128192118834711
 21
7.129880025070506
 31
0.0
100
AcDbText
  0
TEXT
  5
80
330
17
100
AcDbEntity
  8
2
100
AcDbText
 10
0.8868192118834711
 20
5.280742094036023
 30
0.0
 40
0.078
  1
3
  7
SIMPLEX
 72
     1
 11
0.9128192118834711
 21
5.280742094036023
 31
0.0
100
AcDbText
  0
TEXT
  5
81
330
17
100
AcDbEntity
  8
2
100
AcDbText
 10
0.8849620690263282
 20
3.43160416300154
 30
0.0
 40
0.078
  1
4
  7
SIMPLEX
 72
     1
 11
0.9128192118834711
 21
3.43160416300154
 31
0.0
100
AcDbText
  0
TEXT
  5
82
330
17
100
AcDbEntity
  8
2
100
AcDbText
 10
0.8868192118834711
 20
1.582466231967059
 30
0.0
 40
0.078
  1
5
  7
SIMPLEX
 72
     1
 11
0.9128192118834711
 21
1.582466231967059
 31
0.0
100
AcDbText
  0
TEXT
  5
83
330
17
100
AcDbEntity
  8
2
100
AcDbText
 10
4.328923480138515
 20
10.08952497318785
 30
0.0
 40
0.078
  1
B
  7
SIMPLEX
 72
     1
 11
4.354923480138515
 21
10.08952497318785
 31
0.0
100
AcDbText
  0
TEXT
  5
84
330
17
100
AcDbEntity
  8
2
100
AcDbText
 10
6.484393923488268
 20
10.08952497318785
 30
0.0
 40
0.078
  1
C
  7
SIMPLEX
 72
     1
 11
6.512251066345411
 21
10.08952497318785
 31
0.0
100
AcDbText
  0
TEXT
  5
85
330
17
100
AcDbEntity
  8
2
100
AcDbText
 10
8.615561411172997
 20
10.08952497318785
 30
0.0
 40
0.078
  1
D
  7
SIMPLEX
 72
     1
 11
8.641561411172997
 21
10.08952497318785
 31
0.0
100
AcDbText
  0
TEXT
  5
86
330
17
100
AcDbEntity
  8
2
100
AcDbText
 10
10.80276338161634
 20
10.08952497318785
 30
0.0
 40
0.078
  1
E
  7
SIMPLEX
 72
     1
 11
10.8269062387592
 21
10.08952497318785
 31
0.0
100
AcDbText
  0
TEXT
  5
87
330
17
100
AcDbEntity
  8
2
100
AcDbText
 10
12.90405648506462
 20
10.08952497318785
 30
0.0
 40
0.078
  1
F
  7
SIMPLEX
 72
     1
 11
12.92819934220748
 21
10.08952497318785
 31
0.0
100
AcDbText
  0
TEXT
  5
88
330
17
100
AcDbEntity
  8
2
100
AcDbText
 10
15.02965254417792
 20
10.08952497318785
 30
0.0
 40
0.078
  1
G
  7
SIMPLEX
 72
     1
 11
15.05750968703506
 21
10.08952497318785
 31
0.0
100
AcDbText
  0
LINE
  5
8E
330
17
100
AcDbEntity
  8
4
100
AcDbLine
 10
-0.0000000000000012
 20
0.0
 30
0.0
 11
-0.0000000000000012
 21
11.0
 31
0.0
  0
LINE
  5
8F
330
17
100
AcDbEntity
  8
4
100
AcDbLine
 10
17.0
 20
11.0
 30
0.0
 11
17.0
 21
-0.000000000000002
 31
0.0
  0
LINE
  5
90
330
17
100
AcDbEntity
  8
4
100
AcDbLine
 10
17.0
 20
11.0
 30
0.0
 11
-0.0000000000000012
 21
11.0
 31
0.0
  0
LINE
  5
91
330
17
100
AcDbEntity
  8
4
100
AcDbLine
 10
17.0
 20
-0.000000000000002
 30
0.0
 11
-0.0000000000000012
 21
0.0
 31
0.0
  0
LINE
  5
9D
330
17
100
AcDbEntity
  8
0
100
AcDbLine
 10
11.00592754049533
 20
1.816000699999954
 30
0.0
 11
16.14999999999999
 21
1.816000699999954
 31
0.0
  0
LWPOLYLINE
  5
9E
330
17
100
AcDbEntity
  8
4
  6
Continuous
100
AcDbPolyline
 90
       18
 70
     0
 43
0.0
 10
12.15858332238231
 20
1.601754168153976
 10
12.15852404510446
 20
1.600805731708004
 10
12.15840549054872
 20
1.599857295262034
 10
12.15810910415935
 20
1.599027413371804
 10
12.15775344049208
 20
1.598256808759463
 10
12.15716066771338
 20
1.597545481425018
 10
12.15644934037889
 20
1.59701198592412
 10
12.15561945848865
 20
1.596656322256895
 10
12.15455246748694
 20
1.596478490423263
 10
12.15354475376312
 20
1.596537767701154
 10
12.15259631731715
 20
1.596834154090529
 10
12.15188498998266
 20
1.597367649591383
 10
12.15129221720391
 20
1.598078976925873
 10
12.15081799898095
 20
1.59890885881606
 10
12.15046233531372
 20
1.599798017984183
 10
12.1502252262022
 20
1.600746454430155
 10
12.15016594892435
 20
1.601754168153976
 10
12.15858332238231
 20
1.601754168153976
  0
LWPOLYLINE
  5
B2
330
17
100
AcDbEntity
  8
4
  6
Continuous
100
AcDbPolyline
 90
       18
 70
     0
 43
0.0
 10
12.1501066716465
 20
1.605251527548488
 10
12.15004739436861
 20
1.60780045049703
 10
12.15004739436861
 20
1.610586482557053
 10
12.15004739436861
 20
1.6136096237286
 10
12.15028450348009
 20
1.61686987401159
 10
12.15069944442521
 20
1.620307956128251
 10
12.15147004903759
 20
1.623983147356356
 10
12.152655594595
 20
1.627836170418134
 10
12.15437463565335
 20
1.631867025313504
 10
12.15579729032228
 20
1.628073279529616
 10
12.15692355860185
 20
1.624338811023623
 10
12.15775344049208
 20
1.620722897073368
 10
12.15834621327083
 20
1.617225537678856
 10
12.15870187693809
 20
1.613846732840083
 10
12.15882043149379
 20
1.610764314390686
 10
12.15882043149379
 20
1.607859727774923
 10
12.15870187693809
 20
1.605251527548488
 10
12.1501066716465
 20
1.605251527548488
  0
TEXT
  5
C6
330
17
100
AcDbEntity
  8
3
100
AcDbText
 10
12.06360566852668
 20
1.425218385710794
 30
0.0
 40
0.0390761491069264
  1
NAME:
  7
SIMPLEX
100
AcDbText
  0
LWPOLYLINE
  5
C7
330
17
100
AcDbEntity
  8
4
  6
Continuous
100
AcDbPolyline
 90
       21
 70
     0
 43
0.0
 10
12.14708353047495
 20
1.757605381194095
 10
12.14708353047495
 20
1.601872722709718
 10
12.15372258559671
 20
1.53601566699277
 10
12.16160646355386
 20
1.601872722709718
 10
12.16160646355386
 20
1.75730899480472
 10
12.16142863172023
 20
1.75973936319752
 10
12.16095441349722
 20
1.761873345200946
 10
12.16024308616277
 20
1.763651663537149
 10
12.15935392699465
 20
1.765133595483978
 10
12.15822765871509
 20
1.766259863763582
 10
12.15698283587974
 20
1.767089745653813
 10
12.15567873576654
 20
1.767563963876777
 10
12.15437463565335
 20
1.767741795710409
 10
12.15301125826227
 20
1.767623241154668
 10
12.15170715814907
 20
1.767149022931661
 10
12.15046233531372
 20
1.766319141041432
 10
12.14933606703416
 20
1.765252150039718
 10
12.14844690786604
 20
1.763829495370782
 10
12.14773558053155
 20
1.762051177034579
 10
12.14726136230854
 20
1.759976472309045
 10
12.14708353047495
 20
1.757605381194095
  0
TEXT
  5
DE
330
17
100
AcDbEntity
  8
3
100
AcDbText
 10
12.05527492819528
 20
1.048988710554687
 30
0.0
 40
0.0390761491069264
  1
MAT'L DESCRIPTION:
  7
SIMPLEX
100
AcDbText
  0
TEXT
  5
DF
330
17
100
AcDbEntity
  8
3
100
AcDbText
 10
12.06150601655924
 20
1.186077063341495
 30
0.0
 40
0.0390761491069264
  1
FILE PATH:
  7
SIMPLEX
100
AcDbText
  0
LINE
  5
E0
330
17
100
AcDbEntity
  8
0
100
AcDbLine
 10
12.02190741727548
 20
1.134922461148744
 30
0.0
 11
14.7484846952539
 21
1.134922461148744
 31
0.0
  0
LINE
  5
E1
330
17
100
AcDbEntity
  8
0
100
AcDbLine
 10
12.02190741727543
 20
1.268913789283074
 30
0.0
 11
16.15
 21
1.268913789283074
 31
0.0
  0
LINE
  5
E2
330
17
100
AcDbEntity
  8
0
100
AcDbLine
 10
12.02190741727543
 20
1.506851047390886
 30
0.0
 11
16.15
 21
1.506851047390886
 31
0.0
  0
LINE
  5
E3
330
17
100
AcDbEntity
  8
0
100
AcDbLine
 10
12.02190741727548
 20
0.7999999999999555
 30
0.0
 11
12.02190741727548
 21
1.815979876780057
 31
0.0
  0
LINE
  5
E4
330
17
100
AcDbEntity
  8
4
100
AcDbLine
 10
11.00592754049533
 20
1.816000699999953
 30
0.0
 11
11.00592754049533
 21
0.7999999999999555
 31
0.0
  0
TEXT
  5
E5
330
17
100
AcDbEntity
  8
3
100
AcDbText
 10
11.06453828590886
 20
1.17953383386011
 30
0.0
 40
0.0618196890168171
  1
FRACTIONS %%P 1/32
  7
SIMPLEX
 72
     1
 11
11.51788267203219
 21
1.17953383386011
 31
0.0
100
AcDbText
  0
TEXT
  5
E6
330
17
100
AcDbEntity
  8
3
100
AcDbText
 10
11.23691884213561
 20
0.8181221239476894
 30
0.0
 40
0.0420373885314357
  1
READ ALL NOTES
  7
SIMPLEX
 72
     1
 11
11.50916097738681
 21
0.8181221239476894
 31
0.0
100
AcDbText
  0
TEXT
  5
E7
330
17
100
AcDbEntity
  8
3
100
AcDbText
 10
11.27295088944826
 20
0.878015008573768
 30
0.0
 40
0.0420373885314357
  1
DO NOT SCALE
  7
SIMPLEX
 72
     1
 11
11.50916097738681
 21
0.878015008573768
 31
0.0
100
AcDbText
  0
TEXT
  5
E8
330
17
100
AcDbEntity
  8
3
100
AcDbText
 10
11.18229007451232
 20
0.9675806143738487
 30
0.0
 40
0.0618196890168171
  1
HOLES %%P .005
  7
SIMPLEX
 72
     1
 11
11.51788267203219
 21
0.9675806143738487
 31
0.0
100
AcDbText
  0
TEXT
  5
E9
330
17
100
AcDbEntity
  8
3
100
AcDbText
 10
11.154324024719
 20
1.073557224116977
 30
0.0
 40
0.0618196890168171
  1
ANGLES %%P 1/2%%D
  7
SIMPLEX
 72
     1
 11
11.51788267203219
 21
1.073557224116977
 31
0.0
100
AcDbText
  0
LINE
  5
EA
330
17
100
AcDbEntity
  8
0
100
AcDbLine
 10
11.00592754049533
 20
0.9407304289564734
 30
0.0
 11
12.02190741727548
 21
0.9407304289564734
 31
0.0
  0
TEXT
  5
EB
330
17
100
AcDbEntity
  8
3
100
AcDbText
 10
11.03649818959209
 20
1.73724471124794
 30
0.0
 40
0.0495371109926942
  1
UNLESS OTHERWISE SPECIFIED
 41
0.8436671689696897
  7
SIMPLEX
 72
     5
 11
11.98977283611965
 21
1.73724471124794
 31
0.0
100
AcDbText
  0
TEXT
  5
EC
330
17
100
AcDbEntity
  8
3
100
AcDbText
 10
11.03649818959209
 20
1.617010761484771
 30
0.0
 40
0.0495371109926942
  1
DIMENSIONS ARE IN INCHES
 41
0.9163641132346509
  7
SIMPLEX
 72
     5
 11
11.98977283611965
 21
1.617010761484771
 31
0.0
100
AcDbText
  0
TEXT
  5
ED
330
17
100
AcDbEntity
  8
3
100
AcDbText
 10
11.18964956130004
 20
1.285510443603197
 30
0.0
 40
0.0618196890168171
  1
.XXX %%P .005 
  7
SIMPLEX
 72
     1
 11
11.51788267203219
 21
1.285510443603197
 31
0.0
100
AcDbText
  0
TEXT
  5
EE
330
17
100
AcDbEntity
  8
3
100
AcDbText
 10
11.26177253181966
 20
1.391487053346327
 30
0.0
 40
0.0618196890168171
  1
.XX %%P .010
  7
SIMPLEX
 72
     1
 11
11.51788267203219
 21
1.391487053346327
 31
0.0
100
AcDbText
  0
TEXT
  5
EF
330
17
100
AcDbEntity
  8
3
100
AcDbText
 10
11.23086268731125
 20
1.487547199255821
 30
0.0
 40
0.0618196890168171
  1
TOLERANCES
  7
SIMPLEX
 72
     1
 11
11.51788267203219
 21
1.487547199255821
 31
0.0
100
AcDbText
  0
LINE
  5
F0
330
17
100
AcDbEntity
  8
0
100
AcDbLine
 10
11.00592754049533
 20
1.698751429459288
 30
0.0
 11
12.02190741727548
 21
1.698751429459288
 31
0.0
  0
LINE
  5
F1
330
17
100
AcDbEntity
  8
0
100
AcDbLine
 10
11.00592754049533
 20
1.581522982138518
 30
0.0
 11
12.02190741727548
 21
1.581522982138518
 31
0.0
  0
LWPOLYLINE
  5
F2
330
17
100
AcDbEntity
  8
4
  6
Continuous
100
AcDbPolyline
 90
       21
 70
     0
 43
0.0
 10
12.09841226355016
 20
1.74742597861269
 10
12.09841226355016
 20
1.60193199998761
 10
12.10570336872852
 20
1.53601566699277
 10
12.1132315830184
 20
1.601635613598235
 10
12.1132315830184
 20
1.747959474113546
 10
12.11305375118477
 20
1.750330565228455
 10
12.1125795329618
 20
1.752345992676139
 10
12.11186820562731
 20
1.754065033734448
 10
12.11091976918134
 20
1.755487688403428
 10
12.10979350090173
 20
1.75649540212725
 10
12.10854867806643
 20
1.757266006739586
 10
12.10718530067535
 20
1.757680947684703
 10
12.10582192328426
 20
1.757799502240446
 10
12.10445854589317
 20
1.757562393128963
 10
12.10309516850208
 20
1.757028897628105
 10
12.10185034566678
 20
1.756199015737873
 10
12.10072407738718
 20
1.755072747458313
 10
12.09977564094125
 20
1.753590815511484
 10
12.09906431360672
 20
1.751871774453133
 10
12.09859009538376
 20
1.749797069727599
 10
12.09841226355016
 20
1.74742597861269
  0
LWPOLYLINE
  5
109
330
17
100
AcDbEntity
  8
4
  6
Continuous
100
AcDbPolyline
 90
       21
 70
     0
 43
0.0
 10
12.12307392204084
 20
1.771701683024873
 10
12.12307392204084
 20
1.601872722709718
 10
12.12971297716263
 20
1.53601566699277
 10
12.13759685511974
 20
1.601872722709718
 10
12.13759685511974
 20
1.771405296635498
 10
12.13741902328615
 20
1.7738356650283
 10
12.13694480506315
 20
1.775969647031724
 10
12.13623347772866
 20
1.777747965367928
 10
12.13534431856057
 20
1.779229897314755
 10
12.13421805028097
 20
1.780356165594358
 10
12.13297322744563
 20
1.781186047484546
 10
12.13166912733243
 20
1.781660265707554
 10
12.13036502721924
 20
1.781838097541142
 10
12.12900164982815
 20
1.781719542985404
 10
12.12769754971495
 20
1.78124532476244
 10
12.12645272687961
 20
1.780415442872208
 10
12.12532645860004
 20
1.779348451870498
 10
12.12443729943192
 20
1.77792579720156
 10
12.12372597209748
 20
1.776147478865358
 10
12.12325175387447
 20
1.774072774139781
 10
12.12307392204084
 20
1.771701683024873
  0
LWPOLYLINE
  5
120
330
17
100
AcDbEntity
  8
4
  6
Continuous
100
AcDbPolyline
 90
       18
 70
     0
 43
0.0
 10
12.11068266006986
 20
1.601754168153976
 10
12.11068266006986
 20
1.600805731708004
 10
12.11056410551412
 20
1.599857295262034
 10
12.11026771912475
 20
1.598968136093954
 10
12.10979350090173
 20
1.598078976925873
 10
12.10920072812303
 20
1.597308372313491
 10
12.1083708462328
 20
1.596715599534784
 10
12.10742240978683
 20
1.59630065858967
 10
12.10623686422938
 20
1.596182104033929
 10
12.10505131867192
 20
1.59635993586752
 10
12.1040436049481
 20
1.596715599534784
 10
12.10315444577998
 20
1.597249095035643
 10
12.10238384116764
 20
1.598019699647981
 10
12.10185034566678
 20
1.598849581538213
 10
12.10137612744382
 20
1.599738740706293
 10
12.1011390183323
 20
1.600746454430155
 10
12.10102046377655
 20
1.601754168153976
 10
12.11068266006986
 20
1.601754168153976
  0
LWPOLYLINE
  5
134
330
17
100
AcDbEntity
  8
4
  6
Continuous
100
AcDbPolyline
 90
       18
 70
     0
 43
0.0
 10
12.10090190922082
 20
1.605014418437009
 10
12.10084263194296
 20
1.608452500553629
 10
12.10107974105445
 20
1.612009137226032
 10
12.10149468199952
 20
1.615565773898395
 10
12.10208745477826
 20
1.619063133292906
 10
12.10285805939061
 20
1.622382660853786
 10
12.10374721855873
 20
1.625346524747443
 10
12.10475493228255
 20
1.627954724973875
 10
12.10588120056215
 20
1.629970152421559
 10
12.10682963700808
 20
1.628014002251725
 10
12.1077780734541
 20
1.625524356581077
 10
12.10866723262218
 20
1.622501215409528
 10
12.10943783723452
 20
1.619122410570799
 10
12.11008988729112
 20
1.615565773898395
 10
12.11056410551412
 20
1.611949859948141
 10
12.11080121462561
 20
1.60839322327578
 10
12.11080121462561
 20
1.605014418437009
 10
12.10090190922082
 20
1.605014418437009
  0
LWPOLYLINE
  5
148
330
17
100
AcDbEntity
  8
4
  6
Continuous
100
AcDbPolyline
 90
       18
 70
     0
 43
0.0
 10
12.12609706321239
 20
1.605251527548488
 10
12.12603778593449
 20
1.60780045049703
 10
12.12603778593449
 20
1.610586482557053
 10
12.12603778593449
 20
1.6136096237286
 10
12.12627489504598
 20
1.61686987401159
 10
12.12668983599114
 20
1.620307956128251
 10
12.12746044060347
 20
1.623983147356356
 10
12.12864598616093
 20
1.627836170418134
 10
12.13036502721924
 20
1.631867025313504
 10
12.13178768188822
 20
1.628073279529616
 10
12.13291395016778
 20
1.624338811023623
 10
12.13374383205797
 20
1.620722897073368
 10
12.13433660483672
 20
1.617225537678856
 10
12.13469226850398
 20
1.613846732840083
 10
12.13481082305972
 20
1.610764314390686
 10
12.13481082305972
 20
1.607859727774923
 10
12.13469226850398
 20
1.605251527548488
 10
12.12609706321239
 20
1.605251527548488
  0
LWPOLYLINE
  5
15C
330
17
100
AcDbEntity
  8
4
  6
Continuous
100
AcDbPolyline
 90
       18
 70
     0
 43
0.0
 10
12.1345737139482
 20
1.601754168153976
 10
12.13451443667034
 20
1.600805731708004
 10
12.13439588211461
 20
1.599857295262034
 10
12.13409949572523
 20
1.599027413371804
 10
12.13374383205797
 20
1.598256808759463
 10
12.13315105927926
 20
1.597545481425018
 10
12.13243973194477
 20
1.59701198592412
 10
12.13160985005454
 20
1.596656322256895
 10
12.13054285905283
 20
1.596478490423263
 10
12.129535145329
 20
1.596537767701154
 10
12.12858670888303
 20
1.596834154090529
 10
12.12787538154855
 20
1.597367649591383
 10
12.12728260876984
 20
1.598078976925873
 10
12.12680839054683
 20
1.59890885881606
 10
12.12645272687961
 20
1.599798017984183
 10
12.12621561776812
 20
1.600746454430155
 10
12.12615634049028
 20
1.601754168153976
 10
12.1345737139482
 20
1.601754168153976
  0
LINE
  5
170
330
17
100
AcDbEntity
  8
0
100
AcDbLine
 10
12.13021801798543
 20
1.781825314129531
 30
0.0
 11
12.13021801798543
 21
1.781825314129531
 31
0.0
  0
LWPOLYLINE
  5
171
330
17
100
AcDbEntity
  8
4
  6
Continuous
100
AcDbPolyline
 90
       88
 70
     0
 43
0.0
 10
15.1242775545325
 20
1.72937324952215
 10
15.02954509769274
 20
1.72937324952215
 10
15.03214843238451
 20
1.727348433650779
 10
15.03475176707628
 20
1.725034358369184
 10
15.03706584235787
 20
1.722431023677416
 10
15.03923528793433
 20
1.719827688985604
 10
15.04097084439553
 20
1.716790465178524
 10
15.04227251174141
 20
1.713753241371446
 10
15.04314028997202
 20
1.7102821284491
 10
15.04357417908729
 20
1.706811015526711
 10
15.04357417908729
 20
1.606293370482968
 10
15.01913175892557
 20
1.579536875039655
 10
15.10634347110024
 20
1.579536875039655
 10
15.10807902756144
 20
1.579536875039655
 10
15.10981458402259
 20
1.579826134449833
 10
15.11155014048383
 20
1.57997076415492
 10
15.11314106723989
 20
1.58040465327023
 10
15.11487662370108
 20
1.58083854238554
 10
15.11661218016228
 20
1.581417061205939
 10
15.11820310691834
 20
1.581995580026338
 10
15.11993866337953
 20
1.58286335825691
 10
15.12152959013564
 20
1.583586506782399
 10
15.1231205168917
 20
1.584454285013015
 10
15.12456681394272
 20
1.58546669294868
 10
15.12601311099374
 20
1.586479100884389
 10
15.12745940804471
 20
1.587636138525184
 10
15.12890570509568
 20
1.588793176165983
 10
15.13006274273648
 20
1.589950213806775
 10
15.13136441008236
 20
1.59125188115266
 10
15.13483552300475
 20
1.595590772305626
 10
15.13758348740161
 20
1.600652811984075
 10
15.13960830327303
 20
1.606004111072748
 10
15.14076534091382
 20
1.611500039866506
 10
15.14090997061891
 20
1.617140598365355
 10
15.14004219238829
 20
1.622347267748939
 10
15.13787274681179
 20
1.6272646777223
 10
15.13454626359457
 20
1.631603568875265
 10
15.10301698788299
 20
1.618008376595975
 10
15.10460791463905
 20
1.615694301314384
 10
15.10590958198494
 20
1.613090966622611
 10
15.10692198992064
 20
1.610487631930801
 10
15.10764513844613
 20
1.607739667533941
 10
15.10807902756144
 20
1.604991703137041
 10
15.10807902756144
 20
1.602243738740181
 10
15.10764513844613
 20
1.599495774343282
 10
15.10677736021555
 20
1.59689243965151
 10
15.10562032257476
 20
1.595012253485228
 10
15.10431865522887
 20
1.593276697024034
 10
15.10258309876768
 20
1.591685770267972
 10
15.10084754230649
 20
1.590528732627175
 10
15.09882272643507
 20
1.589516324691466
 10
15.09679791056374
 20
1.58864854646089
 10
15.09462846498724
 20
1.588214657345583
 10
15.09245901941073
 20
1.588070027640495
 10
15.04314028997202
 20
1.588070027640495
 10
15.07582660332436
 20
1.621913378633629
 10
15.07582660332436
 20
1.654888951396189
 10
15.11429810488069
 20
1.654888951396189
 10
15.11429810488069
 20
1.666459327804109
 10
15.07640512214476
 20
1.666459327804109
 10
15.07640512214476
 20
1.710426758154189
 10
15.06960752600512
 20
1.720984726626399
 10
15.09144661147503
 20
1.720984726626399
 10
15.09636402144839
 20
1.720695467216223
 10
15.10041365319121
 20
1.719538429575425
 10
15.10359550670334
 20
1.717658243409144
 10
15.10590958198494
 20
1.715054908717372
 10
15.10721124933082
 20
1.712017684910293
 10
15.10764513844613
 20
1.708546571987906
 10
15.10706661962573
 20
1.704641569950251
 10
15.10547569286966
 20
1.700736567912553
 10
15.13931904386281
 20
1.690467858850522
 10
15.1416331191444
 20
1.692926563837201
 10
15.14336867560559
 20
1.695674528234103
 10
15.14467034295148
 20
1.698711752041179
 10
15.14539349147696
 20
1.701748975848262
 10
15.14568275088718
 20
1.704930829360429
 10
15.14539349147696
 20
1.708257312577686
 10
15.14481497265657
 20
1.711439166089895
 10
15.14380256472086
 20
1.714621019602063
 10
15.14250089737497
 20
1.717513613704054
 10
15.14076534091382
 20
1.720406207806
 10
15.13874052504241
 20
1.722864912792684
 10
15.13628182005573
 20
1.725034358369184
 10
15.13367848536396
 20
1.72691454453547
 10
15.13078589126196
 20
1.728216211881351
 10
15.1276040377498
 20
1.729083990111973
 10
15.1242775545325
 20
1.72937324952215
  0
TEXT
  5
1CB
330
17
100
AcDbEntity
  8
3
100
AcDbText
 10
15.20702417188102
 20
1.161751422157339
 30
0.0
 40
0.038763539914071
  1
OF
  7
SIMPLEX
100
AcDbText
  0
LINE
  5
1CC
330
17
100
AcDbEntity
  8
0
100
AcDbLine
 10
14.7484846952539
 20
1.088837136489869
 30
0.0
 11
16.15
 21
1.088837136489869
 31
0.0
  0
TEXT
  5
1CD
330
17
100
AcDbEntity
  8
3
100
AcDbText
 10
14.88524335106836
 20
0.8589523399345051
 30
0.0
 40
0.0875305739995151
  1
4060.03/.15
  7
SIMPLEX
 72
     1
 11
15.28538311792329
 21
0.8589523399345051
 31
0.0
100
AcDbText
  0
TEXT
  5
1CE
330
17
100
AcDbEntity
  8
3
100
AcDbText
 10
13.67499338598301
 20
1.311149142688043
 30
0.0
 40
0.0781522982138528
  1
CORK GASKET
  7
SIMPLEX
 72
     1
 11
14.08622333610829
 21
1.311149142688043
 31
0.0
100
AcDbText
  0
LWPOLYLINE
  5
1CF
330
17
100
AcDbEntity
  8
4
  6
Continuous
100
AcDbPolyline
 90
       46
 70
     0
 43
0.0
 10
13.56765688277495
 20
1.731542695098654
 10
13.48912295290625
 20
1.731542695098654
 10
13.4908585093674
 20
1.729228619817061
 10
13.4925940658286
 20
1.726625285125249
 10
13.49404036287962
 20
1.724021950433479
 10
13.4953420302255
 20
1.721273986036622
 10
13.49649906786629
 20
1.71838139193463
 10
13.49736684609682
 20
1.715488797832639
 10
13.49794536491727
 20
1.71274083343578
 10
13.49808999462235
 20
1.709848239333791
 10
13.49808999462235
 20
1.576355021527485
 10
13.53309038325629
 20
1.610053742815534
 10
13.53309038325629
 20
1.669930440726495
 10
13.58023966711854
 20
1.669930440726495
 10
13.58327689092566
 20
1.670075070431585
 10
13.58645874443778
 20
1.670219700136676
 10
13.58935133853982
 20
1.670653589251983
 10
13.59238856234685
 20
1.671232108072379
 10
13.59513652674371
 20
1.672099886302958
 10
13.59788449114061
 20
1.673256923943753
 10
13.60048782583243
 20
1.674558591289639
 10
13.60294653081911
 20
1.676149518045743
 10
13.60511597639557
 20
1.678029704212026
 10
13.60699616256185
 20
1.680343779493619
 10
13.60873171902304
 20
1.6828024844803
 10
13.61017801607406
 20
1.68569507858229
 10
13.61119042400973
 20
1.689021561799546
 10
13.6120582022403
 20
1.692637304427024
 10
13.61249209135561
 20
1.696686936169809
 10
13.61249209135561
 20
1.701170457027864
 10
13.6120582022403
 20
1.705943237296136
 10
13.61119042400973
 20
1.7102821284491
 10
13.60974412695871
 20
1.714042500781665
 10
13.60800857049756
 20
1.717368983998924
 10
13.60569449521596
 20
1.720261578100914
 10
13.60323579022929
 20
1.722720283087592
 10
13.6003431961273
 20
1.724745098958964
 10
13.59730597232022
 20
1.726480655420159
 10
13.59383485939783
 20
1.727926952471175
 10
13.59036374647548
 20
1.729083990111973
 10
13.586748003848
 20
1.729951768342549
 10
13.58298763151544
 20
1.730530287162946
 10
13.57908262947774
 20
1.731108805983343
 10
13.57517762744009
 20
1.731398065393523
 10
13.57141725510752
 20
1.731542695098654
 10
13.56765688277495
 20
1.731542695098654
  0
TEXT
  5
1FF
330
17
100
AcDbEntity
  8
3
100
AcDbText
 10
12.59262562876716
 20
0.891576752929015
 30
0.0
 40
0.078
  1
3/32" THK. CORK GASKET
  7
SIMPLEX
 72
     1
 11
13.38562562876716
 21
0.891576752929015
 31
0.0
100
AcDbText
  0
TEXT
  5
200
330
17
100
AcDbEntity
  8
3
100
AcDbText
 10
12.89492652307461
 20
1.172721701144439
 30
0.0
 40
0.0581453098711065
  1
DWG/PART NO.406003
  7
SIMPLEX
 72
     1
 11
13.38916165697902
 21
1.172721701144439
 31
0.0
100
AcDbText
  0
LWPOLYLINE
  5
201
330
17
100
AcDbEntity
  8
4
  6
Continuous
 62
     4
100
AcDbPolyline
 90
       96
 70
     0
 43
0.0
 10
12.95803218137087
 20
1.578524467103948
 10
12.95571810608928
 20
1.57997076415492
 10
12.9532594011026
 20
1.581706320616115
 10
12.95065606641083
 20
1.58387576619262
 10
12.94834199112924
 20
1.586334471179299
 10
12.94617254555273
 20
1.589082435576159
 10
12.94443698909158
 20
1.592408918793458
 10
12.94327995145079
 20
1.596024661420934
 10
12.94284606233544
 20
1.600218922868809
 10
12.94284606233544
 20
1.696108417349411
 10
12.94255680292526
 20
1.700158049092155
 10
12.94197828410486
 20
1.70391842142472
 10
12.94082124646411
 20
1.707534164052198
 10
12.93937494941309
 20
1.710860647269498
 10
12.9376393929519
 20
1.714187130486754
 10
12.93546994737539
 20
1.717079724588745
 10
12.93301124238871
 20
1.719827688985604
 10
12.93026327799185
 20
1.722431023677416
 10
12.92737068388991
 20
1.724745098958964
 10
12.92418883037769
 20
1.726769914830381
 10
12.92086234716039
 20
1.728505471291573
 10
12.91753586394318
 20
1.730096398047638
 10
12.9139201213157
 20
1.731253435688433
 10
12.91030437868823
 20
1.73212121391905
 10
12.90654400635566
 20
1.732844362444539
 10
12.90278363402305
 20
1.733133621854715
 10
12.90018029933124
 20
1.733133621854715
 10
12.89757696463947
 20
1.733133621854715
 10
12.89511825965279
 20
1.732844362444539
 10
12.89251492496102
 20
1.732555103034318
 10
12.89005621997434
 20
1.73212121391905
 10
12.88745288528257
 20
1.731398065393523
 10
12.88499418029589
 20
1.730674916868037
 10
12.8825354753092
 20
1.729951768342549
 10
12.88007677032252
 20
1.72893936040684
 10
12.87776269504093
 20
1.727926952471175
 10
12.87544861975934
 20
1.726769914830381
 10
12.87313454447775
 20
1.725612877189584
 10
12.87082046919615
 20
1.72416658013861
 10
12.86865102361973
 20
1.722864912792684
 10
12.86648157804324
 20
1.721418615741708
 10
12.86445676217182
 20
1.719827688985604
 10
12.86358898394124
 20
1.721852504857019
 10
12.86243194630045
 20
1.724021950433479
 10
12.86084101954434
 20
1.726046766304894
 10
12.85910546308319
 20
1.727926952471175
 10
12.85736990662196
 20
1.729517879227238
 10
12.8556343501608
 20
1.730819546573123
 10
12.85404342340474
 20
1.731687324803741
 10
12.85288638576394
 20
1.731976584213922
 10
12.8174521080147
 20
1.731976584213922
 10
12.81962155359116
 20
1.729951768342549
 10
12.82208025857784
 20
1.727637693060956
 10
12.82482822297475
 20
1.724889728664098
 10
12.82743155766652
 20
1.721707875151929
 10
12.8298902626532
 20
1.718092132524454
 10
12.83177044881948
 20
1.714331760191844
 10
12.8332167458705
 20
1.71013749874401
 10
12.83365063498576
 20
1.705798607591004
 10
12.83365063498576
 20
1.578669096809035
 10
12.86619231863306
 20
1.604991703137041
 10
12.86619231863306
 20
1.696976195579988
 10
12.86633694833815
 20
1.699290270861579
 10
12.86677083745341
 20
1.70145971643804
 10
12.86763861568403
 20
1.703484532309454
 10
12.86865102361973
 20
1.705509348180826
 10
12.86980806126049
 20
1.707534164052198
 10
12.87125435831151
 20
1.709269720513394
 10
12.87298991477266
 20
1.711005276974588
 10
12.87472547123385
 20
1.712596203730693
 10
12.87675028710522
 20
1.713897871076578
 10
12.87877510297664
 20
1.715054908717372
 10
12.88094454855314
 20
1.716211946358169
 10
12.8831139941296
 20
1.716935094883655
 10
12.88542806941115
 20
1.717658243409144
 10
12.88774214469275
 20
1.717947502819321
 10
12.88991159026925
 20
1.71823676222954
 10
12.89222566555084
 20
1.718092132524454
 10
12.89584140817832
 20
1.717513613704054
 10
12.8993125211007
 20
1.716356576063257
 10
12.90263900431796
 20
1.714765649307154
 10
12.90553159841995
 20
1.712596203730693
 10
12.90799030340663
 20
1.709992869038879
 10
12.90987048957287
 20
1.7069556452318
 10
12.91102752721367
 20
1.703339902604323
 10
12.91146141632902
 20
1.699290270861579
 10
12.91146141632902
 20
1.596603180241331
 10
12.91189530544429
 20
1.592842807908765
 10
12.91305234308509
 20
1.589371694986379
 10
12.91478789954628
 20
1.586334471179299
 10
12.91724660453291
 20
1.583731136487531
 10
12.92013919863495
 20
1.581561690911025
 10
12.92346568185221
 20
1.579826134449833
 10
12.92708142447969
 20
1.578813726514169
 10
12.93098642651734
 20
1.578524467103948
 10
12.95803218137087
 20
1.578524467103948
  0
LWPOLYLINE
  5
263
330
17
100
AcDbEntity
  8
4
  6
Continuous
100
AcDbPolyline
 90
      271
 70
     0
 43
0.0
 10
12.62887902853886
 20
1.670508959546894
 10
12.62685421266749
 20
1.671665997187691
 10
12.62482939679608
 20
1.672678405123356
 10
12.62265995121962
 20
1.673546183353974
 10
12.62063513534824
 20
1.674413961584549
 10
12.61846568977174
 20
1.675281739815126
 10
12.61629624419524
 20
1.675860258635524
 10
12.61412679861878
 20
1.676583407161053
 10
12.61195735304232
 20
1.67716192598145
 10
12.60964327776073
 20
1.677595815096719
 10
12.60747383218422
 20
1.67788507450694
 10
12.60501512719754
 20
1.678174333917116
 10
12.60270105191595
 20
1.678463593327335
 10
12.60024234692927
 20
1.678608223032425
 10
12.59778364194258
 20
1.678608223032425
 10
12.5953249369559
 20
1.678608223032425
 10
12.59272160226413
 20
1.678463593327335
 10
12.55858899186078
 20
1.648091355256545
 10
12.56119232655255
 20
1.648669874076944
 10
12.56379566124432
 20
1.64924839289734
 10
12.56639899593613
 20
1.649826911717739
 10
12.56900233062794
 20
1.650260800833049
 10
12.57160566531971
 20
1.650694689948315
 10
12.57420900001148
 20
1.650983949358536
 10
12.57681233470325
 20
1.651273208768714
 10
12.57956029910011
 20
1.651417838473803
 10
12.58216363379188
 20
1.651562468178934
 10
12.58476696848369
 20
1.651562468178934
 10
12.58737030317551
 20
1.651562468178934
 10
12.58997363786727
 20
1.651417838473803
 10
12.59257697255905
 20
1.651128579063624
 10
12.59518030725082
 20
1.650694689948315
 10
12.59778364194258
 20
1.650260800833049
 10
12.60038697663435
 20
1.64968228201265
 10
12.60212253309559
 20
1.649103763192253
 10
12.60400271926183
 20
1.648669874076944
 10
12.60573827572303
 20
1.647946725551455
 10
12.60747383218422
 20
1.647368206731058
 10
12.60920938864542
 20
1.646645058205571
 10
12.61094494510661
 20
1.645921909680043
 10
12.61253587186267
 20
1.645054131449465
 10
12.61427142832391
 20
1.64418635321889
 10
12.61586235507997
 20
1.643173945283185
 10
12.61730865213095
 20
1.642161537347475
 10
12.61875494918192
 20
1.641149129411811
 10
12.62020124623293
 20
1.639992091771015
 10
12.62150291357882
 20
1.63869042442513
 10
12.6228045809247
 20
1.637388757079245
 10
12.6239616185655
 20
1.635942460028229
 10
12.6251186562063
 20
1.634496162977255
 10
12.62685421266749
 20
1.631892828285443
 10
12.62830050971846
 20
1.629000234183495
 10
12.62931291765417
 20
1.626107640081504
 10
12.63003606617966
 20
1.622925786569338
 10
12.63046995529497
 20
1.61988856276226
 10
12.63032532558988
 20
1.61670670925009
 10
12.62960217706435
 20
1.61366948544301
 10
12.62844513942356
 20
1.61077689134102
 10
12.6267095829624
 20
1.60817355664925
 10
12.62468476709099
 20
1.606004111072748
 10
12.6223706918094
 20
1.604123924906465
 10
12.61962272741254
 20
1.602532998150359
 10
12.61673013331059
 20
1.601231330804474
 10
12.61383753920856
 20
1.600218922868809
 10
12.61065568569643
 20
1.59935114463819
 10
12.60761846188931
 20
1.598772625817793
 10
12.60617216483834
 20
1.598627996112706
 10
12.60458123808227
 20
1.598338736702525
 10
12.60313494103125
 20
1.598194106997395
 10
12.60154401427515
 20
1.598194106997395
 10
12.59995308751909
 20
1.598049477292307
 10
12.59850679046812
 20
1.598049477292307
 10
12.59691586371197
 20
1.598049477292307
 10
12.5953249369559
 20
1.598049477292307
 10
12.59387863990493
 20
1.598049477292307
 10
12.59228771314887
 20
1.598194106997395
 10
12.59069678639272
 20
1.598194106997395
 10
12.58910585963666
 20
1.598483366407617
 10
12.58765956258568
 20
1.598627996112706
 10
12.58606863582958
 20
1.598917255522926
 10
12.58462233877856
 20
1.599206514933101
 10
12.5830314120225
 20
1.599495774343282
 10
12.58129585556135
 20
1.599929663458589
 10
12.57956029910011
 20
1.600363552573899
 10
12.57796937234405
 20
1.600942071394295
 10
12.57623381588285
 20
1.601520590214694
 10
12.57464288912675
 20
1.602243738740181
 10
12.57305196237069
 20
1.602966887265668
 10
12.57146103561458
 20
1.603834665496285
 10
12.56987010885848
 20
1.604702443726861
 10
12.5684238118075
 20
1.60557022195744
 10
12.56683288505144
 20
1.606582629893147
 10
12.56538658800042
 20
1.607595037828853
 10
12.56394029094941
 20
1.608607445764518
 10
12.56249399389843
 20
1.609619853700225
 10
12.56119232655255
 20
1.61077689134102
 10
12.55974602950158
 20
1.611933928981815
 10
12.55844436215569
 20
1.613090966622611
 10
12.55627491657919
 20
1.615260412199075
 10
12.55425010070781
 20
1.617574487480666
 10
12.55222528483644
 20
1.61988856276226
 10
12.55020046896503
 20
1.622202638043851
 10
12.54832028279879
 20
1.624516713325401
 10
12.54658472633755
 20
1.62697541831208
 10
12.54470454017131
 20
1.629578753003895
 10
12.54311361341516
 20
1.632037457990573
 10
12.5415226866591
 20
1.634640792682344
 10
12.54007638960812
 20
1.637388757079245
 10
12.53877472226224
 20
1.639992091771015
 10
12.53747305491636
 20
1.642740056167873
 10
12.53631601727556
 20
1.645632650269863
 10
12.53544823904494
 20
1.648380614666725
 10
12.53458046081437
 20
1.651417838473803
 10
12.53385731228888
 20
1.654310432575793
 10
12.53284490435317
 20
1.660963399010349
 10
12.5324110152379
 20
1.667905624855081
 10
12.53284490435317
 20
1.674847850699859
 10
12.53400194199397
 20
1.681500817134415
 10
12.53602675786534
 20
1.687864524158752
 10
12.53906398167242
 20
1.693649712362732
 10
12.54296898371007
 20
1.698856381746271
 10
12.54788639368344
 20
1.703050643194147
 10
12.54962195014467
 20
1.704063051129853
 10
12.55135750660582
 20
1.704930829360429
 10
12.55323769277215
 20
1.705798607591004
 10
12.5549732492333
 20
1.706521756116534
 10
12.55685343539963
 20
1.707100274936933
 10
12.55887825127095
 20
1.707678793757331
 10
12.56075843743728
 20
1.708112682872598
 10
12.56278325330865
 20
1.708401942282818
 10
12.56466343947493
 20
1.708691201692995
 10
12.56668825534635
 20
1.708835831398082
 10
12.56871307121768
 20
1.708835831398082
 10
12.57073788708909
 20
1.708835831398082
 10
12.57276270296051
 20
1.708835831398082
 10
12.57478751883184
 20
1.708691201692995
 10
12.57666770499816
 20
1.708401942282818
 10
12.57869252086954
 20
1.708112682872598
 10
12.58129585556135
 20
1.707678793757331
 10
12.58389919025312
 20
1.707100274936933
 10
12.58650252494489
 20
1.706521756116534
 10
12.58896122993157
 20
1.705653977885915
 10
12.59141993491825
 20
1.70478619965534
 10
12.59387863990493
 20
1.703773791719632
 10
12.59633734489161
 20
1.702761383783968
 10
12.59879604987829
 20
1.701604346143171
 10
12.60111012515988
 20
1.700302678797245
 10
12.60327957073639
 20
1.69900101145136
 10
12.60559364601794
 20
1.697410084695296
 10
12.6077630915944
 20
1.695963787644281
 10
12.6099325371709
 20
1.694228231183129
 10
12.61195735304232
 20
1.692637304427024
 10
12.61398216891368
 20
1.690757118260741
 10
12.61586235507997
 20
1.688876932094458
 10
12.64261885052329
 20
1.703339902604323
 10
12.64088329406205
 20
1.706521756116534
 10
12.63885847819072
 20
1.709414350218479
 10
12.63654440290913
 20
1.712162314615384
 10
12.63394106821736
 20
1.714621019602063
 10
12.63119310382046
 20
1.716935094883655
 10
12.62815588001337
 20
1.718959910755029
 10
12.6251186562063
 20
1.720840096921311
 10
12.62193680269413
 20
1.722575653382505
 10
12.61947809770745
 20
1.723732691023299
 10
12.61687476301568
 20
1.724889728664098
 10
12.614416058029
 20
1.725902136599763
 10
12.61181272333723
 20
1.726769914830381
 10
12.60906475894028
 20
1.727637693060956
 10
12.60646142424851
 20
1.728216211881351
 10
12.60371345985165
 20
1.728794730701753
 10
12.6009654954548
 20
1.729228619817061
 10
12.59821753105789
 20
1.729517879227238
 10
12.59546956666099
 20
1.72966250893237
 10
12.59257697255905
 20
1.729807138637458
 10
12.58982900816218
 20
1.729807138637458
 10
12.58708104376524
 20
1.72966250893237
 10
12.58433307936838
 20
1.72937324952215
 10
12.58158511497152
 20
1.72893936040684
 10
12.57883715057462
 20
1.728360841586443
 10
12.57623381588285
 20
1.727782322766045
 10
12.57377511089617
 20
1.72691454453547
 10
12.57117177620436
 20
1.726046766304894
 10
12.56871307121768
 20
1.725178988074275
 10
12.56639899593613
 20
1.724021950433479
 10
12.56394029094941
 20
1.722864912792684
 10
12.56162621566786
 20
1.721563245446799
 10
12.5593121403863
 20
1.720261578100914
 10
12.55699806510471
 20
1.718815281049939
 10
12.55482861952821
 20
1.717368983998924
 10
12.55265917395171
 20
1.71577805724286
 10
12.55048972837524
 20
1.714187130486754
 10
12.54832028279879
 20
1.712451574025559
 10
12.54629546692737
 20
1.710716017564409
 10
12.54412602135087
 20
1.708980461103215
 10
12.5421012054795
 20
1.707244904642021
 10
12.53920861137751
 20
1.704641569950251
 10
12.53646064698065
 20
1.702038235258438
 10
12.53371268258379
 20
1.699290270861579
 10
12.53110934789197
 20
1.69639767675959
 10
12.52850601320021
 20
1.6935050826576
 10
12.52604730821353
 20
1.690612488555651
 10
12.52373323293193
 20
1.687575264748573
 10
12.52141915765038
 20
1.684393411236363
 10
12.51939434177897
 20
1.681211557724194
 10
12.51736952590756
 20
1.67788507450694
 10
12.51548933974132
 20
1.674558591289639
 10
12.51389841298517
 20
1.671087478367294
 10
12.51245211593419
 20
1.667616365444902
 10
12.51115044858831
 20
1.664000622817428
 10
12.50999341094751
 20
1.66038488018995
 10
12.50912563271694
 20
1.656624507857384
 10
12.50825785448636
 20
1.651562468178934
 10
12.50782396537105
 20
1.64635579879535
 10
12.50767933566592
 20
1.641293759116899
 10
12.50782396537105
 20
1.63608708973332
 10
12.50840248419145
 20
1.631025050054866
 10
12.50941489212716
 20
1.625963010376417
 10
12.51071655947304
 20
1.620900970697966
 10
12.51245211593419
 20
1.616128190429692
 10
12.51360915357499
 20
1.613524855737879
 10
12.51491082092088
 20
1.610921521046109
 10
12.51621248826676
 20
1.608462816059429
 10
12.51780341502291
 20
1.606148740777835
 10
12.51939434177897
 20
1.603834665496285
 10
12.52112989824012
 20
1.601520590214694
 10
12.52301008440644
 20
1.59935114463819
 10
12.52489027057273
 20
1.597326328766819
 10
12.5269150864441
 20
1.595301512895449
 10
12.5290845320206
 20
1.593421326729164
 10
12.53125397759711
 20
1.591541140562839
 10
12.53342342317353
 20
1.589805584101688
 10
12.53573749845512
 20
1.588214657345583
 10
12.5381962034418
 20
1.586768360294608
 10
12.54065490842848
 20
1.585322063243592
 10
12.54311361341516
 20
1.584020395897709
 10
12.54889880161914
 20
1.581561690911025
 10
12.55482861952821
 20
1.579536875039655
 10
12.56090306714237
 20
1.578090577988639
 10
12.56712214446162
 20
1.576933540347883
 10
12.57334122178087
 20
1.576355021527485
 10
12.57956029910011
 20
1.576065762117265
 10
12.58577937641936
 20
1.576355021527485
 10
12.59214308344374
 20
1.577078170052975
 10
12.59821753105789
 20
1.57823520769377
 10
12.60414734896692
 20
1.579826134449833
 10
12.61007716687599
 20
1.581995580026338
 10
12.61571772537488
 20
1.584454285013015
 10
12.62106902446351
 20
1.587491508820098
 10
12.62613106414196
 20
1.590962621742485
 10
12.63090384441023
 20
1.59486762378014
 10
12.63538736526833
 20
1.599206514933101
 10
12.63871384848563
 20
1.603111516970758
 10
12.64175107229267
 20
1.607305778418635
 10
12.64449903668952
 20
1.611500039866506
 10
12.64681311197112
 20
1.616128190429692
 10
12.64883792784253
 20
1.620756340992834
 10
12.65042885459859
 20
1.625529121261105
 10
12.6514412625343
 20
1.630446531234469
 10
12.65216441105983
 20
1.63550857091292
 10
12.65230904076492
 20
1.639558202655706
 10
12.6520197813547
 20
1.64346320469336
 10
12.65129663282921
 20
1.647368206731058
 10
12.64999496548333
 20
1.651273208768714
 10
12.64825940902213
 20
1.65445506228088
 10
12.64623459315076
 20
1.657347656382872
 10
12.64377588816408
 20
1.660095620779773
 10
12.64117255347227
 20
1.662554325766454
 10
12.63827995937027
 20
1.664723771342915
 10
12.63524273556324
 20
1.66689321691942
 10
12.63206088205103
 20
1.6687734030857
 10
12.62887902853886
 20
1.670508959546894
  0
LWPOLYLINE
  5
374
330
17
100
AcDbEntity
  8
4
  6
Continuous
100
AcDbPolyline
 90
       83
 70
     0
 43
0.0
 10
12.30982292971477
 20
1.712596203730693
 10
12.30750885443318
 20
1.714765649307154
 10
12.30519477915159
 20
1.716935094883655
 10
12.30288070387004
 20
1.718959910755029
 10
12.30042199888336
 20
1.720840096921311
 10
12.29781866419155
 20
1.722431023677416
 10
12.2949260700896
 20
1.72387732072839
 10
12.29174421657739
 20
1.725178988074275
 10
12.28812847394991
 20
1.726046766304894
 10
12.22073103137382
 20
1.688732302389368
 10
12.22044177196364
 20
1.592553548498545
 10
12.22058640166873
 20
1.590962621742485
 10
12.2208756610789
 20
1.589227065281288
 10
12.22145417989935
 20
1.587780768230274
 10
12.22217732842479
 20
1.586334471179299
 10
12.22304510665541
 20
1.585032803833414
 10
12.22405751459112
 20
1.583731136487531
 10
12.22521455223192
 20
1.582718728551824
 10
12.2265162195778
 20
1.581706320616115
 10
12.2286856651543
 20
1.58040465327023
 10
12.23099974043585
 20
1.579247615629435
 10
12.23331381571744
 20
1.57823520769377
 10
12.23577252070412
 20
1.57736742946315
 10
12.2382312256908
 20
1.576788910642755
 10
12.24068993067749
 20
1.576210391822356
 10
12.24329326536926
 20
1.57577650270709
 10
12.24589660006107
 20
1.57534261359178
 10
12.24849993475284
 20
1.575197983886689
 10
12.25110326944461
 20
1.575053354181559
 10
12.25370660413638
 20
1.575053354181559
 10
12.25645456853324
 20
1.575197983886689
 10
12.25905790322505
 20
1.57534261359178
 10
12.26166123791686
 20
1.575631873001956
 10
12.26426457260863
 20
1.575921132412178
 10
12.2668679073004
 20
1.576355021527485
 10
12.26990513110748
 20
1.576788910642755
 10
12.27294235491456
 20
1.57751205916824
 10
12.27583494901651
 20
1.57823520769377
 10
12.27872754311854
 20
1.579102985924345
 10
12.28162013722049
 20
1.580115393860054
 10
12.28451273132243
 20
1.581272431500849
 10
12.28726069571938
 20
1.582574098846735
 10
12.29000866011624
 20
1.58387576619262
 10
12.29261199480801
 20
1.585322063243592
 10
12.29535995920487
 20
1.586912989999698
 10
12.29781866419155
 20
1.58864854646089
 10
12.30042199888336
 20
1.590384102922087
 10
12.30288070387004
 20
1.59226428908837
 10
12.30519477915159
 20
1.59414447525465
 10
12.30750885443318
 20
1.596169291126025
 10
12.30982292971477
 20
1.598194106997395
 10
12.31343867234225
 20
1.60195447932996
 10
12.31676515555955
 20
1.605859481367659
 10
12.31994700907172
 20
1.609909113110403
 10
12.32269497346862
 20
1.614248004263409
 10
12.32529830816039
 20
1.618876154826551
 10
12.32761238344198
 20
1.623504305389735
 10
12.32949256960822
 20
1.62827708565801
 10
12.33122812606946
 20
1.63319449563137
 10
12.33252979341534
 20
1.638111905604733
 10
12.33354220135101
 20
1.643318574988271
 10
12.33426534987649
 20
1.648380614666725
 10
12.33469923899181
 20
1.653587284050305
 10
12.33484386869689
 20
1.658649323728755
 10
12.33455460928668
 20
1.663855993112339
 10
12.33397609046632
 20
1.669062662495879
 10
12.3331083122357
 20
1.674124702174369
 10
12.33238516371021
 20
1.676872666571232
 10
12.33166201518473
 20
1.679620630968129
 10
12.33079423695411
 20
1.682368595364992
 10
12.32978182901845
 20
1.684971930056762
 10
12.32862479137765
 20
1.687575264748573
 10
12.32732312403176
 20
1.690178599440343
 10
12.32602145668584
 20
1.692637304427024
 10
12.32457515963486
 20
1.695096009413705
 10
12.3229842328788
 20
1.697554714400387
 10
12.32124867641761
 20
1.699868789681979
 10
12.31951311995641
 20
1.702182864963571
 10
12.31777756349522
 20
1.704352310540032
 10
12.31589737732893
 20
1.706521756116534
 10
12.31387256145756
 20
1.708546571987906
 10
12.31184774558619
 20
1.710571387859278
 10
12.30982292971477
 20
1.712596203730693
  0
LWPOLYLINE
  5
3C9
330
17
100
AcDbEntity
  8
4
  6
Continuous
100
AcDbPolyline
 90
       61
 70
     0
 43
0.0
 10
12.45096152095966
 20
1.664000622817428
 10
12.4551557824075
 20
1.664289882227649
 10
12.45920541415028
 20
1.664868401048047
 10
12.46282115677772
 20
1.665736179278622
 10
12.46614763999502
 20
1.66689321691942
 10
12.46904023409701
 20
1.66833951397039
 10
12.47178819849391
 20
1.669930440726495
 10
12.47424690348059
 20
1.671810626892781
 10
12.47641634905705
 20
1.673980072469241
 10
12.47829653522333
 20
1.676294147750833
 10
12.47988746197939
 20
1.678752852737514
 10
12.48118912932532
 20
1.681356187429284
 10
12.48220153726099
 20
1.684248781531274
 10
12.4830693154916
 20
1.687141375633264
 10
12.48364783431196
 20
1.690178599440343
 10
12.48393709372222
 20
1.693360452952511
 10
12.48408172342731
 20
1.696686936169809
 10
12.48393709372222
 20
1.699724159976889
 10
12.48335857490178
 20
1.702761383783968
 10
12.4826354263763
 20
1.705653977885915
 10
12.4814783887355
 20
1.708546571987906
 10
12.48017672138962
 20
1.711294536384763
 10
12.47858579463351
 20
1.713897871076578
 10
12.47670560846727
 20
1.716356576063257
 10
12.47468079259586
 20
1.71867065134485
 10
12.47236671731426
 20
1.720695467216223
 10
12.46990801232758
 20
1.722575653382505
 10
12.4674493073409
 20
1.72416658013861
 10
12.46470134294404
 20
1.725612877189584
 10
12.46180874884206
 20
1.726769914830381
 10
12.45891615474006
 20
1.727493063355868
 10
12.45587893093302
 20
1.728071582176266
 10
12.4528417071259
 20
1.728216211881351
 10
12.35160091355663
 20
1.728216211881351
 10
12.35304721060764
 20
1.727059174240558
 10
12.35434887795354
 20
1.725902136599763
 10
12.35565054529946
 20
1.724600469253878
 10
12.35680758294026
 20
1.723443431613081
 10
12.35796462058101
 20
1.722286393972285
 10
12.35912165822181
 20
1.720840096921311
 10
12.36013406615747
 20
1.719393799870338
 10
12.36114647409318
 20
1.717658243409144
 10
12.36259277114415
 20
1.714476389896977
 10
12.36374980878495
 20
1.710716017564409
 10
12.36447295731048
 20
1.707100274936933
 10
12.36476221672066
 20
1.704207680834943
 10
12.36490684642574
 20
1.574185575950985
 10
12.39976260535463
 20
1.604702443726861
 10
12.39976260535463
 20
1.665013030753135
 10
12.41509335409507
 20
1.665157660458224
 10
12.46730467763581
 20
1.578669096809035
 10
12.5122845159216
 20
1.57837983739886
 10
12.5095365515247
 20
1.57997076415492
 10
12.50678858712784
 20
1.581850950321245
 10
12.50418525243603
 20
1.583731136487531
 10
12.50158191774425
 20
1.585900582063993
 10
12.49912321275758
 20
1.587925397935364
 10
12.49680913747599
 20
1.590239473216954
 10
12.49449506219439
 20
1.592553548498545
 10
12.4921809869128
 20
1.595012253485228
 10
12.45096152095966
 20
1.664000622817428
  0
LWPOLYLINE
  5
408
330
17
100
AcDbEntity
  8
4
  6
Continuous
100
AcDbPolyline
 90
       59
 70
     0
 43
0.0
 10
12.25110326944461
 20
1.687719894453659
 10
12.26585549936469
 20
1.69900101145136
 10
12.26816957464629
 20
1.698856381746271
 10
12.27033902022279
 20
1.698567122336094
 10
12.27250846579925
 20
1.697988603515694
 10
12.27453328167062
 20
1.697410084695296
 10
12.27670272724713
 20
1.696542306464678
 10
12.27872754311854
 20
1.695529898529014
 10
12.28060772928478
 20
1.694372860888218
 10
12.28248791545111
 20
1.693071193542333
 10
12.28422347191226
 20
1.691769526196407
 10
12.28595902837345
 20
1.690323229145429
 10
12.28769458483465
 20
1.688876932094458
 10
12.28928551159071
 20
1.687286005338351
 10
12.29073180864173
 20
1.68569507858229
 10
12.29217810569274
 20
1.684104151826185
 10
12.29347977303862
 20
1.68265785477521
 10
12.29463681067938
 20
1.681066928019107
 10
12.29868644242216
 20
1.674703220994769
 10
12.30186829593433
 20
1.668050254560214
 10
12.30418237121593
 20
1.660963399010349
 10
12.30577329797203
 20
1.653731913755392
 10
12.3067857059077
 20
1.64635579879535
 10
12.307219595023
 20
1.638835054130218
 10
12.30750885443318
 20
1.631314309465088
 10
12.30736422472809
 20
1.623793564799913
 10
12.30707496531792
 20
1.61988856276226
 10
12.30635181679238
 20
1.616128190429692
 10
12.30519477915159
 20
1.612512447802215
 10
12.30374848210061
 20
1.609041334879826
 10
12.30201292563942
 20
1.605714851662571
 10
12.29984348006296
 20
1.602532998150359
 10
12.29752940478137
 20
1.59964040404841
 10
12.2949260700896
 20
1.59689243965151
 10
12.29203347598761
 20
1.594433734664829
 10
12.28914088188562
 20
1.592119659383236
 10
12.28595902837345
 20
1.590094843511868
 10
12.28277717486128
 20
1.588214657345583
 10
12.27959532134907
 20
1.586623730589475
 10
12.27626883813186
 20
1.58546669294868
 10
12.27294235491456
 20
1.584454285013015
 10
12.26976050140235
 20
1.583731136487531
 10
12.26788031523611
 20
1.58387576619262
 10
12.26600012906979
 20
1.584020395897709
 10
12.26411994290355
 20
1.584454285013015
 10
12.26238438644231
 20
1.585032803833414
 10
12.26064882998116
 20
1.5857559523589
 10
12.25905790322505
 20
1.586623730589475
 10
12.25746697646895
 20
1.587780768230274
 10
12.25616530912306
 20
1.588937805871069
 10
12.25471901207209
 20
1.590384102922087
 10
12.25370660413638
 20
1.591975029678149
 10
12.2528388259058
 20
1.593710586139343
 10
12.25211567738031
 20
1.595590772305626
 10
12.251681788265
 20
1.59747095847191
 10
12.25139252885478
 20
1.599495774343282
 10
12.25110326944461
 20
1.601520590214694
 10
12.25110326944461
 20
1.603545406086065
 10
12.25110326944461
 20
1.687719894453659
  0
LWPOLYLINE
  5
445
330
17
100
AcDbEntity
  8
4
  6
Continuous
100
AcDbPolyline
 90
      114
 70
     0
 43
0.0
 10
12.80207742868612
 20
1.57837983739886
 10
12.80048650193006
 20
1.579681504744745
 10
12.79889557517395
 20
1.581561690911025
 10
12.79730464841785
 20
1.584165025602795
 10
12.79571372166179
 20
1.587346879115005
 10
12.79426742461081
 20
1.591107251447573
 10
12.79311038697002
 20
1.595735402010714
 10
12.7922426087394
 20
1.601086701099385
 10
12.79166408991904
 20
1.607161148713544
 10
12.79166408991904
 20
1.702906013489058
 10
12.79151946021396
 20
1.705509348180826
 10
12.79094094139351
 20
1.708257312577728
 10
12.78992853345781
 20
1.711005276974588
 10
12.78848223640683
 20
1.713608611666358
 10
12.78660205024056
 20
1.716211946358169
 10
12.78428797495896
 20
1.718815281049939
 10
12.78168464026719
 20
1.721273986036622
 10
12.77864741646011
 20
1.723732691023299
 10
12.77532093324281
 20
1.725902136599763
 10
12.77156056091024
 20
1.727926952471175
 10
12.76736629946241
 20
1.72966250893237
 10
12.7630274083094
 20
1.731253435688433
 10
12.75810999833604
 20
1.732410473329229
 10
12.75304795865759
 20
1.733422881264935
 10
12.74755202986384
 20
1.734001400085333
 10
12.74176684165989
 20
1.734290659495511
 10
12.73554776434065
 20
1.734001400085333
 10
12.72947331672649
 20
1.733133621854715
 10
12.72354349881742
 20
1.731398065393523
 10
12.71790294031853
 20
1.729228619817061
 10
12.7125516412299
 20
1.726336025715071
 10
12.70734497184636
 20
1.723009542497814
 10
12.70257219157809
 20
1.719104540460118
 10
12.69808867071999
 20
1.714765649307154
 10
12.69403903897725
 20
1.709992869038879
 10
12.69027866664468
 20
1.704930829360429
 10
12.68709681313248
 20
1.699579530271759
 10
12.68449347844071
 20
1.693938971772909
 10
12.6823240328642
 20
1.688009153863839
 10
12.68073310610814
 20
1.681934706249679
 10
12.67972069817243
 20
1.675715628930436
 10
12.67943143876225
 20
1.669351921906099
 10
12.67943143876225
 20
1.598772625817793
 10
12.67914217935203
 20
1.594289104959741
 10
12.67812977141637
 20
1.590528732627175
 10
12.67682810407048
 20
1.587346879115005
 10
12.67509254760925
 20
1.584743544423194
 10
12.67335699114809
 20
1.582718728551824
 10
12.6716214346869
 20
1.580983172090629
 10
12.6698858782257
 20
1.579681504744745
 10
12.66858421087982
 20
1.578524467103948
 10
12.69924570836079
 20
1.578524467103948
 10
12.70329534010353
 20
1.579102985924345
 10
12.70676645302592
 20
1.580549282975318
 10
12.70980367683304
 20
1.582718728551824
 10
12.71240701152481
 20
1.585611322653813
 10
12.71457645710127
 20
1.588793176165983
 10
12.71616738385738
 20
1.59226428908837
 10
12.71717979179308
 20
1.595880031715847
 10
12.71775831061344
 20
1.599495774343282
 10
12.71804757002362
 20
1.604702443726861
 10
12.71732442149817
 20
1.610053742815534
 10
12.71631201356247
 20
1.615260412199075
 10
12.71501034621658
 20
1.620322451877567
 10
12.71327478975539
 20
1.627553937132478
 10
12.71168386299928
 20
1.634785422387435
 10
12.71023756594831
 20
1.642016907642386
 10
12.70879126889734
 20
1.64924839289734
 10
12.70748960155145
 20
1.656479878152295
 10
12.70647719361575
 20
1.663855993112339
 10
12.70560941538512
 20
1.671087478367294
 10
12.70503089656477
 20
1.678463593327335
 10
12.70488626685968
 20
1.684538040941494
 10
12.70532015597495
 20
1.690757118260741
 10
12.70633256391065
 20
1.696831565874899
 10
12.70792349066672
 20
1.702761383783968
 10
12.71023756594831
 20
1.708257312577728
 10
12.71327478975539
 20
1.71331935225618
 10
12.71703516208795
 20
1.717658243409144
 10
12.72180794235623
 20
1.721273986036622
 10
12.72455590675313
 20
1.722720283087592
 10
12.72744850085508
 20
1.723732691023299
 10
12.73048572466216
 20
1.724455839548789
 10
12.73352294846924
 20
1.724889728664098
 10
12.73670480198144
 20
1.724889728664098
 10
12.73988665549357
 20
1.724455839548789
 10
12.74292387930069
 20
1.723732691023299
 10
12.74596110310773
 20
1.722720283087592
 10
12.74870906750463
 20
1.721273986036622
 10
12.75131240219644
 20
1.719538429575425
 10
12.75377110718308
 20
1.717368983998924
 10
12.75579592305446
 20
1.714910279012241
 10
12.75753147951569
 20
1.712162314615384
 10
12.75897777656666
 20
1.708980461103215
 10
12.75999018450236
 20
1.705509348180826
 10
12.76042407361764
 20
1.701748975848262
 10
12.76042407361764
 20
1.599061885228015
 10
12.76056870332273
 20
1.596603180241331
 10
12.76100259243803
 20
1.594433734664829
 10
12.76172574096352
 20
1.59226428908837
 10
12.76259351919414
 20
1.590239473216954
 10
12.76375055683494
 20
1.588503916755763
 10
12.76505222418082
 20
1.586768360294608
 10
12.76649852123179
 20
1.585177433538504
 10
12.76823407769299
 20
1.583731136487531
 10
12.77011426385927
 20
1.582574098846735
 10
12.77199445002555
 20
1.581417061205939
 10
12.77401926589693
 20
1.580549282975318
 10
12.77618871147343
 20
1.579826134449833
 10
12.77835815704994
 20
1.579102985924345
 10
12.78067223233153
 20
1.578669096809035
 10
12.78284167790799
 20
1.578524467103948
 10
12.78515575318954
 20
1.57837983739886
 10
12.80207742868612
 20
1.57837983739886
  0
LWPOLYLINE
  5
4B9
330
17
100
AcDbEntity
  8
4
  6
Continuous
100
AcDbPolyline
 90
        5
 70
     0
 43
0.0
 10
12.75622981216981
 20
1.65445506228088
 10
12.71385330857579
 20
1.681500817134415
 10
12.71385330857579
 20
1.655033581101277
 10
12.75637444187489
 20
1.632182087695665
 10
12.75622981216981
 20
1.65445506228088
  0
LWPOLYLINE
  5
4C0
330
17
100
AcDbEntity
  8
4
  6
Continuous
100
AcDbPolyline
 90
       21
 70
     0
 43
0.0
 10
12.45038300213922
 20
1.696686936169809
 10
12.44994911302395
 20
1.692203415311714
 10
12.44864744567807
 20
1.688009153863839
 10
12.44662262980666
 20
1.684393411236363
 10
12.4438746654098
 20
1.681211557724194
 10
12.4405481821925
 20
1.678608223032425
 10
12.43678780985993
 20
1.676728036866141
 10
12.4325935484121
 20
1.675570999225347
 10
12.42825465725909
 20
1.675137110110035
 10
12.39918408653419
 20
1.675137110110035
 10
12.39918408653419
 20
1.712306944320471
 10
12.39629149243224
 20
1.719393799870338
 10
12.42883317607949
 20
1.719393799870338
 10
12.43317206723246
 20
1.718959910755029
 10
12.43736632868033
 20
1.717658243409144
 10
12.44098207130781
 20
1.71563342753777
 10
12.44416392481998
 20
1.71288546314087
 10
12.44676725951174
 20
1.709414350218479
 10
12.44864744567807
 20
1.705653977885915
 10
12.44994911302395
 20
1.701315086732949
 10
12.45038300213922
 20
1.696686936169809
  0
LWPOLYLINE
  5
4D7
330
17
100
AcDbEntity
  8
4
  6
Continuous
100
AcDbPolyline
 90
      213
 70
     0
 43
0.0
 10
13.17006435757077
 20
1.723009542497814
 10
13.16673787435355
 20
1.724311209843699
 10
13.16341139113625
 20
1.725468247484496
 10
13.16008490791895
 20
1.726480655420159
 10
13.15661379499661
 20
1.727348433650779
 10
13.15314268207422
 20
1.727926952471175
 10
13.14967156915187
 20
1.728505471291573
 10
13.14620045622948
 20
1.72893936040684
 10
13.1427293433071
 20
1.729228619817061
 10
13.13911360067962
 20
1.72937324952215
 10
13.13564248775723
 20
1.72937324952215
 10
13.13202674512975
 20
1.729228619817061
 10
13.12855563220741
 20
1.72893936040684
 10
13.12493988957993
 20
1.728505471291573
 10
13.12146877665754
 20
1.728071582176266
 10
13.1179976637352
 20
1.727348433650779
 10
13.11452655081281
 20
1.726625285125249
 10
13.10845210319865
 20
1.724745098958964
 10
13.10252228528959
 20
1.721997134562108
 10
13.09688172679074
 20
1.718815281049939
 10
13.09138579799698
 20
1.714910279012241
 10
13.08632375831853
 20
1.710571387859278
 10
13.08155097805025
 20
1.705653977885915
 10
13.07735671660237
 20
1.700447308502377
 10
13.07359634426981
 20
1.694951379708617
 10
13.07055912046273
 20
1.689166191504637
 10
13.06824504518114
 20
1.683091743890478
 10
13.06650948871994
 20
1.677017296276319
 10
13.06578634019446
 20
1.670798218957073
 10
13.06593096989955
 20
1.664579141637825
 10
13.06694337783525
 20
1.658360064318579
 10
13.06896819370667
 20
1.652285616704421
 10
13.07215004721879
 20
1.646500428500439
 10
13.07287319574432
 20
1.645632650269863
 10
13.0737409739749
 20
1.644909501744378
 10
13.07460875220548
 20
1.644330982923978
 10
13.07562116014118
 20
1.643752464103581
 10
13.07663356807689
 20
1.64346320469336
 10
13.07764597601259
 20
1.643318574988271
 10
13.07880301365339
 20
1.643318574988271
 10
13.07996005129419
 20
1.643607834398493
 10
13.12103488754224
 20
1.651417838473803
 10
13.12334896282383
 20
1.651851727589112
 10
13.12566303810542
 20
1.652140986999331
 10
13.1281217430921
 20
1.652574876114599
 10
13.13043581837369
 20
1.652719505819729
 10
13.13289452336037
 20
1.653008765229908
 10
13.13520859864196
 20
1.653153394934997
 10
13.13752267392356
 20
1.653153394934997
 10
13.13998137891024
 20
1.653153394934997
 10
13.14229545419183
 20
1.653008765229908
 10
13.14460952947338
 20
1.652864135524819
 10
13.14692360475497
 20
1.652574876114599
 10
13.14923768003652
 20
1.652140986999331
 10
13.15140712561303
 20
1.651562468178934
 10
13.15372120089462
 20
1.650983949358536
 10
13.15589064647112
 20
1.650116171127915
 10
13.15806009204758
 20
1.64924839289734
 10
13.16297750202094
 20
1.646211169090263
 10
13.16659324464842
 20
1.641872277937298
 10
13.1690519496351
 20
1.636810238258805
 10
13.17049824668612
 20
1.631025050054866
 10
13.17064287639121
 20
1.624950602440707
 10
13.1696304684555
 20
1.618731525121462
 10
13.16760565258413
 20
1.612946336917482
 10
13.16456842877705
 20
1.607595037828853
 10
13.16239898320055
 20
1.60513633284217
 10
13.16022953762404
 20
1.602677627855491
 10
13.15762620293227
 20
1.600652811984075
 10
13.1550228682405
 20
1.598772625817793
 10
13.15227490384365
 20
1.597037069356599
 10
13.14923768003652
 20
1.595590772305626
 10
13.14620045622948
 20
1.594578364369918
 10
13.14301860271728
 20
1.593710586139343
 10
13.13925823038471
 20
1.593276697024034
 10
13.13549785805214
 20
1.593276697024034
 10
13.13188211542467
 20
1.593565956434255
 10
13.1281217430921
 20
1.594433734664829
 10
13.12465063016971
 20
1.595446142600535
 10
13.12103488754224
 20
1.59689243965151
 10
13.11770840432498
 20
1.598627996112706
 10
13.11438192110772
 20
1.600652811984075
 10
13.11120006759551
 20
1.602966887265668
 10
13.10816284378848
 20
1.605425592252349
 10
13.10527024968644
 20
1.60817355664925
 10
13.10252228528959
 20
1.6110661507512
 10
13.1000635803029
 20
1.614103374558276
 10
13.09760487531622
 20
1.61728522807049
 10
13.09543542973972
 20
1.620611711287745
 10
13.09355524357348
 20
1.623938194505002
 10
13.06014578169561
 20
1.60875207546965
 10
13.0618813381568
 20
1.604413184316686
 10
13.06405078373326
 20
1.600218922868809
 10
13.06694337783525
 20
1.5964585505362
 10
13.07026986105255
 20
1.592842807908765
 10
13.07403023338512
 20
1.589516324691466
 10
13.07822449483295
 20
1.586479100884389
 10
13.08270801569104
 20
1.583731136487531
 10
13.08748079595932
 20
1.581272431500849
 10
13.09254283563777
 20
1.579247615629435
 10
13.09774950502131
 20
1.57751205916824
 10
13.10324543381511
 20
1.576065762117265
 10
13.10859673290374
 20
1.575197983886689
 10
13.1140926616975
 20
1.574474835361205
 10
13.11958859049126
 20
1.574330205656073
 10
13.12493988957993
 20
1.574619465066294
 10
13.1302911886686
 20
1.575197983886689
 10
13.13434082041134
 20
1.576065762117265
 10
13.138245822449
 20
1.577222799758063
 10
13.1421508244867
 20
1.578524467103948
 10
13.14591119681931
 20
1.580115393860054
 10
13.14952693944674
 20
1.581995580026338
 10
13.15314268207422
 20
1.584165025602795
 10
13.15646916529148
 20
1.586334471179299
 10
13.15979564850877
 20
1.588937805871069
 10
13.16283287231585
 20
1.591541140562839
 10
13.16587009612294
 20
1.594433734664829
 10
13.16861806051979
 20
1.59747095847191
 10
13.17122139521156
 20
1.600797441689208
 10
13.17353547049316
 20
1.604123924906465
 10
13.17570491606966
 20
1.607595037828853
 10
13.17758510223594
 20
1.611210780456331
 10
13.17932065869714
 20
1.614971152788895
 10
13.1809115854532
 20
1.61916541423677
 10
13.182068623094
 20
1.623359675684645
 10
13.18293640132461
 20
1.627553937132478
 10
13.1836595498501
 20
1.632037457990573
 10
13.18394880926032
 20
1.636376349143539
 10
13.18394880926032
 20
1.640715240296503
 10
13.1836595498501
 20
1.645054131449465
 10
13.18293640132461
 20
1.64939302260243
 10
13.182068623094
 20
1.653153394934997
 10
13.1809115854532
 20
1.656769137562474
 10
13.17946528840223
 20
1.66024025048486
 10
13.17772973194107
 20
1.66371136340725
 10
13.17556028636457
 20
1.666748587214329
 10
13.17310158137789
 20
1.669641181316275
 10
13.1702089872759
 20
1.672244516008089
 10
13.16717176346882
 20
1.674413961584549
 10
13.16587009612294
 20
1.675281739815126
 10
13.16442379907196
 20
1.676149518045743
 10
13.16297750202094
 20
1.676872666571232
 10
13.16153120496993
 20
1.677595815096719
 10
13.16008490791895
 20
1.678318963622245
 10
13.15849398116289
 20
1.678897482442603
 10
13.15704768411192
 20
1.679331371557909
 10
13.15545675735581
 20
1.67976526067322
 10
13.15386583059971
 20
1.68019914978853
 10
13.15227490384365
 20
1.680633038903794
 10
13.15068397708754
 20
1.680922298314015
 10
13.14909305033143
 20
1.681211557724194
 10
13.14750212357537
 20
1.681500817134415
 10
13.14591119681931
 20
1.681645446839504
 10
13.14417564035807
 20
1.681934706249679
 10
13.14258471360201
 20
1.682079335954813
 10
13.14099378684594
 20
1.682079335954813
 10
13.1394028600898
 20
1.682079335954813
 10
13.13781193333374
 20
1.6822239656599
 10
13.13622100657767
 20
1.6822239656599
 10
13.13463007982157
 20
1.6822239656599
 10
13.13303915306546
 20
1.682368595364992
 10
13.13130359660427
 20
1.682368595364992
 10
13.12956804014308
 20
1.682368595364992
 10
13.12783248368192
 20
1.682368595364992
 10
13.12609692722073
 20
1.6822239656599
 10
13.12407211134935
 20
1.682079335954813
 10
13.12219192518303
 20
1.681934706249679
 10
13.12016710931166
 20
1.681790076544593
 10
13.1179976637352
 20
1.681500817134415
 10
13.1158282181587
 20
1.681066928019107
 10
13.1135141428771
 20
1.680633038903794
 10
13.08039394040945
 20
1.674558591289639
 10
13.07952616217884
 20
1.677595815096719
 10
13.07909227306357
 20
1.68048840919871
 10
13.07923690276865
 20
1.683525633005785
 10
13.07967079188397
 20
1.686418227107775
 10
13.08068319981963
 20
1.689310821209724
 10
13.08184023746043
 20
1.692058785606626
 10
13.08357579392162
 20
1.694806750003485
 10
13.0854559800879
 20
1.697265454990167
 10
13.08762542566441
 20
1.699579530271759
 10
13.09008413065109
 20
1.70189360555335
 10
13.09268746534286
 20
1.703773791719632
 10
13.09558005944485
 20
1.705509348180826
 10
13.09861728325193
 20
1.7069556452318
 10
13.10165450705901
 20
1.708257312577728
 10
13.10483636057117
 20
1.709125090808304
 10
13.10816284378848
 20
1.709703609628703
 10
13.11105543789042
 20
1.709848239333791
 10
13.1140926616975
 20
1.709848239333791
 10
13.11698525579949
 20
1.709558979923613
 10
13.11987784990144
 20
1.709125090808304
 10
13.12277044400347
 20
1.708546571987906
 10
13.12566303810542
 20
1.707678793757331
 10
13.12841100250228
 20
1.706666385821622
 10
13.13115896689918
 20
1.705509348180826
 10
13.13390693129608
 20
1.704207680834943
 10
13.13665489569294
 20
1.702761383783926
 10
13.13925823038471
 20
1.701315086732949
 10
13.14186156507648
 20
1.699579530271759
 10
13.14432027006316
 20
1.697843973810563
 10
13.14677897504984
 20
1.696108417349411
 10
13.14923768003652
 20
1.694228231183129
 10
13.15155175531812
 20
1.692348045016804
 10
13.18901084893877
 20
1.709992869038879
 10
13.18698603306735
 20
1.712017684910293
 10
13.18481658749089
 20
1.714042500781665
 10
13.18264714191444
 20
1.715922686947948
 10
13.18018843692775
 20
1.717513613704054
 10
13.17772973194107
 20
1.719104540460118
 10
13.17527102695439
 20
1.720550837511134
 10
13.17266769226258
 20
1.721852504857019
 10
13.17006435757077
 20
1.723009542497814
  0
LWPOLYLINE
  5
5AE
330
17
100
AcDbEntity
  8
4
  6
Continuous
100
AcDbPolyline
 90
      104
 70
     0
 43
0.0
 10
13.28312757727561
 20
1.731831954508831
 10
13.28717720901835
 20
1.727493063355868
 10
13.28891276547955
 20
1.725034358369184
 10
13.29035906253052
 20
1.722575653382505
 10
13.29166072987645
 20
1.720261578100914
 10
13.29267313781211
 20
1.718092132524454
 10
13.29354091604269
 20
1.71577805724286
 10
13.29411943486313
 20
1.713463981961269
 10
13.29440869427331
 20
1.711149906679674
 10
13.2945533239784
 20
1.708691201692995
 10
13.2945533239784
 20
1.596313920831113
 10
13.29093758135092
 20
1.596747809946422
 10
13.28732183872344
 20
1.59747095847191
 10
13.28385072580105
 20
1.598338736702525
 10
13.28037961287871
 20
1.599495774343282
 10
13.27705312966145
 20
1.600942071394295
 10
13.27372664644415
 20
1.60238836844527
 10
13.27040016322686
 20
1.604123924906465
 10
13.26736293941982
 20
1.606004111072748
 10
13.2643257156127
 20
1.60817355664925
 10
13.26143312151075
 20
1.610343002225711
 10
13.25868515711389
 20
1.612801707212395
 10
13.25608182242208
 20
1.615405041904161
 10
13.25347848773031
 20
1.618008376595975
 10
13.25116441244872
 20
1.620900970697921
 10
13.24899496687226
 20
1.623938194505002
 10
13.24697015100084
 20
1.62697541831208
 10
13.24378829748868
 20
1.632760606516061
 10
13.2411849627969
 20
1.638835054130218
 10
13.23916014692553
 20
1.645198761154554
 10
13.23785847957965
 20
1.651707097884023
 10
13.23727996075921
 20
1.658360064318579
 10
13.23756922016943
 20
1.664868401048003
 10
13.23887088751531
 20
1.671521367482559
 10
13.24104033309177
 20
1.67788507450694
 10
13.24219737073257
 20
1.680633038903794
 10
13.24349903807845
 20
1.683236373595564
 10
13.24494533512947
 20
1.685839708287379
 10
13.24639163218048
 20
1.68829841327406
 10
13.24798255893655
 20
1.690901747965829
 10
13.24971811539774
 20
1.693360452952511
 10
13.25145367185894
 20
1.695674528234103
 10
13.25318922832009
 20
1.698133233220784
 10
13.25506941448642
 20
1.700447308502377
 10
13.25694960065265
 20
1.702616754078835
 10
13.25897441652407
 20
1.704930829360429
 10
13.26099923239544
 20
1.707100274936933
 10
13.26302404826681
 20
1.709269720513394
 10
13.26519349384331
 20
1.711294536384763
 10
13.26721830971473
 20
1.71331935225618
 10
13.26938775529119
 20
1.71534416812755
 10
13.27112331175239
 20
1.717368983998924
 10
13.27228034939318
 20
1.719683059280515
 10
13.27300349791866
 20
1.721997134562108
 10
13.27300349791866
 20
1.724455839548789
 10
13.27271423850845
 20
1.726625285125249
 10
13.27184646027787
 20
1.728794730701753
 10
13.27083405234221
 20
1.730530287162946
 10
13.26938775529119
 20
1.731831954508831
 10
13.21761032086576
 20
1.731831954508831
 10
13.22006902585244
 20
1.729517879227238
 10
13.22281699024929
 20
1.726625285125249
 10
13.22542032494111
 20
1.723154172202904
 10
13.22758977051757
 20
1.719393799870338
 10
13.22918069727367
 20
1.715199538422463
 10
13.22990384579917
 20
1.710860647269498
 10
13.22932532697881
 20
1.706521756116534
 10
13.22730051110739
 20
1.702327494668659
 10
13.21139124354651
 20
1.674558591289639
 10
13.20748624150885
 20
1.666459327804109
 10
13.20502753652218
 20
1.657926175203269
 10
13.20387049888138
 20
1.649103763192253
 10
13.20401512858646
 20
1.640136721476103
 10
13.20546142563744
 20
1.631169679759955
 10
13.20835401973943
 20
1.622636527159115
 10
13.21240365148222
 20
1.614537263673585
 10
13.21775495057085
 20
1.607305778418635
 10
13.22035828526262
 20
1.604413184316686
 10
13.22310624965952
 20
1.601665219919784
 10
13.22599884376151
 20
1.598917255522881
 10
13.22903606756859
 20
1.596313920831113
 10
13.23207329137567
 20
1.593999845549523
 10
13.23539977459297
 20
1.591685770267972
 10
13.23872625781018
 20
1.589516324691466
 10
13.24219737073257
 20
1.587636138525184
 10
13.24566848365495
 20
1.5857559523589
 10
13.24928422628243
 20
1.584165025602795
 10
13.25289996890991
 20
1.58286335825691
 10
13.25666034124248
 20
1.581706320616115
 10
13.26042071357504
 20
1.580693912680453
 10
13.2643257156127
 20
1.580115393860054
 10
13.26808608794531
 20
1.579681504744745
 10
13.27199108998301
 20
1.579536875039655
 10
13.32738426703587
 20
1.579536875039655
 10
13.32738426703587
 20
1.71013749874401
 10
13.32752889674096
 20
1.713030092845959
 10
13.32767352644604
 20
1.715922686947948
 10
13.32810741556136
 20
1.718670651344807
 10
13.32868593438176
 20
1.721563245446799
 10
13.32955371261237
 20
1.724311209843699
 10
13.33056612054804
 20
1.72691454453547
 10
13.33172315818883
 20
1.72937324952215
 10
13.33302482553472
 20
1.731831954508831
 10
13.28312757727561
 20
1.731831954508831
  0
LWPOLYLINE
  5
618
330
17
100
AcDbEntity
  8
4
  6
Continuous
100
AcDbPolyline
 90
       46
 70
     0
 43
0.0
 10
13.42763936781036
 20
1.731976584213922
 10
13.34910543794165
 20
1.731976584213922
 10
13.35084099440281
 20
1.72966250893237
 10
13.35243192115887
 20
1.727059174240558
 10
13.35402284791502
 20
1.724455839548789
 10
13.35532451526091
 20
1.721707875151929
 10
13.35633692319657
 20
1.718815281049939
 10
13.35720470142714
 20
1.715922686947948
 10
13.35778322024758
 20
1.71317472255109
 10
13.35792784995267
 20
1.7102821284491
 10
13.35792784995267
 20
1.576788910642755
 10
13.39307286829174
 20
1.610487631930801
 10
13.39307286829174
 20
1.670364329841764
 10
13.44022215215394
 20
1.670364329841764
 10
13.44340400566615
 20
1.670508959546894
 10
13.44644122947319
 20
1.670653589251983
 10
13.44947845328031
 20
1.671087478367294
 10
13.45237104738226
 20
1.671665997187691
 10
13.45526364148425
 20
1.672533775418264
 10
13.45801160588115
 20
1.673690813059063
 10
13.46061494057292
 20
1.67499248040495
 10
13.46292901585451
 20
1.676583407161053
 10
13.4652430911361
 20
1.678463593327335
 10
13.46712327730234
 20
1.680777668608928
 10
13.46885883376358
 20
1.683236373595564
 10
13.47030513081456
 20
1.686128967697554
 10
13.47131753875026
 20
1.689455450914855
 10
13.47218531698084
 20
1.693071193542333
 10
13.47261920609615
 20
1.697120825285074
 10
13.47261920609615
 20
1.701604346143171
 10
13.47218531698084
 20
1.706377126411403
 10
13.47131753875026
 20
1.710571387859278
 10
13.46987124169925
 20
1.714331760191844
 10
13.46813568523805
 20
1.717658243409144
 10
13.46582160995646
 20
1.720550837511134
 10
13.46336290496978
 20
1.723009542497814
 10
13.46047031086783
 20
1.725178988074275
 10
13.45728845735562
 20
1.72691454453547
 10
13.45396197413836
 20
1.728360841586443
 10
13.45034623151089
 20
1.729517879227238
 10
13.44673048888341
 20
1.730385657457856
 10
13.44297011655084
 20
1.730964176278255
 10
13.43906511451315
 20
1.731542695098654
 10
13.43516011247549
 20
1.731831954508831
 10
13.43139974014293
 20
1.731976584213922
 10
13.42763936781036
 20
1.731976584213922
  0
LWPOLYLINE
  5
648
330
17
100
AcDbEntity
  8
4
  6
Continuous
100
AcDbPolyline
 90
       21
 70
     0
 43
0.0
 10
13.38670916126736
 20
1.724021950433479
 10
13.4221434390166
 20
1.724021950433479
 10
13.42662695987465
 20
1.723588061318213
 10
13.43096585102762
 20
1.722286393972285
 10
13.43472622336022
 20
1.720261578100914
 10
13.43819733628257
 20
1.717513613704054
 10
13.44094530067947
 20
1.714187130486754
 10
13.44311474625593
 20
1.710426758154189
 10
13.44441641360186
 20
1.706232496706314
 10
13.44485030271713
 20
1.701604346143171
 10
13.44456104330695
 20
1.697843973810563
 10
13.44369326507633
 20
1.694083601477996
 10
13.44239159773044
 20
1.690612488555651
 10
13.44051141156416
 20
1.687575264748573
 10
13.43805270657748
 20
1.684971930056762
 10
13.43516011247549
 20
1.682947114185389
 10
13.43183362925819
 20
1.681645446839504
 10
13.42792862722054
 20
1.681211557724194
 10
13.39336212770191
 20
1.681211557724194
 10
13.39336212770191
 20
1.716356576063257
 10
13.38670916126736
 20
1.724021950433479
  0
LWPOLYLINE
  5
65F
330
17
100
AcDbEntity
  8
4
  6
Continuous
100
AcDbPolyline
 90
       21
 70
     0
 43
0.0
 10
13.52672667623195
 20
1.723732691023299
 10
13.5621609539812
 20
1.723732691023299
 10
13.56678910454434
 20
1.723298801907993
 10
13.57098336599221
 20
1.721997134562108
 10
13.57488836802991
 20
1.719972318690735
 10
13.5783594809523
 20
1.717224354293833
 10
13.58110744534916
 20
1.713897871076578
 10
13.58327689092566
 20
1.709992869038879
 10
13.58457855827154
 20
1.705798607591004
 10
13.58501244738681
 20
1.701170457027864
 10
13.58472318797663
 20
1.697410084695296
 10
13.58385540974601
 20
1.693649712362732
 10
13.58240911269503
 20
1.690323229145429
 10
13.58052892652876
 20
1.687141375633264
 10
13.57807022154208
 20
1.684538040941494
 10
13.57517762744009
 20
1.682513225070078
 10
13.57185114422279
 20
1.681211557724194
 10
13.56794614218513
 20
1.680777668608928
 10
13.53337964266651
 20
1.680777668608928
 10
13.53337964266651
 20
1.715922686947948
 10
13.52672667623195
 20
1.723732691023299
  0
TEXT
  5
676
330
17
100
AcDbEntity
  8
3
100
AcDbText
 10
15.0709071862019
 20
1.140699344601567
 30
0.0
 40
0.0781522982138528
  1
1
  7
SIMPLEX
100
AcDbText
  0
LINE
  5
677
330
17
100
AcDbEntity
  8
0
100
AcDbLine
 10
14.7484846952539
 20
0.7999999999999555
 30
0.0
 11
14.7484846952539
 21
1.268913789283074
 31
0.0
  0
TEXT
  5
678
330
17
100
AcDbEntity
  8
3
100
AcDbText
 10
14.80573998916125
 20
1.162083521424065
 30
0.0
 40
0.038763539914071
  1
SHEET
  7
SIMPLEX
100
AcDbText
  0
TEXT
  5
679
330
17
100
AcDbEntity
  8
3
100
AcDbText
 10
14.78558982005296
 20
1.015588455926574
 30
0.0
 40
0.0390761491069264
  1
PART/DWG. NO.
  7
SIMPLEX
100
AcDbText
  0
LWPOLYLINE
  5
67A
330
17
100
AcDbEntity
  8
4
  6
Continuous
100
AcDbPolyline
 90
       44
 70
     0
 43
0.0
 10
14.26225416009669
 20
1.729951768342549
 10
14.19818320073785
 20
1.729951768342549
 10
14.20020801660922
 20
1.728794730701753
 10
14.20252209189081
 20
1.727203803945646
 10
14.20469153746732
 20
1.724889728664098
 10
14.20686098304382
 20
1.722286393972285
 10
14.20874116921006
 20
1.719249170165206
 10
14.21033209596616
 20
1.71577805724286
 10
14.21119987419674
 20
1.712162314615384
 10
14.21163376331209
 20
1.708257312577686
 10
14.21163376331209
 20
1.579536875039655
 10
14.25965082540492
 20
1.579536875039655
 10
14.26775008889045
 20
1.57997076415492
 10
14.2755600929658
 20
1.581127801795718
 10
14.28308083763093
 20
1.583007987962003
 10
14.29016769318079
 20
1.585611322653813
 10
14.29682065961531
 20
1.588937805871069
 10
14.30318436663969
 20
1.592987437613856
 10
14.30896955484362
 20
1.59747095847191
 10
14.31432085393234
 20
1.602677627855491
 10
14.31909363420057
 20
1.608318186354339
 10
14.32343252535354
 20
1.614537263673585
 10
14.3271928976861
 20
1.621190230108144
 10
14.33023012149322
 20
1.62827708565801
 10
14.3326888264799
 20
1.63579783032314
 10
14.33456901264614
 20
1.643607834398493
 10
14.33558142058185
 20
1.651851727589112
 10
14.33601530969716
 20
1.66038488018995
 10
14.33572605028694
 20
1.667616365444902
 10
14.33456901264614
 20
1.674558591289639
 10
14.3326888264799
 20
1.681211557724194
 10
14.33008549178809
 20
1.687575264748573
 10
14.32690363827592
 20
1.69379434206782
 10
14.32314326594336
 20
1.699434900566668
 10
14.31880437479034
 20
1.70478619965534
 10
14.31388696481699
 20
1.709703609628703
 10
14.30868029543345
 20
1.714187130486754
 10
14.30289510722946
 20
1.71823676222954
 10
14.29682065961531
 20
1.721707875151929
 10
14.29031232288589
 20
1.724600469253878
 10
14.28365935645133
 20
1.72691454453547
 10
14.2767171306066
 20
1.728650100996664
 10
14.26948564535164
 20
1.72966250893237
 10
14.26225416009669
 20
1.729951768342549
  0
LWPOLYLINE
  5
6A8
330
17
100
AcDbEntity
  8
4
  6
Continuous
100
AcDbPolyline
 90
       34
 70
     0
 43
0.0
 10
14.24591100342054
 20
1.717947502819321
 10
14.25155156191934
 20
1.717368983998924
 10
14.25704749071315
 20
1.716211946358126
 10
14.26225416009669
 20
1.714187130486754
 10
14.26731619977514
 20
1.711439166089895
 10
14.27194435033832
 20
1.708257312577686
 10
14.27642787119642
 20
1.704352310540032
 10
14.28047750293916
 20
1.700013419387068
 10
14.28423787527172
 20
1.695240639118793
 10
14.28770898819412
 20
1.689889340030121
 10
14.29060158229606
 20
1.684393411236363
 10
14.29320491698783
 20
1.678463593327335
 10
14.29537436256434
 20
1.672389145713178
 10
14.29710991902553
 20
1.666025438688799
 10
14.29826695666633
 20
1.659517101959373
 10
14.2991347348969
 20
1.653008765229908
 10
14.29927936460199
 20
1.64635579879535
 10
14.29884547548673
 20
1.640281351181195
 10
14.29768843784593
 20
1.634496162977255
 10
14.29595288138473
 20
1.628855604478363
 10
14.29363880610318
 20
1.623648935094823
 10
14.2907462120012
 20
1.618586895416375
 10
14.28741972878394
 20
1.613958744853188
 10
14.28365935645133
 20
1.609764483405315
 10
14.27975435441363
 20
1.605859481367659
 10
14.2755600929658
 20
1.602243738740181
 10
14.27122120181283
 20
1.599061885228015
 10
14.26673768095479
 20
1.596313920831113
 10
14.26239878980178
 20
1.593999845549523
 10
14.25791526894373
 20
1.59226428908837
 10
14.25372100749585
 20
1.590817992037351
 10
14.2496713757531
 20
1.589950213806775
 10
14.24591100342054
 20
1.589516324691466
 10
14.24591100342054
 20
1.717947502819321
  0
LWPOLYLINE
  5
6CC
330
17
100
AcDbEntity
  8
4
  6
Continuous
100
AcDbPolyline
 90
       96
 70
     0
 43
0.0
 10
14.18218182851598
 20
1.579536875039655
 10
14.17986775323439
 20
1.581127801795718
 10
14.17755367795279
 20
1.582718728551824
 10
14.17552886208142
 20
1.584598914718106
 10
14.17379330562023
 20
1.586479100884389
 10
14.17234700856926
 20
1.58864854646089
 10
14.17118997092846
 20
1.591107251447573
 10
14.17046682240297
 20
1.593710586139343
 10
14.17017756299275
 20
1.5964585505362
 10
14.17017756299275
 20
1.690323229145429
 10
14.17017756299275
 20
1.694228231183129
 10
14.16988830358253
 20
1.698133233220784
 10
14.16930978476218
 20
1.702327494668659
 10
14.16815274712138
 20
1.706377126411403
 10
14.16641719066018
 20
1.710571387859278
 10
14.16366922626328
 20
1.714476389896977
 10
14.16005348363581
 20
1.71838139193463
 10
14.15513607366245
 20
1.722141764267196
 10
14.15209884985541
 20
1.724021950433479
 10
14.1489169963432
 20
1.725612877189584
 10
14.14573514283103
 20
1.72691454453547
 10
14.14226402990869
 20
1.728071582176266
 10
14.1387929169863
 20
1.728794730701753
 10
14.1353218040639
 20
1.729228619817061
 10
14.13185069114152
 20
1.729517879227238
 10
14.12823494851404
 20
1.729517879227238
 10
14.1247638355917
 20
1.729228619817061
 10
14.12129272266931
 20
1.728794730701753
 10
14.11796623945205
 20
1.728216211881351
 10
14.11463975623475
 20
1.727348433650779
 10
14.11160253242772
 20
1.726336025715071
 10
14.10856530862059
 20
1.725034358369184
 10
14.10567271451865
 20
1.723732691023299
 10
14.10306937982688
 20
1.722141764267196
 10
14.10162308277586
 20
1.721418615741708
 10
14.10032141542997
 20
1.720695467216223
 10
14.09887511837896
 20
1.719972318690735
 10
14.09757345103307
 20
1.719104540460118
 10
14.09627178368719
 20
1.718092132524454
 10
14.09482548663621
 20
1.717079724588745
 10
14.09352381929033
 20
1.71577805724286
 10
14.09193289253423
 20
1.714476389896977
 10
14.09120974400873
 20
1.717224354293833
 10
14.09005270636794
 20
1.719683059280515
 10
14.08875103902206
 20
1.721852504857019
 10
14.087160112266
 20
1.72387732072839
 10
14.08542455580476
 20
1.725612877189584
 10
14.08354436963852
 20
1.727059174240558
 10
14.08166418347219
 20
1.728360841586443
 10
14.07963936760082
 20
1.72937324952215
 10
14.04651916513317
 20
1.72937324952215
 10
14.04955638894025
 20
1.727203803945646
 10
14.05215972363202
 20
1.724745098958964
 10
14.05432916920852
 20
1.722141764267196
 10
14.05620935537476
 20
1.719104540460118
 10
14.05765565242578
 20
1.715922686947948
 10
14.05866806036145
 20
1.712306944320471
 10
14.05939120888697
 20
1.708546571987906
 10
14.05953583859206
 20
1.704352310540032
 10
14.05953583859206
 20
1.575921132412178
 10
14.09323455988015
 20
1.60195447932996
 10
14.09323455988015
 20
1.690901747965829
 10
14.09381307870051
 20
1.695674528234103
 10
14.09525937575148
 20
1.699868789681979
 10
14.09742882132799
 20
1.703484532309454
 10
14.10032141542997
 20
1.706521756116534
 10
14.10364789864723
 20
1.708980461103215
 10
14.10726364127471
 20
1.710716017564409
 10
14.11116864331236
 20
1.711873055205163
 10
14.11507364535006
 20
1.712306944320471
 10
14.11738772063165
 20
1.712306944320471
 10
14.1197017959132
 20
1.712017684910293
 10
14.12187124148971
 20
1.711583795794985
 10
14.12404068706621
 20
1.711005276974588
 10
14.12606550293758
 20
1.7102821284491
 10
14.12809031880895
 20
1.709269720513394
 10
14.12997050497527
 20
1.708257312577686
 10
14.13170606143643
 20
1.7069556452318
 10
14.13344161789763
 20
1.705653977885915
 10
14.13488791494864
 20
1.704207680834943
 10
14.13604495258944
 20
1.702472124373747
 10
14.13720199023019
 20
1.700881197617643
 10
14.13806976846077
 20
1.69900101145136
 10
14.13864828728121
 20
1.697120825285074
 10
14.13908217639647
 20
1.695096009413705
 10
14.13922680610156
 20
1.692926563837201
 10
14.13922680610156
 20
1.593710586139343
 10
14.13937143580665
 20
1.591396510857753
 10
14.13966069521687
 20
1.588937805871069
 10
14.14038384374236
 20
1.586623730589475
 10
14.14139625167807
 20
1.584309655307928
 10
14.14298717843413
 20
1.582429469141642
 10
14.14501199430554
 20
1.58083854238554
 10
14.1477599587024
 20
1.579826134449833
 10
14.15123107162479
 20
1.579536875039655
 10
14.18218182851598
 20
1.579536875039655
  0
LWPOLYLINE
  5
72E
330
17
100
AcDbEntity
  8
4
  6
Continuous
100
AcDbPolyline
 90
      133
 70
     0
 43
0.0
 10
13.87109894946477
 20
1.731976584213922
 10
13.84029282227871
 20
1.731976584213922
 10
13.84246226785522
 20
1.72966250893237
 10
13.84434245402145
 20
1.727348433650779
 10
13.84578875107247
 20
1.725034358369184
 10
13.84709041841835
 20
1.722864912792684
 10
13.84810282635407
 20
1.720695467216223
 10
13.84882597487955
 20
1.718526021639718
 10
13.84940449369995
 20
1.716211946358169
 10
13.84954912340504
 20
1.713897871076578
 10
13.84954912340504
 20
1.634930052092522
 10
13.84694578871327
 20
1.63521931150274
 10
13.84419782431637
 20
1.635653200618051
 10
13.8415944896246
 20
1.63608708973332
 10
13.83884652522773
 20
1.636665608553715
 10
13.83624319053597
 20
1.637388757079245
 10
13.83349522613906
 20
1.638111905604733
 10
13.83089189144725
 20
1.63897968383531
 10
13.82828855675548
 20
1.639847462065884
 10
13.8258298517688
 20
1.64085987000159
 10
13.82322651707703
 20
1.642016907642386
 10
13.82091244179544
 20
1.643173945283185
 10
13.81845373680876
 20
1.64447561262907
 10
13.81613966152717
 20
1.645921909680043
 10
13.81382558624558
 20
1.647368206731058
 10
13.81165614066912
 20
1.649103763192253
 10
13.80963132479774
 20
1.650839319653404
 10
13.80587095246518
 20
1.654599691986013
 10
13.80254446924788
 20
1.658793953433888
 10
13.79965187514593
 20
1.66327747429194
 10
13.79704854045411
 20
1.668194884265303
 10
13.79502372458275
 20
1.673112294238666
 10
13.79328816812155
 20
1.678463593327335
 10
13.79213113048076
 20
1.683814892415963
 10
13.79140798195527
 20
1.689310821209724
 10
13.79097409284
 20
1.694806750003485
 10
13.79097409284
 20
1.700447308502377
 10
13.79155261166036
 20
1.705943237296136
 10
13.79242038989098
 20
1.711439166089895
 10
13.79372205723686
 20
1.716935094883655
 10
13.79560224340314
 20
1.722141764267196
 10
13.79777168897961
 20
1.727203803945688
 10
13.80037502367137
 20
1.731976584213922
 10
13.76089111417939
 20
1.731976584213922
 10
13.75799852007744
 20
1.722720283087592
 10
13.75597370420603
 20
1.713753241371446
 10
13.75496129627032
 20
1.70478619965534
 10
13.75481666656523
 20
1.696253047054502
 10
13.75539518538563
 20
1.687864524158752
 10
13.75698611214174
 20
1.67990989037831
 10
13.75930018742333
 20
1.672244516008089
 10
13.76233741123036
 20
1.664868401048003
 10
13.76624241326802
 20
1.658070804908359
 10
13.77072593412611
 20
1.651562468178934
 10
13.77593260350965
 20
1.645632650269863
 10
13.78171779171364
 20
1.640136721476103
 10
13.78822612844306
 20
1.63536394120783
 10
13.79531298399292
 20
1.631025050054866
 10
13.80283372865806
 20
1.627409307427389
 10
13.81093299214362
 20
1.624372083620311
 10
13.81324706742522
 20
1.623648935094823
 10
13.8157057724119
 20
1.623070416274426
 10
13.81816447739858
 20
1.622491897454028
 10
13.82076781209035
 20
1.621913378633629
 10
13.82322651707703
 20
1.621479489518321
 10
13.8258298517688
 20
1.621190230108144
 10
13.82828855675548
 20
1.620756340992834
 10
13.83089189144725
 20
1.620611711287745
 10
13.83335059643394
 20
1.620322451877567
 10
13.83580930142062
 20
1.620177822172436
 10
13.83826800640729
 20
1.620033192467345
 10
13.84058208168889
 20
1.620033192467345
 10
13.84289615697048
 20
1.620033192467345
 10
13.84506560254699
 20
1.620033192467345
 10
13.84723504812349
 20
1.620177822172436
 10
13.84925986399482
 20
1.620322451877567
 10
13.84925986399482
 20
1.604991703137041
 10
13.83349522613906
 20
1.596169291126025
 10
13.8303133726269
 20
1.595446142600535
 10
13.82713151911469
 20
1.595012253485228
 10
13.82394966560252
 20
1.595012253485228
 10
13.82105707150053
 20
1.595446142600535
 10
13.81801984769349
 20
1.596024661420934
 10
13.81527188329659
 20
1.597037069356599
 10
13.81266854860482
 20
1.598338736702525
 10
13.81006521391301
 20
1.599785033753502
 10
13.80760650892633
 20
1.601520590214694
 10
13.80529243364474
 20
1.603400776380976
 10
13.80312298806828
 20
1.60557022195744
 10
13.8010981721969
 20
1.607739667533941
 10
13.79921798603058
 20
1.610198372520621
 10
13.79748242956943
 20
1.612657077507303
 10
13.79589150281336
 20
1.615115782493985
 10
13.79458983546748
 20
1.617719117185754
 10
13.76682093208846
 20
1.60484707343195
 10
13.76812259943434
 20
1.60238836844527
 10
13.76971352619041
 20
1.599929663458589
 10
13.77130445294651
 20
1.597326328766819
 10
13.7730400094077
 20
1.59486762378014
 10
13.77506482527907
 20
1.592408918793458
 10
13.77708964115045
 20
1.589950213806775
 10
13.77940371643204
 20
1.587780768230274
 10
13.78171779171364
 20
1.58546669294868
 10
13.78417649670031
 20
1.583441877077309
 10
13.78692446109717
 20
1.581561690911025
 10
13.78981705519921
 20
1.57997076415492
 10
13.79270964930115
 20
1.57837983739886
 10
13.79589150281336
 20
1.577222799758063
 10
13.79907335632549
 20
1.576210391822356
 10
13.80254446924788
 20
1.57548724329687
 10
13.80616021187535
 20
1.575197983886689
 10
13.80731724951615
 20
1.575197983886689
 10
13.80847428715695
 20
1.57534261359178
 10
13.80977595450283
 20
1.57548724329687
 10
13.81107762184872
 20
1.575631873001956
 10
13.81223465948951
 20
1.575921132412178
 10
13.8135363268354
 20
1.576355021527485
 10
13.81469336447619
 20
1.576788910642755
 10
13.81585040211699
 20
1.577222799758063
 10
13.87847506442481
 20
1.614103374558276
 10
13.87992136147582
 20
1.615260412199075
 10
13.88093376941149
 20
1.616851338955178
 10
13.88136765852684
 20
1.618731525121462
 10
13.88151228823193
 20
1.620756340992834
 10
13.88151228823193
 20
1.717658243409144
 10
13.88122302882171
 20
1.720984726626399
 10
13.88064451000132
 20
1.724021950433479
 10
13.8796321020656
 20
1.726480655420159
 10
13.87833043471972
 20
1.728505471291573
 10
13.87673950796366
 20
1.729951768342549
 10
13.87485932179733
 20
1.731108805983343
 10
13.8729791356311
 20
1.731687324803741
 10
13.87109894946477
 20
1.731976584213922
  0
LWPOLYLINE
  5
7B5
330
17
100
AcDbEntity
  8
4
  6
Continuous
100
AcDbPolyline
 90
       21
 70
     0
 43
0.0
 10
14.02196833405301
 20
1.729228619817061
 10
13.98378609190687
 20
1.729228619817061
 10
13.98566627807319
 20
1.727926952471175
 10
13.98754646423943
 20
1.726191396009983
 10
13.98942665040576
 20
1.724455839548789
 10
13.99101757716183
 20
1.722431023677416
 10
13.99246387421284
 20
1.720406207806
 10
13.99362091185359
 20
1.718092132524454
 10
13.99434406037912
 20
1.71577805724286
 10
13.9946333197893
 20
1.71331935225618
 10
13.9946333197893
 20
1.580115393860054
 10
14.03064611635898
 20
1.580115393860054
 10
14.03064611635898
 20
1.720550837511134
 10
14.03050148665385
 20
1.722575653382505
 10
14.03006759753855
 20
1.724311209843699
 10
14.02919981930796
 20
1.725757506894673
 10
14.0281874113723
 20
1.727059174240558
 10
14.02688574402638
 20
1.727926952471175
 10
14.0254394469754
 20
1.728650100996664
 10
14.02384852021929
 20
1.729083990111973
 10
14.02196833405301
 20
1.729228619817061
  0
LWPOLYLINE
  5
7CC
330
17
100
AcDbEntity
  8
4
  6
Continuous
100
AcDbPolyline
 90
       73
 70
     0
 43
0.0
 10
13.69681172254905
 20
1.616995968660268
 10
13.69927042753573
 20
1.615549671609293
 10
13.70129524340715
 20
1.61366948544301
 10
13.7030307998683
 20
1.611355410161418
 10
13.70433246721418
 20
1.60875207546965
 10
13.70505561573972
 20
1.605859481367659
 10
13.7052002454448
 20
1.602966887265668
 10
13.70476635632953
 20
1.600218922868809
 10
13.70360931868874
 20
1.59747095847191
 10
13.70230765134285
 20
1.595880031715847
 10
13.70100598399692
 20
1.594433734664829
 10
13.69941505724082
 20
1.593132067318946
 10
13.69767950077967
 20
1.591975029678149
 10
13.69579931461334
 20
1.591107251447573
 10
13.69377449874201
 20
1.590384102922087
 10
13.69160505316551
 20
1.589950213806775
 10
13.68943560758901
 20
1.589805584101688
 10
13.63664576522791
 20
1.589805584101688
 10
13.66513781713237
 20
1.613958744853188
 10
13.66687337359361
 20
1.615549671609293
 10
13.6681750409395
 20
1.617140598365355
 10
13.66933207858025
 20
1.618586895416375
 10
13.67005522710574
 20
1.620033192467345
 10
13.67063374592618
 20
1.621479489518321
 10
13.67092300533636
 20
1.623070416274426
 10
13.67121226474653
 20
1.624516713325401
 10
13.67121226474653
 20
1.626107640081504
 10
13.67121226474653
 20
1.721997134562108
 10
13.67092300533636
 20
1.724021950433479
 10
13.67034448651596
 20
1.726046766304894
 10
13.66933207858025
 20
1.727637693060956
 10
13.66803041123437
 20
1.729083990111973
 10
13.66643948447826
 20
1.730241027752725
 10
13.66470392801711
 20
1.731108805983343
 10
13.66267911214569
 20
1.731687324803741
 10
13.66065429627433
 20
1.731831954508831
 10
13.62941427997296
 20
1.731831954508831
 10
13.63158372554946
 20
1.72966250893237
 10
13.63346391171569
 20
1.727637693060956
 10
13.6350548384718
 20
1.725323617779364
 10
13.63635650581773
 20
1.723009542497814
 10
13.63751354345849
 20
1.720406207806
 10
13.63823669198398
 20
1.717658243409144
 10
13.63867058109928
 20
1.714476389896977
 10
13.63881521080442
 20
1.710860647269498
 10
13.63881521080442
 20
1.61077689134102
 10
13.61307112329676
 20
1.579536875039655
 10
13.71040691482834
 20
1.579536875039655
 10
13.71199784158445
 20
1.579681504744745
 10
13.71373339804564
 20
1.579826134449833
 10
13.7153243248017
 20
1.580115393860054
 10
13.71705988126294
 20
1.580693912680453
 10
13.71879543772409
 20
1.581272431500849
 10
13.7203863644802
 20
1.581995580026338
 10
13.7219772912363
 20
1.582718728551824
 10
13.72356821799236
 20
1.583586506782399
 10
13.72515914474843
 20
1.584598914718106
 10
13.72660544179944
 20
1.585611322653813
 10
13.72805173885046
 20
1.586768360294608
 10
13.72949803590143
 20
1.587925397935364
 10
13.73065507354223
 20
1.589082435576159
 10
13.73195674088811
 20
1.590384102922087
 10
13.73296914882382
 20
1.591685770267972
 10
13.73398155675949
 20
1.592987437613856
 10
13.73629563204108
 20
1.597615588176998
 10
13.73774192909209
 20
1.602822257560581
 10
13.73846507761754
 20
1.608607445764518
 10
13.73832044791245
 20
1.614537263673585
 10
13.73730803997674
 20
1.620177822172436
 10
13.73557248351559
 20
1.62538449155602
 10
13.73311377852891
 20
1.629723382708981
 10
13.72978729531161
 20
1.633049865926238
 10
13.69681172254905
 20
1.616995968660268
  0
LWPOLYLINE
  5
817
330
17
100
AcDbEntity
  8
4
  6
Continuous
100
AcDbPolyline
 90
       21
 70
     0
 43
0.0
 10
14.95525352683988
 20
1.729517879227238
 10
14.95800149123674
 20
1.728071582176266
 10
14.96031556651833
 20
1.726336025715071
 10
14.96234038238971
 20
1.724311209843699
 10
14.96378667944072
 20
1.721997134562108
 10
14.96494371708152
 20
1.719393799870338
 10
14.96581149531209
 20
1.716645835473436
 10
14.9662453844274
 20
1.713608611666358
 10
14.96639001413249
 20
1.710426758154189
 10
14.96639001413249
 20
1.579536875039655
 10
15.00196892158682
 20
1.579536875039655
 10
15.00196892158682
 20
1.710860647269498
 10
15.00211355129191
 20
1.713897871076578
 10
15.00283669981744
 20
1.716501205768348
 10
15.00370447804802
 20
1.719104540460118
 10
15.00515077509899
 20
1.721418615741708
 10
15.0067417018551
 20
1.723588061318213
 10
15.00876651772647
 20
1.725757506894673
 10
15.01093596330292
 20
1.727637693060956
 10
15.01353929799474
 20
1.729517879227238
 10
14.95525352683988
 20
1.729517879227238
  0
LWPOLYLINE
  5
82E
330
17
100
AcDbEntity
  8
4
  6
Continuous
100
AcDbPolyline
 90
      138
 70
     0
 43
0.0
 10
14.43379728231885
 20
1.729517879227238
 10
14.43683450612593
 20
1.727348433650779
 10
14.43929321111261
 20
1.724889728664098
 10
14.44131802698398
 20
1.722141764267196
 10
14.44276432403496
 20
1.719249170165206
 10
14.44392136167575
 20
1.716211946358126
 10
14.44464451020128
 20
1.713030092845959
 10
14.44507839931655
 20
1.709558979923613
 10
14.44522302902164
 20
1.705943237296136
 10
14.44522302902164
 20
1.597326328766819
 10
14.44261969432987
 20
1.597326328766819
 10
14.44001635963809
 20
1.59747095847191
 10
14.43741302494633
 20
1.597760217882129
 10
14.43495431995964
 20
1.598194106997395
 10
14.43235098526788
 20
1.598772625817793
 10
14.42989228028119
 20
1.599495774343282
 10
14.42743357529451
 20
1.600363552573899
 10
14.42511950001292
 20
1.601231330804474
 10
14.42266079502624
 20
1.60238836844527
 10
14.42034671974465
 20
1.603545406086065
 10
14.41817727416815
 20
1.60484707343195
 10
14.41600782859168
 20
1.606293370482968
 10
14.41383838301518
 20
1.607884297239032
 10
14.41166893743872
 20
1.609475223995135
 10
14.40964412156731
 20
1.611210780456331
 10
14.40776393540106
 20
1.612946336917482
 10
14.40443745218377
 20
1.61627282013478
 10
14.40140022837669
 20
1.61988856276226
 10
14.39865226397979
 20
1.623648935094823
 10
14.39619355899311
 20
1.62769856683761
 10
14.39402411341664
 20
1.631892828285443
 10
14.39228855695545
 20
1.63608708973332
 10
14.39084225990448
 20
1.640570610591415
 10
14.38982985196877
 20
1.645054131449465
 10
14.38925133314837
 20
1.64924839289734
 10
14.38881744403306
 20
1.653442654345215
 10
14.38881744403306
 20
1.65778154549818
 10
14.38910670344324
 20
1.661975806946055
 10
14.38968522226368
 20
1.666170068393932
 10
14.39055300049426
 20
1.670364329841764
 10
14.39185466784018
 20
1.674413961584549
 10
14.39359022430133
 20
1.678318963622245
 10
14.39489189164722
 20
1.680777668608928
 10
14.39619355899311
 20
1.683236373595564
 10
14.39749522633899
 20
1.685550448877159
 10
14.39894152339
 20
1.687864524158752
 10
14.40024319073589
 20
1.690178599440343
 10
14.40168948778691
 20
1.692348045016804
 10
14.40328041454297
 20
1.694517490593304
 10
14.40487134129902
 20
1.696542306464678
 10
14.40646226805518
 20
1.698711752041179
 10
14.40805319481124
 20
1.700736567912553
 10
14.4097887512724
 20
1.702761383783926
 10
14.41152430773363
 20
1.70478619965534
 10
14.41340449389987
 20
1.706666385821622
 10
14.4152846800662
 20
1.708691201692995
 10
14.41716486623244
 20
1.710571387859278
 10
14.41918968210385
 20
1.712596203730693
 10
14.42092523856504
 20
1.714621019602063
 10
14.4220822762058
 20
1.716790465178524
 10
14.42280542473133
 20
1.718959910755029
 10
14.42295005443642
 20
1.721129356331531
 10
14.42280542473133
 20
1.723298801907993
 10
14.42237153561606
 20
1.725468247484496
 10
14.42164838709053
 20
1.727493063355868
 10
14.42063597915482
 20
1.729517879227238
 10
14.36871391502435
 20
1.729517879227238
 10
14.36987095266514
 20
1.728505471291573
 10
14.37102799030594
 20
1.727493063355868
 10
14.37218502794669
 20
1.726480655420159
 10
14.37334206558749
 20
1.725323617779364
 10
14.37435447352315
 20
1.72416658013861
 10
14.37536688145886
 20
1.722864912792684
 10
14.37623465968948
 20
1.721563245446799
 10
14.37710243792006
 20
1.720261578100914
 10
14.37883799438125
 20
1.716356576063257
 10
14.37970577261187
 20
1.712162314615384
 10
14.37970577261187
 20
1.707823423462419
 10
14.37912725379143
 20
1.703484532309454
 10
14.37797021615063
 20
1.698856381746271
 10
14.37609002998439
 20
1.694372860888218
 10
14.37392058440789
 20
1.690178599440343
 10
14.3714618794212
 20
1.686128967697554
 10
14.36885854472944
 20
1.682079335954813
 10
14.36611058033254
 20
1.678174333917116
 10
14.36336261593563
 20
1.674124702174369
 10
14.36090391094895
 20
1.670075070431585
 10
14.35887909507762
 20
1.666025438688799
 10
14.35714353861639
 20
1.661975806946055
 10
14.3558418712705
 20
1.65763691579309
 10
14.3548294633348
 20
1.653298024640085
 10
14.35425094451444
 20
1.64895913348712
 10
14.35396168510426
 20
1.64447561262907
 10
14.35396168510426
 20
1.639992091771015
 10
14.35439557421953
 20
1.63550857091292
 10
14.35497409303993
 20
1.63261597681097
 10
14.35555261186032
 20
1.629723382708981
 10
14.35642039009094
 20
1.626830788606992
 10
14.35743279802661
 20
1.624082824210135
 10
14.3585898356674
 20
1.62133485981323
 10
14.35989150301329
 20
1.618731525121462
 10
14.36119317035917
 20
1.61598356072456
 10
14.36278409711528
 20
1.613524855737879
 10
14.36437502387134
 20
1.6110661507512
 10
14.36611058033254
 20
1.608607445764518
 10
14.36799076649882
 20
1.606293370482968
 10
14.37001558237023
 20
1.603979295201376
 10
14.3720403982416
 20
1.601809849624873
 10
14.37406521411297
 20
1.59964040404841
 10
14.37623465968948
 20
1.597615588176998
 10
14.37854873497107
 20
1.595735402010714
 10
14.38115206966284
 20
1.593710586139343
 10
14.38404466376479
 20
1.591830399973058
 10
14.38693725786682
 20
1.590094843511868
 10
14.38997448167386
 20
1.588503916755763
 10
14.39315633518607
 20
1.587057619704785
 10
14.39633818869819
 20
1.5857559523589
 10
14.3996646719155
 20
1.584454285013015
 10
14.40299115513279
 20
1.583441877077309
 10
14.40631763835005
 20
1.582574098846735
 10
14.40964412156731
 20
1.581706320616115
 10
14.41311523448969
 20
1.580983172090629
 10
14.41658634741208
 20
1.580549282975318
 10
14.41991283062934
 20
1.580115393860054
 10
14.42338394355173
 20
1.579826134449833
 10
14.42671042676899
 20
1.579536875039655
 10
14.43003690998628
 20
1.579536875039655
 10
14.47848786119442
 20
1.579536875039655
 10
14.47848786119442
 20
1.711294536384763
 10
14.47848786119442
 20
1.713608611666358
 10
14.47848786119442
 20
1.715922686947948
 10
14.47877712060464
 20
1.71838139193463
 10
14.4792110097199
 20
1.720840096921311
 10
14.48007878795052
 20
1.723154172202904
 10
14.48123582559132
 20
1.725323617779364
 10
14.48297138205247
 20
1.727493063355868
 10
14.48528545733406
 20
1.729517879227238
 10
14.43379728231885
 20
1.729517879227238
  0
LWPOLYLINE
  5
8BA
330
17
100
AcDbEntity
  8
4
  6
Continuous
100
AcDbPolyline
 90
      133
 70
     0
 43
0.0
 10
14.65941138019511
 20
1.722575653382505
 10
14.65695267520844
 20
1.719972318690735
 10
14.65463859992684
 20
1.716935094883655
 10
14.65261378405547
 20
1.713753241371446
 10
14.65044433847901
 20
1.710426758154189
 10
14.6482748929025
 20
1.707244904642021
 10
14.64596081762091
 20
1.704063051129853
 10
14.64364674233932
 20
1.701170457027864
 10
14.64089877794246
 20
1.698711752041179
 10
14.63988637000675
 20
1.697988603515694
 10
14.63887396207105
 20
1.697265454990167
 10
14.63786155413534
 20
1.696542306464678
 10
14.63684914619967
 20
1.695819157939189
 10
14.63583673826401
 20
1.695096009413705
 10
14.63467970062321
 20
1.694372860888218
 10
14.63352266298242
 20
1.693649712362732
 10
14.6320763659314
 20
1.692926563837201
 10
14.68457694888236
 20
1.692926563837201
 10
14.68226287360077
 20
1.691046377670919
 10
14.68009342802426
 20
1.689166191504637
 10
14.67806861215285
 20
1.687286005338351
 10
14.67604379628153
 20
1.68526118946698
 10
14.6741636101152
 20
1.683091743890478
 10
14.67228342394892
 20
1.680922298314015
 10
14.67054786748772
 20
1.678752852737514
 10
14.66895694073166
 20
1.67643877745592
 10
14.66722138427042
 20
1.673980072469241
 10
14.66577508721945
 20
1.67137673777747
 10
14.66432879016848
 20
1.66862877338061
 10
14.6628824931175
 20
1.66588080898371
 10
14.66143619606653
 20
1.662843585176631
 10
14.6601345287206
 20
1.659806361369553
 10
14.65883286137471
 20
1.656479878152295
 10
14.65767582373391
 20
1.653008765229908
 10
14.65565100786255
 20
1.645343390859644
 10
14.65449397022175
 20
1.637678016489424
 10
14.65434934051667
 20
1.62986801241407
 10
14.65507248904211
 20
1.622058008338719
 10
14.65666341579826
 20
1.614537263673585
 10
14.65926675049002
 20
1.607161148713544
 10
14.66259323370733
 20
1.600218922868809
 10
14.66693212486024
 20
1.59385521584443
 10
14.66910157043675
 20
1.59125188115266
 10
14.67156027542343
 20
1.588793176165983
 10
14.67430823982029
 20
1.586334471179299
 10
14.67734546362741
 20
1.584165025602795
 10
14.68038268743444
 20
1.581995580026338
 10
14.68370917065175
 20
1.57997076415492
 10
14.68718028357413
 20
1.57823520769377
 10
14.69079602620161
 20
1.576644280937665
 10
14.69441176882909
 20
1.575197983886689
 10
14.69817214116165
 20
1.573896316540808
 10
14.70178788378913
 20
1.5728839086051
 10
14.7055482561217
 20
1.572160760079611
 10
14.70930862845427
 20
1.571582241259215
 10
14.71292437108174
 20
1.571437611554081
 10
14.71654011370922
 20
1.571437611554081
 10
14.72001122663156
 20
1.571726870964304
 10
14.72435011778452
 20
1.572450019489789
 10
14.72868900893752
 20
1.573317797720409
 10
14.73288327038536
 20
1.574474835361205
 10
14.73693290212811
 20
1.575921132412178
 10
14.74098253387094
 20
1.57751205916824
 10
14.7447429062035
 20
1.579392245334524
 10
14.74850327853607
 20
1.581561690911025
 10
14.75182976175332
 20
1.584020395897709
 10
14.75515624497058
 20
1.586768360294608
 10
14.75804883907262
 20
1.589660954396556
 10
14.76079680346948
 20
1.592842807908765
 10
14.76325550845616
 20
1.596313920831113
 10
14.76542495403266
 20
1.600074293163678
 10
14.76716051049381
 20
1.603979295201376
 10
14.76860680754478
 20
1.608318186354339
 10
14.76976384518558
 20
1.612801707212395
 10
14.76658199167346
 20
1.610053742815534
 10
14.76325550845616
 20
1.607595037828853
 10
14.75963976582868
 20
1.605280962547261
 10
14.7560240232012
 20
1.603400776380976
 10
14.75226365086864
 20
1.601665219919784
 10
14.74835864883098
 20
1.600218922868809
 10
14.7443090170882
 20
1.599061885228015
 10
14.74025938534541
 20
1.598194106997395
 10
14.73620975360266
 20
1.597615588176998
 10
14.73201549215479
 20
1.59747095847191
 10
14.727965860412
 20
1.59747095847191
 10
14.72391622866926
 20
1.597904847587216
 10
14.71986659692647
 20
1.598627996112706
 10
14.71596159488877
 20
1.599785033753502
 10
14.71205659285112
 20
1.601231330804474
 10
14.70829622051855
 20
1.602966887265668
 10
14.70468047789108
 20
1.605280962547261
 10
14.70135399467378
 20
1.607739667533941
 10
14.69831677086675
 20
1.610632261635932
 10
14.69542417676476
 20
1.61366948544301
 10
14.69296547177807
 20
1.617140598365355
 10
14.69065139649648
 20
1.620611711287745
 10
14.6887712103302
 20
1.624372083620311
 10
14.687035653869
 20
1.62827708565801
 10
14.68558935681799
 20
1.632326717400752
 10
14.68457694888236
 20
1.636376349143539
 10
14.68370917065175
 20
1.640570610591415
 10
14.68313065183131
 20
1.644909501744378
 10
14.68284139242113
 20
1.649103763192253
 10
14.68284139242113
 20
1.653442654345215
 10
14.68313065183131
 20
1.65778154549818
 10
14.68370917065175
 20
1.661975806946055
 10
14.68530009740781
 20
1.66689321691942
 10
14.687035653869
 20
1.671232108072379
 10
14.68891584003528
 20
1.675281739815126
 10
14.69108528561179
 20
1.679042112147734
 10
14.69339936089338
 20
1.68265785477521
 10
14.69614732529024
 20
1.685984337992469
 10
14.69932917880245
 20
1.689455450914855
 10
14.70294492142993
 20
1.692781934132113
 10
14.73042456539868
 20
1.692781934132113
 10
14.73201549215479
 20
1.692781934132113
 10
14.73389567832107
 20
1.693071193542333
 10
14.73592049419244
 20
1.693360452952511
 10
14.73794531006381
 20
1.693938971772909
 10
14.73997012593523
 20
1.694517490593304
 10
14.74170568239638
 20
1.695385268823884
 10
14.74329660915253
 20
1.696253047054502
 10
14.74445364679328
 20
1.697410084695296
 10
14.77077625312129
 20
1.729517879227238
 10
14.6758991665764
 20
1.729517879227238
 10
14.67315120217949
 20
1.72937324952215
 10
14.6708371268979
 20
1.729228619817061
 10
14.66866768132144
 20
1.728794730701753
 10
14.66678749515516
 20
1.728071582176266
 10
14.66490730898887
 20
1.727203803945646
 10
14.66317175252768
 20
1.726046766304894
 10
14.6612915663614
 20
1.724455839548789
 10
14.65941138019511
 20
1.722575653382505
  0
LWPOLYLINE
  5
941
330
17
100
AcDbEntity
  8
4
  6
Continuous
100
AcDbPolyline
 90
      205
 70
     0
 43
0.0
 10
14.62645634148543
 20
1.712451574025559
 10
14.62255133944778
 20
1.716501205768348
 10
14.6183570779999
 20
1.720261578100914
 10
14.61358429773163
 20
1.723443431613081
 10
14.60852225805318
 20
1.726191396009983
 10
14.60317095896451
 20
1.728505471291573
 10
14.59767503017075
 20
1.730385657457856
 10
14.59174521226172
 20
1.731831954508831
 10
14.58581539435266
 20
1.732844362444539
 10
14.57988557644358
 20
1.733422881264935
 10
14.57381112882943
 20
1.733567510970025
 10
14.56759205151018
 20
1.733133621854715
 10
14.56166223360111
 20
1.732410473329229
 10
14.55573241569204
 20
1.731108805983343
 10
14.5499472274881
 20
1.72937324952215
 10
14.54445129869435
 20
1.727059174240558
 10
14.53909999960572
 20
1.724455839548789
 10
14.53505036786288
 20
1.721997134562108
 10
14.53128999553032
 20
1.719393799870338
 10
14.52767425290284
 20
1.716356576063257
 10
14.52434776968559
 20
1.71317472255109
 10
14.52116591617342
 20
1.709703609628703
 10
14.51827332207147
 20
1.706087867001224
 10
14.51566998737966
 20
1.702182864963571
 10
14.51321128239297
 20
1.698133233220784
 10
14.5111864665216
 20
1.694083601477996
 10
14.50930628035528
 20
1.689744710325034
 10
14.5078599833043
 20
1.68526118946698
 10
14.50670294566351
 20
1.680777668608928
 10
14.50583516743293
 20
1.676294147750833
 10
14.50540127831763
 20
1.671665997187691
 10
14.50511201890745
 20
1.66689321691942
 10
14.50540127831763
 20
1.662265066356234
 10
14.50554590802271
 20
1.65995099107464
 10
14.50583516743293
 20
1.657492286087959
 10
14.50612442684315
 20
1.65517821080641
 10
14.50670294566351
 20
1.652864135524819
 10
14.50742609418903
 20
1.650694689948315
 10
14.50858313182983
 20
1.648669874076944
 10
14.51002942888081
 20
1.64707894732084
 10
14.51190961504709
 20
1.645921909680043
 10
14.51277739327767
 20
1.645488020564777
 10
14.51364517150827
 20
1.645198761154554
 10
14.51465757944399
 20
1.645054131449465
 10
14.51552535767453
 20
1.645054131449465
 10
14.51653776561023
 20
1.645198761154554
 10
14.51755017354594
 20
1.645198761154554
 10
14.51856258148165
 20
1.645488020564777
 10
14.51986424882753
 20
1.645632650269863
 10
14.5628192712419
 20
1.653153394934997
 10
14.56469945740823
 20
1.653442654345215
 10
14.56672427327956
 20
1.653731913755392
 10
14.56860445944589
 20
1.653876543460484
 10
14.57062927531726
 20
1.654021173165614
 10
14.57250946148354
 20
1.654021173165614
 10
14.57453427735496
 20
1.654021173165614
 10
14.5764144635212
 20
1.654021173165614
 10
14.57843927939261
 20
1.653876543460484
 10
14.58031946555885
 20
1.653731913755392
 10
14.58234428143027
 20
1.653442654345215
 10
14.58422446759655
 20
1.653153394934997
 10
14.58610465376283
 20
1.652719505819729
 10
14.58812946963425
 20
1.652285616704421
 10
14.59000965580053
 20
1.651707097884023
 10
14.59174521226172
 20
1.651128579063624
 10
14.59362539842796
 20
1.650405430538138
 10
14.59796428958097
 20
1.648091355256545
 10
14.60143540250336
 20
1.644909501744378
 10
14.60418336690021
 20
1.641149129411811
 10
14.60591892336137
 20
1.636954867963936
 10
14.60693133129708
 20
1.632326717400752
 10
14.6072205907073
 20
1.627553937132478
 10
14.6066420718869
 20
1.62278115686425
 10
14.60519577483593
 20
1.618153006301063
 10
14.60374947778495
 20
1.615115782493985
 10
14.6021585510288
 20
1.612223188391995
 10
14.60013373515747
 20
1.609619853700225
 10
14.59796428958097
 20
1.607161148713544
 10
14.59550558459429
 20
1.60484707343195
 10
14.59290224990252
 20
1.602822257560581
 10
14.59015428550562
 20
1.601086701099385
 10
14.58726169140363
 20
1.599495774343282
 10
14.58422446759655
 20
1.598194106997395
 10
14.58104261408438
 20
1.597181699061732
 10
14.57786076057221
 20
1.5964585505362
 10
14.57467890706005
 20
1.596169291126025
 10
14.57135242384274
 20
1.596024661420934
 10
14.56802594062544
 20
1.596313920831113
 10
14.56484408711332
 20
1.59689243965151
 10
14.56166223360111
 20
1.597760217882129
 10
14.55905889890934
 20
1.598772625817793
 10
14.55660019392266
 20
1.599929663458589
 10
14.55428611864107
 20
1.601086701099385
 10
14.55197204335947
 20
1.602532998150359
 10
14.54965796807792
 20
1.603979295201376
 10
14.54748852250142
 20
1.605714851662571
 10
14.54531907692496
 20
1.607305778418635
 10
14.54329426105355
 20
1.609185964584917
 10
14.54141407488726
 20
1.6110661507512
 10
14.53938925901589
 20
1.613090966622611
 10
14.5376537025547
 20
1.615115782493985
 10
14.53591814609351
 20
1.617140598365355
 10
14.53418258963236
 20
1.619310043941859
 10
14.53259166287625
 20
1.621624119223451
 10
14.53100073612014
 20
1.623793564799913
 10
14.52955443906917
 20
1.626107640081504
 10
14.49527719896072
 20
1.609185964584917
 10
14.49802516335758
 20
1.604702443726861
 10
14.50120701686978
 20
1.600652811984075
 10
14.50467812979213
 20
1.596747809946422
 10
14.5084385021247
 20
1.593132067318946
 10
14.51248813386749
 20
1.589950213806775
 10
14.51682702502045
 20
1.587057619704785
 10
14.52131054587851
 20
1.584454285013015
 10
14.52608332614678
 20
1.582284839436514
 10
14.53100073612014
 20
1.58040465327023
 10
14.53591814609351
 20
1.578813726514169
 10
14.54112481547704
 20
1.57765668887337
 10
14.54633148486063
 20
1.576788910642755
 10
14.55153815424421
 20
1.576355021527485
 10
14.55674482362775
 20
1.576355021527485
 10
14.56195149301133
 20
1.576788910642755
 10
14.56715816239487
 20
1.57751205916824
 10
14.57236483177845
 20
1.578813726514169
 10
14.5774268714569
 20
1.58040465327023
 10
14.58219965172517
 20
1.582429469141642
 10
14.58697243199345
 20
1.585032803833414
 10
14.5914559528515
 20
1.587780768230274
 10
14.59565021429938
 20
1.590962621742441
 10
14.59969984604212
 20
1.594433734664829
 10
14.60346021837473
 20
1.598338736702525
 10
14.60678670159198
 20
1.60238836844527
 10
14.6099685551042
 20
1.606582629893147
 10
14.61271651950105
 20
1.611210780456331
 10
14.61503059478265
 20
1.61598356072456
 10
14.61705541065402
 20
1.620756340992834
 10
14.61864633741013
 20
1.625818380671328
 10
14.61980337505092
 20
1.631025050054866
 10
14.62038189387127
 20
1.636376349143539
 10
14.62052652357637
 20
1.640425980886283
 10
14.62038189387127
 20
1.64447561262907
 10
14.61994800475601
 20
1.648380614666725
 10
14.61922485623048
 20
1.652430246409509
 10
14.61806781858972
 20
1.656190618742075
 10
14.6167661512438
 20
1.65995099107464
 10
14.61503059478265
 20
1.663566733702118
 10
14.61286114920615
 20
1.667037846624505
 10
14.611125592745
 20
1.669351921906099
 10
14.60924540657867
 20
1.67137673777747
 10
14.6072205907073
 20
1.673256923943753
 10
14.60490651542571
 20
1.67499248040495
 10
14.60259244014415
 20
1.676583407161053
 10
14.60013373515747
 20
1.67788507450694
 10
14.59753040046566
 20
1.679186741852823
 10
14.59478243606876
 20
1.68019914978853
 10
14.5920344716719
 20
1.681211557724194
 10
14.58928650727504
 20
1.681934706249679
 10
14.58639391317305
 20
1.68265785477521
 10
14.58364594877615
 20
1.683236373595564
 10
14.5807533546742
 20
1.683670262710877
 10
14.57786076057221
 20
1.683959522121095
 10
14.57496816647022
 20
1.684248781531274
 10
14.57222020207336
 20
1.684393411236363
 10
14.57048464561217
 20
1.684538040941494
 10
14.56860445944589
 20
1.684538040941494
 10
14.56686890298469
 20
1.684393411236363
 10
14.5651333465235
 20
1.684393411236363
 10
14.56339779006231
 20
1.684248781531274
 10
14.56151760389602
 20
1.684104151826185
 10
14.55978204743487
 20
1.683814892415963
 10
14.55804649097364
 20
1.683670262710877
 10
14.55631093451248
 20
1.683381003300699
 10
14.55457537805125
 20
1.683091743890478
 10
14.55269519188501
 20
1.6828024844803
 10
14.55095963542381
 20
1.682513225070078
 10
14.54922407896262
 20
1.6822239656599
 10
14.54748852250142
 20
1.681934706249679
 10
14.54560833633514
 20
1.681645446839504
 10
14.54387277987395
 20
1.681356187429284
 10
14.51812869236634
 20
1.675137110110035
 10
14.51755017354594
 20
1.677595815096719
 10
14.51783943295612
 20
1.681356187429284
 10
14.51885184089183
 20
1.685984337992469
 10
14.52044276764793
 20
1.69119100737605
 10
14.52275684292948
 20
1.69639767675959
 10
14.52564943703151
 20
1.701315086732949
 10
14.52897592024877
 20
1.705364718475738
 10
14.53288092228643
 20
1.708401942282818
 10
14.53635203520881
 20
1.709992869038879
 10
14.53996777783625
 20
1.711149906679674
 10
14.54372815016886
 20
1.712017684910293
 10
14.54763315220656
 20
1.712451574025559
 10
14.55153815424421
 20
1.712596203730693
 10
14.55558778598695
 20
1.712451574025559
 10
14.55949278802461
 20
1.711873055205163
 10
14.56339779006231
 20
1.711005276974588
 10
14.5673027921
 20
1.709848239333791
 10
14.57091853472748
 20
1.708401942282818
 10
14.57453427735496
 20
1.706811015526711
 10
14.57786076057221
 20
1.704930829360429
 10
14.58089798437929
 20
1.702761383783926
 10
14.58364594877615
 20
1.700302678797245
 10
14.58610465376283
 20
1.697699344105473
 10
14.58827409933934
 20
1.694951379708617
 10
14.62645634148543
 20
1.712451574025559
  0
LWPOLYLINE
  5
A10
330
17
100
AcDbEntity
  8
4
  6
Continuous
100
AcDbPolyline
 90
       61
 70
     0
 43
0.0
 10
14.88950858220431
 20
1.665157660458224
 10
14.89370284365222
 20
1.665446919868401
 10
14.89775247539497
 20
1.666025438688799
 10
14.90136821802245
 20
1.66689321691942
 10
14.9046947012397
 20
1.668050254560214
 10
14.90758729534169
 20
1.669496551611189
 10
14.91033525973855
 20
1.671087478367294
 10
14.91279396472523
 20
1.672967664533576
 10
14.91496341030174
 20
1.675137110110035
 10
14.91684359646806
 20
1.677451185391628
 10
14.91843452322412
 20
1.67990989037831
 10
14.91973619057001
 20
1.682513225070078
 10
14.92074859850571
 20
1.685405819172069
 10
14.92161637673629
 20
1.68829841327406
 10
14.92219489555669
 20
1.691335637081138
 10
14.92248415496687
 20
1.694517490593304
 10
14.92262878467199
 20
1.697843973810563
 10
14.92248415496687
 20
1.700881197617643
 10
14.92190563614651
 20
1.70391842142472
 10
14.92118248762098
 20
1.706811015526711
 10
14.92002544998019
 20
1.709703609628703
 10
14.9187237826343
 20
1.712451574025559
 10
14.91698822617315
 20
1.715054908717372
 10
14.91525266971191
 20
1.717513613704054
 10
14.91308322413545
 20
1.719827688985604
 10
14.91091377855899
 20
1.721852504857019
 10
14.90845507357231
 20
1.723732691023299
 10
14.90585173888054
 20
1.725323617779364
 10
14.90310377448364
 20
1.726769914830381
 10
14.90035581008674
 20
1.727926952471175
 10
14.89746321598478
 20
1.728650100996664
 10
14.89442599217766
 20
1.729228619817061
 10
14.89138876837063
 20
1.72937324952215
 10
14.79000334509627
 20
1.72937324952215
 10
14.79144964214724
 20
1.728216211881351
 10
14.79275130949313
 20
1.727059174240558
 10
14.79405297683901
 20
1.725757506894673
 10
14.79521001447981
 20
1.724600469253878
 10
14.79636705212061
 20
1.723443431613081
 10
14.7975240897614
 20
1.721997134562108
 10
14.79853649769711
 20
1.720550837511134
 10
14.79954890563277
 20
1.718815281049939
 10
14.80099520268379
 20
1.71563342753777
 10
14.80215224032459
 20
1.711873055205163
 10
14.80287538885003
 20
1.708257312577686
 10
14.80316464826025
 20
1.705364718475738
 10
14.80330927796538
 20
1.57534261359178
 10
14.83816503689418
 20
1.605859481367659
 10
14.83816503689418
 20
1.666170068393932
 10
14.85349578563471
 20
1.666314698099017
 10
14.90570710917541
 20
1.579826134449833
 10
14.95068694746115
 20
1.579536875039655
 10
14.94793898306429
 20
1.581127801795718
 10
14.94519101866744
 20
1.583007987962003
 10
14.94258768397567
 20
1.584888174128328
 10
14.94012897898899
 20
1.587057619704785
 10
14.93767027400231
 20
1.589082435576159
 10
14.93535619872071
 20
1.591396510857753
 10
14.93304212343912
 20
1.593710586139343
 10
14.93072804815753
 20
1.596169291126025
 10
14.88950858220431
 20
1.665157660458224
  0
LWPOLYLINE
  5
A4F
330
17
100
AcDbEntity
  8
4
  6
Continuous
100
AcDbPolyline
 90
       21
 70
     0
 43
0.0
 10
14.88878543367886
 20
1.697843973810563
 10
14.88835154456351
 20
1.693360452952511
 10
14.88704987721763
 20
1.689166191504637
 10
14.88502506134625
 20
1.685550448877159
 10
14.88227709694935
 20
1.682368595364992
 10
14.87895061373214
 20
1.67976526067322
 10
14.87519024139953
 20
1.67788507450694
 10
14.87114060965674
 20
1.676728036866141
 10
14.86680171850382
 20
1.676294147750833
 10
14.83773114777892
 20
1.676294147750833
 10
14.83773114777892
 20
1.713463981961269
 10
14.8346939239718
 20
1.720550837511134
 10
14.86723560761909
 20
1.720550837511134
 10
14.87171912847718
 20
1.720116948395823
 10
14.87576876021993
 20
1.718815281049939
 10
14.8793845028474
 20
1.716790465178524
 10
14.88256635635962
 20
1.714042500781665
 10
14.88516969105139
 20
1.710571387859278
 10
14.88704987721763
 20
1.706811015526711
 10
14.88835154456351
 20
1.702472124373747
 10
14.88878543367886
 20
1.697843973810563
  0
LINE
  5
A66
330
17
100
AcDbEntity
  8
0
100
AcDbLine
 10
15.47500365421311
 20
1.088837136489869
 30
0.0
 11
15.47500365421311
 21
1.268913789283074
 31
0.0
  0
TEXT
  5
A67
330
17
100
AcDbEntity
  8
3
100
AcDbText
 10
15.37542608609522
 20
1.140699344601567
 30
0.0
 40
0.0781522982138528
  1
1
  7
SIMPLEX
100
AcDbText
  0
TEXT
  5
A68
330
17
100
AcDbEntity
  8
3
100
AcDbText
 10
15.88190969500786
 20
1.148242052218144
 30
0.0
 40
0.0535812156554175
  1
1=1
  7
SIMPLEX
 72
     1
 11
15.94186962681273
 21
1.148242052218144
 31
0.0
100
AcDbText
  0
TEXT
  5
A69
330
17
100
AcDbEntity
  8
3
100
AcDbText
 10
15.57994409689827
 20
1.156139443902528
 30
0.0
 40
0.0390761491069264
  1
SCALE:
  7
SIMPLEX
100
AcDbText
  0
LINE
  5
A6A
330
17
100
AcDbEntity
  8
0
100
AcDbLine
 10
15.81475479140836
 20
0.7999999999999982
 30
0.0
 11
15.81475479140836
 21
1.088837136489869
 31
0.0
  0
TEXT
  5
A6B
330
17
100
AcDbEntity
  8
3
100
AcDbText
 10
15.96619180333974
 20
0.8589523399345051
 30
0.0
 40
0.0875305739995151
  1
*
  7
SIMPLEX
 72
     1
 11
15.98703241619677
 21
0.8589523399345051
 31
0.0
100
AcDbText
  0
TEXT
  5
A6C
330
17
100
AcDbEntity
  8
3
100
AcDbText
 10
15.93293795200546
 20
1.015346836363332
 30
0.0
 40
0.0390761491069264
  1
REV.
  7
SIMPLEX
100
AcDbText
  0
TEXT
  5
A6D
330
17
100
AcDbEntity
  8
4
100
AcDbText
 10
15.36078691913879
 20
1.577369927989764
 30
0.0
 40
0.094
  1
inc., erie, pa.
  7
T
100
AcDbText
  0
LWPOLYLINE
  5
A6F
330
17
100
AcDbEntity
  8
4
  6
Continuous
 62
     4
100
AcDbPolyline
 90
      205
 70
     0
 43
0.0
 10
15.28857977936965
 20
1.711439166089895
 10
15.28467477733199
 20
1.715488797832639
 10
15.28048051588407
 20
1.719104540460118
 10
15.27570773561584
 20
1.722286393972285
 10
15.27064569593735
 20
1.725178988074275
 10
15.26529439684872
 20
1.727493063355868
 10
15.25979846805492
 20
1.72937324952215
 10
15.25401327985098
 20
1.730819546573123
 10
15.24808346194195
 20
1.731831954508831
 10
15.2420090143278
 20
1.73226584362414
 10
15.23593456671363
 20
1.732410473329229
 10
15.22986011909948
 20
1.73212121391905
 10
15.22378567148532
 20
1.731253435688433
 10
15.21785585357625
 20
1.729951768342549
 10
15.21207066537227
 20
1.728216211881351
 10
15.20657473657855
 20
1.726046766304894
 10
15.20122343748984
 20
1.723443431613081
 10
15.1971738057471
 20
1.720984726626399
 10
15.19341343341453
 20
1.71823676222954
 10
15.18979769078705
 20
1.71534416812755
 10
15.18647120756976
 20
1.712162314615384
 10
15.18328935405763
 20
1.708691201692995
 10
15.1803967599556
 20
1.704930829360429
 10
15.17764879555874
 20
1.701170457027864
 10
15.17533472027715
 20
1.697120825285074
 10
15.17316527470069
 20
1.692926563837201
 10
15.1712850885344
 20
1.688587672684236
 10
15.16983879148343
 20
1.684248781531274
 10
15.16868175384263
 20
1.67976526067322
 10
15.16781397561201
 20
1.675137110110035
 10
15.16723545679161
 20
1.670508959546894
 10
15.16709082708653
 20
1.66588080898371
 10
15.16738008649675
 20
1.661252658420568
 10
15.16752471620183
 20
1.658793953433888
 10
15.16781397561201
 20
1.656479878152295
 10
15.16810323502219
 20
1.654021173165614
 10
15.16868175384263
 20
1.651707097884023
 10
15.16954953207321
 20
1.649537652307517
 10
15.17056194000887
 20
1.647512836436148
 10
15.17215286676498
 20
1.645921909680043
 10
15.17403305293126
 20
1.64476487203929
 10
15.17490083116188
 20
1.644330982923978
 10
15.17576860939245
 20
1.644041723513758
 10
15.17678101732817
 20
1.644041723513758
 10
15.17764879555874
 20
1.644041723513758
 10
15.17866120349444
 20
1.644041723513758
 10
15.17967361143015
 20
1.64418635321889
 10
15.18083064907095
 20
1.64447561262907
 10
15.18213231641683
 20
1.644620242334156
 10
15.22508733883121
 20
1.652140986999331
 10
15.22696752499749
 20
1.652430246409509
 10
15.22899234086886
 20
1.652574876114599
 10
15.23087252703519
 20
1.652864135524819
 10
15.23289734290652
 20
1.652864135524819
 10
15.23477752907284
 20
1.653008765229908
 10
15.23680234494421
 20
1.653008765229908
 10
15.2386825311105
 20
1.652864135524819
 10
15.24070734698191
 20
1.652719505819729
 10
15.24258753314815
 20
1.652574876114599
 10
15.24461234901957
 20
1.652285616704421
 10
15.24649253518585
 20
1.6519963572942
 10
15.24837272135213
 20
1.651562468178934
 10
15.25025290751842
 20
1.651128579063624
 10
15.2521330936847
 20
1.650694689948315
 10
15.25401327985098
 20
1.650116171127915
 10
15.25574883631218
 20
1.64939302260243
 10
15.26008772746518
 20
1.64707894732084
 10
15.26370347009262
 20
1.64389709380867
 10
15.26630680478443
 20
1.640136721476103
 10
15.26818699095067
 20
1.63579783032314
 10
15.26919939888638
 20
1.631314309465088
 10
15.26934402859147
 20
1.626541529196813
 10
15.26876550977111
 20
1.621768748928542
 10
15.26731921272009
 20
1.616995968660268
 10
15.26587291566908
 20
1.613958744853188
 10
15.26428198891301
 20
1.6110661507512
 10
15.2622571730416
 20
1.608462816059429
 10
15.26008772746518
 20
1.606004111072748
 10
15.25777365218359
 20
1.603690035791156
 10
15.25517031749178
 20
1.601665219919784
 10
15.25227772338979
 20
1.599929663458589
 10
15.24938512928784
 20
1.598338736702525
 10
15.24634790548076
 20
1.597037069356599
 10
15.24331068167368
 20
1.596169291126025
 10
15.23998419845638
 20
1.595446142600535
 10
15.23680234494421
 20
1.595012253485228
 10
15.23362049143205
 20
1.59486762378014
 10
15.23029400821475
 20
1.595156883190315
 10
15.22711215470258
 20
1.595735402010714
 10
15.22393030119041
 20
1.596747809946422
 10
15.22132696649864
 20
1.597760217882129
 10
15.21886826151196
 20
1.598917255522881
 10
15.21640955652528
 20
1.600074293163678
 10
15.21409548124369
 20
1.601520590214694
 10
15.21178140596209
 20
1.602966887265668
 10
15.2096119603856
 20
1.604557814021774
 10
15.20758714451426
 20
1.606293370482968
 10
15.20541769893776
 20
1.60817355664925
 10
15.20353751277143
 20
1.610053742815534
 10
15.2016573266052
 20
1.611933928981815
 10
15.19977714043887
 20
1.613958744853188
 10
15.19804158397772
 20
1.616128190429692
 10
15.19630602751648
 20
1.618297636006154
 10
15.19471510076042
 20
1.620467081582657
 10
15.19312417400436
 20
1.622636527159115
 10
15.19167787695334
 20
1.624950602440707
 10
15.1572560071398
 20
1.60817355664925
 10
15.16000397153666
 20
1.603690035791156
 10
15.16318582504883
 20
1.599495774343282
 10
15.16665693797122
 20
1.595590772305626
 10
15.17041731030379
 20
1.592119659383236
 10
15.17446694204657
 20
1.588793176165983
 10
15.17880583319954
 20
1.585900582063993
 10
15.18343398376272
 20
1.583297247372223
 10
15.18806213432586
 20
1.581127801795718
 10
15.19297954429926
 20
1.579247615629435
 10
15.19804158397772
 20
1.57765668887337
 10
15.20324825336126
 20
1.576499651232578
 10
15.2084549227448
 20
1.57577650270709
 10
15.21366159212838
 20
1.57534261359178
 10
15.21886826151196
 20
1.57534261359178
 10
15.2240749308955
 20
1.575631873001956
 10
15.22928160027904
 20
1.576499651232578
 10
15.23448826966266
 20
1.57765668887337
 10
15.23955030934112
 20
1.579392245334524
 10
15.24432308960939
 20
1.581417061205939
 10
15.24909586987762
 20
1.58387576619262
 10
15.25357939073567
 20
1.586768360294608
 10
15.25791828188868
 20
1.589950213806775
 10
15.26182328392633
 20
1.59342132672912
 10
15.2655836562589
 20
1.597181699061732
 10
15.26905476918129
 20
1.601231330804474
 10
15.27209199298837
 20
1.60557022195744
 10
15.27483995738527
 20
1.610053742815534
 10
15.27729866237191
 20
1.614826523083807
 10
15.27917884853819
 20
1.619743933057169
 10
15.28076977529429
 20
1.62480597273562
 10
15.28192681293509
 20
1.630012642119161
 10
15.28250533175549
 20
1.63521931150274
 10
15.28279459116567
 20
1.63926894324553
 10
15.28264996146058
 20
1.643318574988271
 10
15.28221607234531
 20
1.647368206731058
 10
15.28149292381978
 20
1.651273208768714
 10
15.28033588617899
 20
1.65517821080641
 10
15.27888958912801
 20
1.658938583138975
 10
15.27715403266682
 20
1.662554325766454
 10
15.27498458709036
 20
1.666025438688799
 10
15.27324903062912
 20
1.668194884265303
 10
15.27136884446288
 20
1.670364329841764
 10
15.26934402859147
 20
1.672244516008089
 10
15.26717458301501
 20
1.67383544276415
 10
15.26471587802828
 20
1.675426369520256
 10
15.2622571730416
 20
1.676872666571232
 10
15.25965383834983
 20
1.678029704212026
 10
15.25705050365806
 20
1.679186741852823
 10
15.2543025392612
 20
1.680054520083399
 10
15.2515545748643
 20
1.680922298314015
 10
15.24866198076231
 20
1.681645446839504
 10
15.24576938666036
 20
1.6822239656599
 10
15.24287679255837
 20
1.68265785477521
 10
15.23998419845638
 20
1.682947114185389
 10
15.23709160435443
 20
1.683236373595564
 10
15.23434363995753
 20
1.683381003300699
 10
15.23260808349634
 20
1.683381003300699
 10
15.23072789733006
 20
1.683381003300699
 10
15.22899234086886
 20
1.683381003300699
 10
15.22725678440771
 20
1.683236373595564
 10
15.22552122794648
 20
1.683091743890478
 10
15.22378567148532
 20
1.682947114185389
 10
15.22205011502413
 20
1.6828024844803
 10
15.22031455856294
 20
1.682513225070078
 10
15.21843437239665
 20
1.6822239656599
 10
15.21669881593546
 20
1.681934706249679
 10
15.21496325947427
 20
1.681645446839504
 10
15.21322770301307
 20
1.681500817134415
 10
15.21149214655192
 20
1.681211557724194
 10
15.20975659009072
 20
1.680922298314015
 10
15.20787640392444
 20
1.680633038903794
 10
15.20614084746325
 20
1.680343779493619
 10
15.18025213025051
 20
1.673980072469241
 10
15.17981824113524
 20
1.67643877745592
 10
15.18010750054542
 20
1.68019914978853
 10
15.18097527877604
 20
1.684827300351669
 10
15.18271083523719
 20
1.690033969735253
 10
15.18488028081369
 20
1.695240639118793
 10
15.18777287491568
 20
1.700158049092155
 10
15.19124398783803
 20
1.704207680834943
 10
15.19514898987573
 20
1.707244904642021
 10
15.19862010279807
 20
1.708835831398082
 10
15.20223584542555
 20
1.71013749874401
 10
15.20599621775811
 20
1.710860647269498
 10
15.20990121979582
 20
1.711439166089895
 10
15.21380622183351
 20
1.711583795794985
 10
15.21785585357625
 20
1.711294536384763
 10
15.22176085561391
 20
1.710860647269498
 10
15.2256658576516
 20
1.709992869038879
 10
15.22957085968926
 20
1.708835831398082
 10
15.23318660231674
 20
1.70738953434711
 10
15.23665771523909
 20
1.705653977885915
 10
15.23998419845638
 20
1.703773791719632
 10
15.24302142226346
 20
1.701604346143171
 10
15.24591401636545
 20
1.699145641156492
 10
15.24837272135213
 20
1.696542306464678
 10
15.25039753722354
 20
1.69379434206782
 10
15.28857977936965
 20
1.711439166089895
  0
CIRCLE
  5
B40
330
17
100
AcDbEntity
  8
0
100
AcDbCircle
 10
3.825422710675443
 20
7.705838122469022
 30
0.0
 40
1.259470332700469
  0
CIRCLE
  5
B41
330
17
100
AcDbEntity
  8
0
100
AcDbCircle
 10
3.825422710675443
 20
7.705838122469022
 30
0.0
 40
0.9988902638658894
  0
LINE
  5
B9C
330
17
100
AcDbEntity
  8
0
100
AcDbLine
 10
6.230022557896132
 20
6.446367789768554
 30
0.0
 11
6.324022557896132
 21
6.446367789768553
 31
0.0
  0
LINE
  5
B9D
330
17
100
AcDbEntity
  8
0
100
AcDbLine
 10
6.324022557896132
 20
6.446367789768553
 30
0.0
 11
6.324022557896132
 21
8.965308455169491
 31
0.0
  0
LINE
  5
B9E
330
17
100
AcDbEntity
  8
2
  6
HIDDEN
100
AcDbLine
 10
6.230022557896132
 20
6.706947858603133
 30
0.0
 11
6.324022557896132
 21
6.706947858603133
 31
0.0
  0
LINE
  5
B9F
330
17
100
AcDbEntity
  8
2
  6
HIDDEN
100
AcDbLine
 10
6.230022557896132
 20
8.70472838633491
 30
0.0
 11
6.324022557896132
 21
8.70472838633491
 31
0.0
  0
LINE
  5
BA0
330
17
100
AcDbEntity
  8
0
100
AcDbLine
 10
6.230022557896132
 20
8.965308455169491
 30
0.0
 11
6.324022557896132
 21
8.965308455169491
 31
0.0
  0
LINE
  5
BA1
330
17
100
AcDbEntity
  8
0
100
AcDbLine
 10
6.230022557896132
 20
6.446367789768554
 30
0.0
 11
6.230022557896132
 21
8.965308455169491
 31
0.0
  0
LINE
  5
BA2
330
17
100
AcDbEntity
  8
3
100
AcDbLine
 10
6.324022557896132
 20
9.02830845516949
 30
0.0
 11
6.324022557896132
 21
9.505851089399362
 31
0.0
  0
LINE
  5
BA3
330
17
100
AcDbEntity
  8
3
100
AcDbLine
 10
6.230022557896132
 20
9.02830845516949
 30
0.0
 11
6.230022557896132
 21
9.505851089399362
 31
0.0
  0
LINE
  5
BA4
330
17
100
AcDbEntity
  8
3
100
AcDbLine
 10
6.449022557896132
 20
9.44285108939936
 30
0.0
 11
6.574022557896132
 21
9.44285108939936
 31
0.0
  0
LINE
  5
BA5
330
17
100
AcDbEntity
  8
3
100
AcDbLine
 10
6.105022557896132
 20
9.44285108939936
 30
0.0
 11
5.980022557896132
 21
9.44285108939936
 31
0.0
  0
SOLID
  5
BA6
330
17
100
AcDbEntity
  8
3
100
AcDbTrace
 10
6.449022557896132
 20
9.463684422732695
 30
0.0
 11
6.449022557896132
 21
9.422017756066027
 31
0.0
 12
6.324022557896132
 22
9.44285108939936
 32
0.0
 13
6.324022557896132
 23
9.44285108939936
 33
0.0
  0
SOLID
  5
BA7
330
17
100
AcDbEntity
  8
3
100
AcDbTrace
 10
6.105022557896132
 20
9.463684422732695
 30
0.0
 11
6.105022557896132
 21
9.422017756066027
 31
0.0
 12
6.230022557896132
 22
9.44285108939936
 32
0.0
 13
6.230022557896132
 23
9.44285108939936
 33
0.0
  0
TEXT
  5
BA8
330
17
100
AcDbEntity
  8
3
100
AcDbText
 10
5.437641605515181
 20
9.38035108939936
 30
0.0
 40
0.125
  1
3/32
  7
SIMPLEX
 72
     1
 11
5.663832081705657
 21
9.44285108939936
 31
0.0
100
AcDbText
 73
     2
  0
TEXT
  5
BA9
330
17
100
AcDbEntity
  8
3
100
AcDbText
 10
5.482284462658038
 20
9.173817257380793
 30
0.0
 40
0.125
  1
TYP.
  7
SIMPLEX
 72
     4
 11
5.663832081705657
 21
9.236317257380793
 31
0.0
100
AcDbText
  0
ARC
  5
BAA
330
17
100
AcDbEntity
  8
0
100
AcDbCircle
 10
12.15660062920168
 20
4.0475646140492
 30
0.0
 40
4.755107358273433
100
AcDbArc
 50
67.77220687471355
 51
112.2277931252867
  0
ARC
  5
BAB
330
17
100
AcDbEntity
  8
0
100
AcDbCircle
 10
12.15660062920168
 20
4.0483762864276
 30
0.0
 40
4.379295685895033
100
AcDbArc
 50
67.90518378217455
 51
112.0948162178255
  0
ARC
  5
BAC
330
17
100
AcDbEntity
  8
0
100
AcDbCircle
 10
13.25820062920168
 20
6.990171972322633
 30
0.0
 40
1.24215
100
AcDbArc
 50
296.0568490143521
 51
63.94315098564797
  0
ARC
  5
BAD
330
17
100
AcDbEntity
  8
0
100
AcDbCircle
 10
13.25820062920168
 20
6.990171972322633
 30
0.0
 40
1.61715
100
AcDbArc
 50
295.5395706736442
 51
64.46042932635601
  0
ARC
  5
BAE
330
17
100
AcDbEntity
  8
0
100
AcDbCircle
 10
11.05500062920168
 20
6.990171972322633
 30
0.0
 40
1.61715
100
AcDbArc
 50
115.5395706736445
 51
244.4604293263556
  0
ARC
  5
BAF
330
17
100
AcDbEntity
  8
0
100
AcDbCircle
 10
12.15660062920168
 20
9.932779330596067
 30
0.0
 40
4.755107358273433
100
AcDbArc
 50
247.7722068747134
 51
292.2277931252866
  0
ARC
  5
BB0
330
17
100
AcDbEntity
  8
0
100
AcDbCircle
 10
12.15660062920168
 20
9.931967658217663
 30
0.0
 40
4.379295685895031
100
AcDbArc
 50
247.9051837821744
 51
292.0948162178254
  0
ARC
  5
BB1
330
17
100
AcDbEntity
  8
0
100
AcDbCircle
 10
11.05500062920168
 20
6.990171972322633
 30
0.0
 40
1.24215
100
AcDbArc
 50
116.0568490143525
 51
243.9431509856476
  0
DIMENSION
  5
BBA
330
17
100
AcDbEntity
  8
3
100
AcDbDimension
  2
*D0
 10
14.50035062920168
 20
4.76543929785328
 30
0.0
 11
12.15660062920168
 21
4.76543929785328
 31
0.0
  1
9-3/8"
 71
     5
 42
-1.0
100
AcDbAlignedDimension
 13
9.812850629201678
 23
6.990171972322633
 33
0.0
 14
14.50035062920168
 24
6.990171972322633
 34
0.0
100
AcDbRotatedDimension
  0
DIMENSION
  5
BBB
330
17
100
AcDbEntity
  8
3
100
AcDbDimension
  2
*D1
 10
14.87535062920168
 20
4.400563806340738
 30
0.0
 11
12.15660062920168
 21
4.400563806340738
 31
0.0
  1
10-7/8"
 71
     5
 42
-1.0
100
AcDbAlignedDimension
 13
9.437850629201678
 23
6.990171972322633
 33
0.0
 14
14.87535062920168
 24
6.990171972322633
 34
0.0
100
AcDbRotatedDimension
  0
DIMENSION
  5
BBD
330
17
100
AcDbEntity
  8
3
100
AcDbDimension
  2
*D5
 10
15.53262388710537
 20
8.802671972322633
 30
0.0
 11
15.54163296227216
 21
7.435664462338713
 31
0.0
 70
   160
  1
7-1/4"
 71
     5
 42
3.625
  3
STANDARD
100
AcDbAlignedDimension
 13
12.15660062920168
 23
5.177671972322634
 33
0.0
 14
12.15660062920168
 24
8.802671972322633
 34
0.0
 50
90.0
100
AcDbRotatedDimension
1001
ACAD
1000
DSTYLE
1002
{
1070
    41
1040
0.125
1070
    42
1040
0.063
1070
    44
1040
0.063
1070
    78
1070
     4
1070
   140
1040
0.125
1070
   141
1040
-0.125
1070
   271
1070
     3
1070
   272
1070
     3
1070
   279
1070
     2
1070
   284
1070
     4
1070
   285
1070
     4
1070
   286
1070
     4
1070
   340
1005
20
1002
}
  0
DIMENSION
  5
C9B
330
17
100
AcDbEntity
  8
0
100
AcDbDimension
  2
*D4
 10
3.442194434142103
 20
8.905588766152082
 30
0.0
 11
4.436490785125889
 21
6.119753540193246
 31
0.0
 70
   163
 71
     5
 42
2.518940665400938
  3
STANDARD
100
AcDbDiametricDimension
 15
4.208650987208782
 25
6.506087478785962
 35
0.0
 40
0.0
1001
ACAD
1000
DSTYLE
1002
{
1070
    41
1040
0.125
1070
    42
1040
0.063
1070
    44
1040
0.063
1070
    78
1070
     4
1070
   140
1040
0.125
1070
   141
1040
-0.125
1070
   271
1070
     3
1070
   272
1070
     3
1070
   279
1070
     2
1070
   284
1070
     4
1070
   285
1070
     4
1070
   286
1070
     4
1070
   288
1070
     1
1070
   340
1005
20
1002
}
1001
ACAD_DSTYLE_DIMRADIAL_EXTENSION
1070
   387
1070
     1
1070
   388
1040
0.0
1070
   390
1040
0.0
  0
ENDSEC
  0
SECTION
  2
OBJECTS
  0
DICTIONARY
  5
C
330
0
100
AcDbDictionary
281
     1
  3
ACAD_CIP_PREVIOUS_PRODUCT_INFO
350
C1B
  3
ACAD_COLOR
350
BF8
  3
ACAD_DETAILVIEWSTYLE
350
C11
  3
ACAD_GROUP
350
D
  3
ACAD_LAYOUT
350
C13
  3
ACAD_MATERIAL
350
BC6
  3
ACAD_MLEADERSTYLE
350
C0D
  3
ACAD_MLINESTYLE
350
1A
  3
ACAD_PLOTSETTINGS
350
C14
  3
ACAD_PLOTSTYLENAME
350
BC4
  3
ACAD_SCALELIST
350
BFB
  3
ACAD_SECTIONVIEWSTYLE
350
C0F
  3
ACAD_TABLESTYLE
350
BF9
  3
ACAD_VISUALSTYLE
350
BDF
  3
ACDB_RECOMPOSE_DATA
350
CCD
  3
ACDBVARIABLEDICTIONARY
350
30
  3
AcDsDecomposeData
350
CD4
  3
DWGPROPS
350
CCE
  0
DICTIONARY
  5
C27
330
2
100
AcDbDictionary
280
     1
281
     1
  3
ACAD_LAYERSTATES
360
C28
  0
DICTIONARY
  5
C1C
330
E
100
AcDbDictionary
280
     1
281
     1
  3
ADSK_XREC_LAYER_RECONCILED
360
C1D
  0
DICTIONARY
  5
C1E
330
28
100
AcDbDictionary
280
     1
281
     1
  3
ADSK_XREC_LAYER_RECONCILED
360
C1F
  0
DICTIONARY
  5
C20
330
29
100
AcDbDictionary
280
     1
281
     1
  3
ADSK_XREC_LAYER_RECONCILED
360
C21
  0
DICTIONARY
  5
C22
330
2A
100
AcDbDictionary
280
     1
281
     1
  3
ADSK_XREC_LAYER_RECONCILED
360
C23
  0
DICTIONARY
  5
D14
330
CA0
100
AcDbDictionary
280
     1
281
     1
  3
ACAD_MTEXT_RT
360
D15
  0
XRECORD
  5
C1B
102
{ACAD_REACTORS
330
C
102
}
330
C
100
AcDbXrecord
280
     1
300
AMECH_PP
300
2015
300
PDSU_F_S
  0
DICTIONARY
  5
BF8
102
{ACAD_REACTORS
330
C
102
}
330
C
100
AcDbDictionary
281
     1
  0
DICTIONARY
  5
C11
102
{ACAD_REACTORS
330
C
102
}
330
C
100
AcDbDictionary
281
     1
  3
Imperial24
350
C12
  0
DICTIONARY
  5
D
102
{ACAD_REACTORS
330
C
102
}
330
C
100
AcDbDictionary
281
     1
  0
DICTIONARY
  5
C13
102
{ACAD_REACTORS
330
C
102
}
330
C
100
AcDbDictionary
281
     1
  3
Layout1
350
C16
  3
Model
350
C15
  0
DICTIONARY
  5
BC6
102
{ACAD_REACTORS
330
C
102
}
330
C
100
AcDbDictionary
281
     1
  3
ByBlock
350
BCF
  3
ByLayer
350
BC7
  3
Global
350
BD7
  0
DICTIONARY
  5
C0D
102
{ACAD_REACTORS
330
C
102
}
330
C
100
AcDbDictionary
281
     1
  3
Standard
350
C0E
  0
DICTIONARY
  5
1A
102
{ACAD_REACTORS
330
C
102
}
330
C
100
AcDbDictionary
281
     1
  3
STANDARD
350
1B
  0
DICTIONARY
  5
C14
102
{ACAD_REACTORS
330
C
102
}
330
C
100
AcDbDictionary
281
     1
  0
ACDBDICTIONARYWDFLT
  5
BC4
102
{ACAD_REACTORS
330
C
102
}
330
C
100
AcDbDictionary
281
     1
  3
Normal
350
BC5
100
AcDbDictionaryWithDefault
340
BC5
  0
DICTIONARY
  5
BFB
102
{ACAD_REACTORS
330
C
102
}
330
C
100
AcDbDictionary
281
     1
  3
A0
350
BFC
  3
A1
350
BFD
  3
A2
350
BFE
  3
A3
350
BFF
  3
A4
350
C00
  3
A5
350
C01
  3
A6
350
C02
  3
A7
350
C03
  3
A8
350
C04
  3
A9
350
C05
  3
B0
350
C06
  3
B1
350
C07
  3
B2
350
C08
  3
B3
350
C09
  3
B4
350
C0A
  3
B5
350
C0B
  3
B6
350
C0C
  0
DICTIONARY
  5
C0F
102
{ACAD_REACTORS
330
C
102
}
330
C
100
AcDbDictionary
281
     1
  3
Imperial24
350
C10
  0
DICTIONARY
  5
BF9
102
{ACAD_REACTORS
330
C
102
}
330
C
100
AcDbDictionary
281
     1
  3
Standard
350
BFA
  0
DICTIONARY
  5
BDF
102
{ACAD_REACTORS
330
C
102
}
330
C
100
AcDbDictionary
281
     1
  3
2dWireframe
350
BE5
  3
Basic
350
BE4
  3
Brighten
350
BEB
  3
ColorChange
350
BEF
  3
Conceptual
350
BE8
  3
Dim
350
BEA
  3
EdgeColorOff
350
BF7
  3
Facepattern
350
BEE
  3
Flat
350
BE0
  3
FlatWithEdges
350
BE1
  3
Gouraud
350
BE2
  3
GouraudWithEdges
350
BE3
  3
Hidden
350
BE7
  3
JitterOff
350
BF5
  3
Linepattern
350
BED
  3
OverhangOff
350
BF6
  3
Realistic
350
BE9
  3
Shaded
350
BF4
  3
Shaded with edges
350
BF3
  3
Shades of Gray
350
BF0
  3
Sketchy
350
BF1
  3
Thicken
350
BEC
  3
Wireframe
350
BE6
  3
X-Ray
350
BF2
  0
XRECORD
  5
CCD
102
{ACAD_REACTORS
330
C
102
}
330
C
100
AcDbXrecord
280
     1
 90
        1
330
BFA
  0
DICTIONARY
  5
30
102
{ACAD_REACTORS
330
C
102
}
330
C
100
AcDbDictionary
281
     1
  3
CANNOSCALE
350
C83
  3
CMLEADERSTYLE
350
C7F
  3
CTABLESTYLE
350
C7E
  3
CVIEWDETAILSTYLE
350
C80
  3
CVIEWSECTIONSTYLE
350
C81
  3
DIMADEC
350
31
  3
DIMASSOC
350
CC7
  3
INDEXCTL
350
CC6
  3
LAYEREVAL
350
C85
  3
LAYERNOTIFY
350
C86
  3
LIGHTINGUNITS
350
C84
  3
LOFTANG1
350
CC8
  3
LOFTANG2
350
CC9
  3
LONGITUDE
350
CCA
  3
MSLTSCALE
350
C82
  3
SORTENTS
350
CC5
  3
XCLIPFRAME
350
CCB
  0
DICTIONARY
  5
CD4
102
{ACAD_REACTORS
330
C
102
}
330
C
100
AcDbDictionary
281
     1
  3
AcDsRecords
350
CD6
  3
AcDsSchemas
350
CD5
1001
ACAD
1070
     2
  0
XRECORD
  5
CCE
102
{ACAD_REACTORS
330
C
102
}
330
C
100
AcDbXrecord
280
     1
  1
DWGPROPS COOKIE
  2

  3

  4

  6

  7

  8
jmilewski
  9

300
=
301
=
302
=
303
=
304
=
305
=
306
=
307
=
308
=
309
=
 40
0.0042237615740741
 41
2450399.693569676
 42
2457155.547755359
  1

 90
        0
  0
DICTIONARY
  5
C28
102
{ACAD_REACTORS
330
C27
102
}
330
C27
100
AcDbDictionary
281
     1
  0
XRECORD
  5
C1D
102
{ACAD_REACTORS
330
C1C
102
}
330
C1C
100
AcDbXrecord
280
     1
290
     1
  0
XRECORD
  5
C1F
102
{ACAD_REACTORS
330
C1E
102
}
330
C1E
100
AcDbXrecord
280
     1
290
     1
  0
XRECORD
  5
C21
102
{ACAD_REACTORS
330
C20
102
}
330
C20
100
AcDbXrecord
280
     1
290
     1
  0
XRECORD
  5
C23
102
{ACAD_REACTORS
330
C22
102
}
330
C22
100
AcDbXrecord
280
     1
290
     1
  0
XRECORD
  5
D15
102
{ACAD_REACTORS
330
D14
102
}
330
D14
100
AcDbXrecord
280
     1
 40
7376.0
  1
\A1;\U+22052.519
  0
ACDBDETAILVIEWSTYLE
  5
C12
102
{ACAD_XDICTIONARY
360
C8B
102
}
102
{ACAD_REACTORS
330
C11
102
}
330
C11
100
AcDbModelDocViewStyle
 70
     0
  3
Imperial24
290
     0
100
AcDbDetailViewStyle
 70
     0
 71
     0
 90
        3
 71
     1
340
F
 40
0.24
340
0
 40
0.24
300

 40
0.36
280
     3
 71
     2
340
13
 90
       25
 71
     3
340
F
 40
0.24
 90
        1
 40
0.75
 90
        1
300
%<\AcVar ViewType \f "%tc1">% %<\AcVar ViewDetailId>%\PSCALE %<\AcVar ViewScale \f "%sn">%
 71
     4
340
13
 90
       25
340
13
 90
       25
280
     0
  0
LAYOUT
  5
C16
102
{ACAD_XDICTIONARY
360
D12
102
}
102
{ACAD_REACTORS
330
C13
102
}
330
C13
100
AcDbPlotSettings
  1

  2
TOSHIBA e-STUDIO351c PS3
  4

  6

 40
0.0
 41
0.0
 42
0.0
 43
0.0
 44
0.0
 45
0.0
 46
0.0
 47
0.0
 48
0.0
 49
0.0
140
0.0
141
0.0
142
1.0
143
1.0
 70
   688
 72
     0
 73
     0
 74
     5
  7
monochrome.ctb
 75
    16
147
1.0
148
0.0
149
0.0
100
AcDbLayout
  1
Layout1
 70
     0
 71
     1
 10
0.0
 20
0.0
 11
12.0
 21
9.0
 12
0.0
 22
0.0
 32
0.0
 14
1.000000000000000E+20
 24
1.000000000000000E+20
 34
1.000000000000000E+20
 15
-1.000000000000000E+20
 25
-1.000000000000000E+20
 35
-1.000000000000000E+20
146
0.0
 13
0.0
 23
0.0
 33
0.0
 16
1.0
 26
0.0
 36
0.0
 17
0.0
 27
1.0
 37
0.0
 76
     0
330
14
  0
LAYOUT
  5
C15
102
{ACAD_XDICTIONARY
360
D10
102
}
102
{ACAD_REACTORS
330
C13
102
}
330
C13
100
AcDbPlotSettings
  1

  2
TOSHIBA e-STUDIO351c PS3
  4

  6

 40
0.0
 41
0.0
 42
0.0
 43
0.0
 44
0.0
 45
0.0
 46
0.0
 47
0.0
 48
0.0
 49
0.0
140
0.0
141
0.0
142
1.0
143
1.0
 70
  1712
 72
     0
 73
     0
 74
     0
  7
monochrome.ctb
 75
     0
147
1.0
148
0.0
149
0.0
100
AcDbLayout
  1
Model
 70
     1
 71
     0
 10
0.0
 20
0.0
 11
12.0
 21
9.0
 12
0.0
 22
0.0
 32
0.0
 14
0.0
 24
0.0
 34
0.0
 15
0.0
 25
0.0
 35
0.0
146
0.0
 13
0.0
 23
0.0
 33
0.0
 16
1.0
 26
0.0
 36
0.0
 17
0.0
 27
1.0
 37
0.0
 76
     0
330
17
331
BC2
  0
MATERIAL
  5
BCF
102
{ACAD_XDICTIONARY
360
BD0
102
}
102
{ACAD_REACTORS
330
BC6
102
}
330
BC6
100
AcDbMaterial
  1
ByBlock
 72
     0
 43
0.0208333333333333
 43
0.0
 43
0.0
 43
0.0
 43
0.0
 43
0.0208333333333333
 43
0.0
 43
0.0
 43
0.0
 43
0.0
 43
1.0
 43
0.0
 43
0.0
 43
0.0
 43
0.0
 43
1.0
 77
     0
 47
0.0208333333333333
 47
0.0
 47
0.0
 47
0.0
 47
0.0
 47
0.0208333333333333
 47
0.0
 47
0.0
 47
0.0
 47
0.0
 47
1.0
 47
0.0
 47
0.0
 47
0.0
 47
0.0
 47
1.0
171
     0
 49
0.0208333333333333
 49
0.0
 49
0.0
 49
0.0
 49
0.0
 49
0.0208333333333333
 49
0.0
 49
0.0
 49
0.0
 49
0.0
 49
1.0
 49
0.0
 49
0.0
 49
0.0
 49
0.0
 49
1.0
175
     0
142
0.0208333333333333
142
0.0
142
0.0
142
0.0
142
0.0
142
0.0208333333333333
142
0.0
142
0.0
142
0.0
142
0.0
142
1.0
142
0.0
142
0.0
142
0.0
142
0.0
142
1.0
179
     0
144
0.0208333333333333
144
0.0
144
0.0
144
0.0
144
0.0
144
0.0208333333333333
144
0.0
144
0.0
144
0.0
144
0.0
144
1.0
144
0.0
144
0.0
144
0.0
144
0.0
144
1.0
147
0.0208333333333333
147
0.0
147
0.0
147
0.0
147
0.0
147
0.0208333333333333
147
0.0
147
0.0
147
0.0
147
0.0
147
1.0
147
0.0
147
0.0
147
0.0
147
0.0
147
1.0
  0
MATERIAL
  5
BC7
102
{ACAD_XDICTIONARY
360
BC8
102
}
102
{ACAD_REACTORS
330
BC6
102
}
330
BC6
100
AcDbMaterial
  1
ByLayer
 72
     0
 43
0.0208333333333333
 43
0.0
 43
0.0
 43
0.0
 43
0.0
 43
0.0208333333333333
 43
0.0
 43
0.0
 43
0.0
 43
0.0
 43
1.0
 43
0.0
 43
0.0
 43
0.0
 43
0.0
 43
1.0
 77
     0
 47
0.0208333333333333
 47
0.0
 47
0.0
 47
0.0
 47
0.0
 47
0.0208333333333333
 47
0.0
 47
0.0
 47
0.0
 47
0.0
 47
1.0
 47
0.0
 47
0.0
 47
0.0
 47
0.0
 47
1.0
171
     0
 49
0.0208333333333333
 49
0.0
 49
0.0
 49
0.0
 49
0.0
 49
0.0208333333333333
 49
0.0
 49
0.0
 49
0.0
 49
0.0
 49
1.0
 49
0.0
 49
0.0
 49
0.0
 49
0.0
 49
1.0
175
     0
142
0.0208333333333333
142
0.0
142
0.0
142
0.0
142
0.0
142
0.0208333333333333
142
0.0
142
0.0
142
0.0
142
0.0
142
1.0
142
0.0
142
0.0
142
0.0
142
0.0
142
1.0
179
     0
144
0.0208333333333333
144
0.0
144
0.0
144
0.0
144
0.0
144
0.0208333333333333
144
0.0
144
0.0
144
0.0
144
0.0
144
1.0
144
0.0
144
0.0
144
0.0
144
0.0
144
1.0
147
0.0208333333333333
147
0.0
147
0.0
147
0.0
147
0.0
147
0.0208333333333333
147
0.0
147
0.0
147
0.0
147
0.0
147
1.0
147
0.0
147
0.0
147
0.0
147
0.0
147
1.0
  0
MATERIAL
  5
BD7
102
{ACAD_XDICTIONARY
360
BD8
102
}
102
{ACAD_REACTORS
330
BC6
102
}
330
BC6
100
AcDbMaterial
  1
Global
 72
     0
 43
0.0208333333333333
 43
0.0
 43
0.0
 43
0.0
 43
0.0
 43
0.0208333333333333
 43
0.0
 43
0.0
 43
0.0
 43
0.0
 43
1.0
 43
0.0
 43
0.0
 43
0.0
 43
0.0
 43
1.0
 77
     0
 47
0.0208333333333333
 47
0.0
 47
0.0
 47
0.0
 47
0.0
 47
0.0208333333333333
 47
0.0
 47
0.0
 47
0.0
 47
0.0
 47
1.0
 47
0.0
 47
0.0
 47
0.0
 47
0.0
 47
1.0
171
     0
 49
0.0208333333333333
 49
0.0
 49
0.0
 49
0.0
 49
0.0
 49
0.0208333333333333
 49
0.0
 49
0.0
 49
0.0
 49
0.0
 49
1.0
 49
0.0
 49
0.0
 49
0.0
 49
0.0
 49
1.0
175
     0
142
0.0208333333333333
142
0.0
142
0.0
142
0.0
142
0.0
142
0.0208333333333333
142
0.0
142
0.0
142
0.0
142
0.0
142
1.0
142
0.0
142
0.0
142
0.0
142
0.0
142
1.0
179
     0
144
0.0208333333333333
144
0.0
144
0.0
144
0.0
144
0.0
144
0.0208333333333333
144
0.0
144
0.0
144
0.0
144
0.0
144
1.0
144
0.0
144
0.0
144
0.0
144
0.0
144
1.0
147
0.0208333333333333
147
0.0
147
0.0
147
0.0
147
0.0
147
0.0208333333333333
147
0.0
147
0.0
147
0.0
147
0.0
147
1.0
147
0.0
147
0.0
147
0.0
147
0.0
147
1.0
  0
MLEADERSTYLE
  5
C0E
102
{ACAD_XDICTIONARY
360
D0C
102
}
102
{ACAD_REACTORS
330
C0D
102
}
330
C0D
100
AcDbMLeaderStyle
170
     2
171
     1
172
     0
 90
        2
 40
0.0
 41
0.0
173
     1
 91
-1056964608
340
11
 92
       -2
290
     1
 42
0.09
291
     1
 43
0.36
  3
Standard
 44
0.18
300

342
F
174
     1
178
     6
175
     1
176
     0
 93
-1056964608
 45
0.18
292
     0
297
     0
 46
0.18
 94
-1056964608
 47
1.0
 49
1.0
140
1.0
293
     1
141
0.0
294
     1
177
     0
142
1.0
295
     0
296
     0
143
0.125
1001
ACAD_MLEADERVER
1070
     2
  0
MLINESTYLE
  5
1B
102
{ACAD_REACTORS
330
1A
102
}
330
1A
100
AcDbMlineStyle
  2
STANDARD
 70
     0
  3

 62
   256
 51
90.0
 52
90.0
 71
     2
 49
0.5
 62
   256
  6
BYLAYER
 49
-0.5
 62
   256
  6
BYLAYER
  0
ACDBPLACEHOLDER
  5
BC5
102
{ACAD_REACTORS
330
BC4
102
}
330
BC4
  0
SCALE
  5
BFC
102
{ACAD_REACTORS
330
BFB
102
}
330
BFB
100
AcDbScale
 70
     0
300
1:1
140
1.0
141
1.0
290
     1
  0
SCALE
  5
BFD
102
{ACAD_REACTORS
330
BFB
102
}
330
BFB
100
AcDbScale
 70
     0
300
1/128" = 1'-0"
140
0.0078125
141
12.0
290
     0
  0
SCALE
  5
BFE
102
{ACAD_REACTORS
330
BFB
102
}
330
BFB
100
AcDbScale
 70
     0
300
1/64" = 1'-0"
140
0.015625
141
12.0
290
     0
  0
SCALE
  5
BFF
102
{ACAD_REACTORS
330
BFB
102
}
330
BFB
100
AcDbScale
 70
     0
300
1/32" = 1'-0"
140
0.03125
141
12.0
290
     0
  0
SCALE
  5
C00
102
{ACAD_REACTORS
330
BFB
102
}
330
BFB
100
AcDbScale
 70
     0
300
1/16" = 1'-0"
140
0.0625
141
12.0
290
     0
  0
SCALE
  5
C01
102
{ACAD_REACTORS
330
BFB
102
}
330
BFB
100
AcDbScale
 70
     0
300
3/32" = 1'-0"
140
0.09375
141
12.0
290
     0
  0
SCALE
  5
C02
102
{ACAD_REACTORS
330
BFB
102
}
330
BFB
100
AcDbScale
 70
     0
300
1/8" = 1'-0"
140
0.125
141
12.0
290
     0
  0
SCALE
  5
C03
102
{ACAD_REACTORS
330
BFB
102
}
330
BFB
100
AcDbScale
 70
     0
300
3/16" = 1'-0"
140
0.1875
141
12.0
290
     0
  0
SCALE
  5
C04
102
{ACAD_REACTORS
330
BFB
102
}
330
BFB
100
AcDbScale
 70
     0
300
1/4" = 1'-0"
140
0.25
141
12.0
290
     0
  0
SCALE
  5
C05
102
{ACAD_REACTORS
330
BFB
102
}
330
BFB
100
AcDbScale
 70
     0
300
3/8" = 1'-0"
140
0.375
141
12.0
290
     0
  0
SCALE
  5
C06
102
{ACAD_REACTORS
330
BFB
102
}
330
BFB
100
AcDbScale
 70
     0
300
1/2" = 1'-0"
140
0.5
141
12.0
290
     0
  0
SCALE
  5
C07
102
{ACAD_REACTORS
330
BFB
102
}
330
BFB
100
AcDbScale
 70
     0
300
3/4" = 1'-0"
140
0.75
141
12.0
290
     0
  0
SCALE
  5
C08
102
{ACAD_REACTORS
330
BFB
102
}
330
BFB
100
AcDbScale
 70
     0
300
1" = 1'-0"
140
1.0
141
12.0
290
     0
  0
SCALE
  5
C09
102
{ACAD_REACTORS
330
BFB
102
}
330
BFB
100
AcDbScale
 70
     0
300
1-1/2" = 1'-0"
140
1.5
141
12.0
290
     0
  0
SCALE
  5
C0A
102
{ACAD_REACTORS
330
BFB
102
}
330
BFB
100
AcDbScale
 70
     0
300
3" = 1'-0"
140
3.0
141
12.0
290
     0
  0
SCALE
  5
C0B
102
{ACAD_REACTORS
330
BFB
102
}
330
BFB
100
AcDbScale
 70
     0
300
6" = 1'-0"
140
6.0
141
12.0
290
     0
  0
SCALE
  5
C0C
102
{ACAD_REACTORS
330
BFB
102
}
330
BFB
100
AcDbScale
 70
     0
300
1'-0" = 1'-0"
140
12.0
141
12.0
290
     0
  0
ACDBSECTIONVIEWSTYLE
  5
C10
102
{ACAD_XDICTIONARY
360
C89
102
}
102
{ACAD_REACTORS
330
C0F
102
}
330
C0F
100
AcDbModelDocViewStyle
 70
     0
  3
Imperial24
290
     0
100
AcDbSectionViewStyle
 70
     0
 71
     0
 90
       78
 71
     1
340
F
 40
0.24
340
0
340
0
 40
0.24
300
I, O, Q, S, X, Z
 40
0.48
 90
        3
 40
0.18
 90
        1
 71
     2
340
13
 90
       25
340
13
 90
       50
 40
0.24
 40
0.0
 40
0.24
 71
     3
340
F
 40
0.24
 90
        1
 40
0.75
 90
        1
300
%<\AcVar ViewType \f "%tc1">% %<\AcVar ViewSectionStartId>%-%<\AcVar ViewSectionEndId>%\PSCALE %<\AcVar ViewScale \f "%sn">%
 71
     4
300
ANSI31
 40
1.0
 90
        0
290
     0
290
     0
 90
        6
 40
0.0
 40
1.570796326794896
 40
0.2617993877991494
 40
1.308996938995747
 40
-0.2617993877991494
 40
1.832595714594044
  0
TABLESTYLE
  5
BFA
102
{ACAD_XDICTIONARY
360
C87
102
}
102
{ACAD_REACTORS
330
BF9
102
}
330
BF9
100
AcDbTableStyle
  3
Standard
 70
     0
 71
     0
 40
0.06
 41
0.06
280
     0
281
     0
  7
STANDARD
140
0.18
170
     2
 62
     0
 63
     7
283
     0
274
    -2
284
     1
 64
     0
275
    -2
285
     1
 65
     0
276
    -2
286
     1
 66
     0
277
    -2
287
     1
 67
     0
278
    -2
288
     1
 68
     0
279
    -2
289
     1
 69
     0
  7
STANDARD
140
0.25
170
     5
 62
     0
 63
     7
283
     0
274
    -2
284
     1
 64
     0
275
    -2
285
     1
 65
     0
276
    -2
286
     1
 66
     0
277
    -2
287
     1
 67
     0
278
    -2
288
     1
 68
     0
279
    -2
289
     1
 69
     0
  7
STANDARD
140
0.18
170
     5
 62
     0
 63
     7
283
     0
274
    -2
284
     1
 64
     0
275
    -2
285
     1
 65
     0
276
    -2
286
     1
 66
     0
277
    -2
287
     1
 67
     0
278
    -2
288
     1
 68
     0
279
    -2
289
     1
 69
     0
  0
VISUALSTYLE
  5
BE5
102
{ACAD_XDICTIONARY
360
CE4
102
}
102
{ACAD_REACTORS
330
BDF
102
}
330
BDF
100
AcDbVisualStyle
  2
2dWireframe
 70
     4
 71
     0
 72
     2
 73
     0
 90
        0
 40
-0.6
 41
-30.0
 62
     5
 63
     7
 74
     1
 91
        4
 64
     7
 65
   257
 75
     1
175
     1
 42
1.0
 92
        0
 66
   257
 43
1.0
 76
     1
 77
     6
 78
     2
 67
     7
 79
     5
170
     0
171
     0
290
     0
174
     0
 93
        1
 44
0.0
173
     0
291
     0
 45
0.0
1001
ACAD
1000
AcDbSavedByObjectVersion
1070
     0
  0
VISUALSTYLE
  5
BE4
102
{ACAD_XDICTIONARY
360
CE2
102
}
102
{ACAD_REACTORS
330
BDF
102
}
330
BDF
100
AcDbVisualStyle
  2
Basic
 70
     7
 71
     1
 72
     0
 73
     1
 90
        0
 40
-0.6
 41
-30.0
 62
     5
 63
     7
 74
     0
 91
        4
 64
     7
 65
   257
 75
     1
175
     1
 42
1.0
 92
        8
 66
     7
 43
1.0
 76
     1
 77
     6
 78
     2
 67
     7
 79
     5
170
     0
171
     0
290
     0
174
     0
 93
        1
 44
0.0
173
     0
291
     1
 45
0.0
1001
ACAD
1000
AcDbSavedByObjectVersion
1070
     0
  0
VISUALSTYLE
  5
BEB
102
{ACAD_XDICTIONARY
360
CF0
102
}
102
{ACAD_REACTORS
330
BDF
102
}
330
BDF
100
AcDbVisualStyle
  2
Brighten
 70
    12
 71
     2
 72
     2
 73
     0
 90
        0
 40
-0.6
 41
-30.0
 62
     5
 63
     7
 74
     1
 91
        4
 64
     7
 65
   257
 75
     1
175
     1
 42
1.0
 92
        8
 66
     7
 43
1.0
 76
     1
 77
     6
 78
     2
 67
     7
 79
     5
170
     0
171
     0
290
     0
174
     0
 93
        1
 44
50.0
173
     0
291
     1
 45
0.0
1001
ACAD
1000
AcDbSavedByObjectVersion
1070
     0
  0
VISUALSTYLE
  5
BEF
102
{ACAD_XDICTIONARY
360
CF8
102
}
102
{ACAD_REACTORS
330
BDF
102
}
330
BDF
100
AcDbVisualStyle
  2
ColorChange
 70
    16
 71
     2
 72
     2
 73
     3
 90
        0
 40
-0.6
 41
-30.0
 62
     5
 63
     8
 74
     1
 91
        4
 64
     7
 65
   257
 75
     1
175
     1
 42
1.0
 92
        8
 66
     8
 43
1.0
 76
     1
 77
     6
 78
     2
 67
     7
 79
     5
170
     0
171
     0
290
     0
174
     0
 93
        1
 44
0.0
173
     0
291
     1
 45
0.0
1001
ACAD
1000
AcDbSavedByObjectVersion
1070
     0
  0
VISUALSTYLE
  5
BE8
102
{ACAD_XDICTIONARY
360
CEA
102
}
102
{ACAD_REACTORS
330
BDF
102
}
330
BDF
100
AcDbVisualStyle
  2
Conceptual
 70
     9
 71
     3
 72
     2
 73
     0
 90
        0
 40
-0.6
 41
-30.0
 62
     5
 63
     7
 74
     2
 91
        2
 64
     7
 65
   257
 75
     1
175
     1
 42
179.0
 92
        8
 66
     7
 43
1.0
 76
     1
 77
     6
 78
     2
 67
     7
 79
     3
170
     0
171
     0
290
     0
174
     0
 93
        1
 44
0.0
173
     0
291
     0
 45
0.0
1001
ACAD
1000
AcDbSavedByObjectVersion
1070
     0
  0
VISUALSTYLE
  5
BEA
102
{ACAD_XDICTIONARY
360
CEE
102
}
102
{ACAD_REACTORS
330
BDF
102
}
330
BDF
100
AcDbVisualStyle
  2
Dim
 70
    11
 71
     2
 72
     2
 73
     0
 90
        0
 40
-0.6
 41
-30.0
 62
     5
 63
     7
 74
     1
 91
        4
 64
     7
 65
   257
 75
     1
175
     1
 42
1.0
 92
        8
 66
     7
 43
1.0
 76
     1
 77
     6
 78
     2
 67
     7
 79
     5
170
     0
171
     0
290
     0
174
     0
 93
        1
 44
-50.0
173
     0
291
     1
 45
0.0
1001
ACAD
1000
AcDbSavedByObjectVersion
1070
     0
  0
VISUALSTYLE
  5
BF7
102
{ACAD_XDICTIONARY
360
D08
102
}
102
{ACAD_REACTORS
330
BDF
102
}
330
BDF
100
AcDbVisualStyle
  2
EdgeColorOff
 70
    22
 71
     2
 72
     2
 73
     0
 90
        0
 40
-0.6
 41
-30.0
 62
     5
 63
     7
 74
     1
 91
        4
 64
     7
 65
   257
 75
     1
175
     1
 42
1.0
 92
        8
 66
     7
 43
1.0
 76
     1
 77
     6
 78
     2
 67
     7
 79
     5
170
     0
171
     0
290
     0
174
     0
 93
        1
 44
0.0
173
     0
291
     1
 45
0.0
1001
ACAD
1000
AcDbSavedByObjectVersion
1070
     0
  0
VISUALSTYLE
  5
BEE
102
{ACAD_XDICTIONARY
360
CF6
102
}
102
{ACAD_REACTORS
330
BDF
102
}
330
BDF
100
AcDbVisualStyle
  2
Facepattern
 70
    15
 71
     2
 72
     2
 73
     0
 90
        0
 40
-0.6
 41
-30.0
 62
     5
 63
     7
 74
     1
 91
        4
 64
     7
 65
   257
 75
     1
175
     1
 42
1.0
 92
        8
 66
     7
 43
1.0
 76
     1
 77
     6
 78
     2
 67
     7
 79
     5
170
     0
171
     0
290
     0
174
     0
 93
        1
 44
0.0
173
     0
291
     1
 45
0.0
1001
ACAD
1000
AcDbSavedByObjectVersion
1070
     0
  0
VISUALSTYLE
  5
BE0
102
{ACAD_XDICTIONARY
360
CDA
102
}
102
{ACAD_REACTORS
330
BDF
102
}
330
BDF
100
AcDbVisualStyle
  2
Flat
 70
     0
 71
     2
 72
     1
 73
     1
 90
        2
 40
-0.6
 41
30.0
 62
     5
 63
     7
 74
     0
 91
        0
 64
     7
 65
   257
 75
     1
175
     1
 42
1.0
 92
        8
 66
     7
 43
1.0
 76
     1
 77
     6
 78
     2
 67
     7
 79
     5
170
     0
171
     0
290
     0
174
     0
 93
       13
 44
0.0
173
     0
291
     1
 45
0.0
1001
ACAD
1000
AcDbSavedByObjectVersion
1070
     0
  0
VISUALSTYLE
  5
BE1
102
{ACAD_XDICTIONARY
360
CDC
102
}
102
{ACAD_REACTORS
330
BDF
102
}
330
BDF
100
AcDbVisualStyle
  2
FlatWithEdges
 70
     1
 71
     2
 72
     1
 73
     1
 90
        2
 40
-0.6
 41
30.0
 62
     5
 63
     7
 74
     1
 91
        0
 64
     7
 65
   257
 75
     1
175
     1
 42
1.0
 92
        0
 66
   257
 43
1.0
 76
     1
 77
     6
 78
     2
 67
     7
 79
     5
170
     0
171
     0
290
     0
174
     0
 93
       13
 44
0.0
173
     0
291
     1
 45
0.0
1001
ACAD
1000
AcDbSavedByObjectVersion
1070
     0
  0
VISUALSTYLE
  5
BE2
102
{ACAD_XDICTIONARY
360
CDE
102
}
102
{ACAD_REACTORS
330
BDF
102
}
330
BDF
100
AcDbVisualStyle
  2
Gouraud
 70
     2
 71
     2
 72
     2
 73
     1
 90
        2
 40
-0.6
 41
30.0
 62
     5
 63
     7
 74
     0
 91
        0
 64
     7
 65
   257
 75
     1
175
     1
 42
1.0
 92
        0
 66
     7
 43
1.0
 76
     1
 77
     6
 78
     2
 67
     7
 79
     5
170
     0
171
     0
290
     0
174
     0
 93
       13
 44
0.0
173
     0
291
     1
 45
0.0
1001
ACAD
1000
AcDbSavedByObjectVersion
1070
     0
  0
VISUALSTYLE
  5
BE3
102
{ACAD_XDICTIONARY
360
CE0
102
}
102
{ACAD_REACTORS
330
BDF
102
}
330
BDF
100
AcDbVisualStyle
  2
GouraudWithEdges
 70
     3
 71
     2
 72
     2
 73
     1
 90
        2
 40
-0.6
 41
30.0
 62
     5
 63
     7
 74
     1
 91
        0
 64
     7
 65
   257
 75
     1
175
     1
 42
1.0
 92
        0
 66
   257
 43
1.0
 76
     1
 77
     6
 78
     2
 67
     7
 79
     5
170
     0
171
     0
290
     0
174
     0
 93
       13
 44
0.0
173
     0
291
     1
 45
0.0
1001
ACAD
1000
AcDbSavedByObjectVersion
1070
     0
  0
VISUALSTYLE
  5
BE7
102
{ACAD_XDICTIONARY
360
CE8
102
}
102
{ACAD_REACTORS
330
BDF
102
}
330
BDF
100
AcDbVisualStyle
  2
Hidden
 70
     6
 71
     1
 72
     2
 73
     2
 90
        0
 40
-0.6
 41
-30.0
 62
     5
 63
     7
 74
     2
 91
        2
 64
     7
 65
   257
 75
     2
175
     1
 42
40.0
 92
        0
 66
   257
 43
1.0
 76
     1
 77
     6
 78
     2
 67
     7
 79
     3
170
     0
171
     0
290
     0
174
     0
 93
        1
 44
0.0
173
     0
291
     0
 45
0.0
1001
ACAD
1000
AcDbSavedByObjectVersion
1070
     0
  0
VISUALSTYLE
  5
BF5
102
{ACAD_XDICTIONARY
360
D04
102
}
102
{ACAD_REACTORS
330
BDF
102
}
330
BDF
100
AcDbVisualStyle
  2
JitterOff
 70
    20
 71
     2
 72
     2
 73
     0
 90
        0
 40
-0.6
 41
-30.0
 62
     5
 63
     7
 74
     1
 91
        4
 64
     7
 65
   257
 75
     1
175
     1
 42
1.0
 92
       10
 66
     7
 43
1.0
 76
     1
 77
     6
 78
     2
 67
     7
 79
     5
170
     0
171
     0
290
     0
174
     0
 93
        1
 44
0.0
173
     0
291
     1
 45
0.0
1001
ACAD
1000
AcDbSavedByObjectVersion
1070
     0
  0
VISUALSTYLE
  5
BED
102
{ACAD_XDICTIONARY
360
CF4
102
}
102
{ACAD_REACTORS
330
BDF
102
}
330
BDF
100
AcDbVisualStyle
  2
Linepattern
 70
    14
 71
     2
 72
     2
 73
     0
 90
        0
 40
-0.6
 41
-30.0
 62
     5
 63
     7
 74
     1
 91
        4
 64
     7
 65
   257
 75
     7
175
     7
 42
1.0
 92
        8
 66
     7
 43
1.0
 76
     1
 77
     6
 78
     2
 67
     7
 79
     5
170
     0
171
     0
290
     0
174
     0
 93
        1
 44
0.0
173
     0
291
     1
 45
0.0
1001
ACAD
1000
AcDbSavedByObjectVersion
1070
     0
  0
VISUALSTYLE
  5
BF6
102
{ACAD_XDICTIONARY
360
D06
102
}
102
{ACAD_REACTORS
330
BDF
102
}
330
BDF
100
AcDbVisualStyle
  2
OverhangOff
 70
    21
 71
     2
 72
     2
 73
     0
 90
        0
 40
-0.6
 41
-30.0
 62
     5
 63
     7
 74
     1
 91
        4
 64
     7
 65
   257
 75
     1
175
     1
 42
1.0
 92
        9
 66
     7
 43
1.0
 76
     1
 77
     6
 78
     2
 67
     7
 79
     5
170
     0
171
     0
290
     0
174
     0
 93
        1
 44
0.0
173
     0
291
     1
 45
0.0
1001
ACAD
1000
AcDbSavedByObjectVersion
1070
     0
  0
VISUALSTYLE
  5
BE9
102
{ACAD_XDICTIONARY
360
CEC
102
}
102
{ACAD_REACTORS
330
BDF
102
}
330
BDF
100
AcDbVisualStyle
  2
Realistic
 70
     8
 71
     2
 72
     3
 73
     0
 90
        2
 40
-0.6
 41
30.0
 62
     5
 63
     7
 74
     0
 91
        0
 64
     7
 65
   257
 75
     1
175
     1
 42
1.0
 92
        8
 66
   257
 43
1.0
 76
     1
 77
     6
 78
     2
 67
     7
 79
     3
170
     0
171
     0
290
     0
174
     0
 93
       13
 44
0.0
173
     0
291
     0
 45
0.0
1001
ACAD
1000
AcDbSavedByObjectVersion
1070
     0
  0
VISUALSTYLE
  5
BF4
102
{ACAD_XDICTIONARY
360
D02
102
}
102
{ACAD_REACTORS
330
BDF
102
}
330
BDF
100
AcDbVisualStyle
  2
Shaded
 70
    27
 71
     2
 72
     2
 73
     1
 90
        2
 40
-0.6
 41
30.0
 62
     5
 63
     7
 74
     0
 91
        4
 64
     7
 65
   257
 75
     1
175
     1
 42
1.0
 92
        8
 66
   257
 43
1.0
 76
     1
 77
     6
 78
     2
 67
     8
 79
     3
170
     0
171
     0
290
     0
174
     0
 93
        5
 44
0.0
173
     0
291
     0
 45
0.0
1001
ACAD
1000
AcDbSavedByObjectVersion
1070
     0
  0
VISUALSTYLE
  5
BF3
102
{ACAD_XDICTIONARY
360
D00
102
}
102
{ACAD_REACTORS
330
BDF
102
}
330
BDF
100
AcDbVisualStyle
  2
Shaded with edges
 70
    26
 71
     2
 72
     2
 73
     1
 90
        2
 40
-0.6
 41
30.0
 62
     5
 63
     7
 74
     1
 91
       10
 64
     7
 65
   257
 75
     2
175
     1
 42
1.0
 92
        8
 66
   257
 43
1.0
 76
     1
 77
     6
 78
     2
 67
     7
 79
     3
170
     0
171
     0
290
     0
174
     0
 93
        5
 44
0.0
173
     0
291
     0
 45
0.0
1001
ACAD
1000
AcDbSavedByObjectVersion
1070
     0
  0
VISUALSTYLE
  5
BF0
102
{ACAD_XDICTIONARY
360
CFA
102
}
102
{ACAD_REACTORS
330
BDF
102
}
330
BDF
100
AcDbVisualStyle
  2
Shades of Gray
 70
    23
 71
     2
 72
     2
 73
     3
 90
        0
 40
-0.6
 41
-30.0
 62
     5
 63
     7
 74
     2
 91
        2
 64
     7
 65
     7
 75
     1
175
     1
 42
40.0
 92
        8
 66
     7
 43
1.0
 76
     1
 77
     6
 78
     2
 67
     7
 79
     3
170
     0
171
     0
290
     0
174
     0
 93
        1
 44
0.0
173
     0
291
     0
 45
0.0
1001
ACAD
1000
AcDbSavedByObjectVersion
1070
     0
  0
VISUALSTYLE
  5
BF1
102
{ACAD_XDICTIONARY
360
CFC
102
}
102
{ACAD_REACTORS
330
BDF
102
}
330
BDF
100
AcDbVisualStyle
  2
Sketchy
 70
    24
 71
     1
 72
     2
 73
     2
 90
        0
 40
-0.6
 41
-30.0
 62
     5
 63
     7
 74
     2
 91
        2
 64
     7
 65
     7
 75
     1
175
     1
 42
40.0
 92
       11
 66
     7
 43
1.0
 76
     1
 77
     6
 78
     2
 67
     7
 79
     6
170
     0
171
     0
290
     0
174
     0
 93
        1
 44
0.0
173
     0
291
     0
 45
0.0
1001
ACAD
1000
AcDbSavedByObjectVersion
1070
     0
  0
VISUALSTYLE
  5
BEC
102
{ACAD_XDICTIONARY
360
CF2
102
}
102
{ACAD_REACTORS
330
BDF
102
}
330
BDF
100
AcDbVisualStyle
  2
Thicken
 70
    13
 71
     2
 72
     2
 73
     0
 90
        0
 40
-0.6
 41
-30.0
 62
     5
 63
     7
 74
     1
 91
        4
 64
     7
 65
   257
 75
     1
175
     1
 42
1.0
 92
       12
 66
     7
 43
1.0
 76
     1
 77
     6
 78
     2
 67
     7
 79
     5
170
     0
171
     0
290
     0
174
     0
 93
        1
 44
0.0
173
     0
291
     1
 45
0.0
1001
ACAD
1000
AcDbSavedByObjectVersion
1070
     0
  0
VISUALSTYLE
  5
BE6
102
{ACAD_XDICTIONARY
360
CE6
102
}
102
{ACAD_REACTORS
330
BDF
102
}
330
BDF
100
AcDbVisualStyle
  2
Wireframe
 70
     5
 71
     0
 72
     2
 73
     0
 90
        0
 40
-0.6
 41
-30.0
 62
     5
 63
     7
 74
     1
 91
        4
 64
     7
 65
   257
 75
     1
175
     1
 42
1.0
 92
        0
 66
   257
 43
1.0
 76
     1
 77
     6
 78
     2
 67
     7
 79
     3
170
     0
171
     0
290
     0
174
     0
 93
        1
 44
0.0
173
     0
291
     0
 45
0.0
1001
ACAD
1000
AcDbSavedByObjectVersion
1070
     0
  0
VISUALSTYLE
  5
BF2
102
{ACAD_XDICTIONARY
360
CFE
102
}
102
{ACAD_REACTORS
330
BDF
102
}
330
BDF
100
AcDbVisualStyle
  2
X-Ray
 70
    25
 71
     2
 72
     2
 73
     1
 90
        1
 40
0.5
 41
-30.0
 62
     5
 63
     7
 74
     1
 91
        0
 64
     7
 65
   257
 75
     1
175
     1
 42
1.0
 92
        8
 66
     7
 43
1.0
 76
     1
 77
     6
 78
     2
 67
     7
 79
     3
170
     0
171
     0
290
     0
174
     0
 93
       13
 44
0.0
173
     0
291
     0
 45
0.0
1001
ACAD
1000
AcDbSavedByObjectVersion
1070
     0
  0
DICTIONARYVAR
  5
C83
102
{ACAD_REACTORS
330
30
102
}
330
30
100
DictionaryVariables
280
     0
  1
1:1
  0
DICTIONARYVAR
  5
C7F
102
{ACAD_REACTORS
330
30
102
}
330
30
100
DictionaryVariables
280
     0
  1
STANDARD
  0
DICTIONARYVAR
  5
C7E
102
{ACAD_REACTORS
330
30
102
}
330
30
100
DictionaryVariables
280
     0
  1
STANDARD
  0
DICTIONARYVAR
  5
C80
102
{ACAD_REACTORS
330
30
102
}
330
30
100
DictionaryVariables
280
     0
  1
Imperial24
  0
DICTIONARYVAR
  5
C81
102
{ACAD_REACTORS
330
30
102
}
330
30
100
DictionaryVariables
280
     0
  1
Imperial24
  0
DICTIONARYVAR
  5
31
102
{ACAD_REACTORS
330
30
102
}
330
30
100
DictionaryVariables
280
     0
  1
2
  0
DICTIONARYVAR
  5
CC7
102
{ACAD_REACTORS
330
30
102
}
330
30
100
DictionaryVariables
280
     0
  1
1
  0
DICTIONARYVAR
  5
CC6
102
{ACAD_REACTORS
330
30
102
}
330
30
100
DictionaryVariables
280
     0
  1
0
  0
DICTIONARYVAR
  5
C85
102
{ACAD_REACTORS
330
30
102
}
330
30
100
DictionaryVariables
280
     0
  1
1
  0
DICTIONARYVAR
  5
C86
102
{ACAD_REACTORS
330
30
102
}
330
30
100
DictionaryVariables
280
     0
  1
15
  0
DICTIONARYVAR
  5
C84
102
{ACAD_REACTORS
330
30
102
}
330
30
100
DictionaryVariables
280
     0
  1
0
  0
DICTIONARYVAR
  5
CC8
102
{ACAD_REACTORS
330
30
102
}
330
30
100
DictionaryVariables
280
     0
  1
1.570796
  0
DICTIONARYVAR
  5
CC9
102
{ACAD_REACTORS
330
30
102
}
330
30
100
DictionaryVariables
280
     0
  1
1.570796
  0
DICTIONARYVAR
  5
CCA
102
{ACAD_REACTORS
330
30
102
}
330
30
100
DictionaryVariables
280
     0
  1
-122.394000
  0
DICTIONARYVAR
  5
C82
102
{ACAD_REACTORS
330
30
102
}
330
30
100
DictionaryVariables
280
     0
  1
0
  0
DICTIONARYVAR
  5
CC5
102
{ACAD_REACTORS
330
30
102
}
330
30
100
DictionaryVariables
280
     0
  1
127
  0
DICTIONARYVAR
  5
CCB
102
{ACAD_REACTORS
330
30
102
}
330
30
100
DictionaryVariables
280
     0
  1
2
  0
DICTIONARY
  5
CD6
102
{ACAD_REACTORS
330
CD4
102
}
330
CD4
100
AcDbDictionary
281
     1
  0
DICTIONARY
  5
CD5
102
{ACAD_REACTORS
330
CD4
102
}
330
CD4
100
AcDbDictionary
281
     1
  3
8796088088176
350
CCF
  3
8796088088192
350
CD0
  3
8796088088208
350
CD1
  3
8796088088224
350
CD2
  3
8796088088240
350
CD3
  0
DICTIONARY
  5
C8B
330
C12
100
AcDbDictionary
280
     1
281
     1
  3
ACAD_XREC_ROUNDTRIP
360
D0F
  0
DICTIONARY
  5
D12
330
C16
100
AcDbDictionary
280
     1
281
     1
  3
ACAD_XREC_ROUNDTRIP
360
D13
  0
DICTIONARY
  5
D10
330
C15
100
AcDbDictionary
280
     1
281
     1
  3
ACAD_XREC_ROUNDTRIP
360
D11
  0
DICTIONARY
  5
BD0
330
BCF
100
AcDbDictionary
280
     1
281
     1
  3
ACAD_XREC_ROUNDTRIP
360
CD8
  3
BUMPTILE
360
BD2
  3
DIFFUSETILE
360
BD1
  3
OPACITYTILE
360
BD5
  3
REFLECTIONTILE
360
BD4
  3
REFRACTIONTILE
360
BD6
  3
SPECULARTILE
360
BD3
  0
DICTIONARY
  5
BC8
330
BC7
100
AcDbDictionary
280
     1
281
     1
  3
ACAD_XREC_ROUNDTRIP
360
CD7
  3
BUMPTILE
360
BCA
  3
DIFFUSETILE
360
BC9
  3
OPACITYTILE
360
BCD
  3
REFLECTIONTILE
360
BCC
  3
REFRACTIONTILE
360
BCE
  3
SPECULARTILE
360
BCB
  0
DICTIONARY
  5
BD8
330
BD7
100
AcDbDictionary
280
     1
281
     1
  3
ACAD_XREC_ROUNDTRIP
360
CD9
  3
BUMPTILE
360
BDA
  3
DIFFUSETILE
360
BD9
  3
OPACITYTILE
360
BDD
  3
REFLECTIONTILE
360
BDC
  3
REFRACTIONTILE
360
BDE
  3
SPECULARTILE
360
BDB
  0
DICTIONARY
  5
D0C
330
C0E
100
AcDbDictionary
280
     1
281
     1
  3
ACAD_XREC_ROUNDTRIP
360
D0D
  0
DICTIONARY
  5
C89
330
C10
100
AcDbDictionary
280
     1
281
     1
  3
ACAD_XREC_ROUNDTRIP
360
D0E
  0
DICTIONARY
  5
C87
330
BFA
100
AcDbDictionary
280
     1
281
     1
  3
ACAD_ROUNDTRIP_2008_TABLESTYLE_CELLSTYLEMAP
360
CCC
  3
ACAD_XREC_ROUNDTRIP
360
D0A
  0
DICTIONARY
  5
CE4
330
BE5
100
AcDbDictionary
280
     1
281
     1
  3
ACAD_XREC_ROUNDTRIP
360
CE5
  0
DICTIONARY
  5
CE2
330
BE4
100
AcDbDictionary
280
     1
281
     1
  3
ACAD_XREC_ROUNDTRIP
360
CE3
  0
DICTIONARY
  5
CF0
330
BEB
100
AcDbDictionary
280
     1
281
     1
  3
ACAD_XREC_ROUNDTRIP
360
CF1
  0
DICTIONARY
  5
CF8
330
BEF
100
AcDbDictionary
280
     1
281
     1
  3
ACAD_XREC_ROUNDTRIP
360
CF9
  0
DICTIONARY
  5
CEA
330
BE8
100
AcDbDictionary
280
     1
281
     1
  3
ACAD_XREC_ROUNDTRIP
360
CEB
  0
DICTIONARY
  5
CEE
330
BEA
100
AcDbDictionary
280
     1
281
     1
  3
ACAD_XREC_ROUNDTRIP
360
CEF
  0
DICTIONARY
  5
D08
330
BF7
100
AcDbDictionary
280
     1
281
     1
  3
ACAD_XREC_ROUNDTRIP
360
D09
  0
DICTIONARY
  5
CF6
330
BEE
100
AcDbDictionary
280
     1
281
     1
  3
ACAD_XREC_ROUNDTRIP
360
CF7
  0
DICTIONARY
  5
CDA
330
BE0
100
AcDbDictionary
280
     1
281
     1
  3
ACAD_XREC_ROUNDTRIP
360
CDB
  0
DICTIONARY
  5
CDC
330
BE1
100
AcDbDictionary
280
     1
281
     1
  3
ACAD_XREC_ROUNDTRIP
360
CDD
  0
DICTIONARY
  5
CDE
330
BE2
100
AcDbDictionary
280
     1
281
     1
  3
ACAD_XREC_ROUNDTRIP
360
CDF
  0
DICTIONARY
  5
CE0
330
BE3
100
AcDbDictionary
280
     1
281
     1
  3
ACAD_XREC_ROUNDTRIP
360
CE1
  0
DICTIONARY
  5
CE8
330
BE7
100
AcDbDictionary
280
     1
281
     1
  3
ACAD_XREC_ROUNDTRIP
360
CE9
  0
DICTIONARY
  5
D04
330
BF5
100
AcDbDictionary
280
     1
281
     1
  3
ACAD_XREC_ROUNDTRIP
360
D05
  0
DICTIONARY
  5
CF4
330
BED
100
AcDbDictionary
280
     1
281
     1
  3
ACAD_XREC_ROUNDTRIP
360
CF5
  0
DICTIONARY
  5
D06
330
BF6
100
AcDbDictionary
280
     1
281
     1
  3
ACAD_XREC_ROUNDTRIP
360
D07
  0
DICTIONARY
  5
CEC
330
BE9
100
AcDbDictionary
280
     1
281
     1
  3
ACAD_XREC_ROUNDTRIP
360
CED
  0
DICTIONARY
  5
D02
330
BF4
100
AcDbDictionary
280
     1
281
     1
  3
ACAD_XREC_ROUNDTRIP
360
D03
  0
DICTIONARY
  5
D00
330
BF3
100
AcDbDictionary
280
     1
281
     1
  3
ACAD_XREC_ROUNDTRIP
360
D01
  0
DICTIONARY
  5
CFA
330
BF0
100
AcDbDictionary
280
     1
281
     1
  3
ACAD_XREC_ROUNDTRIP
360
CFB
  0
DICTIONARY
  5
CFC
330
BF1
100
AcDbDictionary
280
     1
281
     1
  3
ACAD_XREC_ROUNDTRIP
360
CFD
  0
DICTIONARY
  5
CF2
330
BEC
100
AcDbDictionary
280
     1
281
     1
  3
ACAD_XREC_ROUNDTRIP
360
CF3
  0
DICTIONARY
  5
CE6
330
BE6
100
AcDbDictionary
280
     1
281
     1
  3
ACAD_XREC_ROUNDTRIP
360
CE7
  0
DICTIONARY
  5
CFE
330
BF2
100
AcDbDictionary
280
     1
281
     1
  3
ACAD_XREC_ROUNDTRIP
360
CFF
  0
XRECORD
  5
CCF
102
{ACAD_REACTORS
330
CD5
102
}
330
CD5
100
AcDbXrecord
280
     1
  1
AcDb_Thumbnail_Schema
102
{ATTRRECORD
341
CD0
  2
AcDbDs::TreatedAsObjectData
280
     1
291
     1
102
ATTRRECORD}
102
{ATTRRECORD
341
CD1
  2
AcDbDs::Legacy
280
     1
291
     1
102
ATTRRECORD}
  2
AcDbDs::ID
280
    10
 91
        8
102
{ATTRRECORD
341
CD2
  2
AcDs:Indexable
280
     1
291
     1
102
ATTRRECORD}
102
{ATTRRECORD
341
CD3
  2
AcDbDs::HandleAttribute
280
     7
282
     1
102
ATTRRECORD}
  2
Thumbnail_Data
280
    15
 91
        0
  0
XRECORD
  5
CD0
102
{ACAD_REACTORS
330
CD5
102
}
330
CD5
100
AcDbXrecord
280
     1
  1
AcDbDs::TreatedAsObjectDataSchema
  2
AcDbDs::TreatedAsObjectData
280
     1
 91
        0
  0
XRECORD
  5
CD1
102
{ACAD_REACTORS
330
CD5
102
}
330
CD5
100
AcDbXrecord
280
     1
  1
AcDbDs::LegacySchema
  2
AcDbDs::Legacy
280
     1
 91
        0
  0
XRECORD
  5
CD2
102
{ACAD_REACTORS
330
CD5
102
}
330
CD5
100
AcDbXrecord
280
     1
  1
AcDbDs::IndexedPropertySchema
  2
AcDs:Indexable
280
     1
 91
        0
  0
XRECORD
  5
CD3
102
{ACAD_REACTORS
330
CD5
102
}
330
CD5
100
AcDbXrecord
280
     1
  1
AcDbDs::HandleAttributeSchema
  2
AcDbDs::HandleAttribute
280
     7
 91
        1
284
     1
  0
XRECORD
  5
D0F
102
{ACAD_REACTORS
330
C8B
102
}
330
C8B
100
AcDbXrecord
280
     1
102
DISPLAYNAME
  1
Imperial24
102
FLAGS
 90
        0
  0
XRECORD
  5
D13
102
{ACAD_REACTORS
330
D12
102
}
330
D12
100
AcDbXrecord
280
     1
102
SHADEPLOT
 70
     0
102
SHADEPLOTRESLEVEL
 70
     2
102
SHADEPLOTCUSTOMDPI
 70
   300
  0
XRECORD
  5
D11
102
{ACAD_REACTORS
330
D10
102
}
330
D10
100
AcDbXrecord
280
     1
102
SHADEPLOT
 70
     0
102
SHADEPLOTRESLEVEL
 70
     2
102
SHADEPLOTCUSTOMDPI
 70
   300
  0
XRECORD
  5
CD8
102
{ACAD_REACTORS
330
BD0
102
}
330
BD0
100
AcDbXrecord
280
     1
102
MATERIAL
148
0.0
149
0.0
149
0.0
 93
        0
 94
      127
282
     0
 72
     0
 77
     0
171
     0
175
     0
179
     0
273
     0
  0
XRECORD
  5
BD2
102
{ACAD_REACTORS
330
BD0
102
}
330
BD0
100
AcDbXrecord
280
     1
270
     1
271
     1
  0
XRECORD
  5
BD1
102
{ACAD_REACTORS
330
BD0
102
}
330
BD0
100
AcDbXrecord
280
     1
270
     1
271
     1
  0
XRECORD
  5
BD5
102
{ACAD_REACTORS
330
BD0
102
}
330
BD0
100
AcDbXrecord
280
     1
270
     1
271
     1
  0
XRECORD
  5
BD4
102
{ACAD_REACTORS
330
BD0
102
}
330
BD0
100
AcDbXrecord
280
     1
270
     1
271
     1
  0
XRECORD
  5
BD6
102
{ACAD_REACTORS
330
BD0
102
}
330
BD0
100
AcDbXrecord
280
     1
270
     1
271
     1
  0
XRECORD
  5
BD3
102
{ACAD_REACTORS
330
BD0
102
}
330
BD0
100
AcDbXrecord
280
     1
270
     1
271
     1
  0
XRECORD
  5
CD7
102
{ACAD_REACTORS
330
BC8
102
}
330
BC8
100
AcDbXrecord
280
     1
102
MATERIAL
148
0.0
149
0.0
149
0.0
 93
        0
 94
      127
282
     0
 72
     0
 77
     0
171
     0
175
     0
179
     0
273
     0
  0
XRECORD
  5
BCA
102
{ACAD_REACTORS
330
BC8
102
}
330
BC8
100
AcDbXrecord
280
     1
270
     1
271
     1
  0
XRECORD
  5
BC9
102
{ACAD_REACTORS
330
BC8
102
}
330
BC8
100
AcDbXrecord
280
     1
270
     1
271
     1
  0
XRECORD
  5
BCD
102
{ACAD_REACTORS
330
BC8
102
}
330
BC8
100
AcDbXrecord
280
     1
270
     1
271
     1
  0
XRECORD
  5
BCC
102
{ACAD_REACTORS
330
BC8
102
}
330
BC8
100
AcDbXrecord
280
     1
270
     1
271
     1
  0
XRECORD
  5
BCE
102
{ACAD_REACTORS
330
BC8
102
}
330
BC8
100
AcDbXrecord
280
     1
270
     1
271
     1
  0
XRECORD
  5
BCB
102
{ACAD_REACTORS
330
BC8
102
}
330
BC8
100
AcDbXrecord
280
     1
270
     1
271
     1
  0
XRECORD
  5
CD9
102
{ACAD_REACTORS
330
BD8
102
}
330
BD8
100
AcDbXrecord
280
     1
102
MATERIAL
148
0.0
149
0.0
149
0.0
 93
        0
 94
      127
282
     0
 72
     0
 77
     0
171
     0
175
     0
179
     0
273
     0
  0
XRECORD
  5
BDA
102
{ACAD_REACTORS
330
BD8
102
}
330
BD8
100
AcDbXrecord
280
     1
270
     1
271
     1
  0
XRECORD
  5
BD9
102
{ACAD_REACTORS
330
BD8
102
}
330
BD8
100
AcDbXrecord
280
     1
270
     1
271
     1
  0
XRECORD
  5
BDD
102
{ACAD_REACTORS
330
BD8
102
}
330
BD8
100
AcDbXrecord
280
     1
270
     1
271
     1
  0
XRECORD
  5
BDC
102
{ACAD_REACTORS
330
BD8
102
}
330
BD8
100
AcDbXrecord
280
     1
270
     1
271
     1
  0
XRECORD
  5
BDE
102
{ACAD_REACTORS
330
BD8
102
}
330
BD8
100
AcDbXrecord
280
     1
270
     1
271
     1
  0
XRECORD
  5
BDB
102
{ACAD_REACTORS
330
BD8
102
}
330
BD8
100
AcDbXrecord
280
     1
270
     1
271
     1
  0
XRECORD
  5
D0D
102
{ACAD_REACTORS
330
D0C
102
}
330
D0C
100
AcDbXrecord
280
     1
102
ACAD_ROUNDTRIP_2012_MLEADER_STYLE
298
     1
  0
XRECORD
  5
D0E
102
{ACAD_REACTORS
330
C89
102
}
330
C89
100
AcDbXrecord
280
     1
102
DISPLAYNAME
  1
Imperial24
102
FLAGS
 90
        0
  0
CELLSTYLEMAP
  5
CCC
102
{ACAD_REACTORS
330
C87
102
}
330
C87
100
AcDbCellStyleMap
 90
        3
300
CELLSTYLE
  1
TABLEFORMAT_BEGIN
 90
        5
170
     1
 91
        0
 92
    32768
 62
   257
 93
        1
300
CONTENTFORMAT
  1
CONTENTFORMAT_BEGIN
 90
        0
 91
        0
 92
      512
 93
        0
300

 40
0.0
140
1.0
 94
        5
 62
     0
340
F
144
0.25
309
CONTENTFORMAT_END
171
     1
301
MARGIN
  1
CELLMARGIN_BEGIN
 40
0.06
 40
0.06
 40
0.06
 40
0.06
 40
0.18
 40
0.18
309
CELLMARGIN_END
 94
        6
 95
        1
302
GRIDFORMAT
  1
GRIDFORMAT_BEGIN
 90
        0
 91
        1
 62
     0
 92
       -2
340
0
 93
        0
 40
0.045
309
GRIDFORMAT_END
 95
        2
302
GRIDFORMAT
  1
GRIDFORMAT_BEGIN
 90
        0
 91
        1
 62
     0
 92
       -2
340
0
 93
        0
 40
0.045
309
GRIDFORMAT_END
 95
        4
302
GRIDFORMAT
  1
GRIDFORMAT_BEGIN
 90
        0
 91
        1
 62
     0
 92
       -2
340
0
 93
        0
 40
0.045
309
GRIDFORMAT_END
 95
        8
302
GRIDFORMAT
  1
GRIDFORMAT_BEGIN
 90
        0
 91
        1
 62
     0
 92
       -2
340
0
 93
        0
 40
0.045
309
GRIDFORMAT_END
 95
       16
302
GRIDFORMAT
  1
GRIDFORMAT_BEGIN
 90
        0
 91
        1
 62
     0
 92
       -2
340
0
 93
        0
 40
0.045
309
GRIDFORMAT_END
 95
       32
302
GRIDFORMAT
  1
GRIDFORMAT_BEGIN
 90
        0
 91
        1
 62
     0
 92
       -2
340
0
 93
        0
 40
0.045
309
GRIDFORMAT_END
309
TABLEFORMAT_END
  1
CELLSTYLE_BEGIN
 90
        1
 91
        1
300
_TITLE
309
CELLSTYLE_END
300
CELLSTYLE
  1
TABLEFORMAT_BEGIN
 90
        5
170
     1
 91
        0
 92
        0
 62
   257
 93
        1
300
CONTENTFORMAT
  1
CONTENTFORMAT_BEGIN
 90
        0
 91
        0
 92
      512
 93
        0
300

 40
0.0
140
1.0
 94
        5
 62
     0
340
F
144
0.18
309
CONTENTFORMAT_END
171
     1
301
MARGIN
  1
CELLMARGIN_BEGIN
 40
0.06
 40
0.06
 40
0.06
 40
0.06
 40
0.18
 40
0.18
309
CELLMARGIN_END
 94
        6
 95
        1
302
GRIDFORMAT
  1
GRIDFORMAT_BEGIN
 90
        0
 91
        1
 62
     0
 92
       -2
340
0
 93
        0
 40
0.045
309
GRIDFORMAT_END
 95
        2
302
GRIDFORMAT
  1
GRIDFORMAT_BEGIN
 90
        0
 91
        1
 62
     0
 92
       -2
340
0
 93
        0
 40
0.045
309
GRIDFORMAT_END
 95
        4
302
GRIDFORMAT
  1
GRIDFORMAT_BEGIN
 90
        0
 91
        1
 62
     0
 92
       -2
340
0
 93
        0
 40
0.045
309
GRIDFORMAT_END
 95
        8
302
GRIDFORMAT
  1
GRIDFORMAT_BEGIN
 90
        0
 91
        1
 62
     0
 92
       -2
340
0
 93
        0
 40
0.045
309
GRIDFORMAT_END
 95
       16
302
GRIDFORMAT
  1
GRIDFORMAT_BEGIN
 90
        0
 91
        1
 62
     0
 92
       -2
340
0
 93
        0
 40
0.045
309
GRIDFORMAT_END
 95
       32
302
GRIDFORMAT
  1
GRIDFORMAT_BEGIN
 90
        0
 91
        1
 62
     0
 92
       -2
340
0
 93
        0
 40
0.045
309
GRIDFORMAT_END
309
TABLEFORMAT_END
  1
CELLSTYLE_BEGIN
 90
        2
 91
        1
300
_HEADER
309
CELLSTYLE_END
300
CELLSTYLE
  1
TABLEFORMAT_BEGIN
 90
        5
170
     1
 91
        0
 92
        0
 62
   257
 93
        1
300
CONTENTFORMAT
  1
CONTENTFORMAT_BEGIN
 90
        0
 91
        0
 92
      512
 93
        0
300

 40
0.0
140
1.0
 94
        2
 62
     0
340
F
144
0.18
309
CONTENTFORMAT_END
171
     1
301
MARGIN
  1
CELLMARGIN_BEGIN
 40
0.06
 40
0.06
 40
0.06
 40
0.06
 40
0.18
 40
0.18
309
CELLMARGIN_END
 94
        6
 95
        1
302
GRIDFORMAT
  1
GRIDFORMAT_BEGIN
 90
        0
 91
        1
 62
     0
 92
       -2
340
0
 93
        0
 40
0.045
309
GRIDFORMAT_END
 95
        2
302
GRIDFORMAT
  1
GRIDFORMAT_BEGIN
 90
        0
 91
        1
 62
     0
 92
       -2
340
0
 93
        0
 40
0.045
309
GRIDFORMAT_END
 95
        4
302
GRIDFORMAT
  1
GRIDFORMAT_BEGIN
 90
        0
 91
        1
 62
     0
 92
       -2
340
0
 93
        0
 40
0.045
309
GRIDFORMAT_END
 95
        8
302
GRIDFORMAT
  1
GRIDFORMAT_BEGIN
 90
        0
 91
        1
 62
     0
 92
       -2
340
0
 93
        0
 40
0.045
309
GRIDFORMAT_END
 95
       16
302
GRIDFORMAT
  1
GRIDFORMAT_BEGIN
 90
        0
 91
        1
 62
     0
 92
       -2
340
0
 93
        0
 40
0.045
309
GRIDFORMAT_END
 95
       32
302
GRIDFORMAT
  1
GRIDFORMAT_BEGIN
 90
        0
 91
        1
 62
     0
 92
       -2
340
0
 93
        0
 40
0.045
309
GRIDFORMAT_END
309
TABLEFORMAT_END
  1
CELLSTYLE_BEGIN
 90
        3
 91
        2
300
_DATA
309
CELLSTYLE_END
  0
XRECORD
  5
D0A
102
{ACAD_REACTORS
330
C87
102
}
330
C87
100
AcDbXrecord
280
     1
102
ACAD_ROUNDTRIP_PRE2007_TABLESTYLE
 90
      512
 91
        0
  1

 92
      512
 93
        0
  2

 94
      512
 95
        0
  3

  0
XRECORD
  5
CE5
102
{ACAD_REACTORS
330
CE4
102
}
330
CE4
100
AcDbXrecord
280
     1
102
RTVSPost2010Prop28
280
     1
102
RTVSPost2010PropOp28
 70
     1
102
RTVSPost2010Prop29
280
     1
102
RTVSPost2010PropOp29
 70
     1
102
RTVSPost2010Prop30
280
     0
102
RTVSPost2010PropOp30
 70
     1
102
RTVSPost2010Prop31
280
     0
102
RTVSPost2010PropOp31
 70
     1
102
RTVSPost2010Prop32
280
     0
102
RTVSPost2010PropOp32
 70
     1
102
RTVSPost2010Prop33
280
     0
102
RTVSPost2010PropOp33
 70
     1
102
RTVSPost2010Prop34
280
     0
102
RTVSPost2010PropOp34
 70
     1
102
RTVSPost2010Prop35
280
     0
102
RTVSPost2010PropOp35
 70
     1
102
RTVSPost2010Prop36
280
     0
102
RTVSPost2010PropOp36
 70
     1
102
RTVSPost2010Prop37
 90
       50
102
RTVSPost2010PropOp37
 70
     1
102
RTVSPost2010Prop38
140
0.0
102
RTVSPost2010PropOp38
 70
     1
102
RTVSPost2010Prop39
140
1.0
102
RTVSPost2010PropOp39
 70
     1
102
RTVSPost2010Prop40
 90
        0
102
RTVSPost2010PropOp40
 70
     1
102
RTVSPost2010Prop41ColorIndex
 90
       18
102
RTVSPost2010Prop41ColorRGB
 90
-16777216
102
RTVSPost2010PropOp41
 70
     1
102
RTVSPost2010Prop42
 90
       50
102
RTVSPost2010PropOp42
 70
     1
102
RTVSPost2010Prop43
 90
        3
102
RTVSPost2010PropOp43
 70
     1
102
RTVSPost2010Prop44ColorIndex
 90
        5
102
RTVSPost2010Prop44ColorRGB
 90
      255
102
RTVSPost2010PropOp44
 70
     1
102
RTVSPost2010Prop45
280
     0
102
RTVSPost2010PropOp45
 70
     1
102
RTVSPost2010Prop46
 90
       50
102
RTVSPost2010PropOp46
 70
     1
102
RTVSPost2010Prop47
 90
       50
102
RTVSPost2010PropOp47
 70
     1
102
RTVSPost2010Prop48
 90
       50
102
RTVSPost2010PropOp48
 70
     1
102
RTVSPost2010Prop49
280
     0
102
RTVSPost2010PropOp49
 70
     1
102
RTVSPost2010Prop50
 90
       50
102
RTVSPost2010PropOp50
 70
     1
102
RTVSPost2010Prop51ColorIndex
 90
      256
102
RTVSPost2010Prop51ColorRGB
 90
-16777216
102
RTVSPost2010PropOp51
 70
     0
102
RTVSPost2010Prop52
140
1.0
102
RTVSPost2010PropOp52
 70
     0
102
RTVSPost2010Prop53
 90
        2
102
RTVSPost2010PropOp53
 70
     1
102
RTVSPost2010Prop54
  1
strokes_ogs.tif
102
RTVSPost2010PropOp54
 70
     1
102
RTVSPost2010Prop55
280
     0
102
RTVSPost2010PropOp55
 70
     1
102
RTVSPost2010Prop56
140
1.0
102
RTVSPost2010PropOp56
 70
     1
102
RTVSPost2010Prop57
140
1.0
102
RTVSPost2010PropOp57
 70
     1
102
RTVSPropertyOp0
 70
     1
102
RTVSPropertyOp1
 70
     1
102
RTVSPropertyOp2
 70
     1
102
RTVSPropertyOp3
 70
     1
102
RTVSPropertyOp4
 70
     1
102
RTVSPropertyOp5
 70
     1
102
RTVSPropertyOp6
 70
     1
102
RTVSPropertyOp7
 70
     1
102
RTVSPropertyOp8
 70
     1
102
RTVSPropertyOp9
 70
     1
102
RTVSPropertyOp10
 70
     1
102
RTVSPropertyOp11
 70
     1
102
RTVSPropertyOp12
 70
     1
102
RTVSPropertyOp13
 70
     1
102
RTVSPropertyOp14
 70
     1
102
RTVSPropertyOp15
 70
     1
102
RTVSPropertyOp16
 70
     1
102
RTVSPropertyOp17
 70
     1
102
RTVSPropertyOp18
 70
     1
102
RTVSPropertyOp19
 70
     1
102
RTVSPropertyOp20
 70
     1
102
RTVSPropertyOp21
 70
     1
102
RTVSPropertyOp22
 70
     1
102
RTVSPropertyOp23
 70
     1
102
RTVSPropertyOp24
 70
     1
102
RTVSPropertyOp25
 70
     1
102
RTVSPropertyOp26
 70
     1
102
RTVSPropertyOp27
 70
     1
102
RTVSPropertyOp28
 70
     1
102
RTVSPropertyOp29
 70
     1
102
RTVSPropertyOp30
 70
     1
102
RTVSPropertyOp31
 70
     1
102
RTVSPropertyOp32
 70
     1
102
RTVSPropertyOp33
 70
     1
102
RTVSPropertyOp34
 70
     1
102
RTVSPropertyOp35
 70
     1
102
RTVSPropertyOp36
 70
     1
102
RTVSPropertyOp37
 70
     1
102
RTVSPropertyOp38
 70
     1
102
RTVSPropertyOp39
 70
     1
102
RTVSPropertyOp40
 70
     1
102
RTVSPropertyOp41
 70
     1
102
RTVSPropertyOp42
 70
     1
102
RTVSPropertyOp43
 70
     1
102
RTVSPropertyOp44
 70
     1
102
RTVSPropertyOp45
 70
     1
102
RTVSPropertyOp46
 70
     1
102
RTVSPropertyOp47
 70
     1
102
RTVSPropertyOp48
 70
     1
102
RTVSPropertyOp49
 70
     1
102
RTVSPropertyOp50
 70
     1
102
RTVSPropertyOp51
 70
     0
102
RTVSPropertyOp52
 70
     0
102
RTVSPropertyOp53
 70
     1
102
RTVSPropertyOp54
 70
     1
102
RTVSPropertyOp55
 70
     1
102
RTVSPropertyOp56
 70
     1
102
RTVSPropertyOp57
 70
     1
102
RTVSPropertyOp58
 70
     1
102
RTVSPropertyOp59
 70
     1
102
RTVSPropertyOp60
 70
     1
102
RTVSPropertyOp61
 70
     1
102
RTVSPropertyOp62
 70
     1
  0
XRECORD
  5
CE3
102
{ACAD_REACTORS
330
CE2
102
}
330
CE2
100
AcDbXrecord
280
     1
102
RTVSPost2010Prop28
280
     0
102
RTVSPost2010PropOp28
 70
     1
102
RTVSPost2010Prop29
280
     1
102
RTVSPost2010PropOp29
 70
     1
102
RTVSPost2010Prop30
280
     1
102
RTVSPost2010PropOp30
 70
     1
102
RTVSPost2010Prop31
280
     0
102
RTVSPost2010PropOp31
 70
     1
102
RTVSPost2010Prop32
280
     0
102
RTVSPost2010PropOp32
 70
     1
102
RTVSPost2010Prop33
280
     0
102
RTVSPost2010PropOp33
 70
     1
102
RTVSPost2010Prop34
280
     0
102
RTVSPost2010PropOp34
 70
     1
102
RTVSPost2010Prop35
280
     0
102
RTVSPost2010PropOp35
 70
     1
102
RTVSPost2010Prop36
280
     0
102
RTVSPost2010PropOp36
 70
     1
102
RTVSPost2010Prop37
 90
       50
102
RTVSPost2010PropOp37
 70
     1
102
RTVSPost2010Prop38
140
0.0
102
RTVSPost2010PropOp38
 70
     1
102
RTVSPost2010Prop39
140
1.0
102
RTVSPost2010PropOp39
 70
     1
102
RTVSPost2010Prop40
 90
        0
102
RTVSPost2010PropOp40
 70
     1
102
RTVSPost2010Prop41ColorIndex
 90
       18
102
RTVSPost2010Prop41ColorRGB
 90
-16777216
102
RTVSPost2010PropOp41
 70
     1
102
RTVSPost2010Prop42
 90
       50
102
RTVSPost2010PropOp42
 70
     1
102
RTVSPost2010Prop43
 90
        3
102
RTVSPost2010PropOp43
 70
     1
102
RTVSPost2010Prop44ColorIndex
 90
        5
102
RTVSPost2010Prop44ColorRGB
 90
      255
102
RTVSPost2010PropOp44
 70
     1
102
RTVSPost2010Prop45
280
     0
102
RTVSPost2010PropOp45
 70
     1
102
RTVSPost2010Prop46
 90
       50
102
RTVSPost2010PropOp46
 70
     1
102
RTVSPost2010Prop47
 90
       50
102
RTVSPost2010PropOp47
 70
     1
102
RTVSPost2010Prop48
 90
       50
102
RTVSPost2010PropOp48
 70
     1
102
RTVSPost2010Prop49
280
     0
102
RTVSPost2010PropOp49
 70
     1
102
RTVSPost2010Prop50
 90
       50
102
RTVSPost2010PropOp50
 70
     1
102
RTVSPost2010Prop51ColorIndex
 90
      256
102
RTVSPost2010Prop51ColorRGB
 90
-16777216
102
RTVSPost2010PropOp51
 70
     0
102
RTVSPost2010Prop52
140
1.0
102
RTVSPost2010PropOp52
 70
     0
102
RTVSPost2010Prop53
 90
        2
102
RTVSPost2010PropOp53
 70
     1
102
RTVSPost2010Prop54
  1
strokes_ogs.tif
102
RTVSPost2010PropOp54
 70
     1
102
RTVSPost2010Prop55
280
     0
102
RTVSPost2010PropOp55
 70
     1
102
RTVSPost2010Prop56
140
1.0
102
RTVSPost2010PropOp56
 70
     1
102
RTVSPost2010Prop57
140
1.0
102
RTVSPost2010PropOp57
 70
     1
102
RTVSPropertyOp0
 70
     1
102
RTVSPropertyOp1
 70
     1
102
RTVSPropertyOp2
 70
     1
102
RTVSPropertyOp3
 70
     1
102
RTVSPropertyOp4
 70
     1
102
RTVSPropertyOp5
 70
     1
102
RTVSPropertyOp6
 70
     1
102
RTVSPropertyOp7
 70
     1
102
RTVSPropertyOp8
 70
     1
102
RTVSPropertyOp9
 70
     1
102
RTVSPropertyOp10
 70
     1
102
RTVSPropertyOp11
 70
     1
102
RTVSPropertyOp12
 70
     1
102
RTVSPropertyOp13
 70
     1
102
RTVSPropertyOp14
 70
     1
102
RTVSPropertyOp15
 70
     1
102
RTVSPropertyOp16
 70
     1
102
RTVSPropertyOp17
 70
     1
102
RTVSPropertyOp18
 70
     1
102
RTVSPropertyOp19
 70
     1
102
RTVSPropertyOp20
 70
     1
102
RTVSPropertyOp21
 70
     1
102
RTVSPropertyOp22
 70
     1
102
RTVSPropertyOp23
 70
     1
102
RTVSPropertyOp24
 70
     1
102
RTVSPropertyOp25
 70
     1
102
RTVSPropertyOp26
 70
     1
102
RTVSPropertyOp27
 70
     1
102
RTVSPropertyOp28
 70
     1
102
RTVSPropertyOp29
 70
     1
102
RTVSPropertyOp30
 70
     1
102
RTVSPropertyOp31
 70
     1
102
RTVSPropertyOp32
 70
     1
102
RTVSPropertyOp33
 70
     1
102
RTVSPropertyOp34
 70
     1
102
RTVSPropertyOp35
 70
     1
102
RTVSPropertyOp36
 70
     1
102
RTVSPropertyOp37
 70
     1
102
RTVSPropertyOp38
 70
     1
102
RTVSPropertyOp39
 70
     1
102
RTVSPropertyOp40
 70
     1
102
RTVSPropertyOp41
 70
     1
102
RTVSPropertyOp42
 70
     1
102
RTVSPropertyOp43
 70
     1
102
RTVSPropertyOp44
 70
     1
102
RTVSPropertyOp45
 70
     1
102
RTVSPropertyOp46
 70
     1
102
RTVSPropertyOp47
 70
     1
102
RTVSPropertyOp48
 70
     1
102
RTVSPropertyOp49
 70
     1
102
RTVSPropertyOp50
 70
     1
102
RTVSPropertyOp51
 70
     0
102
RTVSPropertyOp52
 70
     0
102
RTVSPropertyOp53
 70
     1
102
RTVSPropertyOp54
 70
     1
102
RTVSPropertyOp55
 70
     1
102
RTVSPropertyOp56
 70
     1
102
RTVSPropertyOp57
 70
     1
102
RTVSPropertyOp58
 70
     1
102
RTVSPropertyOp59
 70
     1
102
RTVSPropertyOp60
 70
     1
102
RTVSPropertyOp61
 70
     1
102
RTVSPropertyOp62
 70
     1
  0
XRECORD
  5
CF1
102
{ACAD_REACTORS
330
CF0
102
}
330
CF0
100
AcDbXrecord
280
     1
102
RTVSPost2010Prop28
280
     0
102
RTVSPost2010PropOp28
 70
     1
102
RTVSPost2010Prop29
280
     1
102
RTVSPost2010PropOp29
 70
     1
102
RTVSPost2010Prop30
280
     1
102
RTVSPost2010PropOp30
 70
     1
102
RTVSPost2010Prop31
280
     0
102
RTVSPost2010PropOp31
 70
     1
102
RTVSPost2010Prop32
280
     0
102
RTVSPost2010PropOp32
 70
     1
102
RTVSPost2010Prop33
280
     0
102
RTVSPost2010PropOp33
 70
     1
102
RTVSPost2010Prop34
280
     0
102
RTVSPost2010PropOp34
 70
     1
102
RTVSPost2010Prop35
280
     0
102
RTVSPost2010PropOp35
 70
     1
102
RTVSPost2010Prop36
280
     0
102
RTVSPost2010PropOp36
 70
     1
102
RTVSPost2010Prop37
 90
       50
102
RTVSPost2010PropOp37
 70
     1
102
RTVSPost2010Prop38
140
0.0
102
RTVSPost2010PropOp38
 70
     1
102
RTVSPost2010Prop39
140
1.0
102
RTVSPost2010PropOp39
 70
     1
102
RTVSPost2010Prop40
 90
        0
102
RTVSPost2010PropOp40
 70
     1
102
RTVSPost2010Prop41ColorIndex
 90
       18
102
RTVSPost2010Prop41ColorRGB
 90
-16777216
102
RTVSPost2010PropOp41
 70
     1
102
RTVSPost2010Prop42
 90
       50
102
RTVSPost2010PropOp42
 70
     1
102
RTVSPost2010Prop43
 90
        3
102
RTVSPost2010PropOp43
 70
     1
102
RTVSPost2010Prop44ColorIndex
 90
        5
102
RTVSPost2010Prop44ColorRGB
 90
      255
102
RTVSPost2010PropOp44
 70
     1
102
RTVSPost2010Prop45
280
     0
102
RTVSPost2010PropOp45
 70
     1
102
RTVSPost2010Prop46
 90
       50
102
RTVSPost2010PropOp46
 70
     1
102
RTVSPost2010Prop47
 90
       50
102
RTVSPost2010PropOp47
 70
     1
102
RTVSPost2010Prop48
 90
       50
102
RTVSPost2010PropOp48
 70
     1
102
RTVSPost2010Prop49
280
     0
102
RTVSPost2010PropOp49
 70
     1
102
RTVSPost2010Prop50
 90
       50
102
RTVSPost2010PropOp50
 70
     1
102
RTVSPost2010Prop51ColorIndex
 90
      256
102
RTVSPost2010Prop51ColorRGB
 90
-16777216
102
RTVSPost2010PropOp51
 70
     0
102
RTVSPost2010Prop52
140
1.0
102
RTVSPost2010PropOp52
 70
     0
102
RTVSPost2010Prop53
 90
        2
102
RTVSPost2010PropOp53
 70
     1
102
RTVSPost2010Prop54
  1
strokes_ogs.tif
102
RTVSPost2010PropOp54
 70
     1
102
RTVSPost2010Prop55
280
     0
102
RTVSPost2010PropOp55
 70
     1
102
RTVSPost2010Prop56
140
1.0
102
RTVSPost2010PropOp56
 70
     1
102
RTVSPost2010Prop57
140
1.0
102
RTVSPost2010PropOp57
 70
     1
102
RTVSPropertyOp0
 70
     1
102
RTVSPropertyOp1
 70
     1
102
RTVSPropertyOp2
 70
     1
102
RTVSPropertyOp3
 70
     1
102
RTVSPropertyOp4
 70
     1
102
RTVSPropertyOp5
 70
     1
102
RTVSPropertyOp6
 70
     1
102
RTVSPropertyOp7
 70
     1
102
RTVSPropertyOp8
 70
     1
102
RTVSPropertyOp9
 70
     1
102
RTVSPropertyOp10
 70
     1
102
RTVSPropertyOp11
 70
     1
102
RTVSPropertyOp12
 70
     1
102
RTVSPropertyOp13
 70
     1
102
RTVSPropertyOp14
 70
     1
102
RTVSPropertyOp15
 70
     1
102
RTVSPropertyOp16
 70
     1
102
RTVSPropertyOp17
 70
     1
102
RTVSPropertyOp18
 70
     1
102
RTVSPropertyOp19
 70
     1
102
RTVSPropertyOp20
 70
     1
102
RTVSPropertyOp21
 70
     1
102
RTVSPropertyOp22
 70
     1
102
RTVSPropertyOp23
 70
     1
102
RTVSPropertyOp24
 70
     1
102
RTVSPropertyOp25
 70
     1
102
RTVSPropertyOp26
 70
     1
102
RTVSPropertyOp27
 70
     1
102
RTVSPropertyOp28
 70
     1
102
RTVSPropertyOp29
 70
     1
102
RTVSPropertyOp30
 70
     1
102
RTVSPropertyOp31
 70
     1
102
RTVSPropertyOp32
 70
     1
102
RTVSPropertyOp33
 70
     1
102
RTVSPropertyOp34
 70
     1
102
RTVSPropertyOp35
 70
     1
102
RTVSPropertyOp36
 70
     1
102
RTVSPropertyOp37
 70
     1
102
RTVSPropertyOp38
 70
     1
102
RTVSPropertyOp39
 70
     1
102
RTVSPropertyOp40
 70
     1
102
RTVSPropertyOp41
 70
     1
102
RTVSPropertyOp42
 70
     1
102
RTVSPropertyOp43
 70
     1
102
RTVSPropertyOp44
 70
     1
102
RTVSPropertyOp45
 70
     1
102
RTVSPropertyOp46
 70
     1
102
RTVSPropertyOp47
 70
     1
102
RTVSPropertyOp48
 70
     1
102
RTVSPropertyOp49
 70
     1
102
RTVSPropertyOp50
 70
     1
102
RTVSPropertyOp51
 70
     0
102
RTVSPropertyOp52
 70
     0
102
RTVSPropertyOp53
 70
     1
102
RTVSPropertyOp54
 70
     1
102
RTVSPropertyOp55
 70
     1
102
RTVSPropertyOp56
 70
     1
102
RTVSPropertyOp57
 70
     1
102
RTVSPropertyOp58
 70
     1
102
RTVSPropertyOp59
 70
     1
102
RTVSPropertyOp60
 70
     1
102
RTVSPropertyOp61
 70
     1
102
RTVSPropertyOp62
 70
     1
  0
XRECORD
  5
CF9
102
{ACAD_REACTORS
330
CF8
102
}
330
CF8
100
AcDbXrecord
280
     1
102
RTVSPost2010Prop28
280
     0
102
RTVSPost2010PropOp28
 70
     1
102
RTVSPost2010Prop29
280
     1
102
RTVSPost2010PropOp29
 70
     1
102
RTVSPost2010Prop30
280
     1
102
RTVSPost2010PropOp30
 70
     1
102
RTVSPost2010Prop31
280
     0
102
RTVSPost2010PropOp31
 70
     1
102
RTVSPost2010Prop32
280
     0
102
RTVSPost2010PropOp32
 70
     1
102
RTVSPost2010Prop33
280
     0
102
RTVSPost2010PropOp33
 70
     1
102
RTVSPost2010Prop34
280
     0
102
RTVSPost2010PropOp34
 70
     1
102
RTVSPost2010Prop35
280
     0
102
RTVSPost2010PropOp35
 70
     1
102
RTVSPost2010Prop36
280
     0
102
RTVSPost2010PropOp36
 70
     1
102
RTVSPost2010Prop37
 90
       50
102
RTVSPost2010PropOp37
 70
     1
102
RTVSPost2010Prop38
140
0.0
102
RTVSPost2010PropOp38
 70
     1
102
RTVSPost2010Prop39
140
1.0
102
RTVSPost2010PropOp39
 70
     1
102
RTVSPost2010Prop40
 90
        0
102
RTVSPost2010PropOp40
 70
     1
102
RTVSPost2010Prop41ColorIndex
 90
       18
102
RTVSPost2010Prop41ColorRGB
 90
-16777216
102
RTVSPost2010PropOp41
 70
     1
102
RTVSPost2010Prop42
 90
       50
102
RTVSPost2010PropOp42
 70
     1
102
RTVSPost2010Prop43
 90
        3
102
RTVSPost2010PropOp43
 70
     1
102
RTVSPost2010Prop44ColorIndex
 90
        5
102
RTVSPost2010Prop44ColorRGB
 90
      255
102
RTVSPost2010PropOp44
 70
     1
102
RTVSPost2010Prop45
280
     0
102
RTVSPost2010PropOp45
 70
     1
102
RTVSPost2010Prop46
 90
       50
102
RTVSPost2010PropOp46
 70
     1
102
RTVSPost2010Prop47
 90
       50
102
RTVSPost2010PropOp47
 70
     1
102
RTVSPost2010Prop48
 90
       50
102
RTVSPost2010PropOp48
 70
     1
102
RTVSPost2010Prop49
280
     0
102
RTVSPost2010PropOp49
 70
     1
102
RTVSPost2010Prop50
 90
       50
102
RTVSPost2010PropOp50
 70
     1
102
RTVSPost2010Prop51ColorIndex
 90
      256
102
RTVSPost2010Prop51ColorRGB
 90
-16777216
102
RTVSPost2010PropOp51
 70
     0
102
RTVSPost2010Prop52
140
1.0
102
RTVSPost2010PropOp52
 70
     0
102
RTVSPost2010Prop53
 90
        2
102
RTVSPost2010PropOp53
 70
     1
102
RTVSPost2010Prop54
  1
strokes_ogs.tif
102
RTVSPost2010PropOp54
 70
     1
102
RTVSPost2010Prop55
280
     0
102
RTVSPost2010PropOp55
 70
     1
102
RTVSPost2010Prop56
140
1.0
102
RTVSPost2010PropOp56
 70
     1
102
RTVSPost2010Prop57
140
1.0
102
RTVSPost2010PropOp57
 70
     1
102
RTVSPropertyOp0
 70
     1
102
RTVSPropertyOp1
 70
     1
102
RTVSPropertyOp2
 70
     1
102
RTVSPropertyOp3
 70
     1
102
RTVSPropertyOp4
 70
     1
102
RTVSPropertyOp5
 70
     1
102
RTVSPropertyOp6
 70
     1
102
RTVSPropertyOp7
 70
     1
102
RTVSPropertyOp8
 70
     1
102
RTVSPropertyOp9
 70
     1
102
RTVSPropertyOp10
 70
     1
102
RTVSPropertyOp11
 70
     1
102
RTVSPropertyOp12
 70
     1
102
RTVSPropertyOp13
 70
     1
102
RTVSPropertyOp14
 70
     1
102
RTVSPropertyOp15
 70
     1
102
RTVSPropertyOp16
 70
     1
102
RTVSPropertyOp17
 70
     1
102
RTVSPropertyOp18
 70
     1
102
RTVSPropertyOp19
 70
     1
102
RTVSPropertyOp20
 70
     1
102
RTVSPropertyOp21
 70
     1
102
RTVSPropertyOp22
 70
     1
102
RTVSPropertyOp23
 70
     1
102
RTVSPropertyOp24
 70
     1
102
RTVSPropertyOp25
 70
     1
102
RTVSPropertyOp26
 70
     1
102
RTVSPropertyOp27
 70
     1
102
RTVSPropertyOp28
 70
     1
102
RTVSPropertyOp29
 70
     1
102
RTVSPropertyOp30
 70
     1
102
RTVSPropertyOp31
 70
     1
102
RTVSPropertyOp32
 70
     1
102
RTVSPropertyOp33
 70
     1
102
RTVSPropertyOp34
 70
     1
102
RTVSPropertyOp35
 70
     1
102
RTVSPropertyOp36
 70
     1
102
RTVSPropertyOp37
 70
     1
102
RTVSPropertyOp38
 70
     1
102
RTVSPropertyOp39
 70
     1
102
RTVSPropertyOp40
 70
     1
102
RTVSPropertyOp41
 70
     1
102
RTVSPropertyOp42
 70
     1
102
RTVSPropertyOp43
 70
     1
102
RTVSPropertyOp44
 70
     1
102
RTVSPropertyOp45
 70
     1
102
RTVSPropertyOp46
 70
     1
102
RTVSPropertyOp47
 70
     1
102
RTVSPropertyOp48
 70
     1
102
RTVSPropertyOp49
 70
     1
102
RTVSPropertyOp50
 70
     1
102
RTVSPropertyOp51
 70
     0
102
RTVSPropertyOp52
 70
     0
102
RTVSPropertyOp53
 70
     1
102
RTVSPropertyOp54
 70
     1
102
RTVSPropertyOp55
 70
     1
102
RTVSPropertyOp56
 70
     1
102
RTVSPropertyOp57
 70
     1
102
RTVSPropertyOp58
 70
     1
102
RTVSPropertyOp59
 70
     1
102
RTVSPropertyOp60
 70
     1
102
RTVSPropertyOp61
 70
     1
102
RTVSPropertyOp62
 70
     1
  0
XRECORD
  5
CEB
102
{ACAD_REACTORS
330
CEA
102
}
330
CEA
100
AcDbXrecord
280
     1
102
RTVSPost2010Prop28
280
     0
102
RTVSPost2010PropOp28
 70
     1
102
RTVSPost2010Prop29
280
     1
102
RTVSPost2010PropOp29
 70
     1
102
RTVSPost2010Prop30
280
     1
102
RTVSPost2010PropOp30
 70
     1
102
RTVSPost2010Prop31
280
     0
102
RTVSPost2010PropOp31
 70
     1
102
RTVSPost2010Prop32
280
     0
102
RTVSPost2010PropOp32
 70
     1
102
RTVSPost2010Prop33
280
     0
102
RTVSPost2010PropOp33
 70
     1
102
RTVSPost2010Prop34
280
     0
102
RTVSPost2010PropOp34
 70
     1
102
RTVSPost2010Prop35
280
     0
102
RTVSPost2010PropOp35
 70
     1
102
RTVSPost2010Prop36
280
     0
102
RTVSPost2010PropOp36
 70
     1
102
RTVSPost2010Prop37
 90
       50
102
RTVSPost2010PropOp37
 70
     1
102
RTVSPost2010Prop38
140
0.0
102
RTVSPost2010PropOp38
 70
     1
102
RTVSPost2010Prop39
140
1.0
102
RTVSPost2010PropOp39
 70
     1
102
RTVSPost2010Prop40
 90
        0
102
RTVSPost2010PropOp40
 70
     1
102
RTVSPost2010Prop41ColorIndex
 90
       18
102
RTVSPost2010Prop41ColorRGB
 90
-16777216
102
RTVSPost2010PropOp41
 70
     1
102
RTVSPost2010Prop42
 90
       50
102
RTVSPost2010PropOp42
 70
     1
102
RTVSPost2010Prop43
 90
        3
102
RTVSPost2010PropOp43
 70
     1
102
RTVSPost2010Prop44ColorIndex
 90
        5
102
RTVSPost2010Prop44ColorRGB
 90
      255
102
RTVSPost2010PropOp44
 70
     1
102
RTVSPost2010Prop45
280
     0
102
RTVSPost2010PropOp45
 70
     1
102
RTVSPost2010Prop46
 90
       50
102
RTVSPost2010PropOp46
 70
     1
102
RTVSPost2010Prop47
 90
       50
102
RTVSPost2010PropOp47
 70
     1
102
RTVSPost2010Prop48
 90
       50
102
RTVSPost2010PropOp48
 70
     1
102
RTVSPost2010Prop49
280
     0
102
RTVSPost2010PropOp49
 70
     1
102
RTVSPost2010Prop50
 90
       50
102
RTVSPost2010PropOp50
 70
     1
102
RTVSPost2010Prop51ColorIndex
 90
      256
102
RTVSPost2010Prop51ColorRGB
 90
-16777216
102
RTVSPost2010PropOp51
 70
     0
102
RTVSPost2010Prop52
140
1.0
102
RTVSPost2010PropOp52
 70
     0
102
RTVSPost2010Prop53
 90
        2
102
RTVSPost2010PropOp53
 70
     1
102
RTVSPost2010Prop54
  1
strokes_ogs.tif
102
RTVSPost2010PropOp54
 70
     1
102
RTVSPost2010Prop55
280
     0
102
RTVSPost2010PropOp55
 70
     1
102
RTVSPost2010Prop56
140
1.0
102
RTVSPost2010PropOp56
 70
     1
102
RTVSPost2010Prop57
140
1.0
102
RTVSPost2010PropOp57
 70
     1
102
RTVSPropertyOp0
 70
     1
102
RTVSPropertyOp1
 70
     1
102
RTVSPropertyOp2
 70
     1
102
RTVSPropertyOp3
 70
     1
102
RTVSPropertyOp4
 70
     1
102
RTVSPropertyOp5
 70
     1
102
RTVSPropertyOp6
 70
     1
102
RTVSPropertyOp7
 70
     1
102
RTVSPropertyOp8
 70
     1
102
RTVSPropertyOp9
 70
     1
102
RTVSPropertyOp10
 70
     1
102
RTVSPropertyOp11
 70
     1
102
RTVSPropertyOp12
 70
     1
102
RTVSPropertyOp13
 70
     1
102
RTVSPropertyOp14
 70
     1
102
RTVSPropertyOp15
 70
     1
102
RTVSPropertyOp16
 70
     1
102
RTVSPropertyOp17
 70
     1
102
RTVSPropertyOp18
 70
     1
102
RTVSPropertyOp19
 70
     1
102
RTVSPropertyOp20
 70
     1
102
RTVSPropertyOp21
 70
     1
102
RTVSPropertyOp22
 70
     1
102
RTVSPropertyOp23
 70
     1
102
RTVSPropertyOp24
 70
     1
102
RTVSPropertyOp25
 70
     1
102
RTVSPropertyOp26
 70
     1
102
RTVSPropertyOp27
 70
     1
102
RTVSPropertyOp28
 70
     1
102
RTVSPropertyOp29
 70
     1
102
RTVSPropertyOp30
 70
     1
102
RTVSPropertyOp31
 70
     1
102
RTVSPropertyOp32
 70
     1
102
RTVSPropertyOp33
 70
     1
102
RTVSPropertyOp34
 70
     1
102
RTVSPropertyOp35
 70
     1
102
RTVSPropertyOp36
 70
     1
102
RTVSPropertyOp37
 70
     1
102
RTVSPropertyOp38
 70
     1
102
RTVSPropertyOp39
 70
     1
102
RTVSPropertyOp40
 70
     1
102
RTVSPropertyOp41
 70
     1
102
RTVSPropertyOp42
 70
     1
102
RTVSPropertyOp43
 70
     1
102
RTVSPropertyOp44
 70
     1
102
RTVSPropertyOp45
 70
     1
102
RTVSPropertyOp46
 70
     1
102
RTVSPropertyOp47
 70
     1
102
RTVSPropertyOp48
 70
     1
102
RTVSPropertyOp49
 70
     1
102
RTVSPropertyOp50
 70
     1
102
RTVSPropertyOp51
 70
     0
102
RTVSPropertyOp52
 70
     0
102
RTVSPropertyOp53
 70
     1
102
RTVSPropertyOp54
 70
     1
102
RTVSPropertyOp55
 70
     1
102
RTVSPropertyOp56
 70
     1
102
RTVSPropertyOp57
 70
     1
102
RTVSPropertyOp58
 70
     1
102
RTVSPropertyOp59
 70
     1
102
RTVSPropertyOp60
 70
     1
102
RTVSPropertyOp61
 70
     1
102
RTVSPropertyOp62
 70
     1
  0
XRECORD
  5
CEF
102
{ACAD_REACTORS
330
CEE
102
}
330
CEE
100
AcDbXrecord
280
     1
102
RTVSPost2010Prop28
280
     0
102
RTVSPost2010PropOp28
 70
     1
102
RTVSPost2010Prop29
280
     1
102
RTVSPost2010PropOp29
 70
     1
102
RTVSPost2010Prop30
280
     1
102
RTVSPost2010PropOp30
 70
     1
102
RTVSPost2010Prop31
280
     0
102
RTVSPost2010PropOp31
 70
     1
102
RTVSPost2010Prop32
280
     0
102
RTVSPost2010PropOp32
 70
     1
102
RTVSPost2010Prop33
280
     0
102
RTVSPost2010PropOp33
 70
     1
102
RTVSPost2010Prop34
280
     0
102
RTVSPost2010PropOp34
 70
     1
102
RTVSPost2010Prop35
280
     0
102
RTVSPost2010PropOp35
 70
     1
102
RTVSPost2010Prop36
280
     0
102
RTVSPost2010PropOp36
 70
     1
102
RTVSPost2010Prop37
 90
       50
102
RTVSPost2010PropOp37
 70
     1
102
RTVSPost2010Prop38
140
0.0
102
RTVSPost2010PropOp38
 70
     1
102
RTVSPost2010Prop39
140
1.0
102
RTVSPost2010PropOp39
 70
     1
102
RTVSPost2010Prop40
 90
        0
102
RTVSPost2010PropOp40
 70
     1
102
RTVSPost2010Prop41ColorIndex
 90
       18
102
RTVSPost2010Prop41ColorRGB
 90
-16777216
102
RTVSPost2010PropOp41
 70
     1
102
RTVSPost2010Prop42
 90
       50
102
RTVSPost2010PropOp42
 70
     1
102
RTVSPost2010Prop43
 90
        3
102
RTVSPost2010PropOp43
 70
     1
102
RTVSPost2010Prop44ColorIndex
 90
        5
102
RTVSPost2010Prop44ColorRGB
 90
      255
102
RTVSPost2010PropOp44
 70
     1
102
RTVSPost2010Prop45
280
     0
102
RTVSPost2010PropOp45
 70
     1
102
RTVSPost2010Prop46
 90
       50
102
RTVSPost2010PropOp46
 70
     1
102
RTVSPost2010Prop47
 90
       50
102
RTVSPost2010PropOp47
 70
     1
102
RTVSPost2010Prop48
 90
       50
102
RTVSPost2010PropOp48
 70
     1
102
RTVSPost2010Prop49
280
     0
102
RTVSPost2010PropOp49
 70
     1
102
RTVSPost2010Prop50
 90
       50
102
RTVSPost2010PropOp50
 70
     1
102
RTVSPost2010Prop51ColorIndex
 90
      256
102
RTVSPost2010Prop51ColorRGB
 90
-16777216
102
RTVSPost2010PropOp51
 70
     0
102
RTVSPost2010Prop52
140
1.0
102
RTVSPost2010PropOp52
 70
     0
102
RTVSPost2010Prop53
 90
        2
102
RTVSPost2010PropOp53
 70
     1
102
RTVSPost2010Prop54
  1
strokes_ogs.tif
102
RTVSPost2010PropOp54
 70
     1
102
RTVSPost2010Prop55
280
     0
102
RTVSPost2010PropOp55
 70
     1
102
RTVSPost2010Prop56
140
1.0
102
RTVSPost2010PropOp56
 70
     1
102
RTVSPost2010Prop57
140
1.0
102
RTVSPost2010PropOp57
 70
     1
102
RTVSPropertyOp0
 70
     1
102
RTVSPropertyOp1
 70
     1
102
RTVSPropertyOp2
 70
     1
102
RTVSPropertyOp3
 70
     1
102
RTVSPropertyOp4
 70
     1
102
RTVSPropertyOp5
 70
     1
102
RTVSPropertyOp6
 70
     1
102
RTVSPropertyOp7
 70
     1
102
RTVSPropertyOp8
 70
     1
102
RTVSPropertyOp9
 70
     1
102
RTVSPropertyOp10
 70
     1
102
RTVSPropertyOp11
 70
     1
102
RTVSPropertyOp12
 70
     1
102
RTVSPropertyOp13
 70
     1
102
RTVSPropertyOp14
 70
     1
102
RTVSPropertyOp15
 70
     1
102
RTVSPropertyOp16
 70
     1
102
RTVSPropertyOp17
 70
     1
102
RTVSPropertyOp18
 70
     1
102
RTVSPropertyOp19
 70
     1
102
RTVSPropertyOp20
 70
     1
102
RTVSPropertyOp21
 70
     1
102
RTVSPropertyOp22
 70
     1
102
RTVSPropertyOp23
 70
     1
102
RTVSPropertyOp24
 70
     1
102
RTVSPropertyOp25
 70
     1
102
RTVSPropertyOp26
 70
     1
102
RTVSPropertyOp27
 70
     1
102
RTVSPropertyOp28
 70
     1
102
RTVSPropertyOp29
 70
     1
102
RTVSPropertyOp30
 70
     1
102
RTVSPropertyOp31
 70
     1
102
RTVSPropertyOp32
 70
     1
102
RTVSPropertyOp33
 70
     1
102
RTVSPropertyOp34
 70
     1
102
RTVSPropertyOp35
 70
     1
102
RTVSPropertyOp36
 70
     1
102
RTVSPropertyOp37
 70
     1
102
RTVSPropertyOp38
 70
     1
102
RTVSPropertyOp39
 70
     1
102
RTVSPropertyOp40
 70
     1
102
RTVSPropertyOp41
 70
     1
102
RTVSPropertyOp42
 70
     1
102
RTVSPropertyOp43
 70
     1
102
RTVSPropertyOp44
 70
     1
102
RTVSPropertyOp45
 70
     1
102
RTVSPropertyOp46
 70
     1
102
RTVSPropertyOp47
 70
     1
102
RTVSPropertyOp48
 70
     1
102
RTVSPropertyOp49
 70
     1
102
RTVSPropertyOp50
 70
     1
102
RTVSPropertyOp51
 70
     0
102
RTVSPropertyOp52
 70
     0
102
RTVSPropertyOp53
 70
     1
102
RTVSPropertyOp54
 70
     1
102
RTVSPropertyOp55
 70
     1
102
RTVSPropertyOp56
 70
     1
102
RTVSPropertyOp57
 70
     1
102
RTVSPropertyOp58
 70
     1
102
RTVSPropertyOp59
 70
     1
102
RTVSPropertyOp60
 70
     1
102
RTVSPropertyOp61
 70
     1
102
RTVSPropertyOp62
 70
     1
  0
XRECORD
  5
D09
102
{ACAD_REACTORS
330
D08
102
}
330
D08
100
AcDbXrecord
280
     1
102
RTVSPost2010Prop28
280
     0
102
RTVSPost2010PropOp28
 70
     0
102
RTVSPost2010Prop29
280
     1
102
RTVSPost2010PropOp29
 70
     0
102
RTVSPost2010Prop30
280
     1
102
RTVSPost2010PropOp30
 70
     0
102
RTVSPost2010Prop31
280
     0
102
RTVSPost2010PropOp31
 70
     0
102
RTVSPost2010Prop32
280
     0
102
RTVSPost2010PropOp32
 70
     0
102
RTVSPost2010Prop33
280
     0
102
RTVSPost2010PropOp33
 70
     0
102
RTVSPost2010Prop34
280
     0
102
RTVSPost2010PropOp34
 70
     0
102
RTVSPost2010Prop35
280
     0
102
RTVSPost2010PropOp35
 70
     0
102
RTVSPost2010Prop36
280
     0
102
RTVSPost2010PropOp36
 70
     0
102
RTVSPost2010Prop37
 90
       50
102
RTVSPost2010PropOp37
 70
     0
102
RTVSPost2010Prop38
140
0.0
102
RTVSPost2010PropOp38
 70
     0
102
RTVSPost2010Prop39
140
1.0
102
RTVSPost2010PropOp39
 70
     0
102
RTVSPost2010Prop40
 90
        0
102
RTVSPost2010PropOp40
 70
     0
102
RTVSPost2010Prop41ColorIndex
 90
       18
102
RTVSPost2010Prop41ColorRGB
 90
-16777216
102
RTVSPost2010PropOp41
 70
     0
102
RTVSPost2010Prop42
 90
       50
102
RTVSPost2010PropOp42
 70
     0
102
RTVSPost2010Prop43
 90
        3
102
RTVSPost2010PropOp43
 70
     0
102
RTVSPost2010Prop44ColorIndex
 90
        5
102
RTVSPost2010Prop44ColorRGB
 90
      255
102
RTVSPost2010PropOp44
 70
     0
102
RTVSPost2010Prop45
280
     0
102
RTVSPost2010PropOp45
 70
     0
102
RTVSPost2010Prop46
 90
       50
102
RTVSPost2010PropOp46
 70
     0
102
RTVSPost2010Prop47
 90
       50
102
RTVSPost2010PropOp47
 70
     0
102
RTVSPost2010Prop48
 90
       50
102
RTVSPost2010PropOp48
 70
     0
102
RTVSPost2010Prop49
280
     0
102
RTVSPost2010PropOp49
 70
     0
102
RTVSPost2010Prop50
 90
       50
102
RTVSPost2010PropOp50
 70
     0
102
RTVSPost2010Prop51ColorIndex
 90
      256
102
RTVSPost2010Prop51ColorRGB
 90
-16777216
102
RTVSPost2010PropOp51
 70
     0
102
RTVSPost2010Prop52
140
1.0
102
RTVSPost2010PropOp52
 70
     0
102
RTVSPost2010Prop53
 90
        2
102
RTVSPost2010PropOp53
 70
     0
102
RTVSPost2010Prop54
  1
strokes_ogs.tif
102
RTVSPost2010PropOp54
 70
     0
102
RTVSPost2010Prop55
280
     0
102
RTVSPost2010PropOp55
 70
     0
102
RTVSPost2010Prop56
140
1.0
102
RTVSPost2010PropOp56
 70
     0
102
RTVSPost2010Prop57
140
1.0
102
RTVSPost2010PropOp57
 70
     0
102
RTVSPropertyOp0
 70
     0
102
RTVSPropertyOp1
 70
     0
102
RTVSPropertyOp2
 70
     0
102
RTVSPropertyOp3
 70
     0
102
RTVSPropertyOp4
 70
     0
102
RTVSPropertyOp5
 70
     0
102
RTVSPropertyOp6
 70
     0
102
RTVSPropertyOp7
 70
     0
102
RTVSPropertyOp8
 70
     0
102
RTVSPropertyOp9
 70
     0
102
RTVSPropertyOp10
 70
     0
102
RTVSPropertyOp11
 70
     0
102
RTVSPropertyOp12
 70
     0
102
RTVSPropertyOp13
 70
     0
102
RTVSPropertyOp14
 70
     2
102
RTVSPropertyOp15
 70
     0
102
RTVSPropertyOp16
 70
     0
102
RTVSPropertyOp17
 70
     0
102
RTVSPropertyOp18
 70
     0
102
RTVSPropertyOp19
 70
     0
102
RTVSPropertyOp20
 70
     0
102
RTVSPropertyOp21
 70
     0
102
RTVSPropertyOp22
 70
     0
102
RTVSPropertyOp23
 70
     0
102
RTVSPropertyOp24
 70
     0
102
RTVSPropertyOp25
 70
     0
102
RTVSPropertyOp26
 70
     0
102
RTVSPropertyOp27
 70
     0
102
RTVSPropertyOp28
 70
     0
102
RTVSPropertyOp29
 70
     0
102
RTVSPropertyOp30
 70
     0
102
RTVSPropertyOp31
 70
     0
102
RTVSPropertyOp32
 70
     0
102
RTVSPropertyOp33
 70
     0
102
RTVSPropertyOp34
 70
     0
102
RTVSPropertyOp35
 70
     0
102
RTVSPropertyOp36
 70
     0
102
RTVSPropertyOp37
 70
     0
102
RTVSPropertyOp38
 70
     0
102
RTVSPropertyOp39
 70
     0
102
RTVSPropertyOp40
 70
     0
102
RTVSPropertyOp41
 70
     0
102
RTVSPropertyOp42
 70
     0
102
RTVSPropertyOp43
 70
     0
102
RTVSPropertyOp44
 70
     0
102
RTVSPropertyOp45
 70
     0
102
RTVSPropertyOp46
 70
     0
102
RTVSPropertyOp47
 70
     0
102
RTVSPropertyOp48
 70
     0
102
RTVSPropertyOp49
 70
     0
102
RTVSPropertyOp50
 70
     0
102
RTVSPropertyOp51
 70
     0
102
RTVSPropertyOp52
 70
     0
102
RTVSPropertyOp53
 70
     0
102
RTVSPropertyOp54
 70
     0
102
RTVSPropertyOp55
 70
     0
102
RTVSPropertyOp56
 70
     0
102
RTVSPropertyOp57
 70
     0
102
RTVSPropertyOp58
 70
     1
102
RTVSPropertyOp59
 70
     1
102
RTVSPropertyOp60
 70
     1
102
RTVSPropertyOp61
 70
     1
102
RTVSPropertyOp62
 70
     1
  0
XRECORD
  5
CF7
102
{ACAD_REACTORS
330
CF6
102
}
330
CF6
100
AcDbXrecord
280
     1
102
RTVSPost2010Prop28
280
     0
102
RTVSPost2010PropOp28
 70
     1
102
RTVSPost2010Prop29
280
     1
102
RTVSPost2010PropOp29
 70
     1
102
RTVSPost2010Prop30
280
     1
102
RTVSPost2010PropOp30
 70
     1
102
RTVSPost2010Prop31
280
     0
102
RTVSPost2010PropOp31
 70
     1
102
RTVSPost2010Prop32
280
     0
102
RTVSPost2010PropOp32
 70
     1
102
RTVSPost2010Prop33
280
     0
102
RTVSPost2010PropOp33
 70
     1
102
RTVSPost2010Prop34
280
     0
102
RTVSPost2010PropOp34
 70
     1
102
RTVSPost2010Prop35
280
     0
102
RTVSPost2010PropOp35
 70
     1
102
RTVSPost2010Prop36
280
     0
102
RTVSPost2010PropOp36
 70
     1
102
RTVSPost2010Prop37
 90
       50
102
RTVSPost2010PropOp37
 70
     1
102
RTVSPost2010Prop38
140
0.0
102
RTVSPost2010PropOp38
 70
     1
102
RTVSPost2010Prop39
140
1.0
102
RTVSPost2010PropOp39
 70
     1
102
RTVSPost2010Prop40
 90
        0
102
RTVSPost2010PropOp40
 70
     1
102
RTVSPost2010Prop41ColorIndex
 90
       18
102
RTVSPost2010Prop41ColorRGB
 90
-16777216
102
RTVSPost2010PropOp41
 70
     1
102
RTVSPost2010Prop42
 90
       50
102
RTVSPost2010PropOp42
 70
     1
102
RTVSPost2010Prop43
 90
        3
102
RTVSPost2010PropOp43
 70
     1
102
RTVSPost2010Prop44ColorIndex
 90
        5
102
RTVSPost2010Prop44ColorRGB
 90
      255
102
RTVSPost2010PropOp44
 70
     1
102
RTVSPost2010Prop45
280
     0
102
RTVSPost2010PropOp45
 70
     1
102
RTVSPost2010Prop46
 90
       50
102
RTVSPost2010PropOp46
 70
     1
102
RTVSPost2010Prop47
 90
       50
102
RTVSPost2010PropOp47
 70
     1
102
RTVSPost2010Prop48
 90
       50
102
RTVSPost2010PropOp48
 70
     1
102
RTVSPost2010Prop49
280
     0
102
RTVSPost2010PropOp49
 70
     1
102
RTVSPost2010Prop50
 90
       50
102
RTVSPost2010PropOp50
 70
     1
102
RTVSPost2010Prop51ColorIndex
 90
      256
102
RTVSPost2010Prop51ColorRGB
 90
-16777216
102
RTVSPost2010PropOp51
 70
     0
102
RTVSPost2010Prop52
140
1.0
102
RTVSPost2010PropOp52
 70
     0
102
RTVSPost2010Prop53
 90
        2
102
RTVSPost2010PropOp53
 70
     1
102
RTVSPost2010Prop54
  1
strokes_ogs.tif
102
RTVSPost2010PropOp54
 70
     1
102
RTVSPost2010Prop55
280
     0
102
RTVSPost2010PropOp55
 70
     1
102
RTVSPost2010Prop56
140
1.0
102
RTVSPost2010PropOp56
 70
     1
102
RTVSPost2010Prop57
140
1.0
102
RTVSPost2010PropOp57
 70
     1
102
RTVSPropertyOp0
 70
     1
102
RTVSPropertyOp1
 70
     1
102
RTVSPropertyOp2
 70
     1
102
RTVSPropertyOp3
 70
     1
102
RTVSPropertyOp4
 70
     1
102
RTVSPropertyOp5
 70
     1
102
RTVSPropertyOp6
 70
     1
102
RTVSPropertyOp7
 70
     1
102
RTVSPropertyOp8
 70
     1
102
RTVSPropertyOp9
 70
     1
102
RTVSPropertyOp10
 70
     1
102
RTVSPropertyOp11
 70
     1
102
RTVSPropertyOp12
 70
     1
102
RTVSPropertyOp13
 70
     1
102
RTVSPropertyOp14
 70
     1
102
RTVSPropertyOp15
 70
     1
102
RTVSPropertyOp16
 70
     1
102
RTVSPropertyOp17
 70
     1
102
RTVSPropertyOp18
 70
     1
102
RTVSPropertyOp19
 70
     1
102
RTVSPropertyOp20
 70
     1
102
RTVSPropertyOp21
 70
     1
102
RTVSPropertyOp22
 70
     1
102
RTVSPropertyOp23
 70
     1
102
RTVSPropertyOp24
 70
     1
102
RTVSPropertyOp25
 70
     1
102
RTVSPropertyOp26
 70
     1
102
RTVSPropertyOp27
 70
     1
102
RTVSPropertyOp28
 70
     1
102
RTVSPropertyOp29
 70
     1
102
RTVSPropertyOp30
 70
     1
102
RTVSPropertyOp31
 70
     1
102
RTVSPropertyOp32
 70
     1
102
RTVSPropertyOp33
 70
     1
102
RTVSPropertyOp34
 70
     1
102
RTVSPropertyOp35
 70
     1
102
RTVSPropertyOp36
 70
     1
102
RTVSPropertyOp37
 70
     1
102
RTVSPropertyOp38
 70
     1
102
RTVSPropertyOp39
 70
     1
102
RTVSPropertyOp40
 70
     1
102
RTVSPropertyOp41
 70
     1
102
RTVSPropertyOp42
 70
     1
102
RTVSPropertyOp43
 70
     1
102
RTVSPropertyOp44
 70
     1
102
RTVSPropertyOp45
 70
     1
102
RTVSPropertyOp46
 70
     1
102
RTVSPropertyOp47
 70
     1
102
RTVSPropertyOp48
 70
     1
102
RTVSPropertyOp49
 70
     1
102
RTVSPropertyOp50
 70
     1
102
RTVSPropertyOp51
 70
     0
102
RTVSPropertyOp52
 70
     0
102
RTVSPropertyOp53
 70
     1
102
RTVSPropertyOp54
 70
     1
102
RTVSPropertyOp55
 70
     1
102
RTVSPropertyOp56
 70
     1
102
RTVSPropertyOp57
 70
     1
102
RTVSPropertyOp58
 70
     1
102
RTVSPropertyOp59
 70
     1
102
RTVSPropertyOp60
 70
     1
102
RTVSPropertyOp61
 70
     1
102
RTVSPropertyOp62
 70
     1
  0
XRECORD
  5
CDB
102
{ACAD_REACTORS
330
CDA
102
}
330
CDA
100
AcDbXrecord
280
     1
102
RTVSPost2010Prop28
280
     0
102
RTVSPost2010PropOp28
 70
     1
102
RTVSPost2010Prop29
280
     1
102
RTVSPost2010PropOp29
 70
     1
102
RTVSPost2010Prop30
280
     1
102
RTVSPost2010PropOp30
 70
     1
102
RTVSPost2010Prop31
280
     0
102
RTVSPost2010PropOp31
 70
     1
102
RTVSPost2010Prop32
280
     0
102
RTVSPost2010PropOp32
 70
     1
102
RTVSPost2010Prop33
280
     0
102
RTVSPost2010PropOp33
 70
     1
102
RTVSPost2010Prop34
280
     0
102
RTVSPost2010PropOp34
 70
     1
102
RTVSPost2010Prop35
280
     0
102
RTVSPost2010PropOp35
 70
     1
102
RTVSPost2010Prop36
280
     0
102
RTVSPost2010PropOp36
 70
     1
102
RTVSPost2010Prop37
 90
       50
102
RTVSPost2010PropOp37
 70
     1
102
RTVSPost2010Prop38
140
0.0
102
RTVSPost2010PropOp38
 70
     1
102
RTVSPost2010Prop39
140
1.0
102
RTVSPost2010PropOp39
 70
     1
102
RTVSPost2010Prop40
 90
        0
102
RTVSPost2010PropOp40
 70
     1
102
RTVSPost2010Prop41ColorIndex
 90
       18
102
RTVSPost2010Prop41ColorRGB
 90
-16777216
102
RTVSPost2010PropOp41
 70
     1
102
RTVSPost2010Prop42
 90
       50
102
RTVSPost2010PropOp42
 70
     1
102
RTVSPost2010Prop43
 90
        3
102
RTVSPost2010PropOp43
 70
     1
102
RTVSPost2010Prop44ColorIndex
 90
        5
102
RTVSPost2010Prop44ColorRGB
 90
      255
102
RTVSPost2010PropOp44
 70
     1
102
RTVSPost2010Prop45
280
     0
102
RTVSPost2010PropOp45
 70
     1
102
RTVSPost2010Prop46
 90
       50
102
RTVSPost2010PropOp46
 70
     1
102
RTVSPost2010Prop47
 90
       50
102
RTVSPost2010PropOp47
 70
     1
102
RTVSPost2010Prop48
 90
       50
102
RTVSPost2010PropOp48
 70
     1
102
RTVSPost2010Prop49
280
     0
102
RTVSPost2010PropOp49
 70
     1
102
RTVSPost2010Prop50
 90
       50
102
RTVSPost2010PropOp50
 70
     1
102
RTVSPost2010Prop51ColorIndex
 90
      256
102
RTVSPost2010Prop51ColorRGB
 90
-16777216
102
RTVSPost2010PropOp51
 70
     0
102
RTVSPost2010Prop52
140
1.0
102
RTVSPost2010PropOp52
 70
     0
102
RTVSPost2010Prop53
 90
        2
102
RTVSPost2010PropOp53
 70
     1
102
RTVSPost2010Prop54
  1
strokes_ogs.tif
102
RTVSPost2010PropOp54
 70
     1
102
RTVSPost2010Prop55
280
     0
102
RTVSPost2010PropOp55
 70
     1
102
RTVSPost2010Prop56
140
1.0
102
RTVSPost2010PropOp56
 70
     1
102
RTVSPost2010Prop57
140
1.0
102
RTVSPost2010PropOp57
 70
     1
102
RTVSPropertyOp0
 70
     1
102
RTVSPropertyOp1
 70
     1
102
RTVSPropertyOp2
 70
     1
102
RTVSPropertyOp3
 70
     1
102
RTVSPropertyOp4
 70
     1
102
RTVSPropertyOp5
 70
     1
102
RTVSPropertyOp6
 70
     1
102
RTVSPropertyOp7
 70
     1
102
RTVSPropertyOp8
 70
     1
102
RTVSPropertyOp9
 70
     1
102
RTVSPropertyOp10
 70
     1
102
RTVSPropertyOp11
 70
     1
102
RTVSPropertyOp12
 70
     1
102
RTVSPropertyOp13
 70
     1
102
RTVSPropertyOp14
 70
     1
102
RTVSPropertyOp15
 70
     1
102
RTVSPropertyOp16
 70
     1
102
RTVSPropertyOp17
 70
     1
102
RTVSPropertyOp18
 70
     1
102
RTVSPropertyOp19
 70
     1
102
RTVSPropertyOp20
 70
     1
102
RTVSPropertyOp21
 70
     1
102
RTVSPropertyOp22
 70
     1
102
RTVSPropertyOp23
 70
     1
102
RTVSPropertyOp24
 70
     1
102
RTVSPropertyOp25
 70
     1
102
RTVSPropertyOp26
 70
     1
102
RTVSPropertyOp27
 70
     1
102
RTVSPropertyOp28
 70
     1
102
RTVSPropertyOp29
 70
     1
102
RTVSPropertyOp30
 70
     1
102
RTVSPropertyOp31
 70
     1
102
RTVSPropertyOp32
 70
     1
102
RTVSPropertyOp33
 70
     1
102
RTVSPropertyOp34
 70
     1
102
RTVSPropertyOp35
 70
     1
102
RTVSPropertyOp36
 70
     1
102
RTVSPropertyOp37
 70
     1
102
RTVSPropertyOp38
 70
     1
102
RTVSPropertyOp39
 70
     1
102
RTVSPropertyOp40
 70
     1
102
RTVSPropertyOp41
 70
     1
102
RTVSPropertyOp42
 70
     1
102
RTVSPropertyOp43
 70
     1
102
RTVSPropertyOp44
 70
     1
102
RTVSPropertyOp45
 70
     1
102
RTVSPropertyOp46
 70
     1
102
RTVSPropertyOp47
 70
     1
102
RTVSPropertyOp48
 70
     1
102
RTVSPropertyOp49
 70
     1
102
RTVSPropertyOp50
 70
     1
102
RTVSPropertyOp51
 70
     0
102
RTVSPropertyOp52
 70
     0
102
RTVSPropertyOp53
 70
     1
102
RTVSPropertyOp54
 70
     1
102
RTVSPropertyOp55
 70
     1
102
RTVSPropertyOp56
 70
     1
102
RTVSPropertyOp57
 70
     1
102
RTVSPropertyOp58
 70
     1
102
RTVSPropertyOp59
 70
     1
102
RTVSPropertyOp60
 70
     1
102
RTVSPropertyOp61
 70
     1
102
RTVSPropertyOp62
 70
     1
  0
XRECORD
  5
CDD
102
{ACAD_REACTORS
330
CDC
102
}
330
CDC
100
AcDbXrecord
280
     1
102
RTVSPost2010Prop28
280
     0
102
RTVSPost2010PropOp28
 70
     1
102
RTVSPost2010Prop29
280
     1
102
RTVSPost2010PropOp29
 70
     1
102
RTVSPost2010Prop30
280
     1
102
RTVSPost2010PropOp30
 70
     1
102
RTVSPost2010Prop31
280
     0
102
RTVSPost2010PropOp31
 70
     1
102
RTVSPost2010Prop32
280
     0
102
RTVSPost2010PropOp32
 70
     1
102
RTVSPost2010Prop33
280
     0
102
RTVSPost2010PropOp33
 70
     1
102
RTVSPost2010Prop34
280
     0
102
RTVSPost2010PropOp34
 70
     1
102
RTVSPost2010Prop35
280
     0
102
RTVSPost2010PropOp35
 70
     1
102
RTVSPost2010Prop36
280
     0
102
RTVSPost2010PropOp36
 70
     1
102
RTVSPost2010Prop37
 90
       50
102
RTVSPost2010PropOp37
 70
     1
102
RTVSPost2010Prop38
140
0.0
102
RTVSPost2010PropOp38
 70
     1
102
RTVSPost2010Prop39
140
1.0
102
RTVSPost2010PropOp39
 70
     1
102
RTVSPost2010Prop40
 90
        0
102
RTVSPost2010PropOp40
 70
     1
102
RTVSPost2010Prop41ColorIndex
 90
       18
102
RTVSPost2010Prop41ColorRGB
 90
-16777216
102
RTVSPost2010PropOp41
 70
     1
102
RTVSPost2010Prop42
 90
       50
102
RTVSPost2010PropOp42
 70
     1
102
RTVSPost2010Prop43
 90
        3
102
RTVSPost2010PropOp43
 70
     1
102
RTVSPost2010Prop44ColorIndex
 90
        5
102
RTVSPost2010Prop44ColorRGB
 90
      255
102
RTVSPost2010PropOp44
 70
     1
102
RTVSPost2010Prop45
280
     0
102
RTVSPost2010PropOp45
 70
     1
102
RTVSPost2010Prop46
 90
       50
102
RTVSPost2010PropOp46
 70
     1
102
RTVSPost2010Prop47
 90
       50
102
RTVSPost2010PropOp47
 70
     1
102
RTVSPost2010Prop48
 90
       50
102
RTVSPost2010PropOp48
 70
     1
102
RTVSPost2010Prop49
280
     0
102
RTVSPost2010PropOp49
 70
     1
102
RTVSPost2010Prop50
 90
       50
102
RTVSPost2010PropOp50
 70
     1
102
RTVSPost2010Prop51ColorIndex
 90
      256
102
RTVSPost2010Prop51ColorRGB
 90
-16777216
102
RTVSPost2010PropOp51
 70
     0
102
RTVSPost2010Prop52
140
1.0
102
RTVSPost2010PropOp52
 70
     0
102
RTVSPost2010Prop53
 90
        2
102
RTVSPost2010PropOp53
 70
     1
102
RTVSPost2010Prop54
  1
strokes_ogs.tif
102
RTVSPost2010PropOp54
 70
     1
102
RTVSPost2010Prop55
280
     0
102
RTVSPost2010PropOp55
 70
     1
102
RTVSPost2010Prop56
140
1.0
102
RTVSPost2010PropOp56
 70
     1
102
RTVSPost2010Prop57
140
1.0
102
RTVSPost2010PropOp57
 70
     1
102
RTVSPropertyOp0
 70
     1
102
RTVSPropertyOp1
 70
     1
102
RTVSPropertyOp2
 70
     1
102
RTVSPropertyOp3
 70
     1
102
RTVSPropertyOp4
 70
     1
102
RTVSPropertyOp5
 70
     1
102
RTVSPropertyOp6
 70
     1
102
RTVSPropertyOp7
 70
     1
102
RTVSPropertyOp8
 70
     1
102
RTVSPropertyOp9
 70
     1
102
RTVSPropertyOp10
 70
     1
102
RTVSPropertyOp11
 70
     1
102
RTVSPropertyOp12
 70
     1
102
RTVSPropertyOp13
 70
     1
102
RTVSPropertyOp14
 70
     1
102
RTVSPropertyOp15
 70
     1
102
RTVSPropertyOp16
 70
     1
102
RTVSPropertyOp17
 70
     1
102
RTVSPropertyOp18
 70
     1
102
RTVSPropertyOp19
 70
     1
102
RTVSPropertyOp20
 70
     1
102
RTVSPropertyOp21
 70
     1
102
RTVSPropertyOp22
 70
     1
102
RTVSPropertyOp23
 70
     1
102
RTVSPropertyOp24
 70
     1
102
RTVSPropertyOp25
 70
     1
102
RTVSPropertyOp26
 70
     1
102
RTVSPropertyOp27
 70
     1
102
RTVSPropertyOp28
 70
     1
102
RTVSPropertyOp29
 70
     1
102
RTVSPropertyOp30
 70
     1
102
RTVSPropertyOp31
 70
     1
102
RTVSPropertyOp32
 70
     1
102
RTVSPropertyOp33
 70
     1
102
RTVSPropertyOp34
 70
     1
102
RTVSPropertyOp35
 70
     1
102
RTVSPropertyOp36
 70
     1
102
RTVSPropertyOp37
 70
     1
102
RTVSPropertyOp38
 70
     1
102
RTVSPropertyOp39
 70
     1
102
RTVSPropertyOp40
 70
     1
102
RTVSPropertyOp41
 70
     1
102
RTVSPropertyOp42
 70
     1
102
RTVSPropertyOp43
 70
     1
102
RTVSPropertyOp44
 70
     1
102
RTVSPropertyOp45
 70
     1
102
RTVSPropertyOp46
 70
     1
102
RTVSPropertyOp47
 70
     1
102
RTVSPropertyOp48
 70
     1
102
RTVSPropertyOp49
 70
     1
102
RTVSPropertyOp50
 70
     1
102
RTVSPropertyOp51
 70
     0
102
RTVSPropertyOp52
 70
     0
102
RTVSPropertyOp53
 70
     1
102
RTVSPropertyOp54
 70
     1
102
RTVSPropertyOp55
 70
     1
102
RTVSPropertyOp56
 70
     1
102
RTVSPropertyOp57
 70
     1
102
RTVSPropertyOp58
 70
     1
102
RTVSPropertyOp59
 70
     1
102
RTVSPropertyOp60
 70
     1
102
RTVSPropertyOp61
 70
     1
102
RTVSPropertyOp62
 70
     1
  0
XRECORD
  5
CDF
102
{ACAD_REACTORS
330
CDE
102
}
330
CDE
100
AcDbXrecord
280
     1
102
RTVSPost2010Prop28
280
     0
102
RTVSPost2010PropOp28
 70
     1
102
RTVSPost2010Prop29
280
     1
102
RTVSPost2010PropOp29
 70
     1
102
RTVSPost2010Prop30
280
     1
102
RTVSPost2010PropOp30
 70
     1
102
RTVSPost2010Prop31
280
     0
102
RTVSPost2010PropOp31
 70
     1
102
RTVSPost2010Prop32
280
     0
102
RTVSPost2010PropOp32
 70
     1
102
RTVSPost2010Prop33
280
     0
102
RTVSPost2010PropOp33
 70
     1
102
RTVSPost2010Prop34
280
     0
102
RTVSPost2010PropOp34
 70
     1
102
RTVSPost2010Prop35
280
     0
102
RTVSPost2010PropOp35
 70
     1
102
RTVSPost2010Prop36
280
     0
102
RTVSPost2010PropOp36
 70
     1
102
RTVSPost2010Prop37
 90
       50
102
RTVSPost2010PropOp37
 70
     1
102
RTVSPost2010Prop38
140
0.0
102
RTVSPost2010PropOp38
 70
     1
102
RTVSPost2010Prop39
140
1.0
102
RTVSPost2010PropOp39
 70
     1
102
RTVSPost2010Prop40
 90
        0
102
RTVSPost2010PropOp40
 70
     1
102
RTVSPost2010Prop41ColorIndex
 90
       18
102
RTVSPost2010Prop41ColorRGB
 90
-16777216
102
RTVSPost2010PropOp41
 70
     1
102
RTVSPost2010Prop42
 90
       50
102
RTVSPost2010PropOp42
 70
     1
102
RTVSPost2010Prop43
 90
        3
102
RTVSPost2010PropOp43
 70
     1
102
RTVSPost2010Prop44ColorIndex
 90
        5
102
RTVSPost2010Prop44ColorRGB
 90
      255
102
RTVSPost2010PropOp44
 70
     1
102
RTVSPost2010Prop45
280
     0
102
RTVSPost2010PropOp45
 70
     1
102
RTVSPost2010Prop46
 90
       50
102
RTVSPost2010PropOp46
 70
     1
102
RTVSPost2010Prop47
 90
       50
102
RTVSPost2010PropOp47
 70
     1
102
RTVSPost2010Prop48
 90
       50
102
RTVSPost2010PropOp48
 70
     1
102
RTVSPost2010Prop49
280
     0
102
RTVSPost2010PropOp49
 70
     1
102
RTVSPost2010Prop50
 90
       50
102
RTVSPost2010PropOp50
 70
     1
102
RTVSPost2010Prop51ColorIndex
 90
      256
102
RTVSPost2010Prop51ColorRGB
 90
-16777216
102
RTVSPost2010PropOp51
 70
     0
102
RTVSPost2010Prop52
140
1.0
102
RTVSPost2010PropOp52
 70
     0
102
RTVSPost2010Prop53
 90
        2
102
RTVSPost2010PropOp53
 70
     1
102
RTVSPost2010Prop54
  1
strokes_ogs.tif
102
RTVSPost2010PropOp54
 70
     1
102
RTVSPost2010Prop55
280
     0
102
RTVSPost2010PropOp55
 70
     1
102
RTVSPost2010Prop56
140
1.0
102
RTVSPost2010PropOp56
 70
     1
102
RTVSPost2010Prop57
140
1.0
102
RTVSPost2010PropOp57
 70
     1
102
RTVSPropertyOp0
 70
     1
102
RTVSPropertyOp1
 70
     1
102
RTVSPropertyOp2
 70
     1
102
RTVSPropertyOp3
 70
     1
102
RTVSPropertyOp4
 70
     1
102
RTVSPropertyOp5
 70
     1
102
RTVSPropertyOp6
 70
     1
102
RTVSPropertyOp7
 70
     1
102
RTVSPropertyOp8
 70
     1
102
RTVSPropertyOp9
 70
     1
102
RTVSPropertyOp10
 70
     1
102
RTVSPropertyOp11
 70
     1
102
RTVSPropertyOp12
 70
     1
102
RTVSPropertyOp13
 70
     1
102
RTVSPropertyOp14
 70
     1
102
RTVSPropertyOp15
 70
     1
102
RTVSPropertyOp16
 70
     1
102
RTVSPropertyOp17
 70
     1
102
RTVSPropertyOp18
 70
     1
102
RTVSPropertyOp19
 70
     1
102
RTVSPropertyOp20
 70
     1
102
RTVSPropertyOp21
 70
     1
102
RTVSPropertyOp22
 70
     1
102
RTVSPropertyOp23
 70
     1
102
RTVSPropertyOp24
 70
     1
102
RTVSPropertyOp25
 70
     1
102
RTVSPropertyOp26
 70
     1
102
RTVSPropertyOp27
 70
     1
102
RTVSPropertyOp28
 70
     1
102
RTVSPropertyOp29
 70
     1
102
RTVSPropertyOp30
 70
     1
102
RTVSPropertyOp31
 70
     1
102
RTVSPropertyOp32
 70
     1
102
RTVSPropertyOp33
 70
     1
102
RTVSPropertyOp34
 70
     1
102
RTVSPropertyOp35
 70
     1
102
RTVSPropertyOp36
 70
     1
102
RTVSPropertyOp37
 70
     1
102
RTVSPropertyOp38
 70
     1
102
RTVSPropertyOp39
 70
     1
102
RTVSPropertyOp40
 70
     1
102
RTVSPropertyOp41
 70
     1
102
RTVSPropertyOp42
 70
     1
102
RTVSPropertyOp43
 70
     1
102
RTVSPropertyOp44
 70
     1
102
RTVSPropertyOp45
 70
     1
102
RTVSPropertyOp46
 70
     1
102
RTVSPropertyOp47
 70
     1
102
RTVSPropertyOp48
 70
     1
102
RTVSPropertyOp49
 70
     1
102
RTVSPropertyOp50
 70
     1
102
RTVSPropertyOp51
 70
     0
102
RTVSPropertyOp52
 70
     0
102
RTVSPropertyOp53
 70
     1
102
RTVSPropertyOp54
 70
     1
102
RTVSPropertyOp55
 70
     1
102
RTVSPropertyOp56
 70
     1
102
RTVSPropertyOp57
 70
     1
102
RTVSPropertyOp58
 70
     1
102
RTVSPropertyOp59
 70
     1
102
RTVSPropertyOp60
 70
     1
102
RTVSPropertyOp61
 70
     1
102
RTVSPropertyOp62
 70
     1
  0
XRECORD
  5
CE1
102
{ACAD_REACTORS
330
CE0
102
}
330
CE0
100
AcDbXrecord
280
     1
102
RTVSPost2010Prop28
280
     0
102
RTVSPost2010PropOp28
 70
     1
102
RTVSPost2010Prop29
280
     1
102
RTVSPost2010PropOp29
 70
     1
102
RTVSPost2010Prop30
280
     1
102
RTVSPost2010PropOp30
 70
     1
102
RTVSPost2010Prop31
280
     0
102
RTVSPost2010PropOp31
 70
     1
102
RTVSPost2010Prop32
280
     0
102
RTVSPost2010PropOp32
 70
     1
102
RTVSPost2010Prop33
280
     0
102
RTVSPost2010PropOp33
 70
     1
102
RTVSPost2010Prop34
280
     0
102
RTVSPost2010PropOp34
 70
     1
102
RTVSPost2010Prop35
280
     0
102
RTVSPost2010PropOp35
 70
     1
102
RTVSPost2010Prop36
280
     0
102
RTVSPost2010PropOp36
 70
     1
102
RTVSPost2010Prop37
 90
       50
102
RTVSPost2010PropOp37
 70
     1
102
RTVSPost2010Prop38
140
0.0
102
RTVSPost2010PropOp38
 70
     1
102
RTVSPost2010Prop39
140
1.0
102
RTVSPost2010PropOp39
 70
     1
102
RTVSPost2010Prop40
 90
        0
102
RTVSPost2010PropOp40
 70
     1
102
RTVSPost2010Prop41ColorIndex
 90
       18
102
RTVSPost2010Prop41ColorRGB
 90
-16777216
102
RTVSPost2010PropOp41
 70
     1
102
RTVSPost2010Prop42
 90
       50
102
RTVSPost2010PropOp42
 70
     1
102
RTVSPost2010Prop43
 90
        3
102
RTVSPost2010PropOp43
 70
     1
102
RTVSPost2010Prop44ColorIndex
 90
        5
102
RTVSPost2010Prop44ColorRGB
 90
      255
102
RTVSPost2010PropOp44
 70
     1
102
RTVSPost2010Prop45
280
     0
102
RTVSPost2010PropOp45
 70
     1
102
RTVSPost2010Prop46
 90
       50
102
RTVSPost2010PropOp46
 70
     1
102
RTVSPost2010Prop47
 90
       50
102
RTVSPost2010PropOp47
 70
     1
102
RTVSPost2010Prop48
 90
       50
102
RTVSPost2010PropOp48
 70
     1
102
RTVSPost2010Prop49
280
     0
102
RTVSPost2010PropOp49
 70
     1
102
RTVSPost2010Prop50
 90
       50
102
RTVSPost2010PropOp50
 70
     1
102
RTVSPost2010Prop51ColorIndex
 90
      256
102
RTVSPost2010Prop51ColorRGB
 90
-16777216
102
RTVSPost2010PropOp51
 70
     0
102
RTVSPost2010Prop52
140
1.0
102
RTVSPost2010PropOp52
 70
     0
102
RTVSPost2010Prop53
 90
        2
102
RTVSPost2010PropOp53
 70
     1
102
RTVSPost2010Prop54
  1
strokes_ogs.tif
102
RTVSPost2010PropOp54
 70
     1
102
RTVSPost2010Prop55
280
     0
102
RTVSPost2010PropOp55
 70
     1
102
RTVSPost2010Prop56
140
1.0
102
RTVSPost2010PropOp56
 70
     1
102
RTVSPost2010Prop57
140
1.0
102
RTVSPost2010PropOp57
 70
     1
102
RTVSPropertyOp0
 70
     1
102
RTVSPropertyOp1
 70
     1
102
RTVSPropertyOp2
 70
     1
102
RTVSPropertyOp3
 70
     1
102
RTVSPropertyOp4
 70
     1
102
RTVSPropertyOp5
 70
     1
102
RTVSPropertyOp6
 70
     1
102
RTVSPropertyOp7
 70
     1
102
RTVSPropertyOp8
 70
     1
102
RTVSPropertyOp9
 70
     1
102
RTVSPropertyOp10
 70
     1
102
RTVSPropertyOp11
 70
     1
102
RTVSPropertyOp12
 70
     1
102
RTVSPropertyOp13
 70
     1
102
RTVSPropertyOp14
 70
     1
102
RTVSPropertyOp15
 70
     1
102
RTVSPropertyOp16
 70
     1
102
RTVSPropertyOp17
 70
     1
102
RTVSPropertyOp18
 70
     1
102
RTVSPropertyOp19
 70
     1
102
RTVSPropertyOp20
 70
     1
102
RTVSPropertyOp21
 70
     1
102
RTVSPropertyOp22
 70
     1
102
RTVSPropertyOp23
 70
     1
102
RTVSPropertyOp24
 70
     1
102
RTVSPropertyOp25
 70
     1
102
RTVSPropertyOp26
 70
     1
102
RTVSPropertyOp27
 70
     1
102
RTVSPropertyOp28
 70
     1
102
RTVSPropertyOp29
 70
     1
102
RTVSPropertyOp30
 70
     1
102
RTVSPropertyOp31
 70
     1
102
RTVSPropertyOp32
 70
     1
102
RTVSPropertyOp33
 70
     1
102
RTVSPropertyOp34
 70
     1
102
RTVSPropertyOp35
 70
     1
102
RTVSPropertyOp36
 70
     1
102
RTVSPropertyOp37
 70
     1
102
RTVSPropertyOp38
 70
     1
102
RTVSPropertyOp39
 70
     1
102
RTVSPropertyOp40
 70
     1
102
RTVSPropertyOp41
 70
     1
102
RTVSPropertyOp42
 70
     1
102
RTVSPropertyOp43
 70
     1
102
RTVSPropertyOp44
 70
     1
102
RTVSPropertyOp45
 70
     1
102
RTVSPropertyOp46
 70
     1
102
RTVSPropertyOp47
 70
     1
102
RTVSPropertyOp48
 70
     1
102
RTVSPropertyOp49
 70
     1
102
RTVSPropertyOp50
 70
     1
102
RTVSPropertyOp51
 70
     0
102
RTVSPropertyOp52
 70
     0
102
RTVSPropertyOp53
 70
     1
102
RTVSPropertyOp54
 70
     1
102
RTVSPropertyOp55
 70
     1
102
RTVSPropertyOp56
 70
     1
102
RTVSPropertyOp57
 70
     1
102
RTVSPropertyOp58
 70
     1
102
RTVSPropertyOp59
 70
     1
102
RTVSPropertyOp60
 70
     1
102
RTVSPropertyOp61
 70
     1
102
RTVSPropertyOp62
 70
     1
  0
XRECORD
  5
CE9
102
{ACAD_REACTORS
330
CE8
102
}
330
CE8
100
AcDbXrecord
280
     1
102
RTVSPost2010Prop28
280
     0
102
RTVSPost2010PropOp28
 70
     1
102
RTVSPost2010Prop29
280
     1
102
RTVSPost2010PropOp29
 70
     1
102
RTVSPost2010Prop30
280
     1
102
RTVSPost2010PropOp30
 70
     1
102
RTVSPost2010Prop31
280
     0
102
RTVSPost2010PropOp31
 70
     1
102
RTVSPost2010Prop32
280
     0
102
RTVSPost2010PropOp32
 70
     1
102
RTVSPost2010Prop33
280
     0
102
RTVSPost2010PropOp33
 70
     1
102
RTVSPost2010Prop34
280
     0
102
RTVSPost2010PropOp34
 70
     1
102
RTVSPost2010Prop35
280
     0
102
RTVSPost2010PropOp35
 70
     1
102
RTVSPost2010Prop36
280
     0
102
RTVSPost2010PropOp36
 70
     1
102
RTVSPost2010Prop37
 90
       50
102
RTVSPost2010PropOp37
 70
     1
102
RTVSPost2010Prop38
140
0.0
102
RTVSPost2010PropOp38
 70
     1
102
RTVSPost2010Prop39
140
1.0
102
RTVSPost2010PropOp39
 70
     1
102
RTVSPost2010Prop40
 90
        0
102
RTVSPost2010PropOp40
 70
     1
102
RTVSPost2010Prop41ColorIndex
 90
       18
102
RTVSPost2010Prop41ColorRGB
 90
-16777216
102
RTVSPost2010PropOp41
 70
     1
102
RTVSPost2010Prop42
 90
       50
102
RTVSPost2010PropOp42
 70
     1
102
RTVSPost2010Prop43
 90
        3
102
RTVSPost2010PropOp43
 70
     1
102
RTVSPost2010Prop44ColorIndex
 90
        5
102
RTVSPost2010Prop44ColorRGB
 90
      255
102
RTVSPost2010PropOp44
 70
     1
102
RTVSPost2010Prop45
280
     0
102
RTVSPost2010PropOp45
 70
     1
102
RTVSPost2010Prop46
 90
       50
102
RTVSPost2010PropOp46
 70
     1
102
RTVSPost2010Prop47
 90
       50
102
RTVSPost2010PropOp47
 70
     1
102
RTVSPost2010Prop48
 90
       50
102
RTVSPost2010PropOp48
 70
     1
102
RTVSPost2010Prop49
280
     0
102
RTVSPost2010PropOp49
 70
     1
102
RTVSPost2010Prop50
 90
       50
102
RTVSPost2010PropOp50
 70
     1
102
RTVSPost2010Prop51ColorIndex
 90
      256
102
RTVSPost2010Prop51ColorRGB
 90
-16777216
102
RTVSPost2010PropOp51
 70
     0
102
RTVSPost2010Prop52
140
1.0
102
RTVSPost2010PropOp52
 70
     0
102
RTVSPost2010Prop53
 90
        2
102
RTVSPost2010PropOp53
 70
     1
102
RTVSPost2010Prop54
  1
strokes_ogs.tif
102
RTVSPost2010PropOp54
 70
     1
102
RTVSPost2010Prop55
280
     0
102
RTVSPost2010PropOp55
 70
     1
102
RTVSPost2010Prop56
140
1.0
102
RTVSPost2010PropOp56
 70
     1
102
RTVSPost2010Prop57
140
1.0
102
RTVSPost2010PropOp57
 70
     1
102
RTVSPropertyOp0
 70
     1
102
RTVSPropertyOp1
 70
     1
102
RTVSPropertyOp2
 70
     1
102
RTVSPropertyOp3
 70
     1
102
RTVSPropertyOp4
 70
     1
102
RTVSPropertyOp5
 70
     1
102
RTVSPropertyOp6
 70
     1
102
RTVSPropertyOp7
 70
     1
102
RTVSPropertyOp8
 70
     1
102
RTVSPropertyOp9
 70
     1
102
RTVSPropertyOp10
 70
     1
102
RTVSPropertyOp11
 70
     1
102
RTVSPropertyOp12
 70
     1
102
RTVSPropertyOp13
 70
     1
102
RTVSPropertyOp14
 70
     1
102
RTVSPropertyOp15
 70
     1
102
RTVSPropertyOp16
 70
     1
102
RTVSPropertyOp17
 70
     1
102
RTVSPropertyOp18
 70
     1
102
RTVSPropertyOp19
 70
     1
102
RTVSPropertyOp20
 70
     1
102
RTVSPropertyOp21
 70
     1
102
RTVSPropertyOp22
 70
     1
102
RTVSPropertyOp23
 70
     1
102
RTVSPropertyOp24
 70
     1
102
RTVSPropertyOp25
 70
     1
102
RTVSPropertyOp26
 70
     1
102
RTVSPropertyOp27
 70
     1
102
RTVSPropertyOp28
 70
     1
102
RTVSPropertyOp29
 70
     1
102
RTVSPropertyOp30
 70
     1
102
RTVSPropertyOp31
 70
     1
102
RTVSPropertyOp32
 70
     1
102
RTVSPropertyOp33
 70
     1
102
RTVSPropertyOp34
 70
     1
102
RTVSPropertyOp35
 70
     1
102
RTVSPropertyOp36
 70
     1
102
RTVSPropertyOp37
 70
     1
102
RTVSPropertyOp38
 70
     1
102
RTVSPropertyOp39
 70
     1
102
RTVSPropertyOp40
 70
     1
102
RTVSPropertyOp41
 70
     1
102
RTVSPropertyOp42
 70
     1
102
RTVSPropertyOp43
 70
     1
102
RTVSPropertyOp44
 70
     1
102
RTVSPropertyOp45
 70
     1
102
RTVSPropertyOp46
 70
     1
102
RTVSPropertyOp47
 70
     1
102
RTVSPropertyOp48
 70
     1
102
RTVSPropertyOp49
 70
     1
102
RTVSPropertyOp50
 70
     1
102
RTVSPropertyOp51
 70
     0
102
RTVSPropertyOp52
 70
     0
102
RTVSPropertyOp53
 70
     1
102
RTVSPropertyOp54
 70
     1
102
RTVSPropertyOp55
 70
     1
102
RTVSPropertyOp56
 70
     1
102
RTVSPropertyOp57
 70
     1
102
RTVSPropertyOp58
 70
     1
102
RTVSPropertyOp59
 70
     1
102
RTVSPropertyOp60
 70
     1
102
RTVSPropertyOp61
 70
     1
102
RTVSPropertyOp62
 70
     1
  0
XRECORD
  5
D05
102
{ACAD_REACTORS
330
D04
102
}
330
D04
100
AcDbXrecord
280
     1
102
RTVSPost2010Prop28
280
     0
102
RTVSPost2010PropOp28
 70
     0
102
RTVSPost2010Prop29
280
     1
102
RTVSPost2010PropOp29
 70
     0
102
RTVSPost2010Prop30
280
     1
102
RTVSPost2010PropOp30
 70
     0
102
RTVSPost2010Prop31
280
     0
102
RTVSPost2010PropOp31
 70
     0
102
RTVSPost2010Prop32
280
     0
102
RTVSPost2010PropOp32
 70
     0
102
RTVSPost2010Prop33
280
     0
102
RTVSPost2010PropOp33
 70
     0
102
RTVSPost2010Prop34
280
     0
102
RTVSPost2010PropOp34
 70
     0
102
RTVSPost2010Prop35
280
     0
102
RTVSPost2010PropOp35
 70
     0
102
RTVSPost2010Prop36
280
     0
102
RTVSPost2010PropOp36
 70
     0
102
RTVSPost2010Prop37
 90
       50
102
RTVSPost2010PropOp37
 70
     0
102
RTVSPost2010Prop38
140
0.0
102
RTVSPost2010PropOp38
 70
     0
102
RTVSPost2010Prop39
140
1.0
102
RTVSPost2010PropOp39
 70
     0
102
RTVSPost2010Prop40
 90
        0
102
RTVSPost2010PropOp40
 70
     0
102
RTVSPost2010Prop41ColorIndex
 90
       18
102
RTVSPost2010Prop41ColorRGB
 90
-16777216
102
RTVSPost2010PropOp41
 70
     0
102
RTVSPost2010Prop42
 90
       50
102
RTVSPost2010PropOp42
 70
     0
102
RTVSPost2010Prop43
 90
        3
102
RTVSPost2010PropOp43
 70
     0
102
RTVSPost2010Prop44ColorIndex
 90
        5
102
RTVSPost2010Prop44ColorRGB
 90
      255
102
RTVSPost2010PropOp44
 70
     0
102
RTVSPost2010Prop45
280
     0
102
RTVSPost2010PropOp45
 70
     0
102
RTVSPost2010Prop46
 90
       50
102
RTVSPost2010PropOp46
 70
     0
102
RTVSPost2010Prop47
 90
       50
102
RTVSPost2010PropOp47
 70
     0
102
RTVSPost2010Prop48
 90
       50
102
RTVSPost2010PropOp48
 70
     0
102
RTVSPost2010Prop49
280
     0
102
RTVSPost2010PropOp49
 70
     0
102
RTVSPost2010Prop50
 90
       50
102
RTVSPost2010PropOp50
 70
     0
102
RTVSPost2010Prop51ColorIndex
 90
      256
102
RTVSPost2010Prop51ColorRGB
 90
-16777216
102
RTVSPost2010PropOp51
 70
     0
102
RTVSPost2010Prop52
140
1.0
102
RTVSPost2010PropOp52
 70
     0
102
RTVSPost2010Prop53
 90
        2
102
RTVSPost2010PropOp53
 70
     0
102
RTVSPost2010Prop54
  1
strokes_ogs.tif
102
RTVSPost2010PropOp54
 70
     0
102
RTVSPost2010Prop55
280
     0
102
RTVSPost2010PropOp55
 70
     0
102
RTVSPost2010Prop56
140
1.0
102
RTVSPost2010PropOp56
 70
     0
102
RTVSPost2010Prop57
140
1.0
102
RTVSPost2010PropOp57
 70
     0
102
RTVSPropertyOp0
 70
     0
102
RTVSPropertyOp1
 70
     0
102
RTVSPropertyOp2
 70
     0
102
RTVSPropertyOp3
 70
     0
102
RTVSPropertyOp4
 70
     0
102
RTVSPropertyOp5
 70
     0
102
RTVSPropertyOp6
 70
     0
102
RTVSPropertyOp7
 70
     0
102
RTVSPropertyOp8
 70
     0
102
RTVSPropertyOp9
 70
     0
102
RTVSPropertyOp10
 70
     0
102
RTVSPropertyOp11
 70
     0
102
RTVSPropertyOp12
 70
     0
102
RTVSPropertyOp13
 70
     0
102
RTVSPropertyOp14
 70
     2
102
RTVSPropertyOp15
 70
     0
102
RTVSPropertyOp16
 70
     0
102
RTVSPropertyOp17
 70
     0
102
RTVSPropertyOp18
 70
     0
102
RTVSPropertyOp19
 70
     0
102
RTVSPropertyOp20
 70
     0
102
RTVSPropertyOp21
 70
     0
102
RTVSPropertyOp22
 70
     0
102
RTVSPropertyOp23
 70
     0
102
RTVSPropertyOp24
 70
     0
102
RTVSPropertyOp25
 70
     0
102
RTVSPropertyOp26
 70
     0
102
RTVSPropertyOp27
 70
     0
102
RTVSPropertyOp28
 70
     0
102
RTVSPropertyOp29
 70
     0
102
RTVSPropertyOp30
 70
     0
102
RTVSPropertyOp31
 70
     0
102
RTVSPropertyOp32
 70
     0
102
RTVSPropertyOp33
 70
     0
102
RTVSPropertyOp34
 70
     0
102
RTVSPropertyOp35
 70
     0
102
RTVSPropertyOp36
 70
     0
102
RTVSPropertyOp37
 70
     0
102
RTVSPropertyOp38
 70
     0
102
RTVSPropertyOp39
 70
     0
102
RTVSPropertyOp40
 70
     0
102
RTVSPropertyOp41
 70
     0
102
RTVSPropertyOp42
 70
     0
102
RTVSPropertyOp43
 70
     0
102
RTVSPropertyOp44
 70
     0
102
RTVSPropertyOp45
 70
     0
102
RTVSPropertyOp46
 70
     0
102
RTVSPropertyOp47
 70
     0
102
RTVSPropertyOp48
 70
     0
102
RTVSPropertyOp49
 70
     0
102
RTVSPropertyOp50
 70
     0
102
RTVSPropertyOp51
 70
     0
102
RTVSPropertyOp52
 70
     0
102
RTVSPropertyOp53
 70
     0
102
RTVSPropertyOp54
 70
     0
102
RTVSPropertyOp55
 70
     0
102
RTVSPropertyOp56
 70
     0
102
RTVSPropertyOp57
 70
     0
102
RTVSPropertyOp58
 70
     1
102
RTVSPropertyOp59
 70
     1
102
RTVSPropertyOp60
 70
     1
102
RTVSPropertyOp61
 70
     1
102
RTVSPropertyOp62
 70
     1
  0
XRECORD
  5
CF5
102
{ACAD_REACTORS
330
CF4
102
}
330
CF4
100
AcDbXrecord
280
     1
102
RTVSPost2010Prop28
280
     0
102
RTVSPost2010PropOp28
 70
     1
102
RTVSPost2010Prop29
280
     1
102
RTVSPost2010PropOp29
 70
     1
102
RTVSPost2010Prop30
280
     1
102
RTVSPost2010PropOp30
 70
     1
102
RTVSPost2010Prop31
280
     0
102
RTVSPost2010PropOp31
 70
     1
102
RTVSPost2010Prop32
280
     0
102
RTVSPost2010PropOp32
 70
     1
102
RTVSPost2010Prop33
280
     0
102
RTVSPost2010PropOp33
 70
     1
102
RTVSPost2010Prop34
280
     0
102
RTVSPost2010PropOp34
 70
     1
102
RTVSPost2010Prop35
280
     0
102
RTVSPost2010PropOp35
 70
     1
102
RTVSPost2010Prop36
280
     0
102
RTVSPost2010PropOp36
 70
     1
102
RTVSPost2010Prop37
 90
       50
102
RTVSPost2010PropOp37
 70
     1
102
RTVSPost2010Prop38
140
0.0
102
RTVSPost2010PropOp38
 70
     1
102
RTVSPost2010Prop39
140
1.0
102
RTVSPost2010PropOp39
 70
     1
102
RTVSPost2010Prop40
 90
        0
102
RTVSPost2010PropOp40
 70
     1
102
RTVSPost2010Prop41ColorIndex
 90
       18
102
RTVSPost2010Prop41ColorRGB
 90
-16777216
102
RTVSPost2010PropOp41
 70
     1
102
RTVSPost2010Prop42
 90
       50
102
RTVSPost2010PropOp42
 70
     1
102
RTVSPost2010Prop43
 90
        3
102
RTVSPost2010PropOp43
 70
     1
102
RTVSPost2010Prop44ColorIndex
 90
        5
102
RTVSPost2010Prop44ColorRGB
 90
      255
102
RTVSPost2010PropOp44
 70
     1
102
RTVSPost2010Prop45
280
     0
102
RTVSPost2010PropOp45
 70
     1
102
RTVSPost2010Prop46
 90
       50
102
RTVSPost2010PropOp46
 70
     1
102
RTVSPost2010Prop47
 90
       50
102
RTVSPost2010PropOp47
 70
     1
102
RTVSPost2010Prop48
 90
       50
102
RTVSPost2010PropOp48
 70
     1
102
RTVSPost2010Prop49
280
     0
102
RTVSPost2010PropOp49
 70
     1
102
RTVSPost2010Prop50
 90
       50
102
RTVSPost2010PropOp50
 70
     1
102
RTVSPost2010Prop51ColorIndex
 90
      256
102
RTVSPost2010Prop51ColorRGB
 90
-16777216
102
RTVSPost2010PropOp51
 70
     0
102
RTVSPost2010Prop52
140
1.0
102
RTVSPost2010PropOp52
 70
     0
102
RTVSPost2010Prop53
 90
        2
102
RTVSPost2010PropOp53
 70
     1
102
RTVSPost2010Prop54
  1
strokes_ogs.tif
102
RTVSPost2010PropOp54
 70
     1
102
RTVSPost2010Prop55
280
     0
102
RTVSPost2010PropOp55
 70
     1
102
RTVSPost2010Prop56
140
1.0
102
RTVSPost2010PropOp56
 70
     1
102
RTVSPost2010Prop57
140
1.0
102
RTVSPost2010PropOp57
 70
     1
102
RTVSPropertyOp0
 70
     1
102
RTVSPropertyOp1
 70
     1
102
RTVSPropertyOp2
 70
     1
102
RTVSPropertyOp3
 70
     1
102
RTVSPropertyOp4
 70
     1
102
RTVSPropertyOp5
 70
     1
102
RTVSPropertyOp6
 70
     1
102
RTVSPropertyOp7
 70
     1
102
RTVSPropertyOp8
 70
     1
102
RTVSPropertyOp9
 70
     1
102
RTVSPropertyOp10
 70
     1
102
RTVSPropertyOp11
 70
     1
102
RTVSPropertyOp12
 70
     1
102
RTVSPropertyOp13
 70
     1
102
RTVSPropertyOp14
 70
     1
102
RTVSPropertyOp15
 70
     1
102
RTVSPropertyOp16
 70
     1
102
RTVSPropertyOp17
 70
     1
102
RTVSPropertyOp18
 70
     1
102
RTVSPropertyOp19
 70
     1
102
RTVSPropertyOp20
 70
     1
102
RTVSPropertyOp21
 70
     1
102
RTVSPropertyOp22
 70
     1
102
RTVSPropertyOp23
 70
     1
102
RTVSPropertyOp24
 70
     1
102
RTVSPropertyOp25
 70
     1
102
RTVSPropertyOp26
 70
     1
102
RTVSPropertyOp27
 70
     1
102
RTVSPropertyOp28
 70
     1
102
RTVSPropertyOp29
 70
     1
102
RTVSPropertyOp30
 70
     1
102
RTVSPropertyOp31
 70
     1
102
RTVSPropertyOp32
 70
     1
102
RTVSPropertyOp33
 70
     1
102
RTVSPropertyOp34
 70
     1
102
RTVSPropertyOp35
 70
     1
102
RTVSPropertyOp36
 70
     1
102
RTVSPropertyOp37
 70
     1
102
RTVSPropertyOp38
 70
     1
102
RTVSPropertyOp39
 70
     1
102
RTVSPropertyOp40
 70
     1
102
RTVSPropertyOp41
 70
     1
102
RTVSPropertyOp42
 70
     1
102
RTVSPropertyOp43
 70
     1
102
RTVSPropertyOp44
 70
     1
102
RTVSPropertyOp45
 70
     1
102
RTVSPropertyOp46
 70
     1
102
RTVSPropertyOp47
 70
     1
102
RTVSPropertyOp48
 70
     1
102
RTVSPropertyOp49
 70
     1
102
RTVSPropertyOp50
 70
     1
102
RTVSPropertyOp51
 70
     0
102
RTVSPropertyOp52
 70
     0
102
RTVSPropertyOp53
 70
     1
102
RTVSPropertyOp54
 70
     1
102
RTVSPropertyOp55
 70
     1
102
RTVSPropertyOp56
 70
     1
102
RTVSPropertyOp57
 70
     1
102
RTVSPropertyOp58
 70
     1
102
RTVSPropertyOp59
 70
     1
102
RTVSPropertyOp60
 70
     1
102
RTVSPropertyOp61
 70
     1
102
RTVSPropertyOp62
 70
     1
  0
XRECORD
  5
D07
102
{ACAD_REACTORS
330
D06
102
}
330
D06
100
AcDbXrecord
280
     1
102
RTVSPost2010Prop28
280
     0
102
RTVSPost2010PropOp28
 70
     0
102
RTVSPost2010Prop29
280
     1
102
RTVSPost2010PropOp29
 70
     0
102
RTVSPost2010Prop30
280
     1
102
RTVSPost2010PropOp30
 70
     0
102
RTVSPost2010Prop31
280
     0
102
RTVSPost2010PropOp31
 70
     0
102
RTVSPost2010Prop32
280
     0
102
RTVSPost2010PropOp32
 70
     0
102
RTVSPost2010Prop33
280
     0
102
RTVSPost2010PropOp33
 70
     0
102
RTVSPost2010Prop34
280
     0
102
RTVSPost2010PropOp34
 70
     0
102
RTVSPost2010Prop35
280
     0
102
RTVSPost2010PropOp35
 70
     0
102
RTVSPost2010Prop36
280
     0
102
RTVSPost2010PropOp36
 70
     0
102
RTVSPost2010Prop37
 90
       50
102
RTVSPost2010PropOp37
 70
     0
102
RTVSPost2010Prop38
140
0.0
102
RTVSPost2010PropOp38
 70
     0
102
RTVSPost2010Prop39
140
1.0
102
RTVSPost2010PropOp39
 70
     0
102
RTVSPost2010Prop40
 90
        0
102
RTVSPost2010PropOp40
 70
     0
102
RTVSPost2010Prop41ColorIndex
 90
       18
102
RTVSPost2010Prop41ColorRGB
 90
-16777216
102
RTVSPost2010PropOp41
 70
     0
102
RTVSPost2010Prop42
 90
       50
102
RTVSPost2010PropOp42
 70
     0
102
RTVSPost2010Prop43
 90
        3
102
RTVSPost2010PropOp43
 70
     0
102
RTVSPost2010Prop44ColorIndex
 90
        5
102
RTVSPost2010Prop44ColorRGB
 90
      255
102
RTVSPost2010PropOp44
 70
     0
102
RTVSPost2010Prop45
280
     0
102
RTVSPost2010PropOp45
 70
     0
102
RTVSPost2010Prop46
 90
       50
102
RTVSPost2010PropOp46
 70
     0
102
RTVSPost2010Prop47
 90
       50
102
RTVSPost2010PropOp47
 70
     0
102
RTVSPost2010Prop48
 90
       50
102
RTVSPost2010PropOp48
 70
     0
102
RTVSPost2010Prop49
280
     0
102
RTVSPost2010PropOp49
 70
     0
102
RTVSPost2010Prop50
 90
       50
102
RTVSPost2010PropOp50
 70
     0
102
RTVSPost2010Prop51ColorIndex
 90
      256
102
RTVSPost2010Prop51ColorRGB
 90
-16777216
102
RTVSPost2010PropOp51
 70
     0
102
RTVSPost2010Prop52
140
1.0
102
RTVSPost2010PropOp52
 70
     0
102
RTVSPost2010Prop53
 90
        2
102
RTVSPost2010PropOp53
 70
     0
102
RTVSPost2010Prop54
  1
strokes_ogs.tif
102
RTVSPost2010PropOp54
 70
     0
102
RTVSPost2010Prop55
280
     0
102
RTVSPost2010PropOp55
 70
     0
102
RTVSPost2010Prop56
140
1.0
102
RTVSPost2010PropOp56
 70
     0
102
RTVSPost2010Prop57
140
1.0
102
RTVSPost2010PropOp57
 70
     0
102
RTVSPropertyOp0
 70
     0
102
RTVSPropertyOp1
 70
     0
102
RTVSPropertyOp2
 70
     0
102
RTVSPropertyOp3
 70
     0
102
RTVSPropertyOp4
 70
     0
102
RTVSPropertyOp5
 70
     0
102
RTVSPropertyOp6
 70
     0
102
RTVSPropertyOp7
 70
     0
102
RTVSPropertyOp8
 70
     0
102
RTVSPropertyOp9
 70
     0
102
RTVSPropertyOp10
 70
     0
102
RTVSPropertyOp11
 70
     0
102
RTVSPropertyOp12
 70
     0
102
RTVSPropertyOp13
 70
     0
102
RTVSPropertyOp14
 70
     2
102
RTVSPropertyOp15
 70
     0
102
RTVSPropertyOp16
 70
     0
102
RTVSPropertyOp17
 70
     0
102
RTVSPropertyOp18
 70
     0
102
RTVSPropertyOp19
 70
     0
102
RTVSPropertyOp20
 70
     0
102
RTVSPropertyOp21
 70
     0
102
RTVSPropertyOp22
 70
     0
102
RTVSPropertyOp23
 70
     0
102
RTVSPropertyOp24
 70
     0
102
RTVSPropertyOp25
 70
     0
102
RTVSPropertyOp26
 70
     0
102
RTVSPropertyOp27
 70
     0
102
RTVSPropertyOp28
 70
     0
102
RTVSPropertyOp29
 70
     0
102
RTVSPropertyOp30
 70
     0
102
RTVSPropertyOp31
 70
     0
102
RTVSPropertyOp32
 70
     0
102
RTVSPropertyOp33
 70
     0
102
RTVSPropertyOp34
 70
     0
102
RTVSPropertyOp35
 70
     0
102
RTVSPropertyOp36
 70
     0
102
RTVSPropertyOp37
 70
     0
102
RTVSPropertyOp38
 70
     0
102
RTVSPropertyOp39
 70
     0
102
RTVSPropertyOp40
 70
     0
102
RTVSPropertyOp41
 70
     0
102
RTVSPropertyOp42
 70
     0
102
RTVSPropertyOp43
 70
     0
102
RTVSPropertyOp44
 70
     0
102
RTVSPropertyOp45
 70
     0
102
RTVSPropertyOp46
 70
     0
102
RTVSPropertyOp47
 70
     0
102
RTVSPropertyOp48
 70
     0
102
RTVSPropertyOp49
 70
     0
102
RTVSPropertyOp50
 70
     0
102
RTVSPropertyOp51
 70
     0
102
RTVSPropertyOp52
 70
     0
102
RTVSPropertyOp53
 70
     0
102
RTVSPropertyOp54
 70
     0
102
RTVSPropertyOp55
 70
     0
102
RTVSPropertyOp56
 70
     0
102
RTVSPropertyOp57
 70
     0
102
RTVSPropertyOp58
 70
     1
102
RTVSPropertyOp59
 70
     1
102
RTVSPropertyOp60
 70
     1
102
RTVSPropertyOp61
 70
     1
102
RTVSPropertyOp62
 70
     1
  0
XRECORD
  5
CED
102
{ACAD_REACTORS
330
CEC
102
}
330
CEC
100
AcDbXrecord
280
     1
102
RTVSPost2010Prop28
280
     0
102
RTVSPost2010PropOp28
 70
     1
102
RTVSPost2010Prop29
280
     1
102
RTVSPost2010PropOp29
 70
     1
102
RTVSPost2010Prop30
280
     1
102
RTVSPost2010PropOp30
 70
     1
102
RTVSPost2010Prop31
280
     0
102
RTVSPost2010PropOp31
 70
     1
102
RTVSPost2010Prop32
280
     0
102
RTVSPost2010PropOp32
 70
     1
102
RTVSPost2010Prop33
280
     0
102
RTVSPost2010PropOp33
 70
     1
102
RTVSPost2010Prop34
280
     0
102
RTVSPost2010PropOp34
 70
     1
102
RTVSPost2010Prop35
280
     0
102
RTVSPost2010PropOp35
 70
     1
102
RTVSPost2010Prop36
280
     0
102
RTVSPost2010PropOp36
 70
     1
102
RTVSPost2010Prop37
 90
       50
102
RTVSPost2010PropOp37
 70
     1
102
RTVSPost2010Prop38
140
0.0
102
RTVSPost2010PropOp38
 70
     1
102
RTVSPost2010Prop39
140
1.0
102
RTVSPost2010PropOp39
 70
     1
102
RTVSPost2010Prop40
 90
        0
102
RTVSPost2010PropOp40
 70
     1
102
RTVSPost2010Prop41ColorIndex
 90
       18
102
RTVSPost2010Prop41ColorRGB
 90
-16777216
102
RTVSPost2010PropOp41
 70
     1
102
RTVSPost2010Prop42
 90
       50
102
RTVSPost2010PropOp42
 70
     1
102
RTVSPost2010Prop43
 90
        3
102
RTVSPost2010PropOp43
 70
     1
102
RTVSPost2010Prop44ColorIndex
 90
        5
102
RTVSPost2010Prop44ColorRGB
 90
      255
102
RTVSPost2010PropOp44
 70
     1
102
RTVSPost2010Prop45
280
     0
102
RTVSPost2010PropOp45
 70
     1
102
RTVSPost2010Prop46
 90
       50
102
RTVSPost2010PropOp46
 70
     1
102
RTVSPost2010Prop47
 90
       50
102
RTVSPost2010PropOp47
 70
     1
102
RTVSPost2010Prop48
 90
       50
102
RTVSPost2010PropOp48
 70
     1
102
RTVSPost2010Prop49
280
     0
102
RTVSPost2010PropOp49
 70
     1
102
RTVSPost2010Prop50
 90
       50
102
RTVSPost2010PropOp50
 70
     1
102
RTVSPost2010Prop51ColorIndex
 90
      256
102
RTVSPost2010Prop51ColorRGB
 90
-16777216
102
RTVSPost2010PropOp51
 70
     0
102
RTVSPost2010Prop52
140
1.0
102
RTVSPost2010PropOp52
 70
     0
102
RTVSPost2010Prop53
 90
        2
102
RTVSPost2010PropOp53
 70
     1
102
RTVSPost2010Prop54
  1
strokes_ogs.tif
102
RTVSPost2010PropOp54
 70
     1
102
RTVSPost2010Prop55
280
     0
102
RTVSPost2010PropOp55
 70
     1
102
RTVSPost2010Prop56
140
1.0
102
RTVSPost2010PropOp56
 70
     1
102
RTVSPost2010Prop57
140
1.0
102
RTVSPost2010PropOp57
 70
     1
102
RTVSPropertyOp0
 70
     1
102
RTVSPropertyOp1
 70
     1
102
RTVSPropertyOp2
 70
     1
102
RTVSPropertyOp3
 70
     1
102
RTVSPropertyOp4
 70
     1
102
RTVSPropertyOp5
 70
     1
102
RTVSPropertyOp6
 70
     1
102
RTVSPropertyOp7
 70
     1
102
RTVSPropertyOp8
 70
     1
102
RTVSPropertyOp9
 70
     1
102
RTVSPropertyOp10
 70
     1
102
RTVSPropertyOp11
 70
     1
102
RTVSPropertyOp12
 70
     1
102
RTVSPropertyOp13
 70
     1
102
RTVSPropertyOp14
 70
     1
102
RTVSPropertyOp15
 70
     1
102
RTVSPropertyOp16
 70
     1
102
RTVSPropertyOp17
 70
     1
102
RTVSPropertyOp18
 70
     1
102
RTVSPropertyOp19
 70
     1
102
RTVSPropertyOp20
 70
     1
102
RTVSPropertyOp21
 70
     1
102
RTVSPropertyOp22
 70
     1
102
RTVSPropertyOp23
 70
     1
102
RTVSPropertyOp24
 70
     1
102
RTVSPropertyOp25
 70
     1
102
RTVSPropertyOp26
 70
     1
102
RTVSPropertyOp27
 70
     1
102
RTVSPropertyOp28
 70
     1
102
RTVSPropertyOp29
 70
     1
102
RTVSPropertyOp30
 70
     1
102
RTVSPropertyOp31
 70
     1
102
RTVSPropertyOp32
 70
     1
102
RTVSPropertyOp33
 70
     1
102
RTVSPropertyOp34
 70
     1
102
RTVSPropertyOp35
 70
     1
102
RTVSPropertyOp36
 70
     1
102
RTVSPropertyOp37
 70
     1
102
RTVSPropertyOp38
 70
     1
102
RTVSPropertyOp39
 70
     1
102
RTVSPropertyOp40
 70
     1
102
RTVSPropertyOp41
 70
     1
102
RTVSPropertyOp42
 70
     1
102
RTVSPropertyOp43
 70
     1
102
RTVSPropertyOp44
 70
     1
102
RTVSPropertyOp45
 70
     1
102
RTVSPropertyOp46
 70
     1
102
RTVSPropertyOp47
 70
     1
102
RTVSPropertyOp48
 70
     1
102
RTVSPropertyOp49
 70
     1
102
RTVSPropertyOp50
 70
     1
102
RTVSPropertyOp51
 70
     0
102
RTVSPropertyOp52
 70
     0
102
RTVSPropertyOp53
 70
     1
102
RTVSPropertyOp54
 70
     1
102
RTVSPropertyOp55
 70
     1
102
RTVSPropertyOp56
 70
     1
102
RTVSPropertyOp57
 70
     1
102
RTVSPropertyOp58
 70
     1
102
RTVSPropertyOp59
 70
     1
102
RTVSPropertyOp60
 70
     1
102
RTVSPropertyOp61
 70
     1
102
RTVSPropertyOp62
 70
     1
  0
XRECORD
  5
D03
102
{ACAD_REACTORS
330
D02
102
}
330
D02
100
AcDbXrecord
280
     1
102
RTVSPost2010Prop28
280
     0
102
RTVSPost2010PropOp28
 70
     1
102
RTVSPost2010Prop29
280
     1
102
RTVSPost2010PropOp29
 70
     1
102
RTVSPost2010Prop30
280
     1
102
RTVSPost2010PropOp30
 70
     1
102
RTVSPost2010Prop31
280
     0
102
RTVSPost2010PropOp31
 70
     1
102
RTVSPost2010Prop32
280
     0
102
RTVSPost2010PropOp32
 70
     1
102
RTVSPost2010Prop33
280
     0
102
RTVSPost2010PropOp33
 70
     1
102
RTVSPost2010Prop34
280
     0
102
RTVSPost2010PropOp34
 70
     1
102
RTVSPost2010Prop35
280
     0
102
RTVSPost2010PropOp35
 70
     1
102
RTVSPost2010Prop36
280
     0
102
RTVSPost2010PropOp36
 70
     1
102
RTVSPost2010Prop37
 90
       50
102
RTVSPost2010PropOp37
 70
     1
102
RTVSPost2010Prop38
140
0.0
102
RTVSPost2010PropOp38
 70
     1
102
RTVSPost2010Prop39
140
1.0
102
RTVSPost2010PropOp39
 70
     1
102
RTVSPost2010Prop40
 90
        0
102
RTVSPost2010PropOp40
 70
     1
102
RTVSPost2010Prop41ColorIndex
 90
       18
102
RTVSPost2010Prop41ColorRGB
 90
-16777216
102
RTVSPost2010PropOp41
 70
     1
102
RTVSPost2010Prop42
 90
       50
102
RTVSPost2010PropOp42
 70
     1
102
RTVSPost2010Prop43
 90
        3
102
RTVSPost2010PropOp43
 70
     1
102
RTVSPost2010Prop44ColorIndex
 90
        5
102
RTVSPost2010Prop44ColorRGB
 90
      255
102
RTVSPost2010PropOp44
 70
     1
102
RTVSPost2010Prop45
280
     0
102
RTVSPost2010PropOp45
 70
     1
102
RTVSPost2010Prop46
 90
       50
102
RTVSPost2010PropOp46
 70
     1
102
RTVSPost2010Prop47
 90
       50
102
RTVSPost2010PropOp47
 70
     1
102
RTVSPost2010Prop48
 90
       50
102
RTVSPost2010PropOp48
 70
     1
102
RTVSPost2010Prop49
280
     0
102
RTVSPost2010PropOp49
 70
     1
102
RTVSPost2010Prop50
 90
       50
102
RTVSPost2010PropOp50
 70
     1
102
RTVSPost2010Prop51ColorIndex
 90
      256
102
RTVSPost2010Prop51ColorRGB
 90
-16777216
102
RTVSPost2010PropOp51
 70
     0
102
RTVSPost2010Prop52
140
1.0
102
RTVSPost2010PropOp52
 70
     0
102
RTVSPost2010Prop53
 90
        2
102
RTVSPost2010PropOp53
 70
     1
102
RTVSPost2010Prop54
  1
strokes_ogs.tif
102
RTVSPost2010PropOp54
 70
     1
102
RTVSPost2010Prop55
280
     0
102
RTVSPost2010PropOp55
 70
     1
102
RTVSPost2010Prop56
140
1.0
102
RTVSPost2010PropOp56
 70
     1
102
RTVSPost2010Prop57
140
1.0
102
RTVSPost2010PropOp57
 70
     1
102
RTVSPropertyOp0
 70
     1
102
RTVSPropertyOp1
 70
     1
102
RTVSPropertyOp2
 70
     1
102
RTVSPropertyOp3
 70
     1
102
RTVSPropertyOp4
 70
     1
102
RTVSPropertyOp5
 70
     1
102
RTVSPropertyOp6
 70
     1
102
RTVSPropertyOp7
 70
     1
102
RTVSPropertyOp8
 70
     1
102
RTVSPropertyOp9
 70
     1
102
RTVSPropertyOp10
 70
     1
102
RTVSPropertyOp11
 70
     1
102
RTVSPropertyOp12
 70
     1
102
RTVSPropertyOp13
 70
     1
102
RTVSPropertyOp14
 70
     1
102
RTVSPropertyOp15
 70
     1
102
RTVSPropertyOp16
 70
     1
102
RTVSPropertyOp17
 70
     1
102
RTVSPropertyOp18
 70
     1
102
RTVSPropertyOp19
 70
     1
102
RTVSPropertyOp20
 70
     1
102
RTVSPropertyOp21
 70
     1
102
RTVSPropertyOp22
 70
     1
102
RTVSPropertyOp23
 70
     1
102
RTVSPropertyOp24
 70
     1
102
RTVSPropertyOp25
 70
     1
102
RTVSPropertyOp26
 70
     1
102
RTVSPropertyOp27
 70
     1
102
RTVSPropertyOp28
 70
     1
102
RTVSPropertyOp29
 70
     1
102
RTVSPropertyOp30
 70
     1
102
RTVSPropertyOp31
 70
     1
102
RTVSPropertyOp32
 70
     1
102
RTVSPropertyOp33
 70
     1
102
RTVSPropertyOp34
 70
     1
102
RTVSPropertyOp35
 70
     1
102
RTVSPropertyOp36
 70
     1
102
RTVSPropertyOp37
 70
     1
102
RTVSPropertyOp38
 70
     1
102
RTVSPropertyOp39
 70
     1
102
RTVSPropertyOp40
 70
     1
102
RTVSPropertyOp41
 70
     1
102
RTVSPropertyOp42
 70
     1
102
RTVSPropertyOp43
 70
     1
102
RTVSPropertyOp44
 70
     1
102
RTVSPropertyOp45
 70
     1
102
RTVSPropertyOp46
 70
     1
102
RTVSPropertyOp47
 70
     1
102
RTVSPropertyOp48
 70
     1
102
RTVSPropertyOp49
 70
     1
102
RTVSPropertyOp50
 70
     1
102
RTVSPropertyOp51
 70
     0
102
RTVSPropertyOp52
 70
     0
102
RTVSPropertyOp53
 70
     1
102
RTVSPropertyOp54
 70
     1
102
RTVSPropertyOp55
 70
     1
102
RTVSPropertyOp56
 70
     1
102
RTVSPropertyOp57
 70
     1
102
RTVSPropertyOp58
 70
     1
102
RTVSPropertyOp59
 70
     1
102
RTVSPropertyOp60
 70
     1
102
RTVSPropertyOp61
 70
     1
102
RTVSPropertyOp62
 70
     1
  0
XRECORD
  5
D01
102
{ACAD_REACTORS
330
D00
102
}
330
D00
100
AcDbXrecord
280
     1
102
RTVSPost2010Prop28
280
     0
102
RTVSPost2010PropOp28
 70
     1
102
RTVSPost2010Prop29
280
     1
102
RTVSPost2010PropOp29
 70
     1
102
RTVSPost2010Prop30
280
     1
102
RTVSPost2010PropOp30
 70
     1
102
RTVSPost2010Prop31
280
     0
102
RTVSPost2010PropOp31
 70
     1
102
RTVSPost2010Prop32
280
     0
102
RTVSPost2010PropOp32
 70
     1
102
RTVSPost2010Prop33
280
     0
102
RTVSPost2010PropOp33
 70
     1
102
RTVSPost2010Prop34
280
     0
102
RTVSPost2010PropOp34
 70
     1
102
RTVSPost2010Prop35
280
     0
102
RTVSPost2010PropOp35
 70
     1
102
RTVSPost2010Prop36
280
     0
102
RTVSPost2010PropOp36
 70
     1
102
RTVSPost2010Prop37
 90
       50
102
RTVSPost2010PropOp37
 70
     1
102
RTVSPost2010Prop38
140
0.0
102
RTVSPost2010PropOp38
 70
     1
102
RTVSPost2010Prop39
140
1.0
102
RTVSPost2010PropOp39
 70
     1
102
RTVSPost2010Prop40
 90
        0
102
RTVSPost2010PropOp40
 70
     1
102
RTVSPost2010Prop41ColorIndex
 90
       18
102
RTVSPost2010Prop41ColorRGB
 90
-16777216
102
RTVSPost2010PropOp41
 70
     1
102
RTVSPost2010Prop42
 90
       50
102
RTVSPost2010PropOp42
 70
     1
102
RTVSPost2010Prop43
 90
        3
102
RTVSPost2010PropOp43
 70
     1
102
RTVSPost2010Prop44ColorIndex
 90
        5
102
RTVSPost2010Prop44ColorRGB
 90
      255
102
RTVSPost2010PropOp44
 70
     1
102
RTVSPost2010Prop45
280
     0
102
RTVSPost2010PropOp45
 70
     1
102
RTVSPost2010Prop46
 90
       50
102
RTVSPost2010PropOp46
 70
     1
102
RTVSPost2010Prop47
 90
       50
102
RTVSPost2010PropOp47
 70
     1
102
RTVSPost2010Prop48
 90
       50
102
RTVSPost2010PropOp48
 70
     1
102
RTVSPost2010Prop49
280
     0
102
RTVSPost2010PropOp49
 70
     1
102
RTVSPost2010Prop50
 90
       50
102
RTVSPost2010PropOp50
 70
     1
102
RTVSPost2010Prop51ColorIndex
 90
      256
102
RTVSPost2010Prop51ColorRGB
 90
-16777216
102
RTVSPost2010PropOp51
 70
     0
102
RTVSPost2010Prop52
140
1.0
102
RTVSPost2010PropOp52
 70
     0
102
RTVSPost2010Prop53
 90
        2
102
RTVSPost2010PropOp53
 70
     1
102
RTVSPost2010Prop54
  1
strokes_ogs.tif
102
RTVSPost2010PropOp54
 70
     1
102
RTVSPost2010Prop55
280
     0
102
RTVSPost2010PropOp55
 70
     1
102
RTVSPost2010Prop56
140
1.0
102
RTVSPost2010PropOp56
 70
     1
102
RTVSPost2010Prop57
140
1.0
102
RTVSPost2010PropOp57
 70
     1
102
RTVSPropertyOp0
 70
     1
102
RTVSPropertyOp1
 70
     1
102
RTVSPropertyOp2
 70
     1
102
RTVSPropertyOp3
 70
     1
102
RTVSPropertyOp4
 70
     1
102
RTVSPropertyOp5
 70
     1
102
RTVSPropertyOp6
 70
     1
102
RTVSPropertyOp7
 70
     1
102
RTVSPropertyOp8
 70
     1
102
RTVSPropertyOp9
 70
     1
102
RTVSPropertyOp10
 70
     1
102
RTVSPropertyOp11
 70
     1
102
RTVSPropertyOp12
 70
     1
102
RTVSPropertyOp13
 70
     1
102
RTVSPropertyOp14
 70
     1
102
RTVSPropertyOp15
 70
     1
102
RTVSPropertyOp16
 70
     1
102
RTVSPropertyOp17
 70
     1
102
RTVSPropertyOp18
 70
     1
102
RTVSPropertyOp19
 70
     1
102
RTVSPropertyOp20
 70
     1
102
RTVSPropertyOp21
 70
     1
102
RTVSPropertyOp22
 70
     1
102
RTVSPropertyOp23
 70
     1
102
RTVSPropertyOp24
 70
     1
102
RTVSPropertyOp25
 70
     1
102
RTVSPropertyOp26
 70
     1
102
RTVSPropertyOp27
 70
     1
102
RTVSPropertyOp28
 70
     1
102
RTVSPropertyOp29
 70
     1
102
RTVSPropertyOp30
 70
     1
102
RTVSPropertyOp31
 70
     1
102
RTVSPropertyOp32
 70
     1
102
RTVSPropertyOp33
 70
     1
102
RTVSPropertyOp34
 70
     1
102
RTVSPropertyOp35
 70
     1
102
RTVSPropertyOp36
 70
     1
102
RTVSPropertyOp37
 70
     1
102
RTVSPropertyOp38
 70
     1
102
RTVSPropertyOp39
 70
     1
102
RTVSPropertyOp40
 70
     1
102
RTVSPropertyOp41
 70
     1
102
RTVSPropertyOp42
 70
     1
102
RTVSPropertyOp43
 70
     1
102
RTVSPropertyOp44
 70
     1
102
RTVSPropertyOp45
 70
     1
102
RTVSPropertyOp46
 70
     1
102
RTVSPropertyOp47
 70
     1
102
RTVSPropertyOp48
 70
     1
102
RTVSPropertyOp49
 70
     1
102
RTVSPropertyOp50
 70
     1
102
RTVSPropertyOp51
 70
     0
102
RTVSPropertyOp52
 70
     0
102
RTVSPropertyOp53
 70
     1
102
RTVSPropertyOp54
 70
     1
102
RTVSPropertyOp55
 70
     1
102
RTVSPropertyOp56
 70
     1
102
RTVSPropertyOp57
 70
     1
102
RTVSPropertyOp58
 70
     1
102
RTVSPropertyOp59
 70
     1
102
RTVSPropertyOp60
 70
     1
102
RTVSPropertyOp61
 70
     1
102
RTVSPropertyOp62
 70
     1
  0
XRECORD
  5
CFB
102
{ACAD_REACTORS
330
CFA
102
}
330
CFA
100
AcDbXrecord
280
     1
102
RTVSPost2010Prop28
280
     0
102
RTVSPost2010PropOp28
 70
     1
102
RTVSPost2010Prop29
280
     1
102
RTVSPost2010PropOp29
 70
     1
102
RTVSPost2010Prop30
280
     1
102
RTVSPost2010PropOp30
 70
     1
102
RTVSPost2010Prop31
280
     0
102
RTVSPost2010PropOp31
 70
     1
102
RTVSPost2010Prop32
280
     0
102
RTVSPost2010PropOp32
 70
     1
102
RTVSPost2010Prop33
280
     0
102
RTVSPost2010PropOp33
 70
     1
102
RTVSPost2010Prop34
280
     0
102
RTVSPost2010PropOp34
 70
     1
102
RTVSPost2010Prop35
280
     0
102
RTVSPost2010PropOp35
 70
     1
102
RTVSPost2010Prop36
280
     0
102
RTVSPost2010PropOp36
 70
     1
102
RTVSPost2010Prop37
 90
       50
102
RTVSPost2010PropOp37
 70
     1
102
RTVSPost2010Prop38
140
0.0
102
RTVSPost2010PropOp38
 70
     1
102
RTVSPost2010Prop39
140
1.0
102
RTVSPost2010PropOp39
 70
     1
102
RTVSPost2010Prop40
 90
        0
102
RTVSPost2010PropOp40
 70
     1
102
RTVSPost2010Prop41ColorIndex
 90
       18
102
RTVSPost2010Prop41ColorRGB
 90
-16777216
102
RTVSPost2010PropOp41
 70
     1
102
RTVSPost2010Prop42
 90
       50
102
RTVSPost2010PropOp42
 70
     1
102
RTVSPost2010Prop43
 90
        3
102
RTVSPost2010PropOp43
 70
     1
102
RTVSPost2010Prop44ColorIndex
 90
        5
102
RTVSPost2010Prop44ColorRGB
 90
      255
102
RTVSPost2010PropOp44
 70
     1
102
RTVSPost2010Prop45
280
     0
102
RTVSPost2010PropOp45
 70
     1
102
RTVSPost2010Prop46
 90
       50
102
RTVSPost2010PropOp46
 70
     1
102
RTVSPost2010Prop47
 90
       50
102
RTVSPost2010PropOp47
 70
     1
102
RTVSPost2010Prop48
 90
       50
102
RTVSPost2010PropOp48
 70
     1
102
RTVSPost2010Prop49
280
     0
102
RTVSPost2010PropOp49
 70
     1
102
RTVSPost2010Prop50
 90
       50
102
RTVSPost2010PropOp50
 70
     1
102
RTVSPost2010Prop51ColorIndex
 90
      256
102
RTVSPost2010Prop51ColorRGB
 90
-16777216
102
RTVSPost2010PropOp51
 70
     0
102
RTVSPost2010Prop52
140
1.0
102
RTVSPost2010PropOp52
 70
     0
102
RTVSPost2010Prop53
 90
        2
102
RTVSPost2010PropOp53
 70
     1
102
RTVSPost2010Prop54
  1
strokes_ogs.tif
102
RTVSPost2010PropOp54
 70
     1
102
RTVSPost2010Prop55
280
     0
102
RTVSPost2010PropOp55
 70
     1
102
RTVSPost2010Prop56
140
1.0
102
RTVSPost2010PropOp56
 70
     1
102
RTVSPost2010Prop57
140
1.0
102
RTVSPost2010PropOp57
 70
     1
102
RTVSPropertyOp0
 70
     1
102
RTVSPropertyOp1
 70
     1
102
RTVSPropertyOp2
 70
     1
102
RTVSPropertyOp3
 70
     1
102
RTVSPropertyOp4
 70
     1
102
RTVSPropertyOp5
 70
     1
102
RTVSPropertyOp6
 70
     1
102
RTVSPropertyOp7
 70
     1
102
RTVSPropertyOp8
 70
     1
102
RTVSPropertyOp9
 70
     1
102
RTVSPropertyOp10
 70
     1
102
RTVSPropertyOp11
 70
     1
102
RTVSPropertyOp12
 70
     1
102
RTVSPropertyOp13
 70
     1
102
RTVSPropertyOp14
 70
     1
102
RTVSPropertyOp15
 70
     1
102
RTVSPropertyOp16
 70
     1
102
RTVSPropertyOp17
 70
     1
102
RTVSPropertyOp18
 70
     1
102
RTVSPropertyOp19
 70
     1
102
RTVSPropertyOp20
 70
     1
102
RTVSPropertyOp21
 70
     1
102
RTVSPropertyOp22
 70
     1
102
RTVSPropertyOp23
 70
     1
102
RTVSPropertyOp24
 70
     1
102
RTVSPropertyOp25
 70
     1
102
RTVSPropertyOp26
 70
     1
102
RTVSPropertyOp27
 70
     1
102
RTVSPropertyOp28
 70
     1
102
RTVSPropertyOp29
 70
     1
102
RTVSPropertyOp30
 70
     1
102
RTVSPropertyOp31
 70
     1
102
RTVSPropertyOp32
 70
     1
102
RTVSPropertyOp33
 70
     1
102
RTVSPropertyOp34
 70
     1
102
RTVSPropertyOp35
 70
     1
102
RTVSPropertyOp36
 70
     1
102
RTVSPropertyOp37
 70
     1
102
RTVSPropertyOp38
 70
     1
102
RTVSPropertyOp39
 70
     1
102
RTVSPropertyOp40
 70
     1
102
RTVSPropertyOp41
 70
     1
102
RTVSPropertyOp42
 70
     1
102
RTVSPropertyOp43
 70
     1
102
RTVSPropertyOp44
 70
     1
102
RTVSPropertyOp45
 70
     1
102
RTVSPropertyOp46
 70
     1
102
RTVSPropertyOp47
 70
     1
102
RTVSPropertyOp48
 70
     1
102
RTVSPropertyOp49
 70
     1
102
RTVSPropertyOp50
 70
     1
102
RTVSPropertyOp51
 70
     0
102
RTVSPropertyOp52
 70
     0
102
RTVSPropertyOp53
 70
     1
102
RTVSPropertyOp54
 70
     1
102
RTVSPropertyOp55
 70
     1
102
RTVSPropertyOp56
 70
     1
102
RTVSPropertyOp57
 70
     1
102
RTVSPropertyOp58
 70
     1
102
RTVSPropertyOp59
 70
     1
102
RTVSPropertyOp60
 70
     1
102
RTVSPropertyOp61
 70
     1
102
RTVSPropertyOp62
 70
     1
  0
XRECORD
  5
CFD
102
{ACAD_REACTORS
330
CFC
102
}
330
CFC
100
AcDbXrecord
280
     1
102
RTVSPost2010Prop28
280
     0
102
RTVSPost2010PropOp28
 70
     1
102
RTVSPost2010Prop29
280
     1
102
RTVSPost2010PropOp29
 70
     1
102
RTVSPost2010Prop30
280
     1
102
RTVSPost2010PropOp30
 70
     1
102
RTVSPost2010Prop31
280
     0
102
RTVSPost2010PropOp31
 70
     1
102
RTVSPost2010Prop32
280
     0
102
RTVSPost2010PropOp32
 70
     1
102
RTVSPost2010Prop33
280
     0
102
RTVSPost2010PropOp33
 70
     1
102
RTVSPost2010Prop34
280
     0
102
RTVSPost2010PropOp34
 70
     1
102
RTVSPost2010Prop35
280
     0
102
RTVSPost2010PropOp35
 70
     1
102
RTVSPost2010Prop36
280
     0
102
RTVSPost2010PropOp36
 70
     1
102
RTVSPost2010Prop37
 90
       50
102
RTVSPost2010PropOp37
 70
     1
102
RTVSPost2010Prop38
140
0.0
102
RTVSPost2010PropOp38
 70
     1
102
RTVSPost2010Prop39
140
1.0
102
RTVSPost2010PropOp39
 70
     1
102
RTVSPost2010Prop40
 90
        0
102
RTVSPost2010PropOp40
 70
     1
102
RTVSPost2010Prop41ColorIndex
 90
       18
102
RTVSPost2010Prop41ColorRGB
 90
-16777216
102
RTVSPost2010PropOp41
 70
     1
102
RTVSPost2010Prop42
 90
       50
102
RTVSPost2010PropOp42
 70
     1
102
RTVSPost2010Prop43
 90
        3
102
RTVSPost2010PropOp43
 70
     1
102
RTVSPost2010Prop44ColorIndex
 90
        5
102
RTVSPost2010Prop44ColorRGB
 90
      255
102
RTVSPost2010PropOp44
 70
     1
102
RTVSPost2010Prop45
280
     0
102
RTVSPost2010PropOp45
 70
     1
102
RTVSPost2010Prop46
 90
       50
102
RTVSPost2010PropOp46
 70
     1
102
RTVSPost2010Prop47
 90
       50
102
RTVSPost2010PropOp47
 70
     1
102
RTVSPost2010Prop48
 90
       50
102
RTVSPost2010PropOp48
 70
     1
102
RTVSPost2010Prop49
280
     0
102
RTVSPost2010PropOp49
 70
     1
102
RTVSPost2010Prop50
 90
       50
102
RTVSPost2010PropOp50
 70
     1
102
RTVSPost2010Prop51ColorIndex
 90
      256
102
RTVSPost2010Prop51ColorRGB
 90
-16777216
102
RTVSPost2010PropOp51
 70
     0
102
RTVSPost2010Prop52
140
1.0
102
RTVSPost2010PropOp52
 70
     0
102
RTVSPost2010Prop53
 90
        2
102
RTVSPost2010PropOp53
 70
     1
102
RTVSPost2010Prop54
  1
strokes_ogs.tif
102
RTVSPost2010PropOp54
 70
     1
102
RTVSPost2010Prop55
280
     0
102
RTVSPost2010PropOp55
 70
     1
102
RTVSPost2010Prop56
140
1.0
102
RTVSPost2010PropOp56
 70
     1
102
RTVSPost2010Prop57
140
1.0
102
RTVSPost2010PropOp57
 70
     1
102
RTVSPropertyOp0
 70
     1
102
RTVSPropertyOp1
 70
     1
102
RTVSPropertyOp2
 70
     1
102
RTVSPropertyOp3
 70
     1
102
RTVSPropertyOp4
 70
     1
102
RTVSPropertyOp5
 70
     1
102
RTVSPropertyOp6
 70
     1
102
RTVSPropertyOp7
 70
     1
102
RTVSPropertyOp8
 70
     1
102
RTVSPropertyOp9
 70
     1
102
RTVSPropertyOp10
 70
     1
102
RTVSPropertyOp11
 70
     1
102
RTVSPropertyOp12
 70
     1
102
RTVSPropertyOp13
 70
     1
102
RTVSPropertyOp14
 70
     1
102
RTVSPropertyOp15
 70
     1
102
RTVSPropertyOp16
 70
     1
102
RTVSPropertyOp17
 70
     1
102
RTVSPropertyOp18
 70
     1
102
RTVSPropertyOp19
 70
     1
102
RTVSPropertyOp20
 70
     1
102
RTVSPropertyOp21
 70
     1
102
RTVSPropertyOp22
 70
     1
102
RTVSPropertyOp23
 70
     1
102
RTVSPropertyOp24
 70
     1
102
RTVSPropertyOp25
 70
     1
102
RTVSPropertyOp26
 70
     1
102
RTVSPropertyOp27
 70
     1
102
RTVSPropertyOp28
 70
     1
102
RTVSPropertyOp29
 70
     1
102
RTVSPropertyOp30
 70
     1
102
RTVSPropertyOp31
 70
     1
102
RTVSPropertyOp32
 70
     1
102
RTVSPropertyOp33
 70
     1
102
RTVSPropertyOp34
 70
     1
102
RTVSPropertyOp35
 70
     1
102
RTVSPropertyOp36
 70
     1
102
RTVSPropertyOp37
 70
     1
102
RTVSPropertyOp38
 70
     1
102
RTVSPropertyOp39
 70
     1
102
RTVSPropertyOp40
 70
     1
102
RTVSPropertyOp41
 70
     1
102
RTVSPropertyOp42
 70
     1
102
RTVSPropertyOp43
 70
     1
102
RTVSPropertyOp44
 70
     1
102
RTVSPropertyOp45
 70
     1
102
RTVSPropertyOp46
 70
     1
102
RTVSPropertyOp47
 70
     1
102
RTVSPropertyOp48
 70
     1
102
RTVSPropertyOp49
 70
     1
102
RTVSPropertyOp50
 70
     1
102
RTVSPropertyOp51
 70
     0
102
RTVSPropertyOp52
 70
     0
102
RTVSPropertyOp53
 70
     1
102
RTVSPropertyOp54
 70
     1
102
RTVSPropertyOp55
 70
     1
102
RTVSPropertyOp56
 70
     1
102
RTVSPropertyOp57
 70
     1
102
RTVSPropertyOp58
 70
     1
102
RTVSPropertyOp59
 70
     1
102
RTVSPropertyOp60
 70
     1
102
RTVSPropertyOp61
 70
     1
102
RTVSPropertyOp62
 70
     1
  0
XRECORD
  5
CF3
102
{ACAD_REACTORS
330
CF2
102
}
330
CF2
100
AcDbXrecord
280
     1
102
RTVSPost2010Prop28
280
     0
102
RTVSPost2010PropOp28
 70
     1
102
RTVSPost2010Prop29
280
     1
102
RTVSPost2010PropOp29
 70
     1
102
RTVSPost2010Prop30
280
     1
102
RTVSPost2010PropOp30
 70
     1
102
RTVSPost2010Prop31
280
     0
102
RTVSPost2010PropOp31
 70
     1
102
RTVSPost2010Prop32
280
     0
102
RTVSPost2010PropOp32
 70
     1
102
RTVSPost2010Prop33
280
     0
102
RTVSPost2010PropOp33
 70
     1
102
RTVSPost2010Prop34
280
     0
102
RTVSPost2010PropOp34
 70
     1
102
RTVSPost2010Prop35
280
     0
102
RTVSPost2010PropOp35
 70
     1
102
RTVSPost2010Prop36
280
     0
102
RTVSPost2010PropOp36
 70
     1
102
RTVSPost2010Prop37
 90
       50
102
RTVSPost2010PropOp37
 70
     1
102
RTVSPost2010Prop38
140
0.0
102
RTVSPost2010PropOp38
 70
     1
102
RTVSPost2010Prop39
140
1.0
102
RTVSPost2010PropOp39
 70
     1
102
RTVSPost2010Prop40
 90
        0
102
RTVSPost2010PropOp40
 70
     1
102
RTVSPost2010Prop41ColorIndex
 90
       18
102
RTVSPost2010Prop41ColorRGB
 90
-16777216
102
RTVSPost2010PropOp41
 70
     1
102
RTVSPost2010Prop42
 90
       50
102
RTVSPost2010PropOp42
 70
     1
102
RTVSPost2010Prop43
 90
        3
102
RTVSPost2010PropOp43
 70
     1
102
RTVSPost2010Prop44ColorIndex
 90
        5
102
RTVSPost2010Prop44ColorRGB
 90
      255
102
RTVSPost2010PropOp44
 70
     1
102
RTVSPost2010Prop45
280
     0
102
RTVSPost2010PropOp45
 70
     1
102
RTVSPost2010Prop46
 90
       50
102
RTVSPost2010PropOp46
 70
     1
102
RTVSPost2010Prop47
 90
       50
102
RTVSPost2010PropOp47
 70
     1
102
RTVSPost2010Prop48
 90
       50
102
RTVSPost2010PropOp48
 70
     1
102
RTVSPost2010Prop49
280
     0
102
RTVSPost2010PropOp49
 70
     1
102
RTVSPost2010Prop50
 90
       50
102
RTVSPost2010PropOp50
 70
     1
102
RTVSPost2010Prop51ColorIndex
 90
      256
102
RTVSPost2010Prop51ColorRGB
 90
-16777216
102
RTVSPost2010PropOp51
 70
     0
102
RTVSPost2010Prop52
140
1.0
102
RTVSPost2010PropOp52
 70
     0
102
RTVSPost2010Prop53
 90
        2
102
RTVSPost2010PropOp53
 70
     1
102
RTVSPost2010Prop54
  1
strokes_ogs.tif
102
RTVSPost2010PropOp54
 70
     1
102
RTVSPost2010Prop55
280
     0
102
RTVSPost2010PropOp55
 70
     1
102
RTVSPost2010Prop56
140
1.0
102
RTVSPost2010PropOp56
 70
     1
102
RTVSPost2010Prop57
140
1.0
102
RTVSPost2010PropOp57
 70
     1
102
RTVSPropertyOp0
 70
     1
102
RTVSPropertyOp1
 70
     1
102
RTVSPropertyOp2
 70
     1
102
RTVSPropertyOp3
 70
     1
102
RTVSPropertyOp4
 70
     1
102
RTVSPropertyOp5
 70
     1
102
RTVSPropertyOp6
 70
     1
102
RTVSPropertyOp7
 70
     1
102
RTVSPropertyOp8
 70
     1
102
RTVSPropertyOp9
 70
     1
102
RTVSPropertyOp10
 70
     1
102
RTVSPropertyOp11
 70
     1
102
RTVSPropertyOp12
 70
     1
102
RTVSPropertyOp13
 70
     1
102
RTVSPropertyOp14
 70
     1
102
RTVSPropertyOp15
 70
     1
102
RTVSPropertyOp16
 70
     1
102
RTVSPropertyOp17
 70
     1
102
RTVSPropertyOp18
 70
     1
102
RTVSPropertyOp19
 70
     1
102
RTVSPropertyOp20
 70
     1
102
RTVSPropertyOp21
 70
     1
102
RTVSPropertyOp22
 70
     1
102
RTVSPropertyOp23
 70
     1
102
RTVSPropertyOp24
 70
     1
102
RTVSPropertyOp25
 70
     1
102
RTVSPropertyOp26
 70
     1
102
RTVSPropertyOp27
 70
     1
102
RTVSPropertyOp28
 70
     1
102
RTVSPropertyOp29
 70
     1
102
RTVSPropertyOp30
 70
     1
102
RTVSPropertyOp31
 70
     1
102
RTVSPropertyOp32
 70
     1
102
RTVSPropertyOp33
 70
     1
102
RTVSPropertyOp34
 70
     1
102
RTVSPropertyOp35
 70
     1
102
RTVSPropertyOp36
 70
     1
102
RTVSPropertyOp37
 70
     1
102
RTVSPropertyOp38
 70
     1
102
RTVSPropertyOp39
 70
     1
102
RTVSPropertyOp40
 70
     1
102
RTVSPropertyOp41
 70
     1
102
RTVSPropertyOp42
 70
     1
102
RTVSPropertyOp43
 70
     1
102
RTVSPropertyOp44
 70
     1
102
RTVSPropertyOp45
 70
     1
102
RTVSPropertyOp46
 70
     1
102
RTVSPropertyOp47
 70
     1
102
RTVSPropertyOp48
 70
     1
102
RTVSPropertyOp49
 70
     1
102
RTVSPropertyOp50
 70
     1
102
RTVSPropertyOp51
 70
     0
102
RTVSPropertyOp52
 70
     0
102
RTVSPropertyOp53
 70
     1
102
RTVSPropertyOp54
 70
     1
102
RTVSPropertyOp55
 70
     1
102
RTVSPropertyOp56
 70
     1
102
RTVSPropertyOp57
 70
     1
102
RTVSPropertyOp58
 70
     1
102
RTVSPropertyOp59
 70
     1
102
RTVSPropertyOp60
 70
     1
102
RTVSPropertyOp61
 70
     1
102
RTVSPropertyOp62
 70
     1
  0
XRECORD
  5
CE7
102
{ACAD_REACTORS
330
CE6
102
}
330
CE6
100
AcDbXrecord
280
     1
102
RTVSPost2010Prop28
280
     0
102
RTVSPost2010PropOp28
 70
     1
102
RTVSPost2010Prop29
280
     1
102
RTVSPost2010PropOp29
 70
     1
102
RTVSPost2010Prop30
280
     1
102
RTVSPost2010PropOp30
 70
     1
102
RTVSPost2010Prop31
280
     0
102
RTVSPost2010PropOp31
 70
     1
102
RTVSPost2010Prop32
280
     0
102
RTVSPost2010PropOp32
 70
     1
102
RTVSPost2010Prop33
280
     0
102
RTVSPost2010PropOp33
 70
     1
102
RTVSPost2010Prop34
280
     0
102
RTVSPost2010PropOp34
 70
     1
102
RTVSPost2010Prop35
280
     0
102
RTVSPost2010PropOp35
 70
     1
102
RTVSPost2010Prop36
280
     0
102
RTVSPost2010PropOp36
 70
     1
102
RTVSPost2010Prop37
 90
       50
102
RTVSPost2010PropOp37
 70
     1
102
RTVSPost2010Prop38
140
0.0
102
RTVSPost2010PropOp38
 70
     1
102
RTVSPost2010Prop39
140
1.0
102
RTVSPost2010PropOp39
 70
     1
102
RTVSPost2010Prop40
 90
        0
102
RTVSPost2010PropOp40
 70
     1
102
RTVSPost2010Prop41ColorIndex
 90
       18
102
RTVSPost2010Prop41ColorRGB
 90
-16777216
102
RTVSPost2010PropOp41
 70
     1
102
RTVSPost2010Prop42
 90
       50
102
RTVSPost2010PropOp42
 70
     1
102
RTVSPost2010Prop43
 90
        3
102
RTVSPost2010PropOp43
 70
     1
102
RTVSPost2010Prop44ColorIndex
 90
        5
102
RTVSPost2010Prop44ColorRGB
 90
      255
102
RTVSPost2010PropOp44
 70
     1
102
RTVSPost2010Prop45
280
     0
102
RTVSPost2010PropOp45
 70
     1
102
RTVSPost2010Prop46
 90
       50
102
RTVSPost2010PropOp46
 70
     1
102
RTVSPost2010Prop47
 90
       50
102
RTVSPost2010PropOp47
 70
     1
102
RTVSPost2010Prop48
 90
       50
102
RTVSPost2010PropOp48
 70
     1
102
RTVSPost2010Prop49
280
     0
102
RTVSPost2010PropOp49
 70
     1
102
RTVSPost2010Prop50
 90
       50
102
RTVSPost2010PropOp50
 70
     1
102
RTVSPost2010Prop51ColorIndex
 90
      256
102
RTVSPost2010Prop51ColorRGB
 90
-16777216
102
RTVSPost2010PropOp51
 70
     0
102
RTVSPost2010Prop52
140
1.0
102
RTVSPost2010PropOp52
 70
     0
102
RTVSPost2010Prop53
 90
        2
102
RTVSPost2010PropOp53
 70
     1
102
RTVSPost2010Prop54
  1
strokes_ogs.tif
102
RTVSPost2010PropOp54
 70
     1
102
RTVSPost2010Prop55
280
     0
102
RTVSPost2010PropOp55
 70
     1
102
RTVSPost2010Prop56
140
1.0
102
RTVSPost2010PropOp56
 70
     1
102
RTVSPost2010Prop57
140
1.0
102
RTVSPost2010PropOp57
 70
     1
102
RTVSPropertyOp0
 70
     1
102
RTVSPropertyOp1
 70
     1
102
RTVSPropertyOp2
 70
     1
102
RTVSPropertyOp3
 70
     1
102
RTVSPropertyOp4
 70
     1
102
RTVSPropertyOp5
 70
     1
102
RTVSPropertyOp6
 70
     1
102
RTVSPropertyOp7
 70
     1
102
RTVSPropertyOp8
 70
     1
102
RTVSPropertyOp9
 70
     1
102
RTVSPropertyOp10
 70
     1
102
RTVSPropertyOp11
 70
     1
102
RTVSPropertyOp12
 70
     1
102
RTVSPropertyOp13
 70
     1
102
RTVSPropertyOp14
 70
     1
102
RTVSPropertyOp15
 70
     1
102
RTVSPropertyOp16
 70
     1
102
RTVSPropertyOp17
 70
     1
102
RTVSPropertyOp18
 70
     1
102
RTVSPropertyOp19
 70
     1
102
RTVSPropertyOp20
 70
     1
102
RTVSPropertyOp21
 70
     1
102
RTVSPropertyOp22
 70
     1
102
RTVSPropertyOp23
 70
     1
102
RTVSPropertyOp24
 70
     1
102
RTVSPropertyOp25
 70
     1
102
RTVSPropertyOp26
 70
     1
102
RTVSPropertyOp27
 70
     1
102
RTVSPropertyOp28
 70
     1
102
RTVSPropertyOp29
 70
     1
102
RTVSPropertyOp30
 70
     1
102
RTVSPropertyOp31
 70
     1
102
RTVSPropertyOp32
 70
     1
102
RTVSPropertyOp33
 70
     1
102
RTVSPropertyOp34
 70
     1
102
RTVSPropertyOp35
 70
     1
102
RTVSPropertyOp36
 70
     1
102
RTVSPropertyOp37
 70
     1
102
RTVSPropertyOp38
 70
     1
102
RTVSPropertyOp39
 70
     1
102
RTVSPropertyOp40
 70
     1
102
RTVSPropertyOp41
 70
     1
102
RTVSPropertyOp42
 70
     1
102
RTVSPropertyOp43
 70
     1
102
RTVSPropertyOp44
 70
     1
102
RTVSPropertyOp45
 70
     1
102
RTVSPropertyOp46
 70
     1
102
RTVSPropertyOp47
 70
     1
102
RTVSPropertyOp48
 70
     1
102
RTVSPropertyOp49
 70
     1
102
RTVSPropertyOp50
 70
     1
102
RTVSPropertyOp51
 70
     0
102
RTVSPropertyOp52
 70
     0
102
RTVSPropertyOp53
 70
     1
102
RTVSPropertyOp54
 70
     1
102
RTVSPropertyOp55
 70
     1
102
RTVSPropertyOp56
 70
     1
102
RTVSPropertyOp57
 70
     1
102
RTVSPropertyOp58
 70
     1
102
RTVSPropertyOp59
 70
     1
102
RTVSPropertyOp60
 70
     1
102
RTVSPropertyOp61
 70
     1
102
RTVSPropertyOp62
 70
     1
  0
XRECORD
  5
CFF
102
{ACAD_REACTORS
330
CFE
102
}
330
CFE
100
AcDbXrecord
280
     1
102
RTVSPost2010Prop28
280
     0
102
RTVSPost2010PropOp28
 70
     1
102
RTVSPost2010Prop29
280
     1
102
RTVSPost2010PropOp29
 70
     1
102
RTVSPost2010Prop30
280
     1
102
RTVSPost2010PropOp30
 70
     1
102
RTVSPost2010Prop31
280
     0
102
RTVSPost2010PropOp31
 70
     1
102
RTVSPost2010Prop32
280
     0
102
RTVSPost2010PropOp32
 70
     1
102
RTVSPost2010Prop33
280
     0
102
RTVSPost2010PropOp33
 70
     1
102
RTVSPost2010Prop34
280
     0
102
RTVSPost2010PropOp34
 70
     1
102
RTVSPost2010Prop35
280
     0
102
RTVSPost2010PropOp35
 70
     1
102
RTVSPost2010Prop36
280
     0
102
RTVSPost2010PropOp36
 70
     1
102
RTVSPost2010Prop37
 90
       50
102
RTVSPost2010PropOp37
 70
     1
102
RTVSPost2010Prop38
140
0.0
102
RTVSPost2010PropOp38
 70
     1
102
RTVSPost2010Prop39
140
1.0
102
RTVSPost2010PropOp39
 70
     1
102
RTVSPost2010Prop40
 90
        0
102
RTVSPost2010PropOp40
 70
     1
102
RTVSPost2010Prop41ColorIndex
 90
       18
102
RTVSPost2010Prop41ColorRGB
 90
-16777216
102
RTVSPost2010PropOp41
 70
     1
102
RTVSPost2010Prop42
 90
       50
102
RTVSPost2010PropOp42
 70
     1
102
RTVSPost2010Prop43
 90
        3
102
RTVSPost2010PropOp43
 70
     1
102
RTVSPost2010Prop44ColorIndex
 90
        5
102
RTVSPost2010Prop44ColorRGB
 90
      255
102
RTVSPost2010PropOp44
 70
     1
102
RTVSPost2010Prop45
280
     0
102
RTVSPost2010PropOp45
 70
     1
102
RTVSPost2010Prop46
 90
       50
102
RTVSPost2010PropOp46
 70
     1
102
RTVSPost2010Prop47
 90
       50
102
RTVSPost2010PropOp47
 70
     1
102
RTVSPost2010Prop48
 90
       50
102
RTVSPost2010PropOp48
 70
     1
102
RTVSPost2010Prop49
280
     0
102
RTVSPost2010PropOp49
 70
     1
102
RTVSPost2010Prop50
 90
       50
102
RTVSPost2010PropOp50
 70
     1
102
RTVSPost2010Prop51ColorIndex
 90
      256
102
RTVSPost2010Prop51ColorRGB
 90
-16777216
102
RTVSPost2010PropOp51
 70
     0
102
RTVSPost2010Prop52
140
1.0
102
RTVSPost2010PropOp52
 70
     0
102
RTVSPost2010Prop53
 90
        2
102
RTVSPost2010PropOp53
 70
     1
102
RTVSPost2010Prop54
  1
strokes_ogs.tif
102
RTVSPost2010PropOp54
 70
     1
102
RTVSPost2010Prop55
280
     0
102
RTVSPost2010PropOp55
 70
     1
102
RTVSPost2010Prop56
140
1.0
102
RTVSPost2010PropOp56
 70
     1
102
RTVSPost2010Prop57
140
1.0
102
RTVSPost2010PropOp57
 70
     1
102
RTVSPropertyOp0
 70
     1
102
RTVSPropertyOp1
 70
     1
102
RTVSPropertyOp2
 70
     1
102
RTVSPropertyOp3
 70
     1
102
RTVSPropertyOp4
 70
     1
102
RTVSPropertyOp5
 70
     1
102
RTVSPropertyOp6
 70
     1
102
RTVSPropertyOp7
 70
     1
102
RTVSPropertyOp8
 70
     1
102
RTVSPropertyOp9
 70
     1
102
RTVSPropertyOp10
 70
     1
102
RTVSPropertyOp11
 70
     1
102
RTVSPropertyOp12
 70
     1
102
RTVSPropertyOp13
 70
     1
102
RTVSPropertyOp14
 70
     1
102
RTVSPropertyOp15
 70
     1
102
RTVSPropertyOp16
 70
     1
102
RTVSPropertyOp17
 70
     1
102
RTVSPropertyOp18
 70
     1
102
RTVSPropertyOp19
 70
     1
102
RTVSPropertyOp20
 70
     1
102
RTVSPropertyOp21
 70
     1
102
RTVSPropertyOp22
 70
     1
102
RTVSPropertyOp23
 70
     1
102
RTVSPropertyOp24
 70
     1
102
RTVSPropertyOp25
 70
     1
102
RTVSPropertyOp26
 70
     1
102
RTVSPropertyOp27
 70
     1
102
RTVSPropertyOp28
 70
     1
102
RTVSPropertyOp29
 70
     1
102
RTVSPropertyOp30
 70
     1
102
RTVSPropertyOp31
 70
     1
102
RTVSPropertyOp32
 70
     1
102
RTVSPropertyOp33
 70
     1
102
RTVSPropertyOp34
 70
     1
102
RTVSPropertyOp35
 70
     1
102
RTVSPropertyOp36
 70
     1
102
RTVSPropertyOp37
 70
     1
102
RTVSPropertyOp38
 70
     1
102
RTVSPropertyOp39
 70
     1
102
RTVSPropertyOp40
 70
     1
102
RTVSPropertyOp41
 70
     1
102
RTVSPropertyOp42
 70
     1
102
RTVSPropertyOp43
 70
     1
102
RTVSPropertyOp44
 70
     1
102
RTVSPropertyOp45
 70
     1
102
RTVSPropertyOp46
 70
     1
102
RTVSPropertyOp47
 70
     1
102
RTVSPropertyOp48
 70
     1
102
RTVSPropertyOp49
 70
     1
102
RTVSPropertyOp50
 70
     1
102
RTVSPropertyOp51
 70
     0
102
RTVSPropertyOp52
 70
     0
102
RTVSPropertyOp53
 70
     1
102
RTVSPropertyOp54
 70
     1
102
RTVSPropertyOp55
 70
     1
102
RTVSPropertyOp56
 70
     1
102
RTVSPropertyOp57
 70
     1
102
RTVSPropertyOp58
 70
     1
102
RTVSPropertyOp59
 70
     1
102
RTVSPropertyOp60
 70
     1
102
RTVSPropertyOp61
 70
     1
102
RTVSPropertyOp62
 70
     1
  0
ENDSEC
  0
EOF
