  0
SECTION
  2
HEADER
  9
$ACADVER
  1
AC1015
  9
$ACADMAINTVER
 70
    20
  9
$DWGCODEPAGE
  3
ANSI_1252
  9
$INSBASE
 10
0.0
 20
0.0
 30
0.0
  9
$EXTMIN
 10
0.0
 20
-0.0000000000000027
 30
0.0
  9
$EXTMAX
 10
22.1
 20
17.0
 30
0.0
  9
$LIMMIN
 10
0.0
 20
0.0
  9
$LIMMAX
 10
12.0
 20
9.0
  9
$ORTHOMODE
 70
     0
  9
$REGENMODE
 70
     1
  9
$FILLMODE
 70
     1
  9
$QTEXTMODE
 70
     0
  9
$MIRRTEXT
 70
     1
  9
$LTSCALE
 40
0.25
  9
$ATTMODE
 70
     1
  9
$TEXTSIZE
 40
0.078
  9
$TRACEWID
 40
0.05
  9
$TEXTSTYLE
  7
SIMPLEX
  9
$CLAYER
  8
3
  9
$CELTYPE
  6
BYLAYER
  9
$CECOLOR
 62
   256
  9
$CELTSCALE
 40
1.0
  9
$DISPSILH
 70
     0
  9
$DIMSCALE
 40
1.0
  9
$DIMASZ
 40
0.125
  9
$DIMEXO
 40
0.0625
  9
$DIMDLI
 40
0.38
  9
$DIMRND
 40
0.0
  9
$DIMDLE
 40
0.0
  9
$DIMEXE
 40
0.0625
  9
$DIMTP
 40
0.0
  9
$DIMTM
 40
0.0
  9
$DIMTXT
 40
0.125
  9
$DIMCEN
 40
-0.125
  9
$DIMTSZ
 40
0.0
  9
$DIMTOL
 70
     0
  9
$DIMLIM
 70
     0
  9
$DIMTIH
 70
     0
  9
$DIMTOH
 70
     0
  9
$DIMSE1
 70
     0
  9
$DIMSE2
 70
     0
  9
$DIMTAD
 70
     0
  9
$DIMZIN
 70
     4
  9
$DIMBLK
  1

  9
$DIMASO
 70
     1
  9
$DIMSHO
 70
     0
  9
$DIMPOST
  1

  9
$DIMAPOST
  1

  9
$DIMALT
 70
     0
  9
$DIMALTD
 70
     2
  9
$DIMALTF
 40
25.4
  9
$DIMLFAC
 40
1.0
  9
$DIMTOFL
 70
     0
  9
$DIMTVP
 40
0.0
  9
$DIMTIX
 70
     0
  9
$DIMSOXD
 70
     0
  9
$DIMSAH
 70
     0
  9
$DIMBLK1
  1

  9
$DIMBLK2
  1

  9
$DIMSTYLE
  2
STANDARD
  9
$DIMCLRD
 70
     0
  9
$DIMCLRE
 70
     0
  9
$DIMCLRT
 70
     0
  9
$DIMTFAC
 40
1.0
  9
$DIMGAP
 40
0.09
  9
$DIMJUST
 70
     0
  9
$DIMSD1
 70
     0
  9
$DIMSD2
 70
     0
  9
$DIMTOLJ
 70
     1
  9
$DIMTZIN
 70
     4
  9
$DIMALTZ
 70
     4
  9
$DIMALTTZ
 70
     4
  9
$DIMUPT
 70
     0
  9
$DIMDEC
 70
     3
  9
$DIMTDEC
 70
     3
  9
$DIMALTU
 70
     2
  9
$DIMALTTD
 70
     2
  9
$DIMTXSTY
  7
SIMPLEX
  9
$DIMAUNIT
 70
     0
  9
$DIMADEC
 70
     0
  9
$DIMALTRND
 40
0.0
  9
$DIMAZIN
 70
     0
  9
$DIMDSEP
 70
    46
  9
$DIMATFIT
 70
     3
  9
$DIMFRAC
 70
     0
  9
$DIMLDRBLK
  1

  9
$DIMLUNIT
 70
     2
  9
$DIMLWD
 70
    -2
  9
$DIMLWE
 70
    -2
  9
$DIMTMOVE
 70
     2
  9
$LUNITS
 70
     2
  9
$LUPREC
 70
     3
  9
$SKETCHINC
 40
0.1
  9
$FILLETRAD
 40
0.0
  9
$AUNITS
 70
     0
  9
$AUPREC
 70
     2
  9
$MENU
  1
ACAD
  9
$ELEVATION
 40
0.0
  9
$PELEVATION
 40
0.0
  9
$THICKNESS
 40
0.0
  9
$LIMCHECK
 70
     0
  9
$CHAMFERA
 40
0.0
  9
$CHAMFERB
 40
0.0
  9
$CHAMFERC
 40
0.0
  9
$CHAMFERD
 40
0.0
  9
$SKPOLY
 70
     0
  9
$TDCREATE
 40
2449051.539295139
  9
$TDUCREATE
 40
2449051.705961806
  9
$TDUPDATE
 40
2457155.493747709
  9
$TDUUPDATE
 40
2457155.660414375
  9
$TDINDWG
 40
0.1206846296
  9
$TDUSRTIMER
 40
0.1206846065
  9
$USRTIMER
 70
     1
  9
$ANGBASE
 50
0.0
  9
$ANGDIR
 70
     0
  9
$PDMODE
 70
     0
  9
$PDSIZE
 40
0.0
  9
$PLINEWID
 40
0.0
  9
$SPLFRAME
 70
     0
  9
$SPLINETYPE
 70
     6
  9
$SPLINESEGS
 70
     8
  9
$HANDSEED
  5
D9D
  9
$SURFTAB1
 70
     6
  9
$SURFTAB2
 70
     6
  9
$SURFTYPE
 70
     6
  9
$SURFU
 70
     6
  9
$SURFV
 70
     6
  9
$UCSBASE
  2

  9
$UCSNAME
  2

  9
$UCSORG
 10
0.0
 20
0.0
 30
0.0
  9
$UCSXDIR
 10
1.0
 20
0.0
 30
0.0
  9
$UCSYDIR
 10
0.0
 20
1.0
 30
0.0
  9
$UCSORTHOREF
  2

  9
$UCSORTHOVIEW
 70
     0
  9
$UCSORGTOP
 10
0.0
 20
0.0
 30
0.0
  9
$UCSORGBOTTOM
 10
0.0
 20
0.0
 30
0.0
  9
$UCSORGLEFT
 10
0.0
 20
0.0
 30
0.0
  9
$UCSORGRIGHT
 10
0.0
 20
0.0
 30
0.0
  9
$UCSORGFRONT
 10
0.0
 20
0.0
 30
0.0
  9
$UCSORGBACK
 10
0.0
 20
0.0
 30
0.0
  9
$PUCSBASE
  2

  9
$PUCSNAME
  2

  9
$PUCSORG
 10
0.0
 20
0.0
 30
0.0
  9
$PUCSXDIR
 10
1.0
 20
0.0
 30
0.0
  9
$PUCSYDIR
 10
0.0
 20
1.0
 30
0.0
  9
$PUCSORTHOREF
  2

  9
$PUCSORTHOVIEW
 70
     0
  9
$PUCSORGTOP
 10
0.0
 20
0.0
 30
0.0
  9
$PUCSORGBOTTOM
 10
0.0
 20
0.0
 30
0.0
  9
$PUCSORGLEFT
 10
0.0
 20
0.0
 30
0.0
  9
$PUCSORGRIGHT
 10
0.0
 20
0.0
 30
0.0
  9
$PUCSORGFRONT
 10
0.0
 20
0.0
 30
0.0
  9
$PUCSORGBACK
 10
0.0
 20
0.0
 30
0.0
  9
$USERI1
 70
     0
  9
$USERI2
 70
     0
  9
$USERI3
 70
     0
  9
$USERI4
 70
     0
  9
$USERI5
 70
     0
  9
$USERR1
 40
0.0
  9
$USERR2
 40
0.0
  9
$USERR3
 40
0.0
  9
$USERR4
 40
0.0
  9
$USERR5
 40
0.0
  9
$WORLDVIEW
 70
     1
  9
$SHADEDGE
 70
     3
  9
$SHADEDIF
 70
    70
  9
$TILEMODE
 70
     1
  9
$MAXACTVP
 70
    16
  9
$PINSBASE
 10
0.0
 20
0.0
 30
0.0
  9
$PLIMCHECK
 70
     0
  9
$PEXTMIN
 10
1.000000000000000E+20
 20
1.000000000000000E+20
 30
1.000000000000000E+20
  9
$PEXTMAX
 10
-1.000000000000000E+20
 20
-1.000000000000000E+20
 30
-1.000000000000000E+20
  9
$PLIMMIN
 10
0.0
 20
0.0
  9
$PLIMMAX
 10
12.0
 20
9.0
  9
$UNITMODE
 70
     0
  9
$VISRETAIN
 70
     0
  9
$PLINEGEN
 70
     0
  9
$PSLTSCALE
 70
     0
  9
$TREEDEPTH
 70
  3020
  9
$CMLSTYLE
  2
STANDARD
  9
$CMLJUST
 70
     0
  9
$CMLSCALE
 40
1.0
  9
$PROXYGRAPHICS
 70
     1
  9
$MEASUREMENT
 70
     0
  9
$CELWEIGHT
370
    -1
  9
$ENDCAPS
280
     0
  9
$JOINSTYLE
280
     0
  9
$LWDISPLAY
290
     0
  9
$INSUNITS
 70
     0
  9
$HYPERLINKBASE
  1

  9
$STYLESHEET
  1
BLK1500.CTB
  9
$XEDIT
290
     1
  9
$CEPSNTYPE
380
     0
  9
$PSTYLEMODE
290
     1
  9
$FINGERPRINTGUID
  2
{67D5110E-9328-11D6-8B45-00A0CCD630B6}
  9
$VERSIONGUID
  2
{DC51CF0A-EDFA-40A7-9522-92B971AA409E}
  9
$EXTNAMES
290
     1
  9
$PSVPSCALE
 40
0.0
  9
$OLESTARTUP
290
     0
  0
ENDSEC
  0
SECTION
  2
CLASSES
  0
CLASS
  1
DICTIONARYVAR
  2
AcDbDictionaryVar
  3
ObjectDBX Classes
 90
        0
280
     0
281
     0
  0
CLASS
  1
ACDBDICTIONARYWDFLT
  2
AcDbDictionaryWithDefault
  3
ObjectDBX Classes
 90
        0
280
     0
281
     0
  0
CLASS
  1
MATERIAL
  2
AcDbMaterial
  3
ObjectDBX Classes
 90
     1153
280
     0
281
     0
  0
CLASS
  1
VISUALSTYLE
  2
AcDbVisualStyle
  3
ObjectDBX Classes
 90
     4095
280
     0
281
     0
  0
CLASS
  1
TABLESTYLE
  2
AcDbTableStyle
  3
ObjectDBX Classes
 90
     4095
280
     0
281
     0
  0
CLASS
  1
SCALE
  2
AcDbScale
  3
ObjectDBX Classes
 90
     1153
280
     0
281
     0
  0
CLASS
  1
MLEADERSTYLE
  2
AcDbMLeaderStyle
  3
ACDB_MLEADERSTYLE_CLASS
 90
     4095
280
     0
281
     0
  0
CLASS
  1
ACDBSECTIONVIEWSTYLE
  2
AcDbSectionViewStyle
  3
ObjectDBX Classes
 90
     1025
280
     0
281
     0
  0
CLASS
  1
ACDBDETAILVIEWSTYLE
  2
AcDbDetailViewStyle
  3
ObjectDBX Classes
 90
     1025
280
     0
281
     0
  0
CLASS
  1
CELLSTYLEMAP
  2
AcDbCellStyleMap
  3
ObjectDBX Classes
 90
     1152
280
     0
281
     0
  0
CLASS
  1
ACDBPLACEHOLDER
  2
AcDbPlaceHolder
  3
ObjectDBX Classes
 90
        0
280
     0
281
     0
  0
CLASS
  1
LAYOUT
  2
AcDbLayout
  3
ObjectDBX Classes
 90
        0
280
     0
281
     0
  0
ENDSEC
  0
SECTION
  2
TABLES
  0
TABLE
  2
VPORT
  5
8
330
0
100
AcDbSymbolTable
 70
     1
  0
VPORT
  5
C58
330
8
100
AcDbSymbolTableRecord
100
AcDbViewportTableRecord
  2
*Active
 70
     0
 10
0.0
 20
0.0
 11
1.0
 21
1.0
 12
11.05000005145557
 22
9.126773752140252
 13
0.0
 23
0.0
 14
1.0
 24
1.0
 15
0.0
 25
0.0
 16
0.0
 26
0.0
 36
1.0
 17
0.0
 27
0.0
 37
0.0
 40
17.74835446347992
 41
2.080545229244113
 42
50.0
 43
0.0
 44
0.0
 50
0.0
 51
0.0
 71
     0
 72
   250
 73
     1
 74
     0
 75
     0
 76
     0
 77
     0
 78
     0
281
     0
 65
     1
110
0.0
120
0.0
130
0.0
111
1.0
121
0.0
131
0.0
112
0.0
122
1.0
132
0.0
 79
     0
146
0.0
1001
ACAD_NAV_VCDISPLAY
1070
     3
  0
ENDTAB
  0
TABLE
  2
LTYPE
  5
5
330
0
100
AcDbSymbolTable
 70
     3
  0
LTYPE
  5
11
330
5
100
AcDbSymbolTableRecord
100
AcDbLinetypeTableRecord
  2
BYBLOCK
 70
     0
  3

 72
    65
 73
     0
 40
0.0
  0
LTYPE
  5
12
330
5
100
AcDbSymbolTableRecord
100
AcDbLinetypeTableRecord
  2
BYLAYER
 70
     0
  3

 72
    65
 73
     0
 40
0.0
  0
LTYPE
  5
13
330
5
100
AcDbSymbolTableRecord
100
AcDbLinetypeTableRecord
  2
CONTINUOUS
 70
     0
  3
Solid line
 72
    65
 73
     0
 40
0.0
  0
LTYPE
  5
1F
330
5
100
AcDbSymbolTableRecord
100
AcDbLinetypeTableRecord
  2
CENTER
 70
     0
  3
____ _ ____ _ ____ _ ____ _ ____ _ ____ _ ____ 
 72
    65
 73
     4
 40
2.0
 49
1.25
 74
     0
 49
-0.25
 74
     0
 49
0.25
 74
     0
 49
-0.25
 74
     0
  0
LTYPE
  5
20
330
5
100
AcDbSymbolTableRecord
100
AcDbLinetypeTableRecord
  2
HIDDEN
 70
     0
  3
__ __ __ __ __ __ __ __ __ __ __ __ __ __ __ __
 72
    65
 73
     2
 40
0.375
 49
0.25
 74
     0
 49
-0.125
 74
     0
  0
ENDTAB
  0
TABLE
  2
LAYER
  5
2
102
{ACAD_XDICTIONARY
360
CDA
102
}
330
0
100
AcDbSymbolTable
 70
     9
  0
LAYER
  5
E
102
{ACAD_XDICTIONARY
360
CC7
102
}
330
2
100
AcDbSymbolTableRecord
100
AcDbLayerTableRecord
  2
0
 70
     0
 62
     7
  6
CONTINUOUS
370
    -3
390
B14
  0
LAYER
  5
23
102
{ACAD_XDICTIONARY
360
CC9
102
}
330
2
100
AcDbSymbolTableRecord
100
AcDbLayerTableRecord
  2
2
 70
     0
 62
     2
  6
CONTINUOUS
370
    -3
390
B14
  0
LAYER
  5
24
102
{ACAD_XDICTIONARY
360
CCB
102
}
330
2
100
AcDbSymbolTableRecord
100
AcDbLayerTableRecord
  2
3
 70
     0
 62
     3
  6
CONTINUOUS
370
    -3
390
B14
  0
LAYER
  5
25
102
{ACAD_XDICTIONARY
360
CCD
102
}
330
2
100
AcDbSymbolTableRecord
100
AcDbLayerTableRecord
  2
4
 70
     0
 62
     4
  6
CONTINUOUS
370
    -3
390
B14
  0
LAYER
  5
B1C
102
{ACAD_XDICTIONARY
360
CCF
102
}
330
2
100
AcDbSymbolTableRecord
100
AcDbLayerTableRecord
  2
OBJ
 70
     0
 62
     1
  6
CONTINUOUS
370
    -3
390
B14
  0
LAYER
  5
B1D
102
{ACAD_XDICTIONARY
360
CD1
102
}
330
2
100
AcDbSymbolTableRecord
100
AcDbLayerTableRecord
  2
CENTER
 70
     0
 62
     2
  6
CENTER
370
    -3
390
B14
  0
LAYER
  5
B1E
102
{ACAD_XDICTIONARY
360
CD3
102
}
330
2
100
AcDbSymbolTableRecord
100
AcDbLayerTableRecord
  2
HIDDEN
 70
     0
 62
     3
  6
HIDDEN
370
    -3
390
B14
  0
LAYER
  5
B1F
102
{ACAD_XDICTIONARY
360
CD5
102
}
330
2
100
AcDbSymbolTableRecord
100
AcDbLayerTableRecord
  2
DIM
 70
     0
 62
     4
  6
CONTINUOUS
370
    -3
390
B14
  0
LAYER
  5
B21
330
2
100
AcDbSymbolTableRecord
100
AcDbLayerTableRecord
  2
DEFPOINTS
 70
     0
 62
     7
  6
CONTINUOUS
290
     0
370
    -3
390
B14
  0
ENDTAB
  0
TABLE
  2
STYLE
  5
3
330
0
100
AcDbSymbolTable
 70
     3
  0
STYLE
  5
F
330
3
100
AcDbSymbolTableRecord
100
AcDbTextStyleTableRecord
  2
STANDARD
 70
     0
 40
0.0
 41
1.0
 50
0.0
 71
     0
 42
0.2
  3
txt
  4

  0
STYLE
  5
1C
330
3
100
AcDbSymbolTableRecord
100
AcDbTextStyleTableRecord
  2
SIMPLEX
 70
     0
 40
0.0
 41
1.0
 50
0.0
 71
     0
 42
0.078
  3
SIMPLEX.shx
  4

  0
STYLE
  5
1E
330
3
100
AcDbSymbolTableRecord
100
AcDbTextStyleTableRecord
  2
T
 70
     0
 40
0.0
 41
1.0
 50
0.0
 71
     0
 42
1.0
  3
ROMI____.PFB
  4

  0
ENDTAB
  0
TABLE
  2
VIEW
  5
6
330
0
100
AcDbSymbolTable
 70
     0
  0
ENDTAB
  0
TABLE
  2
UCS
  5
7
330
0
100
AcDbSymbolTable
 70
     0
  0
ENDTAB
  0
TABLE
  2
APPID
  5
9
330
0
100
AcDbSymbolTable
 70
     3
  0
APPID
  5
10
330
9
100
AcDbSymbolTableRecord
100
AcDbRegAppTableRecord
  2
ACAD
 70
     0
  0
APPID
  5
CE0
330
9
100
AcDbSymbolTableRecord
100
AcDbRegAppTableRecord
  2
ACAD_NAV_VCDISPLAY
 70
     0
  0
APPID
  5
D98
330
9
100
AcDbSymbolTableRecord
100
AcDbRegAppTableRecord
  2
ACAD_MLEADERVER
 70
     0
  0
ENDTAB
  0
TABLE
  2
DIMSTYLE
  5
A
330
0
100
AcDbSymbolTable
 70
     1
100
AcDbDimStyleTable
 71
     1
340
B05
  0
DIMSTYLE
105
B05
102
{ACAD_REACTORS
330
CAB
330
CB9
102
}
330
A
100
AcDbSymbolTableRecord
100
AcDbDimStyleTableRecord
  2
STANDARD
 70
     0
340
F
  0
ENDTAB
  0
TABLE
  2
BLOCK_RECORD
  5
1
330
0
100
AcDbSymbolTable
 70
     2
  0
BLOCK_RECORD
  5
17
330
1
100
AcDbSymbolTableRecord
100
AcDbBlockTableRecord
  2
*MODEL_SPACE
340
B17
  0
BLOCK_RECORD
  5
14
330
1
100
AcDbSymbolTableRecord
100
AcDbBlockTableRecord
  2
*PAPER_SPACE
340
B18
  0
BLOCK_RECORD
  5
CAC
330
1
100
AcDbSymbolTableRecord
100
AcDbBlockTableRecord
  2
*D0
340
0
  0
BLOCK_RECORD
  5
CBA
330
1
100
AcDbSymbolTableRecord
100
AcDbBlockTableRecord
  2
*D1
340
0
  0
ENDTAB
  0
ENDSEC
  0
SECTION
  2
BLOCKS
  0
BLOCK
  5
29
330
17
100
AcDbEntity
  8
0
100
AcDbBlockBegin
  2
*MODEL_SPACE
 70
     0
 10
0.0
 20
0.0
 30
0.0
  3
*MODEL_SPACE
  1

  0
ENDBLK
  5
2A
330
17
100
AcDbEntity
  8
0
100
AcDbBlockEnd
  0
BLOCK
  5
27
330
14
100
AcDbEntity
 67
     1
  8
0
100
AcDbBlockBegin
  2
*PAPER_SPACE
 70
     0
 10
0.0
 20
0.0
 30
0.0
  3
*PAPER_SPACE
  1

  0
ENDBLK
  5
28
330
14
100
AcDbEntity
 67
     1
  8
0
100
AcDbBlockEnd
  0
BLOCK
  5
CAD
330
CAC
100
AcDbEntity
  8
0
100
AcDbBlockBegin
  2
*D0
 70
     1
 10
0.0
 20
0.0
 30
0.0
  3
*D0
  1

  0
LINE
  5
CAF
330
CAC
100
AcDbEntity
  8
3
 62
     0
370
    -2
100
AcDbLine
 10
8.14650441716077
 20
14.96759854561601
 30
0.0
 11
4.746871184579336
 21
14.96759854561601
 31
0.0
  0
LINE
  5
CB0
330
CAC
100
AcDbEntity
  8
3
 62
     0
370
    -2
100
AcDbLine
 10
6.14650441716077
 20
4.342598545616013
 30
0.0
 11
4.746871184579331
 21
4.342598545616013
 31
0.0
  0
LINE
  5
CB1
330
CAC
100
AcDbEntity
  8
3
 62
     0
370
    -2
100
AcDbLine
 10
4.809371184579336
 20
14.84259854561601
 30
0.0
 11
4.809371184579334
 21
10.04271759323506
 31
0.0
  0
LINE
  5
CB2
330
CAC
100
AcDbEntity
  8
3
 62
     0
370
    -2
100
AcDbLine
 10
4.809371184579331
 20
4.467598545616012
 30
0.0
 11
4.809371184579334
 21
9.267479497996966
 31
0.0
  0
SOLID
  5
CB3
330
CAC
100
AcDbEntity
  8
3
 62
     0
100
AcDbTrace
 10
4.788537851246003
 20
14.84259854561601
 30
0.0
 11
4.830204517912669
 21
14.84259854561601
 31
0.0
 12
4.809371184579336
 22
14.96759854561601
 32
0.0
 13
4.809371184579336
 23
14.96759854561601
 33
0.0
  0
SOLID
  5
CB4
330
CAC
100
AcDbEntity
  8
3
 62
     0
100
AcDbTrace
 10
4.788537851245998
 20
4.467598545616012
 30
0.0
 11
4.830204517912664
 21
4.467598545616012
 31
0.0
 12
4.809371184579331
 22
4.342598545616013
 32
0.0
 13
4.809371184579331
 23
4.342598545616013
 33
0.0
  0
MTEXT
  5
CB5
330
CAC
100
AcDbEntity
  8
3
 62
     0
100
AcDbMText
 10
4.809371184579331
 20
9.655098545616015
 30
0.0
 40
0.125
 41
0.0
 71
     5
 72
     1
  1
\A1;10.625
  7
SIMPLEX
 11
0.0000000000000001
 21
1.0
 31
0.0
 73
     1
 44
1.0
1001
ACAD
1000
MTEXTBEGIN
1070
    73
1070
     1
1070
    44
1040
1.0
1070
    74
1070
     0
1000
MTEXTEND
  0
POINT
  5
CB6
330
CAC
100
AcDbEntity
  8
DEFPOINTS
 62
     0
100
AcDbPoint
 10
8.20900441716077
 20
14.96759854561601
 30
0.0
  0
POINT
  5
CB7
330
CAC
100
AcDbEntity
  8
DEFPOINTS
 62
     0
100
AcDbPoint
 10
6.20900441716077
 20
4.342598545616013
 30
0.0
  0
POINT
  5
CB8
330
CAC
100
AcDbEntity
  8
DEFPOINTS
 62
     0
100
AcDbPoint
 10
4.809371184579331
 20
4.342598545616013
 30
0.0
  0
ENDBLK
  5
CAE
330
CAC
100
AcDbEntity
  8
0
100
AcDbBlockEnd
  0
BLOCK
  5
CBB
330
CBA
100
AcDbEntity
  8
0
100
AcDbBlockBegin
  2
*D1
 70
     1
 10
0.0
 20
0.0
 30
0.0
  3
*D1
  1

  0
LINE
  5
CBD
330
CBA
100
AcDbEntity
  8
3
 62
     0
370
    -2
100
AcDbLine
 10
6.20900441716077
 20
4.280098545616013
 30
0.0
 11
6.20900441716077
 21
4.03047574150964
 31
0.0
  0
LINE
  5
CBE
330
CBA
100
AcDbEntity
  8
3
 62
     0
370
    -2
100
AcDbLine
 10
16.20900441716077
 20
4.280098545616013
 30
0.0
 11
16.20900441716077
 21
4.03047574150964
 31
0.0
  0
LINE
  5
CBF
330
CBA
100
AcDbEntity
  8
3
 62
     0
370
    -2
100
AcDbLine
 10
6.33400441716077
 20
4.09297574150964
 30
0.0
 11
10.82138536954172
 21
4.09297574150964
 31
0.0
  0
LINE
  5
CC0
330
CBA
100
AcDbEntity
  8
3
 62
     0
370
    -2
100
AcDbLine
 10
16.08400441716077
 20
4.09297574150964
 30
0.0
 11
11.59662346477982
 21
4.09297574150964
 31
0.0
  0
SOLID
  5
CC1
330
CBA
100
AcDbEntity
  8
3
 62
     0
100
AcDbTrace
 10
6.33400441716077
 20
4.113809074842973
 30
0.0
 11
6.33400441716077
 21
4.072142408176305
 31
0.0
 12
6.20900441716077
 22
4.09297574150964
 32
0.0
 13
6.20900441716077
 23
4.09297574150964
 33
0.0
  0
SOLID
  5
CC2
330
CBA
100
AcDbEntity
  8
3
 62
     0
100
AcDbTrace
 10
16.08400441716077
 20
4.113809074842973
 30
0.0
 11
16.08400441716077
 21
4.072142408176305
 31
0.0
 12
16.20900441716077
 22
4.09297574150964
 32
0.0
 13
16.20900441716077
 23
4.09297574150964
 33
0.0
  0
MTEXT
  5
CC3
330
CBA
100
AcDbEntity
  8
3
 62
     0
100
AcDbMText
 10
11.20900441716077
 20
4.09297574150964
 30
0.0
 40
0.125
 41
0.0
 71
     5
 72
     1
  1
\A1;10.000
  7
SIMPLEX
 73
     1
 44
1.0
1001
ACAD
1000
MTEXTBEGIN
1070
    73
1070
     1
1070
    44
1040
1.0
1070
    74
1070
     0
1000
MTEXTEND
  0
POINT
  5
CC4
330
CBA
100
AcDbEntity
  8
DEFPOINTS
 62
     0
100
AcDbPoint
 10
6.20900441716077
 20
4.342598545616013
 30
0.0
  0
POINT
  5
CC5
330
CBA
100
AcDbEntity
  8
DEFPOINTS
 62
     0
100
AcDbPoint
 10
16.20900441716077
 20
4.342598545616013
 30
0.0
  0
POINT
  5
CC6
330
CBA
100
AcDbEntity
  8
DEFPOINTS
 62
     0
100
AcDbPoint
 10
16.20900441716077
 20
4.09297574150964
 30
0.0
  0
ENDBLK
  5
CBC
330
CBA
100
AcDbEntity
  8
0
100
AcDbBlockEnd
  0
ENDSEC
  0
SECTION
  2
ENTITIES
  0
LINE
  5
2D
330
17
100
AcDbEntity
  8
0
100
AcDbLine
 10
10.06185508099067
 20
3.163045964277038
 30
0.0
 11
12.09381483455096
 21
3.163045964277038
 31
0.0
  0
LINE
  5
2E
330
17
100
AcDbEntity
  8
0
100
AcDbLine
 10
10.06185508099067
 20
3.397502858918576
 30
0.0
 11
12.09381483455096
 21
3.397502858918576
 31
0.0
  0
TEXT
  5
2F
330
17
100
AcDbEntity
  8
3
100
AcDbText
 10
10.12299637918419
 20
3.234021522969547
 30
0.0
 40
0.0990742219853884
  1
DIMENSIONS ARE IN INCHES
 41
0.9163641132346459
  7
SIMPLEX
 72
     5
 11
12.0295456722393
 21
3.234021522969547
 31
0.0
100
AcDbText
  0
TEXT
  5
31
330
17
100
AcDbEntity
  8
3
100
AcDbText
 10
10.12299637918419
 20
3.474489422495885
 30
0.0
 40
0.0990742219853884
  1
UNLESS OTHERWISE SPECIFIED
 41
0.8436671689696849
  7
SIMPLEX
 72
     5
 11
12.0295456722393
 21
3.474489422495885
 31
0.0
100
AcDbText
  0
LINE
  5
32
330
17
100
AcDbEntity
  8
0
100
AcDbLine
 10
10.06185508099067
 20
1.881460857912948
 30
0.0
 11
12.09381483455096
 21
1.881460857912948
 31
0.0
  0
LINE
  5
33
330
17
100
AcDbEntity
  8
0
100
AcDbLine
 10
10.06185508099067
 20
3.632001399999913
 30
0.0
 11
20.35
 21
3.632001399999913
 31
0.0
  0
LINE
  5
36
330
17
100
AcDbEntity
  8
4
100
AcDbLine
 10
22.1
 20
-0.0000000000000027
 30
0.0
 11
0.0
 21
0.0
 31
0.0
  0
LINE
  5
37
330
17
100
AcDbEntity
  8
4
100
AcDbLine
 10
20.35
 20
1.599999999999995
 30
0.0
 11
1.75
 21
1.599999999999999
 31
0.0
  0
LINE
  5
38
330
17
100
AcDbEntity
  8
4
100
AcDbLine
 10
20.35
 20
15.4
 30
0.0
 11
1.75
 21
15.4
 31
0.0
  0
LINE
  5
39
330
17
100
AcDbEntity
  8
4
100
AcDbLine
 10
0.0
 20
0.0
 30
0.0
 11
0.0000000000000004
 21
17.0
 31
0.0
  0
LINE
  5
3A
330
17
100
AcDbEntity
  8
4
100
AcDbLine
 10
1.75
 20
1.599999999999999
 30
0.0
 11
1.75
 21
15.4
 31
0.0
  0
LINE
  5
3F
330
17
100
AcDbEntity
  8
3
100
AcDbLine
 10
1.999016494524205
 20
3.943749999999998
 30
0.0
 11
1.75
 21
3.943749999999998
 31
0.0
  0
TEXT
  5
40
330
17
100
AcDbEntity
  8
2
100
AcDbText
 10
1.806250732409323
 20
5.309018063230045
 30
0.0
 40
0.156
  1
4
  7
SIMPLEX
 72
     1
 11
1.861965018123609
 21
5.309018063230045
 31
0.0
100
AcDbText
  0
LINE
  5
41
330
17
100
AcDbEntity
  8
3
100
AcDbLine
 10
1.999016494524205
 20
6.807812499999998
 30
0.0
 11
1.75
 21
6.807812499999998
 31
0.0
  0
TEXT
  5
42
330
17
100
AcDbEntity
  8
2
100
AcDbText
 10
1.809965018123604
 20
8.061148463547132
 30
0.0
 40
0.156
  1
3
  7
SIMPLEX
 72
     1
 11
1.861965018123605
 21
8.061148463547132
 31
0.0
100
AcDbText
  0
LINE
  5
43
330
17
100
AcDbEntity
  8
4
100
AcDbLine
 10
10.06185508099067
 20
3.944616999999912
 30
0.0
 11
10.06185508099067
 21
1.59999999999991
 31
0.0
  0
TEXT
  5
4F
330
17
100
AcDbEntity
  8
3
100
AcDbText
 10
10.41458014902465
 20
1.935161228747698
 30
0.0
 40
0.1236393780336343
  1
HOLES %%P .005
  7
SIMPLEX
 72
     1
 11
11.08576534406438
 21
1.935161228747698
 31
0.0
100
AcDbText
  0
TEXT
  5
50
330
17
100
AcDbEntity
  8
3
100
AcDbText
 10
10.59590177889654
 20
1.756030017147535
 30
0.0
 40
0.0840747770628713
  1
DO NOT SCALE
  7
SIMPLEX
 72
     1
 11
11.06832195477363
 21
1.756030017147535
 31
0.0
100
AcDbText
  0
TEXT
  5
51
330
17
100
AcDbEntity
  8
3
100
AcDbText
 10
10.52383768427122
 20
1.63624424789538
 30
0.0
 40
0.0840747770628713
  1
READ ALL NOTES
  7
SIMPLEX
 72
     1
 11
11.06832195477363
 21
1.63624424789538
 31
0.0
100
AcDbText
  0
TEXT
  5
52
330
17
100
AcDbEntity
  8
3
100
AcDbText
 10
10.5117253746225
 20
2.975094398511647
 30
0.0
 40
0.1236393780336343
  1
TOLERANCES
  7
SIMPLEX
 72
     1
 11
11.08576534406438
 21
2.975094398511647
 31
0.0
100
AcDbText
  0
TEXT
  5
53
330
17
100
AcDbEntity
  8
3
100
AcDbText
 10
10.57354506363932
 20
2.782974106692659
 30
0.0
 40
0.1236393780336343
  1
.XX %%P .010
  7
SIMPLEX
 72
     1
 11
11.08576534406438
 21
2.782974106692659
 31
0.0
100
AcDbText
  0
TEXT
  5
54
330
17
100
AcDbEntity
  8
3
100
AcDbText
 10
10.42929912260008
 20
2.571020887206397
 30
0.0
 40
0.1236393780336343
  1
.XXX %%P .005 
  7
SIMPLEX
 72
     1
 11
11.08576534406438
 21
2.571020887206397
 31
0.0
100
AcDbText
  0
TEXT
  5
55
330
17
100
AcDbEntity
  8
3
100
AcDbText
 10
10.35864804943801
 20
2.147114448233959
 30
0.0
 40
0.1236393780336343
  1
ANGLES %%P 1/2%%D
  7
SIMPLEX
 72
     1
 11
11.08576534406438
 21
2.147114448233959
 31
0.0
100
AcDbText
  0
TEXT
  5
56
330
17
100
AcDbEntity
  8
3
100
AcDbText
 10
10.17907657181773
 20
2.35906766772022
 30
0.0
 40
0.1236393780336343
  1
FRACTIONS %%P 1/32
  7
SIMPLEX
 72
     1
 11
11.08576534406438
 21
2.35906766772022
 31
0.0
100
AcDbText
  0
LINE
  5
59
330
17
100
AcDbEntity
  8
3
100
AcDbLine
 10
1.999016494524205
 20
9.671875
 30
0.0
 11
1.75
 21
9.671875
 31
0.0
  0
TEXT
  5
5A
330
17
100
AcDbEntity
  8
2
100
AcDbText
 10
1.831139211287503
 20
10.91504263714998
 30
0.0
 40
0.156
  1
2
  7
SIMPLEX
 72
     1
 11
1.883139211287503
 21
10.91504263714998
 31
0.0
100
AcDbText
  0
LINE
  5
5B
330
17
100
AcDbEntity
  8
3
100
AcDbLine
 10
1.999016494524205
 20
12.5359375
 30
0.0
 11
1.75
 21
12.5359375
 31
0.0
  0
TEXT
  5
5C
330
17
100
AcDbEntity
  8
2
100
AcDbText
 10
1.84339358955218
 20
13.7921637479308
 30
0.0
 40
0.156
  1
1
  7
SIMPLEX
 72
     1
 11
1.861965018123609
 21
13.7921637479308
 31
0.0
100
AcDbText
  0
TEXT
  5
5D
330
17
100
AcDbEntity
  8
2
100
AcDbText
 10
3.693208238985425
 20
15.14511803904082
 30
0.0
 40
0.156
  1
A
  7
SIMPLEX
 72
     1
 11
3.752636810413997
 21
15.14511803904082
 31
0.0
100
AcDbText
  0
LINE
  5
5E
330
17
100
AcDbEntity
  8
3
100
AcDbLine
 10
5.264039514021766
 20
15.15025244921216
 30
0.0
 11
5.264039514021766
 21
15.4
 31
0.0
  0
TEXT
  5
5F
330
17
100
AcDbEntity
  8
2
100
AcDbText
 10
6.739280524403557
 20
15.14511803904082
 30
0.0
 40
0.156
  1
B
  7
SIMPLEX
 72
     1
 11
6.791280524403557
 21
15.14511803904082
 31
0.0
100
AcDbText
  0
LINE
  5
60
330
17
100
AcDbEntity
  8
3
100
AcDbLine
 10
8.28123161121741
 20
15.15025244921216
 30
0.0
 11
8.28123161121741
 21
15.4
 31
0.0
  0
TEXT
  5
61
330
17
100
AcDbEntity
  8
2
100
AcDbText
 10
9.686766968103587
 20
15.14511803904082
 30
0.0
 40
0.156
  1
C
  7
SIMPLEX
 72
     1
 11
9.742481253817873
 21
15.14511803904082
 31
0.0
100
AcDbText
  0
LINE
  5
62
330
17
100
AcDbEntity
  8
3
100
AcDbLine
 10
11.29842370841305
 20
15.15025244921216
 30
0.0
 11
11.29842370841305
 21
15.4
 31
0.0
  0
LINE
  5
63
330
17
100
AcDbEntity
  8
4
100
AcDbLine
 10
22.09999999999999
 20
17.0
 30
0.0
 11
22.1
 21
-0.0000000000000027
 31
0.0
  0
LINE
  5
64
330
17
100
AcDbEntity
  8
4
100
AcDbLine
 10
20.35
 20
15.4
 30
0.0
 11
20.35
 21
1.6
 31
0.0
  0
TEXT
  5
65
330
17
100
AcDbEntity
  8
4
100
AcDbText
 10
18.77157383827758
 20
3.154739855979533
 30
0.0
 40
0.188
  1
inc., erie, pa.
  7
T
100
AcDbText
  0
TEXT
  5
67
330
17
100
AcDbEntity
  8
3
100
AcDbText
 10
19.20988819379656
 20
2.312278887805061
 30
0.0
 40
0.0781522982138528
  1
SCALE:
  7
SIMPLEX
100
AcDbText
  0
TEXT
  5
68
330
17
100
AcDbEntity
  8
3
100
AcDbText
 10
18.10391903699231
 20
1.717904679869013
 30
0.0
 40
0.1750611479990302
  1
3502.00
  7
SIMPLEX
 72
     1
 11
18.62076623584659
 21
1.717904679869013
 31
0.0
100
AcDbText
  0
LINE
  5
69
330
17
100
AcDbEntity
  8
0
100
AcDbLine
 10
17.5469693905078
 20
2.177674272979743
 30
0.0
 11
20.35
 21
2.177674272979743
 31
0.0
  0
LINE
  5
6A
330
17
100
AcDbEntity
  8
0
100
AcDbLine
 10
12.09381483455088
 20
3.013702094781776
 30
0.0
 11
20.35
 21
3.013702094781776
 31
0.0
  0
LINE
  5
6B
330
17
100
AcDbEntity
  8
0
100
AcDbLine
 10
12.09381483455088
 20
2.537827578566155
 30
0.0
 11
20.35
 21
2.537827578566155
 31
0.0
  0
LWPOLYLINE
  5
6C
330
17
100
AcDbEntity
  8
4
  6
Continuous
 62
     4
100
AcDbPolyline
 90
      205
 70
     0
 43
0.0
 10
18.6271595587393
 20
3.422878332179795
 10
18.61934955466399
 20
3.430977595665281
 10
18.61096103176815
 20
3.438209080920238
 10
18.6014154712317
 20
3.444572787944573
 10
18.59129139187469
 20
3.450357976148553
 10
18.58058879369745
 20
3.454986126711736
 10
18.56959693610984
 20
3.458746499044303
 10
18.55802655970197
 20
3.461639093146251
 10
18.54616692388391
 20
3.463663909017663
 10
18.5340180286556
 20
3.464531687248285
 10
18.52186913342728
 20
3.464820946658461
 10
18.50972023819897
 20
3.464242427838106
 10
18.49757134297065
 20
3.46250687137687
 10
18.48571170715251
 20
3.4599035366851
 10
18.47414133074455
 20
3.456432423762711
 10
18.46314947315711
 20
3.45209353260979
 10
18.45244687497969
 20
3.446886863226165
 10
18.4443476114942
 20
3.441969453252801
 10
18.43682686682908
 20
3.436473524459084
 10
18.42959538157412
 20
3.430688336255105
 10
18.42294241513952
 20
3.424324629230768
 10
18.41657870811527
 20
3.417382403385991
 10
18.4107935199112
 20
3.409861658720861
 10
18.40529759111749
 20
3.402340914055728
 10
18.4006694405543
 20
3.394241650570156
 10
18.39633054940138
 20
3.385853127674406
 10
18.39257017706881
 20
3.377175345368478
 10
18.38967758296687
 20
3.368497563062548
 10
18.38736350768527
 20
3.359530521346443
 10
18.38562795122403
 20
3.350274220220075
 10
18.38447091358323
 20
3.341017919093791
 10
18.38418165417306
 20
3.331761617967423
 10
18.38476017299351
 20
3.32250531684114
 10
18.38504943240367
 20
3.317587906867778
 10
18.38562795122403
 20
3.312959756304595
 10
18.38620647004439
 20
3.308042346331232
 10
18.38736350768527
 20
3.303414195768048
 10
18.38909906414642
 20
3.299075304615042
 10
18.39112388001776
 20
3.295025672872299
 10
18.39430573352996
 20
3.291843819360088
 10
18.39806610586253
 20
3.289529744078581
 10
18.39980166232377
 20
3.288661965847961
 10
18.40153721878492
 20
3.288083447027521
 10
18.40356203465634
 20
3.288083447027521
 10
18.40529759111749
 20
3.288083447027521
 10
18.4073224069889
 20
3.288083447027521
 10
18.40934722286031
 20
3.288372706437785
 10
18.4116612981419
 20
3.28895122525814
 10
18.41426463283367
 20
3.289240484668316
 10
18.50017467766242
 20
3.304281973998667
 10
18.50393504999499
 20
3.304860492819021
 10
18.50798468173773
 20
3.305149752229198
 10
18.51174505407038
 20
3.305728271049641
 10
18.51579468581304
 20
3.305728271049641
 10
18.51955505814569
 20
3.306017530459818
 10
18.52360468988844
 20
3.306017530459818
 10
18.52736506222101
 20
3.305728271049641
 10
18.53141469396383
 20
3.305439011639462
 10
18.5351750662963
 20
3.305149752229198
 10
18.53922469803914
 20
3.304571233408845
 10
18.54298507037171
 20
3.303992714588403
 10
18.54674544270427
 20
3.303124936357868
 10
18.55050581503684
 20
3.302257158127251
 10
18.5542661873694
 20
3.301389379896633
 10
18.55802655970197
 20
3.300232342255835
 10
18.56149767262436
 20
3.298786045204863
 10
18.57017545493037
 20
3.29415789464168
 10
18.57740694018524
 20
3.287794187617341
 10
18.58261360956887
 20
3.280273442952212
 10
18.58637398190134
 20
3.271595660646285
 10
18.58839879777277
 20
3.262628618930178
 10
18.58868805718294
 20
3.253083058393633
 10
18.58753101954222
 20
3.243537497857086
 10
18.5846384254402
 20
3.233991937320538
 10
18.58174583133816
 20
3.227917489706381
 10
18.57856397782603
 20
3.222132301502401
 10
18.57451434608321
 20
3.216925632118861
 10
18.57017545493037
 20
3.212008222145497
 10
18.56554730436719
 20
3.207380071582313
 10
18.56034063498357
 20
3.203330439839571
 10
18.55455544677958
 20
3.199859326917183
 10
18.54877025857568
 20
3.196677473405058
 10
18.54269581096152
 20
3.194074138713203
 10
18.53662136334737
 20
3.192338582252051
 10
18.52996839691277
 20
3.190892285201078
 10
18.52360468988844
 20
3.190024506970459
 10
18.5172409828641
 20
3.189735247560281
 10
18.5105880164295
 20
3.190313766380636
 10
18.50422430940517
 20
3.191470804021431
 10
18.49786060238082
 20
3.193495619892846
 10
18.49265393299728
 20
3.195520435764263
 10
18.48773652302393
 20
3.197834511045768
 10
18.48281911305057
 20
3.200148586327362
 10
18.47819096248738
 20
3.203041180429393
 10
18.4735628119242
 20
3.205933774531341
 10
18.4692239207712
 20
3.209115628043551
 10
18.46517428902853
 20
3.212586740965939
 10
18.46083539787552
 20
3.216347113298505
 10
18.45707502554287
 20
3.220107485631071
 10
18.4533146532104
 20
3.223867857963638
 10
18.44955428087773
 20
3.227917489706381
 10
18.44608316795544
 20
3.232256380859388
 10
18.44261205503297
 20
3.236595272012309
 10
18.43943020152084
 20
3.240934163165317
 10
18.43624834800872
 20
3.245273054318236
 10
18.43335575390669
 20
3.249901204881421
 10
18.36451201427962
 20
3.216347113298505
 10
18.37000794307333
 20
3.207380071582313
 10
18.37637165009767
 20
3.198991548686564
 10
18.38331387594244
 20
3.191181544611255
 10
18.39083462060758
 20
3.184239318766478
 10
18.39893388409315
 20
3.177586352331966
 10
18.40761166639907
 20
3.171801164127986
 10
18.41686796752545
 20
3.166594494744446
 10
18.42612426865172
 20
3.162255603591439
 10
18.43595908859853
 20
3.158495231258873
 10
18.44608316795544
 20
3.155313377746747
 10
18.45649650672252
 20
3.152999302465156
 10
18.4669098454896
 20
3.151553005414181
 10
18.47732318425676
 20
3.150685227183563
 10
18.48773652302393
 20
3.150685227183563
 10
18.49814986179101
 20
3.151263746003917
 10
18.50856320055808
 20
3.152999302465156
 10
18.51897653932534
 20
3.155313377746747
 10
18.52910061868224
 20
3.158784490669049
 10
18.53864617921878
 20
3.162834122411878
 10
18.54819173975523
 20
3.16775153238524
 10
18.55715878147135
 20
3.173536720589221
 10
18.56583656377736
 20
3.179900427613558
 10
18.57364656785267
 20
3.186842653458247
 10
18.5811673125178
 20
3.194363398123464
 10
18.58810953836258
 20
3.202462661608953
 10
18.59418398597673
 20
3.21114044391488
 10
18.59967991477055
 20
3.220107485631071
 10
18.60459732474382
 20
3.229653046167618
 10
18.60835769707638
 20
3.239487866114343
 10
18.61153955058859
 20
3.249611945471243
 10
18.61385362587019
 20
3.260025284238322
 10
18.61501066351098
 20
3.270438623005486
 10
18.61558918233134
 20
3.278537886491061
 10
18.61529992292116
 20
3.286637149976546
 10
18.61443214469063
 20
3.29473641346212
 10
18.61298584763957
 20
3.302546417537431
 10
18.61067177235798
 20
3.310356421612826
 10
18.60777917825603
 20
3.317877166277955
 10
18.60430806533365
 20
3.325108651532908
 10
18.59996917418072
 20
3.332050877377601
 10
18.59649806125824
 20
3.336389768530607
 10
18.59273768892576
 20
3.340728659683531
 10
18.58868805718294
 20
3.344489032016181
 10
18.58434916603002
 20
3.347670885528306
 10
18.57943175605657
 20
3.350852739040517
 10
18.57451434608321
 20
3.353745333142464
 10
18.56930767669967
 20
3.356059408424056
 10
18.56410100731612
 20
3.358373483705648
 10
18.55860507852241
 20
3.360109040166798
 10
18.5531091497286
 20
3.361844596628037
 10
18.54732396152463
 20
3.363290893679009
 10
18.54153877332073
 20
3.364447931319805
 10
18.53575358511674
 20
3.365315709550424
 10
18.52996839691277
 20
3.365894228370778
 10
18.52418320870888
 20
3.366472747191133
 10
18.51868727991508
 20
3.366762006601399
 10
18.51521616699269
 20
3.366762006601399
 10
18.51145579466012
 20
3.366762006601399
 10
18.50798468173773
 20
3.366762006601399
 10
18.50451356881543
 20
3.366472747191133
 10
18.50104245589296
 20
3.366183487780957
 10
18.49757134297065
 20
3.365894228370778
 10
18.49410023004827
 20
3.365604968960602
 10
18.49062911712588
 20
3.36502645014016
 10
18.48686874479331
 20
3.364447931319805
 10
18.48339763187092
 20
3.363869412499365
 10
18.47992651894854
 20
3.363290893679009
 10
18.47645540602615
 20
3.363001634268832
 10
18.47298429310384
 20
3.362423115448391
 10
18.46951318018145
 20
3.361844596628037
 10
18.46575280784889
 20
3.361266077807596
 10
18.4622816949265
 20
3.36068755898724
 10
18.41050426050102
 20
3.347960144938482
 10
18.40963648227049
 20
3.352877554911845
 10
18.41021500109085
 20
3.360398299577062
 10
18.41195055755209
 20
3.369654600703346
 10
18.41542167047439
 20
3.380067939470508
 10
18.41976056162739
 20
3.390481278237588
 10
18.42554574983137
 20
3.400316098184315
 10
18.43248797567607
 20
3.408415361669888
 10
18.44029797975146
 20
3.414489809284045
 10
18.44724020559615
 20
3.41767166279617
 10
18.45447169085111
 20
3.420274997488023
 10
18.46199243551623
 20
3.421721294538997
 10
18.46980243959164
 20
3.422878332179795
 10
18.47761244366703
 20
3.423167591589971
 10
18.48571170715251
 20
3.422589072769531
 10
18.49352171122783
 20
3.421721294538997
 10
18.50133171530321
 20
3.41998573807776
 10
18.50914171937853
 20
3.41767166279617
 10
18.51637320463348
 20
3.414779068694222
 10
18.52331543047817
 20
3.411307955771834
 10
18.52996839691277
 20
3.407547583439267
 10
18.53604284452692
 20
3.403208692286348
 10
18.5418280327309
 20
3.398291282312984
 10
18.54674544270427
 20
3.393084612929359
 10
18.55079507444709
 20
3.387588684135645
 10
18.6271595587393
 20
3.422878332179795
  0
LWPOLYLINE
  5
13B
330
17
100
AcDbEntity
  8
4
  6
Continuous
100
AcDbPolyline
 90
       21
 70
     0
 43
0.0
 10
17.82757086735773
 20
3.395687947621129
 10
17.82670308912703
 20
3.386720905905023
 10
17.82409975443526
 20
3.378332383009276
 10
17.82005012269251
 20
3.371100897754318
 10
17.81455419389871
 20
3.364737190729984
 10
17.80790122746428
 20
3.359530521346443
 10
17.80038048279907
 20
3.35577014901388
 10
17.79228121931349
 20
3.353456073732283
 10
17.78360343700765
 20
3.352588295501667
 10
17.72546229555784
 20
3.352588295501667
 10
17.72546229555784
 20
3.426927963922538
 10
17.7193878479436
 20
3.44110167502227
 10
17.78447121523818
 20
3.44110167502227
 10
17.79343825695437
 20
3.440233896791651
 10
17.80153752043986
 20
3.437630562099881
 10
17.80876900569481
 20
3.433580930357051
 10
17.81513271271923
 20
3.428085001563335
 10
17.82033938210278
 20
3.421142775718557
 10
17.82409975443526
 20
3.413622031053426
 10
17.82670308912703
 20
3.404944248747497
 10
17.82757086735773
 20
3.395687947621129
  0
LWPOLYLINE
  5
152
330
17
100
AcDbEntity
  8
4
  6
Continuous
100
AcDbPolyline
 90
       61
 70
     0
 43
0.0
 10
17.82901716440862
 20
3.330315320916451
 10
17.83740568730445
 20
3.330893839736805
 10
17.84550495078994
 20
3.332050877377601
 10
17.85273643604489
 20
3.33378643383884
 10
17.85938940247941
 20
3.33610050912043
 10
17.86517459068339
 20
3.338993103222378
 10
17.87067051947711
 20
3.342174956734588
 10
17.87558792945047
 20
3.345935329067153
 10
17.87992682060348
 20
3.350274220220075
 10
17.88368719293613
 20
3.354902370783261
 10
17.88686904644825
 20
3.359819780756623
 10
17.88947238114003
 20
3.36502645014016
 10
17.89149719701144
 20
3.370811638344143
 10
17.89323275347259
 20
3.376596826548122
 10
17.89438979111339
 20
3.382671274162278
 10
17.89496830993374
 20
3.389034981186616
 10
17.895257569344
 20
3.395687947621129
 10
17.89496830993374
 20
3.401762395235286
 10
17.89381127229303
 20
3.407836842849446
 10
17.89236497524196
 20
3.413622031053426
 10
17.89005089996038
 20
3.419407219257408
 10
17.88744756526861
 20
3.424903148051123
 10
17.8839764523463
 20
3.43010981743475
 10
17.88050533942383
 20
3.435027227408111
 10
17.87616644827091
 20
3.439655377971211
 10
17.87182755711799
 20
3.44370500971404
 10
17.86691014714462
 20
3.447465382046603
 10
17.86170347776109
 20
3.450647235558731
 10
17.85620754896728
 20
3.453539829660763
 10
17.85071162017348
 20
3.455853904942355
 10
17.84492643196959
 20
3.457300201993328
 10
17.83885198435533
 20
3.458457239634126
 10
17.83277753674127
 20
3.458746499044303
 10
17.63000669019254
 20
3.458746499044303
 10
17.63289928429449
 20
3.456432423762711
 10
17.63550261898626
 20
3.454118348481117
 10
17.63810595367803
 20
3.451515013789346
 10
17.64042002895963
 20
3.449200938507756
 10
17.64273410424123
 20
3.446886863226165
 10
17.6450481795228
 20
3.443994269124218
 10
17.64707299539422
 20
3.44110167502227
 10
17.64909781126555
 20
3.437630562099881
 10
17.65199040536758
 20
3.431266855075544
 10
17.65430448064918
 20
3.423746110410327
 10
17.65575077770007
 20
3.416514625155373
 10
17.65632929652051
 20
3.410729436951478
 10
17.65661855593077
 20
3.150685227183563
 10
17.72633007378837
 20
3.211718962735321
 10
17.72633007378837
 20
3.332340136787866
 10
17.75699157126943
 20
3.332629396198042
 10
17.86141421835082
 20
3.159652268899669
 10
17.95137389492231
 20
3.159073750079314
 10
17.9458779661286
 20
3.162255603591439
 10
17.94038203733488
 20
3.166015975924006
 10
17.93517536795134
 20
3.169776348256656
 10
17.93025795797798
 20
3.174115239409576
 10
17.92534054800462
 20
3.178164871152318
 10
17.92071239744143
 20
3.182793021715506
 10
17.91608424687825
 20
3.187421172278689
 10
17.91145609631506
 20
3.192338582252051
 10
17.82901716440862
 20
3.330315320916451
  0
LWPOLYLINE
  5
191
330
17
100
AcDbEntity
  8
4
  6
Continuous
100
AcDbPolyline
 90
      205
 70
     0
 43
0.0
 10
17.30291268297088
 20
3.424903148051123
 10
17.29510267889557
 20
3.433002411536698
 10
17.28671415599981
 20
3.440523156201828
 10
17.27716859546326
 20
3.446886863226165
 10
17.26704451610636
 20
3.452382792019967
 10
17.25634191792902
 20
3.457010942583153
 10
17.24535006034151
 20
3.460771314915715
 10
17.23349042452345
 20
3.463663909017663
 10
17.22163078870532
 20
3.465688724889078
 10
17.20977115288717
 20
3.466845762529876
 10
17.19762225765886
 20
3.467135021940053
 10
17.18518410302037
 20
3.466267243709435
 10
17.17332446720223
 20
3.464820946658461
 10
17.16146483138409
 20
3.462217611966691
 10
17.14989445497621
 20
3.458746499044303
 10
17.1389025973887
 20
3.454118348481117
 10
17.12819999921144
 20
3.448911679097578
 10
17.12010073572578
 20
3.443994269124218
 10
17.11257999106065
 20
3.438787599740678
 10
17.10534850580569
 20
3.43271315212652
 10
17.09869553937117
 20
3.426349445102183
 10
17.09233183234684
 20
3.419407219257408
 10
17.08654664414295
 20
3.412175734002452
 10
17.08133997475932
 20
3.404365729927143
 10
17.07642256478596
 20
3.39626646644157
 10
17.07237293304321
 20
3.388167202955997
 10
17.06861256071057
 20
3.379489420650068
 10
17.06571996660862
 20
3.370522378933966
 10
17.06340589132702
 20
3.361555337217859
 10
17.06167033486587
 20
3.352588295501667
 10
17.06080255663526
 20
3.343331994375386
 10
17.0602240378149
 20
3.33378643383884
 10
17.06080255663526
 20
3.324530132712468
 10
17.06109181604543
 20
3.319901982149286
 10
17.06167033486587
 20
3.314984572175923
 10
17.06224885368631
 20
3.310356421612826
 10
17.06340589132702
 20
3.305728271049641
 10
17.06485218837809
 20
3.301389379896633
 10
17.06716626365968
 20
3.297339748153888
 10
17.07005885776163
 20
3.29415789464168
 10
17.07381923009419
 20
3.291843819360088
 10
17.07555478655534
 20
3.290976041129554
 10
17.07729034301658
 20
3.290397522309113
 10
17.07931515888799
 20
3.290108262898936
 10
17.08105071534905
 20
3.290108262898936
 10
17.08307553122048
 20
3.290397522309113
 10
17.08510034709189
 20
3.290397522309113
 10
17.08712516296331
 20
3.290976041129554
 10
17.08972849765507
 20
3.291265300539731
 10
17.17563854248381
 20
3.306306789869996
 10
17.17939891481647
 20
3.306885308690435
 10
17.18344854655913
 20
3.307463827510792
 10
17.18720891889178
 20
3.307753086920969
 10
17.19125855063453
 20
3.308042346331232
 10
17.19501892296708
 20
3.308042346331232
 10
17.19906855470991
 20
3.308042346331232
 10
17.2028289270424
 20
3.308042346331232
 10
17.20687855878523
 20
3.307753086920969
 10
17.21063893111771
 20
3.307463827510792
 10
17.21468856286054
 20
3.306885308690435
 10
17.2184489351931
 20
3.306306789869996
 10
17.22220930752567
 20
3.305439011639462
 10
17.2262589392685
 20
3.304571233408845
 10
17.23001931160106
 20
3.303414195768048
 10
17.23349042452345
 20
3.302257158127251
 10
17.23725079685593
 20
3.300810861076278
 10
17.24592857916195
 20
3.296182710513093
 10
17.25287080500673
 20
3.289819003488758
 10
17.25836673380043
 20
3.282298258823626
 10
17.26183784672275
 20
3.273909735927876
 10
17.26386266259416
 20
3.264653434801506
 10
17.2644411814146
 20
3.255107874264961
 10
17.26328414377381
 20
3.245562313728501
 10
17.26039154967186
 20
3.236306012602131
 10
17.2574989555699
 20
3.230231564987973
 10
17.25431710205761
 20
3.224446376783993
 10
17.25026747031495
 20
3.219239707400453
 10
17.24592857916195
 20
3.214322297427091
 10
17.24101116918859
 20
3.209694146863907
 10
17.23580449980505
 20
3.205644515121162
 10
17.23030857101124
 20
3.202173402198773
 10
17.22452338280726
 20
3.198991548686564
 10
17.2184489351931
 20
3.196388213994795
 10
17.21208522816876
 20
3.194363398123464
 10
17.20572152114443
 20
3.192917101072406
 10
17.1993578141201
 20
3.192338582252051
 10
17.1927048476855
 20
3.192049322841873
 10
17.1860518812509
 20
3.192627841662228
 10
17.17968817422665
 20
3.193784879303025
 10
17.17332446720223
 20
3.195520435764263
 10
17.16811779781869
 20
3.197545251635589
 10
17.16320038784533
 20
3.199859326917183
 10
17.15857223728214
 20
3.202173402198773
 10
17.15394408671895
 20
3.205065996300723
 10
17.14931593615586
 20
3.207958590402755
 10
17.14497704500285
 20
3.211429703325142
 10
17.14063815384993
 20
3.214611556837271
 10
17.1365885221071
 20
3.218371929169834
 10
17.13282814977453
 20
3.222132301502401
 10
17.12877851803179
 20
3.226181933245227
 10
17.1253074051094
 20
3.230231564987973
 10
17.12183629218702
 20
3.234281196730718
 10
17.11836517926472
 20
3.23862008788372
 10
17.1151833257525
 20
3.243248238446907
 10
17.11200147224029
 20
3.247587129599828
 10
17.10910887813834
 20
3.252215280163013
 10
17.04055439792145
 20
3.218371929169834
 10
17.04605032671517
 20
3.209404887453728
 10
17.05241403373959
 20
3.201305623968154
 10
17.05935625958427
 20
3.193495619892846
 10
17.06687700424941
 20
3.186264134637895
 10
17.07497626773499
 20
3.179900427613558
 10
17.08365405004092
 20
3.174115239409576
 10
17.09262109175702
 20
3.168908570026038
 10
17.10216665229357
 20
3.164569678873028
 10
17.11200147224029
 20
3.160809306540464
 10
17.12183629218702
 20
3.157627453028339
 10
17.13224963095409
 20
3.155313377746747
 10
17.14266296972126
 20
3.153577821285511
 10
17.15307630848842
 20
3.152710043054978
 10
17.1634896472555
 20
3.152710043054978
 10
17.17390298602267
 20
3.153577821285511
 10
17.18431632478974
 20
3.155024118336482
 10
17.19472966355691
 20
3.157627453028339
 10
17.20485374291381
 20
3.160809306540464
 10
17.21439930345036
 20
3.164858938283293
 10
17.22394486398691
 20
3.170065607666832
 10
17.23291190570301
 20
3.175561536460548
 10
17.24130042859877
 20
3.181925243484887
 10
17.24939969208424
 20
3.188867469329662
 10
17.25692043674947
 20
3.196677473405058
 10
17.26357340318397
 20
3.204776736890543
 10
17.2699371102084
 20
3.213165259786294
 10
17.27543303900211
 20
3.222421560912663
 10
17.2800611895653
 20
3.231967121449125
 10
17.28411082130804
 20
3.241512681985671
 10
17.28729267482026
 20
3.251636761342658
 10
17.28960675010184
 20
3.262050100109736
 10
17.29076378774255
 20
3.272752698287082
 10
17.29105304715274
 20
3.280851961772568
 10
17.29076378774255
 20
3.28895122525814
 10
17.28989600951203
 20
3.29676122933345
 10
17.28844971246096
 20
3.304860492819021
 10
17.28613563717945
 20
3.312381237484153
 10
17.2835323024876
 20
3.319901982149286
 10
17.2800611895653
 20
3.327133467404237
 10
17.2757222984123
 20
3.334075693249015
 10
17.27225118549
 20
3.338703843812201
 10
17.26849081315734
 20
3.342753475554943
 10
17.2644411814146
 20
3.346513847887511
 10
17.25981303085142
 20
3.3499849608099
 10
17.25518488028832
 20
3.353166814322108
 10
17.25026747031495
 20
3.35577014901388
 10
17.24506080093133
 20
3.358373483705648
 10
17.23956487213753
 20
3.360398299577062
 10
17.2340689433438
 20
3.362423115448391
 10
17.22857301455009
 20
3.363869412499365
 10
17.22278782634611
 20
3.365315709550424
 10
17.21729189755231
 20
3.366472747191133
 10
17.21150670934841
 20
3.367340525421756
 10
17.20572152114443
 20
3.367919044242196
 10
17.19993633294046
 20
3.368497563062548
 10
17.19444040414673
 20
3.368786822472727
 10
17.19096929122434
 20
3.369076081882989
 10
17.18720891889178
 20
3.369076081882989
 10
17.18373780596939
 20
3.368786822472727
 10
17.18026669304701
 20
3.368786822472727
 10
17.17679558012462
 20
3.368497563062548
 10
17.17303520779205
 20
3.368208303652373
 10
17.16956409486975
 20
3.36762978483193
 10
17.16609298194728
 20
3.367340525421756
 10
17.16262186902496
 20
3.366762006601399
 10
17.1591507561025
 20
3.366183487780957
 10
17.15539038377002
 20
3.365604968960602
 10
17.15191927084763
 20
3.36502645014016
 10
17.14844815792524
 20
3.364447931319805
 10
17.14497704500285
 20
3.363869412499365
 10
17.14121667267029
 20
3.363290893679009
 10
17.1377455597479
 20
3.36271237485857
 10
17.08625738473269
 20
3.350274220220075
 10
17.08510034709189
 20
3.355191630193439
 10
17.08567886591224
 20
3.36271237485857
 10
17.08770368178366
 20
3.371968675984938
 10
17.09088553529587
 20
3.382382014752101
 10
17.09551368585897
 20
3.392795353519183
 10
17.10129887406304
 20
3.402630173465906
 10
17.10795184049755
 20
3.410729436951478
 10
17.11576184457286
 20
3.416803884565638
 10
17.12270407041763
 20
3.41998573807776
 10
17.1299355556725
 20
3.422299813359353
 10
17.13745630033772
 20
3.424035369820591
 10
17.14526630441312
 20
3.424903148051123
 10
17.15307630848842
 20
3.425192407461388
 10
17.16117557197391
 20
3.424903148051123
 10
17.16898557604922
 20
3.423746110410327
 10
17.17679558012462
 20
3.422010553949178
 10
17.18460558420001
 20
3.419696478667582
 10
17.19183706945497
 20
3.416803884565638
 10
17.19906855470991
 20
3.413622031053426
 10
17.20572152114443
 20
3.409861658720861
 10
17.21179596875859
 20
3.405522767567852
 10
17.21729189755231
 20
3.400605357594493
 10
17.22220930752567
 20
3.395398688210951
 10
17.22654819867868
 20
3.389902759417234
 10
17.30291268297088
 20
3.424903148051123
  0
LWPOLYLINE
  5
260
330
17
100
AcDbEntity
  8
4
  6
Continuous
100
AcDbPolyline
 90
      133
 70
     0
 43
0.0
 10
17.36882276039023
 20
3.445151306765013
 10
17.36390535041688
 20
3.439944637381471
 10
17.35927719985368
 20
3.433870189767314
 10
17.35522756811095
 20
3.427506482742893
 10
17.35088867695802
 20
3.420853516308381
 10
17.34654978580502
 20
3.414489809284045
 10
17.34192163524183
 20
3.408126102259709
 10
17.33729348467864
 20
3.402340914055728
 10
17.33179755588492
 20
3.397423504082366
 10
17.32977274001351
 20
3.395977207031393
 10
17.3277479241421
 20
3.394530909980334
 10
17.32572310827069
 20
3.393084612929359
 10
17.32369829239935
 20
3.391638315878386
 10
17.32167347652803
 20
3.390192018827413
 10
17.31935940124644
 20
3.388745721776437
 10
17.31704532596485
 20
3.387299424725464
 10
17.31415273186281
 20
3.385853127674406
 10
17.41915389776474
 20
3.385853127674406
 10
17.41452574720155
 20
3.382092755341838
 10
17.41018685604854
 20
3.378332383009276
 10
17.40613722430571
 20
3.374572010676708
 10
17.40208759256306
 20
3.370522378933966
 10
17.39832722023041
 20
3.366183487780957
 10
17.39456684789784
 20
3.361844596628037
 10
17.39109573497545
 20
3.357505705475031
 10
17.38791388146332
 20
3.352877554911845
 10
17.38444276854085
 20
3.347960144938482
 10
17.3815501744389
 20
3.342753475554943
 10
17.37865758033696
 20
3.337257546761227
 10
17.37576498623501
 20
3.331761617967423
 10
17.37287239213307
 20
3.325687170353265
 10
17.3702690574412
 20
3.319612722739108
 10
17.36766572274943
 20
3.312959756304595
 10
17.36535164746784
 20
3.306017530459818
 10
17.3613020157251
 20
3.290686781719291
 10
17.3589879404435
 20
3.275356032978848
 10
17.35869868103334
 20
3.259736024828145
 10
17.36014497808422
 20
3.244116016677441
 10
17.36332683159652
 20
3.229074527347178
 10
17.36853350098005
 20
3.214322297427091
 10
17.37518646741466
 20
3.200437845737623
 10
17.38386424972049
 20
3.187710431688866
 10
17.38820314087351
 20
3.182503762305326
 10
17.39312055084687
 20
3.177586352331966
 10
17.39861647964058
 20
3.172668942358602
 10
17.40469092725482
 20
3.168330051205596
 10
17.41076537486889
 20
3.163991160052676
 10
17.4174183413035
 20
3.159941528309845
 10
17.42436056714828
 20
3.156470415387542
 10
17.43159205240323
 20
3.153288561875333
 10
17.43882353765818
 20
3.150395967773383
 10
17.44634428232332
 20
3.147792633081615
 10
17.45357576757826
 20
3.145767817210201
 10
17.4610965122434
 20
3.144321520159227
 10
17.46861725690854
 20
3.143164482518431
 10
17.47584874216348
 20
3.142875223108168
 10
17.48308022741844
 20
3.142875223108168
 10
17.49002245326313
 20
3.143453741928608
 10
17.49870023556906
 20
3.144900038979582
 10
17.50737801787507
 20
3.14663559544082
 10
17.51576654077073
 20
3.148949670722411
 10
17.52386580425622
 20
3.15184226482436
 10
17.53196506774188
 20
3.155024118336482
 10
17.53948581240701
 20
3.158784490669049
 10
17.54700655707214
 20
3.163123381822056
 10
17.55365952350666
 20
3.168040791795418
 10
17.56031248994117
 20
3.173536720589221
 10
17.56609767814524
 20
3.179321908793116
 10
17.57159360693896
 20
3.185685615817537
 10
17.57651101691232
 20
3.192627841662228
 10
17.58084990806532
 20
3.200148586327362
 10
17.58432102098763
 20
3.207958590402755
 10
17.58721361508957
 20
3.216636372708681
 10
17.58952769037117
 20
3.22560341442479
 10
17.58316398334692
 20
3.220107485631071
 10
17.57651101691232
 20
3.215190075657709
 10
17.56927953165735
 20
3.210561925094523
 10
17.56204804640242
 20
3.206801552761958
 10
17.55452730173728
 20
3.203330439839571
 10
17.54671729766197
 20
3.200437845737623
 10
17.5386180341764
 20
3.19812377045603
 10
17.53051877069082
 20
3.196388213994795
 10
17.52241950720533
 20
3.195231176353998
 10
17.51403098430958
 20
3.194941916943821
 10
17.50593172082401
 20
3.194941916943821
 10
17.49783245733853
 20
3.195809695174439
 10
17.48973319385295
 20
3.197255992225413
 10
17.48192318977755
 20
3.199570067507004
 10
17.47411318570225
 20
3.202462661608953
 10
17.4665924410371
 20
3.205933774531341
 10
17.45936095578217
 20
3.210561925094523
 10
17.45270798934756
 20
3.215479335067886
 10
17.4466335417335
 20
3.221264523271868
 10
17.44084835352952
 20
3.227338970886026
 10
17.43593094355615
 20
3.234281196730718
 10
17.43130279299296
 20
3.241223422575493
 10
17.4275424206604
 20
3.248744167240625
 10
17.42407130773801
 20
3.256554171316018
 10
17.42117871363598
 20
3.264653434801506
 10
17.41915389776474
 20
3.272752698287082
 10
17.4174183413035
 20
3.28114122118283
 10
17.41626130366262
 20
3.289819003488758
 10
17.41568278484226
 20
3.298207526384508
 10
17.41568278484226
 20
3.306885308690435
 10
17.41626130366262
 20
3.315563090996365
 10
17.4174183413035
 20
3.323951613892115
 10
17.42060019481562
 20
3.33378643383884
 10
17.42407130773801
 20
3.342464216144763
 10
17.42783168007057
 20
3.350563479630252
 10
17.43217057122359
 20
3.35808422429547
 10
17.43679872178677
 20
3.365315709550424
 10
17.44229465058048
 20
3.371968675984938
 10
17.44865835760491
 20
3.378910901829716
 10
17.45588984285986
 20
3.385563868264227
 10
17.51084913079736
 20
3.385563868264227
 10
17.51403098430958
 20
3.385563868264227
 10
17.51779135664216
 20
3.386142387084667
 10
17.52184098838489
 20
3.386720905905023
 10
17.52589062012764
 20
3.38787794354582
 10
17.52994025187046
 20
3.389034981186616
 10
17.53341136479277
 20
3.390770537647768
 10
17.53659321830507
 20
3.392506094109004
 10
17.53890729358657
 20
3.394820169390596
 10
17.59155250624258
 20
3.459035758454481
 10
17.4017983331528
 20
3.459035758454481
 10
17.396302404359
 20
3.458746499044303
 10
17.3916742537958
 20
3.458457239634126
 10
17.38733536264289
 20
3.457589461403506
 10
17.38357499031032
 20
3.456143164352533
 10
17.37981461797776
 20
3.454407607891296
 10
17.37634350505536
 20
3.45209353260979
 10
17.3725831327228
 20
3.448911679097578
 10
17.36882276039023
 20
3.445151306765013
  0
LWPOLYLINE
  5
2E7
330
17
100
AcDbEntity
  8
4
  6
Continuous
100
AcDbPolyline
 90
      138
 70
     0
 43
0.0
 10
16.91759456463771
 20
3.459035758454481
 10
16.92366901225186
 20
3.45469686730156
 10
16.92858642222522
 20
3.449779457328196
 10
16.93263605396797
 20
3.444283528534393
 10
16.93552864806992
 20
3.438498340330413
 10
16.93784272335151
 20
3.432423892716256
 10
16.93928902040257
 20
3.426060185691918
 10
16.9401567986331
 20
3.419117959847228
 10
16.94044605804328
 20
3.411886474592275
 10
16.94044605804328
 20
3.194652657533643
 10
16.93523938865974
 20
3.194652657533643
 10
16.9300327192762
 20
3.194941916943821
 10
16.92482604989266
 20
3.195520435764263
 10
16.9199086399193
 20
3.196388213994795
 10
16.91470197053576
 20
3.197545251635589
 10
16.9097845605624
 20
3.198991548686564
 10
16.90486715058903
 20
3.200727105147801
 10
16.90023900002585
 20
3.202462661608953
 10
16.89532159005249
 20
3.204776736890543
 10
16.89069343948931
 20
3.207090812172137
 10
16.8863545483363
 20
3.209694146863907
 10
16.88201565718337
 20
3.212586740965939
 10
16.87767676603037
 20
3.215768594478064
 10
16.87333787487744
 20
3.218950447990276
 10
16.86928824313462
 20
3.222421560912663
 10
16.86552787080214
 20
3.225892673834968
 10
16.85887490436754
 20
3.232545640269563
 10
16.85280045675338
 20
3.23977712552452
 10
16.84730452795959
 20
3.247297870189651
 10
16.84238711798622
 20
3.255397133675223
 10
16.83804822683329
 20
3.263785656570888
 10
16.8345771139109
 20
3.27217417946664
 10
16.83168451980896
 20
3.28114122118283
 10
16.82965970393754
 20
3.290108262898936
 10
16.82850266629675
 20
3.298496785794684
 10
16.82763488806613
 20
3.306885308690435
 10
16.82763488806613
 20
3.315563090996365
 10
16.82821340688649
 20
3.323951613892115
 10
16.82937044452736
 20
3.332340136787866
 10
16.83110600098852
 20
3.340728659683531
 10
16.83370933568037
 20
3.348827923169102
 10
16.83718044860268
 20
3.356637927244496
 10
16.83978378329445
 20
3.361555337217859
 10
16.84238711798622
 20
3.366472747191133
 10
16.84499045267799
 20
3.371100897754318
 10
16.84788304678002
 20
3.375729048317502
 10
16.85048638147179
 20
3.380357198880689
 10
16.85337897557382
 20
3.384696090033608
 10
16.85656082908595
 20
3.389034981186616
 10
16.85974268259807
 20
3.393084612929359
 10
16.86292453611037
 20
3.397423504082366
 10
16.86610638962249
 20
3.40147313582511
 10
16.8695775025448
 20
3.405522767567852
 10
16.87304861546727
 20
3.409572399310683
 10
16.87680898779975
 20
3.413332771643247
 10
16.8805693601324
 20
3.417382403385991
 10
16.88432973246488
 20
3.421142775718557
 10
16.88837936420771
 20
3.425192407461388
 10
16.8918504771301
 20
3.42924203920413
 10
16.89416455241161
 20
3.433580930357051
 10
16.89561084946266
 20
3.437919821510058
 10
16.89590010887284
 20
3.442258712663067
 10
16.89561084946266
 20
3.446597603815988
 10
16.89474307123213
 20
3.450936494968992
 10
16.89329677418107
 20
3.454986126711736
 10
16.89127195830966
 20
3.459035758454481
 10
16.7874278300487
 20
3.459035758454481
 10
16.78974190533029
 20
3.457010942583153
 10
16.79205598061189
 20
3.454986126711736
 10
16.79437005589339
 20
3.452961310840321
 10
16.79668413117499
 20
3.450647235558731
 10
16.79870894704631
 20
3.448333160277222
 10
16.80073376291773
 20
3.445729825585368
 10
16.80246931937896
 20
3.443126490893599
 10
16.80420487584012
 20
3.440523156201828
 10
16.8076759887625
 20
3.43271315212652
 10
16.80941154522374
 20
3.424324629230768
 10
16.80941154522374
 20
3.415646846924841
 10
16.80825450758286
 20
3.406969064618913
 10
16.80594043230128
 20
3.397712763492545
 10
16.80218005996878
 20
3.388745721776437
 10
16.79784116881578
 20
3.380357198880689
 10
16.79292375884242
 20
3.372257935395116
 10
16.78771708945889
 20
3.364158671909629
 10
16.78222116066508
 20
3.356348667834232
 10
16.77672523187126
 20
3.348249404348746
 10
16.77180782189791
 20
3.340150140863173
 10
16.76775819015525
 20
3.332050877377601
 10
16.76428707723278
 20
3.323951613892115
 10
16.76168374254101
 20
3.315273831586186
 10
16.7596589266696
 20
3.306596049280173
 10
16.75850188902888
 20
3.297918266974245
 10
16.75792337020853
 20
3.28895122525814
 10
16.75792337020853
 20
3.279984183542035
 10
16.75879114843906
 20
3.271017141825843
 10
16.75994818607986
 20
3.265231953621946
 10
16.76110522372065
 20
3.259446765417966
 10
16.7628407801819
 20
3.253661577213986
 10
16.76486559605322
 20
3.24816564842027
 10
16.76717967133481
 20
3.242669719626466
 10
16.76978300602658
 20
3.237463050242928
 10
16.77238634071835
 20
3.231967121449125
 10
16.77556819423056
 20
3.227049711475761
 10
16.77875004774269
 20
3.222132301502401
 10
16.78222116066508
 20
3.217214891529037
 10
16.78598153299764
 20
3.212586740965939
 10
16.79003116474047
 20
3.207958590402755
 10
16.79408079648321
 20
3.203619699249748
 10
16.79813042822595
 20
3.199280808096828
 10
16.80246931937896
 20
3.195231176353998
 10
16.80709746994215
 20
3.191470804021431
 10
16.81230413932568
 20
3.187421172278689
 10
16.81808932752958
 20
3.183660799946122
 10
16.82387451573365
 20
3.180189687023736
 10
16.82994896334772
 20
3.177007833511526
 10
16.83631267037214
 20
3.174115239409576
 10
16.84267637739639
 20
3.171511904717806
 10
16.849329343831
 20
3.168908570026038
 10
16.85598231026559
 20
3.166883754154623
 10
16.8626352767001
 20
3.165148197693472
 10
16.86928824313462
 20
3.163412641232233
 10
16.87623046897939
 20
3.161966344181258
 10
16.88317269482417
 20
3.161098565950642
 10
16.88982566125868
 20
3.160230787720108
 10
16.89676788710346
 20
3.159652268899669
 10
16.90342085353798
 20
3.159073750079314
 10
16.91007381997257
 20
3.159073750079314
 10
17.00697572238884
 20
3.159073750079314
 10
17.00697572238884
 20
3.422589072769531
 10
17.00697572238884
 20
3.427217223332716
 10
17.00697572238884
 20
3.431845373895901
 10
17.00755424120927
 20
3.43676278386926
 10
17.00842201943981
 20
3.441680193842624
 10
17.01015757590105
 20
3.446308344405808
 10
17.01247165118264
 20
3.450647235558731
 10
17.01594276410494
 20
3.454986126711736
 10
17.02057091466812
 20
3.459035758454481
 10
16.91759456463771
 20
3.459035758454481
  0
LWPOLYLINE
  5
373
330
17
100
AcDbEntity
  8
4
  6
Continuous
100
AcDbPolyline
 90
       21
 70
     0
 43
0.0
 10
17.96050705367977
 20
3.459035758454481
 10
17.96600298247349
 20
3.456143164352533
 10
17.97063113303667
 20
3.452672051430143
 10
17.97468076477942
 20
3.448622419687401
 10
17.97757335888145
 20
3.443994269124218
 10
17.97988743416304
 20
3.438787599740678
 10
17.98162299062419
 20
3.433291670946875
 10
17.98249076885482
 20
3.427217223332716
 10
17.98278002826499
 20
3.420853516308381
 10
17.98278002826499
 20
3.159073750079314
 10
18.05393784317366
 20
3.159073750079314
 10
18.05393784317366
 20
3.421721294538997
 10
18.05422710258382
 20
3.427795742153158
 10
18.05567339963489
 20
3.433002411536698
 10
18.05740895609604
 20
3.438209080920238
 10
18.06030155019798
 20
3.442837231483421
 10
18.0634834037102
 20
3.447176122636426
 10
18.06753303545294
 20
3.451515013789346
 10
18.07187192660586
 20
3.455275386121916
 10
18.07707859598949
 20
3.459035758454481
 10
17.96050705367977
 20
3.459035758454481
  0
LWPOLYLINE
  5
38A
330
17
100
AcDbEntity
  8
4
  6
Continuous
100
AcDbPolyline
 90
       73
 70
     0
 43
0.0
 10
15.44362344509811
 20
3.233991937320538
 10
15.44854085507147
 20
3.231099343218591
 10
15.4525904868143
 20
3.227338970886026
 10
15.4560615997366
 20
3.222710820322841
 10
15.45866493442838
 20
3.217504150939303
 10
15.46011123147944
 20
3.211718962735321
 10
15.46040049088961
 20
3.205933774531341
 10
15.45953271265907
 20
3.200437845737623
 10
15.45721863737749
 20
3.194941916943821
 10
15.45461530268571
 20
3.191760063431694
 10
15.45201196799385
 20
3.188867469329662
 10
15.44883011448165
 20
3.186264134637895
 10
15.44535900155934
 20
3.183950059356298
 10
15.4415986292267
 20
3.182214502895149
 10
15.43754899748403
 20
3.180768205844174
 10
15.43321010633102
 20
3.179900427613558
 10
15.42887121517803
 20
3.179611168203381
 10
15.32329153045582
 20
3.179611168203381
 10
15.38027563426475
 20
3.227917489706381
 10
15.38374674718723
 20
3.231099343218591
 10
15.38635008187901
 20
3.234281196730718
 10
15.38866415716051
 20
3.23717379083275
 10
15.39011045421149
 20
3.240066384934698
 10
15.39126749185236
 20
3.242958979036645
 10
15.39184601067272
 20
3.246140832548856
 10
15.39242452949308
 20
3.249033426650802
 10
15.39242452949308
 20
3.252215280163013
 10
15.39242452949308
 20
3.443994269124218
 10
15.39184601067272
 20
3.448043900866961
 10
15.39068897303192
 20
3.45209353260979
 10
15.38866415716051
 20
3.455275386121916
 10
15.38606082246874
 20
3.458167980223946
 10
15.38287896895653
 20
3.460482055505455
 10
15.37940785603423
 20
3.462217611966691
 10
15.37535822429139
 20
3.463374649607485
 10
15.37130859254865
 20
3.463663909017663
 10
15.30882855994592
 20
3.463663909017663
 10
15.31316745109893
 20
3.459325017864742
 10
15.3169278234314
 20
3.455275386121916
 10
15.32010967694361
 20
3.450647235558731
 10
15.32271301163547
 20
3.446019084995631
 10
15.32502708691698
 20
3.440812415612006
 10
15.32647338396795
 20
3.435316486818288
 10
15.32734116219857
 20
3.428952779793954
 10
15.32763042160883
 20
3.421721294538997
 10
15.32763042160883
 20
3.221553782682045
 10
15.27614224659354
 20
3.159073750079314
 10
15.47081382965669
 20
3.159073750079314
 10
15.4739956831689
 20
3.15936300948949
 10
15.47746679609129
 20
3.159652268899669
 10
15.48064864960341
 20
3.160230787720108
 10
15.48411976252588
 20
3.161387825360906
 10
15.48759087544819
 20
3.162544863001701
 10
15.4907727289604
 20
3.163991160052676
 10
15.49395458247262
 20
3.165437457103648
 10
15.49713643598473
 20
3.167173013564798
 10
15.50031828949687
 20
3.169197829436212
 10
15.50321088359889
 20
3.171222645307629
 10
15.50610347770092
 20
3.173536720589221
 10
15.50899607180287
 20
3.175850795870728
 10
15.51131014708446
 20
3.178164871152318
 10
15.51391348177623
 20
3.180768205844174
 10
15.51593829764765
 20
3.183371540535944
 10
15.51796311351898
 20
3.185974875227713
 10
15.52259126408216
 20
3.195231176353998
 10
15.52548385818419
 20
3.205644515121162
 10
15.52693015523509
 20
3.217214891529037
 10
15.5266408958249
 20
3.229074527347178
 10
15.52461607995349
 20
3.240355644344877
 10
15.52114496703119
 20
3.25076898311204
 10
15.51622755705783
 20
3.259446765417966
 10
15.50957459062322
 20
3.266099731852481
 10
15.44362344509811
 20
3.233991937320538
  0
LWPOLYLINE
  5
3D5
330
17
100
AcDbEntity
  8
4
  6
Continuous
100
AcDbPolyline
 90
       21
 70
     0
 43
0.0
 10
16.09393666810603
 20
3.458457239634126
 10
16.01757218381374
 20
3.458457239634126
 10
16.02133255614639
 20
3.455853904942355
 10
16.02509292847887
 20
3.452382792019967
 10
16.02885330081153
 20
3.448911679097578
 10
16.03203515432366
 20
3.444862047354837
 10
16.03492774842568
 20
3.440812415612006
 10
16.03724182370719
 20
3.436184265048908
 10
16.03868812075825
 20
3.431556114485723
 10
16.03926663957861
 20
3.426638704512363
 10
16.03926663957861
 20
3.160230787720108
 10
16.11129223271797
 20
3.160230787720108
 10
16.11129223271797
 20
3.44110167502227
 10
16.11100297330771
 20
3.445151306765013
 10
16.1101351950771
 20
3.448622419687401
 10
16.10839963861593
 20
3.451515013789346
 10
16.10637482274461
 20
3.454118348481117
 10
16.10377148805276
 20
3.455853904942355
 10
16.10087889395081
 20
3.457300201993328
 10
16.09769704043859
 20
3.458167980223946
 10
16.09393666810603
 20
3.458457239634126
  0
LWPOLYLINE
  5
3EC
330
17
100
AcDbEntity
  8
4
  6
Continuous
100
AcDbPolyline
 90
      133
 70
     0
 43
0.0
 10
15.79219789892954
 20
3.463953168427844
 10
15.73058564455743
 20
3.463953168427844
 10
15.73492453571044
 20
3.459325017864742
 10
15.73868490804291
 20
3.45469686730156
 10
15.74157750214495
 20
3.450068716738373
 10
15.74418083683671
 20
3.445729825585368
 10
15.74620565270814
 20
3.441390934432448
 10
15.7476519497591
 20
3.437052043279441
 10
15.7488089873999
 20
3.432423892716339
 10
15.74909824681008
 20
3.427795742153158
 10
15.74909824681008
 20
3.269860104185047
 10
15.74389157742654
 20
3.270438623005486
 10
15.73839564863274
 20
3.271306401236106
 10
15.7331889792492
 20
3.27217417946664
 10
15.72769305045548
 20
3.273331217107436
 10
15.72248638107194
 20
3.274777514158493
 10
15.71699045227814
 20
3.276223811209468
 10
15.71178378289451
 20
3.27795936767062
 10
15.70657711351097
 20
3.279694924131771
 10
15.70165970353761
 20
3.281719740003185
 10
15.69645303415407
 20
3.284033815284776
 10
15.69182488359089
 20
3.28634789056637
 10
15.68690747361753
 20
3.28895122525814
 10
15.68227932305434
 20
3.291843819360088
 10
15.67765117249116
 20
3.29473641346212
 10
15.67331228133824
 20
3.298207526384508
 10
15.66926264959549
 20
3.30167863930681
 10
15.66174190493036
 20
3.309199383972028
 10
15.65508893849576
 20
3.317587906867778
 10
15.64930375029187
 20
3.326554948583885
 10
15.64409708090824
 20
3.336389768530607
 10
15.6400474491655
 20
3.346224588477333
 10
15.63657633624311
 20
3.356927186654673
 10
15.63426226096152
 20
3.36762978483193
 10
15.63281596391054
 20
3.37862164241945
 10
15.63194818568001
 20
3.389613500006973
 10
15.63194818568001
 20
3.400894617004754
 10
15.63310522332072
 20
3.411886474592275
 10
15.63484077978196
 20
3.422878332179795
 10
15.63744411447373
 20
3.433870189767314
 10
15.64120448680629
 20
3.444283528534393
 10
15.64554337795922
 20
3.454407607891383
 10
15.65075004734275
 20
3.463953168427844
 10
15.57178222835878
 20
3.463953168427844
 10
15.56599704015489
 20
3.445440566175191
 10
15.56194740841206
 20
3.427506482742893
 10
15.55992259254065
 20
3.409572399310683
 10
15.55963333313047
 20
3.392506094109004
 10
15.56079037077126
 20
3.375729048317502
 10
15.56397222428348
 20
3.359819780756623
 10
15.56860037484666
 20
3.344489032016181
 10
15.57467482246073
 20
3.329736802096009
 10
15.58248482653604
 20
3.316141609816718
 10
15.59145186825223
 20
3.303124936357868
 10
15.60186520701931
 20
3.291265300539731
 10
15.61343558342728
 20
3.280273442952212
 10
15.62645225688612
 20
3.270727882415664
 10
15.64062596798585
 20
3.262050100109736
 10
15.65566745731612
 20
3.254818614854783
 10
15.67186598428726
 20
3.248744167240625
 10
15.67649413485045
 20
3.247297870189651
 10
15.68141154482381
 20
3.246140832548856
 10
15.68632895479717
 20
3.244983794908058
 10
15.69153562418071
 20
3.243826757267262
 10
15.69645303415407
 20
3.242958979036645
 10
15.70165970353761
 20
3.242380460216288
 10
15.70657711351097
 20
3.241512681985671
 10
15.71178378289451
 20
3.241223422575493
 10
15.71670119286788
 20
3.240644903755136
 10
15.72161860284124
 20
3.240355644344877
 10
15.7265360128146
 20
3.240066384934698
 10
15.73116416337779
 20
3.240066384934698
 10
15.73579231394097
 20
3.240066384934698
 10
15.74013120509398
 20
3.240066384934698
 10
15.74447009624698
 20
3.240355644344877
 10
15.74851972798964
 20
3.240644903755136
 10
15.74851972798964
 20
3.209983406274083
 10
15.71699045227814
 20
3.192338582252051
 10
15.7106267452538
 20
3.190892285201078
 10
15.70426303822937
 20
3.190024506970459
 10
15.69789933120505
 20
3.190024506970459
 10
15.69211414300107
 20
3.190892285201078
 10
15.68603969538699
 20
3.192049322841873
 10
15.68054376659319
 20
3.194074138713203
 10
15.67533709720965
 20
3.196677473405058
 10
15.67013042782603
 20
3.199570067507004
 10
15.66521301785266
 20
3.203041180429393
 10
15.66058486728948
 20
3.206801552761958
 10
15.65624597613656
 20
3.21114044391488
 10
15.65219634439381
 20
3.215479335067886
 10
15.64843597206116
 20
3.220396745041248
 10
15.64496485913887
 20
3.225314155014611
 10
15.64178300562673
 20
3.230231564987973
 10
15.63917967093497
 20
3.235438234371511
 10
15.58364186417692
 20
3.209694146863907
 10
15.58624519886869
 20
3.204776736890543
 10
15.58942705238082
 20
3.199859326917183
 10
15.59260890589302
 20
3.194652657533643
 10
15.59608001881541
 20
3.189735247560281
 10
15.60012965055816
 20
3.184817837586919
 10
15.6041792823009
 20
3.179900427613558
 10
15.60880743286409
 20
3.175561536460548
 10
15.61343558342728
 20
3.170933385897366
 10
15.61835299340063
 20
3.166883754154623
 10
15.62384892219435
 20
3.163123381822056
 10
15.62963411039842
 20
3.159941528309845
 10
15.63541929860231
 20
3.15675967479772
 10
15.64178300562673
 20
3.15444559951613
 10
15.64814671265098
 20
3.152420783644713
 10
15.65508893849576
 20
3.150974486593741
 10
15.66232042375071
 20
3.150395967773383
 10
15.66463449903231
 20
3.150395967773383
 10
15.6669485743139
 20
3.150685227183563
 10
15.66955190900567
 20
3.150974486593741
 10
15.67215524369744
 20
3.151263746003917
 10
15.67446931897903
 20
3.15184226482436
 10
15.6770726536708
 20
3.152710043054978
 10
15.67938672895239
 20
3.153577821285511
 10
15.68170080423399
 20
3.15444559951613
 10
15.80695012884963
 20
3.228206749116557
 10
15.80984272295166
 20
3.230520824398151
 10
15.81186753882299
 20
3.233702677910361
 10
15.81273531705369
 20
3.237463050242928
 10
15.81302457646387
 20
3.241512681985671
 10
15.81302457646387
 20
3.435316486818288
 10
15.81244605764343
 20
3.441969453252801
 10
15.81128902000264
 20
3.448043900866961
 10
15.80926420413122
 20
3.452961310840321
 10
15.80666086943945
 20
3.457010942583153
 10
15.80347901592733
 20
3.4599035366851
 10
15.79971864359467
 20
3.462217611966691
 10
15.7959582712622
 20
3.463374649607485
 10
15.79219789892954
 20
3.463953168427844
  0
LWPOLYLINE
  5
473
330
17
100
AcDbEntity
  8
4
  6
Continuous
100
AcDbPolyline
 90
       96
 70
     0
 43
0.0
 10
16.41436365703196
 20
3.159073750079314
 10
16.40973550646878
 20
3.162255603591439
 10
16.40510735590559
 20
3.165437457103648
 10
16.40105772416285
 20
3.169197829436212
 10
16.39758661124046
 20
3.172958201768778
 10
16.39469401713852
 20
3.177297092921788
 10
16.39237994185692
 20
3.182214502895149
 10
16.39093364480595
 20
3.187421172278689
 10
16.39035512598551
 20
3.192917101072406
 10
16.39035512598551
 20
3.380646458290866
 10
16.39035512598551
 20
3.388456462366261
 10
16.38977660716507
 20
3.39626646644157
 10
16.38861956952436
 20
3.404654989337321
 10
16.38630549424276
 20
3.412754252822808
 10
16.38283438132038
 20
3.421142775718557
 10
16.37733845252657
 20
3.428952779793954
 10
16.37010696727162
 20
3.43676278386926
 10
16.3602721473249
 20
3.444283528534393
 10
16.35419769971083
 20
3.448043900866961
 10
16.3478339926864
 20
3.451225754379171
 10
16.34147028566207
 20
3.453829089070943
 10
16.33452805981738
 20
3.456143164352533
 10
16.3275858339726
 20
3.457589461403506
 10
16.32064360812782
 20
3.458457239634126
 10
16.31370138228305
 20
3.459035758454481
 10
16.30646989702809
 20
3.459035758454481
 10
16.2995276711834
 20
3.458457239634126
 10
16.29258544533862
 20
3.457589461403506
 10
16.2859324789041
 20
3.456432423762711
 10
16.27927951246951
 20
3.45469686730156
 10
16.27320506485544
 20
3.452672051430143
 10
16.26713061724119
 20
3.450068716738373
 10
16.2613454290373
 20
3.447465382046603
 10
16.25613875965376
 20
3.444283528534393
 10
16.25324616555174
 20
3.442837231483421
 10
16.25064283085995
 20
3.441390934432448
 10
16.24775023675792
 20
3.439944637381471
 10
16.24514690206615
 20
3.438209080920238
 10
16.24254356737439
 20
3.436184265048908
 10
16.23965097327244
 20
3.434159449177493
 10
16.23704763858067
 20
3.431556114485723
 10
16.23386578506846
 20
3.428952779793954
 10
16.23241948801747
 20
3.434448708587671
 10
16.23010541273589
 20
3.439366118561031
 10
16.22750207804411
 20
3.44370500971404
 10
16.224320224532
 20
3.447754641456783
 10
16.22084911160952
 20
3.451225754379171
 10
16.21708873927704
 20
3.454118348481117
 10
16.21332836694439
 20
3.456721683172887
 10
16.20927873520164
 20
3.458746499044303
 10
16.14303833026635
 20
3.458746499044303
 10
16.1491127778805
 20
3.454407607891296
 10
16.15431944726405
 20
3.449490197917935
 10
16.15865833841705
 20
3.444283528534393
 10
16.16241871074953
 20
3.438209080920238
 10
16.16531130485157
 20
3.431845373895901
 10
16.1673361207229
 20
3.424613888640946
 10
16.16878241777395
 20
3.417093143975815
 10
16.16907167718412
 20
3.408704621080064
 10
16.16907167718412
 20
3.15184226482436
 10
16.23646911976031
 20
3.203908958659928
 10
16.23646911976031
 20
3.381803495931662
 10
16.23762615740101
 20
3.391349056468207
 10
16.24051875150296
 20
3.399737579363959
 10
16.24485764265598
 20
3.406969064618913
 10
16.25064283085995
 20
3.413043512233072
 10
16.25729579729447
 20
3.417960922206431
 10
16.26452728254943
 20
3.42143203512882
 10
16.27233728662473
 20
3.423746110410327
 10
16.28014729070013
 20
3.424613888640946
 10
16.28477544126331
 20
3.424613888640946
 10
16.28940359182641
 20
3.424035369820591
 10
16.29374248297942
 20
3.423167591589971
 10
16.29808137413242
 20
3.422010553949178
 10
16.30213100587517
 20
3.420564256898202
 10
16.30618063761791
 20
3.418539441026788
 10
16.30994100995056
 20
3.416514625155373
 10
16.31341212287286
 20
3.413911290463603
 10
16.31688323579526
 20
3.411307955771834
 10
16.31977582989729
 20
3.408415361669888
 10
16.32208990517888
 20
3.404944248747497
 10
16.32440398046039
 20
3.401762395235286
 10
16.32613953692153
 20
3.398002022902721
 10
16.32729657456241
 20
3.394241650570156
 10
16.32816435279295
 20
3.390192018827413
 10
16.32845361220313
 20
3.385853127674406
 10
16.32845361220313
 20
3.187421172278689
 10
16.32874287161331
 20
3.182793021715506
 10
16.32932139043375
 20
3.177875611742142
 10
16.33076768748473
 20
3.173247461178957
 10
16.33279250335614
 20
3.168619310615861
 10
16.33597435686827
 20
3.164858938283293
 10
16.34002398861109
 20
3.161677084771083
 10
16.34551991740481
 20
3.159652268899669
 10
16.35246214324959
 20
3.159073750079314
 10
16.41436365703196
 20
3.159073750079314
  0
LWPOLYLINE
  5
4D5
330
17
100
AcDbEntity
  8
4
  6
Continuous
100
AcDbPolyline
 90
       34
 70
     0
 43
0.0
 10
16.54182200684108
 20
3.435895005638645
 10
16.55310312383869
 20
3.434737967997848
 10
16.5640949814263
 20
3.432423892716256
 10
16.57450832019339
 20
3.428374260973511
 10
16.58463239955027
 20
3.422878332179795
 10
16.59388870067665
 20
3.416514625155373
 10
16.60285574239284
 20
3.408704621080064
 10
16.61095500587833
 20
3.400026838774138
 10
16.61847575054346
 20
3.390481278237588
 10
16.62541797638824
 20
3.379778680060247
 10
16.63120316459213
 20
3.368786822472727
 10
16.63640983397568
 20
3.356927186654673
 10
16.64074872512868
 20
3.344778291426357
 10
16.64421983805106
 20
3.332050877377601
 10
16.64653391333266
 20
3.319034203918751
 10
16.64826946979381
 20
3.306017530459818
 10
16.64855872920399
 20
3.292711597590706
 10
16.64769095097346
 20
3.28056270236239
 10
16.64537687569186
 20
3.268992325954513
 10
16.64190576276947
 20
3.257711208956731
 10
16.63727761220637
 20
3.247297870189651
 10
16.6314924240024
 20
3.23717379083275
 10
16.62483945756788
 20
3.227917489706381
 10
16.61731871290266
 20
3.219528966810631
 10
16.60950870882727
 20
3.211718962735321
 10
16.6011201859316
 20
3.204487477480366
 10
16.59244240362567
 20
3.19812377045603
 10
16.58347536190958
 20
3.192627841662228
 10
16.57479757960356
 20
3.187999691099046
 10
16.56583053788746
 20
3.18452857817674
 10
16.55744201499169
 20
3.181635984074708
 10
16.54934275150622
 20
3.179900427613558
 10
16.54182200684108
 20
3.179032649382937
 10
16.54182200684108
 20
3.435895005638645
  0
LWPOLYLINE
  5
4F9
330
17
100
AcDbEntity
  8
4
  6
Continuous
100
AcDbPolyline
 90
       44
 70
     0
 43
0.0
 10
16.57450832019339
 20
3.4599035366851
 10
16.4463664014757
 20
3.4599035366851
 10
16.45041603321845
 20
3.457589461403506
 10
16.45504418378163
 20
3.454407607891296
 10
16.45938307493464
 20
3.449779457328196
 10
16.46372196608765
 20
3.444572787944573
 10
16.46748233842012
 20
3.438498340330413
 10
16.47066419193233
 20
3.431556114485723
 10
16.47239974839349
 20
3.424324629230768
 10
16.4732675266242
 20
3.416514625155373
 10
16.4732675266242
 20
3.159073750079314
 10
16.56930165080984
 20
3.159073750079314
 10
16.5855001777809
 20
3.159941528309845
 10
16.6011201859316
 20
3.162255603591439
 10
16.61616167526187
 20
3.166015975924006
 10
16.63033538636159
 20
3.171222645307629
 10
16.64364131923061
 20
3.177875611742142
 10
16.65636873327938
 20
3.185974875227713
 10
16.66793910968725
 20
3.194941916943821
 10
16.67864170786469
 20
3.205355255710987
 10
16.68818726840115
 20
3.216636372708681
 10
16.69686505070708
 20
3.229074527347178
 10
16.70438579537221
 20
3.242380460216288
 10
16.71046024298645
 20
3.256554171316018
 10
16.71537765295981
 20
3.271595660646285
 10
16.71913802529229
 20
3.287215668796988
 10
16.72116284116371
 20
3.303703455178226
 10
16.72203061939433
 20
3.320769760379903
 10
16.72145210057388
 20
3.335232730889812
 10
16.71913802529229
 20
3.349117182579281
 10
16.71537765295981
 20
3.362423115448391
 10
16.71017098357618
 20
3.375150529497147
 10
16.70380727655185
 20
3.387588684135645
 10
16.69628653188672
 20
3.39886980113334
 10
16.6876087495807
 20
3.409572399310683
 10
16.67777392963398
 20
3.419407219257408
 10
16.6673605908669
 20
3.428374260973511
 10
16.65579021445894
 20
3.436473524459084
 10
16.64364131923061
 20
3.443415750303863
 10
16.63062464577178
 20
3.449200938507756
 10
16.61731871290266
 20
3.453829089070943
 10
16.6034342612132
 20
3.457300201993328
 10
16.58897129070328
 20
3.459325017864742
 10
16.57450832019339
 20
3.4599035366851
  0
LWPOLYLINE
  5
527
330
17
100
AcDbEntity
  8
4
  6
Continuous
100
AcDbPolyline
 90
       21
 70
     0
 43
0.0
 10
15.10345335246391
 20
3.447465382046603
 10
15.1743219079624
 20
3.447465382046603
 10
15.18357820908868
 20
3.446597603815988
 10
15.19196673198443
 20
3.443994269124218
 10
15.19977673605983
 20
3.439944637381471
 10
15.2067189619046
 20
3.434448708587671
 10
15.21221489069832
 20
3.427795742153158
 10
15.21655378185133
 20
3.41998573807776
 10
15.21915711654309
 20
3.411597215182013
 10
15.22002489477362
 20
3.402340914055728
 10
15.21944637595327
 20
3.394820169390596
 10
15.21771081949203
 20
3.387299424725464
 10
15.21481822539009
 20
3.380646458290866
 10
15.21105785305752
 20
3.374282751266528
 10
15.20614044308416
 20
3.369076081882989
 10
15.20035525488018
 20
3.36502645014016
 10
15.19370228844558
 20
3.362423115448391
 10
15.18589228437027
 20
3.361555337217859
 10
15.11675928533302
 20
3.361555337217859
 10
15.11675928533302
 20
3.431845373895901
 10
15.10345335246391
 20
3.447465382046603
  0
LWPOLYLINE
  5
53E
330
17
100
AcDbEntity
  8
4
  6
Continuous
100
AcDbPolyline
 90
       21
 70
     0
 43
0.0
 10
14.82341832253473
 20
3.448043900866961
 10
14.8942868780332
 20
3.448043900866961
 10
14.90325391974932
 20
3.447176122636426
 10
14.91193170205524
 20
3.444572787944573
 10
14.91945244672045
 20
3.440523156201828
 10
14.92639467256514
 20
3.435027227408111
 10
14.93189060135895
 20
3.428374260973511
 10
14.93622949251188
 20
3.420853516308381
 10
14.93883282720373
 20
3.412464993412628
 10
14.93970060543426
 20
3.403208692286348
 10
14.93912208661391
 20
3.395687947621129
 10
14.93738653015267
 20
3.388167202955997
 10
14.93478319546089
 20
3.381224977111306
 10
14.93102282312834
 20
3.375150529497147
 10
14.92610541315497
 20
3.369943860113524
 10
14.92032022495099
 20
3.365894228370778
 10
14.91366725851639
 20
3.363290893679009
 10
14.90585725444108
 20
3.362423115448391
 10
14.83672425540383
 20
3.362423115448391
 10
14.83672425540383
 20
3.43271315212652
 10
14.82341832253473
 20
3.448043900866961
  0
LWPOLYLINE
  5
555
330
17
100
AcDbEntity
  8
4
  6
Continuous
100
AcDbPolyline
 90
       46
 70
     0
 43
0.0
 10
14.90527873562072
 20
3.463953168427844
 10
14.74821087588331
 20
3.463953168427844
 10
14.75168198880563
 20
3.459325017864742
 10
14.75486384231775
 20
3.454118348481117
 10
14.75804569583004
 20
3.448911679097578
 10
14.76064903052182
 20
3.443415750303863
 10
14.76267384639314
 20
3.437630562099881
 10
14.7644094028543
 20
3.431845373895901
 10
14.76556644049517
 20
3.426349445102183
 10
14.76585569990536
 20
3.420564256898202
 10
14.76585569990536
 20
3.153577821285511
 10
14.83614573658348
 20
3.220975263861603
 10
14.83614573658348
 20
3.340728659683531
 10
14.93044430430789
 20
3.340728659683531
 10
14.93680801133232
 20
3.341017919093791
 10
14.94288245894638
 20
3.341307178503971
 10
14.94895690656062
 20
3.342174956734588
 10
14.95474209476452
 20
3.343331994375386
 10
14.9605272829685
 20
3.345067550836537
 10
14.9660232117623
 20
3.347381626118127
 10
14.97122988114584
 20
3.3499849608099
 10
14.97585803170903
 20
3.353166814322108
 10
14.98048618227221
 20
3.356927186654673
 10
14.98424655460469
 20
3.361555337217859
 10
14.98771766752717
 20
3.366472747191133
 10
14.99061026162912
 20
3.372257935395116
 10
14.99263507750054
 20
3.378910901829716
 10
14.99437063396168
 20
3.386142387084667
 10
14.9952384121923
 20
3.394241650570156
 10
14.9952384121923
 20
3.403208692286348
 10
14.99437063396168
 20
3.412754252822808
 10
14.99263507750054
 20
3.421142775718557
 10
14.9897424833985
 20
3.428663520383691
 10
14.98627137047611
 20
3.435316486818288
 10
14.98164321991293
 20
3.44110167502227
 10
14.97672580993956
 20
3.446019084995631
 10
14.97094062173567
 20
3.450357976148553
 10
14.96457691471125
 20
3.453829089070943
 10
14.95792394827673
 20
3.456721683172887
 10
14.95069246302178
 20
3.459035758454481
 10
14.94346097776682
 20
3.460771314915715
 10
14.93594023310169
 20
3.461928352556512
 10
14.9281302290263
 20
3.463085390197308
 10
14.92032022495099
 20
3.463663909017663
 10
14.91279948028586
 20
3.463953168427844
 10
14.90527873562072
 20
3.463953168427844
  0
LWPOLYLINE
  5
585
330
17
100
AcDbEntity
  8
4
  6
Continuous
100
AcDbPolyline
 90
      104
 70
     0
 43
0.0
 10
14.61625515455123
 20
3.463663909017663
 10
14.62435441803672
 20
3.454986126711736
 10
14.62782553095911
 20
3.450068716738373
 10
14.63071812506105
 20
3.445151306765013
 10
14.6333214597529
 20
3.440523156201828
 10
14.63534627562423
 20
3.436184265048908
 10
14.63708183208538
 20
3.431556114485723
 10
14.63823886972627
 20
3.426927963922538
 10
14.63881738854662
 20
3.422299813359353
 10
14.63910664795681
 20
3.417382403385991
 10
14.63910664795681
 20
3.192627841662228
 10
14.63187516270184
 20
3.193495619892846
 10
14.6246436774469
 20
3.194941916943821
 10
14.61770145160211
 20
3.196677473405058
 10
14.61075922575743
 20
3.198991548686564
 10
14.60410625932291
 20
3.201884142788598
 10
14.59745329288832
 20
3.204776736890543
 10
14.59080032645372
 20
3.208247849812933
 10
14.58472587883964
 20
3.212008222145497
 10
14.5786514312254
 20
3.216347113298505
 10
14.5728662430215
 20
3.220686004451428
 10
14.56737031422779
 20
3.22560341442479
 10
14.56216364484416
 20
3.230810083808327
 10
14.55695697546062
 20
3.236016753191953
 10
14.55232882489744
 20
3.241801941395848
 10
14.54798993374452
 20
3.247876389010006
 10
14.54394030200169
 20
3.253950836624165
 10
14.53757659497736
 20
3.265521213032126
 10
14.53236992559381
 20
3.277670108260442
 10
14.52832029385106
 20
3.290397522309113
 10
14.5257169591593
 20
3.303414195768048
 10
14.52455992151842
 20
3.316720128637161
 10
14.52513844033886
 20
3.329736802096009
 10
14.52774177503062
 20
3.343042734965122
 10
14.53208066618355
 20
3.35577014901388
 10
14.53439474146514
 20
3.361266077807596
 10
14.53699807615691
 20
3.366472747191133
 10
14.53989067025895
 20
3.371679416574761
 10
14.54278326436098
 20
3.376596826548122
 10
14.5459651178731
 20
3.381803495931662
 10
14.54943623079549
 20
3.386720905905023
 10
14.55290734371788
 20
3.391349056468207
 10
14.55637845664018
 20
3.39626646644157
 10
14.56013882897284
 20
3.400894617004754
 10
14.56389920130531
 20
3.405233508157676
 10
14.56794883304815
 20
3.409861658720861
 10
14.57199846479088
 20
3.414200549873868
 10
14.57604809653363
 20
3.418539441026788
 10
14.58038698768663
 20
3.422589072769531
 10
14.58443661942947
 20
3.426638704512363
 10
14.58877551058239
 20
3.430688336255105
 10
14.59224662350478
 20
3.434737967997848
 10
14.59456069878637
 20
3.439366118561031
 10
14.59600699583733
 20
3.443994269124218
 10
14.59600699583733
 20
3.448911679097578
 10
14.5954284770169
 20
3.453250570250501
 10
14.59369292055574
 20
3.457589461403506
 10
14.59166810468442
 20
3.461060574325895
 10
14.58877551058239
 20
3.463663909017663
 10
14.48522064173152
 20
3.463663909017663
 10
14.49013805170489
 20
3.459035758454481
 10
14.49563398049859
 20
3.453250570250501
 10
14.50084064988223
 20
3.446308344405808
 10
14.50517954103515
 20
3.438787599740678
 10
14.50836139454735
 20
3.430399076844928
 10
14.50980769159834
 20
3.421721294538997
 10
14.50865065395762
 20
3.413043512233072
 10
14.50460102221479
 20
3.404654989337321
 10
14.47278248709302
 20
3.349117182579281
 10
14.46497248301772
 20
3.332918655608221
 10
14.46005507304436
 20
3.315852350406542
 10
14.45774099776277
 20
3.298207526384508
 10
14.45803025717293
 20
3.280273442952212
 10
14.46092285127489
 20
3.262339359519915
 10
14.46670803947887
 20
3.245273054318236
 10
14.47480730296444
 20
3.229074527347178
 10
14.4855099011417
 20
3.214611556837271
 10
14.49071657052524
 20
3.208826368633372
 10
14.49621249931905
 20
3.203330439839571
 10
14.50199768752302
 20
3.197834511045768
 10
14.50807213513718
 20
3.192627841662228
 10
14.51414658275133
 20
3.187999691099046
 10
14.52079954918594
 20
3.183371540535944
 10
14.52745251562037
 20
3.179032649382937
 10
14.53439474146514
 20
3.175272277050372
 10
14.54133696730991
 20
3.171511904717806
 10
14.54856845256487
 20
3.168330051205596
 10
14.55579993781983
 20
3.165726716513826
 10
14.56332068248496
 20
3.163412641232233
 10
14.57084142715009
 20
3.161387825360906
 10
14.5786514312254
 20
3.160230787720108
 10
14.58617217589062
 20
3.15936300948949
 10
14.59398217996602
 20
3.159073750079314
 10
14.70476853407175
 20
3.159073750079314
 10
14.70476853407175
 20
3.420274997488023
 10
14.70505779348193
 20
3.426060185691918
 10
14.70534705289209
 20
3.431845373895901
 10
14.70621483112272
 20
3.437341302689617
 10
14.70737186876352
 20
3.443126490893599
 10
14.70910742522475
 20
3.448622419687401
 10
14.71113224109608
 20
3.453829089070943
 10
14.71344631637768
 20
3.458746499044303
 10
14.71604965106944
 20
3.463663909017663
 10
14.61625515455123
 20
3.463663909017663
  0
LWPOLYLINE
  5
5EF
330
17
100
AcDbEntity
  8
4
  6
Continuous
100
AcDbPolyline
 90
      213
 70
     0
 43
0.0
 10
14.39012871514154
 20
3.446019084995631
 10
14.3834757487071
 20
3.448622419687401
 10
14.37682278227251
 20
3.450936494968992
 10
14.37016981583791
 20
3.452961310840321
 10
14.36322758999322
 20
3.45469686730156
 10
14.35628536414845
 20
3.455853904942355
 10
14.34934313830376
 20
3.457010942583153
 10
14.34240091245898
 20
3.457878720813685
 10
14.3354586866142
 20
3.458457239634126
 10
14.32822720135925
 20
3.458746499044303
 10
14.32128497551447
 20
3.458746499044303
 10
14.31405349025952
 20
3.458457239634126
 10
14.30711126441483
 20
3.457878720813685
 10
14.29987977915987
 20
3.457010942583153
 10
14.2929375533151
 20
3.456143164352533
 10
14.2859953274704
 20
3.45469686730156
 10
14.27905310162563
 20
3.453250570250501
 10
14.26690420639731
 20
3.449490197917935
 10
14.25504457057918
 20
3.443994269124218
 10
14.24376345358148
 20
3.437630562099881
 10
14.23277159599396
 20
3.429820558024486
 10
14.22264751663706
 20
3.421142775718557
 10
14.21310195610051
 20
3.411307955771834
 10
14.20471343320476
 20
3.400894617004754
 10
14.19719268853962
 20
3.389902759417234
 10
14.19111824092547
 20
3.378332383009276
 10
14.18649009036228
 20
3.366183487780957
 10
14.18301897743989
 20
3.354034592552642
 10
14.18157268038892
 20
3.341596437914148
 10
14.1818619397991
 20
3.329158283275653
 10
14.18388675567051
 20
3.316720128637161
 10
14.18793638741334
 20
3.304571233408845
 10
14.19430009443759
 20
3.293000857000883
 10
14.19574639148865
 20
3.291265300539731
 10
14.1974819479498
 20
3.289819003488758
 10
14.19921750441096
 20
3.288661965847961
 10
14.20124232028237
 20
3.287504928207165
 10
14.20326713615378
 20
3.286926409386726
 10
14.2052919520252
 20
3.286637149976546
 10
14.20760602730679
 20
3.286637149976546
 10
14.20992010258838
 20
3.287215668796988
 10
14.29206977508448
 20
3.302835676947608
 10
14.29669792564766
 20
3.303703455178226
 10
14.30132607621084
 20
3.304281973998667
 10
14.30624348618421
 20
3.305149752229198
 10
14.31087163674739
 20
3.305439011639462
 10
14.31578904672075
 20
3.306017530459818
 10
14.32041719728394
 20
3.306306789869996
 10
14.32504534784712
 20
3.306306789869996
 10
14.32996275782048
 20
3.306306789869996
 10
14.33459090838367
 20
3.306017530459818
 10
14.33921905894677
 20
3.305728271049641
 10
14.34384720950995
 20
3.305149752229198
 10
14.34847536007305
 20
3.304281973998667
 10
14.35281425122606
 20
3.303124936357868
 10
14.35744240178924
 20
3.301967898717073
 10
14.36178129294225
 20
3.300232342255835
 10
14.36612018409516
 20
3.298496785794684
 10
14.3759550040419
 20
3.292422338180529
 10
14.38318648929685
 20
3.283744555874601
 10
14.38810389927021
 20
3.273620476517613
 10
14.39099649337224
 20
3.262050100109736
 10
14.39128575278242
 20
3.249901204881421
 10
14.38926093691101
 20
3.237463050242928
 10
14.38521130516826
 20
3.225892673834968
 10
14.3791368575541
 20
3.215190075657709
 10
14.3747979664011
 20
3.210272665684348
 10
14.37045907524809
 20
3.205355255710987
 10
14.36525240586455
 20
3.201305623968154
 10
14.360045736481
 20
3.197545251635589
 10
14.3545498076873
 20
3.194074138713203
 10
14.34847536007305
 20
3.191181544611255
 10
14.34240091245898
 20
3.189156728739838
 10
14.33603720543456
 20
3.187421172278689
 10
14.32851646076943
 20
3.186553394048069
 10
14.32099571610429
 20
3.186553394048069
 10
14.31376423084934
 20
3.18713191286851
 10
14.30624348618421
 20
3.188867469329662
 10
14.29930126033943
 20
3.190892285201078
 10
14.29206977508448
 20
3.193784879303025
 10
14.28541680864996
 20
3.197255992225413
 10
14.27876384221545
 20
3.201305623968154
 10
14.27240013519103
 20
3.205933774531341
 10
14.26632568757696
 20
3.2108511845047
 10
14.26054049937288
 20
3.216347113298505
 10
14.25504457057918
 20
3.222132301502401
 10
14.25012716060581
 20
3.228206749116557
 10
14.24520975063245
 20
3.23457045614098
 10
14.24087085947944
 20
3.241223422575493
 10
14.23711048714696
 20
3.247876389010006
 10
14.17029156339122
 20
3.217504150939303
 10
14.17376267631361
 20
3.208826368633372
 10
14.17810156746653
 20
3.200437845737623
 10
14.18388675567051
 20
3.192917101072406
 10
14.19053972210511
 20
3.185685615817537
 10
14.19806046677024
 20
3.179032649382937
 10
14.20644898966591
 20
3.172958201768778
 10
14.2154160313821
 20
3.167462272975065
 10
14.22496159191865
 20
3.162544863001701
 10
14.23508567127555
 20
3.158495231258873
 10
14.24549901004263
 20
3.155024118336482
 10
14.25649086763023
 20
3.152131524234536
 10
14.26719346580749
 20
3.150395967773383
 10
14.278185323395
 20
3.148949670722411
 10
14.28917718098253
 20
3.148660411312149
 10
14.29987977915987
 20
3.14923893013259
 10
14.31058237733721
 20
3.150395967773383
 10
14.31868164082269
 20
3.152131524234536
 10
14.32649164489801
 20
3.15444559951613
 10
14.33430164897341
 20
3.1570489342079
 10
14.34182239363862
 20
3.160230787720108
 10
14.34905387889349
 20
3.163991160052676
 10
14.35628536414845
 20
3.168330051205596
 10
14.36293833058296
 20
3.172668942358602
 10
14.36959129701756
 20
3.177875611742142
 10
14.37566574463171
 20
3.183082281125683
 10
14.38174019224588
 20
3.188867469329662
 10
14.38723612103959
 20
3.194941916943821
 10
14.39244279042313
 20
3.201594883378421
 10
14.39707094098632
 20
3.208247849812933
 10
14.40140983213932
 20
3.215190075657709
 10
14.40517020447188
 20
3.222421560912663
 10
14.40864131739427
 20
3.229942305577796
 10
14.41182317090641
 20
3.238330828473547
 10
14.414137246188
 20
3.246719351369296
 10
14.41587280264922
 20
3.255107874264961
 10
14.41731909970021
 20
3.264074915981153
 10
14.41789761852065
 20
3.272752698287082
 10
14.41789761852065
 20
3.281430480593008
 10
14.41731909970021
 20
3.290108262898936
 10
14.41587280264922
 20
3.298786045204863
 10
14.414137246188
 20
3.306306789869996
 10
14.41182317090641
 20
3.313538275124951
 10
14.40893057680446
 20
3.320480500969726
 10
14.40545946388215
 20
3.327422726814503
 10
14.40112057272914
 20
3.33349717442866
 10
14.39620316275578
 20
3.339282362632555
 10
14.3904179745518
 20
3.344489032016181
 10
14.38434352693764
 20
3.348827923169102
 10
14.38174019224588
 20
3.350563479630252
 10
14.37884759814393
 20
3.352299036091491
 10
14.3759550040419
 20
3.353745333142464
 10
14.37306240993986
 20
3.355191630193439
 10
14.37016981583791
 20
3.356637927244496
 10
14.36698796232579
 20
3.357794964885207
 10
14.36409536822384
 20
3.358662743115826
 10
14.36091351471163
 20
3.359530521346443
 10
14.35773166119942
 20
3.360398299577062
 10
14.3545498076873
 20
3.361266077807596
 10
14.35136795417508
 20
3.361844596628037
 10
14.34818610066287
 20
3.362423115448391
 10
14.34500424715074
 20
3.363001634268832
 10
14.34182239363862
 20
3.363290893679009
 10
14.33835128071615
 20
3.363869412499365
 10
14.33516942720402
 20
3.364158671909629
 10
14.3319875736919
 20
3.364158671909629
 10
14.3288057201796
 20
3.364158671909629
 10
14.32562386666748
 20
3.364447931319805
 10
14.32244201315534
 20
3.364447931319805
 10
14.31926015964314
 20
3.364447931319805
 10
14.31607830613093
 20
3.364737190729984
 10
14.31260719320854
 20
3.364737190729984
 10
14.30913608028616
 20
3.364737190729984
 10
14.30566496736385
 20
3.364737190729984
 10
14.30219385444146
 20
3.364447931319805
 10
14.29814422269872
 20
3.364158671909629
 10
14.29438385036607
 20
3.363869412499365
 10
14.29033421862332
 20
3.363580153089187
 10
14.2859953274704
 20
3.363001634268832
 10
14.28165643631739
 20
3.362133856038216
 10
14.27702828575421
 20
3.361266077807596
 10
14.21078788081891
 20
3.349117182579281
 10
14.20905232435768
 20
3.355191630193439
 10
14.20818454612715
 20
3.36097681839742
 10
14.20847380553732
 20
3.367051266011575
 10
14.20934158376794
 20
3.372836454215556
 10
14.21136639963927
 20
3.37862164241945
 10
14.21368047492086
 20
3.384117571213256
 10
14.21715158784325
 20
3.389613500006973
 10
14.22091196017582
 20
3.394530909980334
 10
14.22525085132882
 20
3.399159060543518
 10
14.23016826130219
 20
3.403787211106703
 10
14.23537493068573
 20
3.407547583439267
 10
14.2411601188897
 20
3.411018696361656
 10
14.24723456650386
 20
3.413911290463603
 10
14.25330901411802
 20
3.416514625155461
 10
14.25967272114236
 20
3.418250181616611
 10
14.26632568757696
 20
3.419407219257408
 10
14.27211087578085
 20
3.419696478667582
 10
14.278185323395
 20
3.419696478667582
 10
14.28397051159899
 20
3.419117959847228
 10
14.28975569980289
 20
3.418250181616611
 10
14.29554088800695
 20
3.417093143975815
 10
14.30132607621084
 20
3.415357587514663
 10
14.30682200500456
 20
3.413332771643247
 10
14.31231793379836
 20
3.411018696361656
 10
14.31781386259217
 20
3.408415361669888
 10
14.32330979138589
 20
3.405522767567852
 10
14.32851646076943
 20
3.402630173465906
 10
14.33372313015297
 20
3.399159060543518
 10
14.33864054012633
 20
3.395687947621129
 10
14.34355795009969
 20
3.392216834698826
 10
14.34847536007305
 20
3.388456462366261
 10
14.35310351063623
 20
3.384696090033608
 10
14.42802169787755
 20
3.41998573807776
 10
14.42397206613471
 20
3.424035369820591
 10
14.4196331749818
 20
3.428085001563335
 10
14.41529428382888
 20
3.431845373895901
 10
14.41037687385551
 20
3.435027227408111
 10
14.40545946388215
 20
3.438209080920238
 10
14.40054205390878
 20
3.44110167502227
 10
14.39533538452517
 20
3.44370500971404
 10
14.39012871514154
 20
3.446019084995631
  0
LWPOLYLINE
  5
6C6
330
17
100
AcDbEntity
  8
4
  6
Continuous
100
AcDbPolyline
 90
       21
 70
     0
 43
0.0
 10
12.95076600427846
 20
3.393373872339623
 10
12.94989822604791
 20
3.384406830623431
 10
12.94729489135615
 20
3.376018307727681
 10
12.94324525961332
 20
3.368786822472727
 10
12.93774933081961
 20
3.362423115448391
 10
12.93109636438501
 20
3.357216446064853
 10
12.92357561971988
 20
3.353456073732283
 10
12.91518709682421
 20
3.351141998450694
 10
12.90650931451819
 20
3.350274220220075
 10
12.84836817306838
 20
3.350274220220075
 10
12.84836817306838
 20
3.424613888640946
 10
12.84258298486449
 20
3.438787599740678
 10
12.90766635215898
 20
3.438787599740678
 10
12.91634413446492
 20
3.437919821510058
 10
12.92473265736067
 20
3.435316486818288
 10
12.93196414261562
 20
3.431266855075544
 10
12.93832784963996
 20
3.425770926281741
 10
12.94353451902349
 20
3.418828700436966
 10
12.94729489135615
 20
3.411307955771834
 10
12.94989822604791
 20
3.402630173465906
 10
12.95076600427846
 20
3.393373872339623
  0
LWPOLYLINE
  5
6DD
330
17
100
AcDbEntity
  8
4
  6
Continuous
100
AcDbPolyline
 90
      114
 70
     0
 43
0.0
 10
13.65415485737225
 20
3.15675967479772
 10
13.65097300386013
 20
3.15936300948949
 10
13.64779115034791
 20
3.163123381822056
 10
13.64460929683571
 20
3.168330051205596
 10
13.64142744332358
 20
3.174693758230016
 10
13.63853484922163
 20
3.182214502895149
 10
13.63622077394004
 20
3.191470804021431
 10
13.63448521747881
 20
3.202173402198773
 10
13.63332817983809
 20
3.214322297427091
 10
13.63332817983809
 20
3.405812026978118
 10
13.63303892042792
 20
3.411018696361656
 10
13.63188188278703
 20
3.416514625155461
 10
13.62985706691562
 20
3.422010553949178
 10
13.62696447281367
 20
3.427217223332716
 10
13.62320410048112
 20
3.432423892716339
 10
13.61857594991792
 20
3.437630562099881
 10
13.61336928053438
 20
3.442547972073243
 10
13.60729483292023
 20
3.447465382046603
 10
13.60064186648563
 20
3.451804273199526
 10
13.59312112182049
 20
3.455853904942355
 10
13.58473259892484
 20
3.459325017864742
 10
13.57605481661881
 20
3.46250687137687
 10
13.56621999667209
 20
3.464820946658461
 10
13.55609591731519
 20
3.466845762529876
 10
13.54510405972767
 20
3.468002800170673
 10
13.53353368331979
 20
3.468581318991026
 10
13.52109552868131
 20
3.468002800170673
 10
13.50894663345298
 20
3.466267243709435
 10
13.49708699763485
 20
3.462796130787046
 10
13.48580588063707
 20
3.458457239634126
 10
13.47510328245981
 20
3.452672051430143
 10
13.46468994369273
 20
3.446019084995631
 10
13.45514438315619
 20
3.438209080920238
 10
13.44617734143999
 20
3.429531298614308
 10
13.43807807795451
 20
3.41998573807776
 10
13.43055733328938
 20
3.409861658720861
 10
13.42419362626496
 20
3.399159060543518
 10
13.41898695688142
 20
3.38787794354582
 10
13.4146480657284
 20
3.376018307727681
 10
13.41146621221628
 20
3.363869412499365
 10
13.40944139634486
 20
3.351431257860873
 10
13.40886287752451
 20
3.338703843812201
 10
13.40886287752451
 20
3.197545251635589
 10
13.40828435870407
 20
3.188578209919485
 10
13.40625954283274
 20
3.181057465254355
 10
13.40365620814097
 20
3.174693758230016
 10
13.40018509521849
 20
3.169487088846393
 10
13.3967139822962
 20
3.165437457103648
 10
13.39324286937381
 20
3.161966344181258
 10
13.38977175645142
 20
3.15936300948949
 10
13.38716842175965
 20
3.1570489342079
 10
13.44849141672159
 20
3.1570489342079
 10
13.45659068020707
 20
3.158205971848694
 10
13.46353290605185
 20
3.161098565950642
 10
13.46960735366609
 20
3.165437457103648
 10
13.47481402304963
 20
3.171222645307629
 10
13.47915291420255
 20
3.177586352331966
 10
13.48233476771477
 20
3.18452857817674
 10
13.48435958358617
 20
3.191760063431694
 10
13.48551662122688
 20
3.198991548686564
 10
13.48609514004724
 20
3.209404887453728
 10
13.48464884299636
 20
3.220107485631071
 10
13.48262402712494
 20
3.230520824398151
 10
13.48002069243317
 20
3.240644903755136
 10
13.47654957951079
 20
3.255107874264961
 10
13.47336772599857
 20
3.26957084477487
 10
13.47047513189663
 20
3.284033815284776
 10
13.46758253779468
 20
3.298496785794684
 10
13.4649792031029
 20
3.312959756304595
 10
13.4629543872315
 20
3.327711986224681
 10
13.46121883077026
 20
3.342174956734588
 10
13.46006179312954
 20
3.356927186654673
 10
13.45977253371937
 20
3.369076081882989
 10
13.4606403119499
 20
3.381514236521486
 10
13.46266512782131
 20
3.3936631317498
 10
13.46584698133344
 20
3.405522767567939
 10
13.47047513189663
 20
3.416514625155461
 10
13.47654957951079
 20
3.426638704512363
 10
13.48407032417592
 20
3.435316486818288
 10
13.49361588471246
 20
3.442547972073243
 10
13.49911181350627
 20
3.445440566175191
 10
13.50489700171016
 20
3.447465382046603
 10
13.51097144932432
 20
3.448911679097578
 10
13.51704589693847
 20
3.449779457328196
 10
13.52340960396289
 20
3.449779457328196
 10
13.52977331098715
 20
3.448911679097578
 10
13.53584775860139
 20
3.447465382046603
 10
13.54192220621547
 20
3.445440566175191
 10
13.54741813500927
 20
3.442547972073243
 10
13.55262480439288
 20
3.439076859150853
 10
13.55754221436617
 20
3.434737967997848
 10
13.56159184610892
 20
3.429820558024486
 10
13.56506295903139
 20
3.424324629230768
 10
13.56795555313333
 20
3.417960922206431
 10
13.56998036900474
 20
3.411018696361656
 10
13.57084814723528
 20
3.403497951696524
 10
13.57084814723528
 20
3.19812377045603
 10
13.57113740664546
 20
3.193206360482669
 10
13.57200518487607
 20
3.188867469329662
 10
13.57345148192705
 20
3.18452857817674
 10
13.57518703838828
 20
3.180478946433912
 10
13.57750111366988
 20
3.177007833511526
 10
13.58010444836165
 20
3.173536720589221
 10
13.58299704246359
 20
3.170354867077011
 10
13.58646815538598
 20
3.167462272975065
 10
13.59022852771854
 20
3.165148197693472
 10
13.59398890005111
 20
3.162834122411878
 10
13.59803853179386
 20
3.161098565950642
 10
13.60237742294686
 20
3.159652268899669
 10
13.60671631409988
 20
3.158205971848694
 10
13.61134446466306
 20
3.157338193618076
 10
13.61568335581598
 20
3.1570489342079
 10
13.62031150637908
 20
3.15675967479772
 10
13.65415485737225
 20
3.15675967479772
  0
LWPOLYLINE
  5
751
330
17
100
AcDbEntity
  8
4
  6
Continuous
100
AcDbPolyline
 90
       59
 70
     0
 43
0.0
 10
12.55220653888922
 20
3.375439788907326
 10
12.58171099872939
 20
3.398002022902721
 10
12.58633914929258
 20
3.397712763492545
 10
12.59067804044558
 20
3.397134244672188
 10
12.59501693159851
 20
3.395977207031393
 10
12.59906656334125
 20
3.394820169390596
 10
12.60340545449426
 20
3.393084612929359
 10
12.60745508623709
 20
3.39105979705803
 10
12.61121545856957
 20
3.388745721776437
 10
12.61497583090221
 20
3.386142387084667
 10
12.61844694382452
 20
3.383539052392813
 10
12.62191805674691
 20
3.380646458290866
 10
12.6253891696693
 20
3.377753864188917
 10
12.62857102318143
 20
3.374572010676708
 10
12.63146361728346
 20
3.371390157164583
 10
12.63435621138549
 20
3.368208303652373
 10
12.63695954607725
 20
3.365315709550424
 10
12.63927362135877
 20
3.362133856038216
 10
12.64737288484434
 20
3.349406441989542
 10
12.65373659186868
 20
3.33610050912043
 10
12.65836474243186
 20
3.321926798020701
 10
12.66154659594407
 20
3.307463827510792
 10
12.6635714118154
 20
3.292711597590706
 10
12.66443919004602
 20
3.277670108260442
 10
12.66501770886637
 20
3.262628618930178
 10
12.66472844945619
 20
3.247587129599828
 10
12.66414993063584
 20
3.23977712552452
 10
12.66270363358477
 20
3.232256380859388
 10
12.66038955830319
 20
3.225024895604432
 10
12.65749696420124
 20
3.218082669759656
 10
12.65402585127885
 20
3.211429703325142
 10
12.64968696012593
 20
3.205065996300723
 10
12.64505880956275
 20
3.199280808096828
 10
12.63985214017921
 20
3.193784879303025
 10
12.63406695197523
 20
3.188867469329662
 10
12.62828176377124
 20
3.184239318766478
 10
12.62191805674691
 20
3.180189687023736
 10
12.61555434972257
 20
3.176429314691167
 10
12.60919064269815
 20
3.173247461178957
 10
12.60253767626373
 20
3.170933385897366
 10
12.59588470982913
 20
3.168908570026038
 10
12.58952100280471
 20
3.167462272975065
 10
12.58576063047222
 20
3.16775153238524
 10
12.58200025813958
 20
3.168040791795418
 10
12.5782398858071
 20
3.168908570026038
 10
12.57476877288462
 20
3.170065607666832
 10
12.57129765996232
 20
3.171511904717806
 10
12.56811580645011
 20
3.173247461178957
 10
12.5649339529379
 20
3.175561536460548
 10
12.56233061824613
 20
3.177875611742142
 10
12.55943802414418
 20
3.180768205844174
 10
12.55741320827276
 20
3.183950059356298
 10
12.55567765181161
 20
3.187421172278689
 10
12.55423135476064
 20
3.191181544611255
 10
12.55336357653002
 20
3.194941916943821
 10
12.55278505770958
 20
3.198991548686564
 10
12.55220653888922
 20
3.203041180429393
 10
12.55220653888922
 20
3.207090812172137
 10
12.55220653888922
 20
3.375439788907326
  0
LWPOLYLINE
  5
78E
330
17
100
AcDbEntity
  8
4
  6
Continuous
100
AcDbPolyline
 90
       61
 70
     0
 43
0.0
 10
12.95192304191933
 20
3.328001245634858
 10
12.960311564815
 20
3.328579764455298
 10
12.96841082830058
 20
3.329736802096094
 10
12.97564231355544
 20
3.331472358557244
 10
12.98229527999004
 20
3.33378643383884
 10
12.98808046819402
 20
3.336679027940785
 10
12.99357639698782
 20
3.339860881452997
 10
12.99849380696118
 20
3.343621253785562
 10
13.00283269811411
 20
3.347960144938482
 10
13.00659307044667
 20
3.352588295501667
 10
13.00977492395879
 20
3.357505705475031
 10
13.01237825865065
 20
3.36271237485857
 10
13.01440307452198
 20
3.368497563062548
 10
13.01613863098321
 20
3.374282751266528
 10
13.01729566862393
 20
3.380357198880689
 10
13.01787418744445
 20
3.386720905905023
 10
13.01816344685464
 20
3.393373872339623
 10
13.01787418744445
 20
3.399448319953782
 10
13.01671714980357
 20
3.405522767567939
 10
13.0152708527526
 20
3.411307955771834
 10
13.01295677747101
 20
3.417093143975815
 10
13.01035344277924
 20
3.422589072769531
 10
13.00717158926702
 20
3.427795742153158
 10
13.00341121693455
 20
3.43271315212652
 10
12.99936158519172
 20
3.437341302689703
 10
12.99473343462853
 20
3.441390934432448
 10
12.98981602465518
 20
3.445151306765013
 10
12.98489861468181
 20
3.448333160277222
 10
12.97940268588809
 20
3.451225754379171
 10
12.97361749768412
 20
3.453539829660763
 10
12.96783230948014
 20
3.454986126711736
 10
12.96175786186605
 20
3.456143164352533
 10
12.95568341425181
 20
3.456432423762711
 10
12.75320182711327
 20
3.456432423762711
 10
12.75609442121529
 20
3.454118348481117
 10
12.75869775590708
 20
3.451804273199526
 10
12.76130109059893
 20
3.449200938507756
 10
12.76361516588052
 20
3.446886863226165
 10
12.76592924116203
 20
3.444572787944573
 10
12.76824331644362
 20
3.441680193842624
 10
12.77026813231495
 20
3.438787599740678
 10
12.77229294818636
 20
3.435316486818288
 10
12.77518554228831
 20
3.428952779793954
 10
12.7774996175699
 20
3.42143203512882
 10
12.77894591462097
 20
3.414200549873868
 10
12.77952443344132
 20
3.408415361669888
 10
12.77981369285149
 20
3.148371151901971
 10
12.84952521070927
 20
3.209404887453728
 10
12.84952521070927
 20
3.330026061506273
 10
12.88018670819015
 20
3.330315320916451
 10
12.98460935527163
 20
3.157338193618076
 10
13.07456903184321
 20
3.15675967479772
 10
13.0690731030494
 20
3.159941528309845
 10
13.06357717425569
 20
3.163701900642498
 10
13.05837050487206
 20
3.167462272975065
 10
13.05316383548852
 20
3.171801164127986
 10
13.04824642551517
 20
3.175850795870728
 10
13.04361827495198
 20
3.180478946433912
 10
13.03899012438879
 20
3.185107096997096
 10
13.03436197382561
 20
3.190024506970459
 10
12.95192304191933
 20
3.328001245634858
  0
LWPOLYLINE
  5
7CD
330
17
100
AcDbEntity
  8
4
  6
Continuous
100
AcDbPolyline
 90
       83
 70
     0
 43
0.0
 10
12.66964585942956
 20
3.425192407461388
 10
12.66501770886637
 20
3.429531298614308
 10
12.66038955830319
 20
3.433870189767314
 10
12.65576140774008
 20
3.437919821510058
 10
12.65084399776673
 20
3.441680193842624
 10
12.6456373283831
 20
3.444862047354837
 10
12.63985214017921
 20
3.447754641456783
 10
12.63348843315479
 20
3.450357976148553
 10
12.62625694789983
 20
3.45209353260979
 10
12.49146206274765
 20
3.377464604778741
 10
12.4908835439273
 20
3.185107096997096
 10
12.49117280333746
 20
3.18192524348497
 10
12.49175132215782
 20
3.178454130562583
 10
12.4929083597987
 20
3.175561536460548
 10
12.49435465684959
 20
3.172668942358602
 10
12.49609021331083
 20
3.170065607666832
 10
12.49811502918224
 20
3.167462272975065
 10
12.50042910446384
 20
3.165437457103648
 10
12.5030324391556
 20
3.163412641232233
 10
12.50737133030861
 20
3.160809306540464
 10
12.51199948087171
 20
3.158495231258873
 10
12.51662763143489
 20
3.156470415387542
 10
12.52154504140825
 20
3.154734858926306
 10
12.52646245138162
 20
3.153577821285511
 10
12.53137986135498
 20
3.152420783644713
 10
12.53658653073852
 20
3.151553005414181
 10
12.54179320012215
 20
3.150685227183563
 10
12.54699986950568
 20
3.150395967773383
 10
12.55220653888922
 20
3.150106708363122
 10
12.55741320827276
 20
3.150106708363122
 10
12.56290913706648
 20
3.150395967773383
 10
12.56811580645011
 20
3.150685227183563
 10
12.57332247583373
 20
3.151263746003917
 10
12.57852914521727
 20
3.15184226482436
 10
12.5837358146008
 20
3.152710043054978
 10
12.58981026221497
 20
3.153577821285511
 10
12.59588470982913
 20
3.155024118336482
 10
12.60166989803302
 20
3.156470415387542
 10
12.60745508623709
 20
3.158205971848694
 10
12.61324027444098
 20
3.160230787720108
 10
12.61902546264488
 20
3.162544863001701
 10
12.62452139143876
 20
3.165148197693472
 10
12.63001732023249
 20
3.16775153238524
 10
12.63522398961602
 20
3.170644126487187
 10
12.64071991840974
 20
3.173825979999399
 10
12.6456373283831
 20
3.177297092921788
 10
12.65084399776673
 20
3.180768205844174
 10
12.65576140774008
 20
3.18452857817674
 10
12.66038955830319
 20
3.188288950509306
 10
12.66501770886637
 20
3.192338582252051
 10
12.66964585942956
 20
3.196388213994795
 10
12.67687734468451
 20
3.203908958659928
 10
12.6835303111191
 20
3.211718962735321
 10
12.68989401814345
 20
3.219818226220807
 10
12.69538994693725
 20
3.228496008526823
 10
12.70059661632079
 20
3.237752309653105
 10
12.70522476688397
 20
3.247008610779473
 10
12.70898513921645
 20
3.256554171316018
 10
12.71245625213893
 20
3.266388991262743
 10
12.71505958683069
 20
3.276223811209468
 10
12.71708440270203
 20
3.286637149976546
 10
12.71853069975299
 20
3.29676122933345
 10
12.71939847798362
 20
3.307174568100615
 10
12.71968773739379
 20
3.317298647457516
 10
12.71910921857336
 20
3.327711986224681
 10
12.71795218093264
 20
3.338125324991759
 10
12.71621662447141
 20
3.348249404348746
 10
12.71477032742044
 20
3.353745333142464
 10
12.71332403036945
 20
3.359241261936265
 10
12.71158847390823
 20
3.364737190729984
 10
12.7095636580369
 20
3.369943860113524
 10
12.7072495827553
 20
3.375150529497147
 10
12.70464624806353
 20
3.380357198880689
 10
12.70204291337168
 20
3.38527460885405
 10
12.69915031926972
 20
3.390192018827413
 10
12.6959684657576
 20
3.395109428800774
 10
12.69249735283522
 20
3.399737579363959
 10
12.68902623991283
 20
3.404365729927143
 10
12.68555512699044
 20
3.408704621080064
 10
12.68179475465787
 20
3.413043512233072
 10
12.67774512291512
 20
3.417093143975815
 10
12.67369549117238
 20
3.421142775718557
 10
12.66964585942956
 20
3.425192407461388
  0
LWPOLYLINE
  5
822
330
17
100
AcDbEntity
  8
4
  6
Continuous
100
AcDbPolyline
 90
      271
 70
     0
 43
0.0
 10
13.30775805707773
 20
3.341017919093791
 10
13.30370842533499
 20
3.343331994375386
 10
13.29965879359216
 20
3.345356810246713
 10
13.29531990243924
 20
3.347092366707951
 10
13.29127027069649
 20
3.348827923169102
 10
13.28693137954349
 20
3.350563479630252
 10
13.28259248839048
 20
3.351720517271051
 10
13.27825359723756
 20
3.353166814322108
 10
13.27391470608464
 20
3.354323851962905
 10
13.26928655552146
 20
3.355191630193439
 10
13.26494766436845
 20
3.35577014901388
 10
13.26003025439509
 20
3.356348667834232
 10
13.2554021038319
 20
3.356927186654673
 10
13.25048469385854
 20
3.357216446064853
 10
13.24556728388517
 20
3.357216446064853
 10
13.24064987391181
 20
3.357216446064853
 10
13.23544320452827
 20
3.356927186654673
 10
13.16717798372156
 20
3.296182710513093
 10
13.1723846531051
 20
3.297339748153888
 10
13.17759132248864
 20
3.298496785794684
 10
13.18279799187226
 20
3.299653823435481
 10
13.18800466125589
 20
3.300521601666101
 10
13.19321133063943
 20
3.301389379896633
 10
13.19841800002297
 20
3.301967898717073
 10
13.20362466940651
 20
3.302546417537431
 10
13.20912059820023
 20
3.302835676947608
 10
13.21432726758376
 20
3.303124936357868
 10
13.21953393696739
 20
3.303124936357868
 10
13.22474060635103
 20
3.303124936357868
 10
13.22994727573456
 20
3.302835676947608
 10
13.2351539451181
 20
3.302257158127251
 10
13.24036061450164
 20
3.301389379896633
 10
13.24556728388517
 20
3.300521601666101
 10
13.25077395326871
 20
3.299364564025303
 10
13.25424506619119
 20
3.298207526384508
 10
13.25800543852367
 20
3.297339748153888
 10
13.26147655144606
 20
3.295893451102914
 10
13.26494766436845
 20
3.29473641346212
 10
13.26841877729084
 20
3.293290116411146
 10
13.27188989021322
 20
3.291843819360088
 10
13.27507174372534
 20
3.290108262898936
 10
13.27854285664782
 20
3.288372706437785
 10
13.28172471015995
 20
3.28634789056637
 10
13.2846173042619
 20
3.284323074694956
 10
13.28750989836384
 20
3.282298258823626
 10
13.29040249246587
 20
3.279984183542035
 10
13.29300582715765
 20
3.277380848850265
 10
13.29560916184941
 20
3.274777514158493
 10
13.29792323713101
 20
3.271884920056461
 10
13.3002373124126
 20
3.268992325954513
 10
13.30370842533499
 20
3.263785656570888
 10
13.30660101943693
 20
3.258000468366993
 10
13.30862583530835
 20
3.252215280163013
 10
13.31007213235932
 20
3.245851573138677
 10
13.31093991058994
 20
3.23977712552452
 10
13.31065065117977
 20
3.233413418500183
 10
13.30920435412871
 20
3.227338970886026
 10
13.30689027884712
 20
3.221553782682045
 10
13.30341916592481
 20
3.216347113298505
 10
13.29936953418198
 20
3.212008222145497
 10
13.2947413836188
 20
3.208247849812933
 10
13.28924545482508
 20
3.205065996300723
 10
13.28346026662119
 20
3.202462661608953
 10
13.27767507841712
 20
3.200437845737623
 10
13.27131137139287
 20
3.198702289276388
 10
13.26523692377863
 20
3.197545251635589
 10
13.26234432967668
 20
3.197255992225413
 10
13.25916247616455
 20
3.196677473405058
 10
13.25626988206252
 20
3.196388213994795
 10
13.25308802855031
 20
3.196388213994795
 10
13.24990617503818
 20
3.196098954584616
 10
13.24701358093624
 20
3.196098954584616
 10
13.24383172742394
 20
3.196098954584616
 10
13.24064987391181
 20
3.196098954584616
 10
13.23775727980987
 20
3.196098954584616
 10
13.23457542629774
 20
3.196388213994795
 10
13.23139357278545
 20
3.196388213994795
 10
13.22821171927332
 20
3.196966732815237
 10
13.22531912517137
 20
3.197255992225413
 10
13.22213727165916
 20
3.197834511045853
 10
13.21924467755713
 20
3.198413029866209
 10
13.216062824045
 20
3.198991548686564
 10
13.2125917111227
 20
3.199859326917183
 10
13.20912059820023
 20
3.200727105147801
 10
13.2059387446881
 20
3.201884142788598
 10
13.20246763176571
 20
3.203041180429393
 10
13.1992857782535
 20
3.204487477480366
 10
13.19610392474138
 20
3.205933774531341
 10
13.19292207122917
 20
3.207669330992578
 10
13.18974021771696
 20
3.209404887453728
 10
13.18684762361501
 20
3.21114044391488
 10
13.18366577010288
 20
3.213165259786294
 10
13.18077317600085
 20
3.215190075657709
 10
13.17788058189882
 20
3.217214891529037
 10
13.17498798779687
 20
3.219239707400453
 10
13.1723846531051
 20
3.221553782682045
 10
13.16949205900316
 20
3.223867857963638
 10
13.16688872431138
 20
3.226181933245227
 10
13.16254983315838
 20
3.230520824398151
 10
13.15850020141563
 20
3.235148974961336
 10
13.15445056967289
 20
3.23977712552452
 10
13.15040093793006
 20
3.244405276087702
 10
13.14664056559758
 20
3.249033426650802
 10
13.14316945267511
 20
3.253950836624165
 10
13.13940908034262
 20
3.259157506007788
 10
13.13622722683033
 20
3.264074915981153
 10
13.13304537331821
 20
3.269281585364693
 10
13.13015277921625
 20
3.274777514158493
 10
13.12754944452449
 20
3.279984183542035
 10
13.12494610983272
 20
3.285480112335752
 10
13.12263203455112
 20
3.291265300539731
 10
13.1208964780899
 20
3.29676122933345
 10
13.11916092162874
 20
3.302835676947608
 10
13.11771462457777
 20
3.308620865151587
 10
13.11568980870635
 20
3.321926798020701
 10
13.11482203047581
 20
3.335811249710168
 10
13.11568980870635
 20
3.349695701399721
 10
13.11800388398794
 20
3.363001634268832
 10
13.12205351573069
 20
3.375729048317502
 10
13.12812796334484
 20
3.387299424725464
 10
13.13593796742015
 20
3.397712763492545
 10
13.14577278736688
 20
3.406101286388294
 10
13.14924390028935
 20
3.408126102259709
 10
13.15271501321165
 20
3.409861658720861
 10
13.1564753855443
 20
3.411597215182013
 10
13.15994649846661
 20
3.413043512233072
 10
13.16370687079926
 20
3.414200549873868
 10
13.16775650254191
 20
3.415357587514663
 10
13.17151687487457
 20
3.416225365745197
 10
13.17556650661731
 20
3.416803884565638
 10
13.17932687894987
 20
3.417382403385991
 10
13.18337651069271
 20
3.41767166279617
 10
13.18742614243536
 20
3.41767166279617
 10
13.19147577417819
 20
3.41767166279617
 10
13.19552540592102
 20
3.41767166279617
 10
13.19957503766368
 20
3.417382403385991
 10
13.20333540999633
 20
3.416803884565638
 10
13.20738504173908
 20
3.416225365745197
 10
13.2125917111227
 20
3.415357587514663
 10
13.21779838050624
 20
3.414200549873868
 10
13.22300504988978
 20
3.413043512233072
 10
13.22792245986314
 20
3.411307955771834
 10
13.2328398698365
 20
3.409572399310683
 10
13.23775727980987
 20
3.407547583439267
 10
13.24267468978323
 20
3.405522767567939
 10
13.24759209975659
 20
3.403208692286348
 10
13.25222025031977
 20
3.400605357594493
 10
13.25655914147278
 20
3.398002022902721
 10
13.26118729203588
 20
3.394820169390596
 10
13.2655261831888
 20
3.391927575288562
 10
13.26986507434181
 20
3.388456462366261
 10
13.27391470608464
 20
3.38527460885405
 10
13.27796433782738
 20
3.381514236521486
 10
13.28172471015995
 20
3.377753864188917
 10
13.33523770104658
 20
3.406679805208652
 10
13.3317665881241
 20
3.413043512233072
 10
13.32771695638144
 20
3.418828700436966
 10
13.32308880581826
 20
3.424324629230768
 10
13.31788213643472
 20
3.42924203920413
 10
13.31238620764092
 20
3.433870189767314
 10
13.30631176002675
 20
3.437919821510058
 10
13.3002373124126
 20
3.441680193842624
 10
13.29387360538826
 20
3.445151306765013
 10
13.2889561954149
 20
3.447465382046603
 10
13.28374952603136
 20
3.449779457328196
 10
13.278832116058
 20
3.451804273199526
 10
13.27362544667446
 20
3.453539829660763
 10
13.26812951788057
 20
3.455275386121916
 10
13.26292284849703
 20
3.456432423762711
 10
13.25742691970331
 20
3.457589461403506
 10
13.2519309909096
 20
3.458457239634126
 10
13.24643506211579
 20
3.459035758454481
 10
13.24093913332199
 20
3.459325017864742
 10
13.2351539451181
 20
3.459614277274921
 10
13.22965801632438
 20
3.459614277274921
 10
13.22416208753049
 20
3.459325017864742
 10
13.21866615873677
 20
3.458746499044303
 10
13.21317022994305
 20
3.457878720813685
 10
13.20767430114925
 20
3.456721683172887
 10
13.20246763176571
 20
3.455564645532092
 10
13.19755022179235
 20
3.453829089070943
 10
13.19234355240874
 20
3.45209353260979
 10
13.18742614243536
 20
3.450357976148553
 10
13.18279799187226
 20
3.448043900866961
 10
13.17788058189882
 20
3.445729825585368
 10
13.17325243133572
 20
3.443126490893599
 10
13.16862428077262
 20
3.440523156201828
 10
13.16399613020943
 20
3.437630562099881
 10
13.15965723905643
 20
3.434737967997848
 10
13.15531834790343
 20
3.431556114485723
 10
13.1509794567505
 20
3.428374260973511
 10
13.14664056559758
 20
3.424903148051123
 10
13.14259093385475
 20
3.42143203512882
 10
13.13825204270174
 20
3.417960922206431
 10
13.134202410959
 20
3.414489809284045
 10
13.12841722275502
 20
3.409283139900503
 10
13.1229212939613
 20
3.40407647051688
 10
13.11742536516759
 20
3.398580541723163
 10
13.11221869578396
 20
3.392795353519183
 10
13.10701202640042
 20
3.387010165315202
 10
13.10209461642706
 20
3.381224977111306
 10
13.09746646586387
 20
3.375150529497147
 10
13.09283831530077
 20
3.368786822472727
 10
13.08878868355794
 20
3.362423115448391
 10
13.08473905181512
 20
3.35577014901388
 10
13.08097867948264
 20
3.349117182579281
 10
13.07779682597034
 20
3.342174956734588
 10
13.07490423186839
 20
3.335232730889812
 10
13.07230089717662
 20
3.328001245634858
 10
13.06998682189503
 20
3.320769760379903
 10
13.06825126543389
 20
3.313249015714771
 10
13.06651570897273
 20
3.303124936357868
 10
13.06564793074211
 20
3.292711597590706
 10
13.06535867133185
 20
3.282587518233803
 10
13.06564793074211
 20
3.27217417946664
 10
13.06680496838291
 20
3.262050100109736
 10
13.06882978425432
 20
3.251926020752836
 10
13.07143311894609
 20
3.241801941395932
 10
13.07490423186839
 20
3.232256380859388
 10
13.07721830714999
 20
3.227049711475761
 10
13.07982164184176
 20
3.221843042092221
 10
13.08242497653352
 20
3.216925632118861
 10
13.08560683004582
 20
3.212297481555676
 10
13.08878868355794
 20
3.207669330992578
 10
13.09225979648025
 20
3.203041180429393
 10
13.0960201688129
 20
3.198702289276388
 10
13.09978054114547
 20
3.194652657533643
 10
13.10383017288822
 20
3.190603025790901
 10
13.10816906404121
 20
3.186842653458334
 10
13.11250795519422
 20
3.183082281125683
 10
13.11684684634706
 20
3.179611168203381
 10
13.12147499691024
 20
3.176429314691167
 10
13.1263924068836
 20
3.173536720589221
 10
13.13130981685697
 20
3.170644126487187
 10
13.13622722683033
 20
3.168040791795418
 10
13.14779760323829
 20
3.163123381822056
 10
13.15965723905643
 20
3.159073750079314
 10
13.17180613428475
 20
3.156181155977278
 10
13.18424428892324
 20
3.153867080695772
 10
13.19668244356174
 20
3.152710043054978
 10
13.20912059820023
 20
3.152131524234536
 10
13.22155875283872
 20
3.152710043054978
 10
13.23428616688748
 20
3.15415634010595
 10
13.24643506211579
 20
3.156470415387542
 10
13.25829469793385
 20
3.159652268899669
 10
13.27015433375199
 20
3.163991160052676
 10
13.28143545074977
 20
3.168908570026038
 10
13.29213804892702
 20
3.174983017640196
 10
13.30226212828393
 20
3.18192524348497
 10
13.31180768882047
 20
3.189735247560281
 10
13.32077473053666
 20
3.198413029866209
 10
13.32742769697127
 20
3.206223033941518
 10
13.33350214458534
 20
3.214611556837271
 10
13.33899807337905
 20
3.223000079733018
 10
13.34362622394223
 20
3.232256380859388
 10
13.34767585568507
 20
3.241512681985671
 10
13.35085770919719
 20
3.251058242522216
 10
13.35288252506861
 20
3.260893062468941
 10
13.35432882211967
 20
3.271017141825843
 10
13.35461808152984
 20
3.279116405311415
 10
13.35403956270941
 20
3.286926409386726
 10
13.35259326565843
 20
3.29473641346212
 10
13.34998993096666
 20
3.302546417537431
 10
13.34651881804427
 20
3.308910124561766
 10
13.34246918630153
 20
3.314695312765746
 10
13.33755177632817
 20
3.320191241559548
 10
13.33234510694454
 20
3.325108651532908
 10
13.32655991874055
 20
3.329447542685834
 10
13.32048547112649
 20
3.33378643383884
 10
13.31412176410207
 20
3.337546806171403
 10
13.30775805707773
 20
3.341017919093791
  0
LWPOLYLINE
  5
933
330
17
100
AcDbEntity
  8
4
  6
Continuous
 62
     4
100
AcDbPolyline
 90
       96
 70
     0
 43
0.0
 10
13.96606436274175
 20
3.1570489342079
 10
13.96143621217857
 20
3.159941528309845
 10
13.9565188022052
 20
3.163412641232233
 10
13.95131213282166
 20
3.16775153238524
 10
13.94668398225848
 20
3.172668942358602
 10
13.94234509110547
 20
3.178164871152318
 10
13.93887397818317
 20
3.184817837586919
 10
13.93655990290158
 20
3.192049322841873
 10
13.93569212467088
 20
3.200437845737623
 10
13.93569212467088
 20
3.392216834698826
 10
13.93511360585052
 20
3.400316098184315
 10
13.93395656820972
 20
3.407836842849446
 10
13.93164249292822
 20
3.415068328104398
 10
13.92874989882619
 20
3.421721294538997
 10
13.9252787859038
 20
3.428374260973511
 10
13.92093989475078
 20
3.434159449177493
 10
13.91602248477743
 20
3.439655377971211
 10
13.91052655598371
 20
3.444862047354837
 10
13.90474136777982
 20
3.449490197917935
 10
13.89837766075539
 20
3.453539829660763
 10
13.89172469432079
 20
3.457010942583153
 10
13.88507172788636
 20
3.460192796095276
 10
13.87784024263141
 20
3.46250687137687
 10
13.87060875737646
 20
3.464242427838106
 10
13.86308801271132
 20
3.465688724889078
 10
13.85556726804611
 20
3.466267243709435
 10
13.85036059866248
 20
3.466267243709435
 10
13.84515392927894
 20
3.466267243709435
 10
13.84023651930558
 20
3.465688724889078
 10
13.83502984992204
 20
3.465110206068636
 10
13.83011243994868
 20
3.464242427838106
 10
13.82490577056514
 20
3.462796130787046
 10
13.81998836059178
 20
3.461349833736074
 10
13.81507095061841
 20
3.4599035366851
 10
13.81015354064505
 20
3.457878720813685
 10
13.80552539008187
 20
3.455853904942355
 10
13.80089723951869
 20
3.453539829660763
 10
13.7962690889555
 20
3.451225754379171
 10
13.79164093839231
 20
3.448333160277222
 10
13.78730204723948
 20
3.445729825585368
 10
13.78296315608648
 20
3.442837231483421
 10
13.77891352434365
 20
3.439655377971211
 10
13.77717796788249
 20
3.44370500971404
 10
13.7748638926009
 20
3.448043900866961
 10
13.77168203908869
 20
3.45209353260979
 10
13.76821092616638
 20
3.455853904942355
 10
13.76473981324392
 20
3.459035758454481
 10
13.76126870032161
 20
3.461639093146251
 10
13.75808684680949
 20
3.463374649607485
 10
13.75577277152789
 20
3.463953168427844
 10
13.68490421602941
 20
3.463953168427844
 10
13.68924310718233
 20
3.4599035366851
 10
13.69416051715569
 20
3.455275386121916
 10
13.6996564459495
 20
3.449779457328196
 10
13.70486311533304
 20
3.443415750303863
 10
13.7097805253064
 20
3.436184265048908
 10
13.71354089763896
 20
3.428663520383691
 10
13.716433491741
 20
3.420274997488023
 10
13.71730126997153
 20
3.411597215182013
 10
13.71730126997153
 20
3.157338193618076
 10
13.78238463726612
 20
3.209983406274083
 10
13.78238463726612
 20
3.393952391159977
 10
13.7826738966763
 20
3.398580541723163
 10
13.78354167490683
 20
3.402919432876083
 10
13.78527723136807
 20
3.406969064618913
 10
13.78730204723948
 20
3.411018696361656
 10
13.78961612252099
 20
3.415068328104398
 10
13.79250871662302
 20
3.418539441026788
 10
13.79597982954532
 20
3.422010553949178
 10
13.79945094246771
 20
3.425192407461388
 10
13.80350057421044
 20
3.427795742153158
 10
13.80755020595328
 20
3.43010981743475
 10
13.81188909710629
 20
3.432423892716339
 10
13.81622798825921
 20
3.433870189767314
 10
13.82085613882231
 20
3.435316486818288
 10
13.8254842893855
 20
3.435895005638645
 10
13.8298231805385
 20
3.436473524459084
 10
13.83445133110169
 20
3.436184265048908
 10
13.84168281635664
 20
3.435027227408111
 10
13.84862504220142
 20
3.43271315212652
 10
13.85527800863593
 20
3.429531298614308
 10
13.86106319683991
 20
3.425192407461388
 10
13.86598060681327
 20
3.41998573807776
 10
13.86974097914575
 20
3.413911290463603
 10
13.87205505442735
 20
3.406679805208652
 10
13.87292283265805
 20
3.398580541723163
 10
13.87292283265805
 20
3.193206360482669
 10
13.87379061088858
 20
3.185685615817537
 10
13.87610468617018
 20
3.178743389972761
 10
13.87957579909256
 20
3.172668942358602
 10
13.88449320906584
 20
3.167462272975065
 10
13.8902783972699
 20
3.163123381822056
 10
13.89693136370442
 20
3.159652268899669
 10
13.90416284895938
 20
3.157627453028339
 10
13.91197285303468
 20
3.1570489342079
 10
13.96606436274175
 20
3.1570489342079
  0
LWPOLYLINE
  5
995
330
17
100
AcDbEntity
  8
4
  6
Continuous
100
AcDbPolyline
 90
       46
 70
     0
 43
0.0
 10
15.18531376554991
 20
3.463085390197308
 10
15.02824590581251
 20
3.463085390197308
 10
15.03171701873482
 20
3.458457239634126
 10
15.03518813165721
 20
3.453250570250501
 10
15.03808072575924
 20
3.448043900866961
 10
15.04068406045101
 20
3.442547972073243
 10
15.04299813573259
 20
3.43676278386926
 10
15.04473369219366
 20
3.430977595665281
 10
15.04589072983455
 20
3.425481666871565
 10
15.04617998924471
 20
3.419696478667582
 10
15.04617998924471
 20
3.152710043054978
 10
15.11618076651259
 20
3.220107485631071
 10
15.11618076651259
 20
3.339860881452997
 10
15.21047933423708
 20
3.339860881452997
 10
15.21655378185133
 20
3.340150140863173
 10
15.22291748887557
 20
3.340439400273353
 10
15.22870267707964
 20
3.341307178503971
 10
15.23477712469371
 20
3.342464216144763
 10
15.24027305348743
 20
3.344199772605918
 10
15.24576898228123
 20
3.346513847887511
 10
15.25097565166486
 20
3.349117182579281
 10
15.25589306163822
 20
3.352299036091491
 10
15.26023195279114
 20
3.356059408424056
 10
15.2639923251237
 20
3.36068755898724
 10
15.26746343804609
 20
3.365604968960602
 10
15.27035603214813
 20
3.371390157164583
 10
15.27238084801946
 20
3.378043123599098
 10
15.27411640448061
 20
3.38527460885405
 10
15.27498418271123
 20
3.393373872339623
 10
15.27498418271123
 20
3.402340914055728
 10
15.27411640448061
 20
3.411886474592275
 10
15.27238084801946
 20
3.420564256898202
 10
15.26948825391743
 20
3.428085001563335
 10
15.26601714099512
 20
3.434737967997848
 10
15.26138899043194
 20
3.440523156201828
 10
15.25647158045859
 20
3.445440566175191
 10
15.2506863922546
 20
3.449490197917935
 10
15.24461194464044
 20
3.452961310840321
 10
15.23766971879566
 20
3.455853904942355
 10
15.23072749295097
 20
3.458167980223946
 10
15.22349600769601
 20
3.4599035366851
 10
15.21597526303088
 20
3.461060574325895
 10
15.20816525895549
 20
3.462217611966691
 10
15.20035525488018
 20
3.462796130787046
 10
15.19283451021505
 20
3.463085390197308
 10
15.18531376554991
 20
3.463085390197308
  0
LWPOLYLINE
  5
9C5
330
17
100
AcDbEntity
  8
4
  6
Continuous
100
AcDbPolyline
 90
       88
 70
     0
 43
0.0
 10
18.298555109065
 20
3.458746499044303
 10
18.10909019538548
 20
3.458746499044303
 10
18.11429686476902
 20
3.45469686730156
 10
18.11950353415255
 20
3.450068716738373
 10
18.12413168471574
 20
3.444862047354837
 10
18.12847057586867
 20
3.439655377971211
 10
18.13194168879106
 20
3.433580930357051
 10
18.13454502348282
 20
3.427506482742893
 10
18.13628057994406
 20
3.420564256898202
 10
18.13714835817459
 20
3.413622031053426
 10
18.13714835817459
 20
3.212586740965939
 10
18.08826351785114
 20
3.159073750079314
 10
18.26268694220049
 20
3.159073750079314
 10
18.26615805512288
 20
3.159073750079314
 10
18.26962916804519
 20
3.159652268899669
 10
18.27310028096766
 20
3.159941528309845
 10
18.27628213447978
 20
3.160809306540464
 10
18.27975324740217
 20
3.161677084771083
 10
18.28322436032456
 20
3.162834122411878
 10
18.28640621383669
 20
3.163991160052676
 10
18.28987732675907
 20
3.165726716513826
 10
18.29305918027129
 20
3.167173013564798
 10
18.29624103378341
 20
3.168908570026038
 10
18.29913362788544
 20
3.170933385897366
 10
18.30202622198748
 20
3.172958201768778
 10
18.30491881608942
 20
3.175272277050372
 10
18.30781141019137
 20
3.177586352331966
 10
18.31012548547296
 20
3.179900427613558
 10
18.31272882016473
 20
3.182503762305326
 10
18.31967104600951
 20
3.191181544611255
 10
18.32516697480323
 20
3.201305623968154
 10
18.32921660654606
 20
3.212008222145497
 10
18.33153068182765
 20
3.223000079733018
 10
18.33181994123782
 20
3.234281196730718
 10
18.33008438477659
 20
3.244694535497881
 10
18.32574549362358
 20
3.254529355444606
 10
18.31909252718915
 20
3.263207137750533
 10
18.25603397576598
 20
3.236016753191953
 10
18.25921582927811
 20
3.231388602628768
 10
18.26181916396988
 20
3.226181933245227
 10
18.26384397984129
 20
3.220975263861603
 10
18.26529027689227
 20
3.215479335067886
 10
18.26615805512288
 20
3.209983406274083
 10
18.26615805512288
 20
3.204487477480366
 10
18.26529027689227
 20
3.198991548686564
 10
18.26355472043111
 20
3.193784879303025
 10
18.26124064514953
 20
3.190024506970459
 10
18.25863731045776
 20
3.186553394048069
 10
18.25516619753537
 20
3.183371540535944
 10
18.25169508461298
 20
3.181057465254355
 10
18.24764545287015
 20
3.179032649382937
 10
18.24359582112749
 20
3.177297092921788
 10
18.23925692997448
 20
3.176429314691167
 10
18.23491803882147
 20
3.176140055280991
 10
18.13628057994406
 20
3.176140055280991
 10
18.20165320664873
 20
3.243826757267262
 10
18.20165320664873
 20
3.309777902792383
 10
18.27859620976138
 20
3.309777902792383
 10
18.27859620976138
 20
3.332918655608221
 10
18.20281024428953
 20
3.332918655608221
 10
18.20281024428953
 20
3.420853516308381
 10
18.18921505201025
 20
3.441969453252801
 10
18.23289322295005
 20
3.441969453252801
 10
18.24272804289678
 20
3.441390934432448
 10
18.25082730638244
 20
3.439076859150853
 10
18.25719101340669
 20
3.435316486818288
 10
18.26181916396988
 20
3.43010981743475
 10
18.26442249866165
 20
3.424035369820591
 10
18.26529027689227
 20
3.417093143975815
 10
18.26413323925146
 20
3.409283139900503
 10
18.26095138573934
 20
3.40147313582511
 10
18.32863808772562
 20
3.380935717701043
 10
18.3332662382888
 20
3.385853127674406
 10
18.33673735121119
 20
3.391349056468207
 10
18.33934068590296
 20
3.397423504082366
 10
18.34078698295394
 20
3.403497951696524
 10
18.34136550177437
 20
3.409861658720861
 10
18.34078698295394
 20
3.416514625155373
 10
18.33962994531314
 20
3.422878332179795
 10
18.33760512944173
 20
3.42924203920413
 10
18.33500179474995
 20
3.435027227408111
 10
18.33153068182765
 20
3.440812415612006
 10
18.32748105008483
 20
3.445729825585368
 10
18.32256364011146
 20
3.450068716738373
 10
18.31735697072792
 20
3.453829089070943
 10
18.31157178252393
 20
3.456432423762711
 10
18.30520807549961
 20
3.458167980223946
 10
18.298555109065
 20
3.458746499044303
  0
LWPOLYLINE
  5
A1F
330
17
100
AcDbEntity
  8
4
  6
Continuous
100
AcDbPolyline
 90
       21
 70
     0
 43
0.0
 10
12.29614784408168
 20
3.543403366049748
 10
12.29614784408168
 20
3.203745445419439
 10
12.30942595432528
 20
3.07203133398554
 10
12.32519371023949
 20
3.203745445419439
 10
12.32519371023949
 20
3.542810593271002
 10
12.32483804657231
 20
3.5476713300566
 10
12.3238896101263
 20
3.551939294063453
 10
12.32246695545732
 20
3.555495930735858
 10
12.32068863712116
 20
3.558459794629512
 10
12.31843610056194
 20
3.560712331188721
 10
12.31594645489126
 20
3.562372094969097
 10
12.31333825466486
 20
3.563320531415113
 10
12.31073005443848
 20
3.563676195082292
 10
12.3080032996563
 20
3.563439085970811
 10
12.30539509942991
 20
3.562490649524881
 10
12.30290545375922
 20
3.560830885744421
 10
12.30065291720009
 20
3.558696903740996
 10
12.29887459886385
 20
3.555851594403121
 10
12.29745194419496
 20
3.552294957730719
 10
12.29650350774894
 20
3.548145548279566
 10
12.29614784408168
 20
3.543403366049748
  0
LWPOLYLINE
  5
A36
330
17
100
AcDbEntity
  8
4
  6
Continuous
100
AcDbPolyline
 90
       21
 70
     0
 43
0.0
 10
12.24682452710033
 20
3.494851957225383
 10
12.24682452710033
 20
3.203863999975222
 10
12.26140673745704
 20
3.07203133398554
 10
12.27646316603681
 20
3.203271227196475
 10
12.27646316603681
 20
3.495918948227096
 10
12.27610750236955
 20
3.500661130456911
 10
12.27515906592361
 20
3.504691985352279
 10
12.27373641125463
 20
3.508130067468901
 10
12.2718395383627
 20
3.510975376806858
 10
12.26958700180348
 20
3.512990804254501
 10
12.26709735613288
 20
3.514532013479177
 10
12.2643706013507
 20
3.515361895369408
 10
12.26164384656853
 20
3.515599004480892
 10
12.25891709178636
 20
3.515124786257928
 10
12.25619033700418
 20
3.514057795256213
 10
12.25370069133357
 20
3.512398031475751
 10
12.25144815477437
 20
3.510145494916628
 10
12.24955128188251
 20
3.507181631022971
 10
12.24812862721345
 20
3.503743548906266
 10
12.24718019076752
 20
3.499594139455198
 10
12.24682452710033
 20
3.494851957225383
  0
LINE
  5
A4D
330
17
100
AcDbEntity
  8
0
100
AcDbLine
 10
12.09381483455096
 20
1.59999999999991
 30
0.0
 11
12.09381483455096
 21
3.631959753560116
 31
0.0
  0
LWPOLYLINE
  5
A4E
330
17
100
AcDbEntity
  8
4
  6
Continuous
100
AcDbPolyline
 90
       21
 70
     0
 43
0.0
 10
12.34416706094991
 20
3.515210762388193
 10
12.34416706094991
 20
3.203745445419439
 10
12.35744517119343
 20
3.07203133398554
 10
12.37321292710773
 20
3.203745445419439
 10
12.37321292710773
 20
3.514617989609446
 10
12.37285726344046
 20
3.519478726395046
 10
12.37190882699445
 20
3.523746690401896
 10
12.37048617232555
 20
3.527303327074301
 10
12.3687078539893
 20
3.530267190967958
 10
12.36645531743018
 20
3.532519727527167
 10
12.36396567175949
 20
3.534179491307628
 10
12.3613574715331
 20
3.535127927753556
 10
12.35874927130671
 20
3.535483591420824
 10
12.35602251652454
 20
3.535246482309341
 10
12.35341431629814
 20
3.534298045863326
 10
12.35092467062745
 20
3.532638282082865
 10
12.34867213406833
 20
3.53050430007944
 10
12.34689381573209
 20
3.527658990741567
 10
12.34547116106311
 20
3.524102354069162
 10
12.34452272461709
 20
3.519952944618095
 10
12.34416706094991
 20
3.515210762388193
  0
LINE
  5
A65
330
17
100
AcDbEntity
  8
0
100
AcDbLine
 10
12.09381483455096
 20
2.26984492229749
 30
0.0
 11
17.5469693905078
 21
2.26984492229749
 31
0.0
  0
TEXT
  5
A66
330
17
100
AcDbEntity
  8
3
100
AcDbText
 10
12.17301203311849
 20
2.372154126682993
 30
0.0
 40
0.0781522982138528
  1
FILE PATH:
  7
SIMPLEX
100
AcDbText
  0
TEXT
  5
A67
330
17
100
AcDbEntity
  8
3
100
AcDbText
 10
12.16054985639056
 20
2.097977421109376
 30
0.0
 40
0.0781522982138528
  1
MAT'L DESCRIPTION:
  7
SIMPLEX
100
AcDbText
  0
TEXT
  5
A68
330
17
100
AcDbEntity
  8
3
100
AcDbText
 10
12.17721133705335
 20
2.850436771421596
 30
0.0
 40
0.0781522982138528
  1
NAME:
  7
SIMPLEX
100
AcDbText
  0
LWPOLYLINE
  5
A69
330
17
100
AcDbEntity
  8
4
  6
Continuous
100
AcDbPolyline
 90
       18
 70
     0
 43
0.0
 10
12.31914742789639
 20
3.203508336307954
 10
12.3190288733407
 20
3.201611463416013
 10
12.31879176422921
 20
3.199714590524068
 10
12.31819899145046
 20
3.198054826743608
 10
12.31748766411594
 20
3.196513617518931
 10
12.31630211855852
 20
3.195090962850037
 10
12.31487946388955
 20
3.19402397184824
 10
12.31321970010908
 20
3.193312644513794
 10
12.31108571810566
 20
3.192956980846528
 10
12.30907029065801
 20
3.193075535402311
 10
12.30717341776607
 20
3.193668308181058
 10
12.3057507630971
 20
3.194735299182771
 10
12.30456521753969
 20
3.196157953851748
 10
12.30361678109367
 20
3.197817717632126
 10
12.30290545375922
 20
3.199596035968371
 10
12.30243123553625
 20
3.201492908860316
 10
12.30231268098056
 20
3.203508336307954
 10
12.31914742789639
 20
3.203508336307954
  0
LWPOLYLINE
  5
A7D
330
17
100
AcDbEntity
  8
4
  6
Continuous
100
AcDbPolyline
 90
       18
 70
     0
 43
0.0
 10
12.30219412642478
 20
3.210503055096982
 10
12.30207557186899
 20
3.215600900994063
 10
12.30207557186899
 20
3.22117296511411
 10
12.30207557186899
 20
3.227219247457206
 10
12.30254979009196
 20
3.233739748023181
 10
12.30337967198227
 20
3.240615912256508
 10
12.30492088120694
 20
3.247966294712716
 10
12.30729197232186
 20
3.255672340836272
 10
12.31073005443848
 20
3.263734050627008
 10
12.31357536377644
 20
3.256146559059236
 10
12.31582790033556
 20
3.248677622047247
 10
12.31748766411594
 20
3.24144579414674
 10
12.31867320967344
 20
3.234451075357712
 10
12.31938453700797
 20
3.227693465680171
 10
12.31962164611945
 20
3.221528628781376
 10
12.31962164611945
 20
3.215719455549848
 10
12.31938453700797
 20
3.210503055096982
 10
12.30219412642478
 20
3.210503055096982
  0
LWPOLYLINE
  5
A91
330
17
100
AcDbEntity
  8
4
  6
Continuous
100
AcDbPolyline
 90
       18
 70
     0
 43
0.0
 10
12.25180381844164
 20
3.210028836874018
 10
12.25168526388594
 20
3.21690500110726
 10
12.2521594821089
 20
3.224018274452068
 10
12.25298936399904
 20
3.231131547796791
 10
12.25417490955654
 20
3.238126266585815
 10
12.25571611878122
 20
3.244765321707575
 10
12.25749443711746
 20
3.25069304949489
 10
12.25950986456511
 20
3.255909449947754
 10
12.26176240112431
 20
3.259940304843123
 10
12.26365927401618
 20
3.256028004503451
 10
12.26555614690821
 20
3.251048713162154
 10
12.26733446524437
 20
3.245002430819057
 10
12.26887567446904
 20
3.238244821141598
 10
12.27017977458224
 20
3.231131547796791
 10
12.27112821102825
 20
3.223899719896283
 10
12.27160242925122
 20
3.21678644655156
 10
12.27160242925122
 20
3.210028836874018
 10
12.25180381844164
 20
3.210028836874018
  0
LWPOLYLINE
  5
AA5
330
17
100
AcDbEntity
  8
4
  6
Continuous
100
AcDbPolyline
 90
       18
 70
     0
 43
0.0
 10
12.27136532013973
 20
3.203508336307954
 10
12.27136532013973
 20
3.201611463416013
 10
12.27112821102825
 20
3.199714590524068
 10
12.2705354382495
 20
3.197936272187908
 10
12.26958700180348
 20
3.196157953851748
 10
12.26840145624607
 20
3.194616744626987
 10
12.26674169246561
 20
3.193431199069576
 10
12.26484481957367
 20
3.192601317179345
 10
12.26247372845876
 20
3.192364208067862
 10
12.26010263734385
 20
3.192719871735044
 10
12.25808720989621
 20
3.193431199069576
 10
12.25630889155997
 20
3.194498190071288
 10
12.25476768233529
 20
3.196039399295965
 10
12.25370069133357
 20
3.197699163076427
 10
12.25275225488765
 20
3.199477481412587
 10
12.2522780366646
 20
3.201492908860316
 10
12.25204092755312
 20
3.203508336307954
 10
12.27136532013973
 20
3.203508336307954
  0
LWPOLYLINE
  5
AB9
330
17
100
AcDbEntity
  8
4
  6
Continuous
100
AcDbPolyline
 90
       18
 70
     0
 43
0.0
 10
12.35021334329301
 20
3.210503055096982
 10
12.35009478873722
 20
3.215600900994063
 10
12.35009478873722
 20
3.22117296511411
 10
12.35009478873722
 20
3.227219247457206
 10
12.35056900696019
 20
3.233739748023181
 10
12.35139888885042
 20
3.240615912256508
 10
12.35294009807518
 20
3.247966294712716
 10
12.35531118919001
 20
3.255672340836272
 10
12.35874927130671
 20
3.263734050627008
 10
12.36159458064458
 20
3.256146559059236
 10
12.36384711720371
 20
3.248677622047247
 10
12.36550688098416
 20
3.24144579414674
 10
12.36669242654167
 20
3.234451075357712
 10
12.3674037538762
 20
3.227693465680171
 10
12.3676408629876
 20
3.221528628781376
 10
12.3676408629876
 20
3.215719455549848
 10
12.3674037538762
 20
3.210503055096982
 10
12.35021334329301
 20
3.210503055096982
  0
LWPOLYLINE
  5
ACD
330
17
100
AcDbEntity
  8
4
  6
Continuous
100
AcDbPolyline
 90
       18
 70
     0
 43
0.0
 10
12.36716664476464
 20
3.203508336307954
 10
12.36704809020893
 20
3.201611463416013
 10
12.36681098109745
 20
3.199714590524068
 10
12.3662182083187
 20
3.198054826743608
 10
12.36550688098416
 20
3.196513617518931
 10
12.36432133542676
 20
3.195090962850037
 10
12.36289868075779
 20
3.19402397184824
 10
12.36123891697731
 20
3.193312644513794
 10
12.35910493497389
 20
3.192956980846528
 10
12.35708950752625
 20
3.193075535402311
 10
12.3551926346343
 20
3.193668308181058
 10
12.35376997996533
 20
3.194735299182771
 10
12.35258443440783
 20
3.196157953851748
 10
12.3516359979619
 20
3.197817717632126
 10
12.35092467062745
 20
3.199596035968371
 10
12.35045045240441
 20
3.201492908860316
 10
12.35033189784871
 20
3.203508336307954
 10
12.36716664476464
 20
3.203508336307954
  0
LWPOLYLINE
  5
AE1
330
17
100
AcDbEntity
  8
4
  6
Continuous
100
AcDbPolyline
 90
        5
 70
     0
 43
0.0
 10
13.56245962433962
 20
3.308910124561766
 10
13.47770661715158
 20
3.363001634268832
 10
13.47770661715158
 20
3.310067162202562
 10
13.56274888374979
 20
3.264364175391328
 10
13.56245962433962
 20
3.308910124561766
  0
TEXT
  5
AE8
330
17
100
AcDbEntity
  8
3
100
AcDbText
 10
14.30901876581267
 20
1.783153505858031
 30
0.0
 40
0.1162906197422129
  1
MATERIAL: 
  7
SIMPLEX
 72
     1
 11
14.82125125753433
 21
1.783153505858031
 31
0.0
100
AcDbText
  0
TEXT
  5
AE9
330
17
100
AcDbEntity
  8
3
100
AcDbText
 10
13.80662715479431
 20
2.345443402288884
 30
0.0
 40
0.1162906197422129
  1
DWG/PART NO/350200
  7
SIMPLEX
 72
     1
 11
14.82832331395804
 21
2.345443402288884
 31
0.0
100
AcDbText
  0
TEXT
  5
AEA
330
17
100
AcDbEntity
  8
3
100
AcDbText
 10
17.62117964010592
 20
2.031176911853151
 30
0.0
 40
0.0781522982138528
  1
PART/DWG. NO.
  7
SIMPLEX
100
AcDbText
  0
LINE
  5
AEB
330
17
100
AcDbEntity
  8
0
100
AcDbLine
 10
17.5469693905078
 20
1.59999999999991
 30
0.0
 11
17.5469693905078
 21
2.537827578566155
 31
0.0
  0
TEXT
  5
AEC
330
17
100
AcDbEntity
  8
3
100
AcDbText
 10
14.69289455003116
 20
2.622298285376093
 30
0.0
 40
0.1563045964277055
  1
SWELL ROLLER ASSEMBLY
  7
SIMPLEX
 72
     1
 11
16.22244667221657
 21
2.622298285376093
 31
0.0
100
AcDbText
  0
TEXT
  5
AED
330
17
100
AcDbEntity
  8
3
100
AcDbText
 10
18.46404834376206
 20
2.323502844314685
 30
0.0
 40
0.077527079828142
  1
OF
  7
SIMPLEX
100
AcDbText
  0
TEXT
  5
AEE
330
17
100
AcDbEntity
  8
3
100
AcDbText
 10
17.66147997832251
 20
2.324167042848134
 30
0.0
 40
0.077527079828142
  1
SHEET
  7
SIMPLEX
100
AcDbText
  0
TEXT
  5
AEF
330
17
100
AcDbEntity
  8
3
100
AcDbText
 10
18.1918143724038
 20
2.28139868920314
 30
0.0
 40
0.1563045964277055
  1
1
  7
SIMPLEX
100
AcDbText
  0
TEXT
  5
AF0
330
17
100
AcDbEntity
  8
3
100
AcDbText
 10
18.80085217219045
 20
2.28139868920314
 30
0.0
 40
0.1563045964277055
  1
1
  7
SIMPLEX
100
AcDbText
  0
LINE
  5
AF1
330
17
100
AcDbEntity
  8
0
100
AcDbLine
 10
19.00000730842623
 20
2.177674272979743
 30
0.0
 11
19.00000730842623
 21
2.537827578566155
 31
0.0
  0
LINE
  5
AF3
330
17
100
AcDbEntity
  8
0
100
AcDbLine
 10
12.31043603597086
 20
3.563650628259062
 30
0.0
 11
12.31043603597086
 21
3.563650628259062
 31
0.0
  0
LINE
  5
AF9
330
17
100
AcDbEntity
  8
0
100
AcDbLine
 10
19.67950958281672
 20
1.599999999999995
 30
0.0
 11
19.67950958281672
 21
2.177674272979743
 31
0.0
  0
TEXT
  5
AFA
330
17
100
AcDbEntity
  8
3
100
AcDbText
 10
19.95737487125105
 20
1.717904679869013
 30
0.0
 40
0.1750611479990302
  1
A
  7
SIMPLEX
 72
     1
 11
20.02406483239354
 21
1.717904679869013
 31
0.0
100
AcDbText
  0
TEXT
  5
AFB
330
17
100
AcDbEntity
  8
3
100
AcDbText
 10
19.91587590401092
 20
2.030693672726666
 30
0.0
 40
0.0781522982138528
  1
REV.
  7
SIMPLEX
100
AcDbText
  0
TEXT
  5
AFC
330
17
100
AcDbEntity
  8
3
100
AcDbText
 10
19.70665695870489
 20
2.296484104436292
 30
0.0
 40
0.1071624313108349
  1
1/2=1
  7
SIMPLEX
 72
     1
 11
19.93373925362547
 21
2.296484104436292
 31
0.0
100
AcDbText
  0
TEXT
  5
AFD
330
17
100
AcDbEntity
  8
2
100
AcDbText
 10
15.72776147522365
 20
15.14511803904082
 30
0.0
 40
0.156
  1
E
  7
SIMPLEX
 72
     1
 11
15.77604718950937
 21
15.14511803904082
 31
0.0
100
AcDbText
  0
TEXT
  5
AFE
330
17
100
AcDbEntity
  8
2
100
AcDbText
 10
12.66354272937601
 20
15.14511803904082
 30
0.0
 40
0.156
  1
D
  7
SIMPLEX
 72
     1
 11
12.71554272937601
 21
15.14511803904082
 31
0.0
100
AcDbText
  0
LINE
  5
AFF
330
17
100
AcDbEntity
  8
3
100
AcDbLine
 10
14.3156158056087
 20
15.15025244921216
 30
0.0
 11
14.3156158056087
 21
15.4
 31
0.0
  0
LINE
  5
B00
330
17
100
AcDbEntity
  8
3
100
AcDbLine
 10
17.33280790280435
 20
15.15025244921216
 30
0.0
 11
17.33280790280435
 21
15.4
 31
0.0
  0
TEXT
  5
B01
330
17
100
AcDbEntity
  8
2
100
AcDbText
 10
18.74454444306941
 20
15.14511803904082
 30
0.0
 40
0.156
  1
F
  7
SIMPLEX
 72
     1
 11
18.79283015735513
 21
15.14511803904082
 31
0.0
100
AcDbText
  0
LINE
  5
B02
330
17
100
AcDbEntity
  8
4
100
AcDbLine
 10
22.09999999999999
 20
17.0
 30
0.0
 11
0.0000000000000004
 21
17.0
 31
0.0
  0
LINE
  5
B4D
330
17
100
AcDbEntity
  8
OBJ
100
AcDbLine
 10
6.20900441716077
 20
4.342598545616013
 30
0.0
 11
16.20900441716077
 21
4.342598545616013
 31
0.0
  0
LINE
  5
B4E
330
17
100
AcDbEntity
  8
OBJ
100
AcDbLine
 10
16.20900441716077
 20
4.342598545616013
 30
0.0
 11
16.20900441716077
 21
5.217598545616011
 31
0.0
  0
LINE
  5
B4F
330
17
100
AcDbEntity
  8
OBJ
100
AcDbLine
 10
16.20900441716077
 20
5.217598545616011
 30
0.0
 11
14.20900441716077
 21
5.217598545616011
 31
0.0
  0
LINE
  5
B50
330
17
100
AcDbEntity
  8
OBJ
100
AcDbLine
 10
14.20900441716077
 20
5.217598545616011
 30
0.0
 11
14.20900441716077
 21
4.967598545616011
 31
0.0
  0
LINE
  5
B51
330
17
100
AcDbEntity
  8
OBJ
100
AcDbLine
 10
14.20900441716077
 20
4.967598545616011
 30
0.0
 11
13.33400441716077
 21
4.967598545616011
 31
0.0
  0
LINE
  5
B52
330
17
100
AcDbEntity
  8
OBJ
100
AcDbLine
 10
13.33400441716077
 20
4.967598545616011
 30
0.0
 11
13.33400441716077
 21
5.217598545616011
 31
0.0
  0
LINE
  5
B53
330
17
100
AcDbEntity
  8
OBJ
100
AcDbLine
 10
13.33400441716077
 20
5.217598545616011
 30
0.0
 11
9.08400441716077
 21
5.217598545616011
 31
0.0
  0
LINE
  5
B54
330
17
100
AcDbEntity
  8
OBJ
100
AcDbLine
 10
9.08400441716077
 20
5.217598545616011
 30
0.0
 11
9.08400441716077
 21
4.967598545616011
 31
0.0
  0
LINE
  5
B55
330
17
100
AcDbEntity
  8
OBJ
100
AcDbLine
 10
9.08400441716077
 20
4.967598545616011
 30
0.0
 11
8.20900441716077
 21
4.967598545616011
 31
0.0
  0
LINE
  5
B56
330
17
100
AcDbEntity
  8
OBJ
100
AcDbLine
 10
8.20900441716077
 20
4.967598545616011
 30
0.0
 11
8.20900441716077
 21
5.217598545616011
 31
0.0
  0
LINE
  5
B57
330
17
100
AcDbEntity
  8
OBJ
100
AcDbLine
 10
8.20900441716077
 20
5.217598545616011
 30
0.0
 11
6.20900441716077
 21
5.217598545616011
 31
0.0
  0
LINE
  5
B58
330
17
100
AcDbEntity
  8
OBJ
100
AcDbLine
 10
6.20900441716077
 20
5.217598545616011
 30
0.0
 11
6.20900441716077
 21
4.342598545616013
 31
0.0
  0
LINE
  5
B59
330
17
100
AcDbEntity
  8
OBJ
100
AcDbLine
 10
8.20900441716077
 20
5.217598545616011
 30
0.0
 11
8.20900441716077
 21
14.96759854561601
 31
0.0
  0
LINE
  5
B5A
330
17
100
AcDbEntity
  8
OBJ
100
AcDbLine
 10
8.20900441716077
 20
14.96759854561601
 30
0.0
 11
9.08400441716077
 21
14.96759854561601
 31
0.0
  0
LINE
  5
B5B
330
17
100
AcDbEntity
  8
OBJ
100
AcDbLine
 10
9.08400441716077
 20
14.96759854561601
 30
0.0
 11
9.08400441716077
 21
5.217598545616011
 31
0.0
  0
LINE
  5
B5C
330
17
100
AcDbEntity
  8
OBJ
100
AcDbLine
 10
13.33400441716077
 20
5.217598545616011
 30
0.0
 11
13.33400441716077
 21
14.96759854561601
 31
0.0
  0
LINE
  5
B5D
330
17
100
AcDbEntity
  8
OBJ
100
AcDbLine
 10
13.33400441716077
 20
14.96759854561601
 30
0.0
 11
14.20900441716077
 21
14.96759854561601
 31
0.0
  0
LINE
  5
B5E
330
17
100
AcDbEntity
  8
OBJ
100
AcDbLine
 10
14.20900441716077
 20
14.96759854561601
 30
0.0
 11
14.20900441716077
 21
5.217598545616011
 31
0.0
  0
LINE
  5
B5F
330
17
100
AcDbEntity
  8
HIDDEN
100
AcDbLine
 10
8.20900441716077
 20
13.96759854561601
 30
0.0
 11
8.70900441716077
 21
13.96759854561601
 31
0.0
  0
LINE
  5
B60
330
17
100
AcDbEntity
  8
HIDDEN
100
AcDbLine
 10
8.70900441716077
 20
13.96759854561601
 30
0.0
 11
8.70900441716077
 21
11.96759854561601
 31
0.0
  0
LINE
  5
B61
330
17
100
AcDbEntity
  8
HIDDEN
100
AcDbLine
 10
8.70900441716077
 20
11.96759854561601
 30
0.0
 11
8.20900441716077
 21
11.96759854561601
 31
0.0
  0
LINE
  5
B62
330
17
100
AcDbEntity
  8
HIDDEN
100
AcDbLine
 10
14.20900441716077
 20
13.96759854561601
 30
0.0
 11
13.70900441716077
 21
13.96759854561601
 31
0.0
  0
LINE
  5
B63
330
17
100
AcDbEntity
  8
HIDDEN
100
AcDbLine
 10
13.70900441716077
 20
13.96759854561601
 30
0.0
 11
13.70900441716077
 21
11.96759854561601
 31
0.0
  0
LINE
  5
B64
330
17
100
AcDbEntity
  8
HIDDEN
100
AcDbLine
 10
13.70900441716077
 20
11.96759854561601
 30
0.0
 11
14.20900441716077
 21
11.96759854561601
 31
0.0
  0
LINE
  5
B65
330
17
100
AcDbEntity
  8
HIDDEN
100
AcDbLine
 10
8.70900441716077
 20
12.21759854561601
 30
0.0
 11
9.08400441716077
 21
12.21759854561601
 31
0.0
  0
LINE
  5
B66
330
17
100
AcDbEntity
  8
HIDDEN
100
AcDbLine
 10
8.70900441716077
 20
13.71759854561601
 30
0.0
 11
9.08400441716077
 21
13.71759854561601
 31
0.0
  0
LINE
  5
B67
330
17
100
AcDbEntity
  8
HIDDEN
100
AcDbLine
 10
13.33400441716077
 20
13.71759854561601
 30
0.0
 11
13.70900441716077
 21
13.71759854561601
 31
0.0
  0
LINE
  5
B68
330
17
100
AcDbEntity
  8
HIDDEN
100
AcDbLine
 10
13.33400441716077
 20
12.21759854561601
 30
0.0
 11
13.70900441716077
 21
12.21759854561601
 31
0.0
  0
LINE
  5
B69
330
17
100
AcDbEntity
  8
OBJ
100
AcDbLine
 10
8.08400441716077
 20
13.71759854561601
 30
0.0
 11
7.58400441716077
 21
13.71759854561601
 31
0.0
  0
LINE
  5
B6A
330
17
100
AcDbEntity
  8
OBJ
100
AcDbLine
 10
7.58400441716077
 20
13.71759854561601
 30
0.0
 11
7.58400441716077
 21
12.21759854561601
 31
0.0
  0
LINE
  5
B6B
330
17
100
AcDbEntity
  8
OBJ
100
AcDbLine
 10
7.58400441716077
 20
12.21759854561601
 30
0.0
 11
8.08400441716077
 21
12.21759854561601
 31
0.0
  0
LINE
  5
B6C
330
17
100
AcDbEntity
  8
OBJ
100
AcDbLine
 10
14.33400441716077
 20
12.21759854561601
 30
0.0
 11
14.83400441716077
 21
12.21759854561601
 31
0.0
  0
LINE
  5
B6D
330
17
100
AcDbEntity
  8
OBJ
100
AcDbLine
 10
14.83400441716077
 20
12.21759854561601
 30
0.0
 11
14.83400441716077
 21
13.71759854561601
 31
0.0
  0
LINE
  5
B6E
330
17
100
AcDbEntity
  8
OBJ
100
AcDbLine
 10
14.83400441716077
 20
13.71759854561601
 30
0.0
 11
14.33400441716077
 21
13.71759854561601
 31
0.0
  0
LINE
  5
B6F
330
17
100
AcDbEntity
  8
OBJ
100
AcDbLine
 10
8.20900441716077
 20
11.71759854561601
 30
0.0
 11
8.08400441716077
 21
11.71759854561601
 31
0.0
  0
LINE
  5
B70
330
17
100
AcDbEntity
  8
OBJ
100
AcDbLine
 10
8.08400441716077
 20
11.71759854561601
 30
0.0
 11
8.08400441716077
 21
14.21759854561601
 31
0.0
  0
LINE
  5
B71
330
17
100
AcDbEntity
  8
OBJ
100
AcDbLine
 10
8.08400441716077
 20
14.21759854561601
 30
0.0
 11
8.20900441716077
 21
14.21759854561601
 31
0.0
  0
LINE
  5
B72
330
17
100
AcDbEntity
  8
OBJ
100
AcDbLine
 10
14.20900441716077
 20
14.21759854561601
 30
0.0
 11
14.33400441716077
 21
14.21759854561601
 31
0.0
  0
LINE
  5
B73
330
17
100
AcDbEntity
  8
OBJ
100
AcDbLine
 10
14.33400441716077
 20
14.21759854561601
 30
0.0
 11
14.33400441716077
 21
11.71759854561601
 31
0.0
  0
LINE
  5
B74
330
17
100
AcDbEntity
  8
OBJ
100
AcDbLine
 10
14.33400441716077
 20
11.71759854561601
 30
0.0
 11
14.20900441716077
 21
11.71759854561601
 31
0.0
  0
LINE
  5
B75
330
17
100
AcDbEntity
  8
OBJ
100
AcDbLine
 10
9.08400441716077
 20
13.71759854561601
 30
0.0
 11
9.95900441716077
 21
13.71759854561601
 31
0.0
  0
LINE
  5
B76
330
17
100
AcDbEntity
  8
OBJ
100
AcDbLine
 10
9.08400441716077
 20
12.21759854561601
 30
0.0
 11
9.95900441716077
 21
12.21759854561601
 31
0.0
  0
LINE
  5
B77
330
17
100
AcDbEntity
  8
OBJ
100
AcDbLine
 10
9.95900441716077
 20
14.09259854561601
 30
0.0
 11
10.95900441716077
 21
14.09259854561601
 31
0.0
  0
LINE
  5
B78
330
17
100
AcDbEntity
  8
OBJ
100
AcDbLine
 10
10.95900441716077
 20
14.09259854561601
 30
0.0
 11
10.95900441716077
 21
11.71759854561601
 31
0.0
  0
LINE
  5
B79
330
17
100
AcDbEntity
  8
OBJ
100
AcDbLine
 10
10.95900441716077
 20
11.71759854561601
 30
0.0
 11
10.83273541449242
 21
11.71759854561601
 31
0.0
  0
LINE
  5
B7A
330
17
100
AcDbEntity
  8
OBJ
100
AcDbLine
 10
9.95900441716077
 20
11.71759854561601
 30
0.0
 11
9.95900441716077
 21
14.09259854561601
 31
0.0
  0
LINE
  5
B7B
330
17
100
AcDbEntity
  8
OBJ
100
AcDbLine
 10
10.21026691263215
 20
11.59387398942013
 30
0.0
 11
10.27024192168938
 21
5.716323101811902
 31
0.0
  0
LINE
  5
B7C
330
17
100
AcDbEntity
  8
OBJ
100
AcDbLine
 10
10.39523541449242
 20
5.592598545616011
 30
0.0
 11
10.52277341982912
 21
5.592598545616011
 31
0.0
  0
LINE
  5
B7D
330
17
100
AcDbEntity
  8
OBJ
100
AcDbLine
 10
10.64776691263215
 20
5.716323101811902
 30
0.0
 11
10.70774192168938
 21
11.59387398942013
 31
0.0
  0
ARC
  5
B7E
330
17
100
AcDbEntity
  8
OBJ
100
AcDbCircle
 10
10.39523541449242
 20
5.717598545616012
 30
0.0
 40
0.125
100
AcDbArc
 50
180.5846305207051
 51
269.9999999999999
  0
ARC
  5
B7F
330
17
100
AcDbEntity
  8
OBJ
100
AcDbCircle
 10
10.52277341982912
 20
5.717598545616012
 30
0.0
 40
0.125
100
AcDbArc
 50
270.0
 51
359.4153694792948
  0
LINE
  5
B80
330
17
100
AcDbEntity
  8
OBJ
100
AcDbLine
 10
10.08527341982912
 20
11.71759854561601
 30
0.0
 11
9.95900441716077
 21
11.71759854561601
 31
0.0
  0
ARC
  5
B81
330
17
100
AcDbEntity
  8
OBJ
100
AcDbCircle
 10
10.08527341982912
 20
11.59259854561601
 30
0.0
 40
0.125
100
AcDbArc
 50
0.5846305207052227
 51
90.0
  0
ARC
  5
B82
330
17
100
AcDbEntity
  8
OBJ
100
AcDbCircle
 10
10.83273541449242
 20
11.59259854561601
 30
0.0
 40
0.125
100
AcDbArc
 50
90.0
 51
179.4153694792948
  0
LINE
  5
B83
330
17
100
AcDbEntity
  8
OBJ
100
AcDbLine
 10
10.02150441716077
 20
6.092598545616012
 30
0.0
 11
10.26802939194082
 21
6.092598545616012
 31
0.0
  0
LINE
  5
B84
330
17
100
AcDbEntity
  8
OBJ
100
AcDbLine
 10
10.14650441716077
 20
6.342598545616012
 30
0.0
 11
10.26303472282273
 21
6.342598545616012
 31
0.0
  0
LINE
  5
B85
330
17
100
AcDbEntity
  8
OBJ
100
AcDbLine
 10
9.77150441716077
 20
6.342598545616012
 30
0.0
 11
9.77150441716077
 21
10.53009854561601
 31
0.0
  0
LINE
  5
B86
330
17
100
AcDbEntity
  8
OBJ
100
AcDbLine
 10
9.83400441716077
 20
10.59259854561601
 30
0.0
 11
9.95900441716077
 21
10.59259854561601
 31
0.0
  0
LINE
  5
B87
330
17
100
AcDbEntity
  8
OBJ
100
AcDbLine
 10
10.02150441716077
 20
10.53009854561601
 30
0.0
 11
10.02150441716077
 21
6.467598545616012
 31
0.0
  0
ARC
  5
B88
330
17
100
AcDbEntity
  8
OBJ
100
AcDbCircle
 10
10.14650441716077
 20
6.467598545616012
 30
0.0
 40
0.125
100
AcDbArc
 50
180.0
 51
269.9999999999999
  0
ARC
  5
B89
330
17
100
AcDbEntity
  8
OBJ
100
AcDbCircle
 10
10.02150441716077
 20
6.342598545616012
 30
0.0
 40
0.25
100
AcDbArc
 50
180.0
 51
269.9999999999999
  0
LINE
  5
B8A
330
17
100
AcDbEntity
  8
OBJ
100
AcDbLine
 10
9.77150441716077
 20
7.842598545616012
 30
0.0
 11
10.02150441716077
 21
7.842598545616012
 31
0.0
  0
LINE
  5
B8B
330
17
100
AcDbEntity
  8
OBJ
100
AcDbLine
 10
9.77150441716077
 20
7.967598545616012
 30
0.0
 11
10.02150441716077
 21
7.967598545616012
 31
0.0
  0
LINE
  5
B8C
330
17
100
AcDbEntity
  8
OBJ
100
AcDbLine
 10
9.83400441716077
 20
7.905098545616012
 30
0.0
 11
9.95900441716077
 21
7.905098545616012
 31
0.0
  0
LINE
  5
B8D
330
17
100
AcDbEntity
  8
OBJ
100
AcDbLine
 10
9.83400441716077
 20
8.030098545616013
 30
0.0
 11
9.95900441716077
 21
8.030098545616013
 31
0.0
  0
LINE
  5
B8E
330
17
100
AcDbEntity
  8
OBJ
100
AcDbLine
 10
9.77150441716077
 20
8.092598545616013
 30
0.0
 11
10.02150441716077
 21
8.092598545616013
 31
0.0
  0
LINE
  5
B8F
330
17
100
AcDbEntity
  8
OBJ
100
AcDbLine
 10
9.83400441716077
 20
8.155098545616013
 30
0.0
 11
9.95900441716077
 21
8.155098545616013
 31
0.0
  0
LINE
  5
B90
330
17
100
AcDbEntity
  8
OBJ
100
AcDbLine
 10
9.77150441716077
 20
8.217598545616013
 30
0.0
 11
10.02150441716077
 21
8.217598545616013
 31
0.0
  0
LINE
  5
B91
330
17
100
AcDbEntity
  8
OBJ
100
AcDbLine
 10
9.83400441716077
 20
8.280098545616013
 30
0.0
 11
9.95900441716077
 21
8.280098545616013
 31
0.0
  0
LINE
  5
B92
330
17
100
AcDbEntity
  8
OBJ
100
AcDbLine
 10
9.77150441716077
 20
8.342598545616013
 30
0.0
 11
10.02150441716077
 21
8.342598545616013
 31
0.0
  0
LINE
  5
B93
330
17
100
AcDbEntity
  8
OBJ
100
AcDbLine
 10
9.83400441716077
 20
8.405098545616013
 30
0.0
 11
9.95900441716077
 21
8.405098545616013
 31
0.0
  0
LINE
  5
B94
330
17
100
AcDbEntity
  8
OBJ
100
AcDbLine
 10
9.77150441716077
 20
8.467598545616013
 30
0.0
 11
10.02150441716077
 21
8.467598545616013
 31
0.0
  0
LINE
  5
B95
330
17
100
AcDbEntity
  8
OBJ
100
AcDbLine
 10
9.83400441716077
 20
8.530098545616013
 30
0.0
 11
9.95900441716077
 21
8.530098545616013
 31
0.0
  0
LINE
  5
B96
330
17
100
AcDbEntity
  8
OBJ
100
AcDbLine
 10
9.77150441716077
 20
8.592598545616013
 30
0.0
 11
10.02150441716077
 21
8.592598545616013
 31
0.0
  0
LINE
  5
B97
330
17
100
AcDbEntity
  8
OBJ
100
AcDbLine
 10
9.83400441716077
 20
8.655098545616013
 30
0.0
 11
9.95900441716077
 21
8.655098545616013
 31
0.0
  0
LINE
  5
B98
330
17
100
AcDbEntity
  8
OBJ
100
AcDbLine
 10
9.77150441716077
 20
8.717598545616013
 30
0.0
 11
10.02150441716077
 21
8.717598545616013
 31
0.0
  0
LINE
  5
B99
330
17
100
AcDbEntity
  8
OBJ
100
AcDbLine
 10
9.83400441716077
 20
8.780098545616013
 30
0.0
 11
9.95900441716077
 21
8.780098545616013
 31
0.0
  0
LINE
  5
B9A
330
17
100
AcDbEntity
  8
OBJ
100
AcDbLine
 10
9.77150441716077
 20
8.842598545616011
 30
0.0
 11
10.02150441716077
 21
8.842598545616011
 31
0.0
  0
LINE
  5
B9B
330
17
100
AcDbEntity
  8
OBJ
100
AcDbLine
 10
9.83400441716077
 20
8.905098545616011
 30
0.0
 11
9.95900441716077
 21
8.905098545616011
 31
0.0
  0
LINE
  5
B9C
330
17
100
AcDbEntity
  8
OBJ
100
AcDbLine
 10
9.77150441716077
 20
8.967598545616011
 30
0.0
 11
10.02150441716077
 21
8.967598545616011
 31
0.0
  0
LINE
  5
B9D
330
17
100
AcDbEntity
  8
OBJ
100
AcDbLine
 10
9.83400441716077
 20
9.030098545616011
 30
0.0
 11
9.95900441716077
 21
9.030098545616011
 31
0.0
  0
LINE
  5
B9E
330
17
100
AcDbEntity
  8
OBJ
100
AcDbLine
 10
9.77150441716077
 20
9.092598545616011
 30
0.0
 11
10.02150441716077
 21
9.092598545616011
 31
0.0
  0
LINE
  5
B9F
330
17
100
AcDbEntity
  8
OBJ
100
AcDbLine
 10
9.83400441716077
 20
9.155098545616011
 30
0.0
 11
9.95900441716077
 21
9.155098545616011
 31
0.0
  0
LINE
  5
BA0
330
17
100
AcDbEntity
  8
OBJ
100
AcDbLine
 10
9.77150441716077
 20
9.217598545616011
 30
0.0
 11
10.02150441716077
 21
9.217598545616011
 31
0.0
  0
LINE
  5
BA1
330
17
100
AcDbEntity
  8
OBJ
100
AcDbLine
 10
9.83400441716077
 20
9.280098545616011
 30
0.0
 11
9.95900441716077
 21
9.280098545616011
 31
0.0
  0
LINE
  5
BA2
330
17
100
AcDbEntity
  8
OBJ
100
AcDbLine
 10
9.77150441716077
 20
9.342598545616011
 30
0.0
 11
10.02150441716077
 21
9.342598545616011
 31
0.0
  0
LINE
  5
BA3
330
17
100
AcDbEntity
  8
OBJ
100
AcDbLine
 10
9.83400441716077
 20
9.405098545616011
 30
0.0
 11
9.95900441716077
 21
9.405098545616011
 31
0.0
  0
LINE
  5
BA4
330
17
100
AcDbEntity
  8
OBJ
100
AcDbLine
 10
9.77150441716077
 20
9.467598545616011
 30
0.0
 11
10.02150441716077
 21
9.467598545616011
 31
0.0
  0
LINE
  5
BA5
330
17
100
AcDbEntity
  8
OBJ
100
AcDbLine
 10
9.83400441716077
 20
9.530098545616011
 30
0.0
 11
9.95900441716077
 21
9.530098545616011
 31
0.0
  0
LINE
  5
BA6
330
17
100
AcDbEntity
  8
OBJ
100
AcDbLine
 10
9.77150441716077
 20
9.592598545616011
 30
0.0
 11
10.02150441716077
 21
9.592598545616011
 31
0.0
  0
LINE
  5
BA7
330
17
100
AcDbEntity
  8
OBJ
100
AcDbLine
 10
9.83400441716077
 20
9.655098545616011
 30
0.0
 11
9.95900441716077
 21
9.655098545616011
 31
0.0
  0
LINE
  5
BA8
330
17
100
AcDbEntity
  8
OBJ
100
AcDbLine
 10
9.77150441716077
 20
9.717598545616011
 30
0.0
 11
10.02150441716077
 21
9.717598545616011
 31
0.0
  0
LINE
  5
BA9
330
17
100
AcDbEntity
  8
OBJ
100
AcDbLine
 10
9.83400441716077
 20
9.780098545616011
 30
0.0
 11
9.95900441716077
 21
9.780098545616011
 31
0.0
  0
LINE
  5
BAA
330
17
100
AcDbEntity
  8
OBJ
100
AcDbLine
 10
9.77150441716077
 20
9.842598545616011
 30
0.0
 11
10.02150441716077
 21
9.842598545616011
 31
0.0
  0
LINE
  5
BAB
330
17
100
AcDbEntity
  8
OBJ
100
AcDbLine
 10
9.83400441716077
 20
9.905098545616011
 30
0.0
 11
9.95900441716077
 21
9.905098545616011
 31
0.0
  0
LINE
  5
BAC
330
17
100
AcDbEntity
  8
OBJ
100
AcDbLine
 10
9.77150441716077
 20
9.967598545616011
 30
0.0
 11
10.02150441716077
 21
9.967598545616011
 31
0.0
  0
LINE
  5
BAD
330
17
100
AcDbEntity
  8
OBJ
100
AcDbLine
 10
9.83400441716077
 20
10.03009854561601
 30
0.0
 11
9.95900441716077
 21
10.03009854561601
 31
0.0
  0
LINE
  5
BAE
330
17
100
AcDbEntity
  8
OBJ
100
AcDbLine
 10
9.77150441716077
 20
10.09259854561601
 30
0.0
 11
10.02150441716077
 21
10.09259854561601
 31
0.0
  0
LINE
  5
BAF
330
17
100
AcDbEntity
  8
OBJ
100
AcDbLine
 10
9.83400441716077
 20
10.15509854561601
 30
0.0
 11
9.95900441716077
 21
10.15509854561601
 31
0.0
  0
LINE
  5
BB0
330
17
100
AcDbEntity
  8
OBJ
100
AcDbLine
 10
9.77150441716077
 20
10.21759854561601
 30
0.0
 11
10.02150441716077
 21
10.21759854561601
 31
0.0
  0
LINE
  5
BB1
330
17
100
AcDbEntity
  8
OBJ
100
AcDbLine
 10
9.83400441716077
 20
10.28009854561601
 30
0.0
 11
9.95900441716077
 21
10.28009854561601
 31
0.0
  0
LINE
  5
BB2
330
17
100
AcDbEntity
  8
OBJ
100
AcDbLine
 10
9.77150441716077
 20
10.34259854561601
 30
0.0
 11
10.02150441716077
 21
10.34259854561601
 31
0.0
  0
LINE
  5
BB3
330
17
100
AcDbEntity
  8
OBJ
100
AcDbLine
 10
9.83400441716077
 20
10.40509854561601
 30
0.0
 11
9.95900441716077
 21
10.40509854561601
 31
0.0
  0
LINE
  5
BB4
330
17
100
AcDbEntity
  8
OBJ
100
AcDbLine
 10
9.77150441716077
 20
10.46759854561601
 30
0.0
 11
10.02150441716077
 21
10.46759854561601
 31
0.0
  0
LINE
  5
BB5
330
17
100
AcDbEntity
  8
OBJ
100
AcDbLine
 10
9.83400441716077
 20
10.53009854561601
 30
0.0
 11
9.95900441716077
 21
10.53009854561601
 31
0.0
  0
ARC
  5
BB6
330
17
100
AcDbEntity
  8
OBJ
100
AcDbCircle
 10
9.83400441716077
 20
10.53009854561601
 30
0.0
 40
0.0625
100
AcDbArc
 50
90.0
 51
179.9999999999999
  0
ARC
  5
BB7
330
17
100
AcDbEntity
  8
OBJ
100
AcDbCircle
 10
9.95900441716077
 20
10.53009854561601
 30
0.0
 40
0.0625
100
AcDbArc
 50
0.0
 51
90.0
  0
ARC
  5
BB8
330
17
100
AcDbEntity
  8
OBJ
100
AcDbCircle
 10
12.45900441716077
 20
10.53009854561601
 30
0.0
 40
0.0625
100
AcDbArc
 50
90.0
 51
180.0
  0
ARC
  5
BB9
330
17
100
AcDbEntity
  8
OBJ
100
AcDbCircle
 10
12.58400441716077
 20
10.53009854561601
 30
0.0
 40
0.0625
100
AcDbArc
 50
0.0000000000001018
 51
90.0
  0
LINE
  5
BBA
330
17
100
AcDbEntity
  8
OBJ
100
AcDbLine
 10
12.58400441716077
 20
10.53009854561601
 30
0.0
 11
12.45900441716077
 21
10.53009854561601
 31
0.0
  0
LINE
  5
BBB
330
17
100
AcDbEntity
  8
OBJ
100
AcDbLine
 10
12.64650441716077
 20
10.46759854561601
 30
0.0
 11
12.39650441716077
 21
10.46759854561601
 31
0.0
  0
LINE
  5
BBC
330
17
100
AcDbEntity
  8
OBJ
100
AcDbLine
 10
12.58400441716077
 20
10.40509854561601
 30
0.0
 11
12.45900441716077
 21
10.40509854561601
 31
0.0
  0
LINE
  5
BBD
330
17
100
AcDbEntity
  8
OBJ
100
AcDbLine
 10
12.64650441716077
 20
10.34259854561601
 30
0.0
 11
12.39650441716077
 21
10.34259854561601
 31
0.0
  0
LINE
  5
BBE
330
17
100
AcDbEntity
  8
OBJ
100
AcDbLine
 10
12.58400441716077
 20
10.28009854561601
 30
0.0
 11
12.45900441716077
 21
10.28009854561601
 31
0.0
  0
LINE
  5
BBF
330
17
100
AcDbEntity
  8
OBJ
100
AcDbLine
 10
12.64650441716077
 20
10.21759854561601
 30
0.0
 11
12.39650441716077
 21
10.21759854561601
 31
0.0
  0
LINE
  5
BC0
330
17
100
AcDbEntity
  8
OBJ
100
AcDbLine
 10
12.58400441716077
 20
10.15509854561601
 30
0.0
 11
12.45900441716077
 21
10.15509854561601
 31
0.0
  0
LINE
  5
BC1
330
17
100
AcDbEntity
  8
OBJ
100
AcDbLine
 10
12.64650441716077
 20
10.09259854561601
 30
0.0
 11
12.39650441716077
 21
10.09259854561601
 31
0.0
  0
LINE
  5
BC2
330
17
100
AcDbEntity
  8
OBJ
100
AcDbLine
 10
12.58400441716077
 20
10.03009854561601
 30
0.0
 11
12.45900441716077
 21
10.03009854561601
 31
0.0
  0
LINE
  5
BC3
330
17
100
AcDbEntity
  8
OBJ
100
AcDbLine
 10
12.64650441716077
 20
9.967598545616011
 30
0.0
 11
12.39650441716077
 21
9.967598545616011
 31
0.0
  0
LINE
  5
BC4
330
17
100
AcDbEntity
  8
OBJ
100
AcDbLine
 10
12.58400441716077
 20
9.905098545616011
 30
0.0
 11
12.45900441716077
 21
9.905098545616011
 31
0.0
  0
LINE
  5
BC5
330
17
100
AcDbEntity
  8
OBJ
100
AcDbLine
 10
12.64650441716077
 20
9.842598545616011
 30
0.0
 11
12.39650441716077
 21
9.842598545616011
 31
0.0
  0
LINE
  5
BC6
330
17
100
AcDbEntity
  8
OBJ
100
AcDbLine
 10
12.58400441716077
 20
9.780098545616011
 30
0.0
 11
12.45900441716077
 21
9.780098545616011
 31
0.0
  0
LINE
  5
BC7
330
17
100
AcDbEntity
  8
OBJ
100
AcDbLine
 10
12.64650441716077
 20
9.717598545616011
 30
0.0
 11
12.39650441716077
 21
9.717598545616011
 31
0.0
  0
LINE
  5
BC8
330
17
100
AcDbEntity
  8
OBJ
100
AcDbLine
 10
12.58400441716077
 20
9.655098545616011
 30
0.0
 11
12.45900441716077
 21
9.655098545616011
 31
0.0
  0
LINE
  5
BC9
330
17
100
AcDbEntity
  8
OBJ
100
AcDbLine
 10
12.64650441716077
 20
9.592598545616011
 30
0.0
 11
12.39650441716077
 21
9.592598545616011
 31
0.0
  0
LINE
  5
BCA
330
17
100
AcDbEntity
  8
OBJ
100
AcDbLine
 10
12.58400441716077
 20
9.530098545616011
 30
0.0
 11
12.45900441716077
 21
9.530098545616011
 31
0.0
  0
LINE
  5
BCB
330
17
100
AcDbEntity
  8
OBJ
100
AcDbLine
 10
12.64650441716077
 20
9.467598545616011
 30
0.0
 11
12.39650441716077
 21
9.467598545616011
 31
0.0
  0
LINE
  5
BCC
330
17
100
AcDbEntity
  8
OBJ
100
AcDbLine
 10
12.58400441716077
 20
9.405098545616011
 30
0.0
 11
12.45900441716077
 21
9.405098545616011
 31
0.0
  0
LINE
  5
BCD
330
17
100
AcDbEntity
  8
OBJ
100
AcDbLine
 10
12.64650441716077
 20
9.342598545616011
 30
0.0
 11
12.39650441716077
 21
9.342598545616011
 31
0.0
  0
LINE
  5
BCE
330
17
100
AcDbEntity
  8
OBJ
100
AcDbLine
 10
12.58400441716077
 20
9.280098545616011
 30
0.0
 11
12.45900441716077
 21
9.280098545616011
 31
0.0
  0
LINE
  5
BCF
330
17
100
AcDbEntity
  8
OBJ
100
AcDbLine
 10
12.64650441716077
 20
9.217598545616011
 30
0.0
 11
12.39650441716077
 21
9.217598545616011
 31
0.0
  0
LINE
  5
BD0
330
17
100
AcDbEntity
  8
OBJ
100
AcDbLine
 10
12.58400441716077
 20
9.155098545616011
 30
0.0
 11
12.45900441716077
 21
9.155098545616011
 31
0.0
  0
LINE
  5
BD1
330
17
100
AcDbEntity
  8
OBJ
100
AcDbLine
 10
12.64650441716077
 20
9.092598545616011
 30
0.0
 11
12.39650441716077
 21
9.092598545616011
 31
0.0
  0
LINE
  5
BD2
330
17
100
AcDbEntity
  8
OBJ
100
AcDbLine
 10
12.58400441716077
 20
9.030098545616011
 30
0.0
 11
12.45900441716077
 21
9.030098545616011
 31
0.0
  0
LINE
  5
BD3
330
17
100
AcDbEntity
  8
OBJ
100
AcDbLine
 10
12.64650441716077
 20
8.967598545616011
 30
0.0
 11
12.39650441716077
 21
8.967598545616011
 31
0.0
  0
LINE
  5
BD4
330
17
100
AcDbEntity
  8
OBJ
100
AcDbLine
 10
12.58400441716077
 20
8.905098545616011
 30
0.0
 11
12.45900441716077
 21
8.905098545616011
 31
0.0
  0
LINE
  5
BD5
330
17
100
AcDbEntity
  8
OBJ
100
AcDbLine
 10
12.64650441716077
 20
8.842598545616011
 30
0.0
 11
12.39650441716077
 21
8.842598545616011
 31
0.0
  0
LINE
  5
BD6
330
17
100
AcDbEntity
  8
OBJ
100
AcDbLine
 10
12.58400441716077
 20
8.780098545616013
 30
0.0
 11
12.45900441716077
 21
8.780098545616013
 31
0.0
  0
LINE
  5
BD7
330
17
100
AcDbEntity
  8
OBJ
100
AcDbLine
 10
12.64650441716077
 20
8.717598545616013
 30
0.0
 11
12.39650441716077
 21
8.717598545616013
 31
0.0
  0
LINE
  5
BD8
330
17
100
AcDbEntity
  8
OBJ
100
AcDbLine
 10
12.58400441716077
 20
8.655098545616013
 30
0.0
 11
12.45900441716077
 21
8.655098545616013
 31
0.0
  0
LINE
  5
BD9
330
17
100
AcDbEntity
  8
OBJ
100
AcDbLine
 10
12.64650441716077
 20
8.592598545616013
 30
0.0
 11
12.39650441716077
 21
8.592598545616013
 31
0.0
  0
LINE
  5
BDA
330
17
100
AcDbEntity
  8
OBJ
100
AcDbLine
 10
12.58400441716077
 20
8.530098545616013
 30
0.0
 11
12.45900441716077
 21
8.530098545616013
 31
0.0
  0
LINE
  5
BDB
330
17
100
AcDbEntity
  8
OBJ
100
AcDbLine
 10
12.64650441716077
 20
8.467598545616013
 30
0.0
 11
12.39650441716077
 21
8.467598545616013
 31
0.0
  0
LINE
  5
BDC
330
17
100
AcDbEntity
  8
OBJ
100
AcDbLine
 10
12.58400441716077
 20
8.405098545616013
 30
0.0
 11
12.45900441716077
 21
8.405098545616013
 31
0.0
  0
LINE
  5
BDD
330
17
100
AcDbEntity
  8
OBJ
100
AcDbLine
 10
12.64650441716077
 20
8.342598545616013
 30
0.0
 11
12.39650441716077
 21
8.342598545616013
 31
0.0
  0
LINE
  5
BDE
330
17
100
AcDbEntity
  8
OBJ
100
AcDbLine
 10
12.58400441716077
 20
8.280098545616013
 30
0.0
 11
12.45900441716077
 21
8.280098545616013
 31
0.0
  0
LINE
  5
BDF
330
17
100
AcDbEntity
  8
OBJ
100
AcDbLine
 10
12.64650441716077
 20
8.217598545616013
 30
0.0
 11
12.39650441716077
 21
8.217598545616013
 31
0.0
  0
LINE
  5
BE0
330
17
100
AcDbEntity
  8
OBJ
100
AcDbLine
 10
12.58400441716077
 20
8.155098545616013
 30
0.0
 11
12.45900441716077
 21
8.155098545616013
 31
0.0
  0
LINE
  5
BE1
330
17
100
AcDbEntity
  8
OBJ
100
AcDbLine
 10
12.64650441716077
 20
8.092598545616013
 30
0.0
 11
12.39650441716077
 21
8.092598545616013
 31
0.0
  0
LINE
  5
BE2
330
17
100
AcDbEntity
  8
OBJ
100
AcDbLine
 10
12.58400441716077
 20
8.030098545616013
 30
0.0
 11
12.45900441716077
 21
8.030098545616013
 31
0.0
  0
LINE
  5
BE3
330
17
100
AcDbEntity
  8
OBJ
100
AcDbLine
 10
12.58400441716077
 20
7.905098545616012
 30
0.0
 11
12.45900441716077
 21
7.905098545616012
 31
0.0
  0
LINE
  5
BE4
330
17
100
AcDbEntity
  8
OBJ
100
AcDbLine
 10
12.64650441716077
 20
7.967598545616012
 30
0.0
 11
12.39650441716077
 21
7.967598545616012
 31
0.0
  0
LINE
  5
BE5
330
17
100
AcDbEntity
  8
OBJ
100
AcDbLine
 10
12.64650441716077
 20
7.842598545616012
 30
0.0
 11
12.39650441716077
 21
7.842598545616012
 31
0.0
  0
ARC
  5
BE6
330
17
100
AcDbEntity
  8
OBJ
100
AcDbCircle
 10
12.39650441716077
 20
6.342598545616012
 30
0.0
 40
0.25
100
AcDbArc
 50
270.0000000000001
 51
0.0
  0
ARC
  5
BE7
330
17
100
AcDbEntity
  8
OBJ
100
AcDbCircle
 10
12.27150441716077
 20
6.467598545616012
 30
0.0
 40
0.125
100
AcDbArc
 50
270.0000000000001
 51
0.0
  0
LINE
  5
BE8
330
17
100
AcDbEntity
  8
OBJ
100
AcDbLine
 10
12.39650441716077
 20
10.53009854561601
 30
0.0
 11
12.39650441716077
 21
6.467598545616012
 31
0.0
  0
LINE
  5
BE9
330
17
100
AcDbEntity
  8
OBJ
100
AcDbLine
 10
12.58400441716077
 20
10.59259854561601
 30
0.0
 11
12.45900441716077
 21
10.59259854561601
 31
0.0
  0
LINE
  5
BEA
330
17
100
AcDbEntity
  8
OBJ
100
AcDbLine
 10
12.64650441716077
 20
6.342598545616012
 30
0.0
 11
12.64650441716077
 21
10.53009854561601
 31
0.0
  0
LINE
  5
BEB
330
17
100
AcDbEntity
  8
OBJ
100
AcDbLine
 10
12.27150441716077
 20
6.342598545616012
 30
0.0
 11
12.1549741114988
 21
6.342598545616012
 31
0.0
  0
LINE
  5
BEC
330
17
100
AcDbEntity
  8
OBJ
100
AcDbLine
 10
12.39650441716077
 20
6.092598545616012
 30
0.0
 11
12.14997944238072
 21
6.092598545616012
 31
0.0
  0
ARC
  5
BED
330
17
100
AcDbEntity
  8
OBJ
100
AcDbCircle
 10
11.58527341982912
 20
11.59259854561601
 30
0.0
 40
0.125
100
AcDbArc
 50
0.5846305207053244
 51
90.0
  0
ARC
  5
BEE
330
17
100
AcDbEntity
  8
OBJ
100
AcDbCircle
 10
12.33273541449242
 20
11.59259854561601
 30
0.0
 40
0.125
100
AcDbArc
 50
90.0
 51
179.4153694792948
  0
LINE
  5
BEF
330
17
100
AcDbEntity
  8
OBJ
100
AcDbLine
 10
12.33273541449242
 20
11.71759854561601
 30
0.0
 11
12.45900441716077
 21
11.71759854561601
 31
0.0
  0
ARC
  5
BF0
330
17
100
AcDbEntity
  8
OBJ
100
AcDbCircle
 10
11.89523541449242
 20
5.717598545616012
 30
0.0
 40
0.125
100
AcDbArc
 50
180.5846305207053
 51
270.0000000000001
  0
ARC
  5
BF1
330
17
100
AcDbEntity
  8
OBJ
100
AcDbCircle
 10
12.02277341982912
 20
5.717598545616012
 30
0.0
 40
0.125
100
AcDbArc
 50
270.0000000000001
 51
359.4153694792949
  0
LINE
  5
BF2
330
17
100
AcDbEntity
  8
OBJ
100
AcDbLine
 10
11.77024192168938
 20
5.716323101811902
 30
0.0
 11
11.71026691263215
 21
11.59387398942013
 31
0.0
  0
LINE
  5
BF3
330
17
100
AcDbEntity
  8
OBJ
100
AcDbLine
 10
12.02277341982912
 20
5.592598545616011
 30
0.0
 11
11.89523541449242
 21
5.592598545616011
 31
0.0
  0
LINE
  5
BF4
330
17
100
AcDbEntity
  8
OBJ
100
AcDbLine
 10
12.20774192168938
 20
11.59387398942013
 30
0.0
 11
12.14776691263216
 21
5.716323101811902
 31
0.0
  0
LINE
  5
BF5
330
17
100
AcDbEntity
  8
OBJ
100
AcDbLine
 10
12.45900441716077
 20
11.71759854561601
 30
0.0
 11
12.45900441716077
 21
14.09259854561601
 31
0.0
  0
LINE
  5
BF6
330
17
100
AcDbEntity
  8
OBJ
100
AcDbLine
 10
11.45900441716077
 20
11.71759854561601
 30
0.0
 11
11.58527341982912
 21
11.71759854561601
 31
0.0
  0
LINE
  5
BF7
330
17
100
AcDbEntity
  8
OBJ
100
AcDbLine
 10
11.45900441716077
 20
14.09259854561601
 30
0.0
 11
11.45900441716077
 21
11.71759854561601
 31
0.0
  0
LINE
  5
BF8
330
17
100
AcDbEntity
  8
OBJ
100
AcDbLine
 10
12.45900441716077
 20
14.09259854561601
 30
0.0
 11
11.45900441716077
 21
14.09259854561601
 31
0.0
  0
LINE
  5
BF9
330
17
100
AcDbEntity
  8
CENTER
100
AcDbLine
 10
9.45900441716077
 20
12.96759854561601
 30
0.0
 11
12.95900441716077
 21
12.96759854561601
 31
0.0
  0
LINE
  5
BFA
330
17
100
AcDbEntity
  8
CENTER
100
AcDbLine
 10
12.95900441716077
 20
12.96759854561601
 30
0.0
 11
15.20900441716077
 21
12.96759854561601
 31
0.0
  0
LINE
  5
BFB
330
17
100
AcDbEntity
  8
CENTER
100
AcDbLine
 10
9.45900441716077
 20
12.96759854561601
 30
0.0
 11
7.20900441716077
 21
12.96759854561601
 31
0.0
  0
LINE
  5
BFC
330
17
100
AcDbEntity
  8
OBJ
100
AcDbLine
 10
10.95900441716077
 20
13.71759854561601
 30
0.0
 11
11.45900441716077
 21
13.71759854561601
 31
0.0
  0
LINE
  5
BFD
330
17
100
AcDbEntity
  8
OBJ
100
AcDbLine
 10
12.45900441716077
 20
13.71759854561601
 30
0.0
 11
13.33400441716077
 21
13.71759854561601
 31
0.0
  0
LINE
  5
BFE
330
17
100
AcDbEntity
  8
OBJ
100
AcDbLine
 10
12.45900441716077
 20
12.21759854561601
 30
0.0
 11
13.33400441716077
 21
12.21759854561601
 31
0.0
  0
LINE
  5
BFF
330
17
100
AcDbEntity
  8
OBJ
100
AcDbLine
 10
10.95900441716077
 20
12.21759854561601
 30
0.0
 11
11.45900441716077
 21
12.21759854561601
 31
0.0
  0
LINE
  5
C01
330
17
100
AcDbEntity
  8
OBJ
100
AcDbLine
 10
10.74025441716077
 20
6.342598545616012
 30
0.0
 11
10.74025441716077
 21
6.686348545616012
 31
0.0
  0
LINE
  5
C02
330
17
100
AcDbEntity
  8
OBJ
100
AcDbLine
 10
10.74025441716077
 20
6.686348545616012
 30
0.0
 11
10.66070630883338
 21
6.686348545616012
 31
0.0
  0
LINE
  5
C03
330
17
100
AcDbEntity
  8
OBJ
100
AcDbLine
 10
10.74025441716077
 20
6.092598545616012
 30
0.0
 11
10.74025441716077
 21
5.748848545616012
 31
0.0
  0
LINE
  5
C04
330
17
100
AcDbEntity
  8
OBJ
100
AcDbLine
 10
10.74025441716077
 20
5.748848545616012
 30
0.0
 11
10.64928992227776
 21
5.748848545616012
 31
0.0
  0
LINE
  5
C05
330
17
100
AcDbEntity
  8
OBJ
100
AcDbLine
 10
11.67775441716077
 20
6.092598545616012
 30
0.0
 11
11.67775441716077
 21
5.748848545616012
 31
0.0
  0
LINE
  5
C06
330
17
100
AcDbEntity
  8
OBJ
100
AcDbLine
 10
11.67775441716077
 20
5.748848545616012
 30
0.0
 11
11.76871891204378
 21
5.748848545616012
 31
0.0
  0
LINE
  5
C07
330
17
100
AcDbEntity
  8
OBJ
100
AcDbLine
 10
11.67775441716077
 20
6.342598545616012
 30
0.0
 11
11.67775441716077
 21
6.686348545616012
 31
0.0
  0
LINE
  5
C08
330
17
100
AcDbEntity
  8
OBJ
100
AcDbLine
 10
11.67775441716077
 20
6.686348545616012
 30
0.0
 11
11.75730252548816
 21
6.686348545616012
 31
0.0
  0
LINE
  5
C09
330
17
100
AcDbEntity
  8
OBJ
100
AcDbLine
 10
10.74025441716077
 20
6.342598545616012
 30
0.0
 11
10.74025441716077
 21
6.092598545616012
 31
0.0
  0
LINE
  5
C0A
330
17
100
AcDbEntity
  8
OBJ
100
AcDbLine
 10
11.67775441716077
 20
6.342598545616012
 30
0.0
 11
11.67775441716077
 21
6.092598545616012
 31
0.0
  0
LINE
  5
C0B
330
17
100
AcDbEntity
  8
OBJ
100
AcDbLine
 10
10.77150441716077
 20
6.280098545616012
 30
0.0
 11
10.77150441716077
 21
6.155098545616012
 31
0.0
  0
LINE
  5
C0C
330
17
100
AcDbEntity
  8
OBJ
100
AcDbLine
 10
10.83400441716077
 20
6.342598545616012
 30
0.0
 11
10.83400441716077
 21
6.092598545616012
 31
0.0
  0
LINE
  5
C0D
330
17
100
AcDbEntity
  8
OBJ
100
AcDbLine
 10
11.58400441716077
 20
6.342598545616012
 30
0.0
 11
11.58400441716077
 21
6.092598545616012
 31
0.0
  0
LINE
  5
C0E
330
17
100
AcDbEntity
  8
OBJ
100
AcDbLine
 10
11.64650441716077
 20
6.280098545616012
 30
0.0
 11
11.64650441716077
 21
6.155098545616012
 31
0.0
  0
LINE
  5
C0F
330
17
100
AcDbEntity
  8
OBJ
100
AcDbLine
 10
10.83400441716077
 20
6.342598545616012
 30
0.0
 11
10.89650441716077
 21
6.280098545616012
 31
0.0
  0
LINE
  5
C10
330
17
100
AcDbEntity
  8
OBJ
100
AcDbLine
 10
10.83400441716077
 20
6.092598545616012
 30
0.0
 11
10.89650441716077
 21
6.155098545616012
 31
0.0
  0
LINE
  5
C11
330
17
100
AcDbEntity
  8
OBJ
100
AcDbLine
 10
10.83400441716077
 20
6.092598545616012
 30
0.0
 11
10.74025441716077
 21
6.092598545616012
 31
0.0
  0
LINE
  5
C12
330
17
100
AcDbEntity
  8
OBJ
100
AcDbLine
 10
10.89650441716077
 20
6.155098545616012
 30
0.0
 11
10.89650441716077
 21
6.280098545616012
 31
0.0
  0
LINE
  5
C13
330
17
100
AcDbEntity
  8
OBJ
100
AcDbLine
 10
10.83400441716077
 20
6.342598545616012
 30
0.0
 11
10.74025441716077
 21
6.342598545616012
 31
0.0
  0
LINE
  5
C14
330
17
100
AcDbEntity
  8
OBJ
100
AcDbLine
 10
11.58400441716077
 20
6.342598545616012
 30
0.0
 11
11.52150441716077
 21
6.280098545616012
 31
0.0
  0
LINE
  5
C15
330
17
100
AcDbEntity
  8
OBJ
100
AcDbLine
 10
11.52150441716077
 20
6.155098545616012
 30
0.0
 11
11.58400441716077
 21
6.092598545616012
 31
0.0
  0
LINE
  5
C16
330
17
100
AcDbEntity
  8
OBJ
100
AcDbLine
 10
11.52150441716077
 20
6.155098545616012
 30
0.0
 11
11.52150441716077
 21
6.280098545616012
 31
0.0
  0
LINE
  5
C17
330
17
100
AcDbEntity
  8
OBJ
100
AcDbLine
 10
11.58400441716077
 20
6.092598545616012
 30
0.0
 11
11.67775441716077
 21
6.092598545616012
 31
0.0
  0
LINE
  5
C18
330
17
100
AcDbEntity
  8
OBJ
100
AcDbLine
 10
11.58400441716077
 20
6.342598545616012
 30
0.0
 11
11.67775441716077
 21
6.342598545616012
 31
0.0
  0
LINE
  5
C39
330
17
100
AcDbEntity
  8
OBJ
100
AcDbLine
 10
7.77150441716077
 20
13.71759854561601
 30
0.0
 11
7.77150441716077
 21
14.06134854561601
 31
0.0
  0
LINE
  5
C3A
330
17
100
AcDbEntity
  8
OBJ
100
AcDbLine
 10
7.80275441716077
 20
14.09259854561601
 30
0.0
 11
7.86525441716077
 21
14.09259854561601
 31
0.0
  0
LINE
  5
C3B
330
17
100
AcDbEntity
  8
OBJ
100
AcDbLine
 10
7.89650441716077
 20
14.06134854561601
 30
0.0
 11
7.89650441716077
 21
13.71759854561601
 31
0.0
  0
LINE
  5
C3C
330
17
100
AcDbEntity
  8
OBJ
100
AcDbLine
 10
7.77150441716077
 20
12.21759854561601
 30
0.0
 11
7.77150441716077
 21
11.46759854561601
 31
0.0
  0
LINE
  5
C3D
330
17
100
AcDbEntity
  8
OBJ
100
AcDbLine
 10
7.77150441716077
 20
11.46759854561601
 30
0.0
 11
7.89650441716077
 21
11.46759854561601
 31
0.0
  0
LINE
  5
C3E
330
17
100
AcDbEntity
  8
OBJ
100
AcDbLine
 10
7.89650441716077
 20
11.46759854561601
 30
0.0
 11
7.89650441716077
 21
12.21759854561601
 31
0.0
  0
ARC
  5
C3F
330
17
100
AcDbEntity
  8
OBJ
100
AcDbCircle
 10
7.80275441716077
 20
14.06134854561601
 30
0.0
 40
0.03125
100
AcDbArc
 50
90.0
 51
179.9999999999999
  0
ARC
  5
C40
330
17
100
AcDbEntity
  8
OBJ
100
AcDbCircle
 10
7.86525441716077
 20
14.06134854561601
 30
0.0
 40
0.03125
100
AcDbArc
 50
0.0
 51
90.0
  0
LINE
  5
C45
330
17
100
AcDbEntity
  8
OBJ
100
AcDbLine
 10
14.52150441716077
 20
11.46759854561601
 30
0.0
 11
14.52150441716077
 21
12.21759854561601
 31
0.0
  0
LINE
  5
C46
330
17
100
AcDbEntity
  8
OBJ
100
AcDbLine
 10
14.64650441716077
 20
12.21759854561601
 30
0.0
 11
14.64650441716077
 21
11.46759854561601
 31
0.0
  0
LINE
  5
C47
330
17
100
AcDbEntity
  8
OBJ
100
AcDbLine
 10
14.64650441716077
 20
11.46759854561601
 30
0.0
 11
14.52150441716077
 21
11.46759854561601
 31
0.0
  0
ARC
  5
C48
330
17
100
AcDbEntity
  8
OBJ
100
AcDbCircle
 10
14.55275441716077
 20
14.06134854561601
 30
0.0
 40
0.03125
100
AcDbArc
 50
90.0
 51
180.0
  0
ARC
  5
C49
330
17
100
AcDbEntity
  8
OBJ
100
AcDbCircle
 10
14.61525441716077
 20
14.06134854561601
 30
0.0
 40
0.03125
100
AcDbArc
 50
0.0000000000001018
 51
90.0
  0
LINE
  5
C4A
330
17
100
AcDbEntity
  8
OBJ
100
AcDbLine
 10
14.52150441716077
 20
14.06134854561601
 30
0.0
 11
14.52150441716077
 21
13.71759854561601
 31
0.0
  0
LINE
  5
C4B
330
17
100
AcDbEntity
  8
OBJ
100
AcDbLine
 10
14.61525441716077
 20
14.09259854561601
 30
0.0
 11
14.55275441716077
 21
14.09259854561601
 31
0.0
  0
LINE
  5
C4C
330
17
100
AcDbEntity
  8
OBJ
100
AcDbLine
 10
14.64650441716077
 20
13.71759854561601
 30
0.0
 11
14.64650441716077
 21
14.06134854561601
 31
0.0
  0
DIMENSION
  5
CAB
330
17
100
AcDbEntity
  8
3
100
AcDbDimension
  2
*D0
 10
4.809371184579331
 20
4.342598545616013
 30
0.0
 11
4.809371184579331
 21
9.655098545616015
 31
0.0
 70
    32
 71
     5
 42
10.625
  3
STANDARD
100
AcDbAlignedDimension
 13
8.20900441716077
 23
14.96759854561601
 33
0.0
 14
6.20900441716077
 24
4.342598545616013
 34
0.0
 50
90.0
100
AcDbRotatedDimension
1001
ACAD
1000
DSTYLE
1002
{
1070
    41
1040
0.125
1070
    44
1040
0.0625
1070
    73
1070
     0
1070
    74
1070
     0
1070
    78
1070
     4
1070
   140
1040
0.125
1070
   141
1040
-0.125
1070
   271
1070
     3
1070
   272
1070
     3
1070
   279
1070
     2
1070
   284
1070
     4
1070
   285
1070
     4
1070
   286
1070
     4
1070
   340
1005
1C
1002
}
  0
DIMENSION
  5
CB9
330
17
100
AcDbEntity
  8
3
100
AcDbDimension
  2
*D1
 10
16.20900441716077
 20
4.09297574150964
 30
0.0
 11
11.20900441716077
 21
4.09297574150964
 31
0.0
 70
    32
 71
     5
 42
10.0
  3
STANDARD
100
AcDbAlignedDimension
 13
6.20900441716077
 23
4.342598545616013
 33
0.0
 14
16.20900441716077
 24
4.342598545616013
 34
0.0
100
AcDbRotatedDimension
1001
ACAD
1000
DSTYLE
1002
{
1070
    41
1040
0.125
1070
    44
1040
0.0625
1070
    73
1070
     0
1070
    74
1070
     0
1070
    78
1070
     4
1070
   140
1040
0.125
1070
   141
1040
-0.125
1070
   271
1070
     3
1070
   272
1070
     3
1070
   279
1070
     2
1070
   284
1070
     4
1070
   285
1070
     4
1070
   286
1070
     4
1070
   340
1005
1C
1002
}
  0
ENDSEC
  0
SECTION
  2
OBJECTS
  0
DICTIONARY
  5
C
330
0
100
AcDbDictionary
281
     1
  3
ACAD_CIP_PREVIOUS_PRODUCT_INFO
350
CAA
  3
ACAD_COLOR
350
C8C
  3
ACAD_DETAILVIEWSTYLE
350
CA5
  3
ACAD_GROUP
350
D
  3
ACAD_LAYOUT
350
B15
  3
ACAD_MATERIAL
350
C5A
  3
ACAD_MLEADERSTYLE
350
CA1
  3
ACAD_MLINESTYLE
350
1A
  3
ACAD_PLOTSETTINGS
350
B16
  3
ACAD_PLOTSTYLENAME
350
B13
  3
ACAD_SCALELIST
350
C8F
  3
ACAD_SECTIONVIEWSTYLE
350
CA3
  3
ACAD_TABLESTYLE
350
C8D
  3
ACAD_VISUALSTYLE
350
C73
  3
ACDB_RECOMPOSE_DATA
350
D56
  3
ACDBVARIABLEDICTIONARY
350
2B
  3
AcDsDecomposeData
350
D5D
  3
DWGPROPS
350
D57
  0
DICTIONARY
  5
CDA
330
2
100
AcDbDictionary
280
     1
281
     1
  3
ACAD_LAYERSTATES
360
CDB
  0
DICTIONARY
  5
CC7
330
E
100
AcDbDictionary
280
     1
281
     1
  3
ADSK_XREC_LAYER_RECONCILED
360
CC8
  0
DICTIONARY
  5
CC9
330
23
100
AcDbDictionary
280
     1
281
     1
  3
ADSK_XREC_LAYER_RECONCILED
360
CCA
  0
DICTIONARY
  5
CCB
330
24
100
AcDbDictionary
280
     1
281
     1
  3
ADSK_XREC_LAYER_RECONCILED
360
CCC
  0
DICTIONARY
  5
CCD
330
25
100
AcDbDictionary
280
     1
281
     1
  3
ADSK_XREC_LAYER_RECONCILED
360
CCE
  0
DICTIONARY
  5
CCF
330
B1C
100
AcDbDictionary
280
     1
281
     1
  3
ADSK_XREC_LAYER_RECONCILED
360
CD0
  0
DICTIONARY
  5
CD1
330
B1D
100
AcDbDictionary
280
     1
281
     1
  3
ADSK_XREC_LAYER_RECONCILED
360
CD2
  0
DICTIONARY
  5
CD3
330
B1E
100
AcDbDictionary
280
     1
281
     1
  3
ADSK_XREC_LAYER_RECONCILED
360
CD4
  0
DICTIONARY
  5
CD5
330
B1F
100
AcDbDictionary
280
     1
281
     1
  3
ADSK_XREC_LAYER_RECONCILED
360
CD6
  0
XRECORD
  5
CAA
102
{ACAD_REACTORS
330
C
102
}
330
C
100
AcDbXrecord
280
     1
300
AMECH_PP
300
2015
300
PDSU_F_S
  0
DICTIONARY
  5
C8C
102
{ACAD_REACTORS
330
C
102
}
330
C
100
AcDbDictionary
281
     1
  0
DICTIONARY
  5
CA5
102
{ACAD_REACTORS
330
C
102
}
330
C
100
AcDbDictionary
281
     1
  3
Imperial24
350
CA6
  0
DICTIONARY
  5
D
102
{ACAD_REACTORS
330
C
102
}
330
C
100
AcDbDictionary
281
     1
  0
DICTIONARY
  5
B15
102
{ACAD_REACTORS
330
C
102
}
330
C
100
AcDbDictionary
281
     1
  3
Layout1
350
B18
  3
Model
350
B17
  0
DICTIONARY
  5
C5A
102
{ACAD_REACTORS
330
C
102
}
330
C
100
AcDbDictionary
281
     1
  3
ByBlock
350
C63
  3
ByLayer
350
C5B
  3
Global
350
C6B
  0
DICTIONARY
  5
CA1
102
{ACAD_REACTORS
330
C
102
}
330
C
100
AcDbDictionary
281
     1
  3
Standard
350
CA2
  0
DICTIONARY
  5
1A
102
{ACAD_REACTORS
330
C
102
}
330
C
100
AcDbDictionary
281
     1
  3
STANDARD
350
1B
  0
DICTIONARY
  5
B16
102
{ACAD_REACTORS
330
C
102
}
330
C
100
AcDbDictionary
281
     1
  0
ACDBDICTIONARYWDFLT
  5
B13
102
{ACAD_REACTORS
330
C
102
}
330
C
100
AcDbDictionary
281
     1
  3
Normal
350
B14
100
AcDbDictionaryWithDefault
340
B14
  0
DICTIONARY
  5
C8F
102
{ACAD_REACTORS
330
C
102
}
330
C
100
AcDbDictionary
281
     1
  3
A0
350
C90
  3
A1
350
C91
  3
A2
350
C92
  3
A3
350
C93
  3
A4
350
C94
  3
A5
350
C95
  3
A6
350
C96
  3
A7
350
C97
  3
A8
350
C98
  3
A9
350
C99
  3
B0
350
C9A
  3
B1
350
C9B
  3
B2
350
C9C
  3
B3
350
C9D
  3
B4
350
C9E
  3
B5
350
C9F
  3
B6
350
CA0
  0
DICTIONARY
  5
CA3
102
{ACAD_REACTORS
330
C
102
}
330
C
100
AcDbDictionary
281
     1
  3
Imperial24
350
CA4
  0
DICTIONARY
  5
C8D
102
{ACAD_REACTORS
330
C
102
}
330
C
100
AcDbDictionary
281
     1
  3
Standard
350
C8E
  0
DICTIONARY
  5
C73
102
{ACAD_REACTORS
330
C
102
}
330
C
100
AcDbDictionary
281
     1
  3
2dWireframe
350
C79
  3
Basic
350
C78
  3
Brighten
350
C7F
  3
ColorChange
350
C83
  3
Conceptual
350
C7C
  3
Dim
350
C7E
  3
EdgeColorOff
350
C8B
  3
Facepattern
350
C82
  3
Flat
350
C74
  3
FlatWithEdges
350
C75
  3
Gouraud
350
C76
  3
GouraudWithEdges
350
C77
  3
Hidden
350
C7B
  3
JitterOff
350
C89
  3
Linepattern
350
C81
  3
OverhangOff
350
C8A
  3
Realistic
350
C7D
  3
Shaded
350
C88
  3
Shaded with edges
350
C87
  3
Shades of Gray
350
C84
  3
Sketchy
350
C85
  3
Thicken
350
C80
  3
Wireframe
350
C7A
  3
X-Ray
350
C86
  0
XRECORD
  5
D56
102
{ACAD_REACTORS
330
C
102
}
330
C
100
AcDbXrecord
280
     1
 90
        1
330
C8E
  0
DICTIONARY
  5
2B
102
{ACAD_REACTORS
330
C
102
}
330
C
100
AcDbDictionary
281
     1
  3
CANNOSCALE
350
D36
  3
CMLEADERSTYLE
350
D32
  3
CTABLESTYLE
350
D31
  3
CVIEWDETAILSTYLE
350
D33
  3
CVIEWSECTIONSTYLE
350
D34
  3
DIMADEC
350
2C
  3
DIMASSOC
350
C54
  3
INDEXCTL
350
D50
  3
LAYEREVAL
350
D38
  3
LAYERNOTIFY
350
D39
  3
LIGHTINGUNITS
350
D37
  3
LOFTANG1
350
D51
  3
LOFTANG2
350
D52
  3
LONGITUDE
350
D53
  3
MSLTSCALE
350
D35
  3
SORTENTS
350
D4F
  3
XCLIPFRAME
350
D54
  0
DICTIONARY
  5
D5D
102
{ACAD_REACTORS
330
C
102
}
330
C
100
AcDbDictionary
281
     1
  3
AcDsRecords
350
D5F
  3
AcDsSchemas
350
D5E
1001
ACAD
1070
     2
  0
XRECORD
  5
D57
102
{ACAD_REACTORS
330
C
102
}
330
C
100
AcDbXrecord
280
     1
  1
DWGPROPS COOKIE
  2

  3

  4

  6

  7

  8
jmilewski
  9

300
=
301
=
302
=
303
=
304
=
305
=
306
=
307
=
308
=
309
=
 40
0.120683275462963
 41
2449051.539295139
 42
2457155.493747709
  1

 90
        0
  0
DICTIONARY
  5
CDB
102
{ACAD_REACTORS
330
CDA
102
}
330
CDA
100
AcDbDictionary
281
     1
  0
XRECORD
  5
CC8
102
{ACAD_REACTORS
330
CC7
102
}
330
CC7
100
AcDbXrecord
280
     1
290
     1
  0
XRECORD
  5
CCA
102
{ACAD_REACTORS
330
CC9
102
}
330
CC9
100
AcDbXrecord
280
     1
290
     1
  0
XRECORD
  5
CCC
102
{ACAD_REACTORS
330
CCB
102
}
330
CCB
100
AcDbXrecord
280
     1
290
     1
  0
XRECORD
  5
CCE
102
{ACAD_REACTORS
330
CCD
102
}
330
CCD
100
AcDbXrecord
280
     1
290
     1
  0
XRECORD
  5
CD0
102
{ACAD_REACTORS
330
CCF
102
}
330
CCF
100
AcDbXrecord
280
     1
290
     1
  0
XRECORD
  5
CD2
102
{ACAD_REACTORS
330
CD1
102
}
330
CD1
100
AcDbXrecord
280
     1
290
     1
  0
XRECORD
  5
CD4
102
{ACAD_REACTORS
330
CD3
102
}
330
CD3
100
AcDbXrecord
280
     1
290
     1
  0
XRECORD
  5
CD6
102
{ACAD_REACTORS
330
CD5
102
}
330
CD5
100
AcDbXrecord
280
     1
290
     1
  0
ACDBDETAILVIEWSTYLE
  5
CA6
102
{ACAD_XDICTIONARY
360
D3E
102
}
102
{ACAD_REACTORS
330
CA5
102
}
330
CA5
100
AcDbModelDocViewStyle
 70
     0
  3
Imperial24
290
     0
100
AcDbDetailViewStyle
 70
     0
 71
     0
 90
        3
 71
     1
340
F
 40
0.24
340
0
 40
0.24
300

 40
0.36
280
     3
 71
     2
340
13
 90
       25
 71
     3
340
F
 40
0.24
 90
        1
 40
0.75
 90
        1
300
%<\AcVar ViewType \f "%tc1">% %<\AcVar ViewDetailId>%\PSCALE %<\AcVar ViewScale \f "%sn">%
 71
     4
340
13
 90
       25
340
13
 90
       25
280
     0
  0
LAYOUT
  5
B18
102
{ACAD_XDICTIONARY
360
D62
102
}
102
{ACAD_REACTORS
330
B15
102
}
330
B15
100
AcDbPlotSettings
  1

  2
HP DesignJet 500 42 by HP
  4

  6

 40
0.0
 41
0.0
 42
0.0
 43
0.0
 44
0.0
 45
0.0
 46
0.0
 47
0.0
 48
0.0
 49
0.0
140
0.0
141
0.0
142
1.0
143
1.0
 70
   688
 72
     0
 73
     0
 74
     5
  7
PHOTO.ctb
 75
    16
147
1.0
148
0.0
149
0.0
100
AcDbLayout
  1
Layout1
 70
     0
 71
     1
 10
0.0
 20
0.0
 11
12.0
 21
9.0
 12
0.0
 22
0.0
 32
0.0
 14
1.000000000000000E+20
 24
1.000000000000000E+20
 34
1.000000000000000E+20
 15
-1.000000000000000E+20
 25
-1.000000000000000E+20
 35
-1.000000000000000E+20
146
0.0
 13
0.0
 23
0.0
 33
0.0
 16
1.0
 26
0.0
 36
0.0
 17
0.0
 27
1.0
 37
0.0
 76
     0
330
14
  0
LAYOUT
  5
B17
102
{ACAD_XDICTIONARY
360
D60
102
}
102
{ACAD_REACTORS
330
B15
102
}
330
B15
100
AcDbPlotSettings
  1

  2
HP DesignJet 500 42 by HP
  4
User262
  6

 40
4.995333194732666
 41
16.97567367553711
 42
4.995330810546875
 43
16.97567749023437
 44
215.857666015625
 45
279.3153381347656
 46
0.0
 47
0.0
 48
0.0
 49
0.0
140
0.0
141
0.0
142
1.0
143
1.0
 70
 11952
 72
     0
 73
     1
 74
     0
  7
PHOTO.ctb
 75
     0
147
1.0
148
-51.10705944576189
149
13.66265018213004
100
AcDbLayout
  1
Model
 70
     1
 71
     0
 10
0.0
 20
0.0
 11
12.0
 21
9.0
 12
0.0
 22
0.0
 32
0.0
 14
0.0
 24
0.0
 34
0.0
 15
0.0
 25
0.0
 35
0.0
146
0.0
 13
0.0
 23
0.0
 33
0.0
 16
1.0
 26
0.0
 36
0.0
 17
0.0
 27
1.0
 37
0.0
 76
     0
330
17
331
C58
  0
MATERIAL
  5
C63
102
{ACAD_XDICTIONARY
360
C64
102
}
102
{ACAD_REACTORS
330
C5A
102
}
330
C5A
100
AcDbMaterial
  1
ByBlock
 72
     0
 43
0.0208333333333333
 43
0.0
 43
0.0
 43
0.0
 43
0.0
 43
0.0208333333333333
 43
0.0
 43
0.0
 43
0.0
 43
0.0
 43
1.0
 43
0.0
 43
0.0
 43
0.0
 43
0.0
 43
1.0
 77
     0
 47
0.0208333333333333
 47
0.0
 47
0.0
 47
0.0
 47
0.0
 47
0.0208333333333333
 47
0.0
 47
0.0
 47
0.0
 47
0.0
 47
1.0
 47
0.0
 47
0.0
 47
0.0
 47
0.0
 47
1.0
171
     0
 49
0.0208333333333333
 49
0.0
 49
0.0
 49
0.0
 49
0.0
 49
0.0208333333333333
 49
0.0
 49
0.0
 49
0.0
 49
0.0
 49
1.0
 49
0.0
 49
0.0
 49
0.0
 49
0.0
 49
1.0
175
     0
142
0.0208333333333333
142
0.0
142
0.0
142
0.0
142
0.0
142
0.0208333333333333
142
0.0
142
0.0
142
0.0
142
0.0
142
1.0
142
0.0
142
0.0
142
0.0
142
0.0
142
1.0
179
     0
144
0.0208333333333333
144
0.0
144
0.0
144
0.0
144
0.0
144
0.0208333333333333
144
0.0
144
0.0
144
0.0
144
0.0
144
1.0
144
0.0
144
0.0
144
0.0
144
0.0
144
1.0
147
0.0208333333333333
147
0.0
147
0.0
147
0.0
147
0.0
147
0.0208333333333333
147
0.0
147
0.0
147
0.0
147
0.0
147
1.0
147
0.0
147
0.0
147
0.0
147
0.0
147
1.0
  0
MATERIAL
  5
C5B
102
{ACAD_XDICTIONARY
360
C5C
102
}
102
{ACAD_REACTORS
330
C5A
102
}
330
C5A
100
AcDbMaterial
  1
ByLayer
 72
     0
 43
0.0208333333333333
 43
0.0
 43
0.0
 43
0.0
 43
0.0
 43
0.0208333333333333
 43
0.0
 43
0.0
 43
0.0
 43
0.0
 43
1.0
 43
0.0
 43
0.0
 43
0.0
 43
0.0
 43
1.0
 77
     0
 47
0.0208333333333333
 47
0.0
 47
0.0
 47
0.0
 47
0.0
 47
0.0208333333333333
 47
0.0
 47
0.0
 47
0.0
 47
0.0
 47
1.0
 47
0.0
 47
0.0
 47
0.0
 47
0.0
 47
1.0
171
     0
 49
0.0208333333333333
 49
0.0
 49
0.0
 49
0.0
 49
0.0
 49
0.0208333333333333
 49
0.0
 49
0.0
 49
0.0
 49
0.0
 49
1.0
 49
0.0
 49
0.0
 49
0.0
 49
0.0
 49
1.0
175
     0
142
0.0208333333333333
142
0.0
142
0.0
142
0.0
142
0.0
142
0.0208333333333333
142
0.0
142
0.0
142
0.0
142
0.0
142
1.0
142
0.0
142
0.0
142
0.0
142
0.0
142
1.0
179
     0
144
0.0208333333333333
144
0.0
144
0.0
144
0.0
144
0.0
144
0.0208333333333333
144
0.0
144
0.0
144
0.0
144
0.0
144
1.0
144
0.0
144
0.0
144
0.0
144
0.0
144
1.0
147
0.0208333333333333
147
0.0
147
0.0
147
0.0
147
0.0
147
0.0208333333333333
147
0.0
147
0.0
147
0.0
147
0.0
147
1.0
147
0.0
147
0.0
147
0.0
147
0.0
147
1.0
  0
MATERIAL
  5
C6B
102
{ACAD_XDICTIONARY
360
C6C
102
}
102
{ACAD_REACTORS
330
C5A
102
}
330
C5A
100
AcDbMaterial
  1
Global
 72
     0
 43
0.0208333333333333
 43
0.0
 43
0.0
 43
0.0
 43
0.0
 43
0.0208333333333333
 43
0.0
 43
0.0
 43
0.0
 43
0.0
 43
1.0
 43
0.0
 43
0.0
 43
0.0
 43
0.0
 43
1.0
 77
     0
 47
0.0208333333333333
 47
0.0
 47
0.0
 47
0.0
 47
0.0
 47
0.0208333333333333
 47
0.0
 47
0.0
 47
0.0
 47
0.0
 47
1.0
 47
0.0
 47
0.0
 47
0.0
 47
0.0
 47
1.0
171
     0
 49
0.0208333333333333
 49
0.0
 49
0.0
 49
0.0
 49
0.0
 49
0.0208333333333333
 49
0.0
 49
0.0
 49
0.0
 49
0.0
 49
1.0
 49
0.0
 49
0.0
 49
0.0
 49
0.0
 49
1.0
175
     0
142
0.0208333333333333
142
0.0
142
0.0
142
0.0
142
0.0
142
0.0208333333333333
142
0.0
142
0.0
142
0.0
142
0.0
142
1.0
142
0.0
142
0.0
142
0.0
142
0.0
142
1.0
179
     0
144
0.0208333333333333
144
0.0
144
0.0
144
0.0
144
0.0
144
0.0208333333333333
144
0.0
144
0.0
144
0.0
144
0.0
144
1.0
144
0.0
144
0.0
144
0.0
144
0.0
144
1.0
147
0.0208333333333333
147
0.0
147
0.0
147
0.0
147
0.0
147
0.0208333333333333
147
0.0
147
0.0
147
0.0
147
0.0
147
1.0
147
0.0
147
0.0
147
0.0
147
0.0
147
1.0
  0
MLEADERSTYLE
  5
CA2
102
{ACAD_XDICTIONARY
360
D99
102
}
102
{ACAD_REACTORS
330
CA1
102
}
330
CA1
100
AcDbMLeaderStyle
170
     2
171
     1
172
     0
 90
        2
 40
0.0
 41
0.0
173
     1
 91
-1056964608
340
11
 92
       -2
290
     1
 42
0.09
291
     1
 43
0.36
  3
Standard
 44
0.18
300

342
F
174
     1
178
     6
175
     1
176
     0
 93
-1056964608
 45
0.18
292
     0
297
     0
 46
0.18
 94
-1056964608
 47
1.0
 49
1.0
140
1.0
293
     1
141
0.0
294
     1
177
     0
142
1.0
295
     0
296
     0
143
0.125
1001
ACAD_MLEADERVER
1070
     2
  0
MLINESTYLE
  5
1B
102
{ACAD_REACTORS
330
1A
102
}
330
1A
100
AcDbMlineStyle
  2
STANDARD
 70
     0
  3

 62
   256
 51
90.0
 52
90.0
 71
     2
 49
0.5
 62
   256
  6
BYLAYER
 49
-0.5
 62
   256
  6
BYLAYER
  0
ACDBPLACEHOLDER
  5
B14
102
{ACAD_REACTORS
330
B13
102
}
330
B13
  0
SCALE
  5
C90
102
{ACAD_REACTORS
330
C8F
102
}
330
C8F
100
AcDbScale
 70
     0
300
1:1
140
1.0
141
1.0
290
     1
  0
SCALE
  5
C91
102
{ACAD_REACTORS
330
C8F
102
}
330
C8F
100
AcDbScale
 70
     0
300
1/128" = 1'-0"
140
0.0078125
141
12.0
290
     0
  0
SCALE
  5
C92
102
{ACAD_REACTORS
330
C8F
102
}
330
C8F
100
AcDbScale
 70
     0
300
1/64" = 1'-0"
140
0.015625
141
12.0
290
     0
  0
SCALE
  5
C93
102
{ACAD_REACTORS
330
C8F
102
}
330
C8F
100
AcDbScale
 70
     0
300
1/32" = 1'-0"
140
0.03125
141
12.0
290
     0
  0
SCALE
  5
C94
102
{ACAD_REACTORS
330
C8F
102
}
330
C8F
100
AcDbScale
 70
     0
300
1/16" = 1'-0"
140
0.0625
141
12.0
290
     0
  0
SCALE
  5
C95
102
{ACAD_REACTORS
330
C8F
102
}
330
C8F
100
AcDbScale
 70
     0
300
3/32" = 1'-0"
140
0.09375
141
12.0
290
     0
  0
SCALE
  5
C96
102
{ACAD_REACTORS
330
C8F
102
}
330
C8F
100
AcDbScale
 70
     0
300
1/8" = 1'-0"
140
0.125
141
12.0
290
     0
  0
SCALE
  5
C97
102
{ACAD_REACTORS
330
C8F
102
}
330
C8F
100
AcDbScale
 70
     0
300
3/16" = 1'-0"
140
0.1875
141
12.0
290
     0
  0
SCALE
  5
C98
102
{ACAD_REACTORS
330
C8F
102
}
330
C8F
100
AcDbScale
 70
     0
300
1/4" = 1'-0"
140
0.25
141
12.0
290
     0
  0
SCALE
  5
C99
102
{ACAD_REACTORS
330
C8F
102
}
330
C8F
100
AcDbScale
 70
     0
300
3/8" = 1'-0"
140
0.375
141
12.0
290
     0
  0
SCALE
  5
C9A
102
{ACAD_REACTORS
330
C8F
102
}
330
C8F
100
AcDbScale
 70
     0
300
1/2" = 1'-0"
140
0.5
141
12.0
290
     0
  0
SCALE
  5
C9B
102
{ACAD_REACTORS
330
C8F
102
}
330
C8F
100
AcDbScale
 70
     0
300
3/4" = 1'-0"
140
0.75
141
12.0
290
     0
  0
SCALE
  5
C9C
102
{ACAD_REACTORS
330
C8F
102
}
330
C8F
100
AcDbScale
 70
     0
300
1" = 1'-0"
140
1.0
141
12.0
290
     0
  0
SCALE
  5
C9D
102
{ACAD_REACTORS
330
C8F
102
}
330
C8F
100
AcDbScale
 70
     0
300
1-1/2" = 1'-0"
140
1.5
141
12.0
290
     0
  0
SCALE
  5
C9E
102
{ACAD_REACTORS
330
C8F
102
}
330
C8F
100
AcDbScale
 70
     0
300
3" = 1'-0"
140
3.0
141
12.0
290
     0
  0
SCALE
  5
C9F
102
{ACAD_REACTORS
330
C8F
102
}
330
C8F
100
AcDbScale
 70
     0
300
6" = 1'-0"
140
6.0
141
12.0
290
     0
  0
SCALE
  5
CA0
102
{ACAD_REACTORS
330
C8F
102
}
330
C8F
100
AcDbScale
 70
     0
300
1'-0" = 1'-0"
140
12.0
141
12.0
290
     0
  0
ACDBSECTIONVIEWSTYLE
  5
CA4
102
{ACAD_XDICTIONARY
360
D3C
102
}
102
{ACAD_REACTORS
330
CA3
102
}
330
CA3
100
AcDbModelDocViewStyle
 70
     0
  3
Imperial24
290
     0
100
AcDbSectionViewStyle
 70
     0
 71
     0
 90
       78
 71
     1
340
F
 40
0.24
340
0
340
0
 40
0.24
300
I, O, Q, S, X, Z
 40
0.48
 90
        3
 40
0.18
 90
        1
 71
     2
340
13
 90
       25
340
13
 90
       50
 40
0.24
 40
0.0
 40
0.24
 71
     3
340
F
 40
0.24
 90
        1
 40
0.75
 90
        1
300
%<\AcVar ViewType \f "%tc1">% %<\AcVar ViewSectionStartId>%-%<\AcVar ViewSectionEndId>%\PSCALE %<\AcVar ViewScale \f "%sn">%
 71
     4
300
ANSI31
 40
1.0
 90
        0
290
     0
290
     0
 90
        6
 40
0.0
 40
1.570796326794896
 40
0.2617993877991494
 40
1.308996938995747
 40
-0.2617993877991494
 40
1.832595714594044
  0
TABLESTYLE
  5
C8E
102
{ACAD_XDICTIONARY
360
D3A
102
}
102
{ACAD_REACTORS
330
C8D
102
}
330
C8D
100
AcDbTableStyle
  3
Standard
 70
     0
 71
     0
 40
0.06
 41
0.06
280
     0
281
     0
  7
STANDARD
140
0.18
170
     2
 62
     0
 63
     7
283
     0
274
    -2
284
     1
 64
     0
275
    -2
285
     1
 65
     0
276
    -2
286
     1
 66
     0
277
    -2
287
     1
 67
     0
278
    -2
288
     1
 68
     0
279
    -2
289
     1
 69
     0
  7
STANDARD
140
0.25
170
     5
 62
     0
 63
     7
283
     0
274
    -2
284
     1
 64
     0
275
    -2
285
     1
 65
     0
276
    -2
286
     1
 66
     0
277
    -2
287
     1
 67
     0
278
    -2
288
     1
 68
     0
279
    -2
289
     1
 69
     0
  7
STANDARD
140
0.18
170
     5
 62
     0
 63
     7
283
     0
274
    -2
284
     1
 64
     0
275
    -2
285
     1
 65
     0
276
    -2
286
     1
 66
     0
277
    -2
287
     1
 67
     0
278
    -2
288
     1
 68
     0
279
    -2
289
     1
 69
     0
  0
VISUALSTYLE
  5
C79
102
{ACAD_XDICTIONARY
360
D71
102
}
102
{ACAD_REACTORS
330
C73
102
}
330
C73
100
AcDbVisualStyle
  2
2dWireframe
 70
     4
 71
     0
 72
     2
 73
     0
 90
        0
 40
-0.6
 41
-30.0
 62
     5
 63
     7
 74
     1
 91
        4
 64
     7
 65
   257
 75
     1
175
     1
 42
1.0
 92
        0
 66
   257
 43
1.0
 76
     1
 77
     6
 78
     2
 67
     7
 79
     5
170
     0
171
     0
290
     0
174
     0
 93
        1
 44
0.0
173
     0
291
     0
 45
0.0
1001
ACAD
1000
AcDbSavedByObjectVersion
1070
     0
  0
VISUALSTYLE
  5
C78
102
{ACAD_XDICTIONARY
360
D6F
102
}
102
{ACAD_REACTORS
330
C73
102
}
330
C73
100
AcDbVisualStyle
  2
Basic
 70
     7
 71
     1
 72
     0
 73
     1
 90
        0
 40
-0.6
 41
-30.0
 62
     5
 63
     7
 74
     0
 91
        4
 64
     7
 65
   257
 75
     1
175
     1
 42
1.0
 92
        8
 66
     7
 43
1.0
 76
     1
 77
     6
 78
     2
 67
     7
 79
     5
170
     0
171
     0
290
     0
174
     0
 93
        1
 44
0.0
173
     0
291
     1
 45
0.0
1001
ACAD
1000
AcDbSavedByObjectVersion
1070
     0
  0
VISUALSTYLE
  5
C7F
102
{ACAD_XDICTIONARY
360
D7D
102
}
102
{ACAD_REACTORS
330
C73
102
}
330
C73
100
AcDbVisualStyle
  2
Brighten
 70
    12
 71
     2
 72
     2
 73
     0
 90
        0
 40
-0.6
 41
-30.0
 62
     5
 63
     7
 74
     1
 91
        4
 64
     7
 65
   257
 75
     1
175
     1
 42
1.0
 92
        8
 66
     7
 43
1.0
 76
     1
 77
     6
 78
     2
 67
     7
 79
     5
170
     0
171
     0
290
     0
174
     0
 93
        1
 44
50.0
173
     0
291
     1
 45
0.0
1001
ACAD
1000
AcDbSavedByObjectVersion
1070
     0
  0
VISUALSTYLE
  5
C83
102
{ACAD_XDICTIONARY
360
D85
102
}
102
{ACAD_REACTORS
330
C73
102
}
330
C73
100
AcDbVisualStyle
  2
ColorChange
 70
    16
 71
     2
 72
     2
 73
     3
 90
        0
 40
-0.6
 41
-30.0
 62
     5
 63
     8
 74
     1
 91
        4
 64
     7
 65
   257
 75
     1
175
     1
 42
1.0
 92
        8
 66
     8
 43
1.0
 76
     1
 77
     6
 78
     2
 67
     7
 79
     5
170
     0
171
     0
290
     0
174
     0
 93
        1
 44
0.0
173
     0
291
     1
 45
0.0
1001
ACAD
1000
AcDbSavedByObjectVersion
1070
     0
  0
VISUALSTYLE
  5
C7C
102
{ACAD_XDICTIONARY
360
D77
102
}
102
{ACAD_REACTORS
330
C73
102
}
330
C73
100
AcDbVisualStyle
  2
Conceptual
 70
     9
 71
     3
 72
     2
 73
     0
 90
        0
 40
-0.6
 41
-30.0
 62
     5
 63
     7
 74
     2
 91
        2
 64
     7
 65
   257
 75
     1
175
     1
 42
179.0
 92
        8
 66
     7
 43
1.0
 76
     1
 77
     6
 78
     2
 67
     7
 79
     3
170
     0
171
     0
290
     0
174
     0
 93
        1
 44
0.0
173
     0
291
     0
 45
0.0
1001
ACAD
1000
AcDbSavedByObjectVersion
1070
     0
  0
VISUALSTYLE
  5
C7E
102
{ACAD_XDICTIONARY
360
D7B
102
}
102
{ACAD_REACTORS
330
C73
102
}
330
C73
100
AcDbVisualStyle
  2
Dim
 70
    11
 71
     2
 72
     2
 73
     0
 90
        0
 40
-0.6
 41
-30.0
 62
     5
 63
     7
 74
     1
 91
        4
 64
     7
 65
   257
 75
     1
175
     1
 42
1.0
 92
        8
 66
     7
 43
1.0
 76
     1
 77
     6
 78
     2
 67
     7
 79
     5
170
     0
171
     0
290
     0
174
     0
 93
        1
 44
-50.0
173
     0
291
     1
 45
0.0
1001
ACAD
1000
AcDbSavedByObjectVersion
1070
     0
  0
VISUALSTYLE
  5
C8B
102
{ACAD_XDICTIONARY
360
D95
102
}
102
{ACAD_REACTORS
330
C73
102
}
330
C73
100
AcDbVisualStyle
  2
EdgeColorOff
 70
    22
 71
     2
 72
     2
 73
     0
 90
        0
 40
-0.6
 41
-30.0
 62
     5
 63
     7
 74
     1
 91
        4
 64
     7
 65
   257
 75
     1
175
     1
 42
1.0
 92
        8
 66
     7
 43
1.0
 76
     1
 77
     6
 78
     2
 67
     7
 79
     5
170
     0
171
     0
290
     0
174
     0
 93
        1
 44
0.0
173
     0
291
     1
 45
0.0
1001
ACAD
1000
AcDbSavedByObjectVersion
1070
     0
  0
VISUALSTYLE
  5
C82
102
{ACAD_XDICTIONARY
360
D83
102
}
102
{ACAD_REACTORS
330
C73
102
}
330
C73
100
AcDbVisualStyle
  2
Facepattern
 70
    15
 71
     2
 72
     2
 73
     0
 90
        0
 40
-0.6
 41
-30.0
 62
     5
 63
     7
 74
     1
 91
        4
 64
     7
 65
   257
 75
     1
175
     1
 42
1.0
 92
        8
 66
     7
 43
1.0
 76
     1
 77
     6
 78
     2
 67
     7
 79
     5
170
     0
171
     0
290
     0
174
     0
 93
        1
 44
0.0
173
     0
291
     1
 45
0.0
1001
ACAD
1000
AcDbSavedByObjectVersion
1070
     0
  0
VISUALSTYLE
  5
C74
102
{ACAD_XDICTIONARY
360
D67
102
}
102
{ACAD_REACTORS
330
C73
102
}
330
C73
100
AcDbVisualStyle
  2
Flat
 70
     0
 71
     2
 72
     1
 73
     1
 90
        2
 40
-0.6
 41
30.0
 62
     5
 63
     7
 74
     0
 91
        0
 64
     7
 65
   257
 75
     1
175
     1
 42
1.0
 92
        8
 66
     7
 43
1.0
 76
     1
 77
     6
 78
     2
 67
     7
 79
     5
170
     0
171
     0
290
     0
174
     0
 93
       13
 44
0.0
173
     0
291
     1
 45
0.0
1001
ACAD
1000
AcDbSavedByObjectVersion
1070
     0
  0
VISUALSTYLE
  5
C75
102
{ACAD_XDICTIONARY
360
D69
102
}
102
{ACAD_REACTORS
330
C73
102
}
330
C73
100
AcDbVisualStyle
  2
FlatWithEdges
 70
     1
 71
     2
 72
     1
 73
     1
 90
        2
 40
-0.6
 41
30.0
 62
     5
 63
     7
 74
     1
 91
        0
 64
     7
 65
   257
 75
     1
175
     1
 42
1.0
 92
        0
 66
   257
 43
1.0
 76
     1
 77
     6
 78
     2
 67
     7
 79
     5
170
     0
171
     0
290
     0
174
     0
 93
       13
 44
0.0
173
     0
291
     1
 45
0.0
1001
ACAD
1000
AcDbSavedByObjectVersion
1070
     0
  0
VISUALSTYLE
  5
C76
102
{ACAD_XDICTIONARY
360
D6B
102
}
102
{ACAD_REACTORS
330
C73
102
}
330
C73
100
AcDbVisualStyle
  2
Gouraud
 70
     2
 71
     2
 72
     2
 73
     1
 90
        2
 40
-0.6
 41
30.0
 62
     5
 63
     7
 74
     0
 91
        0
 64
     7
 65
   257
 75
     1
175
     1
 42
1.0
 92
        0
 66
     7
 43
1.0
 76
     1
 77
     6
 78
     2
 67
     7
 79
     5
170
     0
171
     0
290
     0
174
     0
 93
       13
 44
0.0
173
     0
291
     1
 45
0.0
1001
ACAD
1000
AcDbSavedByObjectVersion
1070
     0
  0
VISUALSTYLE
  5
C77
102
{ACAD_XDICTIONARY
360
D6D
102
}
102
{ACAD_REACTORS
330
C73
102
}
330
C73
100
AcDbVisualStyle
  2
GouraudWithEdges
 70
     3
 71
     2
 72
     2
 73
     1
 90
        2
 40
-0.6
 41
30.0
 62
     5
 63
     7
 74
     1
 91
        0
 64
     7
 65
   257
 75
     1
175
     1
 42
1.0
 92
        0
 66
   257
 43
1.0
 76
     1
 77
     6
 78
     2
 67
     7
 79
     5
170
     0
171
     0
290
     0
174
     0
 93
       13
 44
0.0
173
     0
291
     1
 45
0.0
1001
ACAD
1000
AcDbSavedByObjectVersion
1070
     0
  0
VISUALSTYLE
  5
C7B
102
{ACAD_XDICTIONARY
360
D75
102
}
102
{ACAD_REACTORS
330
C73
102
}
330
C73
100
AcDbVisualStyle
  2
Hidden
 70
     6
 71
     1
 72
     2
 73
     2
 90
        0
 40
-0.6
 41
-30.0
 62
     5
 63
     7
 74
     2
 91
        2
 64
     7
 65
   257
 75
     2
175
     1
 42
40.0
 92
        0
 66
   257
 43
1.0
 76
     1
 77
     6
 78
     2
 67
     7
 79
     3
170
     0
171
     0
290
     0
174
     0
 93
        1
 44
0.0
173
     0
291
     0
 45
0.0
1001
ACAD
1000
AcDbSavedByObjectVersion
1070
     0
  0
VISUALSTYLE
  5
C89
102
{ACAD_XDICTIONARY
360
D91
102
}
102
{ACAD_REACTORS
330
C73
102
}
330
C73
100
AcDbVisualStyle
  2
JitterOff
 70
    20
 71
     2
 72
     2
 73
     0
 90
        0
 40
-0.6
 41
-30.0
 62
     5
 63
     7
 74
     1
 91
        4
 64
     7
 65
   257
 75
     1
175
     1
 42
1.0
 92
       10
 66
     7
 43
1.0
 76
     1
 77
     6
 78
     2
 67
     7
 79
     5
170
     0
171
     0
290
     0
174
     0
 93
        1
 44
0.0
173
     0
291
     1
 45
0.0
1001
ACAD
1000
AcDbSavedByObjectVersion
1070
     0
  0
VISUALSTYLE
  5
C81
102
{ACAD_XDICTIONARY
360
D81
102
}
102
{ACAD_REACTORS
330
C73
102
}
330
C73
100
AcDbVisualStyle
  2
Linepattern
 70
    14
 71
     2
 72
     2
 73
     0
 90
        0
 40
-0.6
 41
-30.0
 62
     5
 63
     7
 74
     1
 91
        4
 64
     7
 65
   257
 75
     7
175
     7
 42
1.0
 92
        8
 66
     7
 43
1.0
 76
     1
 77
     6
 78
     2
 67
     7
 79
     5
170
     0
171
     0
290
     0
174
     0
 93
        1
 44
0.0
173
     0
291
     1
 45
0.0
1001
ACAD
1000
AcDbSavedByObjectVersion
1070
     0
  0
VISUALSTYLE
  5
C8A
102
{ACAD_XDICTIONARY
360
D93
102
}
102
{ACAD_REACTORS
330
C73
102
}
330
C73
100
AcDbVisualStyle
  2
OverhangOff
 70
    21
 71
     2
 72
     2
 73
     0
 90
        0
 40
-0.6
 41
-30.0
 62
     5
 63
     7
 74
     1
 91
        4
 64
     7
 65
   257
 75
     1
175
     1
 42
1.0
 92
        9
 66
     7
 43
1.0
 76
     1
 77
     6
 78
     2
 67
     7
 79
     5
170
     0
171
     0
290
     0
174
     0
 93
        1
 44
0.0
173
     0
291
     1
 45
0.0
1001
ACAD
1000
AcDbSavedByObjectVersion
1070
     0
  0
VISUALSTYLE
  5
C7D
102
{ACAD_XDICTIONARY
360
D79
102
}
102
{ACAD_REACTORS
330
C73
102
}
330
C73
100
AcDbVisualStyle
  2
Realistic
 70
     8
 71
     2
 72
     3
 73
     0
 90
        2
 40
-0.6
 41
30.0
 62
     5
 63
     7
 74
     0
 91
        0
 64
     7
 65
   257
 75
     1
175
     1
 42
1.0
 92
        8
 66
   257
 43
1.0
 76
     1
 77
     6
 78
     2
 67
     7
 79
     3
170
     0
171
     0
290
     0
174
     0
 93
       13
 44
0.0
173
     0
291
     0
 45
0.0
1001
ACAD
1000
AcDbSavedByObjectVersion
1070
     0
  0
VISUALSTYLE
  5
C88
102
{ACAD_XDICTIONARY
360
D8F
102
}
102
{ACAD_REACTORS
330
C73
102
}
330
C73
100
AcDbVisualStyle
  2
Shaded
 70
    27
 71
     2
 72
     2
 73
     1
 90
        2
 40
-0.6
 41
30.0
 62
     5
 63
     7
 74
     0
 91
        4
 64
     7
 65
   257
 75
     1
175
     1
 42
1.0
 92
        8
 66
   257
 43
1.0
 76
     1
 77
     6
 78
     2
 67
     8
 79
     3
170
     0
171
     0
290
     0
174
     0
 93
        5
 44
0.0
173
     0
291
     0
 45
0.0
1001
ACAD
1000
AcDbSavedByObjectVersion
1070
     0
  0
VISUALSTYLE
  5
C87
102
{ACAD_XDICTIONARY
360
D8D
102
}
102
{ACAD_REACTORS
330
C73
102
}
330
C73
100
AcDbVisualStyle
  2
Shaded with edges
 70
    26
 71
     2
 72
     2
 73
     1
 90
        2
 40
-0.6
 41
30.0
 62
     5
 63
     7
 74
     1
 91
       10
 64
     7
 65
   257
 75
     2
175
     1
 42
1.0
 92
        8
 66
   257
 43
1.0
 76
     1
 77
     6
 78
     2
 67
     7
 79
     3
170
     0
171
     0
290
     0
174
     0
 93
        5
 44
0.0
173
     0
291
     0
 45
0.0
1001
ACAD
1000
AcDbSavedByObjectVersion
1070
     0
  0
VISUALSTYLE
  5
C84
102
{ACAD_XDICTIONARY
360
D87
102
}
102
{ACAD_REACTORS
330
C73
102
}
330
C73
100
AcDbVisualStyle
  2
Shades of Gray
 70
    23
 71
     2
 72
     2
 73
     3
 90
        0
 40
-0.6
 41
-30.0
 62
     5
 63
     7
 74
     2
 91
        2
 64
     7
 65
     7
 75
     1
175
     1
 42
40.0
 92
        8
 66
     7
 43
1.0
 76
     1
 77
     6
 78
     2
 67
     7
 79
     3
170
     0
171
     0
290
     0
174
     0
 93
        1
 44
0.0
173
     0
291
     0
 45
0.0
1001
ACAD
1000
AcDbSavedByObjectVersion
1070
     0
  0
VISUALSTYLE
  5
C85
102
{ACAD_XDICTIONARY
360
D89
102
}
102
{ACAD_REACTORS
330
C73
102
}
330
C73
100
AcDbVisualStyle
  2
Sketchy
 70
    24
 71
     1
 72
     2
 73
     2
 90
        0
 40
-0.6
 41
-30.0
 62
     5
 63
     7
 74
     2
 91
        2
 64
     7
 65
     7
 75
     1
175
     1
 42
40.0
 92
       11
 66
     7
 43
1.0
 76
     1
 77
     6
 78
     2
 67
     7
 79
     6
170
     0
171
     0
290
     0
174
     0
 93
        1
 44
0.0
173
     0
291
     0
 45
0.0
1001
ACAD
1000
AcDbSavedByObjectVersion
1070
     0
  0
VISUALSTYLE
  5
C80
102
{ACAD_XDICTIONARY
360
D7F
102
}
102
{ACAD_REACTORS
330
C73
102
}
330
C73
100
AcDbVisualStyle
  2
Thicken
 70
    13
 71
     2
 72
     2
 73
     0
 90
        0
 40
-0.6
 41
-30.0
 62
     5
 63
     7
 74
     1
 91
        4
 64
     7
 65
   257
 75
     1
175
     1
 42
1.0
 92
       12
 66
     7
 43
1.0
 76
     1
 77
     6
 78
     2
 67
     7
 79
     5
170
     0
171
     0
290
     0
174
     0
 93
        1
 44
0.0
173
     0
291
     1
 45
0.0
1001
ACAD
1000
AcDbSavedByObjectVersion
1070
     0
  0
VISUALSTYLE
  5
C7A
102
{ACAD_XDICTIONARY
360
D73
102
}
102
{ACAD_REACTORS
330
C73
102
}
330
C73
100
AcDbVisualStyle
  2
Wireframe
 70
     5
 71
     0
 72
     2
 73
     0
 90
        0
 40
-0.6
 41
-30.0
 62
     5
 63
     7
 74
     1
 91
        4
 64
     7
 65
   257
 75
     1
175
     1
 42
1.0
 92
        0
 66
   257
 43
1.0
 76
     1
 77
     6
 78
     2
 67
     7
 79
     3
170
     0
171
     0
290
     0
174
     0
 93
        1
 44
0.0
173
     0
291
     0
 45
0.0
1001
ACAD
1000
AcDbSavedByObjectVersion
1070
     0
  0
VISUALSTYLE
  5
C86
102
{ACAD_XDICTIONARY
360
D8B
102
}
102
{ACAD_REACTORS
330
C73
102
}
330
C73
100
AcDbVisualStyle
  2
X-Ray
 70
    25
 71
     2
 72
     2
 73
     1
 90
        1
 40
0.5
 41
-30.0
 62
     5
 63
     7
 74
     1
 91
        0
 64
     7
 65
   257
 75
     1
175
     1
 42
1.0
 92
        8
 66
     7
 43
1.0
 76
     1
 77
     6
 78
     2
 67
     7
 79
     3
170
     0
171
     0
290
     0
174
     0
 93
       13
 44
0.0
173
     0
291
     0
 45
0.0
1001
ACAD
1000
AcDbSavedByObjectVersion
1070
     0
  0
DICTIONARYVAR
  5
D36
102
{ACAD_REACTORS
330
2B
102
}
330
2B
100
DictionaryVariables
280
     0
  1
1:1
  0
DICTIONARYVAR
  5
D32
102
{ACAD_REACTORS
330
2B
102
}
330
2B
100
DictionaryVariables
280
     0
  1
STANDARD
  0
DICTIONARYVAR
  5
D31
102
{ACAD_REACTORS
330
2B
102
}
330
2B
100
DictionaryVariables
280
     0
  1
STANDARD
  0
DICTIONARYVAR
  5
D33
102
{ACAD_REACTORS
330
2B
102
}
330
2B
100
DictionaryVariables
280
     0
  1
Imperial24
  0
DICTIONARYVAR
  5
D34
102
{ACAD_REACTORS
330
2B
102
}
330
2B
100
DictionaryVariables
280
     0
  1
Imperial24
  0
DICTIONARYVAR
  5
2C
102
{ACAD_REACTORS
330
2B
102
}
330
2B
100
DictionaryVariables
280
     0
  1
2
  0
DICTIONARYVAR
  5
C54
102
{ACAD_REACTORS
330
2B
102
}
330
2B
100
DictionaryVariables
280
     0
  1
1
  0
DICTIONARYVAR
  5
D50
102
{ACAD_REACTORS
330
2B
102
}
330
2B
100
DictionaryVariables
280
     0
  1
0
  0
DICTIONARYVAR
  5
D38
102
{ACAD_REACTORS
330
2B
102
}
330
2B
100
DictionaryVariables
280
     0
  1
1
  0
DICTIONARYVAR
  5
D39
102
{ACAD_REACTORS
330
2B
102
}
330
2B
100
DictionaryVariables
280
     0
  1
15
  0
DICTIONARYVAR
  5
D37
102
{ACAD_REACTORS
330
2B
102
}
330
2B
100
DictionaryVariables
280
     0
  1
0
  0
DICTIONARYVAR
  5
D51
102
{ACAD_REACTORS
330
2B
102
}
330
2B
100
DictionaryVariables
280
     0
  1
1.570796
  0
DICTIONARYVAR
  5
D52
102
{ACAD_REACTORS
330
2B
102
}
330
2B
100
DictionaryVariables
280
     0
  1
1.570796
  0
DICTIONARYVAR
  5
D53
102
{ACAD_REACTORS
330
2B
102
}
330
2B
100
DictionaryVariables
280
     0
  1
-122.394000
  0
DICTIONARYVAR
  5
D35
102
{ACAD_REACTORS
330
2B
102
}
330
2B
100
DictionaryVariables
280
     0
  1
0
  0
DICTIONARYVAR
  5
D4F
102
{ACAD_REACTORS
330
2B
102
}
330
2B
100
DictionaryVariables
280
     0
  1
127
  0
DICTIONARYVAR
  5
D54
102
{ACAD_REACTORS
330
2B
102
}
330
2B
100
DictionaryVariables
280
     0
  1
2
  0
DICTIONARY
  5
D5F
102
{ACAD_REACTORS
330
D5D
102
}
330
D5D
100
AcDbDictionary
281
     1
  0
DICTIONARY
  5
D5E
102
{ACAD_REACTORS
330
D5D
102
}
330
D5D
100
AcDbDictionary
281
     1
  3
8796088136192
350
D58
  3
8796088136208
350
D59
  3
8796088136224
350
D5A
  3
8796088136240
350
D5B
  3
8796088136256
350
D5C
  0
DICTIONARY
  5
D3E
330
CA6
100
AcDbDictionary
280
     1
281
     1
  3
ACAD_XREC_ROUNDTRIP
360
D9C
  0
DICTIONARY
  5
D62
330
B18
100
AcDbDictionary
280
     1
281
     1
  3
ACAD_XREC_ROUNDTRIP
360
D63
  0
DICTIONARY
  5
D60
330
B17
100
AcDbDictionary
280
     1
281
     1
  3
ACAD_XREC_ROUNDTRIP
360
D61
  0
DICTIONARY
  5
C64
330
C63
100
AcDbDictionary
280
     1
281
     1
  3
ACAD_XREC_ROUNDTRIP
360
D65
  3
BUMPTILE
360
C66
  3
DIFFUSETILE
360
C65
  3
OPACITYTILE
360
C69
  3
REFLECTIONTILE
360
C68
  3
REFRACTIONTILE
360
C6A
  3
SPECULARTILE
360
C67
  0
DICTIONARY
  5
C5C
330
C5B
100
AcDbDictionary
280
     1
281
     1
  3
ACAD_XREC_ROUNDTRIP
360
D64
  3
BUMPTILE
360
C5E
  3
DIFFUSETILE
360
C5D
  3
OPACITYTILE
360
C61
  3
REFLECTIONTILE
360
C60
  3
REFRACTIONTILE
360
C62
  3
SPECULARTILE
360
C5F
  0
DICTIONARY
  5
C6C
330
C6B
100
AcDbDictionary
280
     1
281
     1
  3
ACAD_XREC_ROUNDTRIP
360
D66
  3
BUMPTILE
360
C6E
  3
DIFFUSETILE
360
C6D
  3
OPACITYTILE
360
C71
  3
REFLECTIONTILE
360
C70
  3
REFRACTIONTILE
360
C72
  3
SPECULARTILE
360
C6F
  0
DICTIONARY
  5
D99
330
CA2
100
AcDbDictionary
280
     1
281
     1
  3
ACAD_XREC_ROUNDTRIP
360
D9A
  0
DICTIONARY
  5
D3C
330
CA4
100
AcDbDictionary
280
     1
281
     1
  3
ACAD_XREC_ROUNDTRIP
360
D9B
  0
DICTIONARY
  5
D3A
330
C8E
100
AcDbDictionary
280
     1
281
     1
  3
ACAD_ROUNDTRIP_2008_TABLESTYLE_CELLSTYLEMAP
360
D55
  3
ACAD_XREC_ROUNDTRIP
360
D97
  0
DICTIONARY
  5
D71
330
C79
100
AcDbDictionary
280
     1
281
     1
  3
ACAD_XREC_ROUNDTRIP
360
D72
  0
DICTIONARY
  5
D6F
330
C78
100
AcDbDictionary
280
     1
281
     1
  3
ACAD_XREC_ROUNDTRIP
360
D70
  0
DICTIONARY
  5
D7D
330
C7F
100
AcDbDictionary
280
     1
281
     1
  3
ACAD_XREC_ROUNDTRIP
360
D7E
  0
DICTIONARY
  5
D85
330
C83
100
AcDbDictionary
280
     1
281
     1
  3
ACAD_XREC_ROUNDTRIP
360
D86
  0
DICTIONARY
  5
D77
330
C7C
100
AcDbDictionary
280
     1
281
     1
  3
ACAD_XREC_ROUNDTRIP
360
D78
  0
DICTIONARY
  5
D7B
330
C7E
100
AcDbDictionary
280
     1
281
     1
  3
ACAD_XREC_ROUNDTRIP
360
D7C
  0
DICTIONARY
  5
D95
330
C8B
100
AcDbDictionary
280
     1
281
     1
  3
ACAD_XREC_ROUNDTRIP
360
D96
  0
DICTIONARY
  5
D83
330
C82
100
AcDbDictionary
280
     1
281
     1
  3
ACAD_XREC_ROUNDTRIP
360
D84
  0
DICTIONARY
  5
D67
330
C74
100
AcDbDictionary
280
     1
281
     1
  3
ACAD_XREC_ROUNDTRIP
360
D68
  0
DICTIONARY
  5
D69
330
C75
100
AcDbDictionary
280
     1
281
     1
  3
ACAD_XREC_ROUNDTRIP
360
D6A
  0
DICTIONARY
  5
D6B
330
C76
100
AcDbDictionary
280
     1
281
     1
  3
ACAD_XREC_ROUNDTRIP
360
D6C
  0
DICTIONARY
  5
D6D
330
C77
100
AcDbDictionary
280
     1
281
     1
  3
ACAD_XREC_ROUNDTRIP
360
D6E
  0
DICTIONARY
  5
D75
330
C7B
100
AcDbDictionary
280
     1
281
     1
  3
ACAD_XREC_ROUNDTRIP
360
D76
  0
DICTIONARY
  5
D91
330
C89
100
AcDbDictionary
280
     1
281
     1
  3
ACAD_XREC_ROUNDTRIP
360
D92
  0
DICTIONARY
  5
D81
330
C81
100
AcDbDictionary
280
     1
281
     1
  3
ACAD_XREC_ROUNDTRIP
360
D82
  0
DICTIONARY
  5
D93
330
C8A
100
AcDbDictionary
280
     1
281
     1
  3
ACAD_XREC_ROUNDTRIP
360
D94
  0
DICTIONARY
  5
D79
330
C7D
100
AcDbDictionary
280
     1
281
     1
  3
ACAD_XREC_ROUNDTRIP
360
D7A
  0
DICTIONARY
  5
D8F
330
C88
100
AcDbDictionary
280
     1
281
     1
  3
ACAD_XREC_ROUNDTRIP
360
D90
  0
DICTIONARY
  5
D8D
330
C87
100
AcDbDictionary
280
     1
281
     1
  3
ACAD_XREC_ROUNDTRIP
360
D8E
  0
DICTIONARY
  5
D87
330
C84
100
AcDbDictionary
280
     1
281
     1
  3
ACAD_XREC_ROUNDTRIP
360
D88
  0
DICTIONARY
  5
D89
330
C85
100
AcDbDictionary
280
     1
281
     1
  3
ACAD_XREC_ROUNDTRIP
360
D8A
  0
DICTIONARY
  5
D7F
330
C80
100
AcDbDictionary
280
     1
281
     1
  3
ACAD_XREC_ROUNDTRIP
360
D80
  0
DICTIONARY
  5
D73
330
C7A
100
AcDbDictionary
280
     1
281
     1
  3
ACAD_XREC_ROUNDTRIP
360
D74
  0
DICTIONARY
  5
D8B
330
C86
100
AcDbDictionary
280
     1
281
     1
  3
ACAD_XREC_ROUNDTRIP
360
D8C
  0
XRECORD
  5
D58
102
{ACAD_REACTORS
330
D5E
102
}
330
D5E
100
AcDbXrecord
280
     1
  1
AcDb_Thumbnail_Schema
102
{ATTRRECORD
341
D59
  2
AcDbDs::TreatedAsObjectData
280
     1
291
     1
102
ATTRRECORD}
102
{ATTRRECORD
341
D5A
  2
AcDbDs::Legacy
280
     1
291
     1
102
ATTRRECORD}
  2
AcDbDs::ID
280
    10
 91
        8
102
{ATTRRECORD
341
D5B
  2
AcDs:Indexable
280
     1
291
     1
102
ATTRRECORD}
102
{ATTRRECORD
341
D5C
  2
AcDbDs::HandleAttribute
280
     7
282
     1
102
ATTRRECORD}
  2
Thumbnail_Data
280
    15
 91
        0
  0
XRECORD
  5
D59
102
{ACAD_REACTORS
330
D5E
102
}
330
D5E
100
AcDbXrecord
280
     1
  1
AcDbDs::TreatedAsObjectDataSchema
  2
AcDbDs::TreatedAsObjectData
280
     1
 91
        0
  0
XRECORD
  5
D5A
102
{ACAD_REACTORS
330
D5E
102
}
330
D5E
100
AcDbXrecord
280
     1
  1
AcDbDs::LegacySchema
  2
AcDbDs::Legacy
280
     1
 91
        0
  0
XRECORD
  5
D5B
102
{ACAD_REACTORS
330
D5E
102
}
330
D5E
100
AcDbXrecord
280
     1
  1
AcDbDs::IndexedPropertySchema
  2
AcDs:Indexable
280
     1
 91
        0
  0
XRECORD
  5
D5C
102
{ACAD_REACTORS
330
D5E
102
}
330
D5E
100
AcDbXrecord
280
     1
  1
AcDbDs::HandleAttributeSchema
  2
AcDbDs::HandleAttribute
280
     7
 91
        1
284
     1
  0
XRECORD
  5
D9C
102
{ACAD_REACTORS
330
D3E
102
}
330
D3E
100
AcDbXrecord
280
     1
102
DISPLAYNAME
  1
Imperial24
102
FLAGS
 90
        0
  0
XRECORD
  5
D63
102
{ACAD_REACTORS
330
D62
102
}
330
D62
100
AcDbXrecord
280
     1
102
SHADEPLOT
 70
     0
102
SHADEPLOTRESLEVEL
 70
     2
102
SHADEPLOTCUSTOMDPI
 70
   300
  0
XRECORD
  5
D61
102
{ACAD_REACTORS
330
D60
102
}
330
D60
100
AcDbXrecord
280
     1
102
SHADEPLOT
 70
     0
102
SHADEPLOTRESLEVEL
 70
     2
102
SHADEPLOTCUSTOMDPI
 70
   300
  0
XRECORD
  5
D65
102
{ACAD_REACTORS
330
C64
102
}
330
C64
100
AcDbXrecord
280
     1
102
MATERIAL
148
0.0
149
0.0
149
0.0
 93
        0
 94
      127
282
     0
 72
     0
 77
     0
171
     0
175
     0
179
     0
273
     0
  0
XRECORD
  5
C66
102
{ACAD_REACTORS
330
C64
102
}
330
C64
100
AcDbXrecord
280
     1
270
     1
271
     1
  0
XRECORD
  5
C65
102
{ACAD_REACTORS
330
C64
102
}
330
C64
100
AcDbXrecord
280
     1
270
     1
271
     1
  0
XRECORD
  5
C69
102
{ACAD_REACTORS
330
C64
102
}
330
C64
100
AcDbXrecord
280
     1
270
     1
271
     1
  0
XRECORD
  5
C68
102
{ACAD_REACTORS
330
C64
102
}
330
C64
100
AcDbXrecord
280
     1
270
     1
271
     1
  0
XRECORD
  5
C6A
102
{ACAD_REACTORS
330
C64
102
}
330
C64
100
AcDbXrecord
280
     1
270
     1
271
     1
  0
XRECORD
  5
C67
102
{ACAD_REACTORS
330
C64
102
}
330
C64
100
AcDbXrecord
280
     1
270
     1
271
     1
  0
XRECORD
  5
D64
102
{ACAD_REACTORS
330
C5C
102
}
330
C5C
100
AcDbXrecord
280
     1
102
MATERIAL
148
0.0
149
0.0
149
0.0
 93
        0
 94
      127
282
     0
 72
     0
 77
     0
171
     0
175
     0
179
     0
273
     0
  0
XRECORD
  5
C5E
102
{ACAD_REACTORS
330
C5C
102
}
330
C5C
100
AcDbXrecord
280
     1
270
     1
271
     1
  0
XRECORD
  5
C5D
102
{ACAD_REACTORS
330
C5C
102
}
330
C5C
100
AcDbXrecord
280
     1
270
     1
271
     1
  0
XRECORD
  5
C61
102
{ACAD_REACTORS
330
C5C
102
}
330
C5C
100
AcDbXrecord
280
     1
270
     1
271
     1
  0
XRECORD
  5
C60
102
{ACAD_REACTORS
330
C5C
102
}
330
C5C
100
AcDbXrecord
280
     1
270
     1
271
     1
  0
XRECORD
  5
C62
102
{ACAD_REACTORS
330
C5C
102
}
330
C5C
100
AcDbXrecord
280
     1
270
     1
271
     1
  0
XRECORD
  5
C5F
102
{ACAD_REACTORS
330
C5C
102
}
330
C5C
100
AcDbXrecord
280
     1
270
     1
271
     1
  0
XRECORD
  5
D66
102
{ACAD_REACTORS
330
C6C
102
}
330
C6C
100
AcDbXrecord
280
     1
102
MATERIAL
148
0.0
149
0.0
149
0.0
 93
        0
 94
      127
282
     0
 72
     0
 77
     0
171
     0
175
     0
179
     0
273
     0
  0
XRECORD
  5
C6E
102
{ACAD_REACTORS
330
C6C
102
}
330
C6C
100
AcDbXrecord
280
     1
270
     1
271
     1
  0
XRECORD
  5
C6D
102
{ACAD_REACTORS
330
C6C
102
}
330
C6C
100
AcDbXrecord
280
     1
270
     1
271
     1
  0
XRECORD
  5
C71
102
{ACAD_REACTORS
330
C6C
102
}
330
C6C
100
AcDbXrecord
280
     1
270
     1
271
     1
  0
XRECORD
  5
C70
102
{ACAD_REACTORS
330
C6C
102
}
330
C6C
100
AcDbXrecord
280
     1
270
     1
271
     1
  0
XRECORD
  5
C72
102
{ACAD_REACTORS
330
C6C
102
}
330
C6C
100
AcDbXrecord
280
     1
270
     1
271
     1
  0
XRECORD
  5
C6F
102
{ACAD_REACTORS
330
C6C
102
}
330
C6C
100
AcDbXrecord
280
     1
270
     1
271
     1
  0
XRECORD
  5
D9A
102
{ACAD_REACTORS
330
D99
102
}
330
D99
100
AcDbXrecord
280
     1
102
ACAD_ROUNDTRIP_2012_MLEADER_STYLE
298
     1
  0
XRECORD
  5
D9B
102
{ACAD_REACTORS
330
D3C
102
}
330
D3C
100
AcDbXrecord
280
     1
102
DISPLAYNAME
  1
Imperial24
102
FLAGS
 90
        0
  0
CELLSTYLEMAP
  5
D55
102
{ACAD_REACTORS
330
D3A
102
}
330
D3A
100
AcDbCellStyleMap
 90
        3
300
CELLSTYLE
  1
TABLEFORMAT_BEGIN
 90
        5
170
     1
 91
        0
 92
    32768
 62
   257
 93
        1
300
CONTENTFORMAT
  1
CONTENTFORMAT_BEGIN
 90
        0
 91
        0
 92
      512
 93
        0
300

 40
0.0
140
1.0
 94
        5
 62
     0
340
F
144
0.25
309
CONTENTFORMAT_END
171
     1
301
MARGIN
  1
CELLMARGIN_BEGIN
 40
0.06
 40
0.06
 40
0.06
 40
0.06
 40
0.18
 40
0.18
309
CELLMARGIN_END
 94
        6
 95
        1
302
GRIDFORMAT
  1
GRIDFORMAT_BEGIN
 90
        0
 91
        1
 62
     0
 92
       -2
340
0
 93
        0
 40
0.045
309
GRIDFORMAT_END
 95
        2
302
GRIDFORMAT
  1
GRIDFORMAT_BEGIN
 90
        0
 91
        1
 62
     0
 92
       -2
340
0
 93
        0
 40
0.045
309
GRIDFORMAT_END
 95
        4
302
GRIDFORMAT
  1
GRIDFORMAT_BEGIN
 90
        0
 91
        1
 62
     0
 92
       -2
340
0
 93
        0
 40
0.045
309
GRIDFORMAT_END
 95
        8
302
GRIDFORMAT
  1
GRIDFORMAT_BEGIN
 90
        0
 91
        1
 62
     0
 92
       -2
340
0
 93
        0
 40
0.045
309
GRIDFORMAT_END
 95
       16
302
GRIDFORMAT
  1
GRIDFORMAT_BEGIN
 90
        0
 91
        1
 62
     0
 92
       -2
340
0
 93
        0
 40
0.045
309
GRIDFORMAT_END
 95
       32
302
GRIDFORMAT
  1
GRIDFORMAT_BEGIN
 90
        0
 91
        1
 62
     0
 92
       -2
340
0
 93
        0
 40
0.045
309
GRIDFORMAT_END
309
TABLEFORMAT_END
  1
CELLSTYLE_BEGIN
 90
        1
 91
        1
300
_TITLE
309
CELLSTYLE_END
300
CELLSTYLE
  1
TABLEFORMAT_BEGIN
 90
        5
170
     1
 91
        0
 92
        0
 62
   257
 93
        1
300
CONTENTFORMAT
  1
CONTENTFORMAT_BEGIN
 90
        0
 91
        0
 92
      512
 93
        0
300

 40
0.0
140
1.0
 94
        5
 62
     0
340
F
144
0.18
309
CONTENTFORMAT_END
171
     1
301
MARGIN
  1
CELLMARGIN_BEGIN
 40
0.06
 40
0.06
 40
0.06
 40
0.06
 40
0.18
 40
0.18
309
CELLMARGIN_END
 94
        6
 95
        1
302
GRIDFORMAT
  1
GRIDFORMAT_BEGIN
 90
        0
 91
        1
 62
     0
 92
       -2
340
0
 93
        0
 40
0.045
309
GRIDFORMAT_END
 95
        2
302
GRIDFORMAT
  1
GRIDFORMAT_BEGIN
 90
        0
 91
        1
 62
     0
 92
       -2
340
0
 93
        0
 40
0.045
309
GRIDFORMAT_END
 95
        4
302
GRIDFORMAT
  1
GRIDFORMAT_BEGIN
 90
        0
 91
        1
 62
     0
 92
       -2
340
0
 93
        0
 40
0.045
309
GRIDFORMAT_END
 95
        8
302
GRIDFORMAT
  1
GRIDFORMAT_BEGIN
 90
        0
 91
        1
 62
     0
 92
       -2
340
0
 93
        0
 40
0.045
309
GRIDFORMAT_END
 95
       16
302
GRIDFORMAT
  1
GRIDFORMAT_BEGIN
 90
        0
 91
        1
 62
     0
 92
       -2
340
0
 93
        0
 40
0.045
309
GRIDFORMAT_END
 95
       32
302
GRIDFORMAT
  1
GRIDFORMAT_BEGIN
 90
        0
 91
        1
 62
     0
 92
       -2
340
0
 93
        0
 40
0.045
309
GRIDFORMAT_END
309
TABLEFORMAT_END
  1
CELLSTYLE_BEGIN
 90
        2
 91
        1
300
_HEADER
309
CELLSTYLE_END
300
CELLSTYLE
  1
TABLEFORMAT_BEGIN
 90
        5
170
     1
 91
        0
 92
        0
 62
   257
 93
        1
300
CONTENTFORMAT
  1
CONTENTFORMAT_BEGIN
 90
        0
 91
        0
 92
      512
 93
        0
300

 40
0.0
140
1.0
 94
        2
 62
     0
340
F
144
0.18
309
CONTENTFORMAT_END
171
     1
301
MARGIN
  1
CELLMARGIN_BEGIN
 40
0.06
 40
0.06
 40
0.06
 40
0.06
 40
0.18
 40
0.18
309
CELLMARGIN_END
 94
        6
 95
        1
302
GRIDFORMAT
  1
GRIDFORMAT_BEGIN
 90
        0
 91
        1
 62
     0
 92
       -2
340
0
 93
        0
 40
0.045
309
GRIDFORMAT_END
 95
        2
302
GRIDFORMAT
  1
GRIDFORMAT_BEGIN
 90
        0
 91
        1
 62
     0
 92
       -2
340
0
 93
        0
 40
0.045
309
GRIDFORMAT_END
 95
        4
302
GRIDFORMAT
  1
GRIDFORMAT_BEGIN
 90
        0
 91
        1
 62
     0
 92
       -2
340
0
 93
        0
 40
0.045
309
GRIDFORMAT_END
 95
        8
302
GRIDFORMAT
  1
GRIDFORMAT_BEGIN
 90
        0
 91
        1
 62
     0
 92
       -2
340
0
 93
        0
 40
0.045
309
GRIDFORMAT_END
 95
       16
302
GRIDFORMAT
  1
GRIDFORMAT_BEGIN
 90
        0
 91
        1
 62
     0
 92
       -2
340
0
 93
        0
 40
0.045
309
GRIDFORMAT_END
 95
       32
302
GRIDFORMAT
  1
GRIDFORMAT_BEGIN
 90
        0
 91
        1
 62
     0
 92
       -2
340
0
 93
        0
 40
0.045
309
GRIDFORMAT_END
309
TABLEFORMAT_END
  1
CELLSTYLE_BEGIN
 90
        3
 91
        2
300
_DATA
309
CELLSTYLE_END
  0
XRECORD
  5
D97
102
{ACAD_REACTORS
330
D3A
102
}
330
D3A
100
AcDbXrecord
280
     1
102
ACAD_ROUNDTRIP_PRE2007_TABLESTYLE
 90
      512
 91
        0
  1

 92
      512
 93
        0
  2

 94
      512
 95
        0
  3

  0
XRECORD
  5
D72
102
{ACAD_REACTORS
330
D71
102
}
330
D71
100
AcDbXrecord
280
     1
102
RTVSPost2010Prop28
280
     1
102
RTVSPost2010PropOp28
 70
     1
102
RTVSPost2010Prop29
280
     1
102
RTVSPost2010PropOp29
 70
     1
102
RTVSPost2010Prop30
280
     0
102
RTVSPost2010PropOp30
 70
     1
102
RTVSPost2010Prop31
280
     0
102
RTVSPost2010PropOp31
 70
     1
102
RTVSPost2010Prop32
280
     0
102
RTVSPost2010PropOp32
 70
     1
102
RTVSPost2010Prop33
280
     0
102
RTVSPost2010PropOp33
 70
     1
102
RTVSPost2010Prop34
280
     0
102
RTVSPost2010PropOp34
 70
     1
102
RTVSPost2010Prop35
280
     0
102
RTVSPost2010PropOp35
 70
     1
102
RTVSPost2010Prop36
280
     0
102
RTVSPost2010PropOp36
 70
     1
102
RTVSPost2010Prop37
 90
       50
102
RTVSPost2010PropOp37
 70
     1
102
RTVSPost2010Prop38
140
0.0
102
RTVSPost2010PropOp38
 70
     1
102
RTVSPost2010Prop39
140
1.0
102
RTVSPost2010PropOp39
 70
     1
102
RTVSPost2010Prop40
 90
        0
102
RTVSPost2010PropOp40
 70
     1
102
RTVSPost2010Prop41ColorIndex
 90
       18
102
RTVSPost2010Prop41ColorRGB
 90
-16777216
102
RTVSPost2010PropOp41
 70
     1
102
RTVSPost2010Prop42
 90
       50
102
RTVSPost2010PropOp42
 70
     1
102
RTVSPost2010Prop43
 90
        3
102
RTVSPost2010PropOp43
 70
     1
102
RTVSPost2010Prop44ColorIndex
 90
        5
102
RTVSPost2010Prop44ColorRGB
 90
      255
102
RTVSPost2010PropOp44
 70
     1
102
RTVSPost2010Prop45
280
     0
102
RTVSPost2010PropOp45
 70
     1
102
RTVSPost2010Prop46
 90
       50
102
RTVSPost2010PropOp46
 70
     1
102
RTVSPost2010Prop47
 90
       50
102
RTVSPost2010PropOp47
 70
     1
102
RTVSPost2010Prop48
 90
       50
102
RTVSPost2010PropOp48
 70
     1
102
RTVSPost2010Prop49
280
     0
102
RTVSPost2010PropOp49
 70
     1
102
RTVSPost2010Prop50
 90
       50
102
RTVSPost2010PropOp50
 70
     1
102
RTVSPost2010Prop51ColorIndex
 90
      256
102
RTVSPost2010Prop51ColorRGB
 90
-16777216
102
RTVSPost2010PropOp51
 70
     0
102
RTVSPost2010Prop52
140
1.0
102
RTVSPost2010PropOp52
 70
     0
102
RTVSPost2010Prop53
 90
        2
102
RTVSPost2010PropOp53
 70
     1
102
RTVSPost2010Prop54
  1
strokes_ogs.tif
102
RTVSPost2010PropOp54
 70
     1
102
RTVSPost2010Prop55
280
     0
102
RTVSPost2010PropOp55
 70
     1
102
RTVSPost2010Prop56
140
1.0
102
RTVSPost2010PropOp56
 70
     1
102
RTVSPost2010Prop57
140
1.0
102
RTVSPost2010PropOp57
 70
     1
102
RTVSPropertyOp0
 70
     1
102
RTVSPropertyOp1
 70
     1
102
RTVSPropertyOp2
 70
     1
102
RTVSPropertyOp3
 70
     1
102
RTVSPropertyOp4
 70
     1
102
RTVSPropertyOp5
 70
     1
102
RTVSPropertyOp6
 70
     1
102
RTVSPropertyOp7
 70
     1
102
RTVSPropertyOp8
 70
     1
102
RTVSPropertyOp9
 70
     1
102
RTVSPropertyOp10
 70
     1
102
RTVSPropertyOp11
 70
     1
102
RTVSPropertyOp12
 70
     1
102
RTVSPropertyOp13
 70
     1
102
RTVSPropertyOp14
 70
     1
102
RTVSPropertyOp15
 70
     1
102
RTVSPropertyOp16
 70
     1
102
RTVSPropertyOp17
 70
     1
102
RTVSPropertyOp18
 70
     1
102
RTVSPropertyOp19
 70
     1
102
RTVSPropertyOp20
 70
     1
102
RTVSPropertyOp21
 70
     1
102
RTVSPropertyOp22
 70
     1
102
RTVSPropertyOp23
 70
     1
102
RTVSPropertyOp24
 70
     1
102
RTVSPropertyOp25
 70
     1
102
RTVSPropertyOp26
 70
     1
102
RTVSPropertyOp27
 70
     1
102
RTVSPropertyOp28
 70
     1
102
RTVSPropertyOp29
 70
     1
102
RTVSPropertyOp30
 70
     1
102
RTVSPropertyOp31
 70
     1
102
RTVSPropertyOp32
 70
     1
102
RTVSPropertyOp33
 70
     1
102
RTVSPropertyOp34
 70
     1
102
RTVSPropertyOp35
 70
     1
102
RTVSPropertyOp36
 70
     1
102
RTVSPropertyOp37
 70
     1
102
RTVSPropertyOp38
 70
     1
102
RTVSPropertyOp39
 70
     1
102
RTVSPropertyOp40
 70
     1
102
RTVSPropertyOp41
 70
     1
102
RTVSPropertyOp42
 70
     1
102
RTVSPropertyOp43
 70
     1
102
RTVSPropertyOp44
 70
     1
102
RTVSPropertyOp45
 70
     1
102
RTVSPropertyOp46
 70
     1
102
RTVSPropertyOp47
 70
     1
102
RTVSPropertyOp48
 70
     1
102
RTVSPropertyOp49
 70
     1
102
RTVSPropertyOp50
 70
     1
102
RTVSPropertyOp51
 70
     0
102
RTVSPropertyOp52
 70
     0
102
RTVSPropertyOp53
 70
     1
102
RTVSPropertyOp54
 70
     1
102
RTVSPropertyOp55
 70
     1
102
RTVSPropertyOp56
 70
     1
102
RTVSPropertyOp57
 70
     1
102
RTVSPropertyOp58
 70
     1
102
RTVSPropertyOp59
 70
     1
102
RTVSPropertyOp60
 70
     1
102
RTVSPropertyOp61
 70
     1
102
RTVSPropertyOp62
 70
     1
  0
XRECORD
  5
D70
102
{ACAD_REACTORS
330
D6F
102
}
330
D6F
100
AcDbXrecord
280
     1
102
RTVSPost2010Prop28
280
     0
102
RTVSPost2010PropOp28
 70
     1
102
RTVSPost2010Prop29
280
     1
102
RTVSPost2010PropOp29
 70
     1
102
RTVSPost2010Prop30
280
     1
102
RTVSPost2010PropOp30
 70
     1
102
RTVSPost2010Prop31
280
     0
102
RTVSPost2010PropOp31
 70
     1
102
RTVSPost2010Prop32
280
     0
102
RTVSPost2010PropOp32
 70
     1
102
RTVSPost2010Prop33
280
     0
102
RTVSPost2010PropOp33
 70
     1
102
RTVSPost2010Prop34
280
     0
102
RTVSPost2010PropOp34
 70
     1
102
RTVSPost2010Prop35
280
     0
102
RTVSPost2010PropOp35
 70
     1
102
RTVSPost2010Prop36
280
     0
102
RTVSPost2010PropOp36
 70
     1
102
RTVSPost2010Prop37
 90
       50
102
RTVSPost2010PropOp37
 70
     1
102
RTVSPost2010Prop38
140
0.0
102
RTVSPost2010PropOp38
 70
     1
102
RTVSPost2010Prop39
140
1.0
102
RTVSPost2010PropOp39
 70
     1
102
RTVSPost2010Prop40
 90
        0
102
RTVSPost2010PropOp40
 70
     1
102
RTVSPost2010Prop41ColorIndex
 90
       18
102
RTVSPost2010Prop41ColorRGB
 90
-16777216
102
RTVSPost2010PropOp41
 70
     1
102
RTVSPost2010Prop42
 90
       50
102
RTVSPost2010PropOp42
 70
     1
102
RTVSPost2010Prop43
 90
        3
102
RTVSPost2010PropOp43
 70
     1
102
RTVSPost2010Prop44ColorIndex
 90
        5
102
RTVSPost2010Prop44ColorRGB
 90
      255
102
RTVSPost2010PropOp44
 70
     1
102
RTVSPost2010Prop45
280
     0
102
RTVSPost2010PropOp45
 70
     1
102
RTVSPost2010Prop46
 90
       50
102
RTVSPost2010PropOp46
 70
     1
102
RTVSPost2010Prop47
 90
       50
102
RTVSPost2010PropOp47
 70
     1
102
RTVSPost2010Prop48
 90
       50
102
RTVSPost2010PropOp48
 70
     1
102
RTVSPost2010Prop49
280
     0
102
RTVSPost2010PropOp49
 70
     1
102
RTVSPost2010Prop50
 90
       50
102
RTVSPost2010PropOp50
 70
     1
102
RTVSPost2010Prop51ColorIndex
 90
      256
102
RTVSPost2010Prop51ColorRGB
 90
-16777216
102
RTVSPost2010PropOp51
 70
     0
102
RTVSPost2010Prop52
140
1.0
102
RTVSPost2010PropOp52
 70
     0
102
RTVSPost2010Prop53
 90
        2
102
RTVSPost2010PropOp53
 70
     1
102
RTVSPost2010Prop54
  1
strokes_ogs.tif
102
RTVSPost2010PropOp54
 70
     1
102
RTVSPost2010Prop55
280
     0
102
RTVSPost2010PropOp55
 70
     1
102
RTVSPost2010Prop56
140
1.0
102
RTVSPost2010PropOp56
 70
     1
102
RTVSPost2010Prop57
140
1.0
102
RTVSPost2010PropOp57
 70
     1
102
RTVSPropertyOp0
 70
     1
102
RTVSPropertyOp1
 70
     1
102
RTVSPropertyOp2
 70
     1
102
RTVSPropertyOp3
 70
     1
102
RTVSPropertyOp4
 70
     1
102
RTVSPropertyOp5
 70
     1
102
RTVSPropertyOp6
 70
     1
102
RTVSPropertyOp7
 70
     1
102
RTVSPropertyOp8
 70
     1
102
RTVSPropertyOp9
 70
     1
102
RTVSPropertyOp10
 70
     1
102
RTVSPropertyOp11
 70
     1
102
RTVSPropertyOp12
 70
     1
102
RTVSPropertyOp13
 70
     1
102
RTVSPropertyOp14
 70
     1
102
RTVSPropertyOp15
 70
     1
102
RTVSPropertyOp16
 70
     1
102
RTVSPropertyOp17
 70
     1
102
RTVSPropertyOp18
 70
     1
102
RTVSPropertyOp19
 70
     1
102
RTVSPropertyOp20
 70
     1
102
RTVSPropertyOp21
 70
     1
102
RTVSPropertyOp22
 70
     1
102
RTVSPropertyOp23
 70
     1
102
RTVSPropertyOp24
 70
     1
102
RTVSPropertyOp25
 70
     1
102
RTVSPropertyOp26
 70
     1
102
RTVSPropertyOp27
 70
     1
102
RTVSPropertyOp28
 70
     1
102
RTVSPropertyOp29
 70
     1
102
RTVSPropertyOp30
 70
     1
102
RTVSPropertyOp31
 70
     1
102
RTVSPropertyOp32
 70
     1
102
RTVSPropertyOp33
 70
     1
102
RTVSPropertyOp34
 70
     1
102
RTVSPropertyOp35
 70
     1
102
RTVSPropertyOp36
 70
     1
102
RTVSPropertyOp37
 70
     1
102
RTVSPropertyOp38
 70
     1
102
RTVSPropertyOp39
 70
     1
102
RTVSPropertyOp40
 70
     1
102
RTVSPropertyOp41
 70
     1
102
RTVSPropertyOp42
 70
     1
102
RTVSPropertyOp43
 70
     1
102
RTVSPropertyOp44
 70
     1
102
RTVSPropertyOp45
 70
     1
102
RTVSPropertyOp46
 70
     1
102
RTVSPropertyOp47
 70
     1
102
RTVSPropertyOp48
 70
     1
102
RTVSPropertyOp49
 70
     1
102
RTVSPropertyOp50
 70
     1
102
RTVSPropertyOp51
 70
     0
102
RTVSPropertyOp52
 70
     0
102
RTVSPropertyOp53
 70
     1
102
RTVSPropertyOp54
 70
     1
102
RTVSPropertyOp55
 70
     1
102
RTVSPropertyOp56
 70
     1
102
RTVSPropertyOp57
 70
     1
102
RTVSPropertyOp58
 70
     1
102
RTVSPropertyOp59
 70
     1
102
RTVSPropertyOp60
 70
     1
102
RTVSPropertyOp61
 70
     1
102
RTVSPropertyOp62
 70
     1
  0
XRECORD
  5
D7E
102
{ACAD_REACTORS
330
D7D
102
}
330
D7D
100
AcDbXrecord
280
     1
102
RTVSPost2010Prop28
280
     0
102
RTVSPost2010PropOp28
 70
     1
102
RTVSPost2010Prop29
280
     1
102
RTVSPost2010PropOp29
 70
     1
102
RTVSPost2010Prop30
280
     1
102
RTVSPost2010PropOp30
 70
     1
102
RTVSPost2010Prop31
280
     0
102
RTVSPost2010PropOp31
 70
     1
102
RTVSPost2010Prop32
280
     0
102
RTVSPost2010PropOp32
 70
     1
102
RTVSPost2010Prop33
280
     0
102
RTVSPost2010PropOp33
 70
     1
102
RTVSPost2010Prop34
280
     0
102
RTVSPost2010PropOp34
 70
     1
102
RTVSPost2010Prop35
280
     0
102
RTVSPost2010PropOp35
 70
     1
102
RTVSPost2010Prop36
280
     0
102
RTVSPost2010PropOp36
 70
     1
102
RTVSPost2010Prop37
 90
       50
102
RTVSPost2010PropOp37
 70
     1
102
RTVSPost2010Prop38
140
0.0
102
RTVSPost2010PropOp38
 70
     1
102
RTVSPost2010Prop39
140
1.0
102
RTVSPost2010PropOp39
 70
     1
102
RTVSPost2010Prop40
 90
        0
102
RTVSPost2010PropOp40
 70
     1
102
RTVSPost2010Prop41ColorIndex
 90
       18
102
RTVSPost2010Prop41ColorRGB
 90
-16777216
102
RTVSPost2010PropOp41
 70
     1
102
RTVSPost2010Prop42
 90
       50
102
RTVSPost2010PropOp42
 70
     1
102
RTVSPost2010Prop43
 90
        3
102
RTVSPost2010PropOp43
 70
     1
102
RTVSPost2010Prop44ColorIndex
 90
        5
102
RTVSPost2010Prop44ColorRGB
 90
      255
102
RTVSPost2010PropOp44
 70
     1
102
RTVSPost2010Prop45
280
     0
102
RTVSPost2010PropOp45
 70
     1
102
RTVSPost2010Prop46
 90
       50
102
RTVSPost2010PropOp46
 70
     1
102
RTVSPost2010Prop47
 90
       50
102
RTVSPost2010PropOp47
 70
     1
102
RTVSPost2010Prop48
 90
       50
102
RTVSPost2010PropOp48
 70
     1
102
RTVSPost2010Prop49
280
     0
102
RTVSPost2010PropOp49
 70
     1
102
RTVSPost2010Prop50
 90
       50
102
RTVSPost2010PropOp50
 70
     1
102
RTVSPost2010Prop51ColorIndex
 90
      256
102
RTVSPost2010Prop51ColorRGB
 90
-16777216
102
RTVSPost2010PropOp51
 70
     0
102
RTVSPost2010Prop52
140
1.0
102
RTVSPost2010PropOp52
 70
     0
102
RTVSPost2010Prop53
 90
        2
102
RTVSPost2010PropOp53
 70
     1
102
RTVSPost2010Prop54
  1
strokes_ogs.tif
102
RTVSPost2010PropOp54
 70
     1
102
RTVSPost2010Prop55
280
     0
102
RTVSPost2010PropOp55
 70
     1
102
RTVSPost2010Prop56
140
1.0
102
RTVSPost2010PropOp56
 70
     1
102
RTVSPost2010Prop57
140
1.0
102
RTVSPost2010PropOp57
 70
     1
102
RTVSPropertyOp0
 70
     1
102
RTVSPropertyOp1
 70
     1
102
RTVSPropertyOp2
 70
     1
102
RTVSPropertyOp3
 70
     1
102
RTVSPropertyOp4
 70
     1
102
RTVSPropertyOp5
 70
     1
102
RTVSPropertyOp6
 70
     1
102
RTVSPropertyOp7
 70
     1
102
RTVSPropertyOp8
 70
     1
102
RTVSPropertyOp9
 70
     1
102
RTVSPropertyOp10
 70
     1
102
RTVSPropertyOp11
 70
     1
102
RTVSPropertyOp12
 70
     1
102
RTVSPropertyOp13
 70
     1
102
RTVSPropertyOp14
 70
     1
102
RTVSPropertyOp15
 70
     1
102
RTVSPropertyOp16
 70
     1
102
RTVSPropertyOp17
 70
     1
102
RTVSPropertyOp18
 70
     1
102
RTVSPropertyOp19
 70
     1
102
RTVSPropertyOp20
 70
     1
102
RTVSPropertyOp21
 70
     1
102
RTVSPropertyOp22
 70
     1
102
RTVSPropertyOp23
 70
     1
102
RTVSPropertyOp24
 70
     1
102
RTVSPropertyOp25
 70
     1
102
RTVSPropertyOp26
 70
     1
102
RTVSPropertyOp27
 70
     1
102
RTVSPropertyOp28
 70
     1
102
RTVSPropertyOp29
 70
     1
102
RTVSPropertyOp30
 70
     1
102
RTVSPropertyOp31
 70
     1
102
RTVSPropertyOp32
 70
     1
102
RTVSPropertyOp33
 70
     1
102
RTVSPropertyOp34
 70
     1
102
RTVSPropertyOp35
 70
     1
102
RTVSPropertyOp36
 70
     1
102
RTVSPropertyOp37
 70
     1
102
RTVSPropertyOp38
 70
     1
102
RTVSPropertyOp39
 70
     1
102
RTVSPropertyOp40
 70
     1
102
RTVSPropertyOp41
 70
     1
102
RTVSPropertyOp42
 70
     1
102
RTVSPropertyOp43
 70
     1
102
RTVSPropertyOp44
 70
     1
102
RTVSPropertyOp45
 70
     1
102
RTVSPropertyOp46
 70
     1
102
RTVSPropertyOp47
 70
     1
102
RTVSPropertyOp48
 70
     1
102
RTVSPropertyOp49
 70
     1
102
RTVSPropertyOp50
 70
     1
102
RTVSPropertyOp51
 70
     0
102
RTVSPropertyOp52
 70
     0
102
RTVSPropertyOp53
 70
     1
102
RTVSPropertyOp54
 70
     1
102
RTVSPropertyOp55
 70
     1
102
RTVSPropertyOp56
 70
     1
102
RTVSPropertyOp57
 70
     1
102
RTVSPropertyOp58
 70
     1
102
RTVSPropertyOp59
 70
     1
102
RTVSPropertyOp60
 70
     1
102
RTVSPropertyOp61
 70
     1
102
RTVSPropertyOp62
 70
     1
  0
XRECORD
  5
D86
102
{ACAD_REACTORS
330
D85
102
}
330
D85
100
AcDbXrecord
280
     1
102
RTVSPost2010Prop28
280
     0
102
RTVSPost2010PropOp28
 70
     1
102
RTVSPost2010Prop29
280
     1
102
RTVSPost2010PropOp29
 70
     1
102
RTVSPost2010Prop30
280
     1
102
RTVSPost2010PropOp30
 70
     1
102
RTVSPost2010Prop31
280
     0
102
RTVSPost2010PropOp31
 70
     1
102
RTVSPost2010Prop32
280
     0
102
RTVSPost2010PropOp32
 70
     1
102
RTVSPost2010Prop33
280
     0
102
RTVSPost2010PropOp33
 70
     1
102
RTVSPost2010Prop34
280
     0
102
RTVSPost2010PropOp34
 70
     1
102
RTVSPost2010Prop35
280
     0
102
RTVSPost2010PropOp35
 70
     1
102
RTVSPost2010Prop36
280
     0
102
RTVSPost2010PropOp36
 70
     1
102
RTVSPost2010Prop37
 90
       50
102
RTVSPost2010PropOp37
 70
     1
102
RTVSPost2010Prop38
140
0.0
102
RTVSPost2010PropOp38
 70
     1
102
RTVSPost2010Prop39
140
1.0
102
RTVSPost2010PropOp39
 70
     1
102
RTVSPost2010Prop40
 90
        0
102
RTVSPost2010PropOp40
 70
     1
102
RTVSPost2010Prop41ColorIndex
 90
       18
102
RTVSPost2010Prop41ColorRGB
 90
-16777216
102
RTVSPost2010PropOp41
 70
     1
102
RTVSPost2010Prop42
 90
       50
102
RTVSPost2010PropOp42
 70
     1
102
RTVSPost2010Prop43
 90
        3
102
RTVSPost2010PropOp43
 70
     1
102
RTVSPost2010Prop44ColorIndex
 90
        5
102
RTVSPost2010Prop44ColorRGB
 90
      255
102
RTVSPost2010PropOp44
 70
     1
102
RTVSPost2010Prop45
280
     0
102
RTVSPost2010PropOp45
 70
     1
102
RTVSPost2010Prop46
 90
       50
102
RTVSPost2010PropOp46
 70
     1
102
RTVSPost2010Prop47
 90
       50
102
RTVSPost2010PropOp47
 70
     1
102
RTVSPost2010Prop48
 90
       50
102
RTVSPost2010PropOp48
 70
     1
102
RTVSPost2010Prop49
280
     0
102
RTVSPost2010PropOp49
 70
     1
102
RTVSPost2010Prop50
 90
       50
102
RTVSPost2010PropOp50
 70
     1
102
RTVSPost2010Prop51ColorIndex
 90
      256
102
RTVSPost2010Prop51ColorRGB
 90
-16777216
102
RTVSPost2010PropOp51
 70
     0
102
RTVSPost2010Prop52
140
1.0
102
RTVSPost2010PropOp52
 70
     0
102
RTVSPost2010Prop53
 90
        2
102
RTVSPost2010PropOp53
 70
     1
102
RTVSPost2010Prop54
  1
strokes_ogs.tif
102
RTVSPost2010PropOp54
 70
     1
102
RTVSPost2010Prop55
280
     0
102
RTVSPost2010PropOp55
 70
     1
102
RTVSPost2010Prop56
140
1.0
102
RTVSPost2010PropOp56
 70
     1
102
RTVSPost2010Prop57
140
1.0
102
RTVSPost2010PropOp57
 70
     1
102
RTVSPropertyOp0
 70
     1
102
RTVSPropertyOp1
 70
     1
102
RTVSPropertyOp2
 70
     1
102
RTVSPropertyOp3
 70
     1
102
RTVSPropertyOp4
 70
     1
102
RTVSPropertyOp5
 70
     1
102
RTVSPropertyOp6
 70
     1
102
RTVSPropertyOp7
 70
     1
102
RTVSPropertyOp8
 70
     1
102
RTVSPropertyOp9
 70
     1
102
RTVSPropertyOp10
 70
     1
102
RTVSPropertyOp11
 70
     1
102
RTVSPropertyOp12
 70
     1
102
RTVSPropertyOp13
 70
     1
102
RTVSPropertyOp14
 70
     1
102
RTVSPropertyOp15
 70
     1
102
RTVSPropertyOp16
 70
     1
102
RTVSPropertyOp17
 70
     1
102
RTVSPropertyOp18
 70
     1
102
RTVSPropertyOp19
 70
     1
102
RTVSPropertyOp20
 70
     1
102
RTVSPropertyOp21
 70
     1
102
RTVSPropertyOp22
 70
     1
102
RTVSPropertyOp23
 70
     1
102
RTVSPropertyOp24
 70
     1
102
RTVSPropertyOp25
 70
     1
102
RTVSPropertyOp26
 70
     1
102
RTVSPropertyOp27
 70
     1
102
RTVSPropertyOp28
 70
     1
102
RTVSPropertyOp29
 70
     1
102
RTVSPropertyOp30
 70
     1
102
RTVSPropertyOp31
 70
     1
102
RTVSPropertyOp32
 70
     1
102
RTVSPropertyOp33
 70
     1
102
RTVSPropertyOp34
 70
     1
102
RTVSPropertyOp35
 70
     1
102
RTVSPropertyOp36
 70
     1
102
RTVSPropertyOp37
 70
     1
102
RTVSPropertyOp38
 70
     1
102
RTVSPropertyOp39
 70
     1
102
RTVSPropertyOp40
 70
     1
102
RTVSPropertyOp41
 70
     1
102
RTVSPropertyOp42
 70
     1
102
RTVSPropertyOp43
 70
     1
102
RTVSPropertyOp44
 70
     1
102
RTVSPropertyOp45
 70
     1
102
RTVSPropertyOp46
 70
     1
102
RTVSPropertyOp47
 70
     1
102
RTVSPropertyOp48
 70
     1
102
RTVSPropertyOp49
 70
     1
102
RTVSPropertyOp50
 70
     1
102
RTVSPropertyOp51
 70
     0
102
RTVSPropertyOp52
 70
     0
102
RTVSPropertyOp53
 70
     1
102
RTVSPropertyOp54
 70
     1
102
RTVSPropertyOp55
 70
     1
102
RTVSPropertyOp56
 70
     1
102
RTVSPropertyOp57
 70
     1
102
RTVSPropertyOp58
 70
     1
102
RTVSPropertyOp59
 70
     1
102
RTVSPropertyOp60
 70
     1
102
RTVSPropertyOp61
 70
     1
102
RTVSPropertyOp62
 70
     1
  0
XRECORD
  5
D78
102
{ACAD_REACTORS
330
D77
102
}
330
D77
100
AcDbXrecord
280
     1
102
RTVSPost2010Prop28
280
     0
102
RTVSPost2010PropOp28
 70
     1
102
RTVSPost2010Prop29
280
     1
102
RTVSPost2010PropOp29
 70
     1
102
RTVSPost2010Prop30
280
     1
102
RTVSPost2010PropOp30
 70
     1
102
RTVSPost2010Prop31
280
     0
102
RTVSPost2010PropOp31
 70
     1
102
RTVSPost2010Prop32
280
     0
102
RTVSPost2010PropOp32
 70
     1
102
RTVSPost2010Prop33
280
     0
102
RTVSPost2010PropOp33
 70
     1
102
RTVSPost2010Prop34
280
     0
102
RTVSPost2010PropOp34
 70
     1
102
RTVSPost2010Prop35
280
     0
102
RTVSPost2010PropOp35
 70
     1
102
RTVSPost2010Prop36
280
     0
102
RTVSPost2010PropOp36
 70
     1
102
RTVSPost2010Prop37
 90
       50
102
RTVSPost2010PropOp37
 70
     1
102
RTVSPost2010Prop38
140
0.0
102
RTVSPost2010PropOp38
 70
     1
102
RTVSPost2010Prop39
140
1.0
102
RTVSPost2010PropOp39
 70
     1
102
RTVSPost2010Prop40
 90
        0
102
RTVSPost2010PropOp40
 70
     1
102
RTVSPost2010Prop41ColorIndex
 90
       18
102
RTVSPost2010Prop41ColorRGB
 90
-16777216
102
RTVSPost2010PropOp41
 70
     1
102
RTVSPost2010Prop42
 90
       50
102
RTVSPost2010PropOp42
 70
     1
102
RTVSPost2010Prop43
 90
        3
102
RTVSPost2010PropOp43
 70
     1
102
RTVSPost2010Prop44ColorIndex
 90
        5
102
RTVSPost2010Prop44ColorRGB
 90
      255
102
RTVSPost2010PropOp44
 70
     1
102
RTVSPost2010Prop45
280
     0
102
RTVSPost2010PropOp45
 70
     1
102
RTVSPost2010Prop46
 90
       50
102
RTVSPost2010PropOp46
 70
     1
102
RTVSPost2010Prop47
 90
       50
102
RTVSPost2010PropOp47
 70
     1
102
RTVSPost2010Prop48
 90
       50
102
RTVSPost2010PropOp48
 70
     1
102
RTVSPost2010Prop49
280
     0
102
RTVSPost2010PropOp49
 70
     1
102
RTVSPost2010Prop50
 90
       50
102
RTVSPost2010PropOp50
 70
     1
102
RTVSPost2010Prop51ColorIndex
 90
      256
102
RTVSPost2010Prop51ColorRGB
 90
-16777216
102
RTVSPost2010PropOp51
 70
     0
102
RTVSPost2010Prop52
140
1.0
102
RTVSPost2010PropOp52
 70
     0
102
RTVSPost2010Prop53
 90
        2
102
RTVSPost2010PropOp53
 70
     1
102
RTVSPost2010Prop54
  1
strokes_ogs.tif
102
RTVSPost2010PropOp54
 70
     1
102
RTVSPost2010Prop55
280
     0
102
RTVSPost2010PropOp55
 70
     1
102
RTVSPost2010Prop56
140
1.0
102
RTVSPost2010PropOp56
 70
     1
102
RTVSPost2010Prop57
140
1.0
102
RTVSPost2010PropOp57
 70
     1
102
RTVSPropertyOp0
 70
     1
102
RTVSPropertyOp1
 70
     1
102
RTVSPropertyOp2
 70
     1
102
RTVSPropertyOp3
 70
     1
102
RTVSPropertyOp4
 70
     1
102
RTVSPropertyOp5
 70
     1
102
RTVSPropertyOp6
 70
     1
102
RTVSPropertyOp7
 70
     1
102
RTVSPropertyOp8
 70
     1
102
RTVSPropertyOp9
 70
     1
102
RTVSPropertyOp10
 70
     1
102
RTVSPropertyOp11
 70
     1
102
RTVSPropertyOp12
 70
     1
102
RTVSPropertyOp13
 70
     1
102
RTVSPropertyOp14
 70
     1
102
RTVSPropertyOp15
 70
     1
102
RTVSPropertyOp16
 70
     1
102
RTVSPropertyOp17
 70
     1
102
RTVSPropertyOp18
 70
     1
102
RTVSPropertyOp19
 70
     1
102
RTVSPropertyOp20
 70
     1
102
RTVSPropertyOp21
 70
     1
102
RTVSPropertyOp22
 70
     1
102
RTVSPropertyOp23
 70
     1
102
RTVSPropertyOp24
 70
     1
102
RTVSPropertyOp25
 70
     1
102
RTVSPropertyOp26
 70
     1
102
RTVSPropertyOp27
 70
     1
102
RTVSPropertyOp28
 70
     1
102
RTVSPropertyOp29
 70
     1
102
RTVSPropertyOp30
 70
     1
102
RTVSPropertyOp31
 70
     1
102
RTVSPropertyOp32
 70
     1
102
RTVSPropertyOp33
 70
     1
102
RTVSPropertyOp34
 70
     1
102
RTVSPropertyOp35
 70
     1
102
RTVSPropertyOp36
 70
     1
102
RTVSPropertyOp37
 70
     1
102
RTVSPropertyOp38
 70
     1
102
RTVSPropertyOp39
 70
     1
102
RTVSPropertyOp40
 70
     1
102
RTVSPropertyOp41
 70
     1
102
RTVSPropertyOp42
 70
     1
102
RTVSPropertyOp43
 70
     1
102
RTVSPropertyOp44
 70
     1
102
RTVSPropertyOp45
 70
     1
102
RTVSPropertyOp46
 70
     1
102
RTVSPropertyOp47
 70
     1
102
RTVSPropertyOp48
 70
     1
102
RTVSPropertyOp49
 70
     1
102
RTVSPropertyOp50
 70
     1
102
RTVSPropertyOp51
 70
     0
102
RTVSPropertyOp52
 70
     0
102
RTVSPropertyOp53
 70
     1
102
RTVSPropertyOp54
 70
     1
102
RTVSPropertyOp55
 70
     1
102
RTVSPropertyOp56
 70
     1
102
RTVSPropertyOp57
 70
     1
102
RTVSPropertyOp58
 70
     1
102
RTVSPropertyOp59
 70
     1
102
RTVSPropertyOp60
 70
     1
102
RTVSPropertyOp61
 70
     1
102
RTVSPropertyOp62
 70
     1
  0
XRECORD
  5
D7C
102
{ACAD_REACTORS
330
D7B
102
}
330
D7B
100
AcDbXrecord
280
     1
102
RTVSPost2010Prop28
280
     0
102
RTVSPost2010PropOp28
 70
     1
102
RTVSPost2010Prop29
280
     1
102
RTVSPost2010PropOp29
 70
     1
102
RTVSPost2010Prop30
280
     1
102
RTVSPost2010PropOp30
 70
     1
102
RTVSPost2010Prop31
280
     0
102
RTVSPost2010PropOp31
 70
     1
102
RTVSPost2010Prop32
280
     0
102
RTVSPost2010PropOp32
 70
     1
102
RTVSPost2010Prop33
280
     0
102
RTVSPost2010PropOp33
 70
     1
102
RTVSPost2010Prop34
280
     0
102
RTVSPost2010PropOp34
 70
     1
102
RTVSPost2010Prop35
280
     0
102
RTVSPost2010PropOp35
 70
     1
102
RTVSPost2010Prop36
280
     0
102
RTVSPost2010PropOp36
 70
     1
102
RTVSPost2010Prop37
 90
       50
102
RTVSPost2010PropOp37
 70
     1
102
RTVSPost2010Prop38
140
0.0
102
RTVSPost2010PropOp38
 70
     1
102
RTVSPost2010Prop39
140
1.0
102
RTVSPost2010PropOp39
 70
     1
102
RTVSPost2010Prop40
 90
        0
102
RTVSPost2010PropOp40
 70
     1
102
RTVSPost2010Prop41ColorIndex
 90
       18
102
RTVSPost2010Prop41ColorRGB
 90
-16777216
102
RTVSPost2010PropOp41
 70
     1
102
RTVSPost2010Prop42
 90
       50
102
RTVSPost2010PropOp42
 70
     1
102
RTVSPost2010Prop43
 90
        3
102
RTVSPost2010PropOp43
 70
     1
102
RTVSPost2010Prop44ColorIndex
 90
        5
102
RTVSPost2010Prop44ColorRGB
 90
      255
102
RTVSPost2010PropOp44
 70
     1
102
RTVSPost2010Prop45
280
     0
102
RTVSPost2010PropOp45
 70
     1
102
RTVSPost2010Prop46
 90
       50
102
RTVSPost2010PropOp46
 70
     1
102
RTVSPost2010Prop47
 90
       50
102
RTVSPost2010PropOp47
 70
     1
102
RTVSPost2010Prop48
 90
       50
102
RTVSPost2010PropOp48
 70
     1
102
RTVSPost2010Prop49
280
     0
102
RTVSPost2010PropOp49
 70
     1
102
RTVSPost2010Prop50
 90
       50
102
RTVSPost2010PropOp50
 70
     1
102
RTVSPost2010Prop51ColorIndex
 90
      256
102
RTVSPost2010Prop51ColorRGB
 90
-16777216
102
RTVSPost2010PropOp51
 70
     0
102
RTVSPost2010Prop52
140
1.0
102
RTVSPost2010PropOp52
 70
     0
102
RTVSPost2010Prop53
 90
        2
102
RTVSPost2010PropOp53
 70
     1
102
RTVSPost2010Prop54
  1
strokes_ogs.tif
102
RTVSPost2010PropOp54
 70
     1
102
RTVSPost2010Prop55
280
     0
102
RTVSPost2010PropOp55
 70
     1
102
RTVSPost2010Prop56
140
1.0
102
RTVSPost2010PropOp56
 70
     1
102
RTVSPost2010Prop57
140
1.0
102
RTVSPost2010PropOp57
 70
     1
102
RTVSPropertyOp0
 70
     1
102
RTVSPropertyOp1
 70
     1
102
RTVSPropertyOp2
 70
     1
102
RTVSPropertyOp3
 70
     1
102
RTVSPropertyOp4
 70
     1
102
RTVSPropertyOp5
 70
     1
102
RTVSPropertyOp6
 70
     1
102
RTVSPropertyOp7
 70
     1
102
RTVSPropertyOp8
 70
     1
102
RTVSPropertyOp9
 70
     1
102
RTVSPropertyOp10
 70
     1
102
RTVSPropertyOp11
 70
     1
102
RTVSPropertyOp12
 70
     1
102
RTVSPropertyOp13
 70
     1
102
RTVSPropertyOp14
 70
     1
102
RTVSPropertyOp15
 70
     1
102
RTVSPropertyOp16
 70
     1
102
RTVSPropertyOp17
 70
     1
102
RTVSPropertyOp18
 70
     1
102
RTVSPropertyOp19
 70
     1
102
RTVSPropertyOp20
 70
     1
102
RTVSPropertyOp21
 70
     1
102
RTVSPropertyOp22
 70
     1
102
RTVSPropertyOp23
 70
     1
102
RTVSPropertyOp24
 70
     1
102
RTVSPropertyOp25
 70
     1
102
RTVSPropertyOp26
 70
     1
102
RTVSPropertyOp27
 70
     1
102
RTVSPropertyOp28
 70
     1
102
RTVSPropertyOp29
 70
     1
102
RTVSPropertyOp30
 70
     1
102
RTVSPropertyOp31
 70
     1
102
RTVSPropertyOp32
 70
     1
102
RTVSPropertyOp33
 70
     1
102
RTVSPropertyOp34
 70
     1
102
RTVSPropertyOp35
 70
     1
102
RTVSPropertyOp36
 70
     1
102
RTVSPropertyOp37
 70
     1
102
RTVSPropertyOp38
 70
     1
102
RTVSPropertyOp39
 70
     1
102
RTVSPropertyOp40
 70
     1
102
RTVSPropertyOp41
 70
     1
102
RTVSPropertyOp42
 70
     1
102
RTVSPropertyOp43
 70
     1
102
RTVSPropertyOp44
 70
     1
102
RTVSPropertyOp45
 70
     1
102
RTVSPropertyOp46
 70
     1
102
RTVSPropertyOp47
 70
     1
102
RTVSPropertyOp48
 70
     1
102
RTVSPropertyOp49
 70
     1
102
RTVSPropertyOp50
 70
     1
102
RTVSPropertyOp51
 70
     0
102
RTVSPropertyOp52
 70
     0
102
RTVSPropertyOp53
 70
     1
102
RTVSPropertyOp54
 70
     1
102
RTVSPropertyOp55
 70
     1
102
RTVSPropertyOp56
 70
     1
102
RTVSPropertyOp57
 70
     1
102
RTVSPropertyOp58
 70
     1
102
RTVSPropertyOp59
 70
     1
102
RTVSPropertyOp60
 70
     1
102
RTVSPropertyOp61
 70
     1
102
RTVSPropertyOp62
 70
     1
  0
XRECORD
  5
D96
102
{ACAD_REACTORS
330
D95
102
}
330
D95
100
AcDbXrecord
280
     1
102
RTVSPost2010Prop28
280
     0
102
RTVSPost2010PropOp28
 70
     0
102
RTVSPost2010Prop29
280
     1
102
RTVSPost2010PropOp29
 70
     0
102
RTVSPost2010Prop30
280
     1
102
RTVSPost2010PropOp30
 70
     0
102
RTVSPost2010Prop31
280
     0
102
RTVSPost2010PropOp31
 70
     0
102
RTVSPost2010Prop32
280
     0
102
RTVSPost2010PropOp32
 70
     0
102
RTVSPost2010Prop33
280
     0
102
RTVSPost2010PropOp33
 70
     0
102
RTVSPost2010Prop34
280
     0
102
RTVSPost2010PropOp34
 70
     0
102
RTVSPost2010Prop35
280
     0
102
RTVSPost2010PropOp35
 70
     0
102
RTVSPost2010Prop36
280
     0
102
RTVSPost2010PropOp36
 70
     0
102
RTVSPost2010Prop37
 90
       50
102
RTVSPost2010PropOp37
 70
     0
102
RTVSPost2010Prop38
140
0.0
102
RTVSPost2010PropOp38
 70
     0
102
RTVSPost2010Prop39
140
1.0
102
RTVSPost2010PropOp39
 70
     0
102
RTVSPost2010Prop40
 90
        0
102
RTVSPost2010PropOp40
 70
     0
102
RTVSPost2010Prop41ColorIndex
 90
       18
102
RTVSPost2010Prop41ColorRGB
 90
-16777216
102
RTVSPost2010PropOp41
 70
     0
102
RTVSPost2010Prop42
 90
       50
102
RTVSPost2010PropOp42
 70
     0
102
RTVSPost2010Prop43
 90
        3
102
RTVSPost2010PropOp43
 70
     0
102
RTVSPost2010Prop44ColorIndex
 90
        5
102
RTVSPost2010Prop44ColorRGB
 90
      255
102
RTVSPost2010PropOp44
 70
     0
102
RTVSPost2010Prop45
280
     0
102
RTVSPost2010PropOp45
 70
     0
102
RTVSPost2010Prop46
 90
       50
102
RTVSPost2010PropOp46
 70
     0
102
RTVSPost2010Prop47
 90
       50
102
RTVSPost2010PropOp47
 70
     0
102
RTVSPost2010Prop48
 90
       50
102
RTVSPost2010PropOp48
 70
     0
102
RTVSPost2010Prop49
280
     0
102
RTVSPost2010PropOp49
 70
     0
102
RTVSPost2010Prop50
 90
       50
102
RTVSPost2010PropOp50
 70
     0
102
RTVSPost2010Prop51ColorIndex
 90
      256
102
RTVSPost2010Prop51ColorRGB
 90
-16777216
102
RTVSPost2010PropOp51
 70
     0
102
RTVSPost2010Prop52
140
1.0
102
RTVSPost2010PropOp52
 70
     0
102
RTVSPost2010Prop53
 90
        2
102
RTVSPost2010PropOp53
 70
     0
102
RTVSPost2010Prop54
  1
strokes_ogs.tif
102
RTVSPost2010PropOp54
 70
     0
102
RTVSPost2010Prop55
280
     0
102
RTVSPost2010PropOp55
 70
     0
102
RTVSPost2010Prop56
140
1.0
102
RTVSPost2010PropOp56
 70
     0
102
RTVSPost2010Prop57
140
1.0
102
RTVSPost2010PropOp57
 70
     0
102
RTVSPropertyOp0
 70
     0
102
RTVSPropertyOp1
 70
     0
102
RTVSPropertyOp2
 70
     0
102
RTVSPropertyOp3
 70
     0
102
RTVSPropertyOp4
 70
     0
102
RTVSPropertyOp5
 70
     0
102
RTVSPropertyOp6
 70
     0
102
RTVSPropertyOp7
 70
     0
102
RTVSPropertyOp8
 70
     0
102
RTVSPropertyOp9
 70
     0
102
RTVSPropertyOp10
 70
     0
102
RTVSPropertyOp11
 70
     0
102
RTVSPropertyOp12
 70
     0
102
RTVSPropertyOp13
 70
     0
102
RTVSPropertyOp14
 70
     2
102
RTVSPropertyOp15
 70
     0
102
RTVSPropertyOp16
 70
     0
102
RTVSPropertyOp17
 70
     0
102
RTVSPropertyOp18
 70
     0
102
RTVSPropertyOp19
 70
     0
102
RTVSPropertyOp20
 70
     0
102
RTVSPropertyOp21
 70
     0
102
RTVSPropertyOp22
 70
     0
102
RTVSPropertyOp23
 70
     0
102
RTVSPropertyOp24
 70
     0
102
RTVSPropertyOp25
 70
     0
102
RTVSPropertyOp26
 70
     0
102
RTVSPropertyOp27
 70
     0
102
RTVSPropertyOp28
 70
     0
102
RTVSPropertyOp29
 70
     0
102
RTVSPropertyOp30
 70
     0
102
RTVSPropertyOp31
 70
     0
102
RTVSPropertyOp32
 70
     0
102
RTVSPropertyOp33
 70
     0
102
RTVSPropertyOp34
 70
     0
102
RTVSPropertyOp35
 70
     0
102
RTVSPropertyOp36
 70
     0
102
RTVSPropertyOp37
 70
     0
102
RTVSPropertyOp38
 70
     0
102
RTVSPropertyOp39
 70
     0
102
RTVSPropertyOp40
 70
     0
102
RTVSPropertyOp41
 70
     0
102
RTVSPropertyOp42
 70
     0
102
RTVSPropertyOp43
 70
     0
102
RTVSPropertyOp44
 70
     0
102
RTVSPropertyOp45
 70
     0
102
RTVSPropertyOp46
 70
     0
102
RTVSPropertyOp47
 70
     0
102
RTVSPropertyOp48
 70
     0
102
RTVSPropertyOp49
 70
     0
102
RTVSPropertyOp50
 70
     0
102
RTVSPropertyOp51
 70
     0
102
RTVSPropertyOp52
 70
     0
102
RTVSPropertyOp53
 70
     0
102
RTVSPropertyOp54
 70
     0
102
RTVSPropertyOp55
 70
     0
102
RTVSPropertyOp56
 70
     0
102
RTVSPropertyOp57
 70
     0
102
RTVSPropertyOp58
 70
     1
102
RTVSPropertyOp59
 70
     1
102
RTVSPropertyOp60
 70
     1
102
RTVSPropertyOp61
 70
     1
102
RTVSPropertyOp62
 70
     1
  0
XRECORD
  5
D84
102
{ACAD_REACTORS
330
D83
102
}
330
D83
100
AcDbXrecord
280
     1
102
RTVSPost2010Prop28
280
     0
102
RTVSPost2010PropOp28
 70
     1
102
RTVSPost2010Prop29
280
     1
102
RTVSPost2010PropOp29
 70
     1
102
RTVSPost2010Prop30
280
     1
102
RTVSPost2010PropOp30
 70
     1
102
RTVSPost2010Prop31
280
     0
102
RTVSPost2010PropOp31
 70
     1
102
RTVSPost2010Prop32
280
     0
102
RTVSPost2010PropOp32
 70
     1
102
RTVSPost2010Prop33
280
     0
102
RTVSPost2010PropOp33
 70
     1
102
RTVSPost2010Prop34
280
     0
102
RTVSPost2010PropOp34
 70
     1
102
RTVSPost2010Prop35
280
     0
102
RTVSPost2010PropOp35
 70
     1
102
RTVSPost2010Prop36
280
     0
102
RTVSPost2010PropOp36
 70
     1
102
RTVSPost2010Prop37
 90
       50
102
RTVSPost2010PropOp37
 70
     1
102
RTVSPost2010Prop38
140
0.0
102
RTVSPost2010PropOp38
 70
     1
102
RTVSPost2010Prop39
140
1.0
102
RTVSPost2010PropOp39
 70
     1
102
RTVSPost2010Prop40
 90
        0
102
RTVSPost2010PropOp40
 70
     1
102
RTVSPost2010Prop41ColorIndex
 90
       18
102
RTVSPost2010Prop41ColorRGB
 90
-16777216
102
RTVSPost2010PropOp41
 70
     1
102
RTVSPost2010Prop42
 90
       50
102
RTVSPost2010PropOp42
 70
     1
102
RTVSPost2010Prop43
 90
        3
102
RTVSPost2010PropOp43
 70
     1
102
RTVSPost2010Prop44ColorIndex
 90
        5
102
RTVSPost2010Prop44ColorRGB
 90
      255
102
RTVSPost2010PropOp44
 70
     1
102
RTVSPost2010Prop45
280
     0
102
RTVSPost2010PropOp45
 70
     1
102
RTVSPost2010Prop46
 90
       50
102
RTVSPost2010PropOp46
 70
     1
102
RTVSPost2010Prop47
 90
       50
102
RTVSPost2010PropOp47
 70
     1
102
RTVSPost2010Prop48
 90
       50
102
RTVSPost2010PropOp48
 70
     1
102
RTVSPost2010Prop49
280
     0
102
RTVSPost2010PropOp49
 70
     1
102
RTVSPost2010Prop50
 90
       50
102
RTVSPost2010PropOp50
 70
     1
102
RTVSPost2010Prop51ColorIndex
 90
      256
102
RTVSPost2010Prop51ColorRGB
 90
-16777216
102
RTVSPost2010PropOp51
 70
     0
102
RTVSPost2010Prop52
140
1.0
102
RTVSPost2010PropOp52
 70
     0
102
RTVSPost2010Prop53
 90
        2
102
RTVSPost2010PropOp53
 70
     1
102
RTVSPost2010Prop54
  1
strokes_ogs.tif
102
RTVSPost2010PropOp54
 70
     1
102
RTVSPost2010Prop55
280
     0
102
RTVSPost2010PropOp55
 70
     1
102
RTVSPost2010Prop56
140
1.0
102
RTVSPost2010PropOp56
 70
     1
102
RTVSPost2010Prop57
140
1.0
102
RTVSPost2010PropOp57
 70
     1
102
RTVSPropertyOp0
 70
     1
102
RTVSPropertyOp1
 70
     1
102
RTVSPropertyOp2
 70
     1
102
RTVSPropertyOp3
 70
     1
102
RTVSPropertyOp4
 70
     1
102
RTVSPropertyOp5
 70
     1
102
RTVSPropertyOp6
 70
     1
102
RTVSPropertyOp7
 70
     1
102
RTVSPropertyOp8
 70
     1
102
RTVSPropertyOp9
 70
     1
102
RTVSPropertyOp10
 70
     1
102
RTVSPropertyOp11
 70
     1
102
RTVSPropertyOp12
 70
     1
102
RTVSPropertyOp13
 70
     1
102
RTVSPropertyOp14
 70
     1
102
RTVSPropertyOp15
 70
     1
102
RTVSPropertyOp16
 70
     1
102
RTVSPropertyOp17
 70
     1
102
RTVSPropertyOp18
 70
     1
102
RTVSPropertyOp19
 70
     1
102
RTVSPropertyOp20
 70
     1
102
RTVSPropertyOp21
 70
     1
102
RTVSPropertyOp22
 70
     1
102
RTVSPropertyOp23
 70
     1
102
RTVSPropertyOp24
 70
     1
102
RTVSPropertyOp25
 70
     1
102
RTVSPropertyOp26
 70
     1
102
RTVSPropertyOp27
 70
     1
102
RTVSPropertyOp28
 70
     1
102
RTVSPropertyOp29
 70
     1
102
RTVSPropertyOp30
 70
     1
102
RTVSPropertyOp31
 70
     1
102
RTVSPropertyOp32
 70
     1
102
RTVSPropertyOp33
 70
     1
102
RTVSPropertyOp34
 70
     1
102
RTVSPropertyOp35
 70
     1
102
RTVSPropertyOp36
 70
     1
102
RTVSPropertyOp37
 70
     1
102
RTVSPropertyOp38
 70
     1
102
RTVSPropertyOp39
 70
     1
102
RTVSPropertyOp40
 70
     1
102
RTVSPropertyOp41
 70
     1
102
RTVSPropertyOp42
 70
     1
102
RTVSPropertyOp43
 70
     1
102
RTVSPropertyOp44
 70
     1
102
RTVSPropertyOp45
 70
     1
102
RTVSPropertyOp46
 70
     1
102
RTVSPropertyOp47
 70
     1
102
RTVSPropertyOp48
 70
     1
102
RTVSPropertyOp49
 70
     1
102
RTVSPropertyOp50
 70
     1
102
RTVSPropertyOp51
 70
     0
102
RTVSPropertyOp52
 70
     0
102
RTVSPropertyOp53
 70
     1
102
RTVSPropertyOp54
 70
     1
102
RTVSPropertyOp55
 70
     1
102
RTVSPropertyOp56
 70
     1
102
RTVSPropertyOp57
 70
     1
102
RTVSPropertyOp58
 70
     1
102
RTVSPropertyOp59
 70
     1
102
RTVSPropertyOp60
 70
     1
102
RTVSPropertyOp61
 70
     1
102
RTVSPropertyOp62
 70
     1
  0
XRECORD
  5
D68
102
{ACAD_REACTORS
330
D67
102
}
330
D67
100
AcDbXrecord
280
     1
102
RTVSPost2010Prop28
280
     0
102
RTVSPost2010PropOp28
 70
     1
102
RTVSPost2010Prop29
280
     1
102
RTVSPost2010PropOp29
 70
     1
102
RTVSPost2010Prop30
280
     1
102
RTVSPost2010PropOp30
 70
     1
102
RTVSPost2010Prop31
280
     0
102
RTVSPost2010PropOp31
 70
     1
102
RTVSPost2010Prop32
280
     0
102
RTVSPost2010PropOp32
 70
     1
102
RTVSPost2010Prop33
280
     0
102
RTVSPost2010PropOp33
 70
     1
102
RTVSPost2010Prop34
280
     0
102
RTVSPost2010PropOp34
 70
     1
102
RTVSPost2010Prop35
280
     0
102
RTVSPost2010PropOp35
 70
     1
102
RTVSPost2010Prop36
280
     0
102
RTVSPost2010PropOp36
 70
     1
102
RTVSPost2010Prop37
 90
       50
102
RTVSPost2010PropOp37
 70
     1
102
RTVSPost2010Prop38
140
0.0
102
RTVSPost2010PropOp38
 70
     1
102
RTVSPost2010Prop39
140
1.0
102
RTVSPost2010PropOp39
 70
     1
102
RTVSPost2010Prop40
 90
        0
102
RTVSPost2010PropOp40
 70
     1
102
RTVSPost2010Prop41ColorIndex
 90
       18
102
RTVSPost2010Prop41ColorRGB
 90
-16777216
102
RTVSPost2010PropOp41
 70
     1
102
RTVSPost2010Prop42
 90
       50
102
RTVSPost2010PropOp42
 70
     1
102
RTVSPost2010Prop43
 90
        3
102
RTVSPost2010PropOp43
 70
     1
102
RTVSPost2010Prop44ColorIndex
 90
        5
102
RTVSPost2010Prop44ColorRGB
 90
      255
102
RTVSPost2010PropOp44
 70
     1
102
RTVSPost2010Prop45
280
     0
102
RTVSPost2010PropOp45
 70
     1
102
RTVSPost2010Prop46
 90
       50
102
RTVSPost2010PropOp46
 70
     1
102
RTVSPost2010Prop47
 90
       50
102
RTVSPost2010PropOp47
 70
     1
102
RTVSPost2010Prop48
 90
       50
102
RTVSPost2010PropOp48
 70
     1
102
RTVSPost2010Prop49
280
     0
102
RTVSPost2010PropOp49
 70
     1
102
RTVSPost2010Prop50
 90
       50
102
RTVSPost2010PropOp50
 70
     1
102
RTVSPost2010Prop51ColorIndex
 90
      256
102
RTVSPost2010Prop51ColorRGB
 90
-16777216
102
RTVSPost2010PropOp51
 70
     0
102
RTVSPost2010Prop52
140
1.0
102
RTVSPost2010PropOp52
 70
     0
102
RTVSPost2010Prop53
 90
        2
102
RTVSPost2010PropOp53
 70
     1
102
RTVSPost2010Prop54
  1
strokes_ogs.tif
102
RTVSPost2010PropOp54
 70
     1
102
RTVSPost2010Prop55
280
     0
102
RTVSPost2010PropOp55
 70
     1
102
RTVSPost2010Prop56
140
1.0
102
RTVSPost2010PropOp56
 70
     1
102
RTVSPost2010Prop57
140
1.0
102
RTVSPost2010PropOp57
 70
     1
102
RTVSPropertyOp0
 70
     1
102
RTVSPropertyOp1
 70
     1
102
RTVSPropertyOp2
 70
     1
102
RTVSPropertyOp3
 70
     1
102
RTVSPropertyOp4
 70
     1
102
RTVSPropertyOp5
 70
     1
102
RTVSPropertyOp6
 70
     1
102
RTVSPropertyOp7
 70
     1
102
RTVSPropertyOp8
 70
     1
102
RTVSPropertyOp9
 70
     1
102
RTVSPropertyOp10
 70
     1
102
RTVSPropertyOp11
 70
     1
102
RTVSPropertyOp12
 70
     1
102
RTVSPropertyOp13
 70
     1
102
RTVSPropertyOp14
 70
     1
102
RTVSPropertyOp15
 70
     1
102
RTVSPropertyOp16
 70
     1
102
RTVSPropertyOp17
 70
     1
102
RTVSPropertyOp18
 70
     1
102
RTVSPropertyOp19
 70
     1
102
RTVSPropertyOp20
 70
     1
102
RTVSPropertyOp21
 70
     1
102
RTVSPropertyOp22
 70
     1
102
RTVSPropertyOp23
 70
     1
102
RTVSPropertyOp24
 70
     1
102
RTVSPropertyOp25
 70
     1
102
RTVSPropertyOp26
 70
     1
102
RTVSPropertyOp27
 70
     1
102
RTVSPropertyOp28
 70
     1
102
RTVSPropertyOp29
 70
     1
102
RTVSPropertyOp30
 70
     1
102
RTVSPropertyOp31
 70
     1
102
RTVSPropertyOp32
 70
     1
102
RTVSPropertyOp33
 70
     1
102
RTVSPropertyOp34
 70
     1
102
RTVSPropertyOp35
 70
     1
102
RTVSPropertyOp36
 70
     1
102
RTVSPropertyOp37
 70
     1
102
RTVSPropertyOp38
 70
     1
102
RTVSPropertyOp39
 70
     1
102
RTVSPropertyOp40
 70
     1
102
RTVSPropertyOp41
 70
     1
102
RTVSPropertyOp42
 70
     1
102
RTVSPropertyOp43
 70
     1
102
RTVSPropertyOp44
 70
     1
102
RTVSPropertyOp45
 70
     1
102
RTVSPropertyOp46
 70
     1
102
RTVSPropertyOp47
 70
     1
102
RTVSPropertyOp48
 70
     1
102
RTVSPropertyOp49
 70
     1
102
RTVSPropertyOp50
 70
     1
102
RTVSPropertyOp51
 70
     0
102
RTVSPropertyOp52
 70
     0
102
RTVSPropertyOp53
 70
     1
102
RTVSPropertyOp54
 70
     1
102
RTVSPropertyOp55
 70
     1
102
RTVSPropertyOp56
 70
     1
102
RTVSPropertyOp57
 70
     1
102
RTVSPropertyOp58
 70
     1
102
RTVSPropertyOp59
 70
     1
102
RTVSPropertyOp60
 70
     1
102
RTVSPropertyOp61
 70
     1
102
RTVSPropertyOp62
 70
     1
  0
XRECORD
  5
D6A
102
{ACAD_REACTORS
330
D69
102
}
330
D69
100
AcDbXrecord
280
     1
102
RTVSPost2010Prop28
280
     0
102
RTVSPost2010PropOp28
 70
     1
102
RTVSPost2010Prop29
280
     1
102
RTVSPost2010PropOp29
 70
     1
102
RTVSPost2010Prop30
280
     1
102
RTVSPost2010PropOp30
 70
     1
102
RTVSPost2010Prop31
280
     0
102
RTVSPost2010PropOp31
 70
     1
102
RTVSPost2010Prop32
280
     0
102
RTVSPost2010PropOp32
 70
     1
102
RTVSPost2010Prop33
280
     0
102
RTVSPost2010PropOp33
 70
     1
102
RTVSPost2010Prop34
280
     0
102
RTVSPost2010PropOp34
 70
     1
102
RTVSPost2010Prop35
280
     0
102
RTVSPost2010PropOp35
 70
     1
102
RTVSPost2010Prop36
280
     0
102
RTVSPost2010PropOp36
 70
     1
102
RTVSPost2010Prop37
 90
       50
102
RTVSPost2010PropOp37
 70
     1
102
RTVSPost2010Prop38
140
0.0
102
RTVSPost2010PropOp38
 70
     1
102
RTVSPost2010Prop39
140
1.0
102
RTVSPost2010PropOp39
 70
     1
102
RTVSPost2010Prop40
 90
        0
102
RTVSPost2010PropOp40
 70
     1
102
RTVSPost2010Prop41ColorIndex
 90
       18
102
RTVSPost2010Prop41ColorRGB
 90
-16777216
102
RTVSPost2010PropOp41
 70
     1
102
RTVSPost2010Prop42
 90
       50
102
RTVSPost2010PropOp42
 70
     1
102
RTVSPost2010Prop43
 90
        3
102
RTVSPost2010PropOp43
 70
     1
102
RTVSPost2010Prop44ColorIndex
 90
        5
102
RTVSPost2010Prop44ColorRGB
 90
      255
102
RTVSPost2010PropOp44
 70
     1
102
RTVSPost2010Prop45
280
     0
102
RTVSPost2010PropOp45
 70
     1
102
RTVSPost2010Prop46
 90
       50
102
RTVSPost2010PropOp46
 70
     1
102
RTVSPost2010Prop47
 90
       50
102
RTVSPost2010PropOp47
 70
     1
102
RTVSPost2010Prop48
 90
       50
102
RTVSPost2010PropOp48
 70
     1
102
RTVSPost2010Prop49
280
     0
102
RTVSPost2010PropOp49
 70
     1
102
RTVSPost2010Prop50
 90
       50
102
RTVSPost2010PropOp50
 70
     1
102
RTVSPost2010Prop51ColorIndex
 90
      256
102
RTVSPost2010Prop51ColorRGB
 90
-16777216
102
RTVSPost2010PropOp51
 70
     0
102
RTVSPost2010Prop52
140
1.0
102
RTVSPost2010PropOp52
 70
     0
102
RTVSPost2010Prop53
 90
        2
102
RTVSPost2010PropOp53
 70
     1
102
RTVSPost2010Prop54
  1
strokes_ogs.tif
102
RTVSPost2010PropOp54
 70
     1
102
RTVSPost2010Prop55
280
     0
102
RTVSPost2010PropOp55
 70
     1
102
RTVSPost2010Prop56
140
1.0
102
RTVSPost2010PropOp56
 70
     1
102
RTVSPost2010Prop57
140
1.0
102
RTVSPost2010PropOp57
 70
     1
102
RTVSPropertyOp0
 70
     1
102
RTVSPropertyOp1
 70
     1
102
RTVSPropertyOp2
 70
     1
102
RTVSPropertyOp3
 70
     1
102
RTVSPropertyOp4
 70
     1
102
RTVSPropertyOp5
 70
     1
102
RTVSPropertyOp6
 70
     1
102
RTVSPropertyOp7
 70
     1
102
RTVSPropertyOp8
 70
     1
102
RTVSPropertyOp9
 70
     1
102
RTVSPropertyOp10
 70
     1
102
RTVSPropertyOp11
 70
     1
102
RTVSPropertyOp12
 70
     1
102
RTVSPropertyOp13
 70
     1
102
RTVSPropertyOp14
 70
     1
102
RTVSPropertyOp15
 70
     1
102
RTVSPropertyOp16
 70
     1
102
RTVSPropertyOp17
 70
     1
102
RTVSPropertyOp18
 70
     1
102
RTVSPropertyOp19
 70
     1
102
RTVSPropertyOp20
 70
     1
102
RTVSPropertyOp21
 70
     1
102
RTVSPropertyOp22
 70
     1
102
RTVSPropertyOp23
 70
     1
102
RTVSPropertyOp24
 70
     1
102
RTVSPropertyOp25
 70
     1
102
RTVSPropertyOp26
 70
     1
102
RTVSPropertyOp27
 70
     1
102
RTVSPropertyOp28
 70
     1
102
RTVSPropertyOp29
 70
     1
102
RTVSPropertyOp30
 70
     1
102
RTVSPropertyOp31
 70
     1
102
RTVSPropertyOp32
 70
     1
102
RTVSPropertyOp33
 70
     1
102
RTVSPropertyOp34
 70
     1
102
RTVSPropertyOp35
 70
     1
102
RTVSPropertyOp36
 70
     1
102
RTVSPropertyOp37
 70
     1
102
RTVSPropertyOp38
 70
     1
102
RTVSPropertyOp39
 70
     1
102
RTVSPropertyOp40
 70
     1
102
RTVSPropertyOp41
 70
     1
102
RTVSPropertyOp42
 70
     1
102
RTVSPropertyOp43
 70
     1
102
RTVSPropertyOp44
 70
     1
102
RTVSPropertyOp45
 70
     1
102
RTVSPropertyOp46
 70
     1
102
RTVSPropertyOp47
 70
     1
102
RTVSPropertyOp48
 70
     1
102
RTVSPropertyOp49
 70
     1
102
RTVSPropertyOp50
 70
     1
102
RTVSPropertyOp51
 70
     0
102
RTVSPropertyOp52
 70
     0
102
RTVSPropertyOp53
 70
     1
102
RTVSPropertyOp54
 70
     1
102
RTVSPropertyOp55
 70
     1
102
RTVSPropertyOp56
 70
     1
102
RTVSPropertyOp57
 70
     1
102
RTVSPropertyOp58
 70
     1
102
RTVSPropertyOp59
 70
     1
102
RTVSPropertyOp60
 70
     1
102
RTVSPropertyOp61
 70
     1
102
RTVSPropertyOp62
 70
     1
  0
XRECORD
  5
D6C
102
{ACAD_REACTORS
330
D6B
102
}
330
D6B
100
AcDbXrecord
280
     1
102
RTVSPost2010Prop28
280
     0
102
RTVSPost2010PropOp28
 70
     1
102
RTVSPost2010Prop29
280
     1
102
RTVSPost2010PropOp29
 70
     1
102
RTVSPost2010Prop30
280
     1
102
RTVSPost2010PropOp30
 70
     1
102
RTVSPost2010Prop31
280
     0
102
RTVSPost2010PropOp31
 70
     1
102
RTVSPost2010Prop32
280
     0
102
RTVSPost2010PropOp32
 70
     1
102
RTVSPost2010Prop33
280
     0
102
RTVSPost2010PropOp33
 70
     1
102
RTVSPost2010Prop34
280
     0
102
RTVSPost2010PropOp34
 70
     1
102
RTVSPost2010Prop35
280
     0
102
RTVSPost2010PropOp35
 70
     1
102
RTVSPost2010Prop36
280
     0
102
RTVSPost2010PropOp36
 70
     1
102
RTVSPost2010Prop37
 90
       50
102
RTVSPost2010PropOp37
 70
     1
102
RTVSPost2010Prop38
140
0.0
102
RTVSPost2010PropOp38
 70
     1
102
RTVSPost2010Prop39
140
1.0
102
RTVSPost2010PropOp39
 70
     1
102
RTVSPost2010Prop40
 90
        0
102
RTVSPost2010PropOp40
 70
     1
102
RTVSPost2010Prop41ColorIndex
 90
       18
102
RTVSPost2010Prop41ColorRGB
 90
-16777216
102
RTVSPost2010PropOp41
 70
     1
102
RTVSPost2010Prop42
 90
       50
102
RTVSPost2010PropOp42
 70
     1
102
RTVSPost2010Prop43
 90
        3
102
RTVSPost2010PropOp43
 70
     1
102
RTVSPost2010Prop44ColorIndex
 90
        5
102
RTVSPost2010Prop44ColorRGB
 90
      255
102
RTVSPost2010PropOp44
 70
     1
102
RTVSPost2010Prop45
280
     0
102
RTVSPost2010PropOp45
 70
     1
102
RTVSPost2010Prop46
 90
       50
102
RTVSPost2010PropOp46
 70
     1
102
RTVSPost2010Prop47
 90
       50
102
RTVSPost2010PropOp47
 70
     1
102
RTVSPost2010Prop48
 90
       50
102
RTVSPost2010PropOp48
 70
     1
102
RTVSPost2010Prop49
280
     0
102
RTVSPost2010PropOp49
 70
     1
102
RTVSPost2010Prop50
 90
       50
102
RTVSPost2010PropOp50
 70
     1
102
RTVSPost2010Prop51ColorIndex
 90
      256
102
RTVSPost2010Prop51ColorRGB
 90
-16777216
102
RTVSPost2010PropOp51
 70
     0
102
RTVSPost2010Prop52
140
1.0
102
RTVSPost2010PropOp52
 70
     0
102
RTVSPost2010Prop53
 90
        2
102
RTVSPost2010PropOp53
 70
     1
102
RTVSPost2010Prop54
  1
strokes_ogs.tif
102
RTVSPost2010PropOp54
 70
     1
102
RTVSPost2010Prop55
280
     0
102
RTVSPost2010PropOp55
 70
     1
102
RTVSPost2010Prop56
140
1.0
102
RTVSPost2010PropOp56
 70
     1
102
RTVSPost2010Prop57
140
1.0
102
RTVSPost2010PropOp57
 70
     1
102
RTVSPropertyOp0
 70
     1
102
RTVSPropertyOp1
 70
     1
102
RTVSPropertyOp2
 70
     1
102
RTVSPropertyOp3
 70
     1
102
RTVSPropertyOp4
 70
     1
102
RTVSPropertyOp5
 70
     1
102
RTVSPropertyOp6
 70
     1
102
RTVSPropertyOp7
 70
     1
102
RTVSPropertyOp8
 70
     1
102
RTVSPropertyOp9
 70
     1
102
RTVSPropertyOp10
 70
     1
102
RTVSPropertyOp11
 70
     1
102
RTVSPropertyOp12
 70
     1
102
RTVSPropertyOp13
 70
     1
102
RTVSPropertyOp14
 70
     1
102
RTVSPropertyOp15
 70
     1
102
RTVSPropertyOp16
 70
     1
102
RTVSPropertyOp17
 70
     1
102
RTVSPropertyOp18
 70
     1
102
RTVSPropertyOp19
 70
     1
102
RTVSPropertyOp20
 70
     1
102
RTVSPropertyOp21
 70
     1
102
RTVSPropertyOp22
 70
     1
102
RTVSPropertyOp23
 70
     1
102
RTVSPropertyOp24
 70
     1
102
RTVSPropertyOp25
 70
     1
102
RTVSPropertyOp26
 70
     1
102
RTVSPropertyOp27
 70
     1
102
RTVSPropertyOp28
 70
     1
102
RTVSPropertyOp29
 70
     1
102
RTVSPropertyOp30
 70
     1
102
RTVSPropertyOp31
 70
     1
102
RTVSPropertyOp32
 70
     1
102
RTVSPropertyOp33
 70
     1
102
RTVSPropertyOp34
 70
     1
102
RTVSPropertyOp35
 70
     1
102
RTVSPropertyOp36
 70
     1
102
RTVSPropertyOp37
 70
     1
102
RTVSPropertyOp38
 70
     1
102
RTVSPropertyOp39
 70
     1
102
RTVSPropertyOp40
 70
     1
102
RTVSPropertyOp41
 70
     1
102
RTVSPropertyOp42
 70
     1
102
RTVSPropertyOp43
 70
     1
102
RTVSPropertyOp44
 70
     1
102
RTVSPropertyOp45
 70
     1
102
RTVSPropertyOp46
 70
     1
102
RTVSPropertyOp47
 70
     1
102
RTVSPropertyOp48
 70
     1
102
RTVSPropertyOp49
 70
     1
102
RTVSPropertyOp50
 70
     1
102
RTVSPropertyOp51
 70
     0
102
RTVSPropertyOp52
 70
     0
102
RTVSPropertyOp53
 70
     1
102
RTVSPropertyOp54
 70
     1
102
RTVSPropertyOp55
 70
     1
102
RTVSPropertyOp56
 70
     1
102
RTVSPropertyOp57
 70
     1
102
RTVSPropertyOp58
 70
     1
102
RTVSPropertyOp59
 70
     1
102
RTVSPropertyOp60
 70
     1
102
RTVSPropertyOp61
 70
     1
102
RTVSPropertyOp62
 70
     1
  0
XRECORD
  5
D6E
102
{ACAD_REACTORS
330
D6D
102
}
330
D6D
100
AcDbXrecord
280
     1
102
RTVSPost2010Prop28
280
     0
102
RTVSPost2010PropOp28
 70
     1
102
RTVSPost2010Prop29
280
     1
102
RTVSPost2010PropOp29
 70
     1
102
RTVSPost2010Prop30
280
     1
102
RTVSPost2010PropOp30
 70
     1
102
RTVSPost2010Prop31
280
     0
102
RTVSPost2010PropOp31
 70
     1
102
RTVSPost2010Prop32
280
     0
102
RTVSPost2010PropOp32
 70
     1
102
RTVSPost2010Prop33
280
     0
102
RTVSPost2010PropOp33
 70
     1
102
RTVSPost2010Prop34
280
     0
102
RTVSPost2010PropOp34
 70
     1
102
RTVSPost2010Prop35
280
     0
102
RTVSPost2010PropOp35
 70
     1
102
RTVSPost2010Prop36
280
     0
102
RTVSPost2010PropOp36
 70
     1
102
RTVSPost2010Prop37
 90
       50
102
RTVSPost2010PropOp37
 70
     1
102
RTVSPost2010Prop38
140
0.0
102
RTVSPost2010PropOp38
 70
     1
102
RTVSPost2010Prop39
140
1.0
102
RTVSPost2010PropOp39
 70
     1
102
RTVSPost2010Prop40
 90
        0
102
RTVSPost2010PropOp40
 70
     1
102
RTVSPost2010Prop41ColorIndex
 90
       18
102
RTVSPost2010Prop41ColorRGB
 90
-16777216
102
RTVSPost2010PropOp41
 70
     1
102
RTVSPost2010Prop42
 90
       50
102
RTVSPost2010PropOp42
 70
     1
102
RTVSPost2010Prop43
 90
        3
102
RTVSPost2010PropOp43
 70
     1
102
RTVSPost2010Prop44ColorIndex
 90
        5
102
RTVSPost2010Prop44ColorRGB
 90
      255
102
RTVSPost2010PropOp44
 70
     1
102
RTVSPost2010Prop45
280
     0
102
RTVSPost2010PropOp45
 70
     1
102
RTVSPost2010Prop46
 90
       50
102
RTVSPost2010PropOp46
 70
     1
102
RTVSPost2010Prop47
 90
       50
102
RTVSPost2010PropOp47
 70
     1
102
RTVSPost2010Prop48
 90
       50
102
RTVSPost2010PropOp48
 70
     1
102
RTVSPost2010Prop49
280
     0
102
RTVSPost2010PropOp49
 70
     1
102
RTVSPost2010Prop50
 90
       50
102
RTVSPost2010PropOp50
 70
     1
102
RTVSPost2010Prop51ColorIndex
 90
      256
102
RTVSPost2010Prop51ColorRGB
 90
-16777216
102
RTVSPost2010PropOp51
 70
     0
102
RTVSPost2010Prop52
140
1.0
102
RTVSPost2010PropOp52
 70
     0
102
RTVSPost2010Prop53
 90
        2
102
RTVSPost2010PropOp53
 70
     1
102
RTVSPost2010Prop54
  1
strokes_ogs.tif
102
RTVSPost2010PropOp54
 70
     1
102
RTVSPost2010Prop55
280
     0
102
RTVSPost2010PropOp55
 70
     1
102
RTVSPost2010Prop56
140
1.0
102
RTVSPost2010PropOp56
 70
     1
102
RTVSPost2010Prop57
140
1.0
102
RTVSPost2010PropOp57
 70
     1
102
RTVSPropertyOp0
 70
     1
102
RTVSPropertyOp1
 70
     1
102
RTVSPropertyOp2
 70
     1
102
RTVSPropertyOp3
 70
     1
102
RTVSPropertyOp4
 70
     1
102
RTVSPropertyOp5
 70
     1
102
RTVSPropertyOp6
 70
     1
102
RTVSPropertyOp7
 70
     1
102
RTVSPropertyOp8
 70
     1
102
RTVSPropertyOp9
 70
     1
102
RTVSPropertyOp10
 70
     1
102
RTVSPropertyOp11
 70
     1
102
RTVSPropertyOp12
 70
     1
102
RTVSPropertyOp13
 70
     1
102
RTVSPropertyOp14
 70
     1
102
RTVSPropertyOp15
 70
     1
102
RTVSPropertyOp16
 70
     1
102
RTVSPropertyOp17
 70
     1
102
RTVSPropertyOp18
 70
     1
102
RTVSPropertyOp19
 70
     1
102
RTVSPropertyOp20
 70
     1
102
RTVSPropertyOp21
 70
     1
102
RTVSPropertyOp22
 70
     1
102
RTVSPropertyOp23
 70
     1
102
RTVSPropertyOp24
 70
     1
102
RTVSPropertyOp25
 70
     1
102
RTVSPropertyOp26
 70
     1
102
RTVSPropertyOp27
 70
     1
102
RTVSPropertyOp28
 70
     1
102
RTVSPropertyOp29
 70
     1
102
RTVSPropertyOp30
 70
     1
102
RTVSPropertyOp31
 70
     1
102
RTVSPropertyOp32
 70
     1
102
RTVSPropertyOp33
 70
     1
102
RTVSPropertyOp34
 70
     1
102
RTVSPropertyOp35
 70
     1
102
RTVSPropertyOp36
 70
     1
102
RTVSPropertyOp37
 70
     1
102
RTVSPropertyOp38
 70
     1
102
RTVSPropertyOp39
 70
     1
102
RTVSPropertyOp40
 70
     1
102
RTVSPropertyOp41
 70
     1
102
RTVSPropertyOp42
 70
     1
102
RTVSPropertyOp43
 70
     1
102
RTVSPropertyOp44
 70
     1
102
RTVSPropertyOp45
 70
     1
102
RTVSPropertyOp46
 70
     1
102
RTVSPropertyOp47
 70
     1
102
RTVSPropertyOp48
 70
     1
102
RTVSPropertyOp49
 70
     1
102
RTVSPropertyOp50
 70
     1
102
RTVSPropertyOp51
 70
     0
102
RTVSPropertyOp52
 70
     0
102
RTVSPropertyOp53
 70
     1
102
RTVSPropertyOp54
 70
     1
102
RTVSPropertyOp55
 70
     1
102
RTVSPropertyOp56
 70
     1
102
RTVSPropertyOp57
 70
     1
102
RTVSPropertyOp58
 70
     1
102
RTVSPropertyOp59
 70
     1
102
RTVSPropertyOp60
 70
     1
102
RTVSPropertyOp61
 70
     1
102
RTVSPropertyOp62
 70
     1
  0
XRECORD
  5
D76
102
{ACAD_REACTORS
330
D75
102
}
330
D75
100
AcDbXrecord
280
     1
102
RTVSPost2010Prop28
280
     0
102
RTVSPost2010PropOp28
 70
     1
102
RTVSPost2010Prop29
280
     1
102
RTVSPost2010PropOp29
 70
     1
102
RTVSPost2010Prop30
280
     1
102
RTVSPost2010PropOp30
 70
     1
102
RTVSPost2010Prop31
280
     0
102
RTVSPost2010PropOp31
 70
     1
102
RTVSPost2010Prop32
280
     0
102
RTVSPost2010PropOp32
 70
     1
102
RTVSPost2010Prop33
280
     0
102
RTVSPost2010PropOp33
 70
     1
102
RTVSPost2010Prop34
280
     0
102
RTVSPost2010PropOp34
 70
     1
102
RTVSPost2010Prop35
280
     0
102
RTVSPost2010PropOp35
 70
     1
102
RTVSPost2010Prop36
280
     0
102
RTVSPost2010PropOp36
 70
     1
102
RTVSPost2010Prop37
 90
       50
102
RTVSPost2010PropOp37
 70
     1
102
RTVSPost2010Prop38
140
0.0
102
RTVSPost2010PropOp38
 70
     1
102
RTVSPost2010Prop39
140
1.0
102
RTVSPost2010PropOp39
 70
     1
102
RTVSPost2010Prop40
 90
        0
102
RTVSPost2010PropOp40
 70
     1
102
RTVSPost2010Prop41ColorIndex
 90
       18
102
RTVSPost2010Prop41ColorRGB
 90
-16777216
102
RTVSPost2010PropOp41
 70
     1
102
RTVSPost2010Prop42
 90
       50
102
RTVSPost2010PropOp42
 70
     1
102
RTVSPost2010Prop43
 90
        3
102
RTVSPost2010PropOp43
 70
     1
102
RTVSPost2010Prop44ColorIndex
 90
        5
102
RTVSPost2010Prop44ColorRGB
 90
      255
102
RTVSPost2010PropOp44
 70
     1
102
RTVSPost2010Prop45
280
     0
102
RTVSPost2010PropOp45
 70
     1
102
RTVSPost2010Prop46
 90
       50
102
RTVSPost2010PropOp46
 70
     1
102
RTVSPost2010Prop47
 90
       50
102
RTVSPost2010PropOp47
 70
     1
102
RTVSPost2010Prop48
 90
       50
102
RTVSPost2010PropOp48
 70
     1
102
RTVSPost2010Prop49
280
     0
102
RTVSPost2010PropOp49
 70
     1
102
RTVSPost2010Prop50
 90
       50
102
RTVSPost2010PropOp50
 70
     1
102
RTVSPost2010Prop51ColorIndex
 90
      256
102
RTVSPost2010Prop51ColorRGB
 90
-16777216
102
RTVSPost2010PropOp51
 70
     0
102
RTVSPost2010Prop52
140
1.0
102
RTVSPost2010PropOp52
 70
     0
102
RTVSPost2010Prop53
 90
        2
102
RTVSPost2010PropOp53
 70
     1
102
RTVSPost2010Prop54
  1
strokes_ogs.tif
102
RTVSPost2010PropOp54
 70
     1
102
RTVSPost2010Prop55
280
     0
102
RTVSPost2010PropOp55
 70
     1
102
RTVSPost2010Prop56
140
1.0
102
RTVSPost2010PropOp56
 70
     1
102
RTVSPost2010Prop57
140
1.0
102
RTVSPost2010PropOp57
 70
     1
102
RTVSPropertyOp0
 70
     1
102
RTVSPropertyOp1
 70
     1
102
RTVSPropertyOp2
 70
     1
102
RTVSPropertyOp3
 70
     1
102
RTVSPropertyOp4
 70
     1
102
RTVSPropertyOp5
 70
     1
102
RTVSPropertyOp6
 70
     1
102
RTVSPropertyOp7
 70
     1
102
RTVSPropertyOp8
 70
     1
102
RTVSPropertyOp9
 70
     1
102
RTVSPropertyOp10
 70
     1
102
RTVSPropertyOp11
 70
     1
102
RTVSPropertyOp12
 70
     1
102
RTVSPropertyOp13
 70
     1
102
RTVSPropertyOp14
 70
     1
102
RTVSPropertyOp15
 70
     1
102
RTVSPropertyOp16
 70
     1
102
RTVSPropertyOp17
 70
     1
102
RTVSPropertyOp18
 70
     1
102
RTVSPropertyOp19
 70
     1
102
RTVSPropertyOp20
 70
     1
102
RTVSPropertyOp21
 70
     1
102
RTVSPropertyOp22
 70
     1
102
RTVSPropertyOp23
 70
     1
102
RTVSPropertyOp24
 70
     1
102
RTVSPropertyOp25
 70
     1
102
RTVSPropertyOp26
 70
     1
102
RTVSPropertyOp27
 70
     1
102
RTVSPropertyOp28
 70
     1
102
RTVSPropertyOp29
 70
     1
102
RTVSPropertyOp30
 70
     1
102
RTVSPropertyOp31
 70
     1
102
RTVSPropertyOp32
 70
     1
102
RTVSPropertyOp33
 70
     1
102
RTVSPropertyOp34
 70
     1
102
RTVSPropertyOp35
 70
     1
102
RTVSPropertyOp36
 70
     1
102
RTVSPropertyOp37
 70
     1
102
RTVSPropertyOp38
 70
     1
102
RTVSPropertyOp39
 70
     1
102
RTVSPropertyOp40
 70
     1
102
RTVSPropertyOp41
 70
     1
102
RTVSPropertyOp42
 70
     1
102
RTVSPropertyOp43
 70
     1
102
RTVSPropertyOp44
 70
     1
102
RTVSPropertyOp45
 70
     1
102
RTVSPropertyOp46
 70
     1
102
RTVSPropertyOp47
 70
     1
102
RTVSPropertyOp48
 70
     1
102
RTVSPropertyOp49
 70
     1
102
RTVSPropertyOp50
 70
     1
102
RTVSPropertyOp51
 70
     0
102
RTVSPropertyOp52
 70
     0
102
RTVSPropertyOp53
 70
     1
102
RTVSPropertyOp54
 70
     1
102
RTVSPropertyOp55
 70
     1
102
RTVSPropertyOp56
 70
     1
102
RTVSPropertyOp57
 70
     1
102
RTVSPropertyOp58
 70
     1
102
RTVSPropertyOp59
 70
     1
102
RTVSPropertyOp60
 70
     1
102
RTVSPropertyOp61
 70
     1
102
RTVSPropertyOp62
 70
     1
  0
XRECORD
  5
D92
102
{ACAD_REACTORS
330
D91
102
}
330
D91
100
AcDbXrecord
280
     1
102
RTVSPost2010Prop28
280
     0
102
RTVSPost2010PropOp28
 70
     0
102
RTVSPost2010Prop29
280
     1
102
RTVSPost2010PropOp29
 70
     0
102
RTVSPost2010Prop30
280
     1
102
RTVSPost2010PropOp30
 70
     0
102
RTVSPost2010Prop31
280
     0
102
RTVSPost2010PropOp31
 70
     0
102
RTVSPost2010Prop32
280
     0
102
RTVSPost2010PropOp32
 70
     0
102
RTVSPost2010Prop33
280
     0
102
RTVSPost2010PropOp33
 70
     0
102
RTVSPost2010Prop34
280
     0
102
RTVSPost2010PropOp34
 70
     0
102
RTVSPost2010Prop35
280
     0
102
RTVSPost2010PropOp35
 70
     0
102
RTVSPost2010Prop36
280
     0
102
RTVSPost2010PropOp36
 70
     0
102
RTVSPost2010Prop37
 90
       50
102
RTVSPost2010PropOp37
 70
     0
102
RTVSPost2010Prop38
140
0.0
102
RTVSPost2010PropOp38
 70
     0
102
RTVSPost2010Prop39
140
1.0
102
RTVSPost2010PropOp39
 70
     0
102
RTVSPost2010Prop40
 90
        0
102
RTVSPost2010PropOp40
 70
     0
102
RTVSPost2010Prop41ColorIndex
 90
       18
102
RTVSPost2010Prop41ColorRGB
 90
-16777216
102
RTVSPost2010PropOp41
 70
     0
102
RTVSPost2010Prop42
 90
       50
102
RTVSPost2010PropOp42
 70
     0
102
RTVSPost2010Prop43
 90
        3
102
RTVSPost2010PropOp43
 70
     0
102
RTVSPost2010Prop44ColorIndex
 90
        5
102
RTVSPost2010Prop44ColorRGB
 90
      255
102
RTVSPost2010PropOp44
 70
     0
102
RTVSPost2010Prop45
280
     0
102
RTVSPost2010PropOp45
 70
     0
102
RTVSPost2010Prop46
 90
       50
102
RTVSPost2010PropOp46
 70
     0
102
RTVSPost2010Prop47
 90
       50
102
RTVSPost2010PropOp47
 70
     0
102
RTVSPost2010Prop48
 90
       50
102
RTVSPost2010PropOp48
 70
     0
102
RTVSPost2010Prop49
280
     0
102
RTVSPost2010PropOp49
 70
     0
102
RTVSPost2010Prop50
 90
       50
102
RTVSPost2010PropOp50
 70
     0
102
RTVSPost2010Prop51ColorIndex
 90
      256
102
RTVSPost2010Prop51ColorRGB
 90
-16777216
102
RTVSPost2010PropOp51
 70
     0
102
RTVSPost2010Prop52
140
1.0
102
RTVSPost2010PropOp52
 70
     0
102
RTVSPost2010Prop53
 90
        2
102
RTVSPost2010PropOp53
 70
     0
102
RTVSPost2010Prop54
  1
strokes_ogs.tif
102
RTVSPost2010PropOp54
 70
     0
102
RTVSPost2010Prop55
280
     0
102
RTVSPost2010PropOp55
 70
     0
102
RTVSPost2010Prop56
140
1.0
102
RTVSPost2010PropOp56
 70
     0
102
RTVSPost2010Prop57
140
1.0
102
RTVSPost2010PropOp57
 70
     0
102
RTVSPropertyOp0
 70
     0
102
RTVSPropertyOp1
 70
     0
102
RTVSPropertyOp2
 70
     0
102
RTVSPropertyOp3
 70
     0
102
RTVSPropertyOp4
 70
     0
102
RTVSPropertyOp5
 70
     0
102
RTVSPropertyOp6
 70
     0
102
RTVSPropertyOp7
 70
     0
102
RTVSPropertyOp8
 70
     0
102
RTVSPropertyOp9
 70
     0
102
RTVSPropertyOp10
 70
     0
102
RTVSPropertyOp11
 70
     0
102
RTVSPropertyOp12
 70
     0
102
RTVSPropertyOp13
 70
     0
102
RTVSPropertyOp14
 70
     2
102
RTVSPropertyOp15
 70
     0
102
RTVSPropertyOp16
 70
     0
102
RTVSPropertyOp17
 70
     0
102
RTVSPropertyOp18
 70
     0
102
RTVSPropertyOp19
 70
     0
102
RTVSPropertyOp20
 70
     0
102
RTVSPropertyOp21
 70
     0
102
RTVSPropertyOp22
 70
     0
102
RTVSPropertyOp23
 70
     0
102
RTVSPropertyOp24
 70
     0
102
RTVSPropertyOp25
 70
     0
102
RTVSPropertyOp26
 70
     0
102
RTVSPropertyOp27
 70
     0
102
RTVSPropertyOp28
 70
     0
102
RTVSPropertyOp29
 70
     0
102
RTVSPropertyOp30
 70
     0
102
RTVSPropertyOp31
 70
     0
102
RTVSPropertyOp32
 70
     0
102
RTVSPropertyOp33
 70
     0
102
RTVSPropertyOp34
 70
     0
102
RTVSPropertyOp35
 70
     0
102
RTVSPropertyOp36
 70
     0
102
RTVSPropertyOp37
 70
     0
102
RTVSPropertyOp38
 70
     0
102
RTVSPropertyOp39
 70
     0
102
RTVSPropertyOp40
 70
     0
102
RTVSPropertyOp41
 70
     0
102
RTVSPropertyOp42
 70
     0
102
RTVSPropertyOp43
 70
     0
102
RTVSPropertyOp44
 70
     0
102
RTVSPropertyOp45
 70
     0
102
RTVSPropertyOp46
 70
     0
102
RTVSPropertyOp47
 70
     0
102
RTVSPropertyOp48
 70
     0
102
RTVSPropertyOp49
 70
     0
102
RTVSPropertyOp50
 70
     0
102
RTVSPropertyOp51
 70
     0
102
RTVSPropertyOp52
 70
     0
102
RTVSPropertyOp53
 70
     0
102
RTVSPropertyOp54
 70
     0
102
RTVSPropertyOp55
 70
     0
102
RTVSPropertyOp56
 70
     0
102
RTVSPropertyOp57
 70
     0
102
RTVSPropertyOp58
 70
     1
102
RTVSPropertyOp59
 70
     1
102
RTVSPropertyOp60
 70
     1
102
RTVSPropertyOp61
 70
     1
102
RTVSPropertyOp62
 70
     1
  0
XRECORD
  5
D82
102
{ACAD_REACTORS
330
D81
102
}
330
D81
100
AcDbXrecord
280
     1
102
RTVSPost2010Prop28
280
     0
102
RTVSPost2010PropOp28
 70
     1
102
RTVSPost2010Prop29
280
     1
102
RTVSPost2010PropOp29
 70
     1
102
RTVSPost2010Prop30
280
     1
102
RTVSPost2010PropOp30
 70
     1
102
RTVSPost2010Prop31
280
     0
102
RTVSPost2010PropOp31
 70
     1
102
RTVSPost2010Prop32
280
     0
102
RTVSPost2010PropOp32
 70
     1
102
RTVSPost2010Prop33
280
     0
102
RTVSPost2010PropOp33
 70
     1
102
RTVSPost2010Prop34
280
     0
102
RTVSPost2010PropOp34
 70
     1
102
RTVSPost2010Prop35
280
     0
102
RTVSPost2010PropOp35
 70
     1
102
RTVSPost2010Prop36
280
     0
102
RTVSPost2010PropOp36
 70
     1
102
RTVSPost2010Prop37
 90
       50
102
RTVSPost2010PropOp37
 70
     1
102
RTVSPost2010Prop38
140
0.0
102
RTVSPost2010PropOp38
 70
     1
102
RTVSPost2010Prop39
140
1.0
102
RTVSPost2010PropOp39
 70
     1
102
RTVSPost2010Prop40
 90
        0
102
RTVSPost2010PropOp40
 70
     1
102
RTVSPost2010Prop41ColorIndex
 90
       18
102
RTVSPost2010Prop41ColorRGB
 90
-16777216
102
RTVSPost2010PropOp41
 70
     1
102
RTVSPost2010Prop42
 90
       50
102
RTVSPost2010PropOp42
 70
     1
102
RTVSPost2010Prop43
 90
        3
102
RTVSPost2010PropOp43
 70
     1
102
RTVSPost2010Prop44ColorIndex
 90
        5
102
RTVSPost2010Prop44ColorRGB
 90
      255
102
RTVSPost2010PropOp44
 70
     1
102
RTVSPost2010Prop45
280
     0
102
RTVSPost2010PropOp45
 70
     1
102
RTVSPost2010Prop46
 90
       50
102
RTVSPost2010PropOp46
 70
     1
102
RTVSPost2010Prop47
 90
       50
102
RTVSPost2010PropOp47
 70
     1
102
RTVSPost2010Prop48
 90
       50
102
RTVSPost2010PropOp48
 70
     1
102
RTVSPost2010Prop49
280
     0
102
RTVSPost2010PropOp49
 70
     1
102
RTVSPost2010Prop50
 90
       50
102
RTVSPost2010PropOp50
 70
     1
102
RTVSPost2010Prop51ColorIndex
 90
      256
102
RTVSPost2010Prop51ColorRGB
 90
-16777216
102
RTVSPost2010PropOp51
 70
     0
102
RTVSPost2010Prop52
140
1.0
102
RTVSPost2010PropOp52
 70
     0
102
RTVSPost2010Prop53
 90
        2
102
RTVSPost2010PropOp53
 70
     1
102
RTVSPost2010Prop54
  1
strokes_ogs.tif
102
RTVSPost2010PropOp54
 70
     1
102
RTVSPost2010Prop55
280
     0
102
RTVSPost2010PropOp55
 70
     1
102
RTVSPost2010Prop56
140
1.0
102
RTVSPost2010PropOp56
 70
     1
102
RTVSPost2010Prop57
140
1.0
102
RTVSPost2010PropOp57
 70
     1
102
RTVSPropertyOp0
 70
     1
102
RTVSPropertyOp1
 70
     1
102
RTVSPropertyOp2
 70
     1
102
RTVSPropertyOp3
 70
     1
102
RTVSPropertyOp4
 70
     1
102
RTVSPropertyOp5
 70
     1
102
RTVSPropertyOp6
 70
     1
102
RTVSPropertyOp7
 70
     1
102
RTVSPropertyOp8
 70
     1
102
RTVSPropertyOp9
 70
     1
102
RTVSPropertyOp10
 70
     1
102
RTVSPropertyOp11
 70
     1
102
RTVSPropertyOp12
 70
     1
102
RTVSPropertyOp13
 70
     1
102
RTVSPropertyOp14
 70
     1
102
RTVSPropertyOp15
 70
     1
102
RTVSPropertyOp16
 70
     1
102
RTVSPropertyOp17
 70
     1
102
RTVSPropertyOp18
 70
     1
102
RTVSPropertyOp19
 70
     1
102
RTVSPropertyOp20
 70
     1
102
RTVSPropertyOp21
 70
     1
102
RTVSPropertyOp22
 70
     1
102
RTVSPropertyOp23
 70
     1
102
RTVSPropertyOp24
 70
     1
102
RTVSPropertyOp25
 70
     1
102
RTVSPropertyOp26
 70
     1
102
RTVSPropertyOp27
 70
     1
102
RTVSPropertyOp28
 70
     1
102
RTVSPropertyOp29
 70
     1
102
RTVSPropertyOp30
 70
     1
102
RTVSPropertyOp31
 70
     1
102
RTVSPropertyOp32
 70
     1
102
RTVSPropertyOp33
 70
     1
102
RTVSPropertyOp34
 70
     1
102
RTVSPropertyOp35
 70
     1
102
RTVSPropertyOp36
 70
     1
102
RTVSPropertyOp37
 70
     1
102
RTVSPropertyOp38
 70
     1
102
RTVSPropertyOp39
 70
     1
102
RTVSPropertyOp40
 70
     1
102
RTVSPropertyOp41
 70
     1
102
RTVSPropertyOp42
 70
     1
102
RTVSPropertyOp43
 70
     1
102
RTVSPropertyOp44
 70
     1
102
RTVSPropertyOp45
 70
     1
102
RTVSPropertyOp46
 70
     1
102
RTVSPropertyOp47
 70
     1
102
RTVSPropertyOp48
 70
     1
102
RTVSPropertyOp49
 70
     1
102
RTVSPropertyOp50
 70
     1
102
RTVSPropertyOp51
 70
     0
102
RTVSPropertyOp52
 70
     0
102
RTVSPropertyOp53
 70
     1
102
RTVSPropertyOp54
 70
     1
102
RTVSPropertyOp55
 70
     1
102
RTVSPropertyOp56
 70
     1
102
RTVSPropertyOp57
 70
     1
102
RTVSPropertyOp58
 70
     1
102
RTVSPropertyOp59
 70
     1
102
RTVSPropertyOp60
 70
     1
102
RTVSPropertyOp61
 70
     1
102
RTVSPropertyOp62
 70
     1
  0
XRECORD
  5
D94
102
{ACAD_REACTORS
330
D93
102
}
330
D93
100
AcDbXrecord
280
     1
102
RTVSPost2010Prop28
280
     0
102
RTVSPost2010PropOp28
 70
     0
102
RTVSPost2010Prop29
280
     1
102
RTVSPost2010PropOp29
 70
     0
102
RTVSPost2010Prop30
280
     1
102
RTVSPost2010PropOp30
 70
     0
102
RTVSPost2010Prop31
280
     0
102
RTVSPost2010PropOp31
 70
     0
102
RTVSPost2010Prop32
280
     0
102
RTVSPost2010PropOp32
 70
     0
102
RTVSPost2010Prop33
280
     0
102
RTVSPost2010PropOp33
 70
     0
102
RTVSPost2010Prop34
280
     0
102
RTVSPost2010PropOp34
 70
     0
102
RTVSPost2010Prop35
280
     0
102
RTVSPost2010PropOp35
 70
     0
102
RTVSPost2010Prop36
280
     0
102
RTVSPost2010PropOp36
 70
     0
102
RTVSPost2010Prop37
 90
       50
102
RTVSPost2010PropOp37
 70
     0
102
RTVSPost2010Prop38
140
0.0
102
RTVSPost2010PropOp38
 70
     0
102
RTVSPost2010Prop39
140
1.0
102
RTVSPost2010PropOp39
 70
     0
102
RTVSPost2010Prop40
 90
        0
102
RTVSPost2010PropOp40
 70
     0
102
RTVSPost2010Prop41ColorIndex
 90
       18
102
RTVSPost2010Prop41ColorRGB
 90
-16777216
102
RTVSPost2010PropOp41
 70
     0
102
RTVSPost2010Prop42
 90
       50
102
RTVSPost2010PropOp42
 70
     0
102
RTVSPost2010Prop43
 90
        3
102
RTVSPost2010PropOp43
 70
     0
102
RTVSPost2010Prop44ColorIndex
 90
        5
102
RTVSPost2010Prop44ColorRGB
 90
      255
102
RTVSPost2010PropOp44
 70
     0
102
RTVSPost2010Prop45
280
     0
102
RTVSPost2010PropOp45
 70
     0
102
RTVSPost2010Prop46
 90
       50
102
RTVSPost2010PropOp46
 70
     0
102
RTVSPost2010Prop47
 90
       50
102
RTVSPost2010PropOp47
 70
     0
102
RTVSPost2010Prop48
 90
       50
102
RTVSPost2010PropOp48
 70
     0
102
RTVSPost2010Prop49
280
     0
102
RTVSPost2010PropOp49
 70
     0
102
RTVSPost2010Prop50
 90
       50
102
RTVSPost2010PropOp50
 70
     0
102
RTVSPost2010Prop51ColorIndex
 90
      256
102
RTVSPost2010Prop51ColorRGB
 90
-16777216
102
RTVSPost2010PropOp51
 70
     0
102
RTVSPost2010Prop52
140
1.0
102
RTVSPost2010PropOp52
 70
     0
102
RTVSPost2010Prop53
 90
        2
102
RTVSPost2010PropOp53
 70
     0
102
RTVSPost2010Prop54
  1
strokes_ogs.tif
102
RTVSPost2010PropOp54
 70
     0
102
RTVSPost2010Prop55
280
     0
102
RTVSPost2010PropOp55
 70
     0
102
RTVSPost2010Prop56
140
1.0
102
RTVSPost2010PropOp56
 70
     0
102
RTVSPost2010Prop57
140
1.0
102
RTVSPost2010PropOp57
 70
     0
102
RTVSPropertyOp0
 70
     0
102
RTVSPropertyOp1
 70
     0
102
RTVSPropertyOp2
 70
     0
102
RTVSPropertyOp3
 70
     0
102
RTVSPropertyOp4
 70
     0
102
RTVSPropertyOp5
 70
     0
102
RTVSPropertyOp6
 70
     0
102
RTVSPropertyOp7
 70
     0
102
RTVSPropertyOp8
 70
     0
102
RTVSPropertyOp9
 70
     0
102
RTVSPropertyOp10
 70
     0
102
RTVSPropertyOp11
 70
     0
102
RTVSPropertyOp12
 70
     0
102
RTVSPropertyOp13
 70
     0
102
RTVSPropertyOp14
 70
     2
102
RTVSPropertyOp15
 70
     0
102
RTVSPropertyOp16
 70
     0
102
RTVSPropertyOp17
 70
     0
102
RTVSPropertyOp18
 70
     0
102
RTVSPropertyOp19
 70
     0
102
RTVSPropertyOp20
 70
     0
102
RTVSPropertyOp21
 70
     0
102
RTVSPropertyOp22
 70
     0
102
RTVSPropertyOp23
 70
     0
102
RTVSPropertyOp24
 70
     0
102
RTVSPropertyOp25
 70
     0
102
RTVSPropertyOp26
 70
     0
102
RTVSPropertyOp27
 70
     0
102
RTVSPropertyOp28
 70
     0
102
RTVSPropertyOp29
 70
     0
102
RTVSPropertyOp30
 70
     0
102
RTVSPropertyOp31
 70
     0
102
RTVSPropertyOp32
 70
     0
102
RTVSPropertyOp33
 70
     0
102
RTVSPropertyOp34
 70
     0
102
RTVSPropertyOp35
 70
     0
102
RTVSPropertyOp36
 70
     0
102
RTVSPropertyOp37
 70
     0
102
RTVSPropertyOp38
 70
     0
102
RTVSPropertyOp39
 70
     0
102
RTVSPropertyOp40
 70
     0
102
RTVSPropertyOp41
 70
     0
102
RTVSPropertyOp42
 70
     0
102
RTVSPropertyOp43
 70
     0
102
RTVSPropertyOp44
 70
     0
102
RTVSPropertyOp45
 70
     0
102
RTVSPropertyOp46
 70
     0
102
RTVSPropertyOp47
 70
     0
102
RTVSPropertyOp48
 70
     0
102
RTVSPropertyOp49
 70
     0
102
RTVSPropertyOp50
 70
     0
102
RTVSPropertyOp51
 70
     0
102
RTVSPropertyOp52
 70
     0
102
RTVSPropertyOp53
 70
     0
102
RTVSPropertyOp54
 70
     0
102
RTVSPropertyOp55
 70
     0
102
RTVSPropertyOp56
 70
     0
102
RTVSPropertyOp57
 70
     0
102
RTVSPropertyOp58
 70
     1
102
RTVSPropertyOp59
 70
     1
102
RTVSPropertyOp60
 70
     1
102
RTVSPropertyOp61
 70
     1
102
RTVSPropertyOp62
 70
     1
  0
XRECORD
  5
D7A
102
{ACAD_REACTORS
330
D79
102
}
330
D79
100
AcDbXrecord
280
     1
102
RTVSPost2010Prop28
280
     0
102
RTVSPost2010PropOp28
 70
     1
102
RTVSPost2010Prop29
280
     1
102
RTVSPost2010PropOp29
 70
     1
102
RTVSPost2010Prop30
280
     1
102
RTVSPost2010PropOp30
 70
     1
102
RTVSPost2010Prop31
280
     0
102
RTVSPost2010PropOp31
 70
     1
102
RTVSPost2010Prop32
280
     0
102
RTVSPost2010PropOp32
 70
     1
102
RTVSPost2010Prop33
280
     0
102
RTVSPost2010PropOp33
 70
     1
102
RTVSPost2010Prop34
280
     0
102
RTVSPost2010PropOp34
 70
     1
102
RTVSPost2010Prop35
280
     0
102
RTVSPost2010PropOp35
 70
     1
102
RTVSPost2010Prop36
280
     0
102
RTVSPost2010PropOp36
 70
     1
102
RTVSPost2010Prop37
 90
       50
102
RTVSPost2010PropOp37
 70
     1
102
RTVSPost2010Prop38
140
0.0
102
RTVSPost2010PropOp38
 70
     1
102
RTVSPost2010Prop39
140
1.0
102
RTVSPost2010PropOp39
 70
     1
102
RTVSPost2010Prop40
 90
        0
102
RTVSPost2010PropOp40
 70
     1
102
RTVSPost2010Prop41ColorIndex
 90
       18
102
RTVSPost2010Prop41ColorRGB
 90
-16777216
102
RTVSPost2010PropOp41
 70
     1
102
RTVSPost2010Prop42
 90
       50
102
RTVSPost2010PropOp42
 70
     1
102
RTVSPost2010Prop43
 90
        3
102
RTVSPost2010PropOp43
 70
     1
102
RTVSPost2010Prop44ColorIndex
 90
        5
102
RTVSPost2010Prop44ColorRGB
 90
      255
102
RTVSPost2010PropOp44
 70
     1
102
RTVSPost2010Prop45
280
     0
102
RTVSPost2010PropOp45
 70
     1
102
RTVSPost2010Prop46
 90
       50
102
RTVSPost2010PropOp46
 70
     1
102
RTVSPost2010Prop47
 90
       50
102
RTVSPost2010PropOp47
 70
     1
102
RTVSPost2010Prop48
 90
       50
102
RTVSPost2010PropOp48
 70
     1
102
RTVSPost2010Prop49
280
     0
102
RTVSPost2010PropOp49
 70
     1
102
RTVSPost2010Prop50
 90
       50
102
RTVSPost2010PropOp50
 70
     1
102
RTVSPost2010Prop51ColorIndex
 90
      256
102
RTVSPost2010Prop51ColorRGB
 90
-16777216
102
RTVSPost2010PropOp51
 70
     0
102
RTVSPost2010Prop52
140
1.0
102
RTVSPost2010PropOp52
 70
     0
102
RTVSPost2010Prop53
 90
        2
102
RTVSPost2010PropOp53
 70
     1
102
RTVSPost2010Prop54
  1
strokes_ogs.tif
102
RTVSPost2010PropOp54
 70
     1
102
RTVSPost2010Prop55
280
     0
102
RTVSPost2010PropOp55
 70
     1
102
RTVSPost2010Prop56
140
1.0
102
RTVSPost2010PropOp56
 70
     1
102
RTVSPost2010Prop57
140
1.0
102
RTVSPost2010PropOp57
 70
     1
102
RTVSPropertyOp0
 70
     1
102
RTVSPropertyOp1
 70
     1
102
RTVSPropertyOp2
 70
     1
102
RTVSPropertyOp3
 70
     1
102
RTVSPropertyOp4
 70
     1
102
RTVSPropertyOp5
 70
     1
102
RTVSPropertyOp6
 70
     1
102
RTVSPropertyOp7
 70
     1
102
RTVSPropertyOp8
 70
     1
102
RTVSPropertyOp9
 70
     1
102
RTVSPropertyOp10
 70
     1
102
RTVSPropertyOp11
 70
     1
102
RTVSPropertyOp12
 70
     1
102
RTVSPropertyOp13
 70
     1
102
RTVSPropertyOp14
 70
     1
102
RTVSPropertyOp15
 70
     1
102
RTVSPropertyOp16
 70
     1
102
RTVSPropertyOp17
 70
     1
102
RTVSPropertyOp18
 70
     1
102
RTVSPropertyOp19
 70
     1
102
RTVSPropertyOp20
 70
     1
102
RTVSPropertyOp21
 70
     1
102
RTVSPropertyOp22
 70
     1
102
RTVSPropertyOp23
 70
     1
102
RTVSPropertyOp24
 70
     1
102
RTVSPropertyOp25
 70
     1
102
RTVSPropertyOp26
 70
     1
102
RTVSPropertyOp27
 70
     1
102
RTVSPropertyOp28
 70
     1
102
RTVSPropertyOp29
 70
     1
102
RTVSPropertyOp30
 70
     1
102
RTVSPropertyOp31
 70
     1
102
RTVSPropertyOp32
 70
     1
102
RTVSPropertyOp33
 70
     1
102
RTVSPropertyOp34
 70
     1
102
RTVSPropertyOp35
 70
     1
102
RTVSPropertyOp36
 70
     1
102
RTVSPropertyOp37
 70
     1
102
RTVSPropertyOp38
 70
     1
102
RTVSPropertyOp39
 70
     1
102
RTVSPropertyOp40
 70
     1
102
RTVSPropertyOp41
 70
     1
102
RTVSPropertyOp42
 70
     1
102
RTVSPropertyOp43
 70
     1
102
RTVSPropertyOp44
 70
     1
102
RTVSPropertyOp45
 70
     1
102
RTVSPropertyOp46
 70
     1
102
RTVSPropertyOp47
 70
     1
102
RTVSPropertyOp48
 70
     1
102
RTVSPropertyOp49
 70
     1
102
RTVSPropertyOp50
 70
     1
102
RTVSPropertyOp51
 70
     0
102
RTVSPropertyOp52
 70
     0
102
RTVSPropertyOp53
 70
     1
102
RTVSPropertyOp54
 70
     1
102
RTVSPropertyOp55
 70
     1
102
RTVSPropertyOp56
 70
     1
102
RTVSPropertyOp57
 70
     1
102
RTVSPropertyOp58
 70
     1
102
RTVSPropertyOp59
 70
     1
102
RTVSPropertyOp60
 70
     1
102
RTVSPropertyOp61
 70
     1
102
RTVSPropertyOp62
 70
     1
  0
XRECORD
  5
D90
102
{ACAD_REACTORS
330
D8F
102
}
330
D8F
100
AcDbXrecord
280
     1
102
RTVSPost2010Prop28
280
     0
102
RTVSPost2010PropOp28
 70
     1
102
RTVSPost2010Prop29
280
     1
102
RTVSPost2010PropOp29
 70
     1
102
RTVSPost2010Prop30
280
     1
102
RTVSPost2010PropOp30
 70
     1
102
RTVSPost2010Prop31
280
     0
102
RTVSPost2010PropOp31
 70
     1
102
RTVSPost2010Prop32
280
     0
102
RTVSPost2010PropOp32
 70
     1
102
RTVSPost2010Prop33
280
     0
102
RTVSPost2010PropOp33
 70
     1
102
RTVSPost2010Prop34
280
     0
102
RTVSPost2010PropOp34
 70
     1
102
RTVSPost2010Prop35
280
     0
102
RTVSPost2010PropOp35
 70
     1
102
RTVSPost2010Prop36
280
     0
102
RTVSPost2010PropOp36
 70
     1
102
RTVSPost2010Prop37
 90
       50
102
RTVSPost2010PropOp37
 70
     1
102
RTVSPost2010Prop38
140
0.0
102
RTVSPost2010PropOp38
 70
     1
102
RTVSPost2010Prop39
140
1.0
102
RTVSPost2010PropOp39
 70
     1
102
RTVSPost2010Prop40
 90
        0
102
RTVSPost2010PropOp40
 70
     1
102
RTVSPost2010Prop41ColorIndex
 90
       18
102
RTVSPost2010Prop41ColorRGB
 90
-16777216
102
RTVSPost2010PropOp41
 70
     1
102
RTVSPost2010Prop42
 90
       50
102
RTVSPost2010PropOp42
 70
     1
102
RTVSPost2010Prop43
 90
        3
102
RTVSPost2010PropOp43
 70
     1
102
RTVSPost2010Prop44ColorIndex
 90
        5
102
RTVSPost2010Prop44ColorRGB
 90
      255
102
RTVSPost2010PropOp44
 70
     1
102
RTVSPost2010Prop45
280
     0
102
RTVSPost2010PropOp45
 70
     1
102
RTVSPost2010Prop46
 90
       50
102
RTVSPost2010PropOp46
 70
     1
102
RTVSPost2010Prop47
 90
       50
102
RTVSPost2010PropOp47
 70
     1
102
RTVSPost2010Prop48
 90
       50
102
RTVSPost2010PropOp48
 70
     1
102
RTVSPost2010Prop49
280
     0
102
RTVSPost2010PropOp49
 70
     1
102
RTVSPost2010Prop50
 90
       50
102
RTVSPost2010PropOp50
 70
     1
102
RTVSPost2010Prop51ColorIndex
 90
      256
102
RTVSPost2010Prop51ColorRGB
 90
-16777216
102
RTVSPost2010PropOp51
 70
     0
102
RTVSPost2010Prop52
140
1.0
102
RTVSPost2010PropOp52
 70
     0
102
RTVSPost2010Prop53
 90
        2
102
RTVSPost2010PropOp53
 70
     1
102
RTVSPost2010Prop54
  1
strokes_ogs.tif
102
RTVSPost2010PropOp54
 70
     1
102
RTVSPost2010Prop55
280
     0
102
RTVSPost2010PropOp55
 70
     1
102
RTVSPost2010Prop56
140
1.0
102
RTVSPost2010PropOp56
 70
     1
102
RTVSPost2010Prop57
140
1.0
102
RTVSPost2010PropOp57
 70
     1
102
RTVSPropertyOp0
 70
     1
102
RTVSPropertyOp1
 70
     1
102
RTVSPropertyOp2
 70
     1
102
RTVSPropertyOp3
 70
     1
102
RTVSPropertyOp4
 70
     1
102
RTVSPropertyOp5
 70
     1
102
RTVSPropertyOp6
 70
     1
102
RTVSPropertyOp7
 70
     1
102
RTVSPropertyOp8
 70
     1
102
RTVSPropertyOp9
 70
     1
102
RTVSPropertyOp10
 70
     1
102
RTVSPropertyOp11
 70
     1
102
RTVSPropertyOp12
 70
     1
102
RTVSPropertyOp13
 70
     1
102
RTVSPropertyOp14
 70
     1
102
RTVSPropertyOp15
 70
     1
102
RTVSPropertyOp16
 70
     1
102
RTVSPropertyOp17
 70
     1
102
RTVSPropertyOp18
 70
     1
102
RTVSPropertyOp19
 70
     1
102
RTVSPropertyOp20
 70
     1
102
RTVSPropertyOp21
 70
     1
102
RTVSPropertyOp22
 70
     1
102
RTVSPropertyOp23
 70
     1
102
RTVSPropertyOp24
 70
     1
102
RTVSPropertyOp25
 70
     1
102
RTVSPropertyOp26
 70
     1
102
RTVSPropertyOp27
 70
     1
102
RTVSPropertyOp28
 70
     1
102
RTVSPropertyOp29
 70
     1
102
RTVSPropertyOp30
 70
     1
102
RTVSPropertyOp31
 70
     1
102
RTVSPropertyOp32
 70
     1
102
RTVSPropertyOp33
 70
     1
102
RTVSPropertyOp34
 70
     1
102
RTVSPropertyOp35
 70
     1
102
RTVSPropertyOp36
 70
     1
102
RTVSPropertyOp37
 70
     1
102
RTVSPropertyOp38
 70
     1
102
RTVSPropertyOp39
 70
     1
102
RTVSPropertyOp40
 70
     1
102
RTVSPropertyOp41
 70
     1
102
RTVSPropertyOp42
 70
     1
102
RTVSPropertyOp43
 70
     1
102
RTVSPropertyOp44
 70
     1
102
RTVSPropertyOp45
 70
     1
102
RTVSPropertyOp46
 70
     1
102
RTVSPropertyOp47
 70
     1
102
RTVSPropertyOp48
 70
     1
102
RTVSPropertyOp49
 70
     1
102
RTVSPropertyOp50
 70
     1
102
RTVSPropertyOp51
 70
     0
102
RTVSPropertyOp52
 70
     0
102
RTVSPropertyOp53
 70
     1
102
RTVSPropertyOp54
 70
     1
102
RTVSPropertyOp55
 70
     1
102
RTVSPropertyOp56
 70
     1
102
RTVSPropertyOp57
 70
     1
102
RTVSPropertyOp58
 70
     1
102
RTVSPropertyOp59
 70
     1
102
RTVSPropertyOp60
 70
     1
102
RTVSPropertyOp61
 70
     1
102
RTVSPropertyOp62
 70
     1
  0
XRECORD
  5
D8E
102
{ACAD_REACTORS
330
D8D
102
}
330
D8D
100
AcDbXrecord
280
     1
102
RTVSPost2010Prop28
280
     0
102
RTVSPost2010PropOp28
 70
     1
102
RTVSPost2010Prop29
280
     1
102
RTVSPost2010PropOp29
 70
     1
102
RTVSPost2010Prop30
280
     1
102
RTVSPost2010PropOp30
 70
     1
102
RTVSPost2010Prop31
280
     0
102
RTVSPost2010PropOp31
 70
     1
102
RTVSPost2010Prop32
280
     0
102
RTVSPost2010PropOp32
 70
     1
102
RTVSPost2010Prop33
280
     0
102
RTVSPost2010PropOp33
 70
     1
102
RTVSPost2010Prop34
280
     0
102
RTVSPost2010PropOp34
 70
     1
102
RTVSPost2010Prop35
280
     0
102
RTVSPost2010PropOp35
 70
     1
102
RTVSPost2010Prop36
280
     0
102
RTVSPost2010PropOp36
 70
     1
102
RTVSPost2010Prop37
 90
       50
102
RTVSPost2010PropOp37
 70
     1
102
RTVSPost2010Prop38
140
0.0
102
RTVSPost2010PropOp38
 70
     1
102
RTVSPost2010Prop39
140
1.0
102
RTVSPost2010PropOp39
 70
     1
102
RTVSPost2010Prop40
 90
        0
102
RTVSPost2010PropOp40
 70
     1
102
RTVSPost2010Prop41ColorIndex
 90
       18
102
RTVSPost2010Prop41ColorRGB
 90
-16777216
102
RTVSPost2010PropOp41
 70
     1
102
RTVSPost2010Prop42
 90
       50
102
RTVSPost2010PropOp42
 70
     1
102
RTVSPost2010Prop43
 90
        3
102
RTVSPost2010PropOp43
 70
     1
102
RTVSPost2010Prop44ColorIndex
 90
        5
102
RTVSPost2010Prop44ColorRGB
 90
      255
102
RTVSPost2010PropOp44
 70
     1
102
RTVSPost2010Prop45
280
     0
102
RTVSPost2010PropOp45
 70
     1
102
RTVSPost2010Prop46
 90
       50
102
RTVSPost2010PropOp46
 70
     1
102
RTVSPost2010Prop47
 90
       50
102
RTVSPost2010PropOp47
 70
     1
102
RTVSPost2010Prop48
 90
       50
102
RTVSPost2010PropOp48
 70
     1
102
RTVSPost2010Prop49
280
     0
102
RTVSPost2010PropOp49
 70
     1
102
RTVSPost2010Prop50
 90
       50
102
RTVSPost2010PropOp50
 70
     1
102
RTVSPost2010Prop51ColorIndex
 90
      256
102
RTVSPost2010Prop51ColorRGB
 90
-16777216
102
RTVSPost2010PropOp51
 70
     0
102
RTVSPost2010Prop52
140
1.0
102
RTVSPost2010PropOp52
 70
     0
102
RTVSPost2010Prop53
 90
        2
102
RTVSPost2010PropOp53
 70
     1
102
RTVSPost2010Prop54
  1
strokes_ogs.tif
102
RTVSPost2010PropOp54
 70
     1
102
RTVSPost2010Prop55
280
     0
102
RTVSPost2010PropOp55
 70
     1
102
RTVSPost2010Prop56
140
1.0
102
RTVSPost2010PropOp56
 70
     1
102
RTVSPost2010Prop57
140
1.0
102
RTVSPost2010PropOp57
 70
     1
102
RTVSPropertyOp0
 70
     1
102
RTVSPropertyOp1
 70
     1
102
RTVSPropertyOp2
 70
     1
102
RTVSPropertyOp3
 70
     1
102
RTVSPropertyOp4
 70
     1
102
RTVSPropertyOp5
 70
     1
102
RTVSPropertyOp6
 70
     1
102
RTVSPropertyOp7
 70
     1
102
RTVSPropertyOp8
 70
     1
102
RTVSPropertyOp9
 70
     1
102
RTVSPropertyOp10
 70
     1
102
RTVSPropertyOp11
 70
     1
102
RTVSPropertyOp12
 70
     1
102
RTVSPropertyOp13
 70
     1
102
RTVSPropertyOp14
 70
     1
102
RTVSPropertyOp15
 70
     1
102
RTVSPropertyOp16
 70
     1
102
RTVSPropertyOp17
 70
     1
102
RTVSPropertyOp18
 70
     1
102
RTVSPropertyOp19
 70
     1
102
RTVSPropertyOp20
 70
     1
102
RTVSPropertyOp21
 70
     1
102
RTVSPropertyOp22
 70
     1
102
RTVSPropertyOp23
 70
     1
102
RTVSPropertyOp24
 70
     1
102
RTVSPropertyOp25
 70
     1
102
RTVSPropertyOp26
 70
     1
102
RTVSPropertyOp27
 70
     1
102
RTVSPropertyOp28
 70
     1
102
RTVSPropertyOp29
 70
     1
102
RTVSPropertyOp30
 70
     1
102
RTVSPropertyOp31
 70
     1
102
RTVSPropertyOp32
 70
     1
102
RTVSPropertyOp33
 70
     1
102
RTVSPropertyOp34
 70
     1
102
RTVSPropertyOp35
 70
     1
102
RTVSPropertyOp36
 70
     1
102
RTVSPropertyOp37
 70
     1
102
RTVSPropertyOp38
 70
     1
102
RTVSPropertyOp39
 70
     1
102
RTVSPropertyOp40
 70
     1
102
RTVSPropertyOp41
 70
     1
102
RTVSPropertyOp42
 70
     1
102
RTVSPropertyOp43
 70
     1
102
RTVSPropertyOp44
 70
     1
102
RTVSPropertyOp45
 70
     1
102
RTVSPropertyOp46
 70
     1
102
RTVSPropertyOp47
 70
     1
102
RTVSPropertyOp48
 70
     1
102
RTVSPropertyOp49
 70
     1
102
RTVSPropertyOp50
 70
     1
102
RTVSPropertyOp51
 70
     0
102
RTVSPropertyOp52
 70
     0
102
RTVSPropertyOp53
 70
     1
102
RTVSPropertyOp54
 70
     1
102
RTVSPropertyOp55
 70
     1
102
RTVSPropertyOp56
 70
     1
102
RTVSPropertyOp57
 70
     1
102
RTVSPropertyOp58
 70
     1
102
RTVSPropertyOp59
 70
     1
102
RTVSPropertyOp60
 70
     1
102
RTVSPropertyOp61
 70
     1
102
RTVSPropertyOp62
 70
     1
  0
XRECORD
  5
D88
102
{ACAD_REACTORS
330
D87
102
}
330
D87
100
AcDbXrecord
280
     1
102
RTVSPost2010Prop28
280
     0
102
RTVSPost2010PropOp28
 70
     1
102
RTVSPost2010Prop29
280
     1
102
RTVSPost2010PropOp29
 70
     1
102
RTVSPost2010Prop30
280
     1
102
RTVSPost2010PropOp30
 70
     1
102
RTVSPost2010Prop31
280
     0
102
RTVSPost2010PropOp31
 70
     1
102
RTVSPost2010Prop32
280
     0
102
RTVSPost2010PropOp32
 70
     1
102
RTVSPost2010Prop33
280
     0
102
RTVSPost2010PropOp33
 70
     1
102
RTVSPost2010Prop34
280
     0
102
RTVSPost2010PropOp34
 70
     1
102
RTVSPost2010Prop35
280
     0
102
RTVSPost2010PropOp35
 70
     1
102
RTVSPost2010Prop36
280
     0
102
RTVSPost2010PropOp36
 70
     1
102
RTVSPost2010Prop37
 90
       50
102
RTVSPost2010PropOp37
 70
     1
102
RTVSPost2010Prop38
140
0.0
102
RTVSPost2010PropOp38
 70
     1
102
RTVSPost2010Prop39
140
1.0
102
RTVSPost2010PropOp39
 70
     1
102
RTVSPost2010Prop40
 90
        0
102
RTVSPost2010PropOp40
 70
     1
102
RTVSPost2010Prop41ColorIndex
 90
       18
102
RTVSPost2010Prop41ColorRGB
 90
-16777216
102
RTVSPost2010PropOp41
 70
     1
102
RTVSPost2010Prop42
 90
       50
102
RTVSPost2010PropOp42
 70
     1
102
RTVSPost2010Prop43
 90
        3
102
RTVSPost2010PropOp43
 70
     1
102
RTVSPost2010Prop44ColorIndex
 90
        5
102
RTVSPost2010Prop44ColorRGB
 90
      255
102
RTVSPost2010PropOp44
 70
     1
102
RTVSPost2010Prop45
280
     0
102
RTVSPost2010PropOp45
 70
     1
102
RTVSPost2010Prop46
 90
       50
102
RTVSPost2010PropOp46
 70
     1
102
RTVSPost2010Prop47
 90
       50
102
RTVSPost2010PropOp47
 70
     1
102
RTVSPost2010Prop48
 90
       50
102
RTVSPost2010PropOp48
 70
     1
102
RTVSPost2010Prop49
280
     0
102
RTVSPost2010PropOp49
 70
     1
102
RTVSPost2010Prop50
 90
       50
102
RTVSPost2010PropOp50
 70
     1
102
RTVSPost2010Prop51ColorIndex
 90
      256
102
RTVSPost2010Prop51ColorRGB
 90
-16777216
102
RTVSPost2010PropOp51
 70
     0
102
RTVSPost2010Prop52
140
1.0
102
RTVSPost2010PropOp52
 70
     0
102
RTVSPost2010Prop53
 90
        2
102
RTVSPost2010PropOp53
 70
     1
102
RTVSPost2010Prop54
  1
strokes_ogs.tif
102
RTVSPost2010PropOp54
 70
     1
102
RTVSPost2010Prop55
280
     0
102
RTVSPost2010PropOp55
 70
     1
102
RTVSPost2010Prop56
140
1.0
102
RTVSPost2010PropOp56
 70
     1
102
RTVSPost2010Prop57
140
1.0
102
RTVSPost2010PropOp57
 70
     1
102
RTVSPropertyOp0
 70
     1
102
RTVSPropertyOp1
 70
     1
102
RTVSPropertyOp2
 70
     1
102
RTVSPropertyOp3
 70
     1
102
RTVSPropertyOp4
 70
     1
102
RTVSPropertyOp5
 70
     1
102
RTVSPropertyOp6
 70
     1
102
RTVSPropertyOp7
 70
     1
102
RTVSPropertyOp8
 70
     1
102
RTVSPropertyOp9
 70
     1
102
RTVSPropertyOp10
 70
     1
102
RTVSPropertyOp11
 70
     1
102
RTVSPropertyOp12
 70
     1
102
RTVSPropertyOp13
 70
     1
102
RTVSPropertyOp14
 70
     1
102
RTVSPropertyOp15
 70
     1
102
RTVSPropertyOp16
 70
     1
102
RTVSPropertyOp17
 70
     1
102
RTVSPropertyOp18
 70
     1
102
RTVSPropertyOp19
 70
     1
102
RTVSPropertyOp20
 70
     1
102
RTVSPropertyOp21
 70
     1
102
RTVSPropertyOp22
 70
     1
102
RTVSPropertyOp23
 70
     1
102
RTVSPropertyOp24
 70
     1
102
RTVSPropertyOp25
 70
     1
102
RTVSPropertyOp26
 70
     1
102
RTVSPropertyOp27
 70
     1
102
RTVSPropertyOp28
 70
     1
102
RTVSPropertyOp29
 70
     1
102
RTVSPropertyOp30
 70
     1
102
RTVSPropertyOp31
 70
     1
102
RTVSPropertyOp32
 70
     1
102
RTVSPropertyOp33
 70
     1
102
RTVSPropertyOp34
 70
     1
102
RTVSPropertyOp35
 70
     1
102
RTVSPropertyOp36
 70
     1
102
RTVSPropertyOp37
 70
     1
102
RTVSPropertyOp38
 70
     1
102
RTVSPropertyOp39
 70
     1
102
RTVSPropertyOp40
 70
     1
102
RTVSPropertyOp41
 70
     1
102
RTVSPropertyOp42
 70
     1
102
RTVSPropertyOp43
 70
     1
102
RTVSPropertyOp44
 70
     1
102
RTVSPropertyOp45
 70
     1
102
RTVSPropertyOp46
 70
     1
102
RTVSPropertyOp47
 70
     1
102
RTVSPropertyOp48
 70
     1
102
RTVSPropertyOp49
 70
     1
102
RTVSPropertyOp50
 70
     1
102
RTVSPropertyOp51
 70
     0
102
RTVSPropertyOp52
 70
     0
102
RTVSPropertyOp53
 70
     1
102
RTVSPropertyOp54
 70
     1
102
RTVSPropertyOp55
 70
     1
102
RTVSPropertyOp56
 70
     1
102
RTVSPropertyOp57
 70
     1
102
RTVSPropertyOp58
 70
     1
102
RTVSPropertyOp59
 70
     1
102
RTVSPropertyOp60
 70
     1
102
RTVSPropertyOp61
 70
     1
102
RTVSPropertyOp62
 70
     1
  0
XRECORD
  5
D8A
102
{ACAD_REACTORS
330
D89
102
}
330
D89
100
AcDbXrecord
280
     1
102
RTVSPost2010Prop28
280
     0
102
RTVSPost2010PropOp28
 70
     1
102
RTVSPost2010Prop29
280
     1
102
RTVSPost2010PropOp29
 70
     1
102
RTVSPost2010Prop30
280
     1
102
RTVSPost2010PropOp30
 70
     1
102
RTVSPost2010Prop31
280
     0
102
RTVSPost2010PropOp31
 70
     1
102
RTVSPost2010Prop32
280
     0
102
RTVSPost2010PropOp32
 70
     1
102
RTVSPost2010Prop33
280
     0
102
RTVSPost2010PropOp33
 70
     1
102
RTVSPost2010Prop34
280
     0
102
RTVSPost2010PropOp34
 70
     1
102
RTVSPost2010Prop35
280
     0
102
RTVSPost2010PropOp35
 70
     1
102
RTVSPost2010Prop36
280
     0
102
RTVSPost2010PropOp36
 70
     1
102
RTVSPost2010Prop37
 90
       50
102
RTVSPost2010PropOp37
 70
     1
102
RTVSPost2010Prop38
140
0.0
102
RTVSPost2010PropOp38
 70
     1
102
RTVSPost2010Prop39
140
1.0
102
RTVSPost2010PropOp39
 70
     1
102
RTVSPost2010Prop40
 90
        0
102
RTVSPost2010PropOp40
 70
     1
102
RTVSPost2010Prop41ColorIndex
 90
       18
102
RTVSPost2010Prop41ColorRGB
 90
-16777216
102
RTVSPost2010PropOp41
 70
     1
102
RTVSPost2010Prop42
 90
       50
102
RTVSPost2010PropOp42
 70
     1
102
RTVSPost2010Prop43
 90
        3
102
RTVSPost2010PropOp43
 70
     1
102
RTVSPost2010Prop44ColorIndex
 90
        5
102
RTVSPost2010Prop44ColorRGB
 90
      255
102
RTVSPost2010PropOp44
 70
     1
102
RTVSPost2010Prop45
280
     0
102
RTVSPost2010PropOp45
 70
     1
102
RTVSPost2010Prop46
 90
       50
102
RTVSPost2010PropOp46
 70
     1
102
RTVSPost2010Prop47
 90
       50
102
RTVSPost2010PropOp47
 70
     1
102
RTVSPost2010Prop48
 90
       50
102
RTVSPost2010PropOp48
 70
     1
102
RTVSPost2010Prop49
280
     0
102
RTVSPost2010PropOp49
 70
     1
102
RTVSPost2010Prop50
 90
       50
102
RTVSPost2010PropOp50
 70
     1
102
RTVSPost2010Prop51ColorIndex
 90
      256
102
RTVSPost2010Prop51ColorRGB
 90
-16777216
102
RTVSPost2010PropOp51
 70
     0
102
RTVSPost2010Prop52
140
1.0
102
RTVSPost2010PropOp52
 70
     0
102
RTVSPost2010Prop53
 90
        2
102
RTVSPost2010PropOp53
 70
     1
102
RTVSPost2010Prop54
  1
strokes_ogs.tif
102
RTVSPost2010PropOp54
 70
     1
102
RTVSPost2010Prop55
280
     0
102
RTVSPost2010PropOp55
 70
     1
102
RTVSPost2010Prop56
140
1.0
102
RTVSPost2010PropOp56
 70
     1
102
RTVSPost2010Prop57
140
1.0
102
RTVSPost2010PropOp57
 70
     1
102
RTVSPropertyOp0
 70
     1
102
RTVSPropertyOp1
 70
     1
102
RTVSPropertyOp2
 70
     1
102
RTVSPropertyOp3
 70
     1
102
RTVSPropertyOp4
 70
     1
102
RTVSPropertyOp5
 70
     1
102
RTVSPropertyOp6
 70
     1
102
RTVSPropertyOp7
 70
     1
102
RTVSPropertyOp8
 70
     1
102
RTVSPropertyOp9
 70
     1
102
RTVSPropertyOp10
 70
     1
102
RTVSPropertyOp11
 70
     1
102
RTVSPropertyOp12
 70
     1
102
RTVSPropertyOp13
 70
     1
102
RTVSPropertyOp14
 70
     1
102
RTVSPropertyOp15
 70
     1
102
RTVSPropertyOp16
 70
     1
102
RTVSPropertyOp17
 70
     1
102
RTVSPropertyOp18
 70
     1
102
RTVSPropertyOp19
 70
     1
102
RTVSPropertyOp20
 70
     1
102
RTVSPropertyOp21
 70
     1
102
RTVSPropertyOp22
 70
     1
102
RTVSPropertyOp23
 70
     1
102
RTVSPropertyOp24
 70
     1
102
RTVSPropertyOp25
 70
     1
102
RTVSPropertyOp26
 70
     1
102
RTVSPropertyOp27
 70
     1
102
RTVSPropertyOp28
 70
     1
102
RTVSPropertyOp29
 70
     1
102
RTVSPropertyOp30
 70
     1
102
RTVSPropertyOp31
 70
     1
102
RTVSPropertyOp32
 70
     1
102
RTVSPropertyOp33
 70
     1
102
RTVSPropertyOp34
 70
     1
102
RTVSPropertyOp35
 70
     1
102
RTVSPropertyOp36
 70
     1
102
RTVSPropertyOp37
 70
     1
102
RTVSPropertyOp38
 70
     1
102
RTVSPropertyOp39
 70
     1
102
RTVSPropertyOp40
 70
     1
102
RTVSPropertyOp41
 70
     1
102
RTVSPropertyOp42
 70
     1
102
RTVSPropertyOp43
 70
     1
102
RTVSPropertyOp44
 70
     1
102
RTVSPropertyOp45
 70
     1
102
RTVSPropertyOp46
 70
     1
102
RTVSPropertyOp47
 70
     1
102
RTVSPropertyOp48
 70
     1
102
RTVSPropertyOp49
 70
     1
102
RTVSPropertyOp50
 70
     1
102
RTVSPropertyOp51
 70
     0
102
RTVSPropertyOp52
 70
     0
102
RTVSPropertyOp53
 70
     1
102
RTVSPropertyOp54
 70
     1
102
RTVSPropertyOp55
 70
     1
102
RTVSPropertyOp56
 70
     1
102
RTVSPropertyOp57
 70
     1
102
RTVSPropertyOp58
 70
     1
102
RTVSPropertyOp59
 70
     1
102
RTVSPropertyOp60
 70
     1
102
RTVSPropertyOp61
 70
     1
102
RTVSPropertyOp62
 70
     1
  0
XRECORD
  5
D80
102
{ACAD_REACTORS
330
D7F
102
}
330
D7F
100
AcDbXrecord
280
     1
102
RTVSPost2010Prop28
280
     0
102
RTVSPost2010PropOp28
 70
     1
102
RTVSPost2010Prop29
280
     1
102
RTVSPost2010PropOp29
 70
     1
102
RTVSPost2010Prop30
280
     1
102
RTVSPost2010PropOp30
 70
     1
102
RTVSPost2010Prop31
280
     0
102
RTVSPost2010PropOp31
 70
     1
102
RTVSPost2010Prop32
280
     0
102
RTVSPost2010PropOp32
 70
     1
102
RTVSPost2010Prop33
280
     0
102
RTVSPost2010PropOp33
 70
     1
102
RTVSPost2010Prop34
280
     0
102
RTVSPost2010PropOp34
 70
     1
102
RTVSPost2010Prop35
280
     0
102
RTVSPost2010PropOp35
 70
     1
102
RTVSPost2010Prop36
280
     0
102
RTVSPost2010PropOp36
 70
     1
102
RTVSPost2010Prop37
 90
       50
102
RTVSPost2010PropOp37
 70
     1
102
RTVSPost2010Prop38
140
0.0
102
RTVSPost2010PropOp38
 70
     1
102
RTVSPost2010Prop39
140
1.0
102
RTVSPost2010PropOp39
 70
     1
102
RTVSPost2010Prop40
 90
        0
102
RTVSPost2010PropOp40
 70
     1
102
RTVSPost2010Prop41ColorIndex
 90
       18
102
RTVSPost2010Prop41ColorRGB
 90
-16777216
102
RTVSPost2010PropOp41
 70
     1
102
RTVSPost2010Prop42
 90
       50
102
RTVSPost2010PropOp42
 70
     1
102
RTVSPost2010Prop43
 90
        3
102
RTVSPost2010PropOp43
 70
     1
102
RTVSPost2010Prop44ColorIndex
 90
        5
102
RTVSPost2010Prop44ColorRGB
 90
      255
102
RTVSPost2010PropOp44
 70
     1
102
RTVSPost2010Prop45
280
     0
102
RTVSPost2010PropOp45
 70
     1
102
RTVSPost2010Prop46
 90
       50
102
RTVSPost2010PropOp46
 70
     1
102
RTVSPost2010Prop47
 90
       50
102
RTVSPost2010PropOp47
 70
     1
102
RTVSPost2010Prop48
 90
       50
102
RTVSPost2010PropOp48
 70
     1
102
RTVSPost2010Prop49
280
     0
102
RTVSPost2010PropOp49
 70
     1
102
RTVSPost2010Prop50
 90
       50
102
RTVSPost2010PropOp50
 70
     1
102
RTVSPost2010Prop51ColorIndex
 90
      256
102
RTVSPost2010Prop51ColorRGB
 90
-16777216
102
RTVSPost2010PropOp51
 70
     0
102
RTVSPost2010Prop52
140
1.0
102
RTVSPost2010PropOp52
 70
     0
102
RTVSPost2010Prop53
 90
        2
102
RTVSPost2010PropOp53
 70
     1
102
RTVSPost2010Prop54
  1
strokes_ogs.tif
102
RTVSPost2010PropOp54
 70
     1
102
RTVSPost2010Prop55
280
     0
102
RTVSPost2010PropOp55
 70
     1
102
RTVSPost2010Prop56
140
1.0
102
RTVSPost2010PropOp56
 70
     1
102
RTVSPost2010Prop57
140
1.0
102
RTVSPost2010PropOp57
 70
     1
102
RTVSPropertyOp0
 70
     1
102
RTVSPropertyOp1
 70
     1
102
RTVSPropertyOp2
 70
     1
102
RTVSPropertyOp3
 70
     1
102
RTVSPropertyOp4
 70
     1
102
RTVSPropertyOp5
 70
     1
102
RTVSPropertyOp6
 70
     1
102
RTVSPropertyOp7
 70
     1
102
RTVSPropertyOp8
 70
     1
102
RTVSPropertyOp9
 70
     1
102
RTVSPropertyOp10
 70
     1
102
RTVSPropertyOp11
 70
     1
102
RTVSPropertyOp12
 70
     1
102
RTVSPropertyOp13
 70
     1
102
RTVSPropertyOp14
 70
     1
102
RTVSPropertyOp15
 70
     1
102
RTVSPropertyOp16
 70
     1
102
RTVSPropertyOp17
 70
     1
102
RTVSPropertyOp18
 70
     1
102
RTVSPropertyOp19
 70
     1
102
RTVSPropertyOp20
 70
     1
102
RTVSPropertyOp21
 70
     1
102
RTVSPropertyOp22
 70
     1
102
RTVSPropertyOp23
 70
     1
102
RTVSPropertyOp24
 70
     1
102
RTVSPropertyOp25
 70
     1
102
RTVSPropertyOp26
 70
     1
102
RTVSPropertyOp27
 70
     1
102
RTVSPropertyOp28
 70
     1
102
RTVSPropertyOp29
 70
     1
102
RTVSPropertyOp30
 70
     1
102
RTVSPropertyOp31
 70
     1
102
RTVSPropertyOp32
 70
     1
102
RTVSPropertyOp33
 70
     1
102
RTVSPropertyOp34
 70
     1
102
RTVSPropertyOp35
 70
     1
102
RTVSPropertyOp36
 70
     1
102
RTVSPropertyOp37
 70
     1
102
RTVSPropertyOp38
 70
     1
102
RTVSPropertyOp39
 70
     1
102
RTVSPropertyOp40
 70
     1
102
RTVSPropertyOp41
 70
     1
102
RTVSPropertyOp42
 70
     1
102
RTVSPropertyOp43
 70
     1
102
RTVSPropertyOp44
 70
     1
102
RTVSPropertyOp45
 70
     1
102
RTVSPropertyOp46
 70
     1
102
RTVSPropertyOp47
 70
     1
102
RTVSPropertyOp48
 70
     1
102
RTVSPropertyOp49
 70
     1
102
RTVSPropertyOp50
 70
     1
102
RTVSPropertyOp51
 70
     0
102
RTVSPropertyOp52
 70
     0
102
RTVSPropertyOp53
 70
     1
102
RTVSPropertyOp54
 70
     1
102
RTVSPropertyOp55
 70
     1
102
RTVSPropertyOp56
 70
     1
102
RTVSPropertyOp57
 70
     1
102
RTVSPropertyOp58
 70
     1
102
RTVSPropertyOp59
 70
     1
102
RTVSPropertyOp60
 70
     1
102
RTVSPropertyOp61
 70
     1
102
RTVSPropertyOp62
 70
     1
  0
XRECORD
  5
D74
102
{ACAD_REACTORS
330
D73
102
}
330
D73
100
AcDbXrecord
280
     1
102
RTVSPost2010Prop28
280
     0
102
RTVSPost2010PropOp28
 70
     1
102
RTVSPost2010Prop29
280
     1
102
RTVSPost2010PropOp29
 70
     1
102
RTVSPost2010Prop30
280
     1
102
RTVSPost2010PropOp30
 70
     1
102
RTVSPost2010Prop31
280
     0
102
RTVSPost2010PropOp31
 70
     1
102
RTVSPost2010Prop32
280
     0
102
RTVSPost2010PropOp32
 70
     1
102
RTVSPost2010Prop33
280
     0
102
RTVSPost2010PropOp33
 70
     1
102
RTVSPost2010Prop34
280
     0
102
RTVSPost2010PropOp34
 70
     1
102
RTVSPost2010Prop35
280
     0
102
RTVSPost2010PropOp35
 70
     1
102
RTVSPost2010Prop36
280
     0
102
RTVSPost2010PropOp36
 70
     1
102
RTVSPost2010Prop37
 90
       50
102
RTVSPost2010PropOp37
 70
     1
102
RTVSPost2010Prop38
140
0.0
102
RTVSPost2010PropOp38
 70
     1
102
RTVSPost2010Prop39
140
1.0
102
RTVSPost2010PropOp39
 70
     1
102
RTVSPost2010Prop40
 90
        0
102
RTVSPost2010PropOp40
 70
     1
102
RTVSPost2010Prop41ColorIndex
 90
       18
102
RTVSPost2010Prop41ColorRGB
 90
-16777216
102
RTVSPost2010PropOp41
 70
     1
102
RTVSPost2010Prop42
 90
       50
102
RTVSPost2010PropOp42
 70
     1
102
RTVSPost2010Prop43
 90
        3
102
RTVSPost2010PropOp43
 70
     1
102
RTVSPost2010Prop44ColorIndex
 90
        5
102
RTVSPost2010Prop44ColorRGB
 90
      255
102
RTVSPost2010PropOp44
 70
     1
102
RTVSPost2010Prop45
280
     0
102
RTVSPost2010PropOp45
 70
     1
102
RTVSPost2010Prop46
 90
       50
102
RTVSPost2010PropOp46
 70
     1
102
RTVSPost2010Prop47
 90
       50
102
RTVSPost2010PropOp47
 70
     1
102
RTVSPost2010Prop48
 90
       50
102
RTVSPost2010PropOp48
 70
     1
102
RTVSPost2010Prop49
280
     0
102
RTVSPost2010PropOp49
 70
     1
102
RTVSPost2010Prop50
 90
       50
102
RTVSPost2010PropOp50
 70
     1
102
RTVSPost2010Prop51ColorIndex
 90
      256
102
RTVSPost2010Prop51ColorRGB
 90
-16777216
102
RTVSPost2010PropOp51
 70
     0
102
RTVSPost2010Prop52
140
1.0
102
RTVSPost2010PropOp52
 70
     0
102
RTVSPost2010Prop53
 90
        2
102
RTVSPost2010PropOp53
 70
     1
102
RTVSPost2010Prop54
  1
strokes_ogs.tif
102
RTVSPost2010PropOp54
 70
     1
102
RTVSPost2010Prop55
280
     0
102
RTVSPost2010PropOp55
 70
     1
102
RTVSPost2010Prop56
140
1.0
102
RTVSPost2010PropOp56
 70
     1
102
RTVSPost2010Prop57
140
1.0
102
RTVSPost2010PropOp57
 70
     1
102
RTVSPropertyOp0
 70
     1
102
RTVSPropertyOp1
 70
     1
102
RTVSPropertyOp2
 70
     1
102
RTVSPropertyOp3
 70
     1
102
RTVSPropertyOp4
 70
     1
102
RTVSPropertyOp5
 70
     1
102
RTVSPropertyOp6
 70
     1
102
RTVSPropertyOp7
 70
     1
102
RTVSPropertyOp8
 70
     1
102
RTVSPropertyOp9
 70
     1
102
RTVSPropertyOp10
 70
     1
102
RTVSPropertyOp11
 70
     1
102
RTVSPropertyOp12
 70
     1
102
RTVSPropertyOp13
 70
     1
102
RTVSPropertyOp14
 70
     1
102
RTVSPropertyOp15
 70
     1
102
RTVSPropertyOp16
 70
     1
102
RTVSPropertyOp17
 70
     1
102
RTVSPropertyOp18
 70
     1
102
RTVSPropertyOp19
 70
     1
102
RTVSPropertyOp20
 70
     1
102
RTVSPropertyOp21
 70
     1
102
RTVSPropertyOp22
 70
     1
102
RTVSPropertyOp23
 70
     1
102
RTVSPropertyOp24
 70
     1
102
RTVSPropertyOp25
 70
     1
102
RTVSPropertyOp26
 70
     1
102
RTVSPropertyOp27
 70
     1
102
RTVSPropertyOp28
 70
     1
102
RTVSPropertyOp29
 70
     1
102
RTVSPropertyOp30
 70
     1
102
RTVSPropertyOp31
 70
     1
102
RTVSPropertyOp32
 70
     1
102
RTVSPropertyOp33
 70
     1
102
RTVSPropertyOp34
 70
     1
102
RTVSPropertyOp35
 70
     1
102
RTVSPropertyOp36
 70
     1
102
RTVSPropertyOp37
 70
     1
102
RTVSPropertyOp38
 70
     1
102
RTVSPropertyOp39
 70
     1
102
RTVSPropertyOp40
 70
     1
102
RTVSPropertyOp41
 70
     1
102
RTVSPropertyOp42
 70
     1
102
RTVSPropertyOp43
 70
     1
102
RTVSPropertyOp44
 70
     1
102
RTVSPropertyOp45
 70
     1
102
RTVSPropertyOp46
 70
     1
102
RTVSPropertyOp47
 70
     1
102
RTVSPropertyOp48
 70
     1
102
RTVSPropertyOp49
 70
     1
102
RTVSPropertyOp50
 70
     1
102
RTVSPropertyOp51
 70
     0
102
RTVSPropertyOp52
 70
     0
102
RTVSPropertyOp53
 70
     1
102
RTVSPropertyOp54
 70
     1
102
RTVSPropertyOp55
 70
     1
102
RTVSPropertyOp56
 70
     1
102
RTVSPropertyOp57
 70
     1
102
RTVSPropertyOp58
 70
     1
102
RTVSPropertyOp59
 70
     1
102
RTVSPropertyOp60
 70
     1
102
RTVSPropertyOp61
 70
     1
102
RTVSPropertyOp62
 70
     1
  0
XRECORD
  5
D8C
102
{ACAD_REACTORS
330
D8B
102
}
330
D8B
100
AcDbXrecord
280
     1
102
RTVSPost2010Prop28
280
     0
102
RTVSPost2010PropOp28
 70
     1
102
RTVSPost2010Prop29
280
     1
102
RTVSPost2010PropOp29
 70
     1
102
RTVSPost2010Prop30
280
     1
102
RTVSPost2010PropOp30
 70
     1
102
RTVSPost2010Prop31
280
     0
102
RTVSPost2010PropOp31
 70
     1
102
RTVSPost2010Prop32
280
     0
102
RTVSPost2010PropOp32
 70
     1
102
RTVSPost2010Prop33
280
     0
102
RTVSPost2010PropOp33
 70
     1
102
RTVSPost2010Prop34
280
     0
102
RTVSPost2010PropOp34
 70
     1
102
RTVSPost2010Prop35
280
     0
102
RTVSPost2010PropOp35
 70
     1
102
RTVSPost2010Prop36
280
     0
102
RTVSPost2010PropOp36
 70
     1
102
RTVSPost2010Prop37
 90
       50
102
RTVSPost2010PropOp37
 70
     1
102
RTVSPost2010Prop38
140
0.0
102
RTVSPost2010PropOp38
 70
     1
102
RTVSPost2010Prop39
140
1.0
102
RTVSPost2010PropOp39
 70
     1
102
RTVSPost2010Prop40
 90
        0
102
RTVSPost2010PropOp40
 70
     1
102
RTVSPost2010Prop41ColorIndex
 90
       18
102
RTVSPost2010Prop41ColorRGB
 90
-16777216
102
RTVSPost2010PropOp41
 70
     1
102
RTVSPost2010Prop42
 90
       50
102
RTVSPost2010PropOp42
 70
     1
102
RTVSPost2010Prop43
 90
        3
102
RTVSPost2010PropOp43
 70
     1
102
RTVSPost2010Prop44ColorIndex
 90
        5
102
RTVSPost2010Prop44ColorRGB
 90
      255
102
RTVSPost2010PropOp44
 70
     1
102
RTVSPost2010Prop45
280
     0
102
RTVSPost2010PropOp45
 70
     1
102
RTVSPost2010Prop46
 90
       50
102
RTVSPost2010PropOp46
 70
     1
102
RTVSPost2010Prop47
 90
       50
102
RTVSPost2010PropOp47
 70
     1
102
RTVSPost2010Prop48
 90
       50
102
RTVSPost2010PropOp48
 70
     1
102
RTVSPost2010Prop49
280
     0
102
RTVSPost2010PropOp49
 70
     1
102
RTVSPost2010Prop50
 90
       50
102
RTVSPost2010PropOp50
 70
     1
102
RTVSPost2010Prop51ColorIndex
 90
      256
102
RTVSPost2010Prop51ColorRGB
 90
-16777216
102
RTVSPost2010PropOp51
 70
     0
102
RTVSPost2010Prop52
140
1.0
102
RTVSPost2010PropOp52
 70
     0
102
RTVSPost2010Prop53
 90
        2
102
RTVSPost2010PropOp53
 70
     1
102
RTVSPost2010Prop54
  1
strokes_ogs.tif
102
RTVSPost2010PropOp54
 70
     1
102
RTVSPost2010Prop55
280
     0
102
RTVSPost2010PropOp55
 70
     1
102
RTVSPost2010Prop56
140
1.0
102
RTVSPost2010PropOp56
 70
     1
102
RTVSPost2010Prop57
140
1.0
102
RTVSPost2010PropOp57
 70
     1
102
RTVSPropertyOp0
 70
     1
102
RTVSPropertyOp1
 70
     1
102
RTVSPropertyOp2
 70
     1
102
RTVSPropertyOp3
 70
     1
102
RTVSPropertyOp4
 70
     1
102
RTVSPropertyOp5
 70
     1
102
RTVSPropertyOp6
 70
     1
102
RTVSPropertyOp7
 70
     1
102
RTVSPropertyOp8
 70
     1
102
RTVSPropertyOp9
 70
     1
102
RTVSPropertyOp10
 70
     1
102
RTVSPropertyOp11
 70
     1
102
RTVSPropertyOp12
 70
     1
102
RTVSPropertyOp13
 70
     1
102
RTVSPropertyOp14
 70
     1
102
RTVSPropertyOp15
 70
     1
102
RTVSPropertyOp16
 70
     1
102
RTVSPropertyOp17
 70
     1
102
RTVSPropertyOp18
 70
     1
102
RTVSPropertyOp19
 70
     1
102
RTVSPropertyOp20
 70
     1
102
RTVSPropertyOp21
 70
     1
102
RTVSPropertyOp22
 70
     1
102
RTVSPropertyOp23
 70
     1
102
RTVSPropertyOp24
 70
     1
102
RTVSPropertyOp25
 70
     1
102
RTVSPropertyOp26
 70
     1
102
RTVSPropertyOp27
 70
     1
102
RTVSPropertyOp28
 70
     1
102
RTVSPropertyOp29
 70
     1
102
RTVSPropertyOp30
 70
     1
102
RTVSPropertyOp31
 70
     1
102
RTVSPropertyOp32
 70
     1
102
RTVSPropertyOp33
 70
     1
102
RTVSPropertyOp34
 70
     1
102
RTVSPropertyOp35
 70
     1
102
RTVSPropertyOp36
 70
     1
102
RTVSPropertyOp37
 70
     1
102
RTVSPropertyOp38
 70
     1
102
RTVSPropertyOp39
 70
     1
102
RTVSPropertyOp40
 70
     1
102
RTVSPropertyOp41
 70
     1
102
RTVSPropertyOp42
 70
     1
102
RTVSPropertyOp43
 70
     1
102
RTVSPropertyOp44
 70
     1
102
RTVSPropertyOp45
 70
     1
102
RTVSPropertyOp46
 70
     1
102
RTVSPropertyOp47
 70
     1
102
RTVSPropertyOp48
 70
     1
102
RTVSPropertyOp49
 70
     1
102
RTVSPropertyOp50
 70
     1
102
RTVSPropertyOp51
 70
     0
102
RTVSPropertyOp52
 70
     0
102
RTVSPropertyOp53
 70
     1
102
RTVSPropertyOp54
 70
     1
102
RTVSPropertyOp55
 70
     1
102
RTVSPropertyOp56
 70
     1
102
RTVSPropertyOp57
 70
     1
102
RTVSPropertyOp58
 70
     1
102
RTVSPropertyOp59
 70
     1
102
RTVSPropertyOp60
 70
     1
102
RTVSPropertyOp61
 70
     1
102
RTVSPropertyOp62
 70
     1
  0
ENDSEC
  0
EOF
