  0
SECTION
  2
HEADER
  9
$ACADVER
  1
AC1015
  9
$ACADMAINTVER
 70
    20
  9
$DWGCODEPAGE
  3
ANSI_1252
  9
$INSBASE
 10
0.0
 20
0.0
 30
0.0
  9
$EXTMIN
 10
2.626127956857856
 20
2.200996382225322
 30
0.0
  9
$EXTMAX
 10
8.151127956857857
 20
6.450996382225322
 30
0.0
  9
$LIMMIN
 10
0.0
 20
0.0
  9
$LIMMAX
 10
12.0
 20
9.0
  9
$ORTHOMODE
 70
     0
  9
$REGENMODE
 70
     1
  9
$FILLMODE
 70
     1
  9
$QTEXTMODE
 70
     0
  9
$MIRRTEXT
 70
     1
  9
$LTSCALE
 40
0.25
  9
$ATTMODE
 70
     1
  9
$TEXTSIZE
 40
0.078
  9
$TRACEWID
 40
0.05
  9
$TEXTSTYLE
  7
SIMPLEX
  9
$CLAYER
  8
3
  9
$CELTYPE
  6
BYLAYER
  9
$CECOLOR
 62
   256
  9
$CELTSCALE
 40
1.0
  9
$DISPSILH
 70
     0
  9
$DIMSCALE
 40
0.5
  9
$DIMASZ
 40
0.125
  9
$DIMEXO
 40
0.0625
  9
$DIMDLI
 40
0.38
  9
$DIMRND
 40
0.0
  9
$DIMDLE
 40
0.0
  9
$DIMEXE
 40
0.0625
  9
$DIMTP
 40
0.0
  9
$DIMTM
 40
0.0
  9
$DIMTXT
 40
0.125
  9
$DIMCEN
 40
-0.125
  9
$DIMTSZ
 40
0.0
  9
$DIMTOL
 70
     0
  9
$DIMLIM
 70
     0
  9
$DIMTIH
 70
     0
  9
$DIMTOH
 70
     0
  9
$DIMSE1
 70
     0
  9
$DIMSE2
 70
     0
  9
$DIMTAD
 70
     0
  9
$DIMZIN
 70
     4
  9
$DIMBLK
  1

  9
$DIMASO
 70
     1
  9
$DIMSHO
 70
     0
  9
$DIMPOST
  1

  9
$DIMAPOST
  1

  9
$DIMALT
 70
     0
  9
$DIMALTD
 70
     2
  9
$DIMALTF
 40
25.4
  9
$DIMLFAC
 40
1.0
  9
$DIMTOFL
 70
     0
  9
$DIMTVP
 40
0.0
  9
$DIMTIX
 70
     0
  9
$DIMSOXD
 70
     0
  9
$DIMSAH
 70
     0
  9
$DIMBLK1
  1

  9
$DIMBLK2
  1

  9
$DIMSTYLE
  2
STANDARD
  9
$DIMCLRD
 70
     0
  9
$DIMCLRE
 70
     0
  9
$DIMCLRT
 70
     0
  9
$DIMTFAC
 40
1.0
  9
$DIMGAP
 40
0.09
  9
$DIMJUST
 70
     0
  9
$DIMSD1
 70
     0
  9
$DIMSD2
 70
     0
  9
$DIMTOLJ
 70
     1
  9
$DIMTZIN
 70
     4
  9
$DIMALTZ
 70
     4
  9
$DIMALTTZ
 70
     4
  9
$DIMUPT
 70
     0
  9
$DIMDEC
 70
     3
  9
$DIMTDEC
 70
     3
  9
$DIMALTU
 70
     2
  9
$DIMALTTD
 70
     2
  9
$DIMTXSTY
  7
SIMPLEX
  9
$DIMAUNIT
 70
     0
  9
$DIMADEC
 70
     0
  9
$DIMALTRND
 40
0.0
  9
$DIMAZIN
 70
     0
  9
$DIMDSEP
 70
    46
  9
$DIMATFIT
 70
     3
  9
$DIMFRAC
 70
     0
  9
$DIMLDRBLK
  1

  9
$DIMLUNIT
 70
     2
  9
$DIMLWD
 70
    -2
  9
$DIMLWE
 70
    -2
  9
$DIMTMOVE
 70
     2
  9
$LUNITS
 70
     2
  9
$LUPREC
 70
     3
  9
$SKETCHINC
 40
0.1
  9
$FILLETRAD
 40
0.0
  9
$AUNITS
 70
     0
  9
$AUPREC
 70
     2
  9
$MENU
  1
ACAD
  9
$ELEVATION
 40
0.0
  9
$PELEVATION
 40
0.0
  9
$THICKNESS
 40
0.0
  9
$LIMCHECK
 70
     0
  9
$CHAMFERA
 40
0.0
  9
$CHAMFERB
 40
0.0
  9
$CHAMFERC
 40
0.0
  9
$CHAMFERD
 40
0.0
  9
$SKPOLY
 70
     0
  9
$TDCREATE
 40
2449051.580961806
  9
$TDUCREATE
 40
2449051.747628473
  9
$TDUPDATE
 40
2457155.544109051
  9
$TDUUPDATE
 40
2457155.710775718
  9
$TDINDWG
 40
0.1462511806
  9
$TDUSRTIMER
 40
0.1462511690
  9
$USRTIMER
 70
     1
  9
$ANGBASE
 50
0.0
  9
$ANGDIR
 70
     0
  9
$PDMODE
 70
     0
  9
$PDSIZE
 40
0.0
  9
$PLINEWID
 40
0.0
  9
$SPLFRAME
 70
     0
  9
$SPLINETYPE
 70
     6
  9
$SPLINESEGS
 70
     8
  9
$HANDSEED
  5
D56
  9
$SURFTAB1
 70
     6
  9
$SURFTAB2
 70
     6
  9
$SURFTYPE
 70
     6
  9
$SURFU
 70
     6
  9
$SURFV
 70
     6
  9
$UCSBASE
  2

  9
$UCSNAME
  2

  9
$UCSORG
 10
0.0
 20
0.0
 30
0.0
  9
$UCSXDIR
 10
1.0
 20
0.0
 30
0.0
  9
$UCSYDIR
 10
0.0
 20
1.0
 30
0.0
  9
$UCSORTHOREF
  2

  9
$UCSORTHOVIEW
 70
     0
  9
$UCSORGTOP
 10
0.0
 20
0.0
 30
0.0
  9
$UCSORGBOTTOM
 10
0.0
 20
0.0
 30
0.0
  9
$UCSORGLEFT
 10
0.0
 20
0.0
 30
0.0
  9
$UCSORGRIGHT
 10
0.0
 20
0.0
 30
0.0
  9
$UCSORGFRONT
 10
0.0
 20
0.0
 30
0.0
  9
$UCSORGBACK
 10
0.0
 20
0.0
 30
0.0
  9
$PUCSBASE
  2

  9
$PUCSNAME
  2

  9
$PUCSORG
 10
0.0
 20
0.0
 30
0.0
  9
$PUCSXDIR
 10
1.0
 20
0.0
 30
0.0
  9
$PUCSYDIR
 10
0.0
 20
1.0
 30
0.0
  9
$PUCSORTHOREF
  2

  9
$PUCSORTHOVIEW
 70
     0
  9
$PUCSORGTOP
 10
0.0
 20
0.0
 30
0.0
  9
$PUCSORGBOTTOM
 10
0.0
 20
0.0
 30
0.0
  9
$PUCSORGLEFT
 10
0.0
 20
0.0
 30
0.0
  9
$PUCSORGRIGHT
 10
0.0
 20
0.0
 30
0.0
  9
$PUCSORGFRONT
 10
0.0
 20
0.0
 30
0.0
  9
$PUCSORGBACK
 10
0.0
 20
0.0
 30
0.0
  9
$USERI1
 70
     0
  9
$USERI2
 70
     0
  9
$USERI3
 70
     0
  9
$USERI4
 70
     0
  9
$USERI5
 70
     0
  9
$USERR1
 40
0.0
  9
$USERR2
 40
0.0
  9
$USERR3
 40
0.0
  9
$USERR4
 40
0.0
  9
$USERR5
 40
0.0
  9
$WORLDVIEW
 70
     1
  9
$SHADEDGE
 70
     3
  9
$SHADEDIF
 70
    70
  9
$TILEMODE
 70
     1
  9
$MAXACTVP
 70
    16
  9
$PINSBASE
 10
0.0
 20
0.0
 30
0.0
  9
$PLIMCHECK
 70
     0
  9
$PEXTMIN
 10
1.000000000000000E+20
 20
1.000000000000000E+20
 30
1.000000000000000E+20
  9
$PEXTMAX
 10
-1.000000000000000E+20
 20
-1.000000000000000E+20
 30
-1.000000000000000E+20
  9
$PLIMMIN
 10
0.0
 20
0.0
  9
$PLIMMAX
 10
12.0
 20
9.0
  9
$UNITMODE
 70
     0
  9
$VISRETAIN
 70
     0
  9
$PLINEGEN
 70
     0
  9
$PSLTSCALE
 70
     0
  9
$TREEDEPTH
 70
  3020
  9
$CMLSTYLE
  2
STANDARD
  9
$CMLJUST
 70
     0
  9
$CMLSCALE
 40
1.0
  9
$PROXYGRAPHICS
 70
     1
  9
$MEASUREMENT
 70
     0
  9
$CELWEIGHT
370
    -1
  9
$ENDCAPS
280
     0
  9
$JOINSTYLE
280
     0
  9
$LWDISPLAY
290
     0
  9
$INSUNITS
 70
     0
  9
$HYPERLINKBASE
  1

  9
$STYLESHEET
  1
BLACK.CTB
  9
$XEDIT
290
     1
  9
$CEPSNTYPE
380
     0
  9
$PSTYLEMODE
290
     1
  9
$FINGERPRINTGUID
  2
{BB555F7F-3D3D-47D2-B516-2B07D5B439D3}
  9
$VERSIONGUID
  2
{D0458820-64A5-46F1-A7B8-05A32239BA03}
  9
$EXTNAMES
290
     1
  9
$PSVPSCALE
 40
0.0
  9
$OLESTARTUP
290
     0
  0
ENDSEC
  0
SECTION
  2
CLASSES
  0
CLASS
  1
DICTIONARYVAR
  2
AcDbDictionaryVar
  3
ObjectDBX Classes
 90
        0
280
     0
281
     0
  0
CLASS
  1
ACDBDICTIONARYWDFLT
  2
AcDbDictionaryWithDefault
  3
ObjectDBX Classes
 90
        0
280
     0
281
     0
  0
CLASS
  1
MATERIAL
  2
AcDbMaterial
  3
ObjectDBX Classes
 90
     1153
280
     0
281
     0
  0
CLASS
  1
VISUALSTYLE
  2
AcDbVisualStyle
  3
ObjectDBX Classes
 90
     4095
280
     0
281
     0
  0
CLASS
  1
TABLESTYLE
  2
AcDbTableStyle
  3
ObjectDBX Classes
 90
     4095
280
     0
281
     0
  0
CLASS
  1
SCALE
  2
AcDbScale
  3
ObjectDBX Classes
 90
     1153
280
     0
281
     0
  0
CLASS
  1
MLEADERSTYLE
  2
AcDbMLeaderStyle
  3
ACDB_MLEADERSTYLE_CLASS
 90
     4095
280
     0
281
     0
  0
CLASS
  1
ACDBSECTIONVIEWSTYLE
  2
AcDbSectionViewStyle
  3
ObjectDBX Classes
 90
     1025
280
     0
281
     0
  0
CLASS
  1
ACDBDETAILVIEWSTYLE
  2
AcDbDetailViewStyle
  3
ObjectDBX Classes
 90
     1025
280
     0
281
     0
  0
CLASS
  1
ACME_DOCUMENT
  2
AcMeDbDoc
  3
AcMeServices
 90
    33792
280
     0
281
     0
  0
CLASS
  1
AMGSETTINGSOBJ
  2
AmgSettingsObj
  3
"AcadM|Product Description: AutoCAD Mechanical|Company: Autodesk, Inc."
 90
    33792
280
     0
281
     0
  0
CLASS
  1
ACMESCOPE
  2
AcMeScope
  3
AcMeServices
 90
    33792
280
     0
281
     0
  0
CLASS
  1
ACMECOMMANDHISTORY
  2
AcMeCommandHistory
  3
AcMeServices
 90
    33792
280
     0
281
     0
  0
CLASS
  1
ACIMSYSVARMAN
  2
AcImSysVarManager
  3
AcMeServices
 90
    33792
280
     0
281
     0
  0
CLASS
  1
ACIMINTSYSVAR
  2
AcImIntSysVar
  3
AcMeServices
 90
    33792
280
     0
281
     0
  0
CLASS
  1
ACMESTATEMGR
  2
AcMeStateMgr
  3
AcMeServices
 90
    33792
280
     0
281
     0
  0
CLASS
  1
ACDBENTITYCACHE
  2
AcMeEntityCache
  3
AcMeServices
 90
    33792
280
     0
281
     0
  0
CLASS
  1
ACGREFMASTER
  2
AcGrefMaster
  3
AcAttribServices
 90
    33792
280
     0
281
     0
  0
CLASS
  1
ACME_DATABASE
  2
AcMeDbDatabase
  3
AcMeServices
 90
    33792
280
     0
281
     0
  0
CLASS
  1
ACRFINSADJUSTERMGR
  2
AcRfInsAdjusterMgr
  3
AcMeServices
 90
    33792
280
     0
281
     0
  0
CLASS
  1
ACGREFACADMASTER
  2
AcGrefacadMaster
  3
AcGrefServices
 90
    33792
280
     0
281
     0
  0
CLASS
  1
AMDTMENUSTATEMGR
  2
AmdtMenuStateMgr
  3
McadcomServices
 90
    33792
280
     0
281
     0
  0
CLASS
  1
AMDTMCOMMENUSTATE
  2
AmdtMcomMenuState
  3
McadcomServices
 90
    33792
280
     0
281
     0
  0
CLASS
  1
AMIMASTER
  2
AmiMaster
  3
AmiServices
 90
    33792
280
     0
281
     0
  0
CLASS
  1
MAPIAMMOUDLE
  2
MApiAmModule
  3
MApiAmServices
 90
    33792
280
     0
281
     0
  0
CLASS
  1
ACIMSTRSYSVAR
  2
AcImStrSysVar
  3
AcMeServices
 90
    33792
280
     0
281
     0
  0
CLASS
  1
AMDTAMMENUSTATE
  2
AmdtAmMenuState
  3
DesignerAssemblies
 90
    33792
280
     0
281
     0
  0
CLASS
  1
ACAMPROJECT
  2
AcAmProject
  3
DesignerAssemblies
 90
    33792
280
     0
281
     0
  0
CLASS
  1
ACAMGRCOMPDEF
  2
AcAmGrCompDef
  3
DesignerAssemblies
 90
    33792
280
     0
281
     0
  0
CLASS
  1
ACAMCOMPDEF
  2
AcAmCompDef
  3
DesignerAssemblies
 90
    33792
280
     0
281
     0
  0
CLASS
  1
ACAMCOMPDEFMGR
  2
AcAmCompDefMgr
  3
DesignerAssemblies
 90
    33792
280
     0
281
     0
  0
CLASS
  1
AMCONTEXTMGR
  2
AcAmContextMgr
  3
DesignerAssemblies
 90
    33792
280
     0
281
     0
  0
CLASS
  1
ACAMCONTEXTMODELER
  2
AcAmContextModeler
  3
DesignerAssemblies
 90
    33792
280
     0
281
     0
  0
CLASS
  1
ACMDATADICTIONARY
  2
AcmDataDictionary
  3
"AcmSymBB|Product Description: AutoCAD Mechanical|Company: Autodesk, Inc."
 90
    33792
280
     0
281
     0
  0
CLASS
  1
ACAMGRCOMPDEFSET
  2
AcAmGrCompDefSet
  3
DesignerAssemblies
 90
    33792
280
     0
281
     0
  0
CLASS
  1
AMDTBROWSERDBTAB
  2
AmdtBrowserDbTab
  3
McadcomServices
 90
    33792
280
     0
281
     0
  0
CLASS
  1
CBROWSERAPPOBJECT
  2
CBrowserAppObject
  3
McadcomServices
 90
    33792
280
     0
281
     0
  0
CLASS
  1
DM_PLACEHOLDER
  2
AcDmSelsetPlaceholder
  3
McadcomServices
 90
    33792
280
     0
281
     0
  0
CLASS
  1
EXACXREFPANELOBJECT
  2
ExAcXREFPanelObject
  3
EXAC_ESW
 90
    33793
280
     0
281
     0
  0
CLASS
  1
NPOCOLLECTION
  2
AcDbImpNonPersistentObjectsCollection
  3
ObjectDBX Classes
 90
    33921
280
     0
281
     0
  0
CLASS
  1
ACMSTANDARDANSI
  2
AcmStandardANSI
  3
"Amdt_StdImp|Product Description: AutoCAD Mechanical|Company: Autodesk, Inc."
 90
    33792
280
     0
281
     0
  0
CLASS
  1
ACMSURFSTANDARDANSI
  2
AcmSurfTextStdANSI
  3
"Amdt_StdImp|Product Description: AutoCAD Mechanical|Company: Autodesk, Inc."
 90
    33792
280
     0
281
     0
  0
CLASS
  1
ACMFCFSTANDARDANSI
  2
AcmFCFStdANSI
  3
"Amdt_StdImp|Product Description: AutoCAD Mechanical|Company: Autodesk, Inc."
 90
    33792
280
     0
281
     0
  0
CLASS
  1
ACMWELDSTANDARDANSI
  2
AcmWeldingStdANSI
  3
"Amdt_StdImp|Product Description: AutoCAD Mechanical|Company: Autodesk, Inc."
 90
    33792
280
     0
281
     0
  0
CLASS
  1
ACMIDSTANDARDANSI
  2
AcmIdStdANSI
  3
"Amdt_StdImp|Product Description: AutoCAD Mechanical|Company: Autodesk, Inc."
 90
    33792
280
     0
281
     0
  0
CLASS
  1
ACMDATUMSTANDARDANSI
  2
AcmDatumStdANSI
  3
"Amdt_StdImp|Product Description: AutoCAD Mechanical|Company: Autodesk, Inc."
 90
    33792
280
     0
281
     0
  0
CLASS
  1
ACMBOMSTANDARDANSI
  2
AcmBOMStdANSI
  3
"Amdt_StdImp|Product Description: AutoCAD Mechanical|Company: Autodesk, Inc."
 90
    33792
280
     0
281
     0
  0
CLASS
  1
ACMDETAILSTANDARDANSI
  2
AmdtDetailSymStdANSI
  3
"Amdt_StdImp|Product Description: AutoCAD Mechanical|Company: Autodesk, Inc."
 90
    33792
280
     0
281
     0
  0
CLASS
  1
ACMSECTIONSTANDARDANSI
  2
AmdtSectionSymStdANSI
  3
"Amdt_StdImp|Product Description: AutoCAD Mechanical|Company: Autodesk, Inc."
 90
    33792
280
     0
281
     0
  0
CLASS
  1
ACMCENTERLINESTANDARDANSI
  2
AmdtCenterLineStdANSI
  3
"Amdt_StdImp|Product Description: AutoCAD Mechanical|Company: Autodesk, Inc."
 90
    33792
280
     0
281
     0
  0
CLASS
  1
ACMTHREADLINESTANDARDANSI
  2
AmdtThreadLineStdANSI
  3
"Amdt_StdImp|Product Description: AutoCAD Mechanical|Company: Autodesk, Inc."
 90
    33792
280
     0
281
     0
  0
CLASS
  1
ACMNOTESTANDARDANSI
  2
AmdtNoteStdANSI
  3
"Amdt_StdImp|Product Description: AutoCAD Mechanical|Company: Autodesk, Inc."
 90
    33792
280
     0
281
     0
  0
CLASS
  1
ACMTAPERSTANDARDANSI
  2
AcmTaperStdANSI
  3
"Amdt_StdImp|Product Description: AutoCAD Mechanical|Company: Autodesk, Inc."
 90
    33792
280
     0
281
     0
  0
CLASS
  1
ACMANOOTATIONVIEWSTANDARDANSI
  2
AmdtAnViewStdANSI
  3
"Amdt_StdImp|Product Description: AutoCAD Mechanical|Company: Autodesk, Inc."
 90
    33792
280
     0
281
     0
  0
CLASS
  1
ACAMGLAYSTD
  2
AcAmgLayStd
  3
"AmgLay|Product Description: AutoCAD Mechanical|Company: Autodesk, Inc."
 90
    33792
280
     0
281
     0
  0
CLASS
  1
ACAMGDIMSTD
  2
AcAmgDimStd
  3
"AmgDim|Product Description: AutoCAD Mechanical|Company: Autodesk, Inc."
 90
    33792
280
     0
281
     0
  0
CLASS
  1
AMGOBJPROPCFG
  2
AmgObjPropCfg
  3
"AmgLay|Product Description: AutoCAD Mechanical|Company: Autodesk, Inc."
 90
    33792
280
     0
281
     0
  0
CLASS
  1
ACAMGHOLECHARTSTDANSI
  2
AcAmgHoleChartStdANSI
  3
AmgDim|Product Description: AutoCAD Mechanical|Company: Autodesk, Inc.
 90
    33792
280
     0
281
     0
  0
CLASS
  1
ACAMGTITLESTD
  2
AcAmgTitleStd
  3
"AmgTitle|Product Description: AutoCAD Mechanical|Company: Autodesk, Inc."
 90
    33792
280
     0
281
     0
  0
CLASS
  1
AMDTNOTETEMPLATEDB
  2
AmdtNoteTemplateDB
  3
AcmSymBB|Product Description: AutoCAD Mechanical|Company: Autodesk, Inc.
 90
    33792
280
     0
281
     0
  0
CLASS
  1
CELLSTYLEMAP
  2
AcDbCellStyleMap
  3
ObjectDBX Classes
 90
     1152
280
     0
281
     0
  0
CLASS
  1
ACDBPLACEHOLDER
  2
AcDbPlaceHolder
  3
ObjectDBX Classes
 90
        0
280
     0
281
     0
  0
CLASS
  1
LAYOUT
  2
AcDbLayout
  3
ObjectDBX Classes
 90
        0
280
     0
281
     0
  0
ENDSEC
  0
SECTION
  2
TABLES
  0
TABLE
  2
VPORT
  5
8
102
{ACAD_XDICTIONARY
360
C46
102
}
330
0
100
AcDbSymbolTable
 70
     1
  0
VPORT
  5
B7A
330
8
100
AcDbSymbolTableRecord
100
AcDbViewportTableRecord
  2
*Active
 70
     0
 10
0.0
 20
0.0
 11
1.0
 21
1.0
 12
5.388427761602712
 22
4.482656939587512
 13
0.0
 23
0.0
 14
1.0
 24
1.0
 15
0.0
 25
0.0
 16
0.0
 26
0.0
 36
1.0
 17
0.0
 27
0.0
 37
0.0
 40
4.437885086182019
 41
2.080545229244113
 42
50.0
 43
0.0
 44
0.0
 50
0.0
 51
0.0
 71
     0
 72
   250
 73
     1
 74
     0
 75
     0
 76
     0
 77
     0
 78
     0
281
     0
 65
     1
110
0.0
120
0.0
130
0.0
111
1.0
121
0.0
131
0.0
112
0.0
122
1.0
132
0.0
 79
     0
146
0.0
1001
ACAD_NAV_VCDISPLAY
1070
     3
  0
ENDTAB
  0
TABLE
  2
LTYPE
  5
5
330
0
100
AcDbSymbolTable
 70
    16
  0
LTYPE
  5
11
330
5
100
AcDbSymbolTableRecord
100
AcDbLinetypeTableRecord
  2
BYBLOCK
 70
     0
  3

 72
    65
 73
     0
 40
0.0
  0
LTYPE
  5
12
330
5
100
AcDbSymbolTableRecord
100
AcDbLinetypeTableRecord
  2
BYLAYER
 70
     0
  3

 72
    65
 73
     0
 40
0.0
  0
LTYPE
  5
13
330
5
100
AcDbSymbolTableRecord
100
AcDbLinetypeTableRecord
  2
CONTINUOUS
 70
     0
  3
Solid line
 72
    65
 73
     0
 40
0.0
  0
LTYPE
  5
1F
330
5
100
AcDbSymbolTableRecord
100
AcDbLinetypeTableRecord
  2
CENTER
 70
     0
  3
____ _ ____ _ ____ _ ____ _ ____ _ ____ _ ____ 
 72
    65
 73
     4
 40
2.0
 49
1.25
 74
     0
 49
-0.25
 74
     0
 49
0.25
 74
     0
 49
-0.25
 74
     0
  0
LTYPE
  5
20
330
5
100
AcDbSymbolTableRecord
100
AcDbLinetypeTableRecord
  2
HIDDEN
 70
     0
  3
__ __ __ __ __ __ __ __ __ __ __ __ __ __ __ __
 72
    65
 73
     2
 40
0.375
 49
0.25
 74
     0
 49
-0.125
 74
     0
  0
LTYPE
  5
BC6
330
5
100
AcDbSymbolTableRecord
100
AcDbLinetypeTableRecord
  2
PHANTOM2
 70
     0
  3
Phantom (.5x) ___ _ _ ___ _ _ ___ _ _ ___ _ _
 72
    65
 73
     6
 40
1.25
 49
0.625
 74
     0
 49
-0.125
 74
     0
 49
0.125
 74
     0
 49
-0.125
 74
     0
 49
0.125
 74
     0
 49
-0.125
 74
     0
  0
LTYPE
  5
C16
330
5
100
AcDbSymbolTableRecord
100
AcDbLinetypeTableRecord
  2
AM_ISO02W050
 70
     0
  3
__ __ __ __ __ __ __ __ __ __ __ __ __ __ __
 72
    65
 73
     2
 40
7.5
 49
6.0
 74
     0
 49
-1.5
 74
     0
  0
LTYPE
  5
C17
330
5
100
AcDbSymbolTableRecord
100
AcDbLinetypeTableRecord
  2
AM_ISO08W050
 70
     0
  3
____ . ____ . ____ . ____ . ____ . ____ . ____
 72
    65
 73
     4
 40
18.0
 49
12.0
 74
     0
 49
-1.5
 74
     0
 49
3.0
 74
     0
 49
-1.5
 74
     0
  0
LTYPE
  5
C18
330
5
100
AcDbSymbolTableRecord
100
AcDbLinetypeTableRecord
  2
AM_ISO09W050
 70
     0
  3
_____ . . _____ . . _____ . . ____ .. ____
 72
    65
 73
     6
 40
22.5
 49
12.0
 74
     0
 49
-1.5
 74
     0
 49
3.0
 74
     0
 49
-1.5
 74
     0
 49
3.0
 74
     0
 49
-1.5
 74
     0
  0
LTYPE
  5
C19
330
5
100
AcDbSymbolTableRecord
100
AcDbLinetypeTableRecord
  2
Amconstr
 70
     0
  3
_______________________
 72
    65
 73
     2
 40
9999.0
 49
9999.0
 74
     0
 49
0.0
 74
     0
  0
LTYPE
  5
C1A
330
5
100
AcDbSymbolTableRecord
100
AcDbLinetypeTableRecord
  2
AM_ISO08W050x2
 70
     0
  3
__ . __ . __ . __ . __ . __
 72
    65
 73
     4
 40
9.0
 49
6.0
 74
     0
 49
-0.75
 74
     0
 49
1.5
 74
     0
 49
-0.75
 74
     0
  0
LTYPE
  5
C1B
330
5
100
AcDbSymbolTableRecord
100
AcDbLinetypeTableRecord
  2
AM_ISO02W050x2
 70
     0
  3
 _ _ _ _ _ _ _ _ _ _ _ _
 72
    65
 73
     2
 40
3.75
 49
3.0
 74
     0
 49
-0.75
 74
     0
  0
LTYPE
  5
C1E
330
5
100
AcDbSymbolTableRecord
100
AcDbLinetypeTableRecord
  2
Amzigzag
 70
     0
  3
/\/-/\/-/\/-/\/-/\/-/\/
 72
    65
 73
     2
 40
11.0001
 49
0.0001
 74
     4
 75
   136
340
C1D
 46
0.04
 50
0.0
 44
0.0
 45
0.0
 49
-11.0
 74
     0
  0
LTYPE
  5
C1F
330
5
100
AcDbSymbolTableRecord
100
AcDbLinetypeTableRecord
  2
CENTER2
 70
     0
  3
Center (.5x) ___ _ ___ _ ___ _ ___ _ ___ _ ___
 72
    65
 73
     4
 40
1.125
 49
0.75
 74
     0
 49
-0.125
 74
     0
 49
0.125
 74
     0
 49
-0.125
 74
     0
  0
LTYPE
  5
C20
330
5
100
AcDbSymbolTableRecord
100
AcDbLinetypeTableRecord
  2
HIDDEN2
 70
     0
  3
Hidden (.5x) _ _ _ _ _ _ _ _ _ _ _ _ _ _ _ _ _
 72
    65
 73
     2
 40
0.1875
 49
0.125
 74
     0
 49
-0.0625
 74
     0
  0
LTYPE
  5
C21
330
5
100
AcDbSymbolTableRecord
100
AcDbLinetypeTableRecord
  2
Amzigzag2
 70
     0
  3
/\/-/\/-/\/-/\/-/\/-/\/
 72
    65
 73
     2
 40
0.4401
 49
0.0001
 74
     4
 75
   136
340
C1D
 46
0.0016
 50
0.0
 44
0.0
 45
0.0
 49
-0.4400000000000002
 74
     0
  0
LTYPE
  5
C2F
330
5
100
AcDbSymbolTableRecord
100
AcDbLinetypeTableRecord
  2
ACANSTGB
 70
     0
  3
__ . . __ . .
 72
    65
 73
     6
 40
0.35433070866
 49
0.15748031496
 74
     0
 49
-0.03937007874
 74
     0
 49
0.03937007874
 74
     0
 49
-0.03937007874
 74
     0
 49
0.03937007874
 74
     0
 49
-0.03937007874
 74
     0
  0
LTYPE
  5
C30
330
5
100
AcDbSymbolTableRecord
100
AcDbLinetypeTableRecord
  2
ACANSTGL
 70
     0
  3
_ _ _ _ _
 72
    65
 73
     2
 40
0.11811023622
 49
0.07874015748
 74
     0
 49
-0.03937007874
 74
     0
  0
ENDTAB
  0
TABLE
  2
LAYER
  5
2
102
{ACAD_XDICTIONARY
360
CA1
102
}
330
0
100
AcDbSymbolTable
 70
     5
  0
LAYER
  5
E
102
{ACAD_XDICTIONARY
360
C3A
102
}
330
2
100
AcDbSymbolTableRecord
100
AcDbLayerTableRecord
  2
0
 70
     0
 62
     7
  6
CONTINUOUS
370
    -3
390
B14
  0
LAYER
  5
23
102
{ACAD_XDICTIONARY
360
C3C
102
}
330
2
100
AcDbSymbolTableRecord
100
AcDbLayerTableRecord
  2
2
 70
     0
 62
     2
  6
CONTINUOUS
370
    -3
390
B14
  0
LAYER
  5
24
102
{ACAD_XDICTIONARY
360
C3E
102
}
330
2
100
AcDbSymbolTableRecord
100
AcDbLayerTableRecord
  2
3
 70
     0
 62
     3
  6
CONTINUOUS
370
    -3
390
B14
  0
LAYER
  5
25
102
{ACAD_XDICTIONARY
360
C40
102
}
330
2
100
AcDbSymbolTableRecord
100
AcDbLayerTableRecord
  2
4
 70
     0
 62
     4
  6
CONTINUOUS
370
    -3
390
B14
  0
LAYER
  5
B30
330
2
100
AcDbSymbolTableRecord
100
AcDbLayerTableRecord
  2
Defpoints
 70
     0
 62
     7
  6
CONTINUOUS
290
     0
370
    -3
390
B14
  0
ENDTAB
  0
TABLE
  2
STYLE
  5
3
330
0
100
AcDbSymbolTable
 70
     6
  0
STYLE
  5
F
330
3
100
AcDbSymbolTableRecord
100
AcDbTextStyleTableRecord
  2
STANDARD
 70
     0
 40
0.0
 41
1.0
 50
0.0
 71
     0
 42
0.2
  3
txt
  4

  0
STYLE
  5
1C
330
3
100
AcDbSymbolTableRecord
100
AcDbTextStyleTableRecord
  2
SIMPLEX
 70
     0
 40
0.0
 41
1.0
 50
0.0
 71
     0
 42
0.078
  3
SIMPLEX.shx
  4

  0
STYLE
  5
1E
330
3
100
AcDbSymbolTableRecord
100
AcDbTextStyleTableRecord
  2
T
 70
     0
 40
0.0
 41
1.0
 50
0.0
 71
     0
 42
1.0
  3
ROMI____.PFB
  4

  0
STYLE
  5
C1D
330
3
100
AcDbSymbolTableRecord
100
AcDbTextStyleTableRecord
  2

 70
     1
 40
0.0
 41
1.0
 50
0.0
 71
     0
 42
0.078
  3
genltshp.shx
  4

  0
STYLE
  5
C2D
330
3
100
AcDbSymbolTableRecord
100
AcDbTextStyleTableRecord
  2
ACANSTS
 70
     0
 40
1.0
 41
1.0
 50
0.0
 71
     0
 42
0.078
  3
romans.shx
  4

  0
STYLE
  5
C2E
330
3
100
AcDbSymbolTableRecord
100
AcDbTextStyleTableRecord
  2
ACANSGDT
 70
     0
 40
0.0
 41
1.0
 50
0.0
 71
     0
 42
0.078
  3
amgdt.shx
  4

  0
ENDTAB
  0
TABLE
  2
VIEW
  5
6
330
0
100
AcDbSymbolTable
 70
     0
  0
ENDTAB
  0
TABLE
  2
UCS
  5
7
330
0
100
AcDbSymbolTable
 70
     0
  0
ENDTAB
  0
TABLE
  2
APPID
  5
9
330
0
100
AcDbSymbolTable
 70
    14
  0
APPID
  5
10
330
9
100
AcDbSymbolTableRecord
100
AcDbRegAppTableRecord
  2
ACAD
 70
     0
  0
APPID
  5
BD4
330
9
100
AcDbSymbolTableRecord
100
AcDbRegAppTableRecord
  2
MCAD_NO_VIS
 70
     0
  0
APPID
  5
BD5
330
9
100
AcDbSymbolTableRecord
100
AcDbRegAppTableRecord
  2
ACAD_TEMP_GRAPHIC
 70
     0
  0
APPID
  5
BDF
330
9
100
AcDbSymbolTableRecord
100
AcDbRegAppTableRecord
  2
ACATTRIBSERVICES
 70
     0
  0
APPID
  5
BF7
330
9
100
AcDbSymbolTableRecord
100
AcDbRegAppTableRecord
  2
DESIGNERASSEMBLIES
 70
     0
  0
APPID
  5
C13
330
9
100
AcDbSymbolTableRecord
100
AcDbRegAppTableRecord
  2
ACAD_DSTYLE_DIMJAG
 70
     0
  0
APPID
  5
C14
330
9
100
AcDbSymbolTableRecord
100
AcDbRegAppTableRecord
  2
ACAD_DSTYLE_DIMBREAK
 70
     0
  0
APPID
  5
C38
330
9
100
AcDbSymbolTableRecord
100
AcDbRegAppTableRecord
  2
ACAD_NAV_VCDISPLAY
 70
     0
  0
APPID
  5
C81
330
9
100
AcDbSymbolTableRecord
100
AcDbRegAppTableRecord
  2
ACAD_MLEADERVER
 70
     0
  0
APPID
  5
C84
330
9
100
AcDbSymbolTableRecord
100
AcDbRegAppTableRecord
  2
ACAD_DSTYLE_DIMARC_LENGTH_SYMBOL
 70
     0
  0
APPID
  5
C85
330
9
100
AcDbSymbolTableRecord
100
AcDbRegAppTableRecord
  2
ACAD_DSTYLE_DIM_LINETYPE
 70
     0
  0
APPID
  5
C86
330
9
100
AcDbSymbolTableRecord
100
AcDbRegAppTableRecord
  2
ACAD_DSTYLE_DIM_EXT1_LINETYPE
 70
     0
  0
APPID
  5
C87
330
9
100
AcDbSymbolTableRecord
100
AcDbRegAppTableRecord
  2
ACAD_DSTYLE_DIM_EXT2_LINETYPE
 70
     0
  0
APPID
  5
C97
330
9
100
AcDbSymbolTableRecord
100
AcDbRegAppTableRecord
  2
ACAD_EXEMPT_FROM_CAD_STANDARDS
 70
     0
  0
ENDTAB
  0
TABLE
  2
DIMSTYLE
  5
A
330
0
100
AcDbSymbolTable
 70
     7
100
AcDbDimStyleTable
 71
     1
340
B05
  0
DIMSTYLE
105
B05
102
{ACAD_REACTORS
330
B3E
330
B60
102
}
330
A
100
AcDbSymbolTableRecord
100
AcDbDimStyleTableRecord
  2
STANDARD
 70
     0
340
F
  0
DIMSTYLE
105
C12
330
A
100
AcDbSymbolTableRecord
100
AcDbDimStyleTableRecord
  2
AM_ANSI
 70
     0
  4
mm
 41
0.12
 42
0.05
 43
0.5
 44
0.1
 47
0.1
 48
0.1
 78
     7
 79
     2
140
0.12
141
0.0
146
0.71
147
0.06
176
   256
177
   256
178
     2
274
     4
284
     7
340
F
371
    -1
372
    -1
1001
ACAD_DSTYLE_DIMJAG
1070
   388
1040
1.5
1001
ACAD_DSTYLE_DIMBREAK
1070
   391
1040
0.125
1001
ACAD_DSTYLE_DIMARC_LENGTH_SYMBOL
1070
   379
1070
     1
1001
ACAD_DSTYLE_DIM_LINETYPE
1070
   380
1005
11
1001
ACAD_DSTYLE_DIM_EXT1_LINETYPE
1070
   381
1005
11
1001
ACAD_DSTYLE_DIM_EXT2_LINETYPE
1070
   382
1005
11
  0
DIMSTYLE
105
C22
330
A
100
AcDbSymbolTableRecord
100
AcDbDimStyleTableRecord
  2
AM_ANSI$3
 70
     0
  4
mm
 41
0.12
 42
0.05
 43
0.5
 44
0.1
 47
0.1
 48
0.1
 78
     7
 79
     2
140
0.12
141
0.0
146
0.71
147
0.06
176
   256
177
   256
178
     2
274
     4
284
     7
288
     1
289
     0
340
F
371
    -1
372
    -1
1001
ACAD_DSTYLE_DIMBREAK
1070
   391
1040
0.125
1001
ACAD_DSTYLE_DIMJAG
1070
   388
1040
1.5
1001
ACAD_DSTYLE_DIMARC_LENGTH_SYMBOL
1070
   379
1070
     1
1001
ACAD_DSTYLE_DIM_LINETYPE
1070
   380
1005
11
1001
ACAD_DSTYLE_DIM_EXT1_LINETYPE
1070
   381
1005
11
1001
ACAD_DSTYLE_DIM_EXT2_LINETYPE
1070
   382
1005
11
  0
DIMSTYLE
105
C23
330
A
100
AcDbSymbolTableRecord
100
AcDbDimStyleTableRecord
  2
AM_ANSI$4
 70
     0
  4
mm
 41
0.12
 42
0.05
 43
0.5
 44
0.1
 47
0.1
 48
0.1
 78
     7
 79
     2
140
0.12
141
0.0
146
0.71
147
0.06
176
   256
177
   256
178
     2
274
     4
284
     7
288
     1
289
     0
340
F
371
    -1
372
    -1
1001
ACAD_DSTYLE_DIMBREAK
1070
   391
1040
0.125
1001
ACAD_DSTYLE_DIMJAG
1070
   388
1040
1.5
1001
ACAD_DSTYLE_DIMARC_LENGTH_SYMBOL
1070
   379
1070
     1
1001
ACAD_DSTYLE_DIM_LINETYPE
1070
   380
1005
11
1001
ACAD_DSTYLE_DIM_EXT1_LINETYPE
1070
   381
1005
11
1001
ACAD_DSTYLE_DIM_EXT2_LINETYPE
1070
   382
1005
11
  0
DIMSTYLE
105
C24
330
A
100
AcDbSymbolTableRecord
100
AcDbDimStyleTableRecord
  2
AM_ANSI$7
 70
     0
  4
mm
 41
0.12
 42
0.05
 43
0.5
 44
0.1
 47
0.1
 48
0.1
 78
     7
 79
     2
140
0.12
141
0.0
146
0.71
147
0.06
176
   256
177
   256
178
     2
274
     4
284
     7
340
F
371
    -1
372
    -1
1001
ACAD_DSTYLE_DIMBREAK
1070
   391
1040
0.125
1001
ACAD_DSTYLE_DIMJAG
1070
   388
1040
1.5
1001
ACAD_DSTYLE_DIMARC_LENGTH_SYMBOL
1070
   379
1070
     1
1001
ACAD_DSTYLE_DIM_LINETYPE
1070
   380
1005
11
1001
ACAD_DSTYLE_DIM_EXT1_LINETYPE
1070
   381
1005
11
1001
ACAD_DSTYLE_DIM_EXT2_LINETYPE
1070
   382
1005
11
  0
DIMSTYLE
105
C25
330
A
100
AcDbSymbolTableRecord
100
AcDbDimStyleTableRecord
  2
AM_ANSI$SF
 70
     0
  4
mm
 41
0.12
 42
0.05
 43
0.5
 44
0.1
 47
0.1
 48
0.1
 75
     1
 76
     1
 78
     7
 79
     2
140
0.12
141
0.0
146
0.71
147
0.06
176
   256
177
   256
178
     2
274
     4
284
     7
340
F
371
    -1
372
    -1
1001
ACAD_DSTYLE_DIMBREAK
1070
   391
1040
0.125
1001
ACAD_DSTYLE_DIMJAG
1070
   388
1040
1.5
1001
ACAD_DSTYLE_DIMARC_LENGTH_SYMBOL
1070
   379
1070
     1
1001
ACAD_DSTYLE_DIM_LINETYPE
1070
   380
1005
11
1001
ACAD_DSTYLE_DIM_EXT1_LINETYPE
1070
   381
1005
11
1001
ACAD_DSTYLE_DIM_EXT2_LINETYPE
1070
   382
1005
11
  0
DIMSTYLE
105
C2A
330
A
100
AcDbSymbolTableRecord
100
AcDbDimStyleTableRecord
  2
AM_ANSI$SH
 70
     0
  4
mm
 41
0.12
 42
0.05
 43
0.5
 44
0.1
 47
0.1
 48
0.1
 75
     1
 76
     1
 78
     7
 79
     2
140
0.12
141
0.0
146
0.71
147
0.06
173
     1
176
   256
177
   256
178
     2
274
     4
284
     7
340
F
343
C26
371
    -1
372
    -1
1001
ACAD_DSTYLE_DIMBREAK
1070
   391
1040
0.125
1001
ACAD_DSTYLE_DIMJAG
1070
   388
1040
1.5
1001
ACAD_DSTYLE_DIMARC_LENGTH_SYMBOL
1070
   379
1070
     1
1001
ACAD_DSTYLE_DIM_LINETYPE
1070
   380
1005
11
1001
ACAD_DSTYLE_DIM_EXT1_LINETYPE
1070
   381
1005
11
1001
ACAD_DSTYLE_DIM_EXT2_LINETYPE
1070
   382
1005
11
  0
ENDTAB
  0
TABLE
  2
BLOCK_RECORD
  5
1
330
0
100
AcDbSymbolTable
 70
     4
  0
BLOCK_RECORD
  5
17
330
1
100
AcDbSymbolTableRecord
100
AcDbBlockTableRecord
  2
*MODEL_SPACE
340
B17
  0
BLOCK_RECORD
  5
14
330
1
100
AcDbSymbolTableRecord
100
AcDbBlockTableRecord
  2
*PAPER_SPACE
340
B18
  0
BLOCK_RECORD
  5
B31
330
1
100
AcDbSymbolTableRecord
100
AcDbBlockTableRecord
  2
*D0
340
0
  0
BLOCK_RECORD
  5
B3F
330
1
100
AcDbSymbolTableRecord
100
AcDbBlockTableRecord
  2
*D1
340
0
  0
BLOCK_RECORD
  5
B61
330
1
100
AcDbSymbolTableRecord
100
AcDbBlockTableRecord
  2
*D2
340
0
  0
BLOCK_RECORD
  5
C26
330
1
100
AcDbSymbolTableRecord
100
AcDbBlockTableRecord
  2
GENAXEH
340
0
  0
ENDTAB
  0
ENDSEC
  0
SECTION
  2
BLOCKS
  0
BLOCK
  5
29
330
17
100
AcDbEntity
  8
0
100
AcDbBlockBegin
  2
*MODEL_SPACE
 70
     0
 10
0.0
 20
0.0
 30
0.0
  3
*MODEL_SPACE
  1

  0
ENDBLK
  5
2A
330
17
100
AcDbEntity
  8
0
100
AcDbBlockEnd
  0
BLOCK
  5
27
330
14
100
AcDbEntity
 67
     1
  8
0
100
AcDbBlockBegin
  2
*PAPER_SPACE
 70
     0
 10
0.0
 20
0.0
 30
0.0
  3
*PAPER_SPACE
  1

  0
ENDBLK
  5
28
330
14
100
AcDbEntity
 67
     1
  8
0
100
AcDbBlockEnd
  0
BLOCK
  5
B3C
330
B31
100
AcDbEntity
  8
0
100
AcDbBlockBegin
  2
*D0
 70
     1
 10
0.0
 20
0.0
 30
0.0
  3
*D0
  1

  0
LINE
  5
B32
330
B31
100
AcDbEntity
  8
3
 62
     0
370
    -2
100
AcDbLine
 10
5.05776204478728
 20
4.682045571620193
 30
0.0
 11
5.05776204478728
 21
5.317095167037233
 31
0.0
  0
LINE
  5
B33
330
B31
100
AcDbEntity
  8
3
 62
     0
370
    -2
100
AcDbLine
 10
5.620262044787281
 20
4.682045571620193
 30
0.0
 11
5.620262044787281
 21
5.317095167037233
 31
0.0
  0
LINE
  5
B34
330
B31
100
AcDbEntity
  8
3
 62
     0
370
    -2
100
AcDbLine
 10
5.12026204478728
 20
5.285845167037233
 30
0.0
 11
5.198773949549186
 21
5.285845167037233
 31
0.0
  0
LINE
  5
B35
330
B31
100
AcDbEntity
  8
3
 62
     0
370
    -2
100
AcDbLine
 10
5.557762044787281
 20
5.285845167037233
 30
0.0
 11
5.479250140025375
 21
5.285845167037233
 31
0.0
  0
SOLID
  5
B36
330
B31
100
AcDbEntity
  8
3
 62
     0
100
AcDbTrace
 10
5.12026204478728
 20
5.2962618337039
 30
0.0
 11
5.12026204478728
 21
5.275428500370566
 31
0.0
 12
5.05776204478728
 22
5.285845167037233
 32
0.0
 13
5.05776204478728
 23
5.285845167037233
 33
0.0
  0
SOLID
  5
B37
330
B31
100
AcDbEntity
  8
3
 62
     0
100
AcDbTrace
 10
5.557762044787281
 20
5.2962618337039
 30
0.0
 11
5.557762044787281
 21
5.275428500370566
 31
0.0
 12
5.620262044787281
 22
5.285845167037233
 32
0.0
 13
5.620262044787281
 23
5.285845167037233
 33
0.0
  0
MTEXT
  5
B38
330
B31
100
AcDbEntity
  8
3
 62
     0
100
AcDbMText
 10
5.33901204478728
 20
5.285845167037233
 30
0.0
 40
0.0625
 41
0.0
 71
     5
 72
     1
  1
\A1;.563
  7
SIMPLEX
 73
     1
 44
1.0
1001
ACAD
1000
MTEXTBEGIN
1070
    73
1070
     1
1070
    44
1040
1.0
1070
    74
1070
     0
1000
MTEXTEND
  0
POINT
  5
B39
330
B31
100
AcDbEntity
  8
Defpoints
 62
     0
100
AcDbPoint
 10
5.05776204478728
 20
4.650795571620193
 30
0.0
  0
POINT
  5
B3A
330
B31
100
AcDbEntity
  8
Defpoints
 62
     0
100
AcDbPoint
 10
5.620262044787281
 20
4.650795571620193
 30
0.0
  0
POINT
  5
B3B
330
B31
100
AcDbEntity
  8
Defpoints
 62
     0
100
AcDbPoint
 10
5.620262044787281
 20
5.285845167037233
 30
0.0
  0
ENDBLK
  5
B3D
330
B31
100
AcDbEntity
  8
0
100
AcDbBlockEnd
  0
BLOCK
  5
B4A
330
B3F
100
AcDbEntity
  8
0
100
AcDbBlockBegin
  2
*D1
 70
     1
 10
0.0
 20
0.0
 30
0.0
  3
*D1
  1

  0
LINE
  5
B40
330
B3F
100
AcDbEntity
  8
3
 62
     0
370
    -2
100
AcDbLine
 10
4.74526204478728
 20
4.682045571620193
 30
0.0
 11
4.74526204478728
 21
5.593530206719729
 31
0.0
  0
LINE
  5
B41
330
B3F
100
AcDbEntity
  8
3
 62
     0
370
    -2
100
AcDbLine
 10
5.932762044787281
 20
4.682045571620193
 30
0.0
 11
5.932762044787281
 21
5.593530206719729
 31
0.0
  0
LINE
  5
B42
330
B3F
100
AcDbEntity
  8
3
 62
     0
370
    -2
100
AcDbLine
 10
4.80776204478728
 20
5.562280206719729
 30
0.0
 11
5.180916806692042
 21
5.562280206719729
 31
0.0
  0
LINE
  5
B43
330
B3F
100
AcDbEntity
  8
3
 62
     0
370
    -2
100
AcDbLine
 10
5.870262044787281
 20
5.562280206719729
 30
0.0
 11
5.497107282882518
 21
5.562280206719729
 31
0.0
  0
SOLID
  5
B44
330
B3F
100
AcDbEntity
  8
3
 62
     0
100
AcDbTrace
 10
4.80776204478728
 20
5.572696873386395
 30
0.0
 11
4.80776204478728
 21
5.551863540053063
 31
0.0
 12
4.74526204478728
 22
5.562280206719729
 32
0.0
 13
4.74526204478728
 23
5.562280206719729
 33
0.0
  0
SOLID
  5
B45
330
B3F
100
AcDbEntity
  8
3
 62
     0
100
AcDbTrace
 10
5.870262044787281
 20
5.572696873386395
 30
0.0
 11
5.870262044787281
 21
5.551863540053063
 31
0.0
 12
5.932762044787281
 22
5.562280206719729
 32
0.0
 13
5.932762044787281
 23
5.562280206719729
 33
0.0
  0
MTEXT
  5
B46
330
B3F
100
AcDbEntity
  8
3
 62
     0
100
AcDbMText
 10
5.33901204478728
 20
5.562280206719729
 30
0.0
 40
0.0625
 41
0.0
 71
     5
 72
     1
  1
\A1;1.188
  7
SIMPLEX
 73
     1
 44
1.0
1001
ACAD
1000
MTEXTBEGIN
1070
    73
1070
     1
1070
    44
1040
1.0
1070
    74
1070
     0
1000
MTEXTEND
  0
POINT
  5
B47
330
B3F
100
AcDbEntity
  8
Defpoints
 62
     0
100
AcDbPoint
 10
4.74526204478728
 20
4.650795571620193
 30
0.0
  0
POINT
  5
B48
330
B3F
100
AcDbEntity
  8
Defpoints
 62
     0
100
AcDbPoint
 10
5.932762044787281
 20
4.650795571620193
 30
0.0
  0
POINT
  5
B49
330
B3F
100
AcDbEntity
  8
Defpoints
 62
     0
100
AcDbPoint
 10
5.932762044787281
 20
5.562280206719729
 30
0.0
  0
ENDBLK
  5
B4B
330
B3F
100
AcDbEntity
  8
0
100
AcDbBlockEnd
  0
BLOCK
  5
B6C
330
B61
100
AcDbEntity
  8
0
100
AcDbBlockBegin
  2
*D2
 70
     1
 10
0.0
 20
0.0
 30
0.0
  3
*D2
  1

  0
LINE
  5
B62
330
B61
100
AcDbEntity
  8
3
 62
     0
370
    -2
100
AcDbLine
 10
5.682762044787281
 20
4.932045571620193
 30
0.0
 11
6.501902360875717
 21
4.932045571620191
 31
0.0
  0
LINE
  5
B63
330
B61
100
AcDbEntity
  8
3
 62
     0
370
    -2
100
AcDbLine
 10
5.682762044787281
 20
4.369545571620193
 30
0.0
 11
6.501902360875717
 21
4.369545571620191
 31
0.0
  0
LINE
  5
B64
330
B61
100
AcDbEntity
  8
3
 62
     0
370
    -2
100
AcDbLine
 10
6.470652360875717
 20
4.869545571620191
 30
0.0
 11
6.470652360875717
 21
4.791033666858286
 31
0.0
  0
LINE
  5
B65
330
B61
100
AcDbEntity
  8
3
 62
     0
370
    -2
100
AcDbLine
 10
6.470652360875717
 20
4.432045571620191
 30
0.0
 11
6.470652360875717
 21
4.510557476382096
 31
0.0
  0
SOLID
  5
B66
330
B61
100
AcDbEntity
  8
3
 62
     0
100
AcDbTrace
 10
6.460235694209051
 20
4.869545571620191
 30
0.0
 11
6.481069027542385
 21
4.869545571620191
 31
0.0
 12
6.470652360875717
 22
4.932045571620191
 32
0.0
 13
6.470652360875717
 23
4.932045571620191
 33
0.0
  0
SOLID
  5
B67
330
B61
100
AcDbEntity
  8
3
 62
     0
100
AcDbTrace
 10
6.460235694209051
 20
4.432045571620191
 30
0.0
 11
6.481069027542385
 21
4.432045571620191
 31
0.0
 12
6.470652360875717
 22
4.369545571620191
 32
0.0
 13
6.470652360875717
 23
4.369545571620191
 33
0.0
  0
MTEXT
  5
B68
330
B61
100
AcDbEntity
  8
3
 62
     0
100
AcDbMText
 10
6.470652360875717
 20
4.650795571620193
 30
0.0
 40
0.0625
 41
0.0
 71
     5
 72
     1
  1
\A1;.563
  7
SIMPLEX
 11
0.0000000000000001
 21
1.0
 31
0.0
 73
     1
 44
1.0
1001
ACAD
1000
MTEXTBEGIN
1070
    73
1070
     1
1070
    44
1040
1.0
1070
    74
1070
     0
1000
MTEXTEND
  0
POINT
  5
B69
330
B61
100
AcDbEntity
  8
Defpoints
 62
     0
100
AcDbPoint
 10
5.651512044787281
 20
4.932045571620193
 30
0.0
  0
POINT
  5
B6A
330
B61
100
AcDbEntity
  8
Defpoints
 62
     0
100
AcDbPoint
 10
5.651512044787281
 20
4.369545571620193
 30
0.0
  0
POINT
  5
B6B
330
B61
100
AcDbEntity
  8
Defpoints
 62
     0
100
AcDbPoint
 10
6.470652360875717
 20
4.369545571620191
 30
0.0
  0
ENDBLK
  5
B6D
330
B61
100
AcDbEntity
  8
0
100
AcDbBlockEnd
  0
BLOCK
  5
C28
330
C26
100
AcDbEntity
  8
0
100
AcDbBlockBegin
  2
GENAXEH
 70
     0
 10
0.0
 20
0.0
 30
0.0
  3
GENAXEH
  1

  0
LINE
  5
C27
330
C26
100
AcDbEntity
  8
0
100
AcDbLine
 10
-1.0
 20
0.0
 30
0.0
 11
1.0
 21
0.0
 31
0.0
  0
ENDBLK
  5
C29
330
C26
100
AcDbEntity
  8
0
100
AcDbBlockEnd
  0
ENDSEC
  0
SECTION
  2
ENTITIES
  0
LINE
  5
2D
330
17
100
AcDbEntity
  8
0
100
AcDbLine
 10
5.141591727105526
 20
2.991757873294583
 30
0.0
 11
5.649581665495596
 21
2.991757873294583
 31
0.0
  0
LINE
  5
2E
330
17
100
AcDbEntity
  8
0
100
AcDbLine
 10
5.141591727105526
 20
3.050372096954966
 30
0.0
 11
5.649581665495596
 21
3.050372096954966
 31
0.0
  0
TEXT
  5
2F
330
17
100
AcDbEntity
  8
3
100
AcDbText
 10
5.156877051653903
 20
3.00950176296771
 30
0.0
 40
0.0247685554963471
  1
DIMENSIONS ARE IN INCHES
 41
0.9163641132346489
  7
SIMPLEX
 72
     5
 11
5.633514374917682
 21
3.00950176296771
 31
0.0
100
AcDbText
  0
TEXT
  5
31
330
17
100
AcDbEntity
  8
3
100
AcDbText
 10
5.156877051653903
 20
3.069618737849293
 30
0.0
 40
0.0247685554963471
  1
UNLESS OTHERWISE SPECIFIED
 41
0.8436671689696881
  7
SIMPLEX
 72
     5
 11
5.633514374917682
 21
3.069618737849293
 31
0.0
100
AcDbText
  0
LINE
  5
32
330
17
100
AcDbEntity
  8
0
100
AcDbLine
 10
5.141591727105526
 20
2.671361596703559
 30
0.0
 11
5.649581665495596
 21
2.671361596703559
 31
0.0
  0
LINE
  5
33
330
17
100
AcDbEntity
  8
0
100
AcDbLine
 10
5.141591727105526
 20
3.108996732225301
 30
0.0
 11
7.713627956857854
 21
3.108996732225301
 31
0.0
  0
LINE
  5
36
330
17
100
AcDbEntity
  8
4
100
AcDbLine
 10
8.151127956857857
 20
2.200996382225322
 30
0.0
 11
2.626127956857856
 21
2.200996382225323
 31
0.0
  0
LINE
  5
37
330
17
100
AcDbEntity
  8
4
100
AcDbLine
 10
7.713627956857854
 20
2.600996382225321
 30
0.0
 11
3.063627956857857
 21
2.600996382225323
 31
0.0
  0
LINE
  5
38
330
17
100
AcDbEntity
  8
4
100
AcDbLine
 10
7.713627956857854
 20
6.050996382225322
 30
0.0
 11
3.063627956857857
 21
6.050996382225322
 31
0.0
  0
LINE
  5
39
330
17
100
AcDbEntity
  8
4
100
AcDbLine
 10
2.626127956857856
 20
2.200996382225323
 30
0.0
 11
2.626127956857856
 21
6.450996382225322
 31
0.0
  0
LINE
  5
3A
330
17
100
AcDbEntity
  8
4
100
AcDbLine
 10
3.063627956857857
 20
2.600996382225323
 30
0.0
 11
3.063627956857857
 21
6.050996382225322
 31
0.0
  0
LINE
  5
3F
330
17
100
AcDbEntity
  8
3
100
AcDbLine
 10
3.125882080488908
 20
3.186933882225323
 30
0.0
 11
3.063627956857857
 21
3.186933882225323
 31
0.0
  0
TEXT
  5
40
330
17
100
AcDbEntity
  8
2
100
AcDbText
 10
3.077690639960187
 20
3.528250898032833
 30
0.0
 40
0.039
  1
4
  7
SIMPLEX
 72
     1
 11
3.091619211388759
 21
3.528250898032833
 31
0.0
100
AcDbText
  0
LINE
  5
41
330
17
100
AcDbEntity
  8
3
100
AcDbLine
 10
3.125882080488908
 20
3.902949507225323
 30
0.0
 11
3.063627956857857
 21
3.902949507225323
 31
0.0
  0
TEXT
  5
42
330
17
100
AcDbEntity
  8
2
100
AcDbText
 10
3.078619211388758
 20
4.216283498112106
 30
0.0
 40
0.039
  1
3
  7
SIMPLEX
 72
     1
 11
3.091619211388758
 21
4.216283498112106
 31
0.0
100
AcDbText
  0
LINE
  5
43
330
17
100
AcDbEntity
  8
4
100
AcDbLine
 10
5.141591727105526
 20
3.108996732225301
 30
0.0
 11
5.141591727105526
 21
2.6009963822253
 31
0.0
  0
TEXT
  5
4F
330
17
100
AcDbEntity
  8
3
100
AcDbText
 10
5.22977299411402
 20
2.684786689412248
 30
0.0
 40
0.0309098445084086
  1
HOLES %%P .005
  7
SIMPLEX
 72
     1
 11
5.397569292873953
 21
2.684786689412248
 31
0.0
100
AcDbText
  0
TEXT
  5
50
330
17
100
AcDbEntity
  8
3
100
AcDbText
 10
5.275103401581991
 20
2.640003886512207
 30
0.0
 40
0.0210186942657178
  1
DO NOT SCALE
  7
SIMPLEX
 72
     1
 11
5.393208445551262
 21
2.640003886512207
 31
0.0
100
AcDbText
  0
TEXT
  5
51
330
17
100
AcDbEntity
  8
3
100
AcDbText
 10
5.257087377925661
 20
2.610057444199167
 30
0.0
 40
0.0210186942657178
  1
READ ALL NOTES
  7
SIMPLEX
 72
     1
 11
5.393208445551262
 21
2.610057444199167
 31
0.0
100
AcDbText
  0
TEXT
  5
52
330
17
100
AcDbEntity
  8
3
100
AcDbText
 10
5.254059300513485
 20
2.944769981853234
 30
0.0
 40
0.0309098445084086
  1
TOLERANCES
  7
SIMPLEX
 72
     1
 11
5.397569292873953
 21
2.944769981853234
 31
0.0
100
AcDbText
  0
TEXT
  5
53
330
17
100
AcDbEntity
  8
3
100
AcDbText
 10
5.269514222767688
 20
2.896739908898488
 30
0.0
 40
0.0309098445084086
  1
.XX %%P .010
  7
SIMPLEX
 72
     1
 11
5.397569292873953
 21
2.896739908898488
 31
0.0
100
AcDbText
  0
TEXT
  5
54
330
17
100
AcDbEntity
  8
3
100
AcDbText
 10
5.233452737507879
 20
2.843751604026921
 30
0.0
 40
0.0309098445084086
  1
.XXX %%P .005 
  7
SIMPLEX
 72
     1
 11
5.397569292873953
 21
2.843751604026921
 31
0.0
100
AcDbText
  0
TEXT
  5
55
330
17
100
AcDbEntity
  8
3
100
AcDbText
 10
5.215789969217359
 20
2.737774994283813
 30
0.0
 40
0.0309098445084086
  1
ANGLES %%P 1/2%%D
  7
SIMPLEX
 72
     1
 11
5.397569292873953
 21
2.737774994283813
 31
0.0
100
AcDbText
  0
TEXT
  5
56
330
17
100
AcDbEntity
  8
3
100
AcDbText
 10
5.17089709981229
 20
2.790763299155377
 30
0.0
 40
0.0309098445084086
  1
FRACTIONS %%P 1/32
  7
SIMPLEX
 72
     1
 11
5.397569292873953
 21
2.790763299155377
 31
0.0
100
AcDbText
  0
LINE
  5
59
330
17
100
AcDbEntity
  8
3
100
AcDbLine
 10
3.125882080488908
 20
4.618965132225323
 30
0.0
 11
3.063627956857857
 21
4.618965132225323
 31
0.0
  0
TEXT
  5
5A
330
17
100
AcDbEntity
  8
2
100
AcDbText
 10
3.083912759679733
 20
4.929757041512818
 30
0.0
 40
0.039
  1
2
  7
SIMPLEX
 72
     1
 11
3.096912759679733
 21
4.929757041512818
 31
0.0
100
AcDbText
  0
LINE
  5
5B
330
17
100
AcDbEntity
  8
3
100
AcDbLine
 10
3.125882080488908
 20
5.334980757225323
 30
0.0
 11
3.063627956857857
 21
5.334980757225323
 31
0.0
  0
TEXT
  5
5C
330
17
100
AcDbEntity
  8
2
100
AcDbText
 10
3.086976354245901
 20
5.649037319208022
 30
0.0
 40
0.039
  1
1
  7
SIMPLEX
 72
     1
 11
3.091619211388759
 21
5.649037319208022
 31
0.0
100
AcDbText
  0
TEXT
  5
5D
330
17
100
AcDbEntity
  8
2
100
AcDbText
 10
3.549430016604214
 20
5.987275891985528
 30
0.0
 40
0.039
  1
A
  7
SIMPLEX
 72
     1
 11
3.564287159461357
 21
5.987275891985528
 31
0.0
100
AcDbText
  0
LINE
  5
5E
330
17
100
AcDbEntity
  8
3
100
AcDbLine
 10
3.942137835363298
 20
5.988559494528362
 30
0.0
 11
3.942137835363298
 21
6.050996382225322
 31
0.0
  0
TEXT
  5
5F
330
17
100
AcDbEntity
  8
2
100
AcDbText
 10
4.310948087958745
 20
5.987275891985528
 30
0.0
 40
0.039
  1
B
  7
SIMPLEX
 72
     1
 11
4.323948087958745
 21
5.987275891985528
 31
0.0
100
AcDbText
  0
LINE
  5
60
330
17
100
AcDbEntity
  8
3
100
AcDbLine
 10
4.696435859662209
 20
5.988559494528362
 30
0.0
 11
4.696435859662209
 21
6.050996382225322
 31
0.0
  0
TEXT
  5
61
330
17
100
AcDbEntity
  8
2
100
AcDbText
 10
5.047819698883754
 20
5.987275891985528
 30
0.0
 40
0.039
  1
C
  7
SIMPLEX
 72
     1
 11
5.061748270312325
 21
5.987275891985528
 31
0.0
100
AcDbText
  0
LINE
  5
62
330
17
100
AcDbEntity
  8
3
100
AcDbLine
 10
5.450733883961119
 20
5.988559494528362
 30
0.0
 11
5.450733883961119
 21
6.050996382225322
 31
0.0
  0
LINE
  5
63
330
17
100
AcDbEntity
  8
4
100
AcDbLine
 10
8.151127956857855
 20
6.450996382225322
 30
0.0
 11
8.151127956857857
 21
2.200996382225322
 31
0.0
  0
LINE
  5
64
330
17
100
AcDbEntity
  8
4
100
AcDbLine
 10
7.713627956857854
 20
6.050996382225322
 30
0.0
 11
7.713627956857857
 21
2.600996382225323
 31
0.0
  0
TEXT
  5
65
330
17
100
AcDbEntity
  8
4
100
AcDbText
 10
7.319021416427253
 20
2.989681346220207
 30
0.0
 40
0.047
  1
inc., erie, pa.
 41
0.75
  7
T
100
AcDbText
  0
TEXT
  5
67
330
17
100
AcDbEntity
  8
3
100
AcDbText
 10
7.428600005306996
 20
2.779066104176588
 30
0.0
 40
0.0195380745534632
  1
SCALE:
  7
SIMPLEX
100
AcDbText
  0
TEXT
  5
68
330
17
100
AcDbEntity
  8
3
100
AcDbText
 10
7.161485991891596
 20
2.630472552192576
 30
0.0
 40
0.0437652869997576
  1
3305.01
  7
SIMPLEX
 72
     1
 11
7.281319515819504
 21
2.630472552192576
 31
0.0
100
AcDbText
  0
LINE
  5
69
330
17
100
AcDbEntity
  8
0
100
AcDbLine
 10
7.012870304484807
 20
2.745414950470259
 30
0.0
 11
7.713627956857857
 21
2.745414950470259
 31
0.0
  0
LINE
  5
6A
330
17
100
AcDbEntity
  8
0
100
AcDbLine
 10
5.649581665495575
 20
2.954421905920767
 30
0.0
 11
7.713627956857857
 21
2.954421905920767
 31
0.0
  0
LINE
  5
6B
330
17
100
AcDbEntity
  8
0
100
AcDbLine
 10
5.649581665495575
 20
2.835453276866861
 30
0.0
 11
7.713627956857857
 21
2.835453276866861
 31
0.0
  0
LWPOLYLINE
  5
6C
330
17
100
AcDbEntity
  8
4
  6
Continuous
 62
     4
100
AcDbPolyline
 90
      205
 70
     0
 43
0.0
 10
7.282917846542682
 20
3.056715965270271
 10
7.280965345523853
 20
3.058740781141643
 10
7.278868214799896
 20
3.060548652455381
 10
7.276481824665781
 20
3.062139579211466
 10
7.273950804826532
 20
3.063585876262461
 10
7.271275155282219
 20
3.064742913903256
 10
7.268527190885317
 20
3.065683006986398
 10
7.265634596783349
 20
3.066406155511886
 10
7.262669687828836
 20
3.066912359479738
 10
7.259632464021757
 20
3.067129304037393
 10
7.256595240214678
 20
3.067201618889939
 10
7.253558016407599
 20
3.06705698918485
 10
7.250520792600519
 20
3.06662310006954
 10
7.247555883645985
 20
3.065972266396598
 10
7.244663289543995
 20
3.065104488166001
 10
7.241915325147136
 20
3.06401976537777
 10
7.23923967560278
 20
3.062718098031863
 10
7.237214859731406
 20
3.061488745538524
 10
7.235334673565128
 20
3.060114763340093
 10
7.233526802251386
 20
3.058668466289098
 10
7.231863560642737
 20
3.057077539533014
 10
7.230272633886674
 20
3.055341983071821
 10
7.228826336835657
 20
3.053461796905537
 10
7.227452354637228
 20
3.051581610739254
 10
7.226295316996432
 20
3.049556794867861
 10
7.225210594208202
 20
3.047459664143924
 10
7.224270501125059
 20
3.045290218567441
 10
7.223547352599574
 20
3.043120772990961
 10
7.222968833779175
 20
3.040879012561933
 10
7.222534944663863
 20
3.038564937280341
 10
7.222245685253665
 20
3.036250861998771
 10
7.222173370401122
 20
3.033936786717178
 10
7.222318000106233
 20
3.031622711435607
 10
7.222390314958776
 20
3.030393358942268
 10
7.222534944663863
 20
3.029236321301471
 10
7.222679574368954
 20
3.028006968808131
 10
7.222968833779175
 20
3.026849931167334
 10
7.223402722894462
 20
3.025765208379084
 10
7.223908926862296
 20
3.024752800443397
 10
7.224704390240347
 20
3.023957337065345
 10
7.22564448332349
 20
3.023378818244967
 10
7.226078372438799
 20
3.023161873687313
 10
7.226512261554086
 20
3.023017243982203
 10
7.227018465521942
 20
3.023017243982203
 10
7.227452354637228
 20
3.023017243982203
 10
7.22795855860508
 20
3.023017243982203
 10
7.228464762572934
 20
3.023089558834768
 10
7.229043281393333
 20
3.023234188539857
 10
7.229694115066275
 20
3.023306503392401
 10
7.251171626273462
 20
3.02706687572499
 10
7.252111719356605
 20
3.027211505430078
 10
7.25312412729229
 20
3.027283820282623
 10
7.254064220375451
 20
3.027428449987732
 10
7.255076628311116
 20
3.027428449987732
 10
7.25601672139428
 20
3.027500764840278
 10
7.257029129329966
 20
3.027500764840278
 10
7.257969222413108
 20
3.027428449987732
 10
7.258981630348816
 20
3.027356135135188
 10
7.259921723431934
 20
3.027283820282623
 10
7.260934131367642
 20
3.027139190577533
 10
7.261874224450782
 20
3.026994560872423
 10
7.262814317533924
 20
3.02677761631479
 10
7.263754410617067
 20
3.026560671757136
 10
7.264694503700207
 20
3.026343727199481
 10
7.265634596783349
 20
3.026054467789281
 10
7.266502375013947
 20
3.025692893526538
 10
7.268671820590451
 20
3.024535855885742
 10
7.270479691904168
 20
3.022944929129658
 10
7.271781359250072
 20
3.021064742963376
 10
7.272721452333192
 20
3.018895297386893
 10
7.273227656301049
 20
3.016653536957868
 10
7.273299971153592
 20
3.014267146823731
 10
7.273010711743411
 20
3.011880756689595
 10
7.272287563217905
 20
3.009494366555457
 10
7.271564414692397
 20
3.007975754651917
 10
7.270768951314366
 20
3.006529457600923
 10
7.26975654337866
 20
3.005227790255037
 10
7.268671820590451
 20
3.003998437761698
 10
7.267514782949654
 20
3.002841400120902
 10
7.266213115603748
 20
3.001828992185216
 10
7.264766818552754
 20
3.000961213954618
 10
7.263320521501777
 20
3.000165750576586
 10
7.261801909598236
 20
2.999514916903623
 10
7.260283297694699
 20
2.999081027788336
 10
7.25862005608605
 20
2.998719453525593
 10
7.257029129329966
 20
2.998502508967937
 10
7.255438202573881
 20
2.998430194115393
 10
7.253774960965232
 20
2.998574823820481
 10
7.252184034209149
 20
2.998864083230681
 10
7.250593107453062
 20
2.999370287198535
 10
7.249291440107177
 20
2.999876491166388
 10
7.248062087613839
 20
3.000455009986765
 10
7.246832735120499
 20
3.001033528807163
 10
7.245675697479701
 20
3.001756677332672
 10
7.244518659838906
 20
3.002479825858158
 10
7.243433937050657
 20
3.003275289236211
 10
7.24242152911499
 20
3.004143067466808
 10
7.241336806326737
 20
3.005083160549948
 10
7.240396713243574
 20
3.006023253633091
 10
7.239456620160455
 20
3.006963346716231
 10
7.238516527077293
 20
3.007975754651917
 10
7.237648748846718
 20
3.009060477440169
 10
7.236780970616099
 20
3.010145200228401
 10
7.235985507238066
 20
3.011229923016651
 10
7.235190043860037
 20
3.012314645804881
 10
7.234466895334528
 20
3.013471683445678
 10
7.217255960427761
 20
3.005083160549948
 10
7.21862994262619
 20
3.002841400120902
 10
7.220220869382274
 20
3.000744269396963
 10
7.221956425843467
 20
2.998791768378136
 10
7.22383661200975
 20
2.997056211916943
 10
7.225861427881143
 20
2.995392970308314
 10
7.228030873457628
 20
2.993946673257318
 10
7.230344948739218
 20
2.992645005911433
 10
7.232659024020787
 20
2.991560283123183
 10
7.23511772900749
 20
2.990620190040041
 10
7.237648748846718
 20
2.98982472666201
 10
7.240252083538487
 20
2.989246207841611
 10
7.242855418230258
 20
2.988884633578868
 10
7.245458752922047
 20
2.988667689021213
 10
7.248062087613839
 20
2.988667689021213
 10
7.25066542230561
 20
2.988812318726303
 10
7.253268756997377
 20
2.989246207841611
 10
7.25587209168919
 20
2.98982472666201
 10
7.258403111528417
 20
2.990692504892586
 10
7.260789501662553
 20
2.991704912828292
 10
7.263175891796668
 20
2.992934265321633
 10
7.265417652225695
 20
2.994380562372628
 10
7.267587097802199
 20
2.995971489128713
 10
7.269539598821023
 20
2.997707045589884
 10
7.271419784987307
 20
2.999587231756188
 10
7.273155341448502
 20
3.001612047627561
 10
7.274673953352042
 20
3.003781493204042
 10
7.276047935550494
 20
3.006023253633091
 10
7.277277288043812
 20
3.008409643767226
 10
7.278217381126951
 20
3.010868348753908
 10
7.279012844505006
 20
3.013399368593133
 10
7.279591363325405
 20
3.016002703284903
 10
7.279880622735602
 20
3.018606037976694
 10
7.280025252440692
 20
3.020630853848087
 10
7.279952937588147
 20
3.02265566971946
 10
7.279735993030514
 20
3.024680485590852
 10
7.27937441876775
 20
3.026632986609681
 10
7.278795899947352
 20
3.028585487628529
 10
7.278072751421865
 20
3.030465673794811
 10
7.277204973191268
 20
3.032273545108549
 10
7.276120250403036
 20
3.034009101569723
 10
7.275252472172417
 20
3.035093824357975
 10
7.274312379089297
 20
3.036178547146205
 10
7.273299971153592
 20
3.037118640229368
 10
7.272215248365363
 20
3.0379141036074
 10
7.270985895872
 20
3.038709566985451
 10
7.26975654337866
 20
3.039432715510938
 10
7.268454876032775
 20
3.040011234331336
 10
7.267153208686888
 20
3.040589753151734
 10
7.26577922648846
 20
3.041023642267022
 10
7.264405244290007
 20
3.041457531382331
 10
7.262958947239015
 20
3.041819105645076
 10
7.261512650188039
 20
3.042108365055275
 10
7.260066353137045
 20
3.042325309612928
 10
7.25862005608605
 20
3.042469939318018
 10
7.257173759035075
 20
3.042614569023106
 10
7.255799776836626
 20
3.042686883875673
 10
7.254931998606027
 20
3.042686883875673
 10
7.253991905522887
 20
3.042686883875673
 10
7.25312412729229
 20
3.042686883875673
 10
7.252256349061714
 20
3.042614569023106
 10
7.251388570831097
 20
3.042542254170562
 10
7.250520792600519
 20
3.042469939318018
 10
7.249653014369924
 20
3.042397624465473
 10
7.248785236139325
 20
3.042252994760362
 10
7.247845143056183
 20
3.042108365055275
 10
7.246977364825588
 20
3.041963735350163
 10
7.246109586594991
 20
3.041819105645076
 10
7.245241808364394
 20
3.041746790792531
 10
7.244374030133816
 20
3.041602161087421
 10
7.243506251903219
 20
3.041457531382331
 10
7.242566158820079
 20
3.041312901677221
 10
7.241698380589483
 20
3.041168271972133
 10
7.228754021983111
 20
3.037986418459944
 10
7.228537077425479
 20
3.039215770953283
 10
7.228681707130568
 20
3.041095957119588
 10
7.229115596245878
 20
3.04341003240116
 10
7.229983374476454
 20
3.046013367092951
 10
7.231068097264704
 20
3.04861670178472
 10
7.2325143943157
 20
3.051075406771401
 10
7.234249950776873
 20
3.053100222642795
 10
7.236202451795722
 20
3.054618834546334
 10
7.237938008256894
 20
3.055414297924365
 10
7.239745879570634
 20
3.056065131597328
 10
7.241626065736916
 20
3.056426705860073
 10
7.243578566755767
 20
3.056715965270271
 10
7.245531067774614
 20
3.056788280122816
 10
7.247555883645985
 20
3.056643650417705
 10
7.249508384664813
 20
3.056426705860073
 10
7.251460885683661
 20
3.055992816744763
 10
7.253413386702489
 20
3.055414297924365
 10
7.255221258016227
 20
3.054691149398878
 10
7.2569568144774
 20
3.053823371168281
 10
7.25862005608605
 20
3.052883278085139
 10
7.260138667989587
 20
3.05179855529691
 10
7.261584965040582
 20
3.050569202803568
 10
7.262814317533924
 20
3.049267535457663
 10
7.26382672546963
 20
3.047893553259233
 10
7.282917846542682
 20
3.056715965270271
  0
LWPOLYLINE
  5
13B
330
17
100
AcDbEntity
  8
4
  6
Continuous
100
AcDbPolyline
 90
       21
 70
     0
 43
0.0
 10
7.08302067369729
 20
3.049918369130604
 10
7.082803729139612
 20
3.047676608701578
 10
7.082152895466673
 20
3.045579477977641
 10
7.081140487530984
 20
3.043771606663903
 10
7.079766505332534
 20
3.042180679907819
 10
7.078103263723927
 20
3.040879012561933
 10
7.076223077557624
 20
3.039938919478793
 10
7.07419826168623
 20
3.039360400658393
 10
7.072028816109767
 20
3.03914345610074
 10
7.057493530747317
 20
3.03914345610074
 10
7.057493530747317
 20
3.057728373205958
 10
7.055974918843758
 20
3.061271800980891
 10
7.072245760667402
 20
3.061271800980891
 10
7.074487521096449
 20
3.061054856423236
 10
7.076512336967822
 20
3.060404022750292
 10
7.078320208281559
 20
3.059391614814586
 10
7.079911135037667
 20
3.058017632616156
 10
7.081212802383553
 20
3.056282076154962
 10
7.082152895466673
 20
3.05440188998868
 10
7.082803729139612
 20
3.052232444412198
 10
7.08302067369729
 20
3.049918369130604
  0
LWPOLYLINE
  5
152
330
17
100
AcDbEntity
  8
4
  6
Continuous
100
AcDbPolyline
 90
       61
 70
     0
 43
0.0
 10
7.083382247960012
 20
3.033575212454435
 10
7.085479378683969
 20
3.033719842159525
 10
7.087504194555342
 20
3.034009101569723
 10
7.089312065869082
 20
3.034442990685032
 10
7.090975307477709
 20
3.035021509505431
 10
7.092421604528706
 20
3.035744658030918
 10
7.093795586727133
 20
3.03654012140897
 10
7.095024939220473
 20
3.037480214492111
 10
7.096109662008728
 20
3.038564937280341
 10
7.097049755091888
 20
3.039721974921138
 10
7.097845218469919
 20
3.040951327414478
 10
7.098496052142865
 20
3.042252994760362
 10
7.099002256110718
 20
3.043699291811358
 10
7.099436145226004
 20
3.045145588862353
 10
7.099725404636203
 20
3.046664200765893
 10
7.09987003434129
 20
3.048255127521976
 10
7.099942349193856
 20
3.049918369130604
 10
7.09987003434129
 20
3.051436981034144
 10
7.099580774931116
 20
3.052955592937685
 10
7.099219200668348
 20
3.05440188998868
 10
7.098640681847952
 20
3.055848187039674
 10
7.097989848175008
 20
3.057222169238103
 10
7.097122069944433
 20
3.058523836584011
 10
7.096254291713815
 20
3.059753189077351
 10
7.095169568925584
 20
3.060910226718126
 10
7.094084846137353
 20
3.061922634653833
 10
7.092855493644012
 20
3.062862727736973
 10
7.091553826298128
 20
3.063658191115006
 10
7.090179844099678
 20
3.064381339640513
 10
7.088805861901227
 20
3.064959858460912
 10
7.087359564850253
 20
3.065321432723654
 10
7.085840952946691
 20
3.065610692133855
 10
7.084322341043175
 20
3.065683006986398
 10
7.033629629405991
 20
3.065683006986398
 10
7.034352777931481
 20
3.065104488166001
 10
7.035003611604421
 20
3.064525969345603
 10
7.035654445277367
 20
3.063875135672659
 10
7.036232964097764
 20
3.063296616852261
 10
7.036811482918163
 20
3.062718098031863
 10
7.037390001738558
 20
3.061994949506376
 10
7.037896205706411
 20
3.061271800980891
 10
7.038402409674246
 20
3.060404022750292
 10
7.039125558199752
 20
3.058813095994209
 10
7.039704077020152
 20
3.056932909827904
 10
7.040065651282874
 20
3.055125038514165
 10
7.040210280987984
 20
3.053678741463193
 10
7.040282595840547
 20
2.988667689021213
 10
7.057710475304951
 20
3.003926122909152
 10
7.057710475304951
 20
3.03408141642229
 10
7.065375849675214
 20
3.034153731274833
 10
7.091481511445563
 20
2.990909449450239
 10
7.113971430588434
 20
2.990764819745152
 10
7.112597448390006
 20
2.991560283123183
 10
7.111223466191576
 20
2.992500376206323
 10
7.109921798845691
 20
2.993440469289486
 10
7.108692446352351
 20
2.994525192077716
 10
7.107463093859012
 20
2.995537600013403
 10
7.106306056218214
 20
2.996694637654199
 10
7.105149018577419
 20
2.997851675294995
 10
7.103991980936622
 20
2.999081027788336
 10
7.083382247960012
 20
3.033575212454435
  0
LWPOLYLINE
  5
191
330
17
100
AcDbEntity
  8
4
  6
Continuous
100
AcDbPolyline
 90
      205
 70
     0
 43
0.0
 10
6.951856127600575
 20
3.057222169238103
 10
6.949903626581749
 20
3.059246985109497
 10
6.947806495857808
 20
3.061127171275779
 10
6.945420105723672
 20
3.062718098031863
 10
6.942889085884447
 20
3.064092080230314
 10
6.940213436340112
 20
3.065249117871111
 10
6.937465471943233
 20
3.066189210954251
 10
6.934500562988719
 20
3.066912359479738
 10
6.931535654034187
 20
3.067418563447593
 10
6.92857074507965
 20
3.067707822857791
 10
6.925533521272572
 20
3.067780137710336
 10
6.922423982612949
 20
3.067563193152681
 10
6.919459073658414
 20
3.067201618889939
 10
6.916494164703879
 20
3.066550785216996
 10
6.91360157060191
 20
3.065683006986398
 10
6.910853606205032
 20
3.064525969345603
 10
6.908177956660717
 20
3.063224301999718
 10
6.906153140789299
 20
3.061994949506376
 10
6.904272954623018
 20
3.060693282160491
 10
6.902465083309279
 20
3.059174670256953
 10
6.900801841700651
 20
3.057583743500868
 10
6.899210914944567
 20
3.055848187039674
 10
6.897764617893597
 20
3.054040315725936
 10
6.896462950547688
 20
3.052087814707108
 10
6.895233598054346
 20
3.050062998835716
 10
6.894221190118659
 20
3.048038182964321
 10
6.893281097035498
 20
3.045868737387841
 10
6.892557948510011
 20
3.043626976958813
 10
6.891979429689611
 20
3.041385216529788
 10
6.891545540574325
 20
3.03914345610074
 10
6.891328596016673
 20
3.036829380819168
 10
6.891183966311582
 20
3.034442990685032
 10
6.891328596016673
 20
3.032128915403439
 10
6.891400910869214
 20
3.030971877762643
 10
6.891545540574325
 20
3.029742525269303
 10
6.891690170279434
 20
3.028585487628529
 10
6.891979429689611
 20
3.027428449987732
 10
6.892341003952378
 20
3.026343727199481
 10
6.892919522772777
 20
3.025331319263794
 10
6.893642671298263
 20
3.024535855885742
 10
6.894582764381405
 20
3.023957337065345
 10
6.895016653496692
 20
3.023740392507711
 10
6.895450542612
 20
3.0235957628026
 10
6.895956746579855
 20
3.023523447950057
 10
6.896390635695121
 20
3.023523447950057
 10
6.896896839662977
 20
3.0235957628026
 10
6.897403043630828
 20
3.0235957628026
 10
6.897909247598684
 20
3.023740392507711
 10
6.898560081271624
 20
3.023812707360256
 10
6.920037592478811
 20
3.027573079692821
 10
6.920977685561974
 20
3.027717709397931
 10
6.921990093497639
 20
3.027862339103021
 10
6.922930186580802
 20
3.027934653955564
 10
6.923942594516488
 20
3.028006968808131
 10
6.924882687599628
 20
3.028006968808131
 10
6.925895095535335
 20
3.028006968808131
 10
6.926835188618457
 20
3.028006968808131
 10
6.927847596554163
 20
3.027934653955564
 10
6.928787689637285
 20
3.027862339103021
 10
6.929800097572991
 20
3.027717709397931
 10
6.930740190656132
 20
3.027573079692821
 10
6.931680283739275
 20
3.027356135135188
 10
6.932692691674982
 20
3.027139190577533
 10
6.933632784758121
 20
3.026849931167334
 10
6.934500562988719
 20
3.026560671757136
 10
6.935440656071839
 20
3.026199097494393
 10
6.937610101648344
 20
3.025042059853596
 10
6.939345658109538
 20
3.023451133097513
 10
6.940719640307965
 20
3.021570946931228
 10
6.941587418538544
 20
3.019473816207292
 10
6.942093622506398
 20
3.0171597409257
 10
6.942238252211507
 20
3.014773350791562
 10
6.941948992801308
 20
3.012386960657448
 10
6.941225844275821
 20
3.010072885375856
 10
6.940502695750334
 20
3.008554273472316
 10
6.93970723237226
 20
3.007107976421321
 10
6.938694824436594
 20
3.005806309075436
 10
6.937610101648344
 20
3.004576956582096
 10
6.936380749155004
 20
3.0034199189413
 10
6.935079081809118
 20
3.002407511005613
 10
6.933705099610668
 20
3.001539732775016
 10
6.932258802559672
 20
3.000744269396963
 10
6.930740190656132
 20
3.000093435724021
 10
6.929149263900049
 20
2.999587231756188
 10
6.927558337143964
 20
2.999225657493425
 10
6.92596741038788
 20
2.999081027788336
 10
6.924304168779231
 20
2.999008712935791
 10
6.92264092717058
 20
2.999153342640879
 10
6.921050000414518
 20
2.999442602051078
 10
6.919459073658414
 20
2.999876491166388
 10
6.918157406312531
 20
3.00038269513422
 10
6.916928053819189
 20
3.000961213954618
 10
6.915771016178392
 20
3.001539732775016
 10
6.914613978537595
 20
3.002262881300503
 10
6.91345694089682
 20
3.002986029826011
 10
6.91237221810857
 20
3.003853808056609
 10
6.91128749532034
 20
3.00464927143464
 10
6.910275087384633
 20
3.005589364517781
 10
6.90933499430149
 20
3.006529457600923
 10
6.908322586365804
 20
3.00754186553663
 10
6.907454808135206
 20
3.008554273472316
 10
6.906587029904612
 20
3.009566681408001
 10
6.905719251674036
 20
3.010651404196252
 10
6.904923788295981
 20
3.011808441837049
 10
6.904128324917929
 20
3.012893164625281
 10
6.903405176392442
 20
3.014050202266076
 10
6.886266556338218
 20
3.005589364517781
 10
6.887640538536651
 20
3.003347604088754
 10
6.889231465292755
 20
3.001322788217361
 10
6.890967021753926
 20
2.999370287198535
 10
6.89284720792021
 20
2.997562415884797
 10
6.894872023791603
 20
2.995971489128713
 10
6.897041469368088
 20
2.994525192077716
 10
6.899283229797111
 20
2.993223524731832
 10
6.901669619931249
 20
2.992138801943579
 10
6.904128324917929
 20
2.991198708860439
 10
6.906587029904612
 20
2.990403245482408
 10
6.90919036459638
 20
2.98982472666201
 10
6.91179369928817
 20
2.989390837546701
 10
6.914397033979962
 20
2.989173892989068
 10
6.917000368671732
 20
2.989173892989068
 10
6.919603703363523
 20
2.989390837546701
 10
6.922207038055293
 20
2.989752411809443
 10
6.924810372747084
 20
2.990403245482408
 10
6.92734139258631
 20
2.991198708860439
 10
6.929727782720446
 20
2.992211116796146
 10
6.932114172854584
 20
2.993512784142031
 10
6.93435593328361
 20
2.99488676634046
 10
6.936453064007549
 20
2.996477693096544
 10
6.938477879878917
 20
2.998213249557738
 10
6.940358066045225
 20
3.000165750576586
 10
6.942021307653851
 20
3.002190566447958
 10
6.943612234409957
 20
3.004287697171896
 10
6.944986216608387
 20
3.006601772453488
 10
6.946143254249182
 20
3.008988162587603
 10
6.947155662184869
 20
3.011374552721741
 10
6.94795112556292
 20
3.013905572560988
 10
6.948529644383317
 20
3.016508907252756
 10
6.948818903793496
 20
3.019184556797092
 10
6.948891218646043
 20
3.021209372668464
 10
6.948818903793496
 20
3.023234188539857
 10
6.948601959235864
 20
3.025186689558684
 10
6.948240384973098
 20
3.027211505430078
 10
6.947661866152722
 20
3.029091691596362
 10
6.947011032479758
 20
3.030971877762643
 10
6.946143254249182
 20
3.032779749076383
 10
6.945058531460932
 20
3.034515305537576
 10
6.944190753230357
 20
3.035672343178373
 10
6.943250660147192
 20
3.036684751114058
 10
6.942238252211507
 20
3.037624844197201
 10
6.941081214570711
 20
3.038492622427798
 10
6.939924176929936
 20
3.039288085805849
 10
6.938694824436594
 20
3.039938919478793
 10
6.937393157090689
 20
3.040589753151734
 10
6.936019174892238
 20
3.041095957119588
 10
6.934645192693808
 20
3.041602161087421
 10
6.933271210495379
 20
3.041963735350163
 10
6.931824913444383
 20
3.042325309612928
 10
6.930450931245934
 20
3.042614569023106
 10
6.929004634194959
 20
3.042831513580761
 10
6.927558337143964
 20
3.042976143285872
 10
6.926112040092972
 20
3.043120772990961
 10
6.924738057894539
 20
3.043193087843504
 10
6.923870279663941
 20
3.043265402696071
 10
6.922930186580802
 20
3.043265402696071
 10
6.922062408350205
 20
3.043193087843504
 10
6.921194630119608
 20
3.043193087843504
 10
6.920326851889011
 20
3.043120772990961
 10
6.919386758805869
 20
3.043048458138415
 10
6.918518980575294
 20
3.042903828433306
 10
6.917651202344677
 20
3.042831513580761
 10
6.916783424114098
 20
3.042686883875673
 10
6.915915645883481
 20
3.042542254170562
 10
6.914975552800362
 20
3.042397624465473
 10
6.914107774569764
 20
3.042252994760362
 10
6.913239996339168
 20
3.042108365055275
 10
6.91237221810857
 20
3.041963735350163
 10
6.911432125025428
 20
3.041819105645076
 10
6.910564346794831
 20
3.041674475939966
 10
6.897692303041027
 20
3.038564937280341
 10
6.897403043630828
 20
3.039794289773682
 10
6.897547673335918
 20
3.041674475939966
 10
6.898053877303771
 20
3.043988551221557
 10
6.898849340681824
 20
3.046591885913348
 10
6.900006378322599
 20
3.049195220605118
 10
6.901452675373617
 20
3.051653925591799
 10
6.903115916982244
 20
3.053678741463193
 10
6.905068418001071
 20
3.055197353366732
 10
6.906803974462264
 20
3.055992816744763
 10
6.908611845775982
 20
3.056571335565162
 10
6.910492031942286
 20
3.057005224680471
 10
6.912444532961137
 20
3.057222169238103
 10
6.914397033979962
 20
3.057294484090669
 10
6.916421849851335
 20
3.057222169238103
 10
6.918374350870162
 20
3.056932909827904
 10
6.920326851889011
 20
3.056499020712616
 10
6.922279352907859
 20
3.055920501892218
 10
6.924087224221598
 20
3.055197353366732
 10
6.925895095535335
 20
3.05440188998868
 10
6.927558337143964
 20
3.053461796905537
 10
6.929076949047504
 20
3.052377074117286
 10
6.930450931245934
 20
3.051147721623946
 10
6.931680283739275
 20
3.04984605427806
 10
6.932765006527526
 20
3.048472072079631
 10
6.951856127600575
 20
3.057222169238103
  0
LWPOLYLINE
  5
260
330
17
100
AcDbEntity
  8
4
  6
Continuous
100
AcDbPolyline
 90
      133
 70
     0
 43
0.0
 10
6.968333646955414
 20
3.062284208916576
 10
6.967104294462076
 20
3.060982541570691
 10
6.965947256821277
 20
3.059463929667151
 10
6.964934848885593
 20
3.057873002911046
 10
6.963850126097361
 20
3.056209761302417
 10
6.962765403309111
 20
3.054618834546334
 10
6.961608365668316
 20
3.05302790779025
 10
6.960451328027517
 20
3.051581610739254
 10
6.959077345829087
 20
3.050352258245915
 10
6.958571141861233
 20
3.049990683983171
 10
6.958064937893381
 20
3.049629109720406
 10
6.957558733925527
 20
3.049267535457663
 10
6.957052529957696
 20
3.04890596119492
 10
6.956546325989862
 20
3.048544386932176
 10
6.955967807169465
 20
3.048182812669433
 10
6.955389288349068
 20
3.047821238406688
 10
6.954666139823559
 20
3.047459664143924
 10
6.980916431299041
 20
3.047459664143924
 10
6.979759393658244
 20
3.046519571060783
 10
6.978674670869991
 20
3.045579477977641
 10
6.977662262934286
 20
3.044639384894499
 10
6.976649854998622
 20
3.043626976958813
 10
6.975709761915457
 20
3.042542254170562
 10
6.974769668832317
 20
3.041457531382331
 10
6.97390189060172
 20
3.04037280859408
 10
6.973106427223687
 20
3.039215770953283
 10
6.972238648993068
 20
3.037986418459944
 10
6.971515500467582
 20
3.036684751114058
 10
6.970792351942098
 20
3.035310768915629
 10
6.970069203416609
 20
3.033936786717178
 10
6.969346054891123
 20
3.032418174813638
 10
6.968695221218156
 20
3.0308995629101
 10
6.968044387545216
 20
3.029236321301471
 10
6.967465868724817
 20
3.027500764840278
 10
6.966453460789133
 20
3.023668077655146
 10
6.965874941968731
 20
3.019835390470035
 10
6.965802627116191
 20
3.015930388432359
 10
6.966164201378911
 20
3.012025386394683
 10
6.966959664756987
 20
3.008265014062116
 10
6.96826133210287
 20
3.004576956582096
 10
6.969924573711521
 20
3.001105843659728
 10
6.972094019287982
 20
2.99792399014754
 10
6.973178742076233
 20
2.996622322801655
 10
6.974408094569572
 20
2.995392970308314
 10
6.975782076768004
 20
2.994163617814973
 10
6.977300688671562
 20
2.993078895026721
 10
6.97881930057508
 20
2.991994172238491
 10
6.980482542183732
 20
2.990981764302785
 10
6.982218098644925
 20
2.990113986072208
 10
6.984025969958665
 20
2.989318522694156
 10
6.985833841272401
 20
2.988595374168669
 10
6.987714027438687
 20
2.987944540495726
 10
6.989521898752422
 20
2.987438336527873
 10
6.991402084918707
 20
2.987076762265129
 10
6.993282271084991
 20
2.986787502854931
 10
6.995090142398727
 20
2.986715188002365
 10
6.996898013712468
 20
2.986715188002365
 10
6.998633570173638
 20
2.986859817707474
 10
7.000803015750122
 20
2.987221391970218
 10
7.002972461326626
 20
2.987655281085528
 10
7.00506959205054
 20
2.988233799905925
 10
7.007094407921912
 20
2.988956948431413
 10
7.009119223793326
 20
2.989752411809443
 10
7.010999409959612
 20
2.990692504892586
 10
7.012879596125892
 20
2.991777227680836
 10
7.014542837734523
 20
2.993006580174178
 10
7.016206079343151
 20
2.994380562372628
 10
7.017652376394168
 20
2.995826859423602
 10
7.019026358592597
 20
2.997417786179708
 10
7.020255711085937
 20
2.999153342640879
 10
7.021340433874187
 20
3.001033528807163
 10
7.022208212104763
 20
3.002986029826011
 10
7.022931360630249
 20
3.005155475402493
 10
7.023509879450648
 20
3.007397235831521
 10
7.021918952694587
 20
3.006023253633091
 10
7.020255711085937
 20
3.004793901139751
 10
7.018447839772196
 20
3.003636863498953
 10
7.01663996845846
 20
3.002696770415812
 10
7.014759782292177
 20
3.001828992185216
 10
7.012807281273348
 20
3.001105843659728
 10
7.010782465401956
 20
3.00052732483933
 10
7.008757649530561
 20
3.000093435724021
 10
7.00673283365919
 20
2.999804176313823
 10
7.004635702935253
 20
2.999731861461278
 10
7.002610887063861
 20
2.999731861461278
 10
7.000586071192489
 20
2.999948806018933
 10
6.998561255321096
 20
3.000310380281676
 10
6.996608754302245
 20
3.000888899102073
 10
6.994656253283418
 20
3.001612047627561
 10
6.992776067117134
 20
3.002479825858158
 10
6.990968195803398
 20
3.003636863498953
 10
6.989304954194746
 20
3.004866215992294
 10
6.98778634229123
 20
3.006312513043289
 10
6.986340045240236
 20
3.00783112494683
 10
6.985110692746894
 20
3.009566681408001
 10
6.983953655106097
 20
3.011302237869196
 10
6.983013562022956
 20
3.013182424035478
 10
6.982145783792359
 20
3.015134925054328
 10
6.981422635266852
 20
3.0171597409257
 10
6.980916431299041
 20
3.019184556797092
 10
6.980482542183732
 20
3.021281687521029
 10
6.980193282773512
 20
3.023451133097513
 10
6.980048653068423
 20
3.02554826382145
 10
6.980048653068423
 20
3.027717709397931
 10
6.980193282773512
 20
3.029887154974413
 10
6.980482542183732
 20
3.031984285698351
 10
6.981278005561764
 20
3.034442990685032
 10
6.982145783792359
 20
3.036612436261513
 10
6.983085876875501
 20
3.038637252132886
 10
6.984170599663753
 20
3.040517438299191
 10
6.985327637304549
 20
3.042325309612928
 10
6.986701619502976
 20
3.043988551221557
 10
6.988292546259084
 20
3.045724107682751
 10
6.990100417572822
 20
3.047387349291379
 10
7.003840239557201
 20
3.047387349291379
 10
7.004635702935253
 20
3.047387349291379
 10
7.005575796018396
 20
3.04753197899649
 10
7.00658820395408
 20
3.047676608701578
 10
7.007600611889767
 20
3.047965868111778
 10
7.008613019825473
 20
3.048255127521976
 10
7.00948079805605
 20
3.048689016637264
 10
7.010276261434124
 20
3.049122905752573
 10
7.010854780254501
 20
3.049701424572971
 10
7.024016083418502
 20
3.065755321838943
 10
6.976577540146056
 20
3.065755321838943
 10
6.975203557947606
 20
3.065683006986398
 10
6.974046520306807
 20
3.065610692133855
 10
6.972961797518577
 20
3.0653937475762
 10
6.972021704435437
 20
3.065032173313456
 10
6.971081611352295
 20
3.064598284198146
 10
6.970213833121696
 20
3.06401976537777
 10
6.969273740038556
 20
3.063224301999718
 10
6.968333646955414
 20
3.062284208916576
  0
LWPOLYLINE
  5
2E7
330
17
100
AcDbEntity
  8
4
  6
Continuous
100
AcDbPolyline
 90
      138
 70
     0
 43
0.0
 10
6.855526598017283
 20
3.065755321838943
 10
6.857045209920822
 20
3.064670599050713
 10
6.858274562414162
 20
3.063441246557372
 10
6.859286970349848
 20
3.062067264358921
 10
6.860010118875337
 20
3.060620967307927
 10
6.860588637695737
 20
3.059102355404386
 10
6.860950211958501
 20
3.057511428648302
 10
6.861167156516132
 20
3.055775872187131
 10
6.861239471368677
 20
3.053968000873392
 10
6.861239471368677
 20
2.999659546608734
 10
6.859937804022792
 20
2.999659546608734
 10
6.858636136676905
 20
2.999731861461278
 10
6.85733446933102
 20
2.999876491166388
 10
6.856105116837682
 20
3.000093435724021
 10
6.854803449491797
 20
3.00038269513422
 10
6.853574096998456
 20
3.000744269396963
 10
6.852344744505115
 20
3.001178158512272
 10
6.851187706864318
 20
3.001612047627561
 10
6.849958354370978
 20
3.002190566447958
 10
6.848801316730184
 20
3.002769085268356
 10
6.847716593941933
 20
3.0034199189413
 10
6.8466318711537
 20
3.004143067466808
 10
6.845547148365451
 20
3.004938530844838
 10
6.844462425577217
 20
3.005733994222891
 10
6.843450017641512
 20
3.006601772453488
 10
6.842509924558393
 20
3.007469550684065
 10
6.840846682949742
 20
3.009132792292714
 10
6.839328071046201
 20
3.010940663606453
 10
6.837954088847753
 20
3.012820849772736
 10
6.836724736354411
 20
3.014845665644128
 10
6.835640013566179
 20
3.016942796368045
 10
6.834772235335582
 20
3.019039927091982
 10
6.834049086810098
 20
3.021281687521029
 10
6.833542882842242
 20
3.023523447950057
 10
6.833253623432043
 20
3.025620578673994
 10
6.833036678874391
 20
3.027717709397931
 10
6.833036678874391
 20
3.029887154974413
 10
6.833181308579478
 20
3.031984285698351
 10
6.833470567989698
 20
3.03408141642229
 10
6.833904457104987
 20
3.036178547146205
 10
6.83455529077795
 20
3.038203363017598
 10
6.835423069008526
 20
3.040155864036446
 10
6.836073902681468
 20
3.041385216529788
 10
6.836724736354411
 20
3.042614569023106
 10
6.837375570027353
 20
3.043771606663903
 10
6.838098718552862
 20
3.044928644304698
 10
6.838749552225806
 20
3.046085681945494
 10
6.839472700751312
 20
3.047170404733725
 10
6.840268164129343
 20
3.048255127521976
 10
6.841063627507375
 20
3.049267535457663
 10
6.841859090885449
 20
3.050352258245915
 10
6.84265455426348
 20
3.0513646661816
 10
6.843522332494057
 20
3.052377074117286
 10
6.844390110724675
 20
3.053389482052993
 10
6.845330203807796
 20
3.054329575136134
 10
6.846270296890957
 20
3.055341983071821
 10
6.847210389974076
 20
3.056282076154962
 10
6.848222797909786
 20
3.057294484090669
 10
6.849090576140381
 20
3.058306892026355
 10
6.849669094960758
 20
3.059391614814586
 10
6.850030669223522
 20
3.060476337602837
 10
6.850102984076067
 20
3.06156106039109
 10
6.850030669223522
 20
3.062645783179319
 10
6.849813724665891
 20
3.063730505967571
 10
6.849452150403124
 20
3.064742913903256
 10
6.848945946435271
 20
3.065755321838943
 10
6.822984914370032
 20
3.065755321838943
 10
6.823563433190432
 20
3.065249117871111
 10
6.824141952010831
 20
3.064742913903256
 10
6.824720470831206
 20
3.064236709935403
 10
6.825298989651605
 20
3.063658191115006
 10
6.825805193619435
 20
3.063079672294628
 10
6.826311397587288
 20
3.062428838621666
 10
6.826745286702597
 20
3.061778004948723
 10
6.827179175817887
 20
3.061127171275779
 10
6.828046954048482
 20
3.059174670256953
 10
6.828480843163792
 20
3.057077539533014
 10
6.828480843163792
 20
3.054908093956532
 10
6.828191583753572
 20
3.052738648380051
 10
6.827613064933175
 20
3.050424573098459
 10
6.826672971850054
 20
3.048182812669433
 10
6.825588249061802
 20
3.046085681945494
 10
6.824358896568463
 20
3.044060866074101
 10
6.823057229222579
 20
3.042036050202729
 10
6.821683247024128
 20
3.040083549183882
 10
6.820309264825675
 20
3.038058733312509
 10
6.819079912332335
 20
3.036033917441116
 10
6.818067504396671
 20
3.034009101569723
 10
6.817199726166053
 20
3.031984285698351
 10
6.816548892493108
 20
3.029814840121869
 10
6.816042688525258
 20
3.027645394545366
 10
6.815753429115077
 20
3.025475948968883
 10
6.815608799409988
 20
3.023234188539857
 10
6.815608799409988
 20
3.020992428110831
 10
6.815825743967622
 20
3.018750667681783
 10
6.816115003377822
 20
3.01730437063081
 10
6.816404262788021
 20
3.015858073579814
 10
6.816838151903331
 20
3.014411776528819
 10
6.817344355871162
 20
3.01303779433039
 10
6.817922874691561
 20
3.01166381213194
 10
6.818573708364501
 20
3.010362144786054
 10
6.819224542037446
 20
3.008988162587603
 10
6.820020005415496
 20
3.007758810094263
 10
6.820815468793528
 20
3.006529457600923
 10
6.821683247024128
 20
3.005300105107582
 10
6.822623340107267
 20
3.004143067466808
 10
6.823635748042977
 20
3.002986029826011
 10
6.82464815597866
 20
3.001901307037759
 10
6.825660563914344
 20
3.00081658424953
 10
6.826745286702597
 20
2.999804176313823
 10
6.827902324343393
 20
2.998864083230681
 10
6.829203991689277
 20
2.997851675294995
 10
6.830650288740253
 20
2.996911582211853
 10
6.832096585791272
 20
2.996043803981256
 10
6.833615197694786
 20
2.995248340603203
 10
6.835206124450892
 20
2.994525192077716
 10
6.836797051206954
 20
2.993874358404774
 10
6.838460292815607
 20
2.993223524731832
 10
6.840123534424256
 20
2.992717320763978
 10
6.841786776032883
 20
2.992283431648691
 10
6.843450017641512
 20
2.991849542533381
 10
6.845185574102704
 20
2.991487968270638
 10
6.846921130563901
 20
2.991271023712983
 10
6.848584372172527
 20
2.99105407915535
 10
6.850319928633721
 20
2.990909449450239
 10
6.851983170242352
 20
2.990764819745152
 10
6.853646411850999
 20
2.990764819745152
 10
6.877871887455067
 20
2.990764819745152
 10
6.877871887455067
 20
3.056643650417705
 10
6.877871887455067
 20
3.057800688058502
 10
6.877871887455067
 20
3.058957725699298
 10
6.878016517160177
 20
3.060187078192638
 10
6.878233461717809
 20
3.061416430685978
 10
6.878667350833119
 20
3.062573468326774
 10
6.879245869653517
 20
3.063658191115006
 10
6.880113647884092
 20
3.064742913903256
 10
6.881270685524889
 20
3.065755321838943
 10
6.855526598017283
 20
3.065755321838943
  0
LWPOLYLINE
  5
373
330
17
100
AcDbEntity
  8
4
  6
Continuous
100
AcDbPolyline
 90
       21
 70
     0
 43
0.0
 10
7.1162547202778
 20
3.065755321838943
 10
7.117628702476228
 20
3.065032173313456
 10
7.118785740117026
 20
3.064164395082858
 10
7.119798148052712
 20
3.063151987147173
 10
7.120521296578218
 20
3.061994949506376
 10
7.121099815398617
 20
3.060693282160491
 10
7.121533704513906
 20
3.059319299962041
 10
7.121750649071561
 20
3.057800688058502
 10
7.121822963924103
 20
3.056209761302417
 10
7.121822963924103
 20
2.990764819745152
 10
7.139612417651271
 20
2.990764819745152
 10
7.139612417651271
 20
3.056426705860073
 10
7.139684732503812
 20
3.057945317763611
 10
7.14004630676658
 20
3.059246985109497
 10
7.140480195881867
 20
3.060548652455381
 10
7.141203344407352
 20
3.061705690096177
 10
7.141998807785407
 20
3.06279041288443
 10
7.143011215721092
 20
3.063875135672659
 10
7.144095938509321
 20
3.064815228755801
 10
7.145397605855229
 20
3.065755321838943
 10
7.1162547202778
 20
3.065755321838943
  0
LWPOLYLINE
  5
38A
330
17
100
AcDbEntity
  8
4
  6
Continuous
100
AcDbPolyline
 90
       73
 70
     0
 43
0.0
 10
6.487033818132385
 20
3.009494366555457
 10
6.488263170625723
 20
3.008771218029971
 10
6.489275578561432
 20
3.00783112494683
 10
6.490143356792007
 20
3.006674087306033
 10
6.49079419046495
 20
3.005372419960148
 10
6.491155764727714
 20
3.003926122909152
 10
6.491228079580259
 20
3.002479825858158
 10
6.491011135022626
 20
3.001105843659728
 10
6.490432616202228
 20
2.999731861461278
 10
6.489781782529286
 20
2.998936398083246
 10
6.48913094885632
 20
2.998213249557738
 10
6.48833548547827
 20
2.997562415884797
 10
6.487467707247692
 20
2.996983897064398
 10
6.486527614164531
 20
2.996550007949109
 10
6.485515206228866
 20
2.996188433686366
 10
6.484430483440612
 20
2.995971489128713
 10
6.483345760652363
 20
2.995899174276167
 10
6.456950839471812
 20
2.995899174276167
 10
6.471196865424045
 20
3.007975754651917
 10
6.472064643654665
 20
3.008771218029971
 10
6.472715477327607
 20
3.009566681408001
 10
6.473293996147985
 20
3.010289829933511
 10
6.473655570410728
 20
3.011012978458996
 10
6.473944829820947
 20
3.011736126984483
 10
6.474089459526036
 20
3.012531590362536
 10
6.474234089231126
 20
3.013254738888023
 10
6.474234089231126
 20
3.014050202266076
 10
6.474234089231126
 20
3.061994949506376
 10
6.474089459526036
 20
3.063007357442062
 10
6.473800200115838
 20
3.06401976537777
 10
6.473293996147985
 20
3.064815228755801
 10
6.472643162475043
 20
3.065538377281309
 10
6.47184769909699
 20
3.066116896101687
 10
6.470979920866414
 20
3.066550785216996
 10
6.469967512930705
 20
3.066840044627194
 10
6.468955104995021
 20
3.066912359479738
 10
6.453335096844337
 20
3.066912359479738
 10
6.454419819632589
 20
3.065827636691508
 10
6.455359912715707
 20
3.064815228755801
 10
6.456155376093762
 20
3.063658191115006
 10
6.456806209766724
 20
3.062501153474231
 10
6.457384728587102
 20
3.061199486128323
 10
6.457746302849846
 20
3.059825503929895
 10
6.457963247407499
 20
3.058234577173811
 10
6.458035562260066
 20
3.056426705860073
 10
6.458035562260066
 20
3.006384827895833
 10
6.44516351850624
 20
2.990764819745152
 10
6.493831414272031
 20
2.990764819745152
 10
6.494626877650081
 20
2.990837134597694
 10
6.49549465588068
 20
2.990909449450239
 10
6.496290119258711
 20
2.99105407915535
 10
6.497157897489326
 20
2.991343338565548
 10
6.498025675719905
 20
2.991632597975748
 10
6.498821139097957
 20
2.991994172238491
 10
6.499616602476011
 20
2.992355746501234
 10
6.500412065854041
 20
2.992789635616523
 10
6.501207529232074
 20
2.993295839584376
 10
6.501930677757581
 20
2.993802043552229
 10
6.502653826283087
 20
2.994380562372628
 10
6.503376974808573
 20
2.994959081193004
 10
6.503955493628972
 20
2.995537600013403
 10
6.504606327301916
 20
2.996188433686366
 10
6.505112531269768
 20
2.996839267359308
 10
6.505618735237601
 20
2.997490101032251
 10
6.506775772878397
 20
2.999804176313823
 10
6.507498921403906
 20
3.002407511005613
 10
6.50786049566663
 20
3.005300105107582
 10
6.507788180814082
 20
3.008265014062116
 10
6.507281976846231
 20
3.011085293311542
 10
6.506414198615653
 20
3.013688628003333
 10
6.505184846122315
 20
3.015858073579814
 10
6.503521604513661
 20
3.017521315188443
 10
6.487033818132385
 20
3.009494366555457
  0
LWPOLYLINE
  5
3D5
330
17
100
AcDbEntity
  8
4
  6
Continuous
100
AcDbPolyline
 90
       21
 70
     0
 43
0.0
 10
6.649612123884365
 20
3.065610692133855
 10
6.630521002811292
 20
3.065610692133855
 10
6.631461095894453
 20
3.064959858460912
 10
6.632401188977576
 20
3.064092080230314
 10
6.633341282060738
 20
3.063224301999718
 10
6.63413674543877
 20
3.062211894064031
 10
6.634859893964277
 20
3.061199486128323
 10
6.635438412784655
 20
3.060042448487549
 10
6.635799987047419
 20
3.058885410846753
 10
6.635944616752509
 20
3.057656058353413
 10
6.635944616752509
 20
2.99105407915535
 10
6.653951015037349
 20
2.99105407915535
 10
6.653951015037349
 20
3.061271800980891
 10
6.653878700184785
 20
3.062284208916576
 10
6.653661755627132
 20
3.063151987147173
 10
6.653227866511841
 20
3.063875135672659
 10
6.652721662544009
 20
3.064525969345603
 10
6.652070828871046
 20
3.064959858460912
 10
6.651347680345558
 20
3.065321432723654
 10
6.650552216967506
 20
3.065538377281309
 10
6.649612123884365
 20
3.065610692133855
  0
LWPOLYLINE
  5
3EC
330
17
100
AcDbEntity
  8
4
  6
Continuous
100
AcDbPolyline
 90
      133
 70
     0
 43
0.0
 10
6.574177431590242
 20
3.066984674332283
 10
6.558774367997213
 20
3.066984674332283
 10
6.559859090785467
 20
3.065827636691508
 10
6.560799183868584
 20
3.064670599050713
 10
6.561522332394093
 20
3.063513561409916
 10
6.562173166067035
 20
3.062428838621666
 10
6.562679370034892
 20
3.061344115833434
 10
6.563040944297632
 20
3.060259393045182
 10
6.563330203707832
 20
3.059102355404407
 10
6.563402518560377
 20
3.057945317763611
 10
6.563402518560377
 20
3.018461408271585
 10
6.562100851214492
 20
3.018606037976694
 10
6.560726869016042
 20
3.018822982534348
 10
6.559425201670157
 20
3.019039927091982
 10
6.558051219471725
 20
3.019329186502182
 10
6.556749552125842
 20
3.019690760764946
 10
6.555375569927392
 20
3.020052335027689
 10
6.554073902581485
 20
3.020486224142978
 10
6.552772235235599
 20
3.020920113258265
 10
6.551542882742261
 20
3.021426317226118
 10
6.550241215396376
 20
3.022004836046516
 10
6.549084177755578
 20
3.022583354866914
 10
6.547854825262238
 20
3.023234188539857
 10
6.546697787621441
 20
3.023957337065345
 10
6.545540749980647
 20
3.024680485590852
 10
6.544456027192417
 20
3.02554826382145
 10
6.543443619256731
 20
3.026416042052026
 10
6.541563433090447
 20
3.02829622821833
 10
6.539900191481797
 20
3.030393358942268
 10
6.538453894430825
 20
3.032635119371293
 10
6.537152227084916
 20
3.035093824357975
 10
6.536139819149231
 20
3.037552529344656
 10
6.535272040918633
 20
3.040228178888991
 10
6.534693522098237
 20
3.042903828433306
 10
6.534331947835491
 20
3.045651792830185
 10
6.534115003277858
 20
3.048399757227066
 10
6.534115003277858
 20
3.051220036476511
 10
6.534404262688036
 20
3.053968000873392
 10
6.534838151803348
 20
3.056715965270271
 10
6.535488985476288
 20
3.059463929667151
 10
6.536429078559431
 20
3.062067264358921
 10
6.537513801347662
 20
3.064598284198169
 10
6.538815468693544
 20
3.066984674332283
 10
6.519073513947552
 20
3.066984674332283
 10
6.517627216896578
 20
3.062356523769121
 10
6.516614808960871
 20
3.057873002911046
 10
6.516108604993019
 20
3.053389482052993
 10
6.516036290140474
 20
3.049122905752573
 10
6.516325549550672
 20
3.044928644304698
 10
6.517121012928727
 20
3.040951327414478
 10
6.518278050569522
 20
3.037118640229368
 10
6.519796662473041
 20
3.033430582749326
 10
6.521749163491867
 20
3.030031784679502
 10
6.523990923920913
 20
3.02677761631479
 10
6.526594258612686
 20
3.023812707360256
 10
6.529486852714677
 20
3.021064742963376
 10
6.532741021079387
 20
3.01867835282924
 10
6.536284448854321
 20
3.016508907252756
 10
6.540044821186888
 20
3.014701035939018
 10
6.54409445292967
 20
3.013182424035478
 10
6.545251490570469
 20
3.012820849772736
 10
6.546480843063808
 20
3.012531590362536
 10
6.547710195557148
 20
3.012242330952338
 10
6.549011862903034
 20
3.011953071542138
 10
6.550241215396376
 20
3.011736126984483
 10
6.551542882742261
 20
3.011591497279396
 10
6.552772235235599
 20
3.011374552721741
 10
6.554073902581485
 20
3.011302237869196
 10
6.555303255074827
 20
3.011157608164107
 10
6.556532607568167
 20
3.011085293311542
 10
6.557761960061506
 20
3.011012978458996
 10
6.558918997702304
 20
3.011012978458996
 10
6.560076035343098
 20
3.011012978458996
 10
6.561160758131352
 20
3.011012978458996
 10
6.562245480919602
 20
3.011085293311542
 10
6.563257888855267
 20
3.011157608164107
 10
6.563257888855267
 20
3.003492233793843
 10
6.555375569927392
 20
2.999081027788336
 10
6.553784643171307
 20
2.998719453525593
 10
6.552193716415201
 20
2.998502508967937
 10
6.550602789659119
 20
2.998502508967937
 10
6.549156492608124
 20
2.998719453525593
 10
6.547637880704603
 20
2.999008712935791
 10
6.546263898506156
 20
2.999514916903623
 10
6.544962231160268
 20
3.000165750576586
 10
6.543660563814365
 20
3.000888899102073
 10
6.542431211321022
 20
3.001756677332672
 10
6.541274173680228
 20
3.002696770415812
 10
6.540189450891996
 20
3.003781493204042
 10
6.539177042956309
 20
3.004866215992294
 10
6.538236949873146
 20
3.006095568485634
 10
6.537369171642571
 20
3.007324920978975
 10
6.53657370826454
 20
3.008554273472316
 10
6.535922874591599
 20
3.009855940818201
 10
6.522038422902087
 20
3.0034199189413
 10
6.522689256575031
 20
3.002190566447958
 10
6.523484719953062
 20
3.000961213954618
 10
6.524280183331113
 20
2.999659546608734
 10
6.525147961561709
 20
2.998430194115393
 10
6.526160369497397
 20
2.997200841622053
 10
6.527172777433081
 20
2.995971489128713
 10
6.528329815073878
 20
2.99488676634046
 10
6.529486852714677
 20
2.993729728699665
 10
6.530716205208014
 20
2.992717320763978
 10
6.532090187406446
 20
2.991777227680836
 10
6.533536484457463
 20
2.990981764302785
 10
6.534982781508436
 20
2.990186300924754
 10
6.53657370826454
 20
2.989607782104354
 10
6.538164635020603
 20
2.989101578136502
 10
6.539900191481797
 20
2.988740003873758
 10
6.541708062795535
 20
2.988595374168669
 10
6.542286581615933
 20
2.988595374168669
 10
6.542865100436332
 20
2.988667689021213
 10
6.543515934109272
 20
2.988740003873758
 10
6.544166767782217
 20
2.988812318726303
 10
6.544745286602616
 20
2.988956948431413
 10
6.545396120275556
 20
2.989173892989068
 10
6.545974639095955
 20
2.989390837546701
 10
6.546553157916354
 20
2.989607782104354
 10
6.577865489070264
 20
3.008048069504463
 10
6.578588637595771
 20
3.008626588324861
 10
6.579094841563605
 20
3.009422051702912
 10
6.579311786121279
 20
3.010362144786054
 10
6.579384100973825
 20
3.011374552721741
 10
6.579384100973825
 20
3.059825503929895
 10
6.579239471268715
 20
3.061488745538524
 10
6.578950211858518
 20
3.063007357442062
 10
6.57844400789066
 20
3.064236709935403
 10
6.57779317421772
 20
3.065249117871111
 10
6.576997710839688
 20
3.065972266396598
 10
6.576057617756525
 20
3.066550785216996
 10
6.575117524673407
 20
3.066840044627194
 10
6.574177431590242
 20
3.066984674332283
  0
LWPOLYLINE
  5
473
330
17
100
AcDbEntity
  8
4
  6
Continuous
100
AcDbPolyline
 90
       96
 70
     0
 43
0.0
 10
6.729718871115847
 20
2.990764819745152
 10
6.72856183347505
 20
2.991560283123183
 10
6.727404795834255
 20
2.992355746501234
 10
6.726392387898568
 20
2.993295839584376
 10
6.725524609667972
 20
2.994235932667518
 10
6.724801461142487
 20
2.99532065545577
 10
6.724222942322088
 20
2.996550007949109
 10
6.723861368059344
 20
2.997851675294995
 10
6.723716738354233
 20
2.999225657493425
 10
6.723716738354233
 20
3.04615799679804
 10
6.723716738354233
 20
3.048110497816888
 10
6.723572108649124
 20
3.050062998835716
 10
6.723282849238946
 20
3.052160129559653
 10
6.722704330418546
 20
3.054184945431024
 10
6.72183655218795
 20
3.056282076154962
 10
6.7204625699895
 20
3.058234577173811
 10
6.718654698675761
 20
3.060187078192638
 10
6.716195993689082
 20
3.062067264358921
 10
6.714677381785563
 20
3.063007357442062
 10
6.713086455029456
 20
3.063802820820116
 10
6.711495528273373
 20
3.064453654493058
 10
6.709759971812201
 20
3.065032173313456
 10
6.708024415351006
 20
3.0653937475762
 10
6.70628885888981
 20
3.065610692133855
 10
6.704553302428618
 20
3.065755321838943
 10
6.702745431114879
 20
3.065755321838943
 10
6.701009874653706
 20
3.065610692133855
 10
6.699274318192513
 20
3.0653937475762
 10
6.697611076583883
 20
3.065104488166001
 10
6.695947834975235
 20
3.064670599050713
 10
6.694429223071717
 20
3.064164395082858
 10
6.692910611168155
 20
3.063513561409916
 10
6.691464314117182
 20
3.062862727736973
 10
6.690162646771297
 20
3.062067264358921
 10
6.689439498245791
 20
3.061705690096177
 10
6.688788664572844
 20
3.061344115833434
 10
6.688065516047338
 20
3.060982541570691
 10
6.687414682374393
 20
3.060548652455381
 10
6.686763848701454
 20
3.060042448487549
 10
6.686040700175967
 20
3.059536244519696
 10
6.685389866503022
 20
3.058885410846753
 10
6.684594403124972
 20
3.058234577173811
 10
6.684232828862225
 20
3.059608559372241
 10
6.683654310041829
 20
3.060837911865581
 10
6.683003476368887
 20
3.061922634653833
 10
6.682208012990857
 20
3.062935042589518
 10
6.681340234760236
 20
3.063802820820116
 10
6.680400141677115
 20
3.064525969345603
 10
6.679460048593953
 20
3.065176803018545
 10
6.678447640658268
 20
3.065683006986398
 10
6.661887539424443
 20
3.065683006986398
 10
6.663406151327983
 20
3.064598284198146
 10
6.664707818673869
 20
3.063368931704806
 10
6.665792541462121
 20
3.062067264358921
 10
6.66673263454524
 20
3.060548652455381
 10
6.667455783070749
 20
3.058957725699298
 10
6.667961987038582
 20
3.057149854385558
 10
6.668323561301344
 20
3.055269668219276
 10
6.668395876153888
 20
3.053172537495338
 10
6.668395876153888
 20
2.988956948431413
 10
6.685245236797936
 20
3.001973621890305
 10
6.685245236797936
 20
3.046447256208238
 10
6.68553449620811
 20
3.048833646342375
 10
6.686257644733598
 20
3.050930777066313
 10
6.687342367521852
 20
3.052738648380051
 10
6.688788664572844
 20
3.054257260283591
 10
6.690451906181473
 20
3.055486612776931
 10
6.692259777495213
 20
3.056354391007528
 10
6.694212278514039
 20
3.056932909827904
 10
6.696164779532891
 20
3.057149854385558
 10
6.697321817173684
 20
3.057149854385558
 10
6.69847885481446
 20
3.057005224680471
 10
6.699563577602712
 20
3.056788280122816
 10
6.700648300390962
 20
3.056499020712616
 10
6.701660708326648
 20
3.056137446449873
 10
6.702673116262334
 20
3.05563124248202
 10
6.703613209345497
 20
3.055125038514165
 10
6.704480987576071
 20
3.054474204841223
 10
6.705348765806672
 20
3.053823371168281
 10
6.706071914332178
 20
3.053100222642795
 10
6.706650433152576
 20
3.052232444412198
 10
6.707228951972954
 20
3.051436981034144
 10
6.707662841088242
 20
3.050496887951003
 10
6.70795210049846
 20
3.049556794867861
 10
6.708169045056094
 20
3.048544386932176
 10
6.708241359908639
 20
3.047459664143924
 10
6.708241359908639
 20
2.997851675294995
 10
6.708313674761183
 20
2.996694637654199
 10
6.708458304466294
 20
2.995465285160858
 10
6.708819878729039
 20
2.994308247520061
 10
6.709326082696891
 20
2.993151209879288
 10
6.710121546074923
 20
2.992211116796146
 10
6.711133954010629
 20
2.991415653418093
 10
6.71250793620906
 20
2.990909449450239
 10
6.714243492670253
 20
2.990764819745152
 10
6.729718871115847
 20
2.990764819745152
  0
LWPOLYLINE
  5
4D5
330
17
100
AcDbEntity
  8
4
  6
Continuous
100
AcDbPolyline
 90
       34
 70
     0
 43
0.0
 10
6.761583458568128
 20
3.059970133634983
 10
6.764403737817532
 20
3.059680874224785
 10
6.767151702214432
 20
3.059102355404386
 10
6.769755036906204
 20
3.058089947468701
 10
6.772286056745428
 20
3.056715965270271
 10
6.774600132027018
 20
3.055125038514165
 10
6.776841892456067
 20
3.053172537495338
 10
6.77886670832744
 20
3.051003091918857
 10
6.780746894493723
 20
3.04861670178472
 10
6.782482450954917
 20
3.045941052240384
 10
6.783928748005892
 20
3.043193087843504
 10
6.785230415351775
 20
3.040228178888991
 10
6.786315138140027
 20
3.037190955081912
 10
6.787182916370621
 20
3.034009101569723
 10
6.787761435191022
 20
3.030754933205011
 10
6.788195324306308
 20
3.027500764840278
 10
6.788267639158855
 20
3.024174281622998
 10
6.788050694601222
 20
3.02113705781592
 10
6.787472175780822
 20
3.01824446371395
 10
6.786604397550226
 20
3.015424184464506
 10
6.785447359909451
 20
3.012820849772736
 10
6.784001062858457
 20
3.010289829933511
 10
6.782337821249827
 20
3.007975754651917
 10
6.780457635083521
 20
3.005878623927981
 10
6.778505134064674
 20
3.003926122909152
 10
6.776408003340757
 20
3.002118251595415
 10
6.774238557764276
 20
3.00052732483933
 10
6.771996797335251
 20
2.999153342640879
 10
6.769827351758746
 20
2.997996305000084
 10
6.767585591329721
 20
2.997128526769508
 10
6.765488460605782
 20
2.996405378243999
 10
6.763463644734411
 20
2.995971489128713
 10
6.761583458568128
 20
2.995754544571058
 10
6.761583458568128
 20
3.059970133634983
  0
LWPOLYLINE
  5
4F9
330
17
100
AcDbEntity
  8
4
  6
Continuous
100
AcDbPolyline
 90
       44
 70
     0
 43
0.0
 10
6.769755036906204
 20
3.065972266396598
 10
6.737719557226784
 20
3.065972266396598
 10
6.738731965162469
 20
3.0653937475762
 10
6.739889002803264
 20
3.064598284198146
 10
6.740973725591517
 20
3.063441246557372
 10
6.742058448379768
 20
3.062139579211466
 10
6.742998541462887
 20
3.060620967307927
 10
6.743794004840941
 20
3.058885410846753
 10
6.744227893956231
 20
3.057077539533014
 10
6.744444838513905
 20
3.055125038514165
 10
6.744444838513905
 20
2.990764819745152
 10
6.768453369560316
 20
2.990764819745152
 10
6.772503001303081
 20
2.990981764302785
 10
6.776408003340757
 20
2.991560283123183
 10
6.780168375673325
 20
2.992500376206323
 10
6.783711803448254
 20
2.993802043552229
 10
6.787038286665512
 20
2.995465285160858
 10
6.790220140177702
 20
2.997490101032251
 10
6.793112734279669
 20
2.999731861461278
 10
6.79578838382403
 20
3.002335196153069
 10
6.798174773958144
 20
3.005155475402493
 10
6.800344219534628
 20
3.008265014062116
 10
6.80222440570091
 20
3.011591497279396
 10
6.803743017604468
 20
3.015134925054328
 10
6.804972370097811
 20
3.018895297386893
 10
6.805912463180932
 20
3.022800299424569
 10
6.806418667148784
 20
3.026922246019879
 10
6.80663561170644
 20
3.031188822320298
 10
6.806490982001327
 20
3.034804564947776
 10
6.805912463180932
 20
3.038275677870143
 10
6.804972370097811
 20
3.041602161087421
 10
6.803670702751902
 20
3.044784014599609
 10
6.802079775995818
 20
3.047893553259233
 10
6.800199589829536
 20
3.050713832508658
 10
6.798030144253032
 20
3.053389482052993
 10
6.795571439266352
 20
3.055848187039674
 10
6.792968104574582
 20
3.058089947468701
 10
6.790075510472592
 20
3.060114763340093
 10
6.787038286665512
 20
3.061850319801288
 10
6.783784118300802
 20
3.063296616852261
 10
6.780457635083521
 20
3.064453654493058
 10
6.776986522161156
 20
3.065321432723654
 10
6.773370779533678
 20
3.065827636691508
 10
6.769755036906204
 20
3.065972266396598
  0
LWPOLYLINE
  5
527
330
17
100
AcDbEntity
  8
4
  6
Continuous
100
AcDbPolyline
 90
       21
 70
     0
 43
0.0
 10
6.401991294973836
 20
3.062862727736973
 10
6.419708433848457
 20
3.062862727736973
 10
6.422022509130027
 20
3.062645783179319
 10
6.424119639853966
 20
3.061994949506376
 10
6.426072140872816
 20
3.060982541570691
 10
6.427807697334007
 20
3.059608559372241
 10
6.429181679532437
 20
3.057945317763611
 10
6.43026640232069
 20
3.055992816744763
 10
6.430917235993629
 20
3.053895686020826
 10
6.431134180551262
 20
3.051581610739254
 10
6.430989550846173
 20
3.049701424572971
 10
6.430555661730865
 20
3.047821238406688
 10
6.429832513205378
 20
3.04615799679804
 10
6.428892420122236
 20
3.044567070041956
 10
6.427663067628897
 20
3.043265402696071
 10
6.426216770577902
 20
3.042252994760362
 10
6.424553528969253
 20
3.041602161087421
 10
6.422601027950426
 20
3.041385216529788
 10
6.405317778191112
 20
3.041385216529788
 10
6.405317778191112
 20
3.058957725699298
 10
6.401991294973836
 20
3.062862727736973
  0
LWPOLYLINE
  5
53E
330
17
100
AcDbEntity
  8
4
  6
Continuous
100
AcDbPolyline
 90
       21
 70
     0
 43
0.0
 10
6.331982537491538
 20
3.063007357442062
 10
6.349699676366157
 20
3.063007357442062
 10
6.351941436795186
 20
3.06279041288443
 10
6.354110882371667
 20
3.062139579211466
 10
6.355991068537972
 20
3.061127171275779
 10
6.357726624999142
 20
3.059753189077351
 10
6.359100607197595
 20
3.058089947468701
 10
6.360185329985825
 20
3.056209761302417
 10
6.36083616365879
 20
3.054112630578479
 10
6.361053108216422
 20
3.05179855529691
 10
6.360908478511332
 20
3.049918369130604
 10
6.360474589396025
 20
3.048038182964321
 10
6.359823755723081
 20
3.046302626503149
 10
6.35888366263994
 20
3.044784014599609
 10
6.3576543101466
 20
3.043482347253703
 10
6.356208013095605
 20
3.042469939318018
 10
6.354544771486954
 20
3.041819105645076
 10
6.352592270468127
 20
3.041602161087421
 10
6.335309020708815
 20
3.041602161087421
 10
6.335309020708815
 20
3.059174670256953
 10
6.331982537491538
 20
3.063007357442062
  0
LWPOLYLINE
  5
555
330
17
100
AcDbEntity
  8
4
  6
Continuous
100
AcDbPolyline
 90
       46
 70
     0
 43
0.0
 10
6.352447640763037
 20
3.066984674332283
 10
6.313180675828687
 20
3.066984674332283
 10
6.314048454059263
 20
3.065827636691508
 10
6.314843917437294
 20
3.064525969345603
 10
6.315639380815367
 20
3.063224301999718
 10
6.316290214488311
 20
3.061850319801288
 10
6.316796418456142
 20
3.060404022750292
 10
6.317230307571431
 20
3.058957725699298
 10
6.317519566981648
 20
3.057583743500868
 10
6.317591881834196
 20
3.056137446449873
 10
6.317591881834196
 20
2.989390837546701
 10
6.335164391003727
 20
3.006240198190723
 10
6.335164391003727
 20
3.036178547146205
 10
6.358739032934829
 20
3.036178547146205
 10
6.360329959690936
 20
3.036250861998771
 10
6.361848571594451
 20
3.036323176851316
 10
6.363367183498013
 20
3.03654012140897
 10
6.364813480548987
 20
3.036829380819168
 10
6.366259777599982
 20
3.037263269934456
 10
6.367633759798432
 20
3.037841788754854
 10
6.368935427144317
 20
3.038492622427798
 10
6.370092464785113
 20
3.039288085805849
 10
6.371249502425911
 20
3.040228178888991
 10
6.372189595509031
 20
3.041385216529788
 10
6.37305737373965
 20
3.042614569023106
 10
6.373780522265137
 20
3.044060866074101
 10
6.374286726232991
 20
3.045724107682751
 10
6.374720615348277
 20
3.04753197899649
 10
6.374937559905933
 20
3.049556794867861
 10
6.374937559905933
 20
3.05179855529691
 10
6.374720615348277
 20
3.054184945431024
 10
6.374286726232991
 20
3.056282076154962
 10
6.373563577707482
 20
3.058162262321246
 10
6.372695799476883
 20
3.059825503929895
 10
6.37153876183609
 20
3.061271800980891
 10
6.370309409342747
 20
3.062501153474231
 10
6.368863112291776
 20
3.063585876262461
 10
6.367272185535669
 20
3.064453654493058
 10
6.365608943927041
 20
3.065176803018545
 10
6.363801072613302
 20
3.065755321838943
 10
6.361993201299562
 20
3.066189210954251
 10
6.36011301513328
 20
3.066478470364451
 10
6.358160514114432
 20
3.066767729774649
 10
6.356208013095605
 20
3.066912359479738
 10
6.354327826929322
 20
3.066984674332283
 10
6.352447640763037
 20
3.066984674332283
  0
LWPOLYLINE
  5
585
330
17
100
AcDbEntity
  8
4
  6
Continuous
100
AcDbPolyline
 90
      104
 70
     0
 43
0.0
 10
6.280191745495665
 20
3.066912359479738
 10
6.282216561367036
 20
3.064742913903256
 10
6.283084339597634
 20
3.063513561409916
 10
6.28380748812312
 20
3.062284208916576
 10
6.284458321796082
 20
3.061127171275779
 10
6.284964525763915
 20
3.060042448487549
 10
6.285398414879201
 20
3.058885410846753
 10
6.285687674289424
 20
3.057728373205958
 10
6.285832303994514
 20
3.056571335565162
 10
6.285904618847059
 20
3.055341983071821
 10
6.285904618847059
 20
2.999153342640879
 10
6.284096747533317
 20
2.999370287198535
 10
6.282288876219581
 20
2.999731861461278
 10
6.280553319758386
 20
3.000165750576586
 10
6.278817763297214
 20
3.000744269396963
 10
6.277154521688585
 20
3.001467417922471
 10
6.275491280079936
 20
3.002190566447958
 10
6.273828038471287
 20
3.003058344678557
 10
6.272309426567767
 20
3.003998437761698
 10
6.270790814664206
 20
3.005083160549948
 10
6.269344517613232
 20
3.006167883338179
 10
6.267970535414804
 20
3.007397235831521
 10
6.266668868068897
 20
3.008698903177405
 10
6.265367200723012
 20
3.010000570523311
 10
6.264210163082218
 20
3.011446867574285
 10
6.263125440293986
 20
3.012965479477825
 10
6.26211303235828
 20
3.014484091381365
 10
6.260522105602198
 20
3.017376685483355
 10
6.259220438256309
 20
3.020413909290433
 10
6.258208030320624
 20
3.0235957628026
 10
6.257557196647682
 20
3.026849931167334
 10
6.257267937237463
 20
3.030176414384612
 10
6.257412566942572
 20
3.033430582749326
 10
6.258063400615513
 20
3.036757065966602
 10
6.259148123403744
 20
3.039938919478793
 10
6.259726642224142
 20
3.041312901677221
 10
6.260377475897084
 20
3.042614569023106
 10
6.261100624422594
 20
3.043916236369013
 10
6.261823772948101
 20
3.045145588862353
 10
6.262619236326132
 20
3.046447256208238
 10
6.263487014556731
 20
3.047676608701578
 10
6.264354792787326
 20
3.048833646342375
 10
6.265222571017901
 20
3.050062998835716
 10
6.266162664101067
 20
3.051220036476511
 10
6.267102757184185
 20
3.052304759264741
 10
6.268115165119893
 20
3.053461796905537
 10
6.269127573055579
 20
3.054546519693789
 10
6.270139980991264
 20
3.05563124248202
 10
6.271224703779516
 20
3.056643650417705
 10
6.272237111715226
 20
3.057656058353413
 10
6.273321834503454
 20
3.058668466289098
 10
6.27418961273405
 20
3.059680874224785
 10
6.274768131554449
 20
3.060837911865581
 10
6.275129705817191
 20
3.061994949506376
 10
6.275129705817191
 20
3.063224301999718
 10
6.274985076112082
 20
3.064309024787948
 10
6.274551186996792
 20
3.0653937475762
 10
6.274044983028962
 20
3.066261525806797
 10
6.273321834503454
 20
3.066912359479738
 10
6.247433117290738
 20
3.066912359479738
 10
6.248662469784078
 20
3.065755321838943
 10
6.250036451982505
 20
3.064309024787948
 10
6.251338119328414
 20
3.062573468326774
 10
6.252422842116643
 20
3.060693282160491
 10
6.253218305494695
 20
3.058596151436555
 10
6.253579879757442
 20
3.056426705860073
 10
6.253290620347262
 20
3.054257260283591
 10
6.252278212411555
 20
3.052160129559653
 10
6.244323578631114
 20
3.038275677870143
 10
6.242371077612285
 20
3.034226046127377
 10
6.241141725118946
 20
3.029959469826958
 10
6.240563206298548
 20
3.02554826382145
 10
6.24063552115109
 20
3.021064742963376
 10
6.24135866967658
 20
3.016581222105301
 10
6.242804966727574
 20
3.012314645804881
 10
6.244829782598967
 20
3.008265014062116
 10
6.247505432143281
 20
3.00464927143464
 10
6.248807099489168
 20
3.003202974383667
 10
6.250181081687619
 20
3.001828992185216
 10
6.251627378738612
 20
3.000455009986765
 10
6.253145990642152
 20
2.999153342640879
 10
6.254664602545691
 20
2.997996305000084
 10
6.25632784415434
 20
2.996839267359308
 10
6.257991085762949
 20
2.995754544571058
 10
6.259726642224142
 20
2.994814451487916
 10
6.261462198685336
 20
2.993874358404774
 10
6.263270069999075
 20
2.993078895026721
 10
6.265077941312814
 20
2.99242806135378
 10
6.266958127479098
 20
2.991849542533381
 10
6.268838313645379
 20
2.991343338565548
 10
6.270790814664206
 20
2.99105407915535
 10
6.272671000830513
 20
2.990837134597694
 10
6.274623501849363
 20
2.990764819745152
 10
6.302320090375795
 20
2.990764819745152
 10
6.302320090375795
 20
3.056065131597328
 10
6.302392405228339
 20
3.057511428648302
 10
6.302464720080879
 20
3.058957725699298
 10
6.302681664638536
 20
3.060331707897728
 10
6.302970924048737
 20
3.061778004948723
 10
6.303404813164043
 20
3.063151987147173
 10
6.303911017131878
 20
3.064453654493058
 10
6.304489535952275
 20
3.065683006986398
 10
6.305140369625219
 20
3.066912359479738
 10
6.280191745495665
 20
3.066912359479738
  0
LWPOLYLINE
  5
5EF
330
17
100
AcDbEntity
  8
4
  6
Continuous
100
AcDbPolyline
 90
      213
 70
     0
 43
0.0
 10
6.223660135643242
 20
3.062501153474231
 10
6.221996894034632
 20
3.063151987147173
 10
6.220333652425985
 20
3.063730505967571
 10
6.218670410817334
 20
3.064236709935403
 10
6.216934854356162
 20
3.064670599050713
 10
6.215199297894969
 20
3.064959858460912
 10
6.213463741433796
 20
3.065249117871111
 10
6.211728184972602
 20
3.065466062428743
 10
6.209992628511407
 20
3.065610692133855
 10
6.208184757197668
 20
3.065683006986398
 10
6.206449200736474
 20
3.065683006986398
 10
6.204641329422735
 20
3.065610692133855
 10
6.202905772961564
 20
3.065466062428743
 10
6.201097901647825
 20
3.065249117871111
 10
6.19936234518663
 20
3.065032173313456
 10
6.197626788725457
 20
3.064670599050713
 10
6.195891232264263
 20
3.064309024787948
 10
6.192854008457184
 20
3.063368931704806
 10
6.189889099502653
 20
3.061994949506376
 10
6.187068820253228
 20
3.060404022750292
 10
6.184320855856347
 20
3.058451521731444
 10
6.181789836017122
 20
3.056282076154962
 10
6.179403445882983
 20
3.053823371168281
 10
6.177306315159047
 20
3.051220036476511
 10
6.175426128992762
 20
3.048472072079631
 10
6.173907517089223
 20
3.045579477977641
 10
6.172750479448428
 20
3.042542254170562
 10
6.17188270121783
 20
3.039505030363482
 10
6.171521126955088
 20
3.036395491703859
 10
6.171593441807631
 20
3.033285953044237
 10
6.172099645775484
 20
3.030176414384612
 10
6.173112053711192
 20
3.027139190577533
 10
6.174702980467253
 20
3.024246596475543
 10
6.175064554730019
 20
3.023812707360256
 10
6.175498443845308
 20
3.023451133097513
 10
6.175932332960597
 20
3.023161873687313
 10
6.176438536928448
 20
3.022872614277113
 10
6.176944740896302
 20
3.022727984572004
 10
6.177450944864157
 20
3.02265566971946
 10
6.178029463684554
 20
3.02265566971946
 10
6.178607982504951
 20
3.022800299424569
 10
6.199145400628976
 20
3.026705301462225
 10
6.200302438269772
 20
3.026922246019879
 10
6.201459475910566
 20
3.02706687572499
 10
6.202688828403909
 20
3.027283820282623
 10
6.203845866044704
 20
3.027356135135188
 10
6.205075218538044
 20
3.027500764840278
 10
6.20623225617884
 20
3.027573079692821
 10
6.207389293819637
 20
3.027573079692821
 10
6.208618646312976
 20
3.027573079692821
 10
6.209775683953774
 20
3.027500764840278
 10
6.210932721594549
 20
3.027428449987732
 10
6.212089759235345
 20
3.027283820282623
 10
6.21324679687612
 20
3.02706687572499
 10
6.21433151966437
 20
3.02677761631479
 10
6.215488557305167
 20
3.026488356904591
 10
6.216573280093419
 20
3.026054467789281
 10
6.217658002881647
 20
3.025620578673994
 10
6.22011670786833
 20
3.024101966770455
 10
6.221924579182067
 20
3.021932521193973
 10
6.22315393167541
 20
3.019401501354725
 10
6.223877080200917
 20
3.016508907252756
 10
6.223949395053463
 20
3.013471683445678
 10
6.223443191085608
 20
3.010362144786054
 10
6.222430783149922
 20
3.007469550684065
 10
6.220912171246383
 20
3.004793901139751
 10
6.219827448458132
 20
3.003564548646409
 10
6.218742725669879
 20
3.002335196153069
 10
6.217441058323994
 20
3.001322788217361
 10
6.216139390978107
 20
3.00038269513422
 10
6.214765408779681
 20
2.999514916903623
 10
6.21324679687612
 20
2.998791768378136
 10
6.211728184972602
 20
2.998285564410283
 10
6.210137258216496
 20
2.997851675294995
 10
6.208257072050213
 20
2.997634730737339
 10
6.206376885883929
 20
2.997634730737339
 10
6.204569014570192
 20
2.997779360442451
 10
6.202688828403909
 20
2.998213249557738
 10
6.200953271942714
 20
2.998719453525593
 10
6.199145400628976
 20
2.999442602051078
 10
6.197482159020347
 20
3.000310380281676
 10
6.195818917411719
 20
3.001322788217361
 10
6.194227990655613
 20
3.002479825858158
 10
6.192709378752097
 20
3.003709178351498
 10
6.191263081701077
 20
3.005083160549948
 10
6.189889099502653
 20
3.006529457600923
 10
6.188659747009307
 20
3.008048069504463
 10
6.187430394515968
 20
3.009638996260568
 10
6.186345671727718
 20
3.011302237869196
 10
6.185405578644596
 20
3.012965479477825
 10
6.168700847705662
 20
3.005372419960148
 10
6.169568625936259
 20
3.003202974383667
 10
6.17065334872449
 20
3.001105843659728
 10
6.172099645775484
 20
2.999225657493425
 10
6.173762887384133
 20
2.997417786179708
 10
6.175643073550417
 20
2.995754544571058
 10
6.177740204274333
 20
2.994235932667518
 10
6.17998196470338
 20
2.992861950469089
 10
6.182368354837518
 20
2.991632597975748
 10
6.184899374676743
 20
2.990620190040041
 10
6.187502709368513
 20
2.989752411809443
 10
6.190250673765414
 20
2.989029263283957
 10
6.19292632330973
 20
2.988595374168669
 10
6.195674287706609
 20
2.988233799905925
 10
6.198422252103488
 20
2.988161485053359
 10
6.201097901647825
 20
2.988306114758469
 10
6.203773551192159
 20
2.988595374168669
 10
6.20579836706353
 20
2.989029263283957
 10
6.207750868082359
 20
2.989607782104354
 10
6.209703369101211
 20
2.990258615777298
 10
6.211583555267512
 20
2.99105407915535
 10
6.21339142658123
 20
2.991994172238491
 10
6.215199297894969
 20
2.993078895026721
 10
6.216862539503598
 20
2.994163617814973
 10
6.218525781112246
 20
2.995465285160858
 10
6.220044393015784
 20
2.996766952506743
 10
6.221563004919326
 20
2.998213249557738
 10
6.222936987117755
 20
2.999731861461278
 10
6.224238654463639
 20
3.001395103069928
 10
6.225395692104437
 20
3.003058344678557
 10
6.226480414892687
 20
3.004793901139751
 10
6.227420507975827
 20
3.006601772453488
 10
6.228288286206425
 20
3.008481958619772
 10
6.229083749584458
 20
3.01057908934371
 10
6.229662268404856
 20
3.012676220067647
 10
6.230096157520161
 20
3.014773350791562
 10
6.230457731782909
 20
3.017015111220611
 10
6.230602361488018
 20
3.019184556797092
 10
6.230602361488018
 20
3.021354002373574
 10
6.230457731782909
 20
3.023523447950057
 10
6.230096157520161
 20
3.025692893526538
 10
6.229662268404856
 20
3.027573079692821
 10
6.229083749584458
 20
3.02938095100656
 10
6.228360601058971
 20
3.031116507467753
 10
6.227492822828394
 20
3.032852063928948
 10
6.226408100040142
 20
3.034370675832488
 10
6.225178747546802
 20
3.035816972883461
 10
6.223732450495807
 20
3.037118640229368
 10
6.222213838592266
 20
3.038203363017598
 10
6.221563004919326
 20
3.038637252132886
 10
6.220839856393839
 20
3.039071141248196
 10
6.22011670786833
 20
3.039432715510938
 10
6.219393559342822
 20
3.039794289773682
 10
6.218670410817334
 20
3.040155864036446
 10
6.217874947439303
 20
3.040445123446624
 10
6.217151798913817
 20
3.040662068004279
 10
6.216356335535764
 20
3.040879012561933
 10
6.215560872157713
 20
3.041095957119588
 10
6.214765408779681
 20
3.041312901677221
 10
6.213969945401627
 20
3.041457531382331
 10
6.213174482023575
 20
3.041602161087421
 10
6.212379018645544
 20
3.041746790792531
 10
6.211583555267512
 20
3.041819105645076
 10
6.210715777036892
 20
3.041963735350163
 10
6.209920313658861
 20
3.042036050202729
 10
6.20912485028083
 20
3.042036050202729
 10
6.208329386902757
 20
3.042036050202729
 10
6.207533923524726
 20
3.042108365055275
 10
6.206738460146691
 20
3.042108365055275
 10
6.205942996768643
 20
3.042108365055275
 10
6.205147533390589
 20
3.042180679907819
 10
6.204279755159991
 20
3.042180679907819
 10
6.203411976929396
 20
3.042180679907819
 10
6.202544198698819
 20
3.042180679907819
 10
6.201676420468222
 20
3.042108365055275
 10
6.200664012532535
 20
3.042036050202729
 10
6.199723919449373
 20
3.041963735350163
 10
6.198711511513687
 20
3.041891420497619
 10
6.197626788725457
 20
3.041746790792531
 10
6.196542065937205
 20
3.041529846234876
 10
6.195385028296409
 20
3.041312901677221
 10
6.178824927062585
 20
3.038275677870143
 10
6.178391037947276
 20
3.039794289773682
 10
6.178174093389643
 20
3.041240586824678
 10
6.178246408242186
 20
3.042759198728216
 10
6.178463352799841
 20
3.044205495779212
 10
6.178969556767673
 20
3.045651792830185
 10
6.179548075588072
 20
3.047025775028636
 10
6.18041585381867
 20
3.048399757227066
 10
6.181355946901812
 20
3.049629109720406
 10
6.182440669690063
 20
3.050786147361202
 10
6.183670022183402
 20
3.051943185001998
 10
6.184971689529288
 20
3.052883278085139
 10
6.186417986580282
 20
3.053751056315736
 10
6.187936598483822
 20
3.054474204841223
 10
6.189455210387362
 20
3.055125038514188
 10
6.191046137143445
 20
3.055558927629476
 10
6.192709378752097
 20
3.055848187039674
 10
6.194155675803069
 20
3.055920501892218
 10
6.195674287706609
 20
3.055920501892218
 10
6.197120584757603
 20
3.055775872187131
 10
6.198566881808578
 20
3.055558927629476
 10
6.200013178859594
 20
3.055269668219276
 10
6.201459475910566
 20
3.054835779103989
 10
6.202833458108997
 20
3.054329575136134
 10
6.204207440307446
 20
3.053751056315736
 10
6.205581422505898
 20
3.053100222642795
 10
6.206955404704328
 20
3.052377074117286
 10
6.208257072050213
 20
3.051653925591799
 10
6.209558739396098
 20
3.050786147361202
 10
6.210788091889438
 20
3.049918369130604
 10
6.212017444382777
 20
3.049050590900029
 10
6.21324679687612
 20
3.048110497816888
 10
6.214403834516915
 20
3.047170404733725
 10
6.233133381327244
 20
3.055992816744763
 10
6.232120973391536
 20
3.057005224680471
 10
6.231036250603306
 20
3.058017632616156
 10
6.229951527815075
 20
3.058957725699298
 10
6.228722175321735
 20
3.059753189077351
 10
6.227492822828394
 20
3.060548652455381
 10
6.226263470335053
 20
3.061271800980891
 10
6.224961802989147
 20
3.061922634653833
 10
6.223660135643242
 20
3.062501153474231
  0
LWPOLYLINE
  5
6C6
330
17
100
AcDbEntity
  8
4
  6
Continuous
100
AcDbPolyline
 90
       21
 70
     0
 43
0.0
 10
5.863819457927471
 20
3.049339850310228
 10
5.863602513369834
 20
3.047098089881181
 10
5.862951679696895
 20
3.045000959157243
 10
5.861939271761187
 20
3.043193087843504
 10
5.860565289562758
 20
3.041602161087421
 10
5.858902047954109
 20
3.040300493741536
 10
5.857021861787825
 20
3.039360400658393
 10
5.85492473106391
 20
3.038781881837997
 10
5.852755285487403
 20
3.038564937280341
 10
5.838220000124951
 20
3.038564937280341
 10
5.838220000124951
 20
3.057149854385558
 10
5.836773703073981
 20
3.060693282160491
 10
5.853044544897603
 20
3.060693282160491
 10
5.855213990474088
 20
3.060476337602837
 10
5.857311121198025
 20
3.059825503929895
 10
5.859118992511762
 20
3.058813095994209
 10
5.860709919267847
 20
3.057439113795759
 10
5.862011586613729
 20
3.055703557334565
 10
5.862951679696895
 20
3.053823371168281
 10
5.863602513369834
 20
3.051653925591799
 10
5.863819457927471
 20
3.049339850310228
  0
LWPOLYLINE
  5
6DD
330
17
100
AcDbEntity
  8
4
  6
Continuous
100
AcDbPolyline
 90
      114
 70
     0
 43
0.0
 10
6.03966667120092
 20
2.990186300924754
 10
6.038871207822888
 20
2.990837134597694
 10
6.038075744444834
 20
2.991777227680836
 10
6.037280281066784
 20
2.993078895026721
 10
6.036484817688752
 20
2.994669821782828
 10
6.035761669163266
 20
2.996550007949109
 10
6.035183150342867
 20
2.998864083230681
 10
6.03474926122756
 20
3.001539732775016
 10
6.034460001817381
 20
3.004576956582096
 10
6.034460001817381
 20
3.052449388969852
 10
6.034387686964837
 20
3.053751056315736
 10
6.034098427554615
 20
3.055125038514188
 10
6.033592223586762
 20
3.056499020712616
 10
6.032869075061276
 20
3.057800688058502
 10
6.031928981978135
 20
3.059102355404407
 10
6.030771944337338
 20
3.060404022750292
 10
6.029470276991451
 20
3.061633375243633
 10
6.027951665087914
 20
3.062862727736973
 10
6.026288423479265
 20
3.063947450525205
 10
6.024408237312981
 20
3.064959858460912
 10
6.022311106589066
 20
3.065827636691508
 10
6.020141661012559
 20
3.06662310006954
 10
6.01768295602588
 20
3.067201618889939
 10
6.015151936186653
 20
3.067707822857791
 10
6.012403971789775
 20
3.067997082267991
 10
6.009511377687807
 20
3.068141711973079
 10
6.006401839028183
 20
3.067997082267991
 10
6.003364615221101
 20
3.067563193152681
 10
6.00039970626657
 20
3.066695414922084
 10
5.997579427017124
 20
3.065610692133855
 10
5.994903777472809
 20
3.064164395082858
 10
5.992300442781039
 20
3.062501153474231
 10
5.989914052646902
 20
3.060548652455381
 10
5.987672292217855
 20
3.058379206878899
 10
5.985647476346485
 20
3.055992816744763
 10
5.983767290180201
 20
3.053461796905537
 10
5.982176363424096
 20
3.050786147361202
 10
5.980874696078211
 20
3.047965868111778
 10
5.979789973289959
 20
3.045000959157243
 10
5.978994509911927
 20
3.041963735350163
 10
5.978488305944074
 20
3.03885419669054
 10
5.978343676238985
 20
3.035672343178373
 10
5.978343676238985
 20
3.00038269513422
 10
5.978199046533875
 20
2.998140934705193
 10
5.977692842566042
 20
2.996260748538912
 10
5.9770420088931
 20
2.994669821782828
 10
5.976174230662481
 20
2.993368154436921
 10
5.975306452431906
 20
2.992355746501234
 10
5.974438674201308
 20
2.991487968270638
 10
5.97357089597071
 20
2.990837134597694
 10
5.972920062297769
 20
2.990258615777298
 10
5.988250811038254
 20
2.990258615777298
 10
5.990275626909625
 20
2.990547875187496
 10
5.99201118337082
 20
2.991271023712983
 10
5.99352979527438
 20
2.992355746501234
 10
5.994831462620264
 20
2.993802043552229
 10
5.995916185408495
 20
2.995392970308314
 10
5.996711648786548
 20
2.997128526769508
 10
5.997217852754401
 20
2.998936398083246
 10
5.997507112164576
 20
3.000744269396963
 10
5.997651741869668
 20
3.003347604088754
 10
5.997290167606946
 20
3.006023253633091
 10
5.996783963639092
 20
3.008626588324861
 10
5.99613312996615
 20
3.011157608164107
 10
5.995265351735553
 20
3.014773350791562
 10
5.9944698883575
 20
3.01838909341904
 10
5.993746739832015
 20
3.022004836046516
 10
5.993023591306528
 20
3.025620578673994
 10
5.992372757633582
 20
3.029236321301471
 10
5.99186655366573
 20
3.032924378781493
 10
5.991432664550421
 20
3.03654012140897
 10
5.991143405140244
 20
3.040228178888991
 10
5.991071090287699
 20
3.043265402696071
 10
5.991288034845331
 20
3.046374941355693
 10
5.991794238813183
 20
3.049412165162773
 10
5.992589702191217
 20
3.052377074117308
 10
5.993746739832015
 20
3.055125038514188
 10
5.995265351735553
 20
3.057656058353413
 10
5.997145537901835
 20
3.059825503929895
 10
5.999531928035971
 20
3.061633375243633
 10
6.000905910234424
 20
3.062356523769121
 10
6.002352207285396
 20
3.062862727736973
 10
6.003870819188937
 20
3.063224301999718
 10
6.005389431092476
 20
3.063441246557372
 10
6.006980357848581
 20
3.063441246557372
 10
6.008571284604644
 20
3.063224301999718
 10
6.010089896508205
 20
3.062862727736973
 10
6.011608508411723
 20
3.062356523769121
 10
6.012982490610174
 20
3.061633375243633
 10
6.014284157956076
 20
3.060765597013037
 10
6.015513510449399
 20
3.059680874224785
 10
6.016525918385085
 20
3.058451521731444
 10
6.017393696615704
 20
3.057077539533014
 10
6.018116845141188
 20
3.055486612776931
 10
6.018623049109042
 20
3.053751056315736
 10
6.018839993666677
 20
3.051870870149453
 10
6.018839993666677
 20
3.00052732483933
 10
6.018912308519222
 20
2.999297972345989
 10
6.019129253076876
 20
2.998213249557738
 10
6.01949082733962
 20
2.997128526769508
 10
6.019924716454927
 20
2.996116118833801
 10
6.020503235275326
 20
2.995248340603203
 10
6.02115406894827
 20
2.994380562372628
 10
6.021877217473756
 20
2.993585098994576
 10
6.022744995704353
 20
2.992861950469089
 10
6.023685088787492
 20
2.992283431648691
 10
6.024625181870637
 20
2.991704912828292
 10
6.025637589806321
 20
2.991271023712983
 10
6.026722312594571
 20
2.990909449450239
 10
6.027807035382826
 20
2.990547875187496
 10
6.028964073023622
 20
2.990330930629841
 10
6.030048795811851
 20
2.990258615777298
 10
6.031205833452627
 20
2.990186300924754
 10
6.03966667120092
 20
2.990186300924754
  0
LWPOLYLINE
  5
751
330
17
100
AcDbEntity
  8
4
  6
Continuous
100
AcDbPolyline
 90
       59
 70
     0
 43
0.0
 10
5.764179591580162
 20
3.044856329452154
 10
5.771555706540205
 20
3.050496887951003
 10
5.772712744181002
 20
3.050424573098459
 10
5.773797466969252
 20
3.050279943393369
 10
5.774882189757486
 20
3.049990683983171
 10
5.77589459769317
 20
3.049701424572971
 10
5.77697932048142
 20
3.049267535457663
 10
5.777991728417128
 20
3.048761331489831
 10
5.778931821500249
 20
3.048182812669433
 10
5.779871914583411
 20
3.04753197899649
 10
5.780739692813988
 20
3.046881145323526
 10
5.781607471044584
 20
3.04615799679804
 10
5.782475249275182
 20
3.045434848272553
 10
5.783270712653213
 20
3.044639384894499
 10
5.78399386117872
 20
3.043843921516468
 10
5.78471700970423
 20
3.043048458138415
 10
5.78536784337717
 20
3.042325309612928
 10
5.785946362197549
 20
3.041529846234876
 10
5.787971178068941
 20
3.038347992722709
 10
5.789562104825026
 20
3.035021509505431
 10
5.790719142465822
 20
3.031478081730498
 10
5.791514605843874
 20
3.027862339103021
 10
5.792020809811706
 20
3.024174281622998
 10
5.792237754369361
 20
3.020413909290433
 10
5.79238238407445
 20
3.016653536957868
 10
5.792310069221905
 20
3.012893164625281
 10
5.792165439516817
 20
3.010940663606453
 10
5.79180386525405
 20
3.009060477440169
 10
5.791225346433654
 20
3.007252606126431
 10
5.790502197908165
 20
3.005517049665237
 10
5.789634419677569
 20
3.003853808056609
 10
5.788549696889339
 20
3.002262881300503
 10
5.787392659248544
 20
3.00081658424953
 10
5.786090991902659
 20
2.999442602051078
 10
5.784644694851664
 20
2.998213249557738
 10
5.783198397800668
 20
2.997056211916943
 10
5.781607471044584
 20
2.996043803981256
 10
5.7800165442885
 20
2.995103710898114
 10
5.778425617532395
 20
2.994308247520061
 10
5.776762375923788
 20
2.993729728699665
 10
5.775099134315139
 20
2.993223524731832
 10
5.773508207559033
 20
2.992861950469089
 10
5.772568114475912
 20
2.992934265321633
 10
5.771628021392753
 20
2.993006580174178
 10
5.770687928309632
 20
2.993223524731832
 10
5.769820150079013
 20
2.993512784142031
 10
5.768952371848437
 20
2.993874358404774
 10
5.768156908470383
 20
2.994308247520061
 10
5.767361445092332
 20
2.99488676634046
 10
5.766710611419389
 20
2.995465285160858
 10
5.7659874628939
 20
2.996188433686366
 10
5.765481258926048
 20
2.996983897064398
 10
5.765047369810759
 20
2.997851675294995
 10
5.764685795548016
 20
2.998791768378136
 10
5.76446885099036
 20
2.999731861461278
 10
5.764324221285251
 20
3.000744269396963
 10
5.764179591580162
 20
3.001756677332672
 10
5.764179591580162
 20
3.002769085268356
 10
5.764179591580162
 20
3.044856329452154
  0
LWPOLYLINE
  5
78E
330
17
100
AcDbEntity
  8
4
  6
Continuous
100
AcDbPolyline
 90
       61
 70
     0
 43
0.0
 10
5.864108717337691
 20
3.032996693634038
 10
5.866205848061606
 20
3.033141323339147
 10
5.868230663933
 20
3.033430582749346
 10
5.870038535246718
 20
3.033864471864633
 10
5.871701776855367
 20
3.034442990685032
 10
5.873148073906363
 20
3.035166139210518
 10
5.874522056104813
 20
3.035961602588571
 10
5.875751408598152
 20
3.036901695671713
 10
5.876836131386385
 20
3.037986418459944
 10
5.877776224469523
 20
3.03914345610074
 10
5.878571687847554
 20
3.04037280859408
 10
5.879222521520521
 20
3.041674475939966
 10
5.879728725488353
 20
3.043120772990961
 10
5.880162614603659
 20
3.044567070041956
 10
5.880451874013838
 20
3.046085681945494
 10
5.880596503718972
 20
3.047676608701578
 10
5.880668818571516
 20
3.049339850310228
 10
5.880596503718972
 20
3.050858462213768
 10
5.88030724430875
 20
3.052377074117308
 10
5.879945670046009
 20
3.053823371168281
 10
5.87936715122561
 20
3.055269668219276
 10
5.878716317552667
 20
3.056643650417705
 10
5.877920854174612
 20
3.057945317763611
 10
5.876980761091494
 20
3.059174670256953
 10
5.875968353155786
 20
3.060331707897748
 10
5.874811315514991
 20
3.061344115833434
 10
5.873581963021651
 20
3.062284208916576
 10
5.872352610528308
 20
3.063079672294628
 10
5.870978628329878
 20
3.063802820820116
 10
5.869532331278886
 20
3.064381339640513
 10
5.868086034227892
 20
3.064742913903256
 10
5.86656742232437
 20
3.065032173313456
 10
5.865048810420811
 20
3.065104488166001
 10
5.814428413636175
 20
3.065104488166001
 10
5.815151562161679
 20
3.064525969345603
 10
5.815802395834626
 20
3.063947450525205
 10
5.816453229507589
 20
3.063296616852261
 10
5.817031748327987
 20
3.062718098031863
 10
5.817610267148363
 20
3.062139579211466
 10
5.818188785968762
 20
3.061416430685978
 10
5.818694989936592
 20
3.060693282160491
 10
5.819201193904447
 20
3.059825503929895
 10
5.819924342429934
 20
3.058234577173811
 10
5.820502861250332
 20
3.056354391007528
 10
5.820864435513097
 20
3.054546519693789
 10
5.821009065218187
 20
3.053100222642795
 10
5.821081380070728
 20
2.988089170200816
 10
5.838509259535173
 20
3.003347604088754
 10
5.838509259535173
 20
3.03350289760189
 10
5.846174633905394
 20
3.033575212454435
 10
5.872280295675763
 20
2.990330930629841
 10
5.89477021481866
 20
2.990186300924754
 10
5.893396232620206
 20
2.990981764302785
 10
5.89202225042178
 20
2.991921857385948
 10
5.890720583075871
 20
2.992861950469089
 10
5.889418915729986
 20
2.993946673257318
 10
5.888189563236648
 20
2.994959081193004
 10
5.887032525595851
 20
2.996116118833801
 10
5.885875487955053
 20
2.997273156474596
 10
5.884718450314258
 20
2.998502508967937
 10
5.864108717337691
 20
3.032996693634038
  0
LWPOLYLINE
  5
7CD
330
17
100
AcDbEntity
  8
4
  6
Continuous
100
AcDbPolyline
 90
       83
 70
     0
 43
0.0
 10
5.793539421715246
 20
3.057294484090669
 10
5.79238238407445
 20
3.058379206878899
 10
5.791225346433654
 20
3.059463929667151
 10
5.790068308792878
 20
3.060476337602837
 10
5.788838956299538
 20
3.061416430685978
 10
5.787537288953632
 20
3.062211894064031
 10
5.786090991902659
 20
3.062935042589518
 10
5.784500065146553
 20
3.063585876262461
 10
5.782692193832815
 20
3.06401976537777
 10
5.748993472544769
 20
3.045362533420008
 10
5.748848842839682
 20
2.997273156474596
 10
5.748921157692223
 20
2.996477693096566
 10
5.749065787397311
 20
2.995609914865968
 10
5.749355046807532
 20
2.99488676634046
 10
5.749716621070255
 20
2.994163617814973
 10
5.750150510185563
 20
2.993512784142031
 10
5.750656714153418
 20
2.992861950469089
 10
5.751235232973817
 20
2.992355746501234
 10
5.751886066646758
 20
2.991849542533381
 10
5.752970789435011
 20
2.991198708860439
 10
5.754127827075784
 20
2.990620190040041
 10
5.755284864716579
 20
2.990113986072208
 10
5.756514217209919
 20
2.989680096956899
 10
5.757743569703261
 20
2.989390837546701
 10
5.758972922196601
 20
2.989101578136502
 10
5.760274589542487
 20
2.988884633578868
 10
5.761576256888393
 20
2.988667689021213
 10
5.762877924234277
 20
2.988595374168669
 10
5.764179591580162
 20
2.988523059316103
 10
5.765481258926048
 20
2.988523059316103
 10
5.766855241124477
 20
2.988595374168669
 10
5.768156908470383
 20
2.988667689021213
 10
5.769458575816289
 20
2.988812318726303
 10
5.770760243162174
 20
2.988956948431413
 10
5.772061910508058
 20
2.989173892989068
 10
5.773580522411599
 20
2.989390837546701
 10
5.775099134315139
 20
2.989752411809443
 10
5.776545431366112
 20
2.990113986072208
 10
5.777991728417128
 20
2.990547875187496
 10
5.779438025468103
 20
2.99105407915535
 10
5.780884322519075
 20
2.991632597975748
 10
5.782258304717547
 20
2.992283431648691
 10
5.783632286915977
 20
2.992934265321633
 10
5.784933954261862
 20
2.99365741384712
 10
5.786307936460293
 20
2.994452877225173
 10
5.787537288953632
 20
2.99532065545577
 10
5.788838956299538
 20
2.996188433686366
 10
5.790068308792878
 20
2.997128526769508
 10
5.791225346433654
 20
2.99806861985265
 10
5.79238238407445
 20
2.999081027788336
 10
5.793539421715246
 20
3.000093435724021
 10
5.795347293028985
 20
3.001973621890305
 10
5.797010534637632
 20
3.003926122909152
 10
5.798601461393718
 20
3.005950938780524
 10
5.79997544359217
 20
3.008120384357028
 10
5.801277110938054
 20
3.010434459638598
 10
5.80243414857885
 20
3.012748534920191
 10
5.803374241661969
 20
3.015134925054328
 10
5.804242019892591
 20
3.017593630041008
 10
5.804892853565528
 20
3.020052335027689
 10
5.805399057533363
 20
3.02265566971946
 10
5.805760631796106
 20
3.025186689558684
 10
5.805977576353762
 20
3.027790024250477
 10
5.806049891206304
 20
3.030321044089701
 10
5.805905261501196
 20
3.032924378781493
 10
5.805616002091017
 20
3.035527713473263
 10
5.805182112975709
 20
3.038058733312509
 10
5.804820538712965
 20
3.039432715510938
 10
5.804458964450222
 20
3.040806697709389
 10
5.804025075334913
 20
3.042180679907819
 10
5.803518871367081
 20
3.043482347253703
 10
5.802940352546682
 20
3.044784014599609
 10
5.80228951887374
 20
3.046085681945494
 10
5.801638685200775
 20
3.047315034438836
 10
5.800915536675287
 20
3.048544386932176
 10
5.800120073297257
 20
3.049773739425517
 10
5.79925229506666
 20
3.050930777066313
 10
5.798384516836064
 20
3.052087814707108
 10
5.797516738605468
 20
3.053172537495338
 10
5.796576645522325
 20
3.054257260283591
 10
5.795564237586638
 20
3.055269668219276
 10
5.794551829650951
 20
3.056282076154962
 10
5.793539421715246
 20
3.057294484090669
  0
LWPOLYLINE
  5
822
330
17
100
AcDbEntity
  8
4
  6
Continuous
100
AcDbPolyline
 90
      271
 70
     0
 43
0.0
 10
5.953067471127289
 20
3.036250861998771
 10
5.952055063191603
 20
3.036829380819168
 10
5.951042655255896
 20
3.037335584787002
 10
5.949957932467667
 20
3.037769473902311
 10
5.94894552453198
 20
3.038203363017598
 10
5.947860801743727
 20
3.038637252132886
 10
5.946776078955477
 20
3.038926511543086
 10
5.945691356167245
 20
3.039288085805849
 10
5.944606633379017
 20
3.039577345216049
 10
5.943449595738222
 20
3.039794289773682
 10
5.942364872949968
 20
3.039938919478793
 10
5.941135520456628
 20
3.040083549183882
 10
5.939978482815831
 20
3.040228178888991
 10
5.938749130322491
 20
3.040300493741536
 10
5.937519777829149
 20
3.040300493741536
 10
5.936290425335808
 20
3.040300493741536
 10
5.934988757989924
 20
3.040228178888991
 10
5.917922452788246
 20
3.025042059853596
 10
5.919224120134132
 20
3.025331319263794
 10
5.920525787480018
 20
3.025620578673994
 10
5.921827454825923
 20
3.025909838084194
 10
5.923129122171831
 20
3.026126782641848
 10
5.924430789517716
 20
3.026343727199481
 10
5.925732456863601
 20
3.026488356904591
 10
5.927034124209486
 20
3.026632986609681
 10
5.928408106407914
 20
3.026705301462225
 10
5.929709773753799
 20
3.02677761631479
 10
5.931011441099704
 20
3.02677761631479
 10
5.932313108445612
 20
3.02677761631479
 10
5.933614775791497
 20
3.026705301462225
 10
5.934916443137382
 20
3.026560671757136
 10
5.936218110483267
 20
3.026343727199481
 10
5.937519777829149
 20
3.026126782641848
 10
5.938821445175035
 20
3.025837523231648
 10
5.939689223405657
 20
3.02554826382145
 10
5.940629316488776
 20
3.025331319263794
 10
5.941497094719371
 20
3.024969745001051
 10
5.942364872949968
 20
3.024680485590852
 10
5.943232651180567
 20
3.024318911328109
 10
5.944100429411162
 20
3.023957337065345
 10
5.944895892789192
 20
3.023523447950057
 10
5.945763671019812
 20
3.023089558834768
 10
5.946559134397843
 20
3.022583354866914
 10
5.947282282923332
 20
3.022077150899062
 10
5.948005431448817
 20
3.021570946931228
 10
5.948728579974324
 20
3.020992428110831
 10
5.949379413647268
 20
3.020341594437888
 10
5.950030247320209
 20
3.019690760764946
 10
5.950608766140608
 20
3.018967612239437
 10
5.951187284961005
 20
3.01824446371395
 10
5.952055063191603
 20
3.016942796368045
 10
5.952778211717089
 20
3.015496499317071
 10
5.953284415684946
 20
3.014050202266076
 10
5.953645989947687
 20
3.012459275509993
 10
5.953862934505342
 20
3.010940663606453
 10
5.953790619652798
 20
3.009349736850368
 10
5.953429045390033
 20
3.00783112494683
 10
5.952850526569638
 20
3.006384827895833
 10
5.951982748339058
 20
3.005083160549948
 10
5.950970340403353
 20
3.003998437761698
 10
5.949813302762557
 20
3.003058344678557
 10
5.948439320564125
 20
3.002262881300503
 10
5.946993023513154
 20
3.001612047627561
 10
5.945546726462137
 20
3.001105843659728
 10
5.943955799706073
 20
3.000671954544419
 10
5.942437187802513
 20
3.00038269513422
 10
5.941714039277028
 20
3.000310380281676
 10
5.940918575898995
 20
3.000165750576586
 10
5.940195427373486
 20
3.000093435724021
 10
5.939399963995434
 20
3.000093435724021
 10
5.938604500617402
 20
3.000021120871477
 10
5.937881352091918
 20
3.000021120871477
 10
5.937085888713842
 20
3.000021120871477
 10
5.936290425335808
 20
3.000021120871477
 10
5.935567276810323
 20
3.000021120871477
 10
5.934771813432292
 20
3.000093435724021
 10
5.933976350054218
 20
3.000093435724021
 10
5.933180886676187
 20
3.000238065429131
 10
5.932457738150699
 20
3.000310380281676
 10
5.931662274772647
 20
3.000455009986787
 10
5.930939126247139
 20
3.000599639691874
 10
5.930143662869107
 20
3.000744269396963
 10
5.929275884638532
 20
3.000961213954618
 10
5.928408106407914
 20
3.001178158512272
 10
5.927612643029882
 20
3.001467417922471
 10
5.926744864799284
 20
3.001756677332672
 10
5.925949401421232
 20
3.002118251595415
 10
5.925153938043202
 20
3.002479825858158
 10
5.924358474665147
 20
3.002913714973467
 10
5.923563011287098
 20
3.003347604088754
 10
5.922839862761608
 20
3.003781493204042
 10
5.922044399383577
 20
3.004287697171896
 10
5.921321250858071
 20
3.004793901139751
 10
5.920598102332562
 20
3.005300105107582
 10
5.919874953807073
 20
3.005806309075436
 10
5.919224120134132
 20
3.006384827895833
 10
5.918500971608646
 20
3.006963346716231
 10
5.917850137935701
 20
3.00754186553663
 10
5.916765415147452
 20
3.008626588324861
 10
5.915753007211765
 20
3.009783625965656
 10
5.914740599276078
 20
3.010940663606453
 10
5.913728191340372
 20
3.012097701247248
 10
5.912788098257252
 20
3.013254738888023
 10
5.911920320026633
 20
3.014484091381365
 10
5.910980226943513
 20
3.015785758727269
 10
5.910184763565441
 20
3.017015111220611
 10
5.90938930018741
 20
3.018316778566496
 10
5.908666151661919
 20
3.019690760764946
 10
5.908015317988978
 20
3.020992428110831
 10
5.907364484316036
 20
3.022366410309261
 10
5.906785965495637
 20
3.023812707360256
 10
5.906352076380331
 20
3.025186689558684
 10
5.905918187265043
 20
3.026705301462225
 10
5.9055566130023
 20
3.02815159851322
 10
5.905050409034446
 20
3.031478081730498
 10
5.904833464476809
 20
3.034949194652865
 10
5.905050409034446
 20
3.038420307575254
 10
5.905628927854842
 20
3.041746790792531
 10
5.90664133579053
 20
3.044928644304698
 10
5.908159947694067
 20
3.047821238406688
 10
5.910112448712895
 20
3.050424573098459
 10
5.912571153699576
 20
3.052521703822396
 10
5.913438931930193
 20
3.05302790779025
 10
5.914306710160769
 20
3.053461796905537
 10
5.915246803243932
 20
3.053895686020826
 10
5.916114581474508
 20
3.054257260283591
 10
5.917054674557673
 20
3.054546519693789
 10
5.918067082493334
 20
3.054835779103989
 10
5.919007175576498
 20
3.055052723661621
 10
5.920019583512186
 20
3.055197353366732
 10
5.920959676595325
 20
3.055341983071821
 10
5.921972084531033
 20
3.055414297924365
 10
5.922984492466698
 20
3.055414297924365
 10
5.923996900402404
 20
3.055414297924365
 10
5.925009308338112
 20
3.055414297924365
 10
5.926021716273777
 20
3.055341983071821
 10
5.92696180935694
 20
3.055197353366732
 10
5.927974217292628
 20
3.055052723661621
 10
5.929275884638532
 20
3.054835779103989
 10
5.930577551984417
 20
3.054546519693789
 10
5.931879219330302
 20
3.054257260283591
 10
5.933108571823642
 20
3.053823371168281
 10
5.934337924316982
 20
3.053389482052993
 10
5.935567276810323
 20
3.052883278085139
 10
5.936796629303663
 20
3.052377074117308
 10
5.938025981797003
 20
3.05179855529691
 10
5.939183019437799
 20
3.051147721623946
 10
5.940267742226052
 20
3.050496887951003
 10
5.941424779866827
 20
3.049701424572971
 10
5.942509502655058
 20
3.048978276047463
 10
5.943594225443308
 20
3.048110497816888
 10
5.944606633379017
 20
3.047315034438836
 10
5.9456190413147
 20
3.046374941355693
 10
5.946559134397843
 20
3.045434848272553
 10
5.959937382119503
 20
3.052666333527486
 10
5.959069603888882
 20
3.054257260283591
 10
5.958057195953217
 20
3.055703557334565
 10
5.956900158312421
 20
3.057077539533014
 10
5.955598490966536
 20
3.058306892026355
 10
5.954224508768088
 20
3.059463929667151
 10
5.952705896864545
 20
3.060476337602837
 10
5.951187284961005
 20
3.061416430685978
 10
5.949596358204922
 20
3.062284208916576
 10
5.948367005711581
 20
3.062862727736973
 10
5.947065338365697
 20
3.063441246557372
 10
5.945835985872356
 20
3.063947450525205
 10
5.944534318526471
 20
3.064381339640513
 10
5.943160336327999
 20
3.064815228755801
 10
5.941858668982114
 20
3.065104488166001
 10
5.940484686783684
 20
3.0653937475762
 10
5.939110704585258
 20
3.065610692133855
 10
5.937736722386804
 20
3.065755321838943
 10
5.936362740188355
 20
3.065827636691508
 10
5.934916443137382
 20
3.065899951544052
 10
5.933542460938951
 20
3.065899951544052
 10
5.93216847874048
 20
3.065827636691508
 10
5.930794496542049
 20
3.065683006986398
 10
5.92942051434362
 20
3.065466062428743
 10
5.928046532145169
 20
3.065176803018545
 10
5.926744864799284
 20
3.064887543608346
 10
5.925515512305945
 20
3.064453654493058
 10
5.924213844960041
 20
3.06401976537777
 10
5.922984492466698
 20
3.063585876262461
 10
5.921827454825923
 20
3.063007357442062
 10
5.920598102332562
 20
3.062428838621666
 10
5.919441064691785
 20
3.061778004948723
 10
5.918284027051011
 20
3.061127171275779
 10
5.917126989410214
 20
3.060404022750292
 10
5.916042266621963
 20
3.059680874224785
 10
5.914957543833714
 20
3.058885410846753
 10
5.91387282104548
 20
3.058089947468701
 10
5.912788098257252
 20
3.057222169238103
 10
5.911775690321545
 20
3.056354391007528
 10
5.910690967533292
 20
3.055486612776931
 10
5.909678559597607
 20
3.054618834546334
 10
5.908232262546611
 20
3.053317167200448
 10
5.906858280348182
 20
3.052015499854543
 10
5.905484298149755
 20
3.050641517656113
 10
5.904182630803846
 20
3.049195220605118
 10
5.902880963457961
 20
3.047748923554123
 10
5.901651610964622
 20
3.046302626503149
 10
5.900494573323825
 20
3.044784014599609
 10
5.899337535683049
 20
3.043193087843504
 10
5.898325127747342
 20
3.041602161087421
 10
5.897312719811637
 20
3.039938919478793
 10
5.896372626728518
 20
3.038275677870143
 10
5.895577163350442
 20
3.03654012140897
 10
5.894854014824954
 20
3.034804564947776
 10
5.894203181152012
 20
3.032996693634038
 10
5.893624662331615
 20
3.031188822320298
 10
5.893190773216327
 20
3.029308636154016
 10
5.892756884101038
 20
3.02677761631479
 10
5.892539939543384
 20
3.024174281622998
 10
5.892467624690818
 20
3.021643261783773
 10
5.892539939543384
 20
3.019039927091982
 10
5.892829198953584
 20
3.016508907252756
 10
5.893335402921437
 20
3.013977887413531
 10
5.893986236594381
 20
3.011446867574306
 10
5.894854014824954
 20
3.009060477440169
 10
5.895432533645355
 20
3.007758810094263
 10
5.896083367318297
 20
3.006457142748379
 10
5.896734200991237
 20
3.005227790255037
 10
5.897529664369312
 20
3.004070752614242
 10
5.898325127747342
 20
3.002913714973467
 10
5.899192905977921
 20
3.001756677332672
 10
5.900132999061082
 20
3.000671954544419
 10
5.901073092144223
 20
2.999659546608734
 10
5.90208550007991
 20
2.998647138673048
 10
5.903170222868159
 20
2.997707045589906
 10
5.904254945656411
 20
2.996766952506743
 10
5.905339668444621
 20
2.995899174276167
 10
5.906496706085418
 20
2.995103710898114
 10
5.907726058578758
 20
2.994380562372628
 10
5.908955411072099
 20
2.99365741384712
 10
5.910184763565441
 20
2.993006580174178
 10
5.913077357667432
 20
2.991777227680836
 10
5.916042266621963
 20
2.990764819745152
 10
5.919079490429044
 20
2.990041671219643
 10
5.922189029088667
 20
2.989463152399266
 10
5.925298567748292
 20
2.989173892989068
 10
5.928408106407914
 20
2.989029263283957
 10
5.931517645067536
 20
2.989173892989068
 10
5.934699498579727
 20
2.989535467251809
 10
5.937736722386804
 20
2.990113986072208
 10
5.940701631341317
 20
2.990909449450239
 10
5.943666540295853
 20
2.991994172238491
 10
5.946486819545301
 20
2.993223524731832
 10
5.949162469089611
 20
2.994742136635371
 10
5.951693488928839
 20
2.996477693096566
 10
5.954079879062974
 20
2.998430194115393
 10
5.956321639492022
 20
3.000599639691874
 10
5.957984881100673
 20
3.002552140710703
 10
5.959503493004191
 20
3.00464927143464
 10
5.96087747520262
 20
3.006746402158578
 10
5.962034512843415
 20
3.009060477440169
 10
5.963046920779124
 20
3.011374552721741
 10
5.963842384157155
 20
3.013760942855876
 10
5.964348588125012
 20
3.016219647842557
 10
5.964710162387773
 20
3.018750667681783
 10
5.964782477240317
 20
3.020775483553176
 10
5.964637847535208
 20
3.022727984572004
 10
5.964276273272464
 20
3.024680485590852
 10
5.963625439599522
 20
3.026632986609681
 10
5.962757661368924
 20
3.028223913365763
 10
5.961745253433238
 20
3.029670210416758
 10
5.960515900939898
 20
3.031044192615209
 10
5.959214233593992
 20
3.032273545108549
 10
5.957767936542996
 20
3.03335826789678
 10
5.956249324639481
 20
3.034442990685032
 10
5.954658397883373
 20
3.035383083768174
 10
5.953067471127289
 20
3.036250861998771
  0
LWPOLYLINE
  5
933
330
17
100
AcDbEntity
  8
4
  6
Continuous
 62
     4
100
AcDbPolyline
 90
       96
 70
     0
 43
0.0
 10
6.117644047543294
 20
2.990258615777298
 10
6.116487009902498
 20
2.990981764302785
 10
6.115257657409157
 20
2.991849542533381
 10
6.113955990063272
 20
2.992934265321633
 10
6.112798952422476
 20
2.994163617814973
 10
6.111714229634224
 20
2.995537600013403
 10
6.110846451403649
 20
2.997200841622053
 10
6.11026793258325
 20
2.999008712935791
 10
6.110050988025577
 20
3.001105843659728
 10
6.110050988025577
 20
3.049050590900029
 10
6.109906358320487
 20
3.051075406771401
 10
6.109617098910288
 20
3.052955592937685
 10
6.109038580089912
 20
3.054763464251423
 10
6.108315431564403
 20
3.056426705860073
 10
6.107447653333808
 20
3.058089947468701
 10
6.106362930545554
 20
3.059536244519696
 10
6.105133578052214
 20
3.060910226718126
 10
6.103759595853786
 20
3.062211894064031
 10
6.102313298802812
 20
3.063368931704806
 10
6.100722372046705
 20
3.064381339640513
 10
6.099059130438054
 20
3.065249117871111
 10
6.097395888829447
 20
3.066044581249142
 10
6.095588017515709
 20
3.06662310006954
 10
6.093780146201972
 20
3.06705698918485
 10
6.091899960035688
 20
3.067418563447593
 10
6.090019773869383
 20
3.067563193152681
 10
6.088718106523478
 20
3.067563193152681
 10
6.087416439177593
 20
3.067563193152681
 10
6.086187086684253
 20
3.067418563447593
 10
6.084885419338365
 20
3.067273933742482
 10
6.083656066845026
 20
3.06705698918485
 10
6.082354399499141
 20
3.066695414922084
 10
6.081125047005802
 20
3.066333840659341
 10
6.07989569451246
 20
3.065972266396598
 10
6.07866634201912
 20
3.065466062428743
 10
6.077509304378324
 20
3.064959858460912
 10
6.076352266737528
 20
3.064381339640513
 10
6.075195229096731
 20
3.063802820820116
 10
6.074038191455934
 20
3.063079672294628
 10
6.072953468667726
 20
3.062428838621666
 10
6.071868745879477
 20
3.061705690096177
 10
6.070856337943768
 20
3.060910226718126
 10
6.070422448828479
 20
3.061922634653833
 10
6.069843930008082
 20
3.063007357442062
 10
6.069048466630028
 20
3.06401976537777
 10
6.068180688399452
 20
3.064959858460912
 10
6.067312910168837
 20
3.065755321838943
 10
6.066445131938261
 20
3.066406155511886
 10
6.065649668560228
 20
3.066840044627194
 10
6.06507114973983
 20
3.066984674332283
 10
6.047354010865211
 20
3.066984674332283
 10
6.048438733653441
 20
3.065972266396598
 10
6.049668086146779
 20
3.064815228755801
 10
6.051042068345232
 20
3.063441246557372
 10
6.052343735691117
 20
3.061850319801288
 10
6.053573088184457
 20
3.060042448487549
 10
6.054513181267597
 20
3.058162262321246
 10
6.055236329793107
 20
3.056065131597328
 10
6.055453274350741
 20
3.053895686020826
 10
6.055453274350741
 20
2.990330930629841
 10
6.071724116174388
 20
3.003492233793843
 10
6.071724116174388
 20
3.049484480015318
 10
6.071796431026933
 20
3.050641517656113
 10
6.072013375584566
 20
3.051726240444343
 10
6.072447264699873
 20
3.052738648380051
 10
6.072953468667726
 20
3.053751056315736
 10
6.073531987488103
 20
3.054763464251423
 10
6.074255136013612
 20
3.05563124248202
 10
6.075122914244188
 20
3.056499020712616
 10
6.075990692474785
 20
3.057294484090669
 10
6.077003100410469
 20
3.057945317763611
 10
6.078015508346178
 20
3.058523836584011
 10
6.079100231134431
 20
3.059102355404407
 10
6.08018495392266
 20
3.059463929667151
 10
6.081341991563435
 20
3.059825503929895
 10
6.082499029204233
 20
3.059970133634983
 10
6.083583751992481
 20
3.060114763340093
 10
6.084740789633278
 20
3.060042448487549
 10
6.086548660947017
 20
3.059753189077351
 10
6.088284217408212
 20
3.059174670256953
 10
6.089947459016839
 20
3.058379206878899
 10
6.091393756067834
 20
3.057294484090669
 10
6.092623108561174
 20
3.055992816744763
 10
6.093563201644295
 20
3.054474204841223
 10
6.094141720464693
 20
3.052666333527486
 10
6.094358665022371
 20
3.050641517656113
 10
6.094358665022371
 20
2.999297972345989
 10
6.094575609580003
 20
2.997417786179708
 10
6.095154128400402
 20
2.995682229718513
 10
6.096021906630997
 20
2.994163617814973
 10
6.097251259124315
 20
2.992861950469089
 10
6.098697556175332
 20
2.991777227680836
 10
6.100360797783962
 20
2.990909449450239
 10
6.102168669097702
 20
2.990403245482408
 10
6.104121170116527
 20
2.990258615777298
 10
6.117644047543294
 20
2.990258615777298
  0
LWPOLYLINE
  5
995
330
17
100
AcDbEntity
  8
4
  6
Continuous
100
AcDbPolyline
 90
       46
 70
     0
 43
0.0
 10
6.422456398245334
 20
3.066767729774649
 10
6.383189433310985
 20
3.066767729774649
 10
6.384057211541562
 20
3.065610692133855
 10
6.384924989772159
 20
3.064309024787948
 10
6.385648138297666
 20
3.063007357442062
 10
6.386298971970607
 20
3.061633375243633
 10
6.386877490791006
 20
3.060187078192638
 10
6.387311379906273
 20
3.058740781141643
 10
6.387600639316492
 20
3.057366798943213
 10
6.387672954169034
 20
3.055920501892218
 10
6.387672954169034
 20
2.989173892989068
 10
6.405173148486005
 20
3.006023253633091
 10
6.405173148486005
 20
3.035961602588571
 10
6.428747790417126
 20
3.035961602588571
 10
6.43026640232069
 20
3.036033917441116
 10
6.43185732907675
 20
3.036106232293661
 10
6.433303626127766
 20
3.036323176851316
 10
6.434822238031284
 20
3.036612436261513
 10
6.436196220229716
 20
3.037046325376801
 10
6.437570202428164
 20
3.037624844197201
 10
6.438871869774072
 20
3.038275677870143
 10
6.44010122226741
 20
3.039071141248196
 10
6.441185945055642
 20
3.040011234331336
 10
6.442126038138781
 20
3.041168271972133
 10
6.442993816369379
 20
3.042397624465473
 10
6.443716964894888
 20
3.043843921516468
 10
6.444223168862722
 20
3.045507163125098
 10
6.444657057978011
 20
3.047315034438836
 10
6.444874002535663
 20
3.049339850310228
 10
6.444874002535663
 20
3.051581610739254
 10
6.444657057978011
 20
3.053968000873392
 10
6.444223168862722
 20
3.056137446449873
 10
6.443500020337213
 20
3.058017632616156
 10
6.442632242106637
 20
3.059680874224785
 10
6.441475204465842
 20
3.061127171275779
 10
6.440245851972504
 20
3.062356523769121
 10
6.438799554921508
 20
3.063368931704806
 10
6.437280943017968
 20
3.064236709935403
 10
6.435545386556771
 20
3.064959858460912
 10
6.433809830095601
 20
3.065538377281309
 10
6.432001958781859
 20
3.065972266396598
 10
6.430121772615576
 20
3.066261525806797
 10
6.428169271596728
 20
3.066550785216996
 10
6.426216770577902
 20
3.066695414922084
 10
6.424336584411618
 20
3.066767729774649
 10
6.422456398245334
 20
3.066767729774649
  0
LWPOLYLINE
  5
9C5
330
17
100
AcDbEntity
  8
4
  6
Continuous
100
AcDbPolyline
 90
       88
 70
     0
 43
0.0
 10
7.200766734124107
 20
3.065683006986398
 10
7.153400505704227
 20
3.065683006986398
 10
7.154702173050112
 20
3.064670599050713
 10
7.156003840395996
 20
3.063513561409916
 10
7.157160878036793
 20
3.062211894064031
 10
7.158245600825023
 20
3.060910226718126
 10
7.159113379055622
 20
3.059391614814586
 10
7.159764212728562
 20
3.057873002911046
 10
7.16019810184387
 20
3.056137446449873
 10
7.160415046401505
 20
3.05440188998868
 10
7.160415046401505
 20
3.004143067466808
 10
7.148193836320642
 20
2.990764819745152
 10
7.191799692407981
 20
2.990764819745152
 10
7.192667470638577
 20
2.990764819745152
 10
7.193535248869155
 20
2.990909449450239
 10
7.194403027099772
 20
2.990981764302785
 10
7.195198490477802
 20
2.991198708860439
 10
7.196066268708402
 20
2.991415653418093
 10
7.196934046938997
 20
2.991704912828292
 10
7.19772951031703
 20
2.991994172238491
 10
7.198597288547625
 20
2.99242806135378
 10
7.199392751925679
 20
2.992789635616523
 10
7.200188215303709
 20
2.993223524731832
 10
7.200911363829217
 20
2.993729728699665
 10
7.201634512354727
 20
2.994235932667518
 10
7.202357660880212
 20
2.994814451487916
 10
7.203080809405701
 20
2.995392970308314
 10
7.203659328226097
 20
2.995971489128713
 10
7.204310161899038
 20
2.996622322801655
 10
7.206045718360233
 20
2.998791768378136
 10
7.207419700558665
 20
3.001322788217361
 10
7.208432108494372
 20
3.003998437761698
 10
7.209010627314769
 20
3.006746402158578
 10
7.209082942167311
 20
3.009566681408001
 10
7.208649053052003
 20
3.012170016099792
 10
7.207564330263752
 20
3.014628721086475
 10
7.205901088655146
 20
3.016798166662956
 10
7.190136450799353
 20
3.010000570523311
 10
7.190931914177384
 20
3.008843532882516
 10
7.191582747850327
 20
3.00754186553663
 10
7.192088951818178
 20
3.006240198190723
 10
7.192450526080924
 20
3.004866215992294
 10
7.192667470638577
 20
3.003492233793843
 10
7.192667470638577
 20
3.002118251595415
 10
7.192450526080924
 20
3.000744269396963
 10
7.192016636965637
 20
2.999442602051078
 10
7.191438118145238
 20
2.998502508967937
 10
7.190787284472296
 20
2.997634730737339
 10
7.1899195062417
 20
2.996839267359308
 10
7.189051728011103
 20
2.996260748538912
 10
7.188039320075395
 20
2.995754544571058
 10
7.18702691213973
 20
2.99532065545577
 10
7.185942189351477
 20
2.995103710898114
 10
7.184857466563226
 20
2.995031396045571
 10
7.16019810184387
 20
2.995031396045571
 10
7.17654125852004
 20
3.011953071542138
 10
7.17654125852004
 20
3.028440857923418
 10
7.195777009298201
 20
3.028440857923418
 10
7.195777009298201
 20
3.034226046127377
 10
7.176830517930238
 20
3.034226046127377
 10
7.176830517930238
 20
3.056209761302417
 10
7.173431719860419
 20
3.061488745538524
 10
7.184351262595372
 20
3.061488745538524
 10
7.186809967582052
 20
3.061344115833434
 10
7.188834783453468
 20
3.060765597013037
 10
7.190425710209527
 20
3.059825503929895
 10
7.191582747850327
 20
3.058523836584011
 10
7.192233581523269
 20
3.057005224680471
 10
7.192450526080924
 20
3.055269668219276
 10
7.192161266670724
 20
3.053317167200448
 10
7.191365803292693
 20
3.0513646661816
 10
7.208287478789262
 20
3.046230311650583
 10
7.209444516430057
 20
3.047459664143924
 10
7.210312294660655
 20
3.048833646342375
 10
7.210963128333597
 20
3.050352258245915
 10
7.211324702596341
 20
3.051870870149453
 10
7.211469332301449
 20
3.053461796905537
 10
7.211324702596341
 20
3.055125038514165
 10
7.211035443186142
 20
3.056715965270271
 10
7.210529239218287
 20
3.058306892026355
 10
7.209878405545342
 20
3.059753189077351
 10
7.209010627314769
 20
3.061199486128323
 10
7.207998219379064
 20
3.062428838621666
 10
7.206768866885722
 20
3.063513561409916
 10
7.205467199539837
 20
3.064453654493058
 10
7.204020902488839
 20
3.065104488166001
 10
7.202429975732759
 20
3.065538377281309
 10
7.200766734124107
 20
3.065683006986398
  0
LWPOLYLINE
  5
A1F
330
17
100
AcDbEntity
  8
4
  6
Continuous
100
AcDbPolyline
 90
       21
 70
     0
 43
0.0
 10
5.700164917878277
 20
3.086847223737759
 10
5.700164917878277
 20
3.001932743580183
 10
5.703484445439175
 20
2.969004215721708
 10
5.707426384417732
 20
3.001932743580183
 10
5.707426384417732
 20
3.086699030543074
 10
5.707337468500933
 20
3.087914214739472
 10
5.707100359389432
 20
3.088981205741186
 10
5.706744695722187
 20
3.089870364909288
 10
5.706300116138145
 20
3.090611330882701
 10
5.705736981998342
 20
3.091174465022503
 10
5.705114570580673
 20
3.091589405967598
 10
5.704462520524072
 20
3.091826515079101
 10
5.703810470467478
 20
3.091915430995896
 10
5.703128781771932
 20
3.091856153718026
 10
5.702476731715333
 20
3.091619044606543
 10
5.701854320297662
 20
3.091204103661428
 10
5.701291186157881
 20
3.090670608160571
 10
5.700846606573819
 20
3.089959280826103
 10
5.700490942906597
 20
3.089070121658002
 10
5.700253833795093
 20
3.088032769295215
 10
5.700164917878277
 20
3.086847223737759
  0
LWPOLYLINE
  5
A36
330
17
100
AcDbEntity
  8
4
  6
Continuous
100
AcDbPolyline
 90
       21
 70
     0
 43
0.0
 10
5.687834088632941
 20
3.074709371531668
 10
5.687834088632941
 20
3.001962382219128
 10
5.691479641222117
 20
2.969004215721708
 10
5.695243748367059
 20
3.001814189024441
 10
5.695243748367059
 20
3.074976119282096
 10
5.695154832450244
 20
3.076161664839551
 10
5.694917723338761
 20
3.077169378563393
 10
5.694562059671515
 20
3.078028899092549
 10
5.69408784144853
 20
3.078740226427038
 10
5.693524707308727
 20
3.079244083288948
 10
5.692902295891077
 20
3.079629385595118
 10
5.692220607195531
 20
3.079836856067674
 10
5.69153891849999
 20
3.079896133345545
 10
5.690857229804446
 20
3.079777578789804
 10
5.690175541108901
 20
3.079510831039376
 10
5.689553129691251
 20
3.079095890094261
 10
5.68898999555145
 20
3.078532755954479
 10
5.688515777328483
 20
3.077791789981066
 10
5.688160113661218
 20
3.076932269451888
 10
5.687923004549737
 20
3.075894917089123
 10
5.687834088632941
 20
3.074709371531668
  0
LINE
  5
A4D
330
17
100
AcDbEntity
  8
0
100
AcDbLine
 10
5.649581665495596
 20
2.6009963822253
 30
0.0
 11
5.649581665495596
 21
3.108986320615351
 31
0.0
  0
LWPOLYLINE
  5
A4E
330
17
100
AcDbEntity
  8
4
  6
Continuous
100
AcDbPolyline
 90
       21
 70
     0
 43
0.0
 10
5.712169722095334
 20
3.079799072822372
 10
5.712169722095334
 20
3.001932743580183
 10
5.715489249656214
 20
2.969004215721708
 10
5.719431188634788
 20
3.001932743580183
 10
5.719431188634788
 20
3.079650879627683
 10
5.719342272717971
 20
3.080866063824085
 10
5.719105163606468
 20
3.081933054825797
 10
5.718749499939243
 20
3.082822213993897
 10
5.718304920355183
 20
3.083563179967311
 10
5.717741786215402
 20
3.084126314107115
 10
5.71711937479773
 20
3.084541255052229
 10
5.716467324741131
 20
3.084778364163711
 10
5.715815274684535
 20
3.084867280080529
 10
5.715133585988992
 20
3.084808002802657
 10
5.714481535932392
 20
3.084570893691154
 10
5.713859124514721
 20
3.084155952746038
 10
5.713295990374938
 20
3.083622457245183
 10
5.712851410790878
 20
3.082911129910714
 10
5.712495747123633
 20
3.082021970742613
 10
5.71225863801213
 20
3.080984618379846
 10
5.712169722095334
 20
3.079799072822372
  0
LINE
  5
A65
330
17
100
AcDbEntity
  8
0
100
AcDbLine
 10
5.649581665495596
 20
2.768457612799695
 30
0.0
 11
7.012870304484807
 21
2.768457612799695
 31
0.0
  0
TEXT
  5
A66
330
17
100
AcDbEntity
  8
3
100
AcDbText
 10
5.669380965137481
 20
2.794034913896072
 30
0.0
 40
0.0195380745534632
  1
FILE PATH:
  7
SIMPLEX
100
AcDbText
  0
TEXT
  5
A67
330
17
100
AcDbEntity
  8
3
100
AcDbText
 10
5.666265420955497
 20
2.725490737502666
 30
0.0
 40
0.0195380745534632
  1
MAT'L DESCRIPTION:
  7
SIMPLEX
100
AcDbText
  0
TEXT
  5
A68
330
17
100
AcDbEntity
  8
3
100
AcDbText
 10
5.670430791121196
 20
2.913605575080722
 30
0.0
 40
0.0195380745534632
  1
NAME:
  7
SIMPLEX
100
AcDbText
  0
LWPOLYLINE
  5
A69
330
17
100
AcDbEntity
  8
4
  6
Continuous
100
AcDbPolyline
 90
       18
 70
     0
 43
0.0
 10
5.705914813831956
 20
3.001873466302312
 10
5.705885175193031
 20
3.001399248079326
 10
5.70582589791516
 20
3.000925029856341
 10
5.705677704720471
 20
3.000510088911225
 10
5.705499872886841
 20
3.000124786605055
 10
5.705203486497486
 20
2.999769122937832
 10
5.704847822830245
 20
2.999502375187383
 10
5.704432881885128
 20
2.999324543353771
 10
5.703899386384271
 20
2.999235627436954
 10
5.70339552952236
 20
2.999265266075901
 10
5.702921311299375
 20
2.999413459270588
 10
5.702565647632132
 20
2.999680207021016
 10
5.702269261242777
 20
3.000035870688261
 10
5.702032152131274
 20
3.000450811633355
 10
5.701854320297662
 20
3.000895391217416
 10
5.70173576574192
 20
3.001369609440401
 10
5.701706127102997
 20
3.001873466302312
 10
5.705914813831956
 20
3.001873466302312
  0
LWPOLYLINE
  5
A7D
330
17
100
AcDbEntity
  8
4
  6
Continuous
100
AcDbPolyline
 90
       18
 70
     0
 43
0.0
 10
5.701676488464052
 20
3.003622145999568
 10
5.701646849825102
 20
3.004896607473838
 10
5.701646849825102
 20
3.00628962350385
 10
5.701646849825102
 20
3.007801194089623
 10
5.701765404380847
 20
3.009431319231118
 10
5.701972874853426
 20
3.01115036028945
 10
5.702358177159593
 20
3.012987955903501
 10
5.702950949938322
 20
3.014914467434391
 10
5.703810470467478
 20
3.016929894882075
 10
5.704521797801968
 20
3.015033021990131
 10
5.705084931941748
 20
3.013165787737134
 10
5.705499872886841
 20
3.011357830762008
 10
5.705796259276216
 20
3.009609151064751
 10
5.705974091109848
 20
3.007919748645366
 10
5.706033368387719
 20
3.006378539420666
 10
5.706033368387719
 20
3.004926246112785
 10
5.705974091109848
 20
3.003622145999568
 10
5.701676488464052
 20
3.003622145999568
  0
LWPOLYLINE
  5
A91
330
17
100
AcDbEntity
  8
4
  6
Continuous
100
AcDbPolyline
 90
       18
 70
     0
 43
0.0
 10
5.689078911468266
 20
3.003503591443826
 10
5.689049272829342
 20
3.005222632502138
 10
5.689167827385082
 20
3.007000950838339
 10
5.689375297857616
 20
3.008779269174521
 10
5.689671684246992
 20
3.010527948871776
 10
5.690056986553162
 20
3.012187712652216
 10
5.690501566137223
 20
3.013669644599044
 10
5.691005422999134
 20
3.014973744712261
 10
5.691568557138936
 20
3.015981458436103
 10
5.692042775361901
 20
3.015003383351186
 10
5.692516993584909
 20
3.013758560515862
 10
5.692961573168949
 20
3.012246989930087
 10
5.693346875475117
 20
3.010557587510722
 10
5.693672900503418
 20
3.008779269174521
 10
5.693910009614919
 20
3.006971312199393
 10
5.69402856417066
 20
3.005192993863213
 10
5.69402856417066
 20
3.003503591443826
 10
5.689078911468266
 20
3.003503591443826
  0
LWPOLYLINE
  5
AA5
330
17
100
AcDbEntity
  8
4
  6
Continuous
100
AcDbPolyline
 90
       18
 70
     0
 43
0.0
 10
5.69396928689279
 20
3.001873466302312
 10
5.69396928689279
 20
3.001399248079326
 10
5.693910009614919
 20
3.000925029856341
 10
5.693761816420232
 20
3.000480450272299
 10
5.693524707308727
 20
3.000035870688261
 10
5.693228320919375
 20
2.99965056838207
 10
5.692813379974261
 20
2.999354181992716
 10
5.692339161751275
 20
2.999146711520158
 10
5.691746388972548
 20
2.999087434242288
 10
5.691153616193821
 20
2.999176350159084
 10
5.690649759331908
 20
2.999354181992716
 10
5.690205179747848
 20
2.999620929743145
 10
5.689819877441679
 20
3.000006232049314
 10
5.689553129691251
 20
3.00042117299443
 10
5.689316020579769
 20
3.00086575257847
 10
5.689197466024005
 20
3.001369609440401
 10
5.689138188746136
 20
3.001873466302312
 10
5.69396928689279
 20
3.001873466302312
  0
LWPOLYLINE
  5
AB9
330
17
100
AcDbEntity
  8
4
  6
Continuous
100
AcDbPolyline
 90
       18
 70
     0
 43
0.0
 10
5.713681292681109
 20
3.003622145999568
 10
5.713651654042161
 20
3.004896607473838
 10
5.713651654042161
 20
3.00628962350385
 10
5.713651654042161
 20
3.007801194089623
 10
5.713770208597905
 20
3.009431319231118
 10
5.713977679070462
 20
3.01115036028945
 10
5.714362981376652
 20
3.012987955903501
 10
5.71495575415536
 20
3.014914467434391
 10
5.715815274684535
 20
3.016929894882075
 10
5.716526602019
 20
3.015033021990131
 10
5.717089736158784
 20
3.013165787737134
 10
5.717504677103897
 20
3.011357830762008
 10
5.717801063493273
 20
3.009609151064751
 10
5.717978895326906
 20
3.007919748645366
 10
5.718038172604757
 20
3.006378539420666
 10
5.718038172604757
 20
3.004926246112785
 10
5.717978895326906
 20
3.003622145999568
 10
5.713681292681109
 20
3.003622145999568
  0
LWPOLYLINE
  5
ACD
330
17
100
AcDbEntity
  8
4
  6
Continuous
100
AcDbPolyline
 90
       18
 70
     0
 43
0.0
 10
5.717919618049017
 20
3.001873466302312
 10
5.717889979410089
 20
3.001399248079326
 10
5.71783070213222
 20
3.000925029856341
 10
5.717682508937532
 20
3.000510088911225
 10
5.717504677103897
 20
3.000124786605055
 10
5.717208290714546
 20
2.999769122937832
 10
5.716852627047304
 20
2.999502375187383
 10
5.716437686102183
 20
2.999324543353771
 10
5.715904190601329
 20
2.999235627436954
 10
5.715400333739419
 20
2.999265266075901
 10
5.714926115516432
 20
2.999413459270588
 10
5.714570451849188
 20
2.999680207021016
 10
5.714274065459814
 20
3.000035870688261
 10
5.714036956348332
 20
3.000450811633355
 10
5.713859124514721
 20
3.000895391217416
 10
5.713740569958958
 20
3.001369609440401
 10
5.713710931320035
 20
3.001873466302312
 10
5.717919618049017
 20
3.001873466302312
  0
LWPOLYLINE
  5
AE1
330
17
100
AcDbEntity
  8
4
  6
Continuous
100
AcDbPolyline
 90
        5
 70
     0
 43
0.0
 10
6.016742862942761
 20
3.028223913365763
 10
5.995554611145752
 20
3.041746790792531
 10
5.995554611145752
 20
3.028513172775963
 10
6.016815177795304
 20
3.017087426073154
 10
6.016742862942761
 20
3.028223913365763
  0
TEXT
  5
AE8
330
17
100
AcDbEntity
  8
3
100
AcDbText
 10
5.990875384853528
 20
2.646784758689831
 30
0.0
 40
0.0290726549355533
  1
MATERIAL: 3/32 FIBRE BOARD
  7
SIMPLEX
 72
     1
 11
6.331440771241438
 21
2.646784758689831
 31
0.0
100
AcDbText
  0
TEXT
  5
AE9
330
17
100
AcDbEntity
  8
3
100
AcDbText
 10
6.084014600185481
 20
2.787357232797543
 30
0.0
 40
0.0290726549355533
  1
DWG/PART NO/330501
  7
SIMPLEX
 72
     1
 11
6.333208785347366
 21
2.787357232797543
 31
0.0
100
AcDbText
  0
TEXT
  5
AEA
330
17
100
AcDbEntity
  8
3
100
AcDbText
 10
7.031422866884337
 20
2.70879061018861
 30
0.0
 40
0.0195380745534632
  1
PART/DWG. NO.
  7
SIMPLEX
100
AcDbText
  0
LINE
  5
AEB
330
17
100
AcDbEntity
  8
0
100
AcDbLine
 10
7.012870304484807
 20
2.6009963822253
 30
0.0
 11
7.012870304484807
 21
2.835453276866861
 31
0.0
  0
TEXT
  5
AEC
330
17
100
AcDbEntity
  8
3
100
AcDbText
 10
6.073268160247003
 20
2.856570953569346
 30
0.0
 40
0.0390761491069264
  1
WURLITZER SHUTTER SPRING-FIBRE LINK
  7
SIMPLEX
 72
     1
 11
6.681739624912
 21
2.856570953569346
 31
0.0
100
AcDbText
  0
TEXT
  5
AED
330
17
100
AcDbEntity
  8
3
100
AcDbText
 10
7.242140042798371
 20
2.781872093303993
 30
0.0
 40
0.0193817699570355
  1
OF
  7
SIMPLEX
100
AcDbText
  0
TEXT
  5
AEE
330
17
100
AcDbEntity
  8
3
100
AcDbText
 10
7.041497951438485
 20
2.782038142937356
 30
0.0
 40
0.0193817699570355
  1
SHEET
  7
SIMPLEX
100
AcDbText
  0
TEXT
  5
AEF
330
17
100
AcDbEntity
  8
3
100
AcDbText
 10
7.174081549958807
 20
2.771346054526107
 30
0.0
 40
0.0390761491069264
  1
1
  7
SIMPLEX
100
AcDbText
  0
TEXT
  5
AF0
330
17
100
AcDbEntity
  8
3
100
AcDbText
 10
7.326340999905469
 20
2.771346054526107
 30
0.0
 40
0.0390761491069264
  1
1
  7
SIMPLEX
100
AcDbText
  0
LINE
  5
AF1
330
17
100
AcDbEntity
  8
0
100
AcDbLine
 10
7.376129783964414
 20
2.745414950470259
 30
0.0
 11
7.376129783964414
 21
2.835453276866861
 31
0.0
  0
LINE
  5
AF3
330
17
100
AcDbEntity
  8
0
100
AcDbLine
 10
5.703736965850572
 20
3.091909039290089
 30
0.0
 11
5.703736965850572
 21
3.091909039290089
 31
0.0
  0
LINE
  5
AF9
330
17
100
AcDbEntity
  8
0
100
AcDbLine
 10
7.546005352562039
 20
2.600996382225321
 30
0.0
 11
7.546005352562039
 21
2.745414950470259
 31
0.0
  0
TEXT
  5
AFA
330
17
100
AcDbEntity
  8
3
100
AcDbText
 10
7.621723858527728
 20
2.630472552192576
 30
0.0
 40
0.0437652869997576
  1
*
  7
SIMPLEX
 72
     1
 11
7.632144164956241
 21
2.630472552192576
 31
0.0
100
AcDbText
  0
TEXT
  5
AFB
330
17
100
AcDbEntity
  8
3
100
AcDbText
 10
7.605096932860587
 20
2.70866980040699
 30
0.0
 40
0.0195380745534632
  1
REV.
  7
SIMPLEX
100
AcDbText
  0
TEXT
  5
AFC
330
17
100
AcDbEntity
  8
3
100
AcDbText
 10
7.567463243677826
 20
2.775117408334395
 30
0.0
 40
0.0267906078277087
  1
1=.5
  7
SIMPLEX
 72
     1
 11
7.609562770264226
 21
2.775117408334395
 31
0.0
100
AcDbText
  0
TEXT
  5
AFD
330
17
100
AcDbEntity
  8
2
100
AcDbText
 10
6.558068325663771
 20
5.987275891985528
 30
0.0
 40
0.039
  1
E
  7
SIMPLEX
 72
     1
 11
6.570139754235199
 21
5.987275891985528
 31
0.0
100
AcDbText
  0
TEXT
  5
AFE
330
17
100
AcDbEntity
  8
2
100
AcDbText
 10
5.792013639201858
 20
5.987275891985528
 30
0.0
 40
0.039
  1
D
  7
SIMPLEX
 72
     1
 11
5.805013639201858
 21
5.987275891985528
 31
0.0
100
AcDbText
  0
LINE
  5
AFF
330
17
100
AcDbEntity
  8
3
100
AcDbLine
 10
6.205031908260031
 20
5.988559494528362
 30
0.0
 11
6.205031908260031
 21
6.050996382225322
 31
0.0
  0
LINE
  5
B00
330
17
100
AcDbEntity
  8
3
100
AcDbLine
 10
6.959329932558943
 20
5.988559494528362
 30
0.0
 11
6.959329932558943
 21
6.050996382225322
 31
0.0
  0
TEXT
  5
B01
330
17
100
AcDbEntity
  8
2
100
AcDbText
 10
7.312264067625208
 20
5.987275891985528
 30
0.0
 40
0.039
  1
F
  7
SIMPLEX
 72
     1
 11
7.324335496196637
 21
5.987275891985528
 31
0.0
100
AcDbText
  0
LINE
  5
B02
330
17
100
AcDbEntity
  8
4
100
AcDbLine
 10
8.151127956857855
 20
6.450996382225322
 30
0.0
 11
2.626127956857856
 21
6.450996382225322
 31
0.0
  0
CIRCLE
  5
B24
330
17
100
AcDbEntity
  8
0
100
AcDbCircle
 10
5.05776204478728
 20
4.650795571620193
 30
0.0
 40
0.0625
  0
CIRCLE
  5
B25
330
17
100
AcDbEntity
  8
0
100
AcDbCircle
 10
5.620262044787281
 20
4.650795571620193
 30
0.0
 40
0.03125
  0
DIMENSION
  5
B3E
330
17
100
AcDbEntity
  8
3
100
AcDbDimension
  2
*D1
 10
5.932762044787281
 20
5.562280206719729
 30
0.0
 11
5.33901204478728
 21
5.562280206719729
 31
0.0
 70
    32
 71
     5
 42
1.1875
  3
STANDARD
100
AcDbAlignedDimension
 13
4.74526204478728
 23
4.650795571620193
 33
0.0
 14
5.932762044787281
 24
4.650795571620193
 34
0.0
100
AcDbRotatedDimension
1001
ACAD
1000
DSTYLE
1002
{
1070
    40
1040
0.5
1070
    41
1040
0.125
1070
    44
1040
0.0625
1070
    73
1070
     0
1070
    74
1070
     0
1070
    78
1070
     4
1070
   140
1040
0.125
1070
   141
1040
-0.125
1070
   271
1070
     3
1070
   272
1070
     3
1070
   279
1070
     2
1070
   284
1070
     4
1070
   285
1070
     4
1070
   286
1070
     4
1070
   340
1005
1C
1002
}
  0
ARC
  5
B5A
330
17
100
AcDbEntity
  8
0
100
AcDbCircle
 10
5.02651204478728
 20
4.650795571620193
 30
0.0
 40
0.28125
100
AcDbArc
 50
90.0
 51
270.0
  0
ARC
  5
B5B
330
17
100
AcDbEntity
  8
0
100
AcDbCircle
 10
5.651512044787281
 20
4.650795571620193
 30
0.0
 40
0.28125
100
AcDbArc
 50
270.0
 51
90.0
  0
LINE
  5
B5C
330
17
100
AcDbEntity
  8
0
100
AcDbLine
 10
5.02651204478728
 20
4.932045571620193
 30
0.0
 11
5.651512044787281
 21
4.932045571620193
 31
0.0
  0
LINE
  5
B5D
330
17
100
AcDbEntity
  8
0
100
AcDbLine
 10
5.02651204478728
 20
4.369545571620193
 30
0.0
 11
5.651512044787281
 21
4.369545571620193
 31
0.0
  0
DIMENSION
  5
B60
330
17
100
AcDbEntity
  8
3
100
AcDbDimension
  2
*D2
 10
6.470652360875717
 20
4.369545571620191
 30
0.0
 11
6.470652360875717
 21
4.650795571620193
 31
0.0
 70
    32
 71
     5
 42
0.5625
  3
STANDARD
100
AcDbAlignedDimension
 13
5.651512044787281
 23
4.932045571620193
 33
0.0
 14
5.651512044787281
 24
4.369545571620193
 34
0.0
 50
90.0
100
AcDbRotatedDimension
1001
ACAD
1000
DSTYLE
1002
{
1070
    40
1040
0.5
1070
    41
1040
0.125
1070
    44
1040
0.0625
1070
    73
1070
     0
1070
    74
1070
     0
1070
    78
1070
     4
1070
   140
1040
0.125
1070
   141
1040
-0.125
1070
   271
1070
     3
1070
   272
1070
     3
1070
   279
1070
     2
1070
   284
1070
     4
1070
   285
1070
     4
1070
   286
1070
     4
1070
   340
1005
1C
1002
}
  0
ENDSEC
  0
SECTION
  2
OBJECTS
  0
DICTIONARY
  5
C
330
0
100
AcDbDictionary
281
     1
  3
ACAD_2007HEADERVARS_RT
350
D0D
  3
ACAD_CIP_PREVIOUS_PRODUCT_INFO
350
BCD
  3
ACAD_COLOR
350
BAE
  3
ACAD_DETAILVIEWSTYLE
350
BC8
  3
ACAD_GROUP
350
D
  3
ACAD_LAYOUT
350
B15
  3
ACAD_MATERIAL
350
B7C
  3
ACAD_MLEADERSTYLE
350
BC3
  3
ACAD_MLINESTYLE
350
1A
  3
ACAD_PLOTSETTINGS
350
B16
  3
ACAD_PLOTSTYLENAME
350
B13
  3
ACAD_SCALELIST
350
BB1
  3
ACAD_SECTIONVIEWSTYLE
350
BC5
  3
ACAD_TABLESTYLE
350
BAF
  3
ACAD_VISUALSTYLE
350
B95
  3
AcadDim
350
B6E
  3
ACDB_RECOMPOSE_DATA
350
D0B
  3
ACDBVARIABLEDICTIONARY
350
2B
  3
AcDsDecomposeData
350
D17
  3
AcmDictionary
350
BF8
  3
AMG
350
BCF
  3
AMGSNAPSETTINGS
350
C39
  3
DWGPROPS
350
D0C
  0
DICTIONARY
  5
C46
330
8
100
AcDbDictionary
280
     1
281
     1
  0
DICTIONARY
  5
CA1
330
2
100
AcDbDictionary
280
     1
281
     1
  3
ACAD_LAYERSTATES
360
CA2
  0
DICTIONARY
  5
C3A
330
E
100
AcDbDictionary
280
     1
281
     1
  3
ADSK_XREC_LAYER_RECONCILED
360
C3B
  0
DICTIONARY
  5
C3C
330
23
100
AcDbDictionary
280
     1
281
     1
  3
ADSK_XREC_LAYER_RECONCILED
360
C3D
  0
DICTIONARY
  5
C3E
330
24
100
AcDbDictionary
280
     1
281
     1
  3
ADSK_XREC_LAYER_RECONCILED
360
C3F
  0
DICTIONARY
  5
C40
330
25
100
AcDbDictionary
280
     1
281
     1
  3
ADSK_XREC_LAYER_RECONCILED
360
C41
  0
DICTIONARY
  5
D0D
102
{ACAD_REACTORS
330
C
102
}
330
C
100
AcDbDictionary
281
     1
  3
DIMARCSYM
350
D0E
  3
DIMLTEX1
350
D10
  3
DIMLTEX2
350
D11
  3
DIMLTYPE
350
D0F
  0
XRECORD
  5
BCD
102
{ACAD_REACTORS
330
C
102
}
330
C
100
AcDbXrecord
280
     1
300
AMECH_PP
300
2015
300
PDSU_F_S
  0
DICTIONARY
  5
BAE
102
{ACAD_REACTORS
330
C
102
}
330
C
100
AcDbDictionary
281
     1
  0
DICTIONARY
  5
BC8
102
{ACAD_REACTORS
330
C
102
}
330
C
100
AcDbDictionary
281
     1
  3
Imperial24
350
BC9
  0
DICTIONARY
  5
D
102
{ACAD_REACTORS
330
C
102
}
330
C
100
AcDbDictionary
281
     1
  0
DICTIONARY
  5
B15
102
{ACAD_REACTORS
330
C
102
}
330
C
100
AcDbDictionary
281
     1
  3
Layout1
350
B18
  3
Model
350
B17
  0
DICTIONARY
  5
B7C
102
{ACAD_REACTORS
330
C
102
}
330
C
100
AcDbDictionary
281
     1
  3
ByBlock
350
B85
  3
ByLayer
350
B7D
  3
Global
350
B8D
  0
DICTIONARY
  5
BC3
102
{ACAD_REACTORS
330
C
102
}
330
C
100
AcDbDictionary
281
     1
  3
Standard
350
BC4
  0
DICTIONARY
  5
1A
102
{ACAD_REACTORS
330
C
102
}
330
C
100
AcDbDictionary
281
     1
  3
STANDARD
350
1B
  0
DICTIONARY
  5
B16
102
{ACAD_REACTORS
330
C
102
}
330
C
100
AcDbDictionary
281
     1
  0
ACDBDICTIONARYWDFLT
  5
B13
102
{ACAD_REACTORS
330
C
102
}
330
C
100
AcDbDictionary
281
     1
  3
Normal
350
B14
100
AcDbDictionaryWithDefault
340
B14
  0
DICTIONARY
  5
BB1
102
{ACAD_REACTORS
330
C
102
}
330
C
100
AcDbDictionary
281
     1
  3
A0
350
BB2
  3
A1
350
BB3
  3
A2
350
BB4
  3
A3
350
BB5
  3
A4
350
BB6
  3
A5
350
BB7
  3
A6
350
BB8
  3
A7
350
BB9
  3
A8
350
BBA
  3
A9
350
BBB
  3
B0
350
BBC
  3
B1
350
BBD
  3
B2
350
BBE
  3
B3
350
BBF
  3
B4
350
BC0
  3
B5
350
BC1
  3
B6
350
BC2
  0
DICTIONARY
  5
BC5
102
{ACAD_REACTORS
330
C
102
}
330
C
100
AcDbDictionary
281
     1
  3
Imperial24
350
BC7
  0
DICTIONARY
  5
BAF
102
{ACAD_REACTORS
330
C
102
}
330
C
100
AcDbDictionary
281
     1
  3
Standard
350
BB0
  0
DICTIONARY
  5
B95
102
{ACAD_REACTORS
330
C
102
}
330
C
100
AcDbDictionary
281
     1
  3
2dWireframe
350
B9B
  3
Basic
350
B9A
  3
Brighten
350
BA1
  3
ColorChange
350
BA5
  3
Conceptual
350
B9E
  3
Dim
350
BA0
  3
EdgeColorOff
350
BAD
  3
Facepattern
350
BA4
  3
Flat
350
B96
  3
FlatWithEdges
350
B97
  3
Gouraud
350
B98
  3
GouraudWithEdges
350
B99
  3
Hidden
350
B9D
  3
JitterOff
350
BAB
  3
Linepattern
350
BA3
  3
OverhangOff
350
BAC
  3
Realistic
350
B9F
  3
Shaded
350
BAA
  3
Shaded with edges
350
BA9
  3
Shades of Gray
350
BA6
  3
Sketchy
350
BA7
  3
Thicken
350
BA2
  3
Wireframe
350
B9C
  3
X-Ray
350
BA8
  0
XRECORD
  5
B6E
102
{ACAD_REACTORS
330
C
102
}
330
C
100
AcDbXrecord
280
     1
 90
   990106
  3

 60
     0
 61
     0
 62
     1
 63
     3
 64
     0
 65
     0
 66
     0
 67
     3
 68
     1
 69
     0
 70
     0
 71
     0
 72
     0
 40
0.125
170
     0
340
B72
  0
XRECORD
  5
D0B
102
{ACAD_REACTORS
330
C
102
}
330
C
100
AcDbXrecord
280
     1
 90
        1
330
BB0
  0
DICTIONARY
  5
2B
102
{ACAD_REACTORS
330
C
102
}
330
C
100
AcDbDictionary
281
     1
  3
CANNOSCALE
350
C8C
  3
CMLEADERSTYLE
350
C89
  3
CTABLESTYLE
350
C88
  3
CVIEWDETAILSTYLE
350
C8A
  3
CVIEWSECTIONSTYLE
350
C8B
  3
DIMADEC
350
2C
  3
DIMASSOC
350
B1C
  3
INDEXCTL
350
C8E
  3
LAYEREVAL
350
CF6
  3
LAYERNOTIFY
350
CF7
  3
LIGHTINGUNITS
350
CF5
  3
LOFTANG1
350
D06
  3
LOFTANG2
350
D07
  3
LONGITUDE
350
D08
  3
MSLTSCALE
350
CF4
  3
SORTENTS
350
C8D
  3
XCLIPFRAME
350
D09
  0
DICTIONARY
  5
D17
102
{ACAD_REACTORS
330
C
102
}
330
C
100
AcDbDictionary
281
     1
  3
AcDsRecords
350
D19
  3
AcDsSchemas
350
D18
1001
ACAD
1070
     2
  0
DICTIONARY
  5
BF8
102
{ACAD_REACTORS
330
C
102
}
330
C
100
AcDbDictionary
281
     1
  3
AcmStdDictionary
350
C01
  0
DICTIONARY
  5
BCF
102
{ACAD_REACTORS
330
C
102
}
330
C
100
AcDbDictionary
281
     1
  0
DICTIONARY
  5
C39
102
{ACAD_REACTORS
330
C
102
}
330
C
100
AcDbDictionary
281
     1
  0
XRECORD
  5
D0C
102
{ACAD_REACTORS
330
C
102
}
330
C
100
AcDbXrecord
280
     1
  1
DWGPROPS COOKIE
  2

  3

  4

  6

  7

  8
jmilewski
  9

300
=
301
=
302
=
303
=
304
=
305
=
306
=
307
=
308
=
309
=
 40
0.1462498842592592
 41
2449051.580961806
 42
2457155.544109051
  1

 90
        0
  0
DICTIONARY
  5
CA2
102
{ACAD_REACTORS
330
CA1
102
}
330
CA1
100
AcDbDictionary
281
     1
  0
XRECORD
  5
C3B
102
{ACAD_REACTORS
330
C3A
102
}
330
C3A
100
AcDbXrecord
280
     1
290
     1
  0
XRECORD
  5
C3D
102
{ACAD_REACTORS
330
C3C
102
}
330
C3C
100
AcDbXrecord
280
     1
290
     1
  0
XRECORD
  5
C3F
102
{ACAD_REACTORS
330
C3E
102
}
330
C3E
100
AcDbXrecord
280
     1
290
     1
  0
XRECORD
  5
C41
102
{ACAD_REACTORS
330
C40
102
}
330
C40
100
AcDbXrecord
280
     1
290
     1
  0
XRECORD
  5
D0E
102
{ACAD_REACTORS
330
D0D
102
}
330
D0D
100
AcDbXrecord
280
     1
 70
     1
  0
XRECORD
  5
D10
102
{ACAD_REACTORS
330
D0D
102
}
330
D0D
100
AcDbXrecord
280
     1
340
11
  0
XRECORD
  5
D11
102
{ACAD_REACTORS
330
D0D
102
}
330
D0D
100
AcDbXrecord
280
     1
340
11
  0
XRECORD
  5
D0F
102
{ACAD_REACTORS
330
D0D
102
}
330
D0D
100
AcDbXrecord
280
     1
340
11
  0
ACDBDETAILVIEWSTYLE
  5
BC9
102
{ACAD_XDICTIONARY
360
CFB
102
}
102
{ACAD_REACTORS
330
BC8
102
}
330
BC8
100
AcDbModelDocViewStyle
 70
     0
  3
Imperial24
290
     0
100
AcDbDetailViewStyle
 70
     0
 71
     0
 90
        3
 71
     1
340
F
 40
0.24
340
0
 40
0.24
300

 40
0.36
280
     3
 71
     2
340
13
 90
       25
 71
     3
340
F
 40
0.24
 90
        1
 40
0.75
 90
        1
300
%<\AcVar ViewType \f "%tc1">% %<\AcVar ViewDetailId>%\PSCALE %<\AcVar ViewScale \f "%sn">%
 71
     4
340
13
 90
       25
340
13
 90
       25
280
     0
  0
LAYOUT
  5
B18
102
{ACAD_XDICTIONARY
360
D1C
102
}
102
{ACAD_REACTORS
330
B15
102
}
330
B15
100
AcDbPlotSettings
  1

  2
EPSON Stylus Photo 1200
  4

  6

 40
0.0
 41
0.0
 42
0.0
 43
0.0
 44
0.0
 45
0.0
 46
0.0
 47
0.0
 48
0.0
 49
0.0
140
0.0
141
0.0
142
1.0
143
1.0
 70
   688
 72
     0
 73
     0
 74
     5
  7

 75
    16
147
1.0
148
0.0
149
0.0
100
AcDbLayout
  1
Layout1
 70
     0
 71
     1
 10
0.0
 20
0.0
 11
12.0
 21
9.0
 12
0.0
 22
0.0
 32
0.0
 14
1.000000000000000E+20
 24
1.000000000000000E+20
 34
1.000000000000000E+20
 15
-1.000000000000000E+20
 25
-1.000000000000000E+20
 35
-1.000000000000000E+20
146
0.0
 13
0.0
 23
0.0
 33
0.0
 16
1.0
 26
0.0
 36
0.0
 17
0.0
 27
1.0
 37
0.0
 76
     0
330
14
  0
LAYOUT
  5
B17
102
{ACAD_XDICTIONARY
360
D1A
102
}
102
{ACAD_REACTORS
330
B15
102
}
330
B15
100
AcDbPlotSettings
  1

  2
none_device
  4
Letter_(8.50_x_11.00_Inches)
  6

 40
6.349999904632567
 41
6.349999904632567
 42
6.350006103515625
 43
6.350006103515625
 44
215.8999938964844
 45
279.3999938964844
 46
0.0
 47
0.0
 48
0.0
 49
0.0
140
0.0
141
0.0
142
1.0
143
1.0
 70
 11952
 72
     0
 73
     1
 74
     0
  7

 75
     0
147
1.0
148
-82.31765261545964
149
-55.33034623760064
100
AcDbLayout
  1
Model
 70
     1
 71
     0
 10
0.0
 20
0.0
 11
12.0
 21
9.0
 12
0.0
 22
0.0
 32
0.0
 14
0.0
 24
0.0
 34
0.0
 15
0.0
 25
0.0
 35
0.0
146
0.0
 13
0.0
 23
0.0
 33
0.0
 16
1.0
 26
0.0
 36
0.0
 17
0.0
 27
1.0
 37
0.0
 76
     0
330
17
331
B7A
  0
MATERIAL
  5
B85
102
{ACAD_XDICTIONARY
360
B86
102
}
102
{ACAD_REACTORS
330
B7C
102
}
330
B7C
100
AcDbMaterial
  1
ByBlock
 72
     0
 43
0.0208333333333333
 43
0.0
 43
0.0
 43
0.0
 43
0.0
 43
0.0208333333333333
 43
0.0
 43
0.0
 43
0.0
 43
0.0
 43
1.0
 43
0.0
 43
0.0
 43
0.0
 43
0.0
 43
1.0
 77
     0
 47
0.0208333333333333
 47
0.0
 47
0.0
 47
0.0
 47
0.0
 47
0.0208333333333333
 47
0.0
 47
0.0
 47
0.0
 47
0.0
 47
1.0
 47
0.0
 47
0.0
 47
0.0
 47
0.0
 47
1.0
171
     0
 49
0.0208333333333333
 49
0.0
 49
0.0
 49
0.0
 49
0.0
 49
0.0208333333333333
 49
0.0
 49
0.0
 49
0.0
 49
0.0
 49
1.0
 49
0.0
 49
0.0
 49
0.0
 49
0.0
 49
1.0
175
     0
142
0.0208333333333333
142
0.0
142
0.0
142
0.0
142
0.0
142
0.0208333333333333
142
0.0
142
0.0
142
0.0
142
0.0
142
1.0
142
0.0
142
0.0
142
0.0
142
0.0
142
1.0
179
     0
144
0.0208333333333333
144
0.0
144
0.0
144
0.0
144
0.0
144
0.0208333333333333
144
0.0
144
0.0
144
0.0
144
0.0
144
1.0
144
0.0
144
0.0
144
0.0
144
0.0
144
1.0
147
0.0208333333333333
147
0.0
147
0.0
147
0.0
147
0.0
147
0.0208333333333333
147
0.0
147
0.0
147
0.0
147
0.0
147
1.0
147
0.0
147
0.0
147
0.0
147
0.0
147
1.0
  0
MATERIAL
  5
B7D
102
{ACAD_XDICTIONARY
360
B7E
102
}
102
{ACAD_REACTORS
330
B7C
102
}
330
B7C
100
AcDbMaterial
  1
ByLayer
 72
     0
 43
0.0208333333333333
 43
0.0
 43
0.0
 43
0.0
 43
0.0
 43
0.0208333333333333
 43
0.0
 43
0.0
 43
0.0
 43
0.0
 43
1.0
 43
0.0
 43
0.0
 43
0.0
 43
0.0
 43
1.0
 77
     0
 47
0.0208333333333333
 47
0.0
 47
0.0
 47
0.0
 47
0.0
 47
0.0208333333333333
 47
0.0
 47
0.0
 47
0.0
 47
0.0
 47
1.0
 47
0.0
 47
0.0
 47
0.0
 47
0.0
 47
1.0
171
     0
 49
0.0208333333333333
 49
0.0
 49
0.0
 49
0.0
 49
0.0
 49
0.0208333333333333
 49
0.0
 49
0.0
 49
0.0
 49
0.0
 49
1.0
 49
0.0
 49
0.0
 49
0.0
 49
0.0
 49
1.0
175
     0
142
0.0208333333333333
142
0.0
142
0.0
142
0.0
142
0.0
142
0.0208333333333333
142
0.0
142
0.0
142
0.0
142
0.0
142
1.0
142
0.0
142
0.0
142
0.0
142
0.0
142
1.0
179
     0
144
0.0208333333333333
144
0.0
144
0.0
144
0.0
144
0.0
144
0.0208333333333333
144
0.0
144
0.0
144
0.0
144
0.0
144
1.0
144
0.0
144
0.0
144
0.0
144
0.0
144
1.0
147
0.0208333333333333
147
0.0
147
0.0
147
0.0
147
0.0
147
0.0208333333333333
147
0.0
147
0.0
147
0.0
147
0.0
147
1.0
147
0.0
147
0.0
147
0.0
147
0.0
147
1.0
  0
MATERIAL
  5
B8D
102
{ACAD_XDICTIONARY
360
B8E
102
}
102
{ACAD_REACTORS
330
B7C
102
}
330
B7C
100
AcDbMaterial
  1
Global
 72
     0
 43
0.0208333333333333
 43
0.0
 43
0.0
 43
0.0
 43
0.0
 43
0.0208333333333333
 43
0.0
 43
0.0
 43
0.0
 43
0.0
 43
1.0
 43
0.0
 43
0.0
 43
0.0
 43
0.0
 43
1.0
 77
     0
 47
0.0208333333333333
 47
0.0
 47
0.0
 47
0.0
 47
0.0
 47
0.0208333333333333
 47
0.0
 47
0.0
 47
0.0
 47
0.0
 47
1.0
 47
0.0
 47
0.0
 47
0.0
 47
0.0
 47
1.0
171
     0
 49
0.0208333333333333
 49
0.0
 49
0.0
 49
0.0
 49
0.0
 49
0.0208333333333333
 49
0.0
 49
0.0
 49
0.0
 49
0.0
 49
1.0
 49
0.0
 49
0.0
 49
0.0
 49
0.0
 49
1.0
175
     0
142
0.0208333333333333
142
0.0
142
0.0
142
0.0
142
0.0
142
0.0208333333333333
142
0.0
142
0.0
142
0.0
142
0.0
142
1.0
142
0.0
142
0.0
142
0.0
142
0.0
142
1.0
179
     0
144
0.0208333333333333
144
0.0
144
0.0
144
0.0
144
0.0
144
0.0208333333333333
144
0.0
144
0.0
144
0.0
144
0.0
144
1.0
144
0.0
144
0.0
144
0.0
144
0.0
144
1.0
147
0.0208333333333333
147
0.0
147
0.0
147
0.0
147
0.0
147
0.0208333333333333
147
0.0
147
0.0
147
0.0
147
0.0
147
1.0
147
0.0
147
0.0
147
0.0
147
0.0
147
1.0
  0
MLEADERSTYLE
  5
BC4
102
{ACAD_XDICTIONARY
360
D52
102
}
102
{ACAD_REACTORS
330
BC3
102
}
330
BC3
100
AcDbMLeaderStyle
170
     2
171
     1
172
     0
 90
        2
 40
0.0
 41
0.0
173
     1
 91
-1056964608
340
11
 92
       -2
290
     1
 42
0.09
291
     1
 43
0.36
  3
Standard
 44
0.18
300

342
F
174
     1
178
     6
175
     1
176
     0
 93
-1056964608
 45
0.18
292
     0
297
     0
 46
0.18
 94
-1056964608
 47
1.0
 49
1.0
140
1.0
293
     1
141
0.0
294
     1
177
     0
142
1.0
295
     0
296
     0
143
0.125
1001
ACAD_MLEADERVER
1070
     2
  0
MLINESTYLE
  5
1B
102
{ACAD_REACTORS
330
1A
102
}
330
1A
100
AcDbMlineStyle
  2
STANDARD
 70
     0
  3

 62
   256
 51
90.0
 52
90.0
 71
     2
 49
0.5
 62
   256
  6
BYLAYER
 49
-0.5
 62
   256
  6
BYLAYER
  0
ACDBPLACEHOLDER
  5
B14
102
{ACAD_REACTORS
330
B13
102
}
330
B13
  0
SCALE
  5
BB2
102
{ACAD_REACTORS
330
BB1
102
}
330
BB1
100
AcDbScale
 70
     0
300
1:1
140
1.0
141
1.0
290
     1
  0
SCALE
  5
BB3
102
{ACAD_REACTORS
330
BB1
102
}
330
BB1
100
AcDbScale
 70
     0
300
1/128" = 1'-0"
140
0.0078125
141
12.0
290
     0
  0
SCALE
  5
BB4
102
{ACAD_REACTORS
330
BB1
102
}
330
BB1
100
AcDbScale
 70
     0
300
1/64" = 1'-0"
140
0.015625
141
12.0
290
     0
  0
SCALE
  5
BB5
102
{ACAD_REACTORS
330
BB1
102
}
330
BB1
100
AcDbScale
 70
     0
300
1/32" = 1'-0"
140
0.03125
141
12.0
290
     0
  0
SCALE
  5
BB6
102
{ACAD_REACTORS
330
BB1
102
}
330
BB1
100
AcDbScale
 70
     0
300
1/16" = 1'-0"
140
0.0625
141
12.0
290
     0
  0
SCALE
  5
BB7
102
{ACAD_REACTORS
330
BB1
102
}
330
BB1
100
AcDbScale
 70
     0
300
3/32" = 1'-0"
140
0.09375
141
12.0
290
     0
  0
SCALE
  5
BB8
102
{ACAD_REACTORS
330
BB1
102
}
330
BB1
100
AcDbScale
 70
     0
300
1/8" = 1'-0"
140
0.125
141
12.0
290
     0
  0
SCALE
  5
BB9
102
{ACAD_REACTORS
330
BB1
102
}
330
BB1
100
AcDbScale
 70
     0
300
3/16" = 1'-0"
140
0.1875
141
12.0
290
     0
  0
SCALE
  5
BBA
102
{ACAD_REACTORS
330
BB1
102
}
330
BB1
100
AcDbScale
 70
     0
300
1/4" = 1'-0"
140
0.25
141
12.0
290
     0
  0
SCALE
  5
BBB
102
{ACAD_REACTORS
330
BB1
102
}
330
BB1
100
AcDbScale
 70
     0
300
3/8" = 1'-0"
140
0.375
141
12.0
290
     0
  0
SCALE
  5
BBC
102
{ACAD_REACTORS
330
BB1
102
}
330
BB1
100
AcDbScale
 70
     0
300
1/2" = 1'-0"
140
0.5
141
12.0
290
     0
  0
SCALE
  5
BBD
102
{ACAD_REACTORS
330
BB1
102
}
330
BB1
100
AcDbScale
 70
     0
300
3/4" = 1'-0"
140
0.75
141
12.0
290
     0
  0
SCALE
  5
BBE
102
{ACAD_REACTORS
330
BB1
102
}
330
BB1
100
AcDbScale
 70
     0
300
1" = 1'-0"
140
1.0
141
12.0
290
     0
  0
SCALE
  5
BBF
102
{ACAD_REACTORS
330
BB1
102
}
330
BB1
100
AcDbScale
 70
     0
300
1-1/2" = 1'-0"
140
1.5
141
12.0
290
     0
  0
SCALE
  5
BC0
102
{ACAD_REACTORS
330
BB1
102
}
330
BB1
100
AcDbScale
 70
     0
300
3" = 1'-0"
140
3.0
141
12.0
290
     0
  0
SCALE
  5
BC1
102
{ACAD_REACTORS
330
BB1
102
}
330
BB1
100
AcDbScale
 70
     0
300
6" = 1'-0"
140
6.0
141
12.0
290
     0
  0
SCALE
  5
BC2
102
{ACAD_REACTORS
330
BB1
102
}
330
BB1
100
AcDbScale
 70
     0
300
1'-0" = 1'-0"
140
12.0
141
12.0
290
     0
  0
ACDBSECTIONVIEWSTYLE
  5
BC7
102
{ACAD_XDICTIONARY
360
CF9
102
}
102
{ACAD_REACTORS
330
BC5
102
}
330
BC5
100
AcDbModelDocViewStyle
 70
     0
  3
Imperial24
290
     0
100
AcDbSectionViewStyle
 70
     0
 71
     0
 90
       78
 71
     1
340
F
 40
0.24
340
0
340
0
 40
0.24
300
I, O, Q, S, X, Z
 40
0.48
 90
        3
 40
0.18
 90
        1
 71
     2
340
BC6
 90
       25
340
13
 90
       50
 40
0.24
 40
0.0
 40
0.24
 71
     3
340
F
 40
0.24
 90
        1
 40
0.75
 90
        1
300
%<\AcVar ViewType \f "%tc1">% %<\AcVar ViewSectionStartId>%-%<\AcVar ViewSectionEndId>%\PSCALE %<\AcVar ViewScale \f "%sn">%
 71
     4
300
ANSI31
 40
1.0
 90
        0
290
     0
290
     0
 90
        6
 40
0.0
 40
1.570796326794896
 40
0.2617993877991494
 40
1.308996938995747
 40
-0.2617993877991494
 40
1.832595714594045
  0
TABLESTYLE
  5
BB0
102
{ACAD_XDICTIONARY
360
C42
102
}
102
{ACAD_REACTORS
330
BAF
102
}
330
BAF
100
AcDbTableStyle
  3
Standard
 70
     0
 71
     0
 40
0.06
 41
0.06
280
     0
281
     0
  7
STANDARD
140
0.18
170
     2
 62
     0
 63
     7
283
     0
274
    -2
284
     1
 64
     0
275
    -2
285
     1
 65
     0
276
    -2
286
     1
 66
     0
277
    -2
287
     1
 67
     0
278
    -2
288
     1
 68
     0
279
    -2
289
     1
 69
     0
  7
STANDARD
140
0.25
170
     5
 62
     0
 63
     7
283
     0
274
    -2
284
     1
 64
     0
275
    -2
285
     1
 65
     0
276
    -2
286
     1
 66
     0
277
    -2
287
     1
 67
     0
278
    -2
288
     1
 68
     0
279
    -2
289
     1
 69
     0
  7
STANDARD
140
0.18
170
     5
 62
     0
 63
     7
283
     0
274
    -2
284
     1
 64
     0
275
    -2
285
     1
 65
     0
276
    -2
286
     1
 66
     0
277
    -2
287
     1
 67
     0
278
    -2
288
     1
 68
     0
279
    -2
289
     1
 69
     0
  0
VISUALSTYLE
  5
B9B
102
{ACAD_XDICTIONARY
360
D2B
102
}
102
{ACAD_REACTORS
330
B95
102
}
330
B95
100
AcDbVisualStyle
  2
2dWireframe
 70
     4
 71
     0
 72
     2
 73
     0
 90
        0
 40
-0.6
 41
-30.0
 62
     5
 63
     7
 74
     1
 91
        4
 64
     7
 65
   257
 75
     1
175
     1
 42
1.0
 92
        0
 66
   257
 43
1.0
 76
     1
 77
     6
 78
     2
 67
     7
 79
     5
170
     0
171
     0
290
     0
174
     0
 93
        1
 44
0.0
173
     0
291
     0
 45
0.0
1001
ACAD
1000
AcDbSavedByObjectVersion
1070
     0
  0
VISUALSTYLE
  5
B9A
102
{ACAD_XDICTIONARY
360
D29
102
}
102
{ACAD_REACTORS
330
B95
102
}
330
B95
100
AcDbVisualStyle
  2
Basic
 70
     7
 71
     1
 72
     0
 73
     1
 90
        0
 40
-0.6
 41
-30.0
 62
     5
 63
     7
 74
     0
 91
        4
 64
     7
 65
   257
 75
     1
175
     1
 42
1.0
 92
        8
 66
     7
 43
1.0
 76
     1
 77
     6
 78
     2
 67
     7
 79
     5
170
     0
171
     0
290
     0
174
     0
 93
        1
 44
0.0
173
     0
291
     1
 45
0.0
1001
ACAD
1000
AcDbSavedByObjectVersion
1070
     0
  0
VISUALSTYLE
  5
BA1
102
{ACAD_XDICTIONARY
360
D37
102
}
102
{ACAD_REACTORS
330
B95
102
}
330
B95
100
AcDbVisualStyle
  2
Brighten
 70
    12
 71
     2
 72
     2
 73
     0
 90
        0
 40
-0.6
 41
-30.0
 62
     5
 63
     7
 74
     1
 91
        4
 64
     7
 65
   257
 75
     1
175
     1
 42
1.0
 92
        8
 66
     7
 43
1.0
 76
     1
 77
     6
 78
     2
 67
     7
 79
     5
170
     0
171
     0
290
     0
174
     0
 93
        1
 44
50.0
173
     0
291
     1
 45
0.0
1001
ACAD
1000
AcDbSavedByObjectVersion
1070
     0
  0
VISUALSTYLE
  5
BA5
102
{ACAD_XDICTIONARY
360
D3F
102
}
102
{ACAD_REACTORS
330
B95
102
}
330
B95
100
AcDbVisualStyle
  2
ColorChange
 70
    16
 71
     2
 72
     2
 73
     3
 90
        0
 40
-0.6
 41
-30.0
 62
     5
 63
     8
 74
     1
 91
        4
 64
     7
 65
   257
 75
     1
175
     1
 42
1.0
 92
        8
 66
     8
 43
1.0
 76
     1
 77
     6
 78
     2
 67
     7
 79
     5
170
     0
171
     0
290
     0
174
     0
 93
        1
 44
0.0
173
     0
291
     1
 45
0.0
1001
ACAD
1000
AcDbSavedByObjectVersion
1070
     0
  0
VISUALSTYLE
  5
B9E
102
{ACAD_XDICTIONARY
360
D31
102
}
102
{ACAD_REACTORS
330
B95
102
}
330
B95
100
AcDbVisualStyle
  2
Conceptual
 70
     9
 71
     3
 72
     2
 73
     0
 90
        0
 40
-0.6
 41
-30.0
 62
     5
 63
     7
 74
     2
 91
        2
 64
     7
 65
   257
 75
     1
175
     1
 42
179.0
 92
        8
 66
     7
 43
1.0
 76
     1
 77
     6
 78
     2
 67
     7
 79
     3
170
     0
171
     0
290
     0
174
     0
 93
        1
 44
0.0
173
     0
291
     0
 45
0.0
1001
ACAD
1000
AcDbSavedByObjectVersion
1070
     0
  0
VISUALSTYLE
  5
BA0
102
{ACAD_XDICTIONARY
360
D35
102
}
102
{ACAD_REACTORS
330
B95
102
}
330
B95
100
AcDbVisualStyle
  2
Dim
 70
    11
 71
     2
 72
     2
 73
     0
 90
        0
 40
-0.6
 41
-30.0
 62
     5
 63
     7
 74
     1
 91
        4
 64
     7
 65
   257
 75
     1
175
     1
 42
1.0
 92
        8
 66
     7
 43
1.0
 76
     1
 77
     6
 78
     2
 67
     7
 79
     5
170
     0
171
     0
290
     0
174
     0
 93
        1
 44
-50.0
173
     0
291
     1
 45
0.0
1001
ACAD
1000
AcDbSavedByObjectVersion
1070
     0
  0
VISUALSTYLE
  5
BAD
102
{ACAD_XDICTIONARY
360
D4F
102
}
102
{ACAD_REACTORS
330
B95
102
}
330
B95
100
AcDbVisualStyle
  2
EdgeColorOff
 70
    22
 71
     2
 72
     2
 73
     0
 90
        0
 40
-0.6
 41
-30.0
 62
     5
 63
     7
 74
     1
 91
        4
 64
     7
 65
   257
 75
     1
175
     1
 42
1.0
 92
        8
 66
     7
 43
1.0
 76
     1
 77
     6
 78
     2
 67
     7
 79
     5
170
     0
171
     0
290
     0
174
     0
 93
        1
 44
0.0
173
     0
291
     1
 45
0.0
1001
ACAD
1000
AcDbSavedByObjectVersion
1070
     0
  0
VISUALSTYLE
  5
BA4
102
{ACAD_XDICTIONARY
360
D3D
102
}
102
{ACAD_REACTORS
330
B95
102
}
330
B95
100
AcDbVisualStyle
  2
Facepattern
 70
    15
 71
     2
 72
     2
 73
     0
 90
        0
 40
-0.6
 41
-30.0
 62
     5
 63
     7
 74
     1
 91
        4
 64
     7
 65
   257
 75
     1
175
     1
 42
1.0
 92
        8
 66
     7
 43
1.0
 76
     1
 77
     6
 78
     2
 67
     7
 79
     5
170
     0
171
     0
290
     0
174
     0
 93
        1
 44
0.0
173
     0
291
     1
 45
0.0
1001
ACAD
1000
AcDbSavedByObjectVersion
1070
     0
  0
VISUALSTYLE
  5
B96
102
{ACAD_XDICTIONARY
360
D21
102
}
102
{ACAD_REACTORS
330
B95
102
}
330
B95
100
AcDbVisualStyle
  2
Flat
 70
     0
 71
     2
 72
     1
 73
     1
 90
        2
 40
-0.6
 41
30.0
 62
     5
 63
     7
 74
     0
 91
        0
 64
     7
 65
   257
 75
     1
175
     1
 42
1.0
 92
        8
 66
     7
 43
1.0
 76
     1
 77
     6
 78
     2
 67
     7
 79
     5
170
     0
171
     0
290
     0
174
     0
 93
       13
 44
0.0
173
     0
291
     1
 45
0.0
1001
ACAD
1000
AcDbSavedByObjectVersion
1070
     0
  0
VISUALSTYLE
  5
B97
102
{ACAD_XDICTIONARY
360
D23
102
}
102
{ACAD_REACTORS
330
B95
102
}
330
B95
100
AcDbVisualStyle
  2
FlatWithEdges
 70
     1
 71
     2
 72
     1
 73
     1
 90
        2
 40
-0.6
 41
30.0
 62
     5
 63
     7
 74
     1
 91
        0
 64
     7
 65
   257
 75
     1
175
     1
 42
1.0
 92
        0
 66
   257
 43
1.0
 76
     1
 77
     6
 78
     2
 67
     7
 79
     5
170
     0
171
     0
290
     0
174
     0
 93
       13
 44
0.0
173
     0
291
     1
 45
0.0
1001
ACAD
1000
AcDbSavedByObjectVersion
1070
     0
  0
VISUALSTYLE
  5
B98
102
{ACAD_XDICTIONARY
360
D25
102
}
102
{ACAD_REACTORS
330
B95
102
}
330
B95
100
AcDbVisualStyle
  2
Gouraud
 70
     2
 71
     2
 72
     2
 73
     1
 90
        2
 40
-0.6
 41
30.0
 62
     5
 63
     7
 74
     0
 91
        0
 64
     7
 65
   257
 75
     1
175
     1
 42
1.0
 92
        0
 66
     7
 43
1.0
 76
     1
 77
     6
 78
     2
 67
     7
 79
     5
170
     0
171
     0
290
     0
174
     0
 93
       13
 44
0.0
173
     0
291
     1
 45
0.0
1001
ACAD
1000
AcDbSavedByObjectVersion
1070
     0
  0
VISUALSTYLE
  5
B99
102
{ACAD_XDICTIONARY
360
D27
102
}
102
{ACAD_REACTORS
330
B95
102
}
330
B95
100
AcDbVisualStyle
  2
GouraudWithEdges
 70
     3
 71
     2
 72
     2
 73
     1
 90
        2
 40
-0.6
 41
30.0
 62
     5
 63
     7
 74
     1
 91
        0
 64
     7
 65
   257
 75
     1
175
     1
 42
1.0
 92
        0
 66
   257
 43
1.0
 76
     1
 77
     6
 78
     2
 67
     7
 79
     5
170
     0
171
     0
290
     0
174
     0
 93
       13
 44
0.0
173
     0
291
     1
 45
0.0
1001
ACAD
1000
AcDbSavedByObjectVersion
1070
     0
  0
VISUALSTYLE
  5
B9D
102
{ACAD_XDICTIONARY
360
D2F
102
}
102
{ACAD_REACTORS
330
B95
102
}
330
B95
100
AcDbVisualStyle
  2
Hidden
 70
     6
 71
     1
 72
     2
 73
     2
 90
        0
 40
-0.6
 41
-30.0
 62
     5
 63
     7
 74
     2
 91
        2
 64
     7
 65
   257
 75
     2
175
     1
 42
40.0
 92
        0
 66
   257
 43
1.0
 76
     1
 77
     6
 78
     2
 67
     7
 79
     3
170
     0
171
     0
290
     0
174
     0
 93
        1
 44
0.0
173
     0
291
     0
 45
0.0
1001
ACAD
1000
AcDbSavedByObjectVersion
1070
     0
  0
VISUALSTYLE
  5
BAB
102
{ACAD_XDICTIONARY
360
D4B
102
}
102
{ACAD_REACTORS
330
B95
102
}
330
B95
100
AcDbVisualStyle
  2
JitterOff
 70
    20
 71
     2
 72
     2
 73
     0
 90
        0
 40
-0.6
 41
-30.0
 62
     5
 63
     7
 74
     1
 91
        4
 64
     7
 65
   257
 75
     1
175
     1
 42
1.0
 92
       10
 66
     7
 43
1.0
 76
     1
 77
     6
 78
     2
 67
     7
 79
     5
170
     0
171
     0
290
     0
174
     0
 93
        1
 44
0.0
173
     0
291
     1
 45
0.0
1001
ACAD
1000
AcDbSavedByObjectVersion
1070
     0
  0
VISUALSTYLE
  5
BA3
102
{ACAD_XDICTIONARY
360
D3B
102
}
102
{ACAD_REACTORS
330
B95
102
}
330
B95
100
AcDbVisualStyle
  2
Linepattern
 70
    14
 71
     2
 72
     2
 73
     0
 90
        0
 40
-0.6
 41
-30.0
 62
     5
 63
     7
 74
     1
 91
        4
 64
     7
 65
   257
 75
     7
175
     7
 42
1.0
 92
        8
 66
     7
 43
1.0
 76
     1
 77
     6
 78
     2
 67
     7
 79
     5
170
     0
171
     0
290
     0
174
     0
 93
        1
 44
0.0
173
     0
291
     1
 45
0.0
1001
ACAD
1000
AcDbSavedByObjectVersion
1070
     0
  0
VISUALSTYLE
  5
BAC
102
{ACAD_XDICTIONARY
360
D4D
102
}
102
{ACAD_REACTORS
330
B95
102
}
330
B95
100
AcDbVisualStyle
  2
OverhangOff
 70
    21
 71
     2
 72
     2
 73
     0
 90
        0
 40
-0.6
 41
-30.0
 62
     5
 63
     7
 74
     1
 91
        4
 64
     7
 65
   257
 75
     1
175
     1
 42
1.0
 92
        9
 66
     7
 43
1.0
 76
     1
 77
     6
 78
     2
 67
     7
 79
     5
170
     0
171
     0
290
     0
174
     0
 93
        1
 44
0.0
173
     0
291
     1
 45
0.0
1001
ACAD
1000
AcDbSavedByObjectVersion
1070
     0
  0
VISUALSTYLE
  5
B9F
102
{ACAD_XDICTIONARY
360
D33
102
}
102
{ACAD_REACTORS
330
B95
102
}
330
B95
100
AcDbVisualStyle
  2
Realistic
 70
     8
 71
     2
 72
     2
 73
     0
 90
        2
 40
-0.6
 41
30.0
 62
     5
 63
     7
 74
     0
 91
        0
 64
     7
 65
   257
 75
     1
175
     1
 42
1.0
 92
        8
 66
   257
 43
1.0
 76
     1
 77
     6
 78
     2
 67
     7
 79
     3
170
     0
171
     0
290
     0
174
     0
 93
       13
 44
0.0
173
     0
291
     0
 45
0.0
1001
ACAD
1000
AcDbSavedByObjectVersion
1070
     0
  0
VISUALSTYLE
  5
BAA
102
{ACAD_XDICTIONARY
360
D49
102
}
102
{ACAD_REACTORS
330
B95
102
}
330
B95
100
AcDbVisualStyle
  2
Shaded
 70
    27
 71
     2
 72
     2
 73
     1
 90
        2
 40
-0.6
 41
30.0
 62
     5
 63
     7
 74
     0
 91
        4
 64
     7
 65
   257
 75
     1
175
     1
 42
1.0
 92
        8
 66
   257
 43
1.0
 76
     1
 77
     6
 78
     2
 67
     8
 79
     3
170
     0
171
     0
290
     0
174
     0
 93
        5
 44
0.0
173
     0
291
     0
 45
0.0
1001
ACAD
1000
AcDbSavedByObjectVersion
1070
     0
  0
VISUALSTYLE
  5
BA9
102
{ACAD_XDICTIONARY
360
D47
102
}
102
{ACAD_REACTORS
330
B95
102
}
330
B95
100
AcDbVisualStyle
  2
Shaded with edges
 70
    26
 71
     2
 72
     2
 73
     1
 90
        2
 40
-0.6
 41
30.0
 62
     5
 63
     7
 74
     1
 91
       10
 64
     7
 65
   257
 75
     2
175
     1
 42
1.0
 92
        8
 66
   257
 43
1.0
 76
     1
 77
     6
 78
     2
 67
     7
 79
     3
170
     0
171
     0
290
     0
174
     0
 93
        5
 44
0.0
173
     0
291
     0
 45
0.0
1001
ACAD
1000
AcDbSavedByObjectVersion
1070
     0
  0
VISUALSTYLE
  5
BA6
102
{ACAD_XDICTIONARY
360
D41
102
}
102
{ACAD_REACTORS
330
B95
102
}
330
B95
100
AcDbVisualStyle
  2
Shades of Gray
 70
    23
 71
     2
 72
     2
 73
     3
 90
        0
 40
-0.6
 41
-30.0
 62
     5
 63
     7
 74
     2
 91
        2
 64
     7
 65
     7
 75
     1
175
     1
 42
40.0
 92
        8
 66
     7
 43
1.0
 76
     1
 77
     6
 78
     2
 67
     7
 79
     3
170
     0
171
     0
290
     0
174
     0
 93
        1
 44
0.0
173
     0
291
     0
 45
0.0
1001
ACAD
1000
AcDbSavedByObjectVersion
1070
     0
  0
VISUALSTYLE
  5
BA7
102
{ACAD_XDICTIONARY
360
D43
102
}
102
{ACAD_REACTORS
330
B95
102
}
330
B95
100
AcDbVisualStyle
  2
Sketchy
 70
    24
 71
     1
 72
     2
 73
     2
 90
        0
 40
-0.6
 41
-30.0
 62
     5
 63
     7
 74
     2
 91
        2
 64
     7
 65
     7
 75
     1
175
     1
 42
40.0
 92
       11
 66
     7
 43
1.0
 76
     1
 77
     6
 78
     2
 67
     7
 79
     6
170
     0
171
     0
290
     0
174
     0
 93
        1
 44
0.0
173
     0
291
     0
 45
0.0
1001
ACAD
1000
AcDbSavedByObjectVersion
1070
     0
  0
VISUALSTYLE
  5
BA2
102
{ACAD_XDICTIONARY
360
D39
102
}
102
{ACAD_REACTORS
330
B95
102
}
330
B95
100
AcDbVisualStyle
  2
Thicken
 70
    13
 71
     2
 72
     2
 73
     0
 90
        0
 40
-0.6
 41
-30.0
 62
     5
 63
     7
 74
     1
 91
        4
 64
     7
 65
   257
 75
     1
175
     1
 42
1.0
 92
       12
 66
     7
 43
1.0
 76
     1
 77
     6
 78
     2
 67
     7
 79
     5
170
     0
171
     0
290
     0
174
     0
 93
        1
 44
0.0
173
     0
291
     1
 45
0.0
1001
ACAD
1000
AcDbSavedByObjectVersion
1070
     0
  0
VISUALSTYLE
  5
B9C
102
{ACAD_XDICTIONARY
360
D2D
102
}
102
{ACAD_REACTORS
330
B95
102
}
330
B95
100
AcDbVisualStyle
  2
Wireframe
 70
     5
 71
     0
 72
     2
 73
     0
 90
        0
 40
-0.6
 41
-30.0
 62
     5
 63
     7
 74
     1
 91
        4
 64
     7
 65
   257
 75
     1
175
     1
 42
1.0
 92
        0
 66
   257
 43
1.0
 76
     1
 77
     6
 78
     2
 67
     7
 79
     3
170
     0
171
     0
290
     0
174
     0
 93
        1
 44
0.0
173
     0
291
     0
 45
0.0
1001
ACAD
1000
AcDbSavedByObjectVersion
1070
     0
  0
VISUALSTYLE
  5
BA8
102
{ACAD_XDICTIONARY
360
D45
102
}
102
{ACAD_REACTORS
330
B95
102
}
330
B95
100
AcDbVisualStyle
  2
X-Ray
 70
    25
 71
     2
 72
     2
 73
     1
 90
        1
 40
0.5
 41
-30.0
 62
     5
 63
     7
 74
     1
 91
        0
 64
     7
 65
   257
 75
     1
175
     1
 42
1.0
 92
        8
 66
     7
 43
1.0
 76
     1
 77
     6
 78
     2
 67
     7
 79
     3
170
     0
171
     0
290
     0
174
     0
 93
       13
 44
0.0
173
     0
291
     0
 45
0.0
1001
ACAD
1000
AcDbSavedByObjectVersion
1070
     0
  0
DICTIONARYVAR
  5
C8C
102
{ACAD_REACTORS
330
2B
102
}
330
2B
100
DictionaryVariables
280
     0
  1
1:1
  0
DICTIONARYVAR
  5
C89
102
{ACAD_REACTORS
330
2B
102
}
330
2B
100
DictionaryVariables
280
     0
  1
STANDARD
  0
DICTIONARYVAR
  5
C88
102
{ACAD_REACTORS
330
2B
102
}
330
2B
100
DictionaryVariables
280
     0
  1
STANDARD
  0
DICTIONARYVAR
  5
C8A
102
{ACAD_REACTORS
330
2B
102
}
330
2B
100
DictionaryVariables
280
     0
  1
Imperial24
  0
DICTIONARYVAR
  5
C8B
102
{ACAD_REACTORS
330
2B
102
}
330
2B
100
DictionaryVariables
280
     0
  1
Imperial24
  0
DICTIONARYVAR
  5
2C
102
{ACAD_REACTORS
330
2B
102
}
330
2B
100
DictionaryVariables
280
     0
  1
2
  0
DICTIONARYVAR
  5
B1C
102
{ACAD_REACTORS
330
2B
102
}
330
2B
100
DictionaryVariables
280
     0
  1
1
  0
DICTIONARYVAR
  5
C8E
102
{ACAD_REACTORS
330
2B
102
}
330
2B
100
DictionaryVariables
280
     0
  1
0
  0
DICTIONARYVAR
  5
CF6
102
{ACAD_REACTORS
330
2B
102
}
330
2B
100
DictionaryVariables
280
     0
  1
1
  0
DICTIONARYVAR
  5
CF7
102
{ACAD_REACTORS
330
2B
102
}
330
2B
100
DictionaryVariables
280
     0
  1
15
  0
DICTIONARYVAR
  5
CF5
102
{ACAD_REACTORS
330
2B
102
}
330
2B
100
DictionaryVariables
280
     0
  1
0
  0
DICTIONARYVAR
  5
D06
102
{ACAD_REACTORS
330
2B
102
}
330
2B
100
DictionaryVariables
280
     0
  1
1.570796
  0
DICTIONARYVAR
  5
D07
102
{ACAD_REACTORS
330
2B
102
}
330
2B
100
DictionaryVariables
280
     0
  1
1.570796
  0
DICTIONARYVAR
  5
D08
102
{ACAD_REACTORS
330
2B
102
}
330
2B
100
DictionaryVariables
280
     0
  1
-122.394000
  0
DICTIONARYVAR
  5
CF4
102
{ACAD_REACTORS
330
2B
102
}
330
2B
100
DictionaryVariables
280
     0
  1
0
  0
DICTIONARYVAR
  5
C8D
102
{ACAD_REACTORS
330
2B
102
}
330
2B
100
DictionaryVariables
280
     0
  1
127
  0
DICTIONARYVAR
  5
D09
102
{ACAD_REACTORS
330
2B
102
}
330
2B
100
DictionaryVariables
280
     0
  1
2
  0
DICTIONARY
  5
D19
102
{ACAD_REACTORS
330
D17
102
}
330
D17
100
AcDbDictionary
281
     1
  0
DICTIONARY
  5
D18
102
{ACAD_REACTORS
330
D17
102
}
330
D17
100
AcDbDictionary
281
     1
  3
8796088087328
350
D12
  3
8796088087344
350
D13
  3
8796088087360
350
D14
  3
8796088087376
350
D15
  3
8796088087392
350
D16
  0
DICTIONARY
  5
C01
102
{ACAD_REACTORS
330
BF8
102
}
330
BF8
100
AcDbDictionary
281
     1
  0
DICTIONARY
  5
CFB
330
BC9
100
AcDbDictionary
280
     1
281
     1
  3
ACAD_XREC_ROUNDTRIP
360
D55
  0
DICTIONARY
  5
D1C
330
B18
100
AcDbDictionary
280
     1
281
     1
  3
ACAD_XREC_ROUNDTRIP
360
D1D
  0
DICTIONARY
  5
D1A
330
B17
100
AcDbDictionary
280
     1
281
     1
  3
ACAD_XREC_ROUNDTRIP
360
D1B
  0
DICTIONARY
  5
B86
330
B85
100
AcDbDictionary
280
     1
281
     1
  3
ACAD_XREC_ROUNDTRIP
360
D1F
  3
BUMPTILE
360
B88
  3
DIFFUSETILE
360
B87
  3
OPACITYTILE
360
B8B
  3
REFLECTIONTILE
360
B8A
  3
REFRACTIONTILE
360
B8C
  3
SPECULARTILE
360
B89
  0
DICTIONARY
  5
B7E
330
B7D
100
AcDbDictionary
280
     1
281
     1
  3
ACAD_XREC_ROUNDTRIP
360
D1E
  3
BUMPTILE
360
B80
  3
DIFFUSETILE
360
B7F
  3
OPACITYTILE
360
B83
  3
REFLECTIONTILE
360
B82
  3
REFRACTIONTILE
360
B84
  3
SPECULARTILE
360
B81
  0
DICTIONARY
  5
B8E
330
B8D
100
AcDbDictionary
280
     1
281
     1
  3
ACAD_XREC_ROUNDTRIP
360
D20
  3
BUMPTILE
360
B90
  3
DIFFUSETILE
360
B8F
  3
OPACITYTILE
360
B93
  3
REFLECTIONTILE
360
B92
  3
REFRACTIONTILE
360
B94
  3
SPECULARTILE
360
B91
  0
DICTIONARY
  5
D52
330
BC4
100
AcDbDictionary
280
     1
281
     1
  3
ACAD_XREC_ROUNDTRIP
360
D53
  0
DICTIONARY
  5
CF9
330
BC7
100
AcDbDictionary
280
     1
281
     1
  3
ACAD_XREC_ROUNDTRIP
360
D54
  0
DICTIONARY
  5
C42
330
BB0
100
AcDbDictionary
280
     1
281
     1
  3
ACAD_ROUNDTRIP_2008_TABLESTYLE_CELLSTYLEMAP
360
D0A
  3
ACAD_XREC_ROUNDTRIP
360
D51
  0
DICTIONARY
  5
D2B
330
B9B
100
AcDbDictionary
280
     1
281
     1
  3
ACAD_XREC_ROUNDTRIP
360
D2C
  0
DICTIONARY
  5
D29
330
B9A
100
AcDbDictionary
280
     1
281
     1
  3
ACAD_XREC_ROUNDTRIP
360
D2A
  0
DICTIONARY
  5
D37
330
BA1
100
AcDbDictionary
280
     1
281
     1
  3
ACAD_XREC_ROUNDTRIP
360
D38
  0
DICTIONARY
  5
D3F
330
BA5
100
AcDbDictionary
280
     1
281
     1
  3
ACAD_XREC_ROUNDTRIP
360
D40
  0
DICTIONARY
  5
D31
330
B9E
100
AcDbDictionary
280
     1
281
     1
  3
ACAD_XREC_ROUNDTRIP
360
D32
  0
DICTIONARY
  5
D35
330
BA0
100
AcDbDictionary
280
     1
281
     1
  3
ACAD_XREC_ROUNDTRIP
360
D36
  0
DICTIONARY
  5
D4F
330
BAD
100
AcDbDictionary
280
     1
281
     1
  3
ACAD_XREC_ROUNDTRIP
360
D50
  0
DICTIONARY
  5
D3D
330
BA4
100
AcDbDictionary
280
     1
281
     1
  3
ACAD_XREC_ROUNDTRIP
360
D3E
  0
DICTIONARY
  5
D21
330
B96
100
AcDbDictionary
280
     1
281
     1
  3
ACAD_XREC_ROUNDTRIP
360
D22
  0
DICTIONARY
  5
D23
330
B97
100
AcDbDictionary
280
     1
281
     1
  3
ACAD_XREC_ROUNDTRIP
360
D24
  0
DICTIONARY
  5
D25
330
B98
100
AcDbDictionary
280
     1
281
     1
  3
ACAD_XREC_ROUNDTRIP
360
D26
  0
DICTIONARY
  5
D27
330
B99
100
AcDbDictionary
280
     1
281
     1
  3
ACAD_XREC_ROUNDTRIP
360
D28
  0
DICTIONARY
  5
D2F
330
B9D
100
AcDbDictionary
280
     1
281
     1
  3
ACAD_XREC_ROUNDTRIP
360
D30
  0
DICTIONARY
  5
D4B
330
BAB
100
AcDbDictionary
280
     1
281
     1
  3
ACAD_XREC_ROUNDTRIP
360
D4C
  0
DICTIONARY
  5
D3B
330
BA3
100
AcDbDictionary
280
     1
281
     1
  3
ACAD_XREC_ROUNDTRIP
360
D3C
  0
DICTIONARY
  5
D4D
330
BAC
100
AcDbDictionary
280
     1
281
     1
  3
ACAD_XREC_ROUNDTRIP
360
D4E
  0
DICTIONARY
  5
D33
330
B9F
100
AcDbDictionary
280
     1
281
     1
  3
ACAD_XREC_ROUNDTRIP
360
D34
  0
DICTIONARY
  5
D49
330
BAA
100
AcDbDictionary
280
     1
281
     1
  3
ACAD_XREC_ROUNDTRIP
360
D4A
  0
DICTIONARY
  5
D47
330
BA9
100
AcDbDictionary
280
     1
281
     1
  3
ACAD_XREC_ROUNDTRIP
360
D48
  0
DICTIONARY
  5
D41
330
BA6
100
AcDbDictionary
280
     1
281
     1
  3
ACAD_XREC_ROUNDTRIP
360
D42
  0
DICTIONARY
  5
D43
330
BA7
100
AcDbDictionary
280
     1
281
     1
  3
ACAD_XREC_ROUNDTRIP
360
D44
  0
DICTIONARY
  5
D39
330
BA2
100
AcDbDictionary
280
     1
281
     1
  3
ACAD_XREC_ROUNDTRIP
360
D3A
  0
DICTIONARY
  5
D2D
330
B9C
100
AcDbDictionary
280
     1
281
     1
  3
ACAD_XREC_ROUNDTRIP
360
D2E
  0
DICTIONARY
  5
D45
330
BA8
100
AcDbDictionary
280
     1
281
     1
  3
ACAD_XREC_ROUNDTRIP
360
D46
  0
XRECORD
  5
D12
102
{ACAD_REACTORS
330
D18
102
}
330
D18
100
AcDbXrecord
280
     1
  1
AcDb_Thumbnail_Schema
102
{ATTRRECORD
341
D13
  2
AcDbDs::TreatedAsObjectData
280
     1
291
     1
102
ATTRRECORD}
102
{ATTRRECORD
341
D14
  2
AcDbDs::Legacy
280
     1
291
     1
102
ATTRRECORD}
  2
AcDbDs::ID
280
    10
 91
        8
102
{ATTRRECORD
341
D15
  2
AcDs:Indexable
280
     1
291
     1
102
ATTRRECORD}
102
{ATTRRECORD
341
D16
  2
AcDbDs::HandleAttribute
280
     7
282
     1
102
ATTRRECORD}
  2
Thumbnail_Data
280
    15
 91
        0
  0
XRECORD
  5
D13
102
{ACAD_REACTORS
330
D18
102
}
330
D18
100
AcDbXrecord
280
     1
  1
AcDbDs::TreatedAsObjectDataSchema
  2
AcDbDs::TreatedAsObjectData
280
     1
 91
        0
  0
XRECORD
  5
D14
102
{ACAD_REACTORS
330
D18
102
}
330
D18
100
AcDbXrecord
280
     1
  1
AcDbDs::LegacySchema
  2
AcDbDs::Legacy
280
     1
 91
        0
  0
XRECORD
  5
D15
102
{ACAD_REACTORS
330
D18
102
}
330
D18
100
AcDbXrecord
280
     1
  1
AcDbDs::IndexedPropertySchema
  2
AcDs:Indexable
280
     1
 91
        0
  0
XRECORD
  5
D16
102
{ACAD_REACTORS
330
D18
102
}
330
D18
100
AcDbXrecord
280
     1
  1
AcDbDs::HandleAttributeSchema
  2
AcDbDs::HandleAttribute
280
     7
 91
        1
284
     1
  0
XRECORD
  5
D55
102
{ACAD_REACTORS
330
CFB
102
}
330
CFB
100
AcDbXrecord
280
     1
102
DISPLAYNAME
  1
Imperial24
102
FLAGS
 90
        0
  0
XRECORD
  5
D1D
102
{ACAD_REACTORS
330
D1C
102
}
330
D1C
100
AcDbXrecord
280
     1
102
SHADEPLOT
 70
     0
102
SHADEPLOTRESLEVEL
 70
     2
102
SHADEPLOTCUSTOMDPI
 70
   300
  0
XRECORD
  5
D1B
102
{ACAD_REACTORS
330
D1A
102
}
330
D1A
100
AcDbXrecord
280
     1
102
SHADEPLOT
 70
     0
102
SHADEPLOTRESLEVEL
 70
     2
102
SHADEPLOTCUSTOMDPI
 70
   300
  0
XRECORD
  5
D1F
102
{ACAD_REACTORS
330
B86
102
}
330
B86
100
AcDbXrecord
280
     1
102
MATERIAL
148
0.0
149
0.0
149
0.0
 93
        0
 94
      127
282
     0
 72
     0
 77
     0
171
     0
175
     0
179
     0
273
     0
  0
XRECORD
  5
B88
102
{ACAD_REACTORS
330
B86
102
}
330
B86
100
AcDbXrecord
280
     1
270
     1
271
     1
  0
XRECORD
  5
B87
102
{ACAD_REACTORS
330
B86
102
}
330
B86
100
AcDbXrecord
280
     1
270
     1
271
     1
  0
XRECORD
  5
B8B
102
{ACAD_REACTORS
330
B86
102
}
330
B86
100
AcDbXrecord
280
     1
270
     1
271
     1
  0
XRECORD
  5
B8A
102
{ACAD_REACTORS
330
B86
102
}
330
B86
100
AcDbXrecord
280
     1
270
     1
271
     1
  0
XRECORD
  5
B8C
102
{ACAD_REACTORS
330
B86
102
}
330
B86
100
AcDbXrecord
280
     1
270
     1
271
     1
  0
XRECORD
  5
B89
102
{ACAD_REACTORS
330
B86
102
}
330
B86
100
AcDbXrecord
280
     1
270
     1
271
     1
  0
XRECORD
  5
D1E
102
{ACAD_REACTORS
330
B7E
102
}
330
B7E
100
AcDbXrecord
280
     1
102
MATERIAL
148
0.0
149
0.0
149
0.0
 93
        0
 94
      127
282
     0
 72
     0
 77
     0
171
     0
175
     0
179
     0
273
     0
  0
XRECORD
  5
B80
102
{ACAD_REACTORS
330
B7E
102
}
330
B7E
100
AcDbXrecord
280
     1
270
     1
271
     1
  0
XRECORD
  5
B7F
102
{ACAD_REACTORS
330
B7E
102
}
330
B7E
100
AcDbXrecord
280
     1
270
     1
271
     1
  0
XRECORD
  5
B83
102
{ACAD_REACTORS
330
B7E
102
}
330
B7E
100
AcDbXrecord
280
     1
270
     1
271
     1
  0
XRECORD
  5
B82
102
{ACAD_REACTORS
330
B7E
102
}
330
B7E
100
AcDbXrecord
280
     1
270
     1
271
     1
  0
XRECORD
  5
B84
102
{ACAD_REACTORS
330
B7E
102
}
330
B7E
100
AcDbXrecord
280
     1
270
     1
271
     1
  0
XRECORD
  5
B81
102
{ACAD_REACTORS
330
B7E
102
}
330
B7E
100
AcDbXrecord
280
     1
270
     1
271
     1
  0
XRECORD
  5
D20
102
{ACAD_REACTORS
330
B8E
102
}
330
B8E
100
AcDbXrecord
280
     1
102
MATERIAL
148
0.0
149
0.0
149
0.0
 93
        0
 94
      127
282
     0
 72
     0
 77
     0
171
     0
175
     0
179
     0
273
     0
  0
XRECORD
  5
B90
102
{ACAD_REACTORS
330
B8E
102
}
330
B8E
100
AcDbXrecord
280
     1
270
     1
271
     1
  0
XRECORD
  5
B8F
102
{ACAD_REACTORS
330
B8E
102
}
330
B8E
100
AcDbXrecord
280
     1
270
     1
271
     1
  0
XRECORD
  5
B93
102
{ACAD_REACTORS
330
B8E
102
}
330
B8E
100
AcDbXrecord
280
     1
270
     1
271
     1
  0
XRECORD
  5
B92
102
{ACAD_REACTORS
330
B8E
102
}
330
B8E
100
AcDbXrecord
280
     1
270
     1
271
     1
  0
XRECORD
  5
B94
102
{ACAD_REACTORS
330
B8E
102
}
330
B8E
100
AcDbXrecord
280
     1
270
     1
271
     1
  0
XRECORD
  5
B91
102
{ACAD_REACTORS
330
B8E
102
}
330
B8E
100
AcDbXrecord
280
     1
270
     1
271
     1
  0
XRECORD
  5
D53
102
{ACAD_REACTORS
330
D52
102
}
330
D52
100
AcDbXrecord
280
     1
102
ACAD_ROUNDTRIP_2012_MLEADER_STYLE
298
     1
  0
XRECORD
  5
D54
102
{ACAD_REACTORS
330
CF9
102
}
330
CF9
100
AcDbXrecord
280
     1
102
DISPLAYNAME
  1
Imperial24
102
FLAGS
 90
        0
  0
CELLSTYLEMAP
  5
D0A
102
{ACAD_REACTORS
330
C42
102
}
330
C42
100
AcDbCellStyleMap
 90
        3
300
CELLSTYLE
  1
TABLEFORMAT_BEGIN
 90
        5
170
     1
 91
        0
 92
    32768
 62
   257
 93
        1
300
CONTENTFORMAT
  1
CONTENTFORMAT_BEGIN
 90
        0
 91
        0
 92
      512
 93
        0
300

 40
0.0
140
1.0
 94
        5
 62
     0
340
F
144
0.25
309
CONTENTFORMAT_END
171
     1
301
MARGIN
  1
CELLMARGIN_BEGIN
 40
0.06
 40
0.06
 40
0.06
 40
0.06
 40
0.18
 40
0.18
309
CELLMARGIN_END
 94
        6
 95
        1
302
GRIDFORMAT
  1
GRIDFORMAT_BEGIN
 90
        0
 91
        1
 62
     0
 92
       -2
340
0
 93
        0
 40
0.045
309
GRIDFORMAT_END
 95
        2
302
GRIDFORMAT
  1
GRIDFORMAT_BEGIN
 90
        0
 91
        1
 62
     0
 92
       -2
340
0
 93
        0
 40
0.045
309
GRIDFORMAT_END
 95
        4
302
GRIDFORMAT
  1
GRIDFORMAT_BEGIN
 90
        0
 91
        1
 62
     0
 92
       -2
340
0
 93
        0
 40
0.045
309
GRIDFORMAT_END
 95
        8
302
GRIDFORMAT
  1
GRIDFORMAT_BEGIN
 90
        0
 91
        1
 62
     0
 92
       -2
340
0
 93
        0
 40
0.045
309
GRIDFORMAT_END
 95
       16
302
GRIDFORMAT
  1
GRIDFORMAT_BEGIN
 90
        0
 91
        1
 62
     0
 92
       -2
340
0
 93
        0
 40
0.045
309
GRIDFORMAT_END
 95
       32
302
GRIDFORMAT
  1
GRIDFORMAT_BEGIN
 90
        0
 91
        1
 62
     0
 92
       -2
340
0
 93
        0
 40
0.045
309
GRIDFORMAT_END
309
TABLEFORMAT_END
  1
CELLSTYLE_BEGIN
 90
        1
 91
        1
300
_TITLE
309
CELLSTYLE_END
300
CELLSTYLE
  1
TABLEFORMAT_BEGIN
 90
        5
170
     1
 91
        0
 92
        0
 62
   257
 93
        1
300
CONTENTFORMAT
  1
CONTENTFORMAT_BEGIN
 90
        0
 91
        0
 92
      512
 93
        0
300

 40
0.0
140
1.0
 94
        5
 62
     0
340
F
144
0.18
309
CONTENTFORMAT_END
171
     1
301
MARGIN
  1
CELLMARGIN_BEGIN
 40
0.06
 40
0.06
 40
0.06
 40
0.06
 40
0.18
 40
0.18
309
CELLMARGIN_END
 94
        6
 95
        1
302
GRIDFORMAT
  1
GRIDFORMAT_BEGIN
 90
        0
 91
        1
 62
     0
 92
       -2
340
0
 93
        0
 40
0.045
309
GRIDFORMAT_END
 95
        2
302
GRIDFORMAT
  1
GRIDFORMAT_BEGIN
 90
        0
 91
        1
 62
     0
 92
       -2
340
0
 93
        0
 40
0.045
309
GRIDFORMAT_END
 95
        4
302
GRIDFORMAT
  1
GRIDFORMAT_BEGIN
 90
        0
 91
        1
 62
     0
 92
       -2
340
0
 93
        0
 40
0.045
309
GRIDFORMAT_END
 95
        8
302
GRIDFORMAT
  1
GRIDFORMAT_BEGIN
 90
        0
 91
        1
 62
     0
 92
       -2
340
0
 93
        0
 40
0.045
309
GRIDFORMAT_END
 95
       16
302
GRIDFORMAT
  1
GRIDFORMAT_BEGIN
 90
        0
 91
        1
 62
     0
 92
       -2
340
0
 93
        0
 40
0.045
309
GRIDFORMAT_END
 95
       32
302
GRIDFORMAT
  1
GRIDFORMAT_BEGIN
 90
        0
 91
        1
 62
     0
 92
       -2
340
0
 93
        0
 40
0.045
309
GRIDFORMAT_END
309
TABLEFORMAT_END
  1
CELLSTYLE_BEGIN
 90
        2
 91
        1
300
_HEADER
309
CELLSTYLE_END
300
CELLSTYLE
  1
TABLEFORMAT_BEGIN
 90
        5
170
     1
 91
        0
 92
        0
 62
   257
 93
        1
300
CONTENTFORMAT
  1
CONTENTFORMAT_BEGIN
 90
        0
 91
        0
 92
      512
 93
        0
300

 40
0.0
140
1.0
 94
        2
 62
     0
340
F
144
0.18
309
CONTENTFORMAT_END
171
     1
301
MARGIN
  1
CELLMARGIN_BEGIN
 40
0.06
 40
0.06
 40
0.06
 40
0.06
 40
0.18
 40
0.18
309
CELLMARGIN_END
 94
        6
 95
        1
302
GRIDFORMAT
  1
GRIDFORMAT_BEGIN
 90
        0
 91
        1
 62
     0
 92
       -2
340
0
 93
        0
 40
0.045
309
GRIDFORMAT_END
 95
        2
302
GRIDFORMAT
  1
GRIDFORMAT_BEGIN
 90
        0
 91
        1
 62
     0
 92
       -2
340
0
 93
        0
 40
0.045
309
GRIDFORMAT_END
 95
        4
302
GRIDFORMAT
  1
GRIDFORMAT_BEGIN
 90
        0
 91
        1
 62
     0
 92
       -2
340
0
 93
        0
 40
0.045
309
GRIDFORMAT_END
 95
        8
302
GRIDFORMAT
  1
GRIDFORMAT_BEGIN
 90
        0
 91
        1
 62
     0
 92
       -2
340
0
 93
        0
 40
0.045
309
GRIDFORMAT_END
 95
       16
302
GRIDFORMAT
  1
GRIDFORMAT_BEGIN
 90
        0
 91
        1
 62
     0
 92
       -2
340
0
 93
        0
 40
0.045
309
GRIDFORMAT_END
 95
       32
302
GRIDFORMAT
  1
GRIDFORMAT_BEGIN
 90
        0
 91
        1
 62
     0
 92
       -2
340
0
 93
        0
 40
0.045
309
GRIDFORMAT_END
309
TABLEFORMAT_END
  1
CELLSTYLE_BEGIN
 90
        3
 91
        2
300
_DATA
309
CELLSTYLE_END
  0
XRECORD
  5
D51
102
{ACAD_REACTORS
330
C42
102
}
330
C42
100
AcDbXrecord
280
     1
102
ACAD_ROUNDTRIP_PRE2007_TABLESTYLE
 90
      512
 91
        0
  1

 92
      512
 93
        0
  2

 94
      512
 95
        0
  3

  0
XRECORD
  5
D2C
102
{ACAD_REACTORS
330
D2B
102
}
330
D2B
100
AcDbXrecord
280
     1
102
RTVSPost2010Prop28
280
     1
102
RTVSPost2010PropOp28
 70
     1
102
RTVSPost2010Prop29
280
     1
102
RTVSPost2010PropOp29
 70
     1
102
RTVSPost2010Prop30
280
     0
102
RTVSPost2010PropOp30
 70
     1
102
RTVSPost2010Prop31
280
     0
102
RTVSPost2010PropOp31
 70
     1
102
RTVSPost2010Prop32
280
     0
102
RTVSPost2010PropOp32
 70
     1
102
RTVSPost2010Prop33
280
     0
102
RTVSPost2010PropOp33
 70
     1
102
RTVSPost2010Prop34
280
     0
102
RTVSPost2010PropOp34
 70
     1
102
RTVSPost2010Prop35
280
     0
102
RTVSPost2010PropOp35
 70
     1
102
RTVSPost2010Prop36
280
     0
102
RTVSPost2010PropOp36
 70
     1
102
RTVSPost2010Prop37
 90
       50
102
RTVSPost2010PropOp37
 70
     1
102
RTVSPost2010Prop38
140
0.0
102
RTVSPost2010PropOp38
 70
     1
102
RTVSPost2010Prop39
140
1.0
102
RTVSPost2010PropOp39
 70
     1
102
RTVSPost2010Prop40
 90
        0
102
RTVSPost2010PropOp40
 70
     1
102
RTVSPost2010Prop41ColorIndex
 90
       18
102
RTVSPost2010Prop41ColorRGB
 90
-16777216
102
RTVSPost2010PropOp41
 70
     1
102
RTVSPost2010Prop42
 90
       50
102
RTVSPost2010PropOp42
 70
     1
102
RTVSPost2010Prop43
 90
        3
102
RTVSPost2010PropOp43
 70
     1
102
RTVSPost2010Prop44ColorIndex
 90
        5
102
RTVSPost2010Prop44ColorRGB
 90
      255
102
RTVSPost2010PropOp44
 70
     1
102
RTVSPost2010Prop45
280
     0
102
RTVSPost2010PropOp45
 70
     1
102
RTVSPost2010Prop46
 90
       50
102
RTVSPost2010PropOp46
 70
     1
102
RTVSPost2010Prop47
 90
       50
102
RTVSPost2010PropOp47
 70
     1
102
RTVSPost2010Prop48
 90
       50
102
RTVSPost2010PropOp48
 70
     1
102
RTVSPost2010Prop49
280
     0
102
RTVSPost2010PropOp49
 70
     1
102
RTVSPost2010Prop50
 90
       50
102
RTVSPost2010PropOp50
 70
     1
102
RTVSPost2010Prop51ColorIndex
 90
      256
102
RTVSPost2010Prop51ColorRGB
 90
-16777216
102
RTVSPost2010PropOp51
 70
     0
102
RTVSPost2010Prop52
140
1.0
102
RTVSPost2010PropOp52
 70
     0
102
RTVSPost2010Prop53
 90
        2
102
RTVSPost2010PropOp53
 70
     1
102
RTVSPost2010Prop54
  1
strokes_ogs.tif
102
RTVSPost2010PropOp54
 70
     1
102
RTVSPost2010Prop55
280
     0
102
RTVSPost2010PropOp55
 70
     1
102
RTVSPost2010Prop56
140
1.0
102
RTVSPost2010PropOp56
 70
     1
102
RTVSPost2010Prop57
140
1.0
102
RTVSPost2010PropOp57
 70
     1
102
RTVSPropertyOp0
 70
     1
102
RTVSPropertyOp1
 70
     1
102
RTVSPropertyOp2
 70
     1
102
RTVSPropertyOp3
 70
     1
102
RTVSPropertyOp4
 70
     1
102
RTVSPropertyOp5
 70
     1
102
RTVSPropertyOp6
 70
     1
102
RTVSPropertyOp7
 70
     1
102
RTVSPropertyOp8
 70
     1
102
RTVSPropertyOp9
 70
     1
102
RTVSPropertyOp10
 70
     1
102
RTVSPropertyOp11
 70
     1
102
RTVSPropertyOp12
 70
     1
102
RTVSPropertyOp13
 70
     1
102
RTVSPropertyOp14
 70
     1
102
RTVSPropertyOp15
 70
     1
102
RTVSPropertyOp16
 70
     1
102
RTVSPropertyOp17
 70
     1
102
RTVSPropertyOp18
 70
     1
102
RTVSPropertyOp19
 70
     1
102
RTVSPropertyOp20
 70
     1
102
RTVSPropertyOp21
 70
     1
102
RTVSPropertyOp22
 70
     1
102
RTVSPropertyOp23
 70
     1
102
RTVSPropertyOp24
 70
     1
102
RTVSPropertyOp25
 70
     1
102
RTVSPropertyOp26
 70
     1
102
RTVSPropertyOp27
 70
     1
102
RTVSPropertyOp28
 70
     1
102
RTVSPropertyOp29
 70
     1
102
RTVSPropertyOp30
 70
     1
102
RTVSPropertyOp31
 70
     1
102
RTVSPropertyOp32
 70
     1
102
RTVSPropertyOp33
 70
     1
102
RTVSPropertyOp34
 70
     1
102
RTVSPropertyOp35
 70
     1
102
RTVSPropertyOp36
 70
     1
102
RTVSPropertyOp37
 70
     1
102
RTVSPropertyOp38
 70
     1
102
RTVSPropertyOp39
 70
     1
102
RTVSPropertyOp40
 70
     1
102
RTVSPropertyOp41
 70
     1
102
RTVSPropertyOp42
 70
     1
102
RTVSPropertyOp43
 70
     1
102
RTVSPropertyOp44
 70
     1
102
RTVSPropertyOp45
 70
     1
102
RTVSPropertyOp46
 70
     1
102
RTVSPropertyOp47
 70
     1
102
RTVSPropertyOp48
 70
     1
102
RTVSPropertyOp49
 70
     1
102
RTVSPropertyOp50
 70
     1
102
RTVSPropertyOp51
 70
     0
102
RTVSPropertyOp52
 70
     0
102
RTVSPropertyOp53
 70
     1
102
RTVSPropertyOp54
 70
     1
102
RTVSPropertyOp55
 70
     1
102
RTVSPropertyOp56
 70
     1
102
RTVSPropertyOp57
 70
     1
102
RTVSPropertyOp58
 70
     1
102
RTVSPropertyOp59
 70
     1
102
RTVSPropertyOp60
 70
     1
102
RTVSPropertyOp61
 70
     1
102
RTVSPropertyOp62
 70
     1
  0
XRECORD
  5
D2A
102
{ACAD_REACTORS
330
D29
102
}
330
D29
100
AcDbXrecord
280
     1
102
RTVSPost2010Prop28
280
     0
102
RTVSPost2010PropOp28
 70
     1
102
RTVSPost2010Prop29
280
     1
102
RTVSPost2010PropOp29
 70
     1
102
RTVSPost2010Prop30
280
     1
102
RTVSPost2010PropOp30
 70
     1
102
RTVSPost2010Prop31
280
     0
102
RTVSPost2010PropOp31
 70
     1
102
RTVSPost2010Prop32
280
     0
102
RTVSPost2010PropOp32
 70
     1
102
RTVSPost2010Prop33
280
     0
102
RTVSPost2010PropOp33
 70
     1
102
RTVSPost2010Prop34
280
     0
102
RTVSPost2010PropOp34
 70
     1
102
RTVSPost2010Prop35
280
     0
102
RTVSPost2010PropOp35
 70
     1
102
RTVSPost2010Prop36
280
     0
102
RTVSPost2010PropOp36
 70
     1
102
RTVSPost2010Prop37
 90
       50
102
RTVSPost2010PropOp37
 70
     1
102
RTVSPost2010Prop38
140
0.0
102
RTVSPost2010PropOp38
 70
     1
102
RTVSPost2010Prop39
140
1.0
102
RTVSPost2010PropOp39
 70
     1
102
RTVSPost2010Prop40
 90
        0
102
RTVSPost2010PropOp40
 70
     1
102
RTVSPost2010Prop41ColorIndex
 90
       18
102
RTVSPost2010Prop41ColorRGB
 90
-16777216
102
RTVSPost2010PropOp41
 70
     1
102
RTVSPost2010Prop42
 90
       50
102
RTVSPost2010PropOp42
 70
     1
102
RTVSPost2010Prop43
 90
        3
102
RTVSPost2010PropOp43
 70
     1
102
RTVSPost2010Prop44ColorIndex
 90
        5
102
RTVSPost2010Prop44ColorRGB
 90
      255
102
RTVSPost2010PropOp44
 70
     1
102
RTVSPost2010Prop45
280
     0
102
RTVSPost2010PropOp45
 70
     1
102
RTVSPost2010Prop46
 90
       50
102
RTVSPost2010PropOp46
 70
     1
102
RTVSPost2010Prop47
 90
       50
102
RTVSPost2010PropOp47
 70
     1
102
RTVSPost2010Prop48
 90
       50
102
RTVSPost2010PropOp48
 70
     1
102
RTVSPost2010Prop49
280
     0
102
RTVSPost2010PropOp49
 70
     1
102
RTVSPost2010Prop50
 90
       50
102
RTVSPost2010PropOp50
 70
     1
102
RTVSPost2010Prop51ColorIndex
 90
      256
102
RTVSPost2010Prop51ColorRGB
 90
-16777216
102
RTVSPost2010PropOp51
 70
     0
102
RTVSPost2010Prop52
140
1.0
102
RTVSPost2010PropOp52
 70
     0
102
RTVSPost2010Prop53
 90
        2
102
RTVSPost2010PropOp53
 70
     1
102
RTVSPost2010Prop54
  1
strokes_ogs.tif
102
RTVSPost2010PropOp54
 70
     1
102
RTVSPost2010Prop55
280
     0
102
RTVSPost2010PropOp55
 70
     1
102
RTVSPost2010Prop56
140
1.0
102
RTVSPost2010PropOp56
 70
     1
102
RTVSPost2010Prop57
140
1.0
102
RTVSPost2010PropOp57
 70
     1
102
RTVSPropertyOp0
 70
     1
102
RTVSPropertyOp1
 70
     1
102
RTVSPropertyOp2
 70
     1
102
RTVSPropertyOp3
 70
     1
102
RTVSPropertyOp4
 70
     1
102
RTVSPropertyOp5
 70
     1
102
RTVSPropertyOp6
 70
     1
102
RTVSPropertyOp7
 70
     1
102
RTVSPropertyOp8
 70
     1
102
RTVSPropertyOp9
 70
     1
102
RTVSPropertyOp10
 70
     1
102
RTVSPropertyOp11
 70
     1
102
RTVSPropertyOp12
 70
     1
102
RTVSPropertyOp13
 70
     1
102
RTVSPropertyOp14
 70
     1
102
RTVSPropertyOp15
 70
     1
102
RTVSPropertyOp16
 70
     1
102
RTVSPropertyOp17
 70
     1
102
RTVSPropertyOp18
 70
     1
102
RTVSPropertyOp19
 70
     1
102
RTVSPropertyOp20
 70
     1
102
RTVSPropertyOp21
 70
     1
102
RTVSPropertyOp22
 70
     1
102
RTVSPropertyOp23
 70
     1
102
RTVSPropertyOp24
 70
     1
102
RTVSPropertyOp25
 70
     1
102
RTVSPropertyOp26
 70
     1
102
RTVSPropertyOp27
 70
     1
102
RTVSPropertyOp28
 70
     1
102
RTVSPropertyOp29
 70
     1
102
RTVSPropertyOp30
 70
     1
102
RTVSPropertyOp31
 70
     1
102
RTVSPropertyOp32
 70
     1
102
RTVSPropertyOp33
 70
     1
102
RTVSPropertyOp34
 70
     1
102
RTVSPropertyOp35
 70
     1
102
RTVSPropertyOp36
 70
     1
102
RTVSPropertyOp37
 70
     1
102
RTVSPropertyOp38
 70
     1
102
RTVSPropertyOp39
 70
     1
102
RTVSPropertyOp40
 70
     1
102
RTVSPropertyOp41
 70
     1
102
RTVSPropertyOp42
 70
     1
102
RTVSPropertyOp43
 70
     1
102
RTVSPropertyOp44
 70
     1
102
RTVSPropertyOp45
 70
     1
102
RTVSPropertyOp46
 70
     1
102
RTVSPropertyOp47
 70
     1
102
RTVSPropertyOp48
 70
     1
102
RTVSPropertyOp49
 70
     1
102
RTVSPropertyOp50
 70
     1
102
RTVSPropertyOp51
 70
     0
102
RTVSPropertyOp52
 70
     0
102
RTVSPropertyOp53
 70
     1
102
RTVSPropertyOp54
 70
     1
102
RTVSPropertyOp55
 70
     1
102
RTVSPropertyOp56
 70
     1
102
RTVSPropertyOp57
 70
     1
102
RTVSPropertyOp58
 70
     1
102
RTVSPropertyOp59
 70
     1
102
RTVSPropertyOp60
 70
     1
102
RTVSPropertyOp61
 70
     1
102
RTVSPropertyOp62
 70
     1
  0
XRECORD
  5
D38
102
{ACAD_REACTORS
330
D37
102
}
330
D37
100
AcDbXrecord
280
     1
102
RTVSPost2010Prop28
280
     0
102
RTVSPost2010PropOp28
 70
     1
102
RTVSPost2010Prop29
280
     1
102
RTVSPost2010PropOp29
 70
     1
102
RTVSPost2010Prop30
280
     1
102
RTVSPost2010PropOp30
 70
     1
102
RTVSPost2010Prop31
280
     0
102
RTVSPost2010PropOp31
 70
     1
102
RTVSPost2010Prop32
280
     0
102
RTVSPost2010PropOp32
 70
     1
102
RTVSPost2010Prop33
280
     0
102
RTVSPost2010PropOp33
 70
     1
102
RTVSPost2010Prop34
280
     0
102
RTVSPost2010PropOp34
 70
     1
102
RTVSPost2010Prop35
280
     0
102
RTVSPost2010PropOp35
 70
     1
102
RTVSPost2010Prop36
280
     0
102
RTVSPost2010PropOp36
 70
     1
102
RTVSPost2010Prop37
 90
       50
102
RTVSPost2010PropOp37
 70
     1
102
RTVSPost2010Prop38
140
0.0
102
RTVSPost2010PropOp38
 70
     1
102
RTVSPost2010Prop39
140
1.0
102
RTVSPost2010PropOp39
 70
     1
102
RTVSPost2010Prop40
 90
        0
102
RTVSPost2010PropOp40
 70
     1
102
RTVSPost2010Prop41ColorIndex
 90
       18
102
RTVSPost2010Prop41ColorRGB
 90
-16777216
102
RTVSPost2010PropOp41
 70
     1
102
RTVSPost2010Prop42
 90
       50
102
RTVSPost2010PropOp42
 70
     1
102
RTVSPost2010Prop43
 90
        3
102
RTVSPost2010PropOp43
 70
     1
102
RTVSPost2010Prop44ColorIndex
 90
        5
102
RTVSPost2010Prop44ColorRGB
 90
      255
102
RTVSPost2010PropOp44
 70
     1
102
RTVSPost2010Prop45
280
     0
102
RTVSPost2010PropOp45
 70
     1
102
RTVSPost2010Prop46
 90
       50
102
RTVSPost2010PropOp46
 70
     1
102
RTVSPost2010Prop47
 90
       50
102
RTVSPost2010PropOp47
 70
     1
102
RTVSPost2010Prop48
 90
       50
102
RTVSPost2010PropOp48
 70
     1
102
RTVSPost2010Prop49
280
     0
102
RTVSPost2010PropOp49
 70
     1
102
RTVSPost2010Prop50
 90
       50
102
RTVSPost2010PropOp50
 70
     1
102
RTVSPost2010Prop51ColorIndex
 90
      256
102
RTVSPost2010Prop51ColorRGB
 90
-16777216
102
RTVSPost2010PropOp51
 70
     0
102
RTVSPost2010Prop52
140
1.0
102
RTVSPost2010PropOp52
 70
     0
102
RTVSPost2010Prop53
 90
        2
102
RTVSPost2010PropOp53
 70
     1
102
RTVSPost2010Prop54
  1
strokes_ogs.tif
102
RTVSPost2010PropOp54
 70
     1
102
RTVSPost2010Prop55
280
     0
102
RTVSPost2010PropOp55
 70
     1
102
RTVSPost2010Prop56
140
1.0
102
RTVSPost2010PropOp56
 70
     1
102
RTVSPost2010Prop57
140
1.0
102
RTVSPost2010PropOp57
 70
     1
102
RTVSPropertyOp0
 70
     1
102
RTVSPropertyOp1
 70
     1
102
RTVSPropertyOp2
 70
     1
102
RTVSPropertyOp3
 70
     1
102
RTVSPropertyOp4
 70
     1
102
RTVSPropertyOp5
 70
     1
102
RTVSPropertyOp6
 70
     1
102
RTVSPropertyOp7
 70
     1
102
RTVSPropertyOp8
 70
     1
102
RTVSPropertyOp9
 70
     1
102
RTVSPropertyOp10
 70
     1
102
RTVSPropertyOp11
 70
     1
102
RTVSPropertyOp12
 70
     1
102
RTVSPropertyOp13
 70
     1
102
RTVSPropertyOp14
 70
     1
102
RTVSPropertyOp15
 70
     1
102
RTVSPropertyOp16
 70
     1
102
RTVSPropertyOp17
 70
     1
102
RTVSPropertyOp18
 70
     1
102
RTVSPropertyOp19
 70
     1
102
RTVSPropertyOp20
 70
     1
102
RTVSPropertyOp21
 70
     1
102
RTVSPropertyOp22
 70
     1
102
RTVSPropertyOp23
 70
     1
102
RTVSPropertyOp24
 70
     1
102
RTVSPropertyOp25
 70
     1
102
RTVSPropertyOp26
 70
     1
102
RTVSPropertyOp27
 70
     1
102
RTVSPropertyOp28
 70
     1
102
RTVSPropertyOp29
 70
     1
102
RTVSPropertyOp30
 70
     1
102
RTVSPropertyOp31
 70
     1
102
RTVSPropertyOp32
 70
     1
102
RTVSPropertyOp33
 70
     1
102
RTVSPropertyOp34
 70
     1
102
RTVSPropertyOp35
 70
     1
102
RTVSPropertyOp36
 70
     1
102
RTVSPropertyOp37
 70
     1
102
RTVSPropertyOp38
 70
     1
102
RTVSPropertyOp39
 70
     1
102
RTVSPropertyOp40
 70
     1
102
RTVSPropertyOp41
 70
     1
102
RTVSPropertyOp42
 70
     1
102
RTVSPropertyOp43
 70
     1
102
RTVSPropertyOp44
 70
     1
102
RTVSPropertyOp45
 70
     1
102
RTVSPropertyOp46
 70
     1
102
RTVSPropertyOp47
 70
     1
102
RTVSPropertyOp48
 70
     1
102
RTVSPropertyOp49
 70
     1
102
RTVSPropertyOp50
 70
     1
102
RTVSPropertyOp51
 70
     0
102
RTVSPropertyOp52
 70
     0
102
RTVSPropertyOp53
 70
     1
102
RTVSPropertyOp54
 70
     1
102
RTVSPropertyOp55
 70
     1
102
RTVSPropertyOp56
 70
     1
102
RTVSPropertyOp57
 70
     1
102
RTVSPropertyOp58
 70
     1
102
RTVSPropertyOp59
 70
     1
102
RTVSPropertyOp60
 70
     1
102
RTVSPropertyOp61
 70
     1
102
RTVSPropertyOp62
 70
     1
  0
XRECORD
  5
D40
102
{ACAD_REACTORS
330
D3F
102
}
330
D3F
100
AcDbXrecord
280
     1
102
RTVSPost2010Prop28
280
     0
102
RTVSPost2010PropOp28
 70
     1
102
RTVSPost2010Prop29
280
     1
102
RTVSPost2010PropOp29
 70
     1
102
RTVSPost2010Prop30
280
     1
102
RTVSPost2010PropOp30
 70
     1
102
RTVSPost2010Prop31
280
     0
102
RTVSPost2010PropOp31
 70
     1
102
RTVSPost2010Prop32
280
     0
102
RTVSPost2010PropOp32
 70
     1
102
RTVSPost2010Prop33
280
     0
102
RTVSPost2010PropOp33
 70
     1
102
RTVSPost2010Prop34
280
     0
102
RTVSPost2010PropOp34
 70
     1
102
RTVSPost2010Prop35
280
     0
102
RTVSPost2010PropOp35
 70
     1
102
RTVSPost2010Prop36
280
     0
102
RTVSPost2010PropOp36
 70
     1
102
RTVSPost2010Prop37
 90
       50
102
RTVSPost2010PropOp37
 70
     1
102
RTVSPost2010Prop38
140
0.0
102
RTVSPost2010PropOp38
 70
     1
102
RTVSPost2010Prop39
140
1.0
102
RTVSPost2010PropOp39
 70
     1
102
RTVSPost2010Prop40
 90
        0
102
RTVSPost2010PropOp40
 70
     1
102
RTVSPost2010Prop41ColorIndex
 90
       18
102
RTVSPost2010Prop41ColorRGB
 90
-16777216
102
RTVSPost2010PropOp41
 70
     1
102
RTVSPost2010Prop42
 90
       50
102
RTVSPost2010PropOp42
 70
     1
102
RTVSPost2010Prop43
 90
        3
102
RTVSPost2010PropOp43
 70
     1
102
RTVSPost2010Prop44ColorIndex
 90
        5
102
RTVSPost2010Prop44ColorRGB
 90
      255
102
RTVSPost2010PropOp44
 70
     1
102
RTVSPost2010Prop45
280
     0
102
RTVSPost2010PropOp45
 70
     1
102
RTVSPost2010Prop46
 90
       50
102
RTVSPost2010PropOp46
 70
     1
102
RTVSPost2010Prop47
 90
       50
102
RTVSPost2010PropOp47
 70
     1
102
RTVSPost2010Prop48
 90
       50
102
RTVSPost2010PropOp48
 70
     1
102
RTVSPost2010Prop49
280
     0
102
RTVSPost2010PropOp49
 70
     1
102
RTVSPost2010Prop50
 90
       50
102
RTVSPost2010PropOp50
 70
     1
102
RTVSPost2010Prop51ColorIndex
 90
      256
102
RTVSPost2010Prop51ColorRGB
 90
-16777216
102
RTVSPost2010PropOp51
 70
     0
102
RTVSPost2010Prop52
140
1.0
102
RTVSPost2010PropOp52
 70
     0
102
RTVSPost2010Prop53
 90
        2
102
RTVSPost2010PropOp53
 70
     1
102
RTVSPost2010Prop54
  1
strokes_ogs.tif
102
RTVSPost2010PropOp54
 70
     1
102
RTVSPost2010Prop55
280
     0
102
RTVSPost2010PropOp55
 70
     1
102
RTVSPost2010Prop56
140
1.0
102
RTVSPost2010PropOp56
 70
     1
102
RTVSPost2010Prop57
140
1.0
102
RTVSPost2010PropOp57
 70
     1
102
RTVSPropertyOp0
 70
     1
102
RTVSPropertyOp1
 70
     1
102
RTVSPropertyOp2
 70
     1
102
RTVSPropertyOp3
 70
     1
102
RTVSPropertyOp4
 70
     1
102
RTVSPropertyOp5
 70
     1
102
RTVSPropertyOp6
 70
     1
102
RTVSPropertyOp7
 70
     1
102
RTVSPropertyOp8
 70
     1
102
RTVSPropertyOp9
 70
     1
102
RTVSPropertyOp10
 70
     1
102
RTVSPropertyOp11
 70
     1
102
RTVSPropertyOp12
 70
     1
102
RTVSPropertyOp13
 70
     1
102
RTVSPropertyOp14
 70
     1
102
RTVSPropertyOp15
 70
     1
102
RTVSPropertyOp16
 70
     1
102
RTVSPropertyOp17
 70
     1
102
RTVSPropertyOp18
 70
     1
102
RTVSPropertyOp19
 70
     1
102
RTVSPropertyOp20
 70
     1
102
RTVSPropertyOp21
 70
     1
102
RTVSPropertyOp22
 70
     1
102
RTVSPropertyOp23
 70
     1
102
RTVSPropertyOp24
 70
     1
102
RTVSPropertyOp25
 70
     1
102
RTVSPropertyOp26
 70
     1
102
RTVSPropertyOp27
 70
     1
102
RTVSPropertyOp28
 70
     1
102
RTVSPropertyOp29
 70
     1
102
RTVSPropertyOp30
 70
     1
102
RTVSPropertyOp31
 70
     1
102
RTVSPropertyOp32
 70
     1
102
RTVSPropertyOp33
 70
     1
102
RTVSPropertyOp34
 70
     1
102
RTVSPropertyOp35
 70
     1
102
RTVSPropertyOp36
 70
     1
102
RTVSPropertyOp37
 70
     1
102
RTVSPropertyOp38
 70
     1
102
RTVSPropertyOp39
 70
     1
102
RTVSPropertyOp40
 70
     1
102
RTVSPropertyOp41
 70
     1
102
RTVSPropertyOp42
 70
     1
102
RTVSPropertyOp43
 70
     1
102
RTVSPropertyOp44
 70
     1
102
RTVSPropertyOp45
 70
     1
102
RTVSPropertyOp46
 70
     1
102
RTVSPropertyOp47
 70
     1
102
RTVSPropertyOp48
 70
     1
102
RTVSPropertyOp49
 70
     1
102
RTVSPropertyOp50
 70
     1
102
RTVSPropertyOp51
 70
     0
102
RTVSPropertyOp52
 70
     0
102
RTVSPropertyOp53
 70
     1
102
RTVSPropertyOp54
 70
     1
102
RTVSPropertyOp55
 70
     1
102
RTVSPropertyOp56
 70
     1
102
RTVSPropertyOp57
 70
     1
102
RTVSPropertyOp58
 70
     1
102
RTVSPropertyOp59
 70
     1
102
RTVSPropertyOp60
 70
     1
102
RTVSPropertyOp61
 70
     1
102
RTVSPropertyOp62
 70
     1
  0
XRECORD
  5
D32
102
{ACAD_REACTORS
330
D31
102
}
330
D31
100
AcDbXrecord
280
     1
102
RTVSPost2010Prop28
280
     0
102
RTVSPost2010PropOp28
 70
     1
102
RTVSPost2010Prop29
280
     1
102
RTVSPost2010PropOp29
 70
     1
102
RTVSPost2010Prop30
280
     1
102
RTVSPost2010PropOp30
 70
     1
102
RTVSPost2010Prop31
280
     0
102
RTVSPost2010PropOp31
 70
     1
102
RTVSPost2010Prop32
280
     0
102
RTVSPost2010PropOp32
 70
     1
102
RTVSPost2010Prop33
280
     0
102
RTVSPost2010PropOp33
 70
     1
102
RTVSPost2010Prop34
280
     0
102
RTVSPost2010PropOp34
 70
     1
102
RTVSPost2010Prop35
280
     0
102
RTVSPost2010PropOp35
 70
     1
102
RTVSPost2010Prop36
280
     0
102
RTVSPost2010PropOp36
 70
     1
102
RTVSPost2010Prop37
 90
       50
102
RTVSPost2010PropOp37
 70
     1
102
RTVSPost2010Prop38
140
0.0
102
RTVSPost2010PropOp38
 70
     1
102
RTVSPost2010Prop39
140
1.0
102
RTVSPost2010PropOp39
 70
     1
102
RTVSPost2010Prop40
 90
        0
102
RTVSPost2010PropOp40
 70
     1
102
RTVSPost2010Prop41ColorIndex
 90
       18
102
RTVSPost2010Prop41ColorRGB
 90
-16777216
102
RTVSPost2010PropOp41
 70
     1
102
RTVSPost2010Prop42
 90
       50
102
RTVSPost2010PropOp42
 70
     1
102
RTVSPost2010Prop43
 90
        3
102
RTVSPost2010PropOp43
 70
     1
102
RTVSPost2010Prop44ColorIndex
 90
        5
102
RTVSPost2010Prop44ColorRGB
 90
      255
102
RTVSPost2010PropOp44
 70
     1
102
RTVSPost2010Prop45
280
     0
102
RTVSPost2010PropOp45
 70
     1
102
RTVSPost2010Prop46
 90
       50
102
RTVSPost2010PropOp46
 70
     1
102
RTVSPost2010Prop47
 90
       50
102
RTVSPost2010PropOp47
 70
     1
102
RTVSPost2010Prop48
 90
       50
102
RTVSPost2010PropOp48
 70
     1
102
RTVSPost2010Prop49
280
     0
102
RTVSPost2010PropOp49
 70
     1
102
RTVSPost2010Prop50
 90
       50
102
RTVSPost2010PropOp50
 70
     1
102
RTVSPost2010Prop51ColorIndex
 90
      256
102
RTVSPost2010Prop51ColorRGB
 90
-16777216
102
RTVSPost2010PropOp51
 70
     0
102
RTVSPost2010Prop52
140
1.0
102
RTVSPost2010PropOp52
 70
     0
102
RTVSPost2010Prop53
 90
        2
102
RTVSPost2010PropOp53
 70
     1
102
RTVSPost2010Prop54
  1
strokes_ogs.tif
102
RTVSPost2010PropOp54
 70
     1
102
RTVSPost2010Prop55
280
     0
102
RTVSPost2010PropOp55
 70
     1
102
RTVSPost2010Prop56
140
1.0
102
RTVSPost2010PropOp56
 70
     1
102
RTVSPost2010Prop57
140
1.0
102
RTVSPost2010PropOp57
 70
     1
102
RTVSPropertyOp0
 70
     1
102
RTVSPropertyOp1
 70
     1
102
RTVSPropertyOp2
 70
     1
102
RTVSPropertyOp3
 70
     1
102
RTVSPropertyOp4
 70
     1
102
RTVSPropertyOp5
 70
     1
102
RTVSPropertyOp6
 70
     1
102
RTVSPropertyOp7
 70
     1
102
RTVSPropertyOp8
 70
     1
102
RTVSPropertyOp9
 70
     1
102
RTVSPropertyOp10
 70
     1
102
RTVSPropertyOp11
 70
     1
102
RTVSPropertyOp12
 70
     1
102
RTVSPropertyOp13
 70
     1
102
RTVSPropertyOp14
 70
     1
102
RTVSPropertyOp15
 70
     1
102
RTVSPropertyOp16
 70
     1
102
RTVSPropertyOp17
 70
     1
102
RTVSPropertyOp18
 70
     1
102
RTVSPropertyOp19
 70
     1
102
RTVSPropertyOp20
 70
     1
102
RTVSPropertyOp21
 70
     1
102
RTVSPropertyOp22
 70
     1
102
RTVSPropertyOp23
 70
     1
102
RTVSPropertyOp24
 70
     1
102
RTVSPropertyOp25
 70
     1
102
RTVSPropertyOp26
 70
     1
102
RTVSPropertyOp27
 70
     1
102
RTVSPropertyOp28
 70
     1
102
RTVSPropertyOp29
 70
     1
102
RTVSPropertyOp30
 70
     1
102
RTVSPropertyOp31
 70
     1
102
RTVSPropertyOp32
 70
     1
102
RTVSPropertyOp33
 70
     1
102
RTVSPropertyOp34
 70
     1
102
RTVSPropertyOp35
 70
     1
102
RTVSPropertyOp36
 70
     1
102
RTVSPropertyOp37
 70
     1
102
RTVSPropertyOp38
 70
     1
102
RTVSPropertyOp39
 70
     1
102
RTVSPropertyOp40
 70
     1
102
RTVSPropertyOp41
 70
     1
102
RTVSPropertyOp42
 70
     1
102
RTVSPropertyOp43
 70
     1
102
RTVSPropertyOp44
 70
     1
102
RTVSPropertyOp45
 70
     1
102
RTVSPropertyOp46
 70
     1
102
RTVSPropertyOp47
 70
     1
102
RTVSPropertyOp48
 70
     1
102
RTVSPropertyOp49
 70
     1
102
RTVSPropertyOp50
 70
     1
102
RTVSPropertyOp51
 70
     0
102
RTVSPropertyOp52
 70
     0
102
RTVSPropertyOp53
 70
     1
102
RTVSPropertyOp54
 70
     1
102
RTVSPropertyOp55
 70
     1
102
RTVSPropertyOp56
 70
     1
102
RTVSPropertyOp57
 70
     1
102
RTVSPropertyOp58
 70
     1
102
RTVSPropertyOp59
 70
     1
102
RTVSPropertyOp60
 70
     1
102
RTVSPropertyOp61
 70
     1
102
RTVSPropertyOp62
 70
     1
  0
XRECORD
  5
D36
102
{ACAD_REACTORS
330
D35
102
}
330
D35
100
AcDbXrecord
280
     1
102
RTVSPost2010Prop28
280
     0
102
RTVSPost2010PropOp28
 70
     1
102
RTVSPost2010Prop29
280
     1
102
RTVSPost2010PropOp29
 70
     1
102
RTVSPost2010Prop30
280
     1
102
RTVSPost2010PropOp30
 70
     1
102
RTVSPost2010Prop31
280
     0
102
RTVSPost2010PropOp31
 70
     1
102
RTVSPost2010Prop32
280
     0
102
RTVSPost2010PropOp32
 70
     1
102
RTVSPost2010Prop33
280
     0
102
RTVSPost2010PropOp33
 70
     1
102
RTVSPost2010Prop34
280
     0
102
RTVSPost2010PropOp34
 70
     1
102
RTVSPost2010Prop35
280
     0
102
RTVSPost2010PropOp35
 70
     1
102
RTVSPost2010Prop36
280
     0
102
RTVSPost2010PropOp36
 70
     1
102
RTVSPost2010Prop37
 90
       50
102
RTVSPost2010PropOp37
 70
     1
102
RTVSPost2010Prop38
140
0.0
102
RTVSPost2010PropOp38
 70
     1
102
RTVSPost2010Prop39
140
1.0
102
RTVSPost2010PropOp39
 70
     1
102
RTVSPost2010Prop40
 90
        0
102
RTVSPost2010PropOp40
 70
     1
102
RTVSPost2010Prop41ColorIndex
 90
       18
102
RTVSPost2010Prop41ColorRGB
 90
-16777216
102
RTVSPost2010PropOp41
 70
     1
102
RTVSPost2010Prop42
 90
       50
102
RTVSPost2010PropOp42
 70
     1
102
RTVSPost2010Prop43
 90
        3
102
RTVSPost2010PropOp43
 70
     1
102
RTVSPost2010Prop44ColorIndex
 90
        5
102
RTVSPost2010Prop44ColorRGB
 90
      255
102
RTVSPost2010PropOp44
 70
     1
102
RTVSPost2010Prop45
280
     0
102
RTVSPost2010PropOp45
 70
     1
102
RTVSPost2010Prop46
 90
       50
102
RTVSPost2010PropOp46
 70
     1
102
RTVSPost2010Prop47
 90
       50
102
RTVSPost2010PropOp47
 70
     1
102
RTVSPost2010Prop48
 90
       50
102
RTVSPost2010PropOp48
 70
     1
102
RTVSPost2010Prop49
280
     0
102
RTVSPost2010PropOp49
 70
     1
102
RTVSPost2010Prop50
 90
       50
102
RTVSPost2010PropOp50
 70
     1
102
RTVSPost2010Prop51ColorIndex
 90
      256
102
RTVSPost2010Prop51ColorRGB
 90
-16777216
102
RTVSPost2010PropOp51
 70
     0
102
RTVSPost2010Prop52
140
1.0
102
RTVSPost2010PropOp52
 70
     0
102
RTVSPost2010Prop53
 90
        2
102
RTVSPost2010PropOp53
 70
     1
102
RTVSPost2010Prop54
  1
strokes_ogs.tif
102
RTVSPost2010PropOp54
 70
     1
102
RTVSPost2010Prop55
280
     0
102
RTVSPost2010PropOp55
 70
     1
102
RTVSPost2010Prop56
140
1.0
102
RTVSPost2010PropOp56
 70
     1
102
RTVSPost2010Prop57
140
1.0
102
RTVSPost2010PropOp57
 70
     1
102
RTVSPropertyOp0
 70
     1
102
RTVSPropertyOp1
 70
     1
102
RTVSPropertyOp2
 70
     1
102
RTVSPropertyOp3
 70
     1
102
RTVSPropertyOp4
 70
     1
102
RTVSPropertyOp5
 70
     1
102
RTVSPropertyOp6
 70
     1
102
RTVSPropertyOp7
 70
     1
102
RTVSPropertyOp8
 70
     1
102
RTVSPropertyOp9
 70
     1
102
RTVSPropertyOp10
 70
     1
102
RTVSPropertyOp11
 70
     1
102
RTVSPropertyOp12
 70
     1
102
RTVSPropertyOp13
 70
     1
102
RTVSPropertyOp14
 70
     1
102
RTVSPropertyOp15
 70
     1
102
RTVSPropertyOp16
 70
     1
102
RTVSPropertyOp17
 70
     1
102
RTVSPropertyOp18
 70
     1
102
RTVSPropertyOp19
 70
     1
102
RTVSPropertyOp20
 70
     1
102
RTVSPropertyOp21
 70
     1
102
RTVSPropertyOp22
 70
     1
102
RTVSPropertyOp23
 70
     1
102
RTVSPropertyOp24
 70
     1
102
RTVSPropertyOp25
 70
     1
102
RTVSPropertyOp26
 70
     1
102
RTVSPropertyOp27
 70
     1
102
RTVSPropertyOp28
 70
     1
102
RTVSPropertyOp29
 70
     1
102
RTVSPropertyOp30
 70
     1
102
RTVSPropertyOp31
 70
     1
102
RTVSPropertyOp32
 70
     1
102
RTVSPropertyOp33
 70
     1
102
RTVSPropertyOp34
 70
     1
102
RTVSPropertyOp35
 70
     1
102
RTVSPropertyOp36
 70
     1
102
RTVSPropertyOp37
 70
     1
102
RTVSPropertyOp38
 70
     1
102
RTVSPropertyOp39
 70
     1
102
RTVSPropertyOp40
 70
     1
102
RTVSPropertyOp41
 70
     1
102
RTVSPropertyOp42
 70
     1
102
RTVSPropertyOp43
 70
     1
102
RTVSPropertyOp44
 70
     1
102
RTVSPropertyOp45
 70
     1
102
RTVSPropertyOp46
 70
     1
102
RTVSPropertyOp47
 70
     1
102
RTVSPropertyOp48
 70
     1
102
RTVSPropertyOp49
 70
     1
102
RTVSPropertyOp50
 70
     1
102
RTVSPropertyOp51
 70
     0
102
RTVSPropertyOp52
 70
     0
102
RTVSPropertyOp53
 70
     1
102
RTVSPropertyOp54
 70
     1
102
RTVSPropertyOp55
 70
     1
102
RTVSPropertyOp56
 70
     1
102
RTVSPropertyOp57
 70
     1
102
RTVSPropertyOp58
 70
     1
102
RTVSPropertyOp59
 70
     1
102
RTVSPropertyOp60
 70
     1
102
RTVSPropertyOp61
 70
     1
102
RTVSPropertyOp62
 70
     1
  0
XRECORD
  5
D50
102
{ACAD_REACTORS
330
D4F
102
}
330
D4F
100
AcDbXrecord
280
     1
102
RTVSPost2010Prop28
280
     0
102
RTVSPost2010PropOp28
 70
     0
102
RTVSPost2010Prop29
280
     1
102
RTVSPost2010PropOp29
 70
     0
102
RTVSPost2010Prop30
280
     1
102
RTVSPost2010PropOp30
 70
     0
102
RTVSPost2010Prop31
280
     0
102
RTVSPost2010PropOp31
 70
     0
102
RTVSPost2010Prop32
280
     0
102
RTVSPost2010PropOp32
 70
     0
102
RTVSPost2010Prop33
280
     0
102
RTVSPost2010PropOp33
 70
     0
102
RTVSPost2010Prop34
280
     0
102
RTVSPost2010PropOp34
 70
     0
102
RTVSPost2010Prop35
280
     0
102
RTVSPost2010PropOp35
 70
     0
102
RTVSPost2010Prop36
280
     0
102
RTVSPost2010PropOp36
 70
     0
102
RTVSPost2010Prop37
 90
       50
102
RTVSPost2010PropOp37
 70
     0
102
RTVSPost2010Prop38
140
0.0
102
RTVSPost2010PropOp38
 70
     0
102
RTVSPost2010Prop39
140
1.0
102
RTVSPost2010PropOp39
 70
     0
102
RTVSPost2010Prop40
 90
        0
102
RTVSPost2010PropOp40
 70
     0
102
RTVSPost2010Prop41ColorIndex
 90
       18
102
RTVSPost2010Prop41ColorRGB
 90
-16777216
102
RTVSPost2010PropOp41
 70
     0
102
RTVSPost2010Prop42
 90
       50
102
RTVSPost2010PropOp42
 70
     0
102
RTVSPost2010Prop43
 90
        3
102
RTVSPost2010PropOp43
 70
     0
102
RTVSPost2010Prop44ColorIndex
 90
        5
102
RTVSPost2010Prop44ColorRGB
 90
      255
102
RTVSPost2010PropOp44
 70
     0
102
RTVSPost2010Prop45
280
     0
102
RTVSPost2010PropOp45
 70
     0
102
RTVSPost2010Prop46
 90
       50
102
RTVSPost2010PropOp46
 70
     0
102
RTVSPost2010Prop47
 90
       50
102
RTVSPost2010PropOp47
 70
     0
102
RTVSPost2010Prop48
 90
       50
102
RTVSPost2010PropOp48
 70
     0
102
RTVSPost2010Prop49
280
     0
102
RTVSPost2010PropOp49
 70
     0
102
RTVSPost2010Prop50
 90
       50
102
RTVSPost2010PropOp50
 70
     0
102
RTVSPost2010Prop51ColorIndex
 90
      256
102
RTVSPost2010Prop51ColorRGB
 90
-16777216
102
RTVSPost2010PropOp51
 70
     0
102
RTVSPost2010Prop52
140
1.0
102
RTVSPost2010PropOp52
 70
     0
102
RTVSPost2010Prop53
 90
        2
102
RTVSPost2010PropOp53
 70
     0
102
RTVSPost2010Prop54
  1
strokes_ogs.tif
102
RTVSPost2010PropOp54
 70
     0
102
RTVSPost2010Prop55
280
     0
102
RTVSPost2010PropOp55
 70
     0
102
RTVSPost2010Prop56
140
1.0
102
RTVSPost2010PropOp56
 70
     0
102
RTVSPost2010Prop57
140
1.0
102
RTVSPost2010PropOp57
 70
     0
102
RTVSPropertyOp0
 70
     0
102
RTVSPropertyOp1
 70
     0
102
RTVSPropertyOp2
 70
     0
102
RTVSPropertyOp3
 70
     0
102
RTVSPropertyOp4
 70
     0
102
RTVSPropertyOp5
 70
     0
102
RTVSPropertyOp6
 70
     0
102
RTVSPropertyOp7
 70
     0
102
RTVSPropertyOp8
 70
     0
102
RTVSPropertyOp9
 70
     0
102
RTVSPropertyOp10
 70
     0
102
RTVSPropertyOp11
 70
     0
102
RTVSPropertyOp12
 70
     0
102
RTVSPropertyOp13
 70
     0
102
RTVSPropertyOp14
 70
     2
102
RTVSPropertyOp15
 70
     0
102
RTVSPropertyOp16
 70
     0
102
RTVSPropertyOp17
 70
     0
102
RTVSPropertyOp18
 70
     0
102
RTVSPropertyOp19
 70
     0
102
RTVSPropertyOp20
 70
     0
102
RTVSPropertyOp21
 70
     0
102
RTVSPropertyOp22
 70
     0
102
RTVSPropertyOp23
 70
     0
102
RTVSPropertyOp24
 70
     0
102
RTVSPropertyOp25
 70
     0
102
RTVSPropertyOp26
 70
     0
102
RTVSPropertyOp27
 70
     0
102
RTVSPropertyOp28
 70
     0
102
RTVSPropertyOp29
 70
     0
102
RTVSPropertyOp30
 70
     0
102
RTVSPropertyOp31
 70
     0
102
RTVSPropertyOp32
 70
     0
102
RTVSPropertyOp33
 70
     0
102
RTVSPropertyOp34
 70
     0
102
RTVSPropertyOp35
 70
     0
102
RTVSPropertyOp36
 70
     0
102
RTVSPropertyOp37
 70
     0
102
RTVSPropertyOp38
 70
     0
102
RTVSPropertyOp39
 70
     0
102
RTVSPropertyOp40
 70
     0
102
RTVSPropertyOp41
 70
     0
102
RTVSPropertyOp42
 70
     0
102
RTVSPropertyOp43
 70
     0
102
RTVSPropertyOp44
 70
     0
102
RTVSPropertyOp45
 70
     0
102
RTVSPropertyOp46
 70
     0
102
RTVSPropertyOp47
 70
     0
102
RTVSPropertyOp48
 70
     0
102
RTVSPropertyOp49
 70
     0
102
RTVSPropertyOp50
 70
     0
102
RTVSPropertyOp51
 70
     0
102
RTVSPropertyOp52
 70
     0
102
RTVSPropertyOp53
 70
     0
102
RTVSPropertyOp54
 70
     0
102
RTVSPropertyOp55
 70
     0
102
RTVSPropertyOp56
 70
     0
102
RTVSPropertyOp57
 70
     0
102
RTVSPropertyOp58
 70
     1
102
RTVSPropertyOp59
 70
     1
102
RTVSPropertyOp60
 70
     1
102
RTVSPropertyOp61
 70
     1
102
RTVSPropertyOp62
 70
     1
  0
XRECORD
  5
D3E
102
{ACAD_REACTORS
330
D3D
102
}
330
D3D
100
AcDbXrecord
280
     1
102
RTVSPost2010Prop28
280
     0
102
RTVSPost2010PropOp28
 70
     1
102
RTVSPost2010Prop29
280
     1
102
RTVSPost2010PropOp29
 70
     1
102
RTVSPost2010Prop30
280
     1
102
RTVSPost2010PropOp30
 70
     1
102
RTVSPost2010Prop31
280
     0
102
RTVSPost2010PropOp31
 70
     1
102
RTVSPost2010Prop32
280
     0
102
RTVSPost2010PropOp32
 70
     1
102
RTVSPost2010Prop33
280
     0
102
RTVSPost2010PropOp33
 70
     1
102
RTVSPost2010Prop34
280
     0
102
RTVSPost2010PropOp34
 70
     1
102
RTVSPost2010Prop35
280
     0
102
RTVSPost2010PropOp35
 70
     1
102
RTVSPost2010Prop36
280
     0
102
RTVSPost2010PropOp36
 70
     1
102
RTVSPost2010Prop37
 90
       50
102
RTVSPost2010PropOp37
 70
     1
102
RTVSPost2010Prop38
140
0.0
102
RTVSPost2010PropOp38
 70
     1
102
RTVSPost2010Prop39
140
1.0
102
RTVSPost2010PropOp39
 70
     1
102
RTVSPost2010Prop40
 90
        0
102
RTVSPost2010PropOp40
 70
     1
102
RTVSPost2010Prop41ColorIndex
 90
       18
102
RTVSPost2010Prop41ColorRGB
 90
-16777216
102
RTVSPost2010PropOp41
 70
     1
102
RTVSPost2010Prop42
 90
       50
102
RTVSPost2010PropOp42
 70
     1
102
RTVSPost2010Prop43
 90
        3
102
RTVSPost2010PropOp43
 70
     1
102
RTVSPost2010Prop44ColorIndex
 90
        5
102
RTVSPost2010Prop44ColorRGB
 90
      255
102
RTVSPost2010PropOp44
 70
     1
102
RTVSPost2010Prop45
280
     0
102
RTVSPost2010PropOp45
 70
     1
102
RTVSPost2010Prop46
 90
       50
102
RTVSPost2010PropOp46
 70
     1
102
RTVSPost2010Prop47
 90
       50
102
RTVSPost2010PropOp47
 70
     1
102
RTVSPost2010Prop48
 90
       50
102
RTVSPost2010PropOp48
 70
     1
102
RTVSPost2010Prop49
280
     0
102
RTVSPost2010PropOp49
 70
     1
102
RTVSPost2010Prop50
 90
       50
102
RTVSPost2010PropOp50
 70
     1
102
RTVSPost2010Prop51ColorIndex
 90
      256
102
RTVSPost2010Prop51ColorRGB
 90
-16777216
102
RTVSPost2010PropOp51
 70
     0
102
RTVSPost2010Prop52
140
1.0
102
RTVSPost2010PropOp52
 70
     0
102
RTVSPost2010Prop53
 90
        2
102
RTVSPost2010PropOp53
 70
     1
102
RTVSPost2010Prop54
  1
strokes_ogs.tif
102
RTVSPost2010PropOp54
 70
     1
102
RTVSPost2010Prop55
280
     0
102
RTVSPost2010PropOp55
 70
     1
102
RTVSPost2010Prop56
140
1.0
102
RTVSPost2010PropOp56
 70
     1
102
RTVSPost2010Prop57
140
1.0
102
RTVSPost2010PropOp57
 70
     1
102
RTVSPropertyOp0
 70
     1
102
RTVSPropertyOp1
 70
     1
102
RTVSPropertyOp2
 70
     1
102
RTVSPropertyOp3
 70
     1
102
RTVSPropertyOp4
 70
     1
102
RTVSPropertyOp5
 70
     1
102
RTVSPropertyOp6
 70
     1
102
RTVSPropertyOp7
 70
     1
102
RTVSPropertyOp8
 70
     1
102
RTVSPropertyOp9
 70
     1
102
RTVSPropertyOp10
 70
     1
102
RTVSPropertyOp11
 70
     1
102
RTVSPropertyOp12
 70
     1
102
RTVSPropertyOp13
 70
     1
102
RTVSPropertyOp14
 70
     1
102
RTVSPropertyOp15
 70
     1
102
RTVSPropertyOp16
 70
     1
102
RTVSPropertyOp17
 70
     1
102
RTVSPropertyOp18
 70
     1
102
RTVSPropertyOp19
 70
     1
102
RTVSPropertyOp20
 70
     1
102
RTVSPropertyOp21
 70
     1
102
RTVSPropertyOp22
 70
     1
102
RTVSPropertyOp23
 70
     1
102
RTVSPropertyOp24
 70
     1
102
RTVSPropertyOp25
 70
     1
102
RTVSPropertyOp26
 70
     1
102
RTVSPropertyOp27
 70
     1
102
RTVSPropertyOp28
 70
     1
102
RTVSPropertyOp29
 70
     1
102
RTVSPropertyOp30
 70
     1
102
RTVSPropertyOp31
 70
     1
102
RTVSPropertyOp32
 70
     1
102
RTVSPropertyOp33
 70
     1
102
RTVSPropertyOp34
 70
     1
102
RTVSPropertyOp35
 70
     1
102
RTVSPropertyOp36
 70
     1
102
RTVSPropertyOp37
 70
     1
102
RTVSPropertyOp38
 70
     1
102
RTVSPropertyOp39
 70
     1
102
RTVSPropertyOp40
 70
     1
102
RTVSPropertyOp41
 70
     1
102
RTVSPropertyOp42
 70
     1
102
RTVSPropertyOp43
 70
     1
102
RTVSPropertyOp44
 70
     1
102
RTVSPropertyOp45
 70
     1
102
RTVSPropertyOp46
 70
     1
102
RTVSPropertyOp47
 70
     1
102
RTVSPropertyOp48
 70
     1
102
RTVSPropertyOp49
 70
     1
102
RTVSPropertyOp50
 70
     1
102
RTVSPropertyOp51
 70
     0
102
RTVSPropertyOp52
 70
     0
102
RTVSPropertyOp53
 70
     1
102
RTVSPropertyOp54
 70
     1
102
RTVSPropertyOp55
 70
     1
102
RTVSPropertyOp56
 70
     1
102
RTVSPropertyOp57
 70
     1
102
RTVSPropertyOp58
 70
     1
102
RTVSPropertyOp59
 70
     1
102
RTVSPropertyOp60
 70
     1
102
RTVSPropertyOp61
 70
     1
102
RTVSPropertyOp62
 70
     1
  0
XRECORD
  5
D22
102
{ACAD_REACTORS
330
D21
102
}
330
D21
100
AcDbXrecord
280
     1
102
RTVSPost2010Prop28
280
     0
102
RTVSPost2010PropOp28
 70
     1
102
RTVSPost2010Prop29
280
     1
102
RTVSPost2010PropOp29
 70
     1
102
RTVSPost2010Prop30
280
     1
102
RTVSPost2010PropOp30
 70
     1
102
RTVSPost2010Prop31
280
     0
102
RTVSPost2010PropOp31
 70
     1
102
RTVSPost2010Prop32
280
     0
102
RTVSPost2010PropOp32
 70
     1
102
RTVSPost2010Prop33
280
     0
102
RTVSPost2010PropOp33
 70
     1
102
RTVSPost2010Prop34
280
     0
102
RTVSPost2010PropOp34
 70
     1
102
RTVSPost2010Prop35
280
     0
102
RTVSPost2010PropOp35
 70
     1
102
RTVSPost2010Prop36
280
     0
102
RTVSPost2010PropOp36
 70
     1
102
RTVSPost2010Prop37
 90
       50
102
RTVSPost2010PropOp37
 70
     1
102
RTVSPost2010Prop38
140
0.0
102
RTVSPost2010PropOp38
 70
     1
102
RTVSPost2010Prop39
140
1.0
102
RTVSPost2010PropOp39
 70
     1
102
RTVSPost2010Prop40
 90
        0
102
RTVSPost2010PropOp40
 70
     1
102
RTVSPost2010Prop41ColorIndex
 90
       18
102
RTVSPost2010Prop41ColorRGB
 90
-16777216
102
RTVSPost2010PropOp41
 70
     1
102
RTVSPost2010Prop42
 90
       50
102
RTVSPost2010PropOp42
 70
     1
102
RTVSPost2010Prop43
 90
        3
102
RTVSPost2010PropOp43
 70
     1
102
RTVSPost2010Prop44ColorIndex
 90
        5
102
RTVSPost2010Prop44ColorRGB
 90
      255
102
RTVSPost2010PropOp44
 70
     1
102
RTVSPost2010Prop45
280
     0
102
RTVSPost2010PropOp45
 70
     1
102
RTVSPost2010Prop46
 90
       50
102
RTVSPost2010PropOp46
 70
     1
102
RTVSPost2010Prop47
 90
       50
102
RTVSPost2010PropOp47
 70
     1
102
RTVSPost2010Prop48
 90
       50
102
RTVSPost2010PropOp48
 70
     1
102
RTVSPost2010Prop49
280
     0
102
RTVSPost2010PropOp49
 70
     1
102
RTVSPost2010Prop50
 90
       50
102
RTVSPost2010PropOp50
 70
     1
102
RTVSPost2010Prop51ColorIndex
 90
      256
102
RTVSPost2010Prop51ColorRGB
 90
-16777216
102
RTVSPost2010PropOp51
 70
     0
102
RTVSPost2010Prop52
140
1.0
102
RTVSPost2010PropOp52
 70
     0
102
RTVSPost2010Prop53
 90
        2
102
RTVSPost2010PropOp53
 70
     1
102
RTVSPost2010Prop54
  1
strokes_ogs.tif
102
RTVSPost2010PropOp54
 70
     1
102
RTVSPost2010Prop55
280
     0
102
RTVSPost2010PropOp55
 70
     1
102
RTVSPost2010Prop56
140
1.0
102
RTVSPost2010PropOp56
 70
     1
102
RTVSPost2010Prop57
140
1.0
102
RTVSPost2010PropOp57
 70
     1
102
RTVSPropertyOp0
 70
     1
102
RTVSPropertyOp1
 70
     1
102
RTVSPropertyOp2
 70
     1
102
RTVSPropertyOp3
 70
     1
102
RTVSPropertyOp4
 70
     1
102
RTVSPropertyOp5
 70
     1
102
RTVSPropertyOp6
 70
     1
102
RTVSPropertyOp7
 70
     1
102
RTVSPropertyOp8
 70
     1
102
RTVSPropertyOp9
 70
     1
102
RTVSPropertyOp10
 70
     1
102
RTVSPropertyOp11
 70
     1
102
RTVSPropertyOp12
 70
     1
102
RTVSPropertyOp13
 70
     1
102
RTVSPropertyOp14
 70
     1
102
RTVSPropertyOp15
 70
     1
102
RTVSPropertyOp16
 70
     1
102
RTVSPropertyOp17
 70
     1
102
RTVSPropertyOp18
 70
     1
102
RTVSPropertyOp19
 70
     1
102
RTVSPropertyOp20
 70
     1
102
RTVSPropertyOp21
 70
     1
102
RTVSPropertyOp22
 70
     1
102
RTVSPropertyOp23
 70
     1
102
RTVSPropertyOp24
 70
     1
102
RTVSPropertyOp25
 70
     1
102
RTVSPropertyOp26
 70
     1
102
RTVSPropertyOp27
 70
     1
102
RTVSPropertyOp28
 70
     1
102
RTVSPropertyOp29
 70
     1
102
RTVSPropertyOp30
 70
     1
102
RTVSPropertyOp31
 70
     1
102
RTVSPropertyOp32
 70
     1
102
RTVSPropertyOp33
 70
     1
102
RTVSPropertyOp34
 70
     1
102
RTVSPropertyOp35
 70
     1
102
RTVSPropertyOp36
 70
     1
102
RTVSPropertyOp37
 70
     1
102
RTVSPropertyOp38
 70
     1
102
RTVSPropertyOp39
 70
     1
102
RTVSPropertyOp40
 70
     1
102
RTVSPropertyOp41
 70
     1
102
RTVSPropertyOp42
 70
     1
102
RTVSPropertyOp43
 70
     1
102
RTVSPropertyOp44
 70
     1
102
RTVSPropertyOp45
 70
     1
102
RTVSPropertyOp46
 70
     1
102
RTVSPropertyOp47
 70
     1
102
RTVSPropertyOp48
 70
     1
102
RTVSPropertyOp49
 70
     1
102
RTVSPropertyOp50
 70
     1
102
RTVSPropertyOp51
 70
     0
102
RTVSPropertyOp52
 70
     0
102
RTVSPropertyOp53
 70
     1
102
RTVSPropertyOp54
 70
     1
102
RTVSPropertyOp55
 70
     1
102
RTVSPropertyOp56
 70
     1
102
RTVSPropertyOp57
 70
     1
102
RTVSPropertyOp58
 70
     1
102
RTVSPropertyOp59
 70
     1
102
RTVSPropertyOp60
 70
     1
102
RTVSPropertyOp61
 70
     1
102
RTVSPropertyOp62
 70
     1
  0
XRECORD
  5
D24
102
{ACAD_REACTORS
330
D23
102
}
330
D23
100
AcDbXrecord
280
     1
102
RTVSPost2010Prop28
280
     0
102
RTVSPost2010PropOp28
 70
     1
102
RTVSPost2010Prop29
280
     1
102
RTVSPost2010PropOp29
 70
     1
102
RTVSPost2010Prop30
280
     1
102
RTVSPost2010PropOp30
 70
     1
102
RTVSPost2010Prop31
280
     0
102
RTVSPost2010PropOp31
 70
     1
102
RTVSPost2010Prop32
280
     0
102
RTVSPost2010PropOp32
 70
     1
102
RTVSPost2010Prop33
280
     0
102
RTVSPost2010PropOp33
 70
     1
102
RTVSPost2010Prop34
280
     0
102
RTVSPost2010PropOp34
 70
     1
102
RTVSPost2010Prop35
280
     0
102
RTVSPost2010PropOp35
 70
     1
102
RTVSPost2010Prop36
280
     0
102
RTVSPost2010PropOp36
 70
     1
102
RTVSPost2010Prop37
 90
       50
102
RTVSPost2010PropOp37
 70
     1
102
RTVSPost2010Prop38
140
0.0
102
RTVSPost2010PropOp38
 70
     1
102
RTVSPost2010Prop39
140
1.0
102
RTVSPost2010PropOp39
 70
     1
102
RTVSPost2010Prop40
 90
        0
102
RTVSPost2010PropOp40
 70
     1
102
RTVSPost2010Prop41ColorIndex
 90
       18
102
RTVSPost2010Prop41ColorRGB
 90
-16777216
102
RTVSPost2010PropOp41
 70
     1
102
RTVSPost2010Prop42
 90
       50
102
RTVSPost2010PropOp42
 70
     1
102
RTVSPost2010Prop43
 90
        3
102
RTVSPost2010PropOp43
 70
     1
102
RTVSPost2010Prop44ColorIndex
 90
        5
102
RTVSPost2010Prop44ColorRGB
 90
      255
102
RTVSPost2010PropOp44
 70
     1
102
RTVSPost2010Prop45
280
     0
102
RTVSPost2010PropOp45
 70
     1
102
RTVSPost2010Prop46
 90
       50
102
RTVSPost2010PropOp46
 70
     1
102
RTVSPost2010Prop47
 90
       50
102
RTVSPost2010PropOp47
 70
     1
102
RTVSPost2010Prop48
 90
       50
102
RTVSPost2010PropOp48
 70
     1
102
RTVSPost2010Prop49
280
     0
102
RTVSPost2010PropOp49
 70
     1
102
RTVSPost2010Prop50
 90
       50
102
RTVSPost2010PropOp50
 70
     1
102
RTVSPost2010Prop51ColorIndex
 90
      256
102
RTVSPost2010Prop51ColorRGB
 90
-16777216
102
RTVSPost2010PropOp51
 70
     0
102
RTVSPost2010Prop52
140
1.0
102
RTVSPost2010PropOp52
 70
     0
102
RTVSPost2010Prop53
 90
        2
102
RTVSPost2010PropOp53
 70
     1
102
RTVSPost2010Prop54
  1
strokes_ogs.tif
102
RTVSPost2010PropOp54
 70
     1
102
RTVSPost2010Prop55
280
     0
102
RTVSPost2010PropOp55
 70
     1
102
RTVSPost2010Prop56
140
1.0
102
RTVSPost2010PropOp56
 70
     1
102
RTVSPost2010Prop57
140
1.0
102
RTVSPost2010PropOp57
 70
     1
102
RTVSPropertyOp0
 70
     1
102
RTVSPropertyOp1
 70
     1
102
RTVSPropertyOp2
 70
     1
102
RTVSPropertyOp3
 70
     1
102
RTVSPropertyOp4
 70
     1
102
RTVSPropertyOp5
 70
     1
102
RTVSPropertyOp6
 70
     1
102
RTVSPropertyOp7
 70
     1
102
RTVSPropertyOp8
 70
     1
102
RTVSPropertyOp9
 70
     1
102
RTVSPropertyOp10
 70
     1
102
RTVSPropertyOp11
 70
     1
102
RTVSPropertyOp12
 70
     1
102
RTVSPropertyOp13
 70
     1
102
RTVSPropertyOp14
 70
     1
102
RTVSPropertyOp15
 70
     1
102
RTVSPropertyOp16
 70
     1
102
RTVSPropertyOp17
 70
     1
102
RTVSPropertyOp18
 70
     1
102
RTVSPropertyOp19
 70
     1
102
RTVSPropertyOp20
 70
     1
102
RTVSPropertyOp21
 70
     1
102
RTVSPropertyOp22
 70
     1
102
RTVSPropertyOp23
 70
     1
102
RTVSPropertyOp24
 70
     1
102
RTVSPropertyOp25
 70
     1
102
RTVSPropertyOp26
 70
     1
102
RTVSPropertyOp27
 70
     1
102
RTVSPropertyOp28
 70
     1
102
RTVSPropertyOp29
 70
     1
102
RTVSPropertyOp30
 70
     1
102
RTVSPropertyOp31
 70
     1
102
RTVSPropertyOp32
 70
     1
102
RTVSPropertyOp33
 70
     1
102
RTVSPropertyOp34
 70
     1
102
RTVSPropertyOp35
 70
     1
102
RTVSPropertyOp36
 70
     1
102
RTVSPropertyOp37
 70
     1
102
RTVSPropertyOp38
 70
     1
102
RTVSPropertyOp39
 70
     1
102
RTVSPropertyOp40
 70
     1
102
RTVSPropertyOp41
 70
     1
102
RTVSPropertyOp42
 70
     1
102
RTVSPropertyOp43
 70
     1
102
RTVSPropertyOp44
 70
     1
102
RTVSPropertyOp45
 70
     1
102
RTVSPropertyOp46
 70
     1
102
RTVSPropertyOp47
 70
     1
102
RTVSPropertyOp48
 70
     1
102
RTVSPropertyOp49
 70
     1
102
RTVSPropertyOp50
 70
     1
102
RTVSPropertyOp51
 70
     0
102
RTVSPropertyOp52
 70
     0
102
RTVSPropertyOp53
 70
     1
102
RTVSPropertyOp54
 70
     1
102
RTVSPropertyOp55
 70
     1
102
RTVSPropertyOp56
 70
     1
102
RTVSPropertyOp57
 70
     1
102
RTVSPropertyOp58
 70
     1
102
RTVSPropertyOp59
 70
     1
102
RTVSPropertyOp60
 70
     1
102
RTVSPropertyOp61
 70
     1
102
RTVSPropertyOp62
 70
     1
  0
XRECORD
  5
D26
102
{ACAD_REACTORS
330
D25
102
}
330
D25
100
AcDbXrecord
280
     1
102
RTVSPost2010Prop28
280
     0
102
RTVSPost2010PropOp28
 70
     1
102
RTVSPost2010Prop29
280
     1
102
RTVSPost2010PropOp29
 70
     1
102
RTVSPost2010Prop30
280
     1
102
RTVSPost2010PropOp30
 70
     1
102
RTVSPost2010Prop31
280
     0
102
RTVSPost2010PropOp31
 70
     1
102
RTVSPost2010Prop32
280
     0
102
RTVSPost2010PropOp32
 70
     1
102
RTVSPost2010Prop33
280
     0
102
RTVSPost2010PropOp33
 70
     1
102
RTVSPost2010Prop34
280
     0
102
RTVSPost2010PropOp34
 70
     1
102
RTVSPost2010Prop35
280
     0
102
RTVSPost2010PropOp35
 70
     1
102
RTVSPost2010Prop36
280
     0
102
RTVSPost2010PropOp36
 70
     1
102
RTVSPost2010Prop37
 90
       50
102
RTVSPost2010PropOp37
 70
     1
102
RTVSPost2010Prop38
140
0.0
102
RTVSPost2010PropOp38
 70
     1
102
RTVSPost2010Prop39
140
1.0
102
RTVSPost2010PropOp39
 70
     1
102
RTVSPost2010Prop40
 90
        0
102
RTVSPost2010PropOp40
 70
     1
102
RTVSPost2010Prop41ColorIndex
 90
       18
102
RTVSPost2010Prop41ColorRGB
 90
-16777216
102
RTVSPost2010PropOp41
 70
     1
102
RTVSPost2010Prop42
 90
       50
102
RTVSPost2010PropOp42
 70
     1
102
RTVSPost2010Prop43
 90
        3
102
RTVSPost2010PropOp43
 70
     1
102
RTVSPost2010Prop44ColorIndex
 90
        5
102
RTVSPost2010Prop44ColorRGB
 90
      255
102
RTVSPost2010PropOp44
 70
     1
102
RTVSPost2010Prop45
280
     0
102
RTVSPost2010PropOp45
 70
     1
102
RTVSPost2010Prop46
 90
       50
102
RTVSPost2010PropOp46
 70
     1
102
RTVSPost2010Prop47
 90
       50
102
RTVSPost2010PropOp47
 70
     1
102
RTVSPost2010Prop48
 90
       50
102
RTVSPost2010PropOp48
 70
     1
102
RTVSPost2010Prop49
280
     0
102
RTVSPost2010PropOp49
 70
     1
102
RTVSPost2010Prop50
 90
       50
102
RTVSPost2010PropOp50
 70
     1
102
RTVSPost2010Prop51ColorIndex
 90
      256
102
RTVSPost2010Prop51ColorRGB
 90
-16777216
102
RTVSPost2010PropOp51
 70
     0
102
RTVSPost2010Prop52
140
1.0
102
RTVSPost2010PropOp52
 70
     0
102
RTVSPost2010Prop53
 90
        2
102
RTVSPost2010PropOp53
 70
     1
102
RTVSPost2010Prop54
  1
strokes_ogs.tif
102
RTVSPost2010PropOp54
 70
     1
102
RTVSPost2010Prop55
280
     0
102
RTVSPost2010PropOp55
 70
     1
102
RTVSPost2010Prop56
140
1.0
102
RTVSPost2010PropOp56
 70
     1
102
RTVSPost2010Prop57
140
1.0
102
RTVSPost2010PropOp57
 70
     1
102
RTVSPropertyOp0
 70
     1
102
RTVSPropertyOp1
 70
     1
102
RTVSPropertyOp2
 70
     1
102
RTVSPropertyOp3
 70
     1
102
RTVSPropertyOp4
 70
     1
102
RTVSPropertyOp5
 70
     1
102
RTVSPropertyOp6
 70
     1
102
RTVSPropertyOp7
 70
     1
102
RTVSPropertyOp8
 70
     1
102
RTVSPropertyOp9
 70
     1
102
RTVSPropertyOp10
 70
     1
102
RTVSPropertyOp11
 70
     1
102
RTVSPropertyOp12
 70
     1
102
RTVSPropertyOp13
 70
     1
102
RTVSPropertyOp14
 70
     1
102
RTVSPropertyOp15
 70
     1
102
RTVSPropertyOp16
 70
     1
102
RTVSPropertyOp17
 70
     1
102
RTVSPropertyOp18
 70
     1
102
RTVSPropertyOp19
 70
     1
102
RTVSPropertyOp20
 70
     1
102
RTVSPropertyOp21
 70
     1
102
RTVSPropertyOp22
 70
     1
102
RTVSPropertyOp23
 70
     1
102
RTVSPropertyOp24
 70
     1
102
RTVSPropertyOp25
 70
     1
102
RTVSPropertyOp26
 70
     1
102
RTVSPropertyOp27
 70
     1
102
RTVSPropertyOp28
 70
     1
102
RTVSPropertyOp29
 70
     1
102
RTVSPropertyOp30
 70
     1
102
RTVSPropertyOp31
 70
     1
102
RTVSPropertyOp32
 70
     1
102
RTVSPropertyOp33
 70
     1
102
RTVSPropertyOp34
 70
     1
102
RTVSPropertyOp35
 70
     1
102
RTVSPropertyOp36
 70
     1
102
RTVSPropertyOp37
 70
     1
102
RTVSPropertyOp38
 70
     1
102
RTVSPropertyOp39
 70
     1
102
RTVSPropertyOp40
 70
     1
102
RTVSPropertyOp41
 70
     1
102
RTVSPropertyOp42
 70
     1
102
RTVSPropertyOp43
 70
     1
102
RTVSPropertyOp44
 70
     1
102
RTVSPropertyOp45
 70
     1
102
RTVSPropertyOp46
 70
     1
102
RTVSPropertyOp47
 70
     1
102
RTVSPropertyOp48
 70
     1
102
RTVSPropertyOp49
 70
     1
102
RTVSPropertyOp50
 70
     1
102
RTVSPropertyOp51
 70
     0
102
RTVSPropertyOp52
 70
     0
102
RTVSPropertyOp53
 70
     1
102
RTVSPropertyOp54
 70
     1
102
RTVSPropertyOp55
 70
     1
102
RTVSPropertyOp56
 70
     1
102
RTVSPropertyOp57
 70
     1
102
RTVSPropertyOp58
 70
     1
102
RTVSPropertyOp59
 70
     1
102
RTVSPropertyOp60
 70
     1
102
RTVSPropertyOp61
 70
     1
102
RTVSPropertyOp62
 70
     1
  0
XRECORD
  5
D28
102
{ACAD_REACTORS
330
D27
102
}
330
D27
100
AcDbXrecord
280
     1
102
RTVSPost2010Prop28
280
     0
102
RTVSPost2010PropOp28
 70
     1
102
RTVSPost2010Prop29
280
     1
102
RTVSPost2010PropOp29
 70
     1
102
RTVSPost2010Prop30
280
     1
102
RTVSPost2010PropOp30
 70
     1
102
RTVSPost2010Prop31
280
     0
102
RTVSPost2010PropOp31
 70
     1
102
RTVSPost2010Prop32
280
     0
102
RTVSPost2010PropOp32
 70
     1
102
RTVSPost2010Prop33
280
     0
102
RTVSPost2010PropOp33
 70
     1
102
RTVSPost2010Prop34
280
     0
102
RTVSPost2010PropOp34
 70
     1
102
RTVSPost2010Prop35
280
     0
102
RTVSPost2010PropOp35
 70
     1
102
RTVSPost2010Prop36
280
     0
102
RTVSPost2010PropOp36
 70
     1
102
RTVSPost2010Prop37
 90
       50
102
RTVSPost2010PropOp37
 70
     1
102
RTVSPost2010Prop38
140
0.0
102
RTVSPost2010PropOp38
 70
     1
102
RTVSPost2010Prop39
140
1.0
102
RTVSPost2010PropOp39
 70
     1
102
RTVSPost2010Prop40
 90
        0
102
RTVSPost2010PropOp40
 70
     1
102
RTVSPost2010Prop41ColorIndex
 90
       18
102
RTVSPost2010Prop41ColorRGB
 90
-16777216
102
RTVSPost2010PropOp41
 70
     1
102
RTVSPost2010Prop42
 90
       50
102
RTVSPost2010PropOp42
 70
     1
102
RTVSPost2010Prop43
 90
        3
102
RTVSPost2010PropOp43
 70
     1
102
RTVSPost2010Prop44ColorIndex
 90
        5
102
RTVSPost2010Prop44ColorRGB
 90
      255
102
RTVSPost2010PropOp44
 70
     1
102
RTVSPost2010Prop45
280
     0
102
RTVSPost2010PropOp45
 70
     1
102
RTVSPost2010Prop46
 90
       50
102
RTVSPost2010PropOp46
 70
     1
102
RTVSPost2010Prop47
 90
       50
102
RTVSPost2010PropOp47
 70
     1
102
RTVSPost2010Prop48
 90
       50
102
RTVSPost2010PropOp48
 70
     1
102
RTVSPost2010Prop49
280
     0
102
RTVSPost2010PropOp49
 70
     1
102
RTVSPost2010Prop50
 90
       50
102
RTVSPost2010PropOp50
 70
     1
102
RTVSPost2010Prop51ColorIndex
 90
      256
102
RTVSPost2010Prop51ColorRGB
 90
-16777216
102
RTVSPost2010PropOp51
 70
     0
102
RTVSPost2010Prop52
140
1.0
102
RTVSPost2010PropOp52
 70
     0
102
RTVSPost2010Prop53
 90
        2
102
RTVSPost2010PropOp53
 70
     1
102
RTVSPost2010Prop54
  1
strokes_ogs.tif
102
RTVSPost2010PropOp54
 70
     1
102
RTVSPost2010Prop55
280
     0
102
RTVSPost2010PropOp55
 70
     1
102
RTVSPost2010Prop56
140
1.0
102
RTVSPost2010PropOp56
 70
     1
102
RTVSPost2010Prop57
140
1.0
102
RTVSPost2010PropOp57
 70
     1
102
RTVSPropertyOp0
 70
     1
102
RTVSPropertyOp1
 70
     1
102
RTVSPropertyOp2
 70
     1
102
RTVSPropertyOp3
 70
     1
102
RTVSPropertyOp4
 70
     1
102
RTVSPropertyOp5
 70
     1
102
RTVSPropertyOp6
 70
     1
102
RTVSPropertyOp7
 70
     1
102
RTVSPropertyOp8
 70
     1
102
RTVSPropertyOp9
 70
     1
102
RTVSPropertyOp10
 70
     1
102
RTVSPropertyOp11
 70
     1
102
RTVSPropertyOp12
 70
     1
102
RTVSPropertyOp13
 70
     1
102
RTVSPropertyOp14
 70
     1
102
RTVSPropertyOp15
 70
     1
102
RTVSPropertyOp16
 70
     1
102
RTVSPropertyOp17
 70
     1
102
RTVSPropertyOp18
 70
     1
102
RTVSPropertyOp19
 70
     1
102
RTVSPropertyOp20
 70
     1
102
RTVSPropertyOp21
 70
     1
102
RTVSPropertyOp22
 70
     1
102
RTVSPropertyOp23
 70
     1
102
RTVSPropertyOp24
 70
     1
102
RTVSPropertyOp25
 70
     1
102
RTVSPropertyOp26
 70
     1
102
RTVSPropertyOp27
 70
     1
102
RTVSPropertyOp28
 70
     1
102
RTVSPropertyOp29
 70
     1
102
RTVSPropertyOp30
 70
     1
102
RTVSPropertyOp31
 70
     1
102
RTVSPropertyOp32
 70
     1
102
RTVSPropertyOp33
 70
     1
102
RTVSPropertyOp34
 70
     1
102
RTVSPropertyOp35
 70
     1
102
RTVSPropertyOp36
 70
     1
102
RTVSPropertyOp37
 70
     1
102
RTVSPropertyOp38
 70
     1
102
RTVSPropertyOp39
 70
     1
102
RTVSPropertyOp40
 70
     1
102
RTVSPropertyOp41
 70
     1
102
RTVSPropertyOp42
 70
     1
102
RTVSPropertyOp43
 70
     1
102
RTVSPropertyOp44
 70
     1
102
RTVSPropertyOp45
 70
     1
102
RTVSPropertyOp46
 70
     1
102
RTVSPropertyOp47
 70
     1
102
RTVSPropertyOp48
 70
     1
102
RTVSPropertyOp49
 70
     1
102
RTVSPropertyOp50
 70
     1
102
RTVSPropertyOp51
 70
     0
102
RTVSPropertyOp52
 70
     0
102
RTVSPropertyOp53
 70
     1
102
RTVSPropertyOp54
 70
     1
102
RTVSPropertyOp55
 70
     1
102
RTVSPropertyOp56
 70
     1
102
RTVSPropertyOp57
 70
     1
102
RTVSPropertyOp58
 70
     1
102
RTVSPropertyOp59
 70
     1
102
RTVSPropertyOp60
 70
     1
102
RTVSPropertyOp61
 70
     1
102
RTVSPropertyOp62
 70
     1
  0
XRECORD
  5
D30
102
{ACAD_REACTORS
330
D2F
102
}
330
D2F
100
AcDbXrecord
280
     1
102
RTVSPost2010Prop28
280
     0
102
RTVSPost2010PropOp28
 70
     1
102
RTVSPost2010Prop29
280
     1
102
RTVSPost2010PropOp29
 70
     1
102
RTVSPost2010Prop30
280
     1
102
RTVSPost2010PropOp30
 70
     1
102
RTVSPost2010Prop31
280
     0
102
RTVSPost2010PropOp31
 70
     1
102
RTVSPost2010Prop32
280
     0
102
RTVSPost2010PropOp32
 70
     1
102
RTVSPost2010Prop33
280
     0
102
RTVSPost2010PropOp33
 70
     1
102
RTVSPost2010Prop34
280
     0
102
RTVSPost2010PropOp34
 70
     1
102
RTVSPost2010Prop35
280
     0
102
RTVSPost2010PropOp35
 70
     1
102
RTVSPost2010Prop36
280
     0
102
RTVSPost2010PropOp36
 70
     1
102
RTVSPost2010Prop37
 90
       50
102
RTVSPost2010PropOp37
 70
     1
102
RTVSPost2010Prop38
140
0.0
102
RTVSPost2010PropOp38
 70
     1
102
RTVSPost2010Prop39
140
1.0
102
RTVSPost2010PropOp39
 70
     1
102
RTVSPost2010Prop40
 90
        0
102
RTVSPost2010PropOp40
 70
     1
102
RTVSPost2010Prop41ColorIndex
 90
       18
102
RTVSPost2010Prop41ColorRGB
 90
-16777216
102
RTVSPost2010PropOp41
 70
     1
102
RTVSPost2010Prop42
 90
       50
102
RTVSPost2010PropOp42
 70
     1
102
RTVSPost2010Prop43
 90
        3
102
RTVSPost2010PropOp43
 70
     1
102
RTVSPost2010Prop44ColorIndex
 90
        5
102
RTVSPost2010Prop44ColorRGB
 90
      255
102
RTVSPost2010PropOp44
 70
     1
102
RTVSPost2010Prop45
280
     0
102
RTVSPost2010PropOp45
 70
     1
102
RTVSPost2010Prop46
 90
       50
102
RTVSPost2010PropOp46
 70
     1
102
RTVSPost2010Prop47
 90
       50
102
RTVSPost2010PropOp47
 70
     1
102
RTVSPost2010Prop48
 90
       50
102
RTVSPost2010PropOp48
 70
     1
102
RTVSPost2010Prop49
280
     0
102
RTVSPost2010PropOp49
 70
     1
102
RTVSPost2010Prop50
 90
       50
102
RTVSPost2010PropOp50
 70
     1
102
RTVSPost2010Prop51ColorIndex
 90
      256
102
RTVSPost2010Prop51ColorRGB
 90
-16777216
102
RTVSPost2010PropOp51
 70
     0
102
RTVSPost2010Prop52
140
1.0
102
RTVSPost2010PropOp52
 70
     0
102
RTVSPost2010Prop53
 90
        2
102
RTVSPost2010PropOp53
 70
     1
102
RTVSPost2010Prop54
  1
strokes_ogs.tif
102
RTVSPost2010PropOp54
 70
     1
102
RTVSPost2010Prop55
280
     0
102
RTVSPost2010PropOp55
 70
     1
102
RTVSPost2010Prop56
140
1.0
102
RTVSPost2010PropOp56
 70
     1
102
RTVSPost2010Prop57
140
1.0
102
RTVSPost2010PropOp57
 70
     1
102
RTVSPropertyOp0
 70
     1
102
RTVSPropertyOp1
 70
     1
102
RTVSPropertyOp2
 70
     1
102
RTVSPropertyOp3
 70
     1
102
RTVSPropertyOp4
 70
     1
102
RTVSPropertyOp5
 70
     1
102
RTVSPropertyOp6
 70
     1
102
RTVSPropertyOp7
 70
     1
102
RTVSPropertyOp8
 70
     1
102
RTVSPropertyOp9
 70
     1
102
RTVSPropertyOp10
 70
     1
102
RTVSPropertyOp11
 70
     1
102
RTVSPropertyOp12
 70
     1
102
RTVSPropertyOp13
 70
     1
102
RTVSPropertyOp14
 70
     1
102
RTVSPropertyOp15
 70
     1
102
RTVSPropertyOp16
 70
     1
102
RTVSPropertyOp17
 70
     1
102
RTVSPropertyOp18
 70
     1
102
RTVSPropertyOp19
 70
     1
102
RTVSPropertyOp20
 70
     1
102
RTVSPropertyOp21
 70
     1
102
RTVSPropertyOp22
 70
     1
102
RTVSPropertyOp23
 70
     1
102
RTVSPropertyOp24
 70
     1
102
RTVSPropertyOp25
 70
     1
102
RTVSPropertyOp26
 70
     1
102
RTVSPropertyOp27
 70
     1
102
RTVSPropertyOp28
 70
     1
102
RTVSPropertyOp29
 70
     1
102
RTVSPropertyOp30
 70
     1
102
RTVSPropertyOp31
 70
     1
102
RTVSPropertyOp32
 70
     1
102
RTVSPropertyOp33
 70
     1
102
RTVSPropertyOp34
 70
     1
102
RTVSPropertyOp35
 70
     1
102
RTVSPropertyOp36
 70
     1
102
RTVSPropertyOp37
 70
     1
102
RTVSPropertyOp38
 70
     1
102
RTVSPropertyOp39
 70
     1
102
RTVSPropertyOp40
 70
     1
102
RTVSPropertyOp41
 70
     1
102
RTVSPropertyOp42
 70
     1
102
RTVSPropertyOp43
 70
     1
102
RTVSPropertyOp44
 70
     1
102
RTVSPropertyOp45
 70
     1
102
RTVSPropertyOp46
 70
     1
102
RTVSPropertyOp47
 70
     1
102
RTVSPropertyOp48
 70
     1
102
RTVSPropertyOp49
 70
     1
102
RTVSPropertyOp50
 70
     1
102
RTVSPropertyOp51
 70
     0
102
RTVSPropertyOp52
 70
     0
102
RTVSPropertyOp53
 70
     1
102
RTVSPropertyOp54
 70
     1
102
RTVSPropertyOp55
 70
     1
102
RTVSPropertyOp56
 70
     1
102
RTVSPropertyOp57
 70
     1
102
RTVSPropertyOp58
 70
     1
102
RTVSPropertyOp59
 70
     1
102
RTVSPropertyOp60
 70
     1
102
RTVSPropertyOp61
 70
     1
102
RTVSPropertyOp62
 70
     1
  0
XRECORD
  5
D4C
102
{ACAD_REACTORS
330
D4B
102
}
330
D4B
100
AcDbXrecord
280
     1
102
RTVSPost2010Prop28
280
     0
102
RTVSPost2010PropOp28
 70
     0
102
RTVSPost2010Prop29
280
     1
102
RTVSPost2010PropOp29
 70
     0
102
RTVSPost2010Prop30
280
     1
102
RTVSPost2010PropOp30
 70
     0
102
RTVSPost2010Prop31
280
     0
102
RTVSPost2010PropOp31
 70
     0
102
RTVSPost2010Prop32
280
     0
102
RTVSPost2010PropOp32
 70
     0
102
RTVSPost2010Prop33
280
     0
102
RTVSPost2010PropOp33
 70
     0
102
RTVSPost2010Prop34
280
     0
102
RTVSPost2010PropOp34
 70
     0
102
RTVSPost2010Prop35
280
     0
102
RTVSPost2010PropOp35
 70
     0
102
RTVSPost2010Prop36
280
     0
102
RTVSPost2010PropOp36
 70
     0
102
RTVSPost2010Prop37
 90
       50
102
RTVSPost2010PropOp37
 70
     0
102
RTVSPost2010Prop38
140
0.0
102
RTVSPost2010PropOp38
 70
     0
102
RTVSPost2010Prop39
140
1.0
102
RTVSPost2010PropOp39
 70
     0
102
RTVSPost2010Prop40
 90
        0
102
RTVSPost2010PropOp40
 70
     0
102
RTVSPost2010Prop41ColorIndex
 90
       18
102
RTVSPost2010Prop41ColorRGB
 90
-16777216
102
RTVSPost2010PropOp41
 70
     0
102
RTVSPost2010Prop42
 90
       50
102
RTVSPost2010PropOp42
 70
     0
102
RTVSPost2010Prop43
 90
        3
102
RTVSPost2010PropOp43
 70
     0
102
RTVSPost2010Prop44ColorIndex
 90
        5
102
RTVSPost2010Prop44ColorRGB
 90
      255
102
RTVSPost2010PropOp44
 70
     0
102
RTVSPost2010Prop45
280
     0
102
RTVSPost2010PropOp45
 70
     0
102
RTVSPost2010Prop46
 90
       50
102
RTVSPost2010PropOp46
 70
     0
102
RTVSPost2010Prop47
 90
       50
102
RTVSPost2010PropOp47
 70
     0
102
RTVSPost2010Prop48
 90
       50
102
RTVSPost2010PropOp48
 70
     0
102
RTVSPost2010Prop49
280
     0
102
RTVSPost2010PropOp49
 70
     0
102
RTVSPost2010Prop50
 90
       50
102
RTVSPost2010PropOp50
 70
     0
102
RTVSPost2010Prop51ColorIndex
 90
      256
102
RTVSPost2010Prop51ColorRGB
 90
-16777216
102
RTVSPost2010PropOp51
 70
     0
102
RTVSPost2010Prop52
140
1.0
102
RTVSPost2010PropOp52
 70
     0
102
RTVSPost2010Prop53
 90
        2
102
RTVSPost2010PropOp53
 70
     0
102
RTVSPost2010Prop54
  1
strokes_ogs.tif
102
RTVSPost2010PropOp54
 70
     0
102
RTVSPost2010Prop55
280
     0
102
RTVSPost2010PropOp55
 70
     0
102
RTVSPost2010Prop56
140
1.0
102
RTVSPost2010PropOp56
 70
     0
102
RTVSPost2010Prop57
140
1.0
102
RTVSPost2010PropOp57
 70
     0
102
RTVSPropertyOp0
 70
     0
102
RTVSPropertyOp1
 70
     0
102
RTVSPropertyOp2
 70
     0
102
RTVSPropertyOp3
 70
     0
102
RTVSPropertyOp4
 70
     0
102
RTVSPropertyOp5
 70
     0
102
RTVSPropertyOp6
 70
     0
102
RTVSPropertyOp7
 70
     0
102
RTVSPropertyOp8
 70
     0
102
RTVSPropertyOp9
 70
     0
102
RTVSPropertyOp10
 70
     0
102
RTVSPropertyOp11
 70
     0
102
RTVSPropertyOp12
 70
     0
102
RTVSPropertyOp13
 70
     0
102
RTVSPropertyOp14
 70
     2
102
RTVSPropertyOp15
 70
     0
102
RTVSPropertyOp16
 70
     0
102
RTVSPropertyOp17
 70
     0
102
RTVSPropertyOp18
 70
     0
102
RTVSPropertyOp19
 70
     0
102
RTVSPropertyOp20
 70
     0
102
RTVSPropertyOp21
 70
     0
102
RTVSPropertyOp22
 70
     0
102
RTVSPropertyOp23
 70
     0
102
RTVSPropertyOp24
 70
     0
102
RTVSPropertyOp25
 70
     0
102
RTVSPropertyOp26
 70
     0
102
RTVSPropertyOp27
 70
     0
102
RTVSPropertyOp28
 70
     0
102
RTVSPropertyOp29
 70
     0
102
RTVSPropertyOp30
 70
     0
102
RTVSPropertyOp31
 70
     0
102
RTVSPropertyOp32
 70
     0
102
RTVSPropertyOp33
 70
     0
102
RTVSPropertyOp34
 70
     0
102
RTVSPropertyOp35
 70
     0
102
RTVSPropertyOp36
 70
     0
102
RTVSPropertyOp37
 70
     0
102
RTVSPropertyOp38
 70
     0
102
RTVSPropertyOp39
 70
     0
102
RTVSPropertyOp40
 70
     0
102
RTVSPropertyOp41
 70
     0
102
RTVSPropertyOp42
 70
     0
102
RTVSPropertyOp43
 70
     0
102
RTVSPropertyOp44
 70
     0
102
RTVSPropertyOp45
 70
     0
102
RTVSPropertyOp46
 70
     0
102
RTVSPropertyOp47
 70
     0
102
RTVSPropertyOp48
 70
     0
102
RTVSPropertyOp49
 70
     0
102
RTVSPropertyOp50
 70
     0
102
RTVSPropertyOp51
 70
     0
102
RTVSPropertyOp52
 70
     0
102
RTVSPropertyOp53
 70
     0
102
RTVSPropertyOp54
 70
     0
102
RTVSPropertyOp55
 70
     0
102
RTVSPropertyOp56
 70
     0
102
RTVSPropertyOp57
 70
     0
102
RTVSPropertyOp58
 70
     1
102
RTVSPropertyOp59
 70
     1
102
RTVSPropertyOp60
 70
     1
102
RTVSPropertyOp61
 70
     1
102
RTVSPropertyOp62
 70
     1
  0
XRECORD
  5
D3C
102
{ACAD_REACTORS
330
D3B
102
}
330
D3B
100
AcDbXrecord
280
     1
102
RTVSPost2010Prop28
280
     0
102
RTVSPost2010PropOp28
 70
     1
102
RTVSPost2010Prop29
280
     1
102
RTVSPost2010PropOp29
 70
     1
102
RTVSPost2010Prop30
280
     1
102
RTVSPost2010PropOp30
 70
     1
102
RTVSPost2010Prop31
280
     0
102
RTVSPost2010PropOp31
 70
     1
102
RTVSPost2010Prop32
280
     0
102
RTVSPost2010PropOp32
 70
     1
102
RTVSPost2010Prop33
280
     0
102
RTVSPost2010PropOp33
 70
     1
102
RTVSPost2010Prop34
280
     0
102
RTVSPost2010PropOp34
 70
     1
102
RTVSPost2010Prop35
280
     0
102
RTVSPost2010PropOp35
 70
     1
102
RTVSPost2010Prop36
280
     0
102
RTVSPost2010PropOp36
 70
     1
102
RTVSPost2010Prop37
 90
       50
102
RTVSPost2010PropOp37
 70
     1
102
RTVSPost2010Prop38
140
0.0
102
RTVSPost2010PropOp38
 70
     1
102
RTVSPost2010Prop39
140
1.0
102
RTVSPost2010PropOp39
 70
     1
102
RTVSPost2010Prop40
 90
        0
102
RTVSPost2010PropOp40
 70
     1
102
RTVSPost2010Prop41ColorIndex
 90
       18
102
RTVSPost2010Prop41ColorRGB
 90
-16777216
102
RTVSPost2010PropOp41
 70
     1
102
RTVSPost2010Prop42
 90
       50
102
RTVSPost2010PropOp42
 70
     1
102
RTVSPost2010Prop43
 90
        3
102
RTVSPost2010PropOp43
 70
     1
102
RTVSPost2010Prop44ColorIndex
 90
        5
102
RTVSPost2010Prop44ColorRGB
 90
      255
102
RTVSPost2010PropOp44
 70
     1
102
RTVSPost2010Prop45
280
     0
102
RTVSPost2010PropOp45
 70
     1
102
RTVSPost2010Prop46
 90
       50
102
RTVSPost2010PropOp46
 70
     1
102
RTVSPost2010Prop47
 90
       50
102
RTVSPost2010PropOp47
 70
     1
102
RTVSPost2010Prop48
 90
       50
102
RTVSPost2010PropOp48
 70
     1
102
RTVSPost2010Prop49
280
     0
102
RTVSPost2010PropOp49
 70
     1
102
RTVSPost2010Prop50
 90
       50
102
RTVSPost2010PropOp50
 70
     1
102
RTVSPost2010Prop51ColorIndex
 90
      256
102
RTVSPost2010Prop51ColorRGB
 90
-16777216
102
RTVSPost2010PropOp51
 70
     0
102
RTVSPost2010Prop52
140
1.0
102
RTVSPost2010PropOp52
 70
     0
102
RTVSPost2010Prop53
 90
        2
102
RTVSPost2010PropOp53
 70
     1
102
RTVSPost2010Prop54
  1
strokes_ogs.tif
102
RTVSPost2010PropOp54
 70
     1
102
RTVSPost2010Prop55
280
     0
102
RTVSPost2010PropOp55
 70
     1
102
RTVSPost2010Prop56
140
1.0
102
RTVSPost2010PropOp56
 70
     1
102
RTVSPost2010Prop57
140
1.0
102
RTVSPost2010PropOp57
 70
     1
102
RTVSPropertyOp0
 70
     1
102
RTVSPropertyOp1
 70
     1
102
RTVSPropertyOp2
 70
     1
102
RTVSPropertyOp3
 70
     1
102
RTVSPropertyOp4
 70
     1
102
RTVSPropertyOp5
 70
     1
102
RTVSPropertyOp6
 70
     1
102
RTVSPropertyOp7
 70
     1
102
RTVSPropertyOp8
 70
     1
102
RTVSPropertyOp9
 70
     1
102
RTVSPropertyOp10
 70
     1
102
RTVSPropertyOp11
 70
     1
102
RTVSPropertyOp12
 70
     1
102
RTVSPropertyOp13
 70
     1
102
RTVSPropertyOp14
 70
     1
102
RTVSPropertyOp15
 70
     1
102
RTVSPropertyOp16
 70
     1
102
RTVSPropertyOp17
 70
     1
102
RTVSPropertyOp18
 70
     1
102
RTVSPropertyOp19
 70
     1
102
RTVSPropertyOp20
 70
     1
102
RTVSPropertyOp21
 70
     1
102
RTVSPropertyOp22
 70
     1
102
RTVSPropertyOp23
 70
     1
102
RTVSPropertyOp24
 70
     1
102
RTVSPropertyOp25
 70
     1
102
RTVSPropertyOp26
 70
     1
102
RTVSPropertyOp27
 70
     1
102
RTVSPropertyOp28
 70
     1
102
RTVSPropertyOp29
 70
     1
102
RTVSPropertyOp30
 70
     1
102
RTVSPropertyOp31
 70
     1
102
RTVSPropertyOp32
 70
     1
102
RTVSPropertyOp33
 70
     1
102
RTVSPropertyOp34
 70
     1
102
RTVSPropertyOp35
 70
     1
102
RTVSPropertyOp36
 70
     1
102
RTVSPropertyOp37
 70
     1
102
RTVSPropertyOp38
 70
     1
102
RTVSPropertyOp39
 70
     1
102
RTVSPropertyOp40
 70
     1
102
RTVSPropertyOp41
 70
     1
102
RTVSPropertyOp42
 70
     1
102
RTVSPropertyOp43
 70
     1
102
RTVSPropertyOp44
 70
     1
102
RTVSPropertyOp45
 70
     1
102
RTVSPropertyOp46
 70
     1
102
RTVSPropertyOp47
 70
     1
102
RTVSPropertyOp48
 70
     1
102
RTVSPropertyOp49
 70
     1
102
RTVSPropertyOp50
 70
     1
102
RTVSPropertyOp51
 70
     0
102
RTVSPropertyOp52
 70
     0
102
RTVSPropertyOp53
 70
     1
102
RTVSPropertyOp54
 70
     1
102
RTVSPropertyOp55
 70
     1
102
RTVSPropertyOp56
 70
     1
102
RTVSPropertyOp57
 70
     1
102
RTVSPropertyOp58
 70
     1
102
RTVSPropertyOp59
 70
     1
102
RTVSPropertyOp60
 70
     1
102
RTVSPropertyOp61
 70
     1
102
RTVSPropertyOp62
 70
     1
  0
XRECORD
  5
D4E
102
{ACAD_REACTORS
330
D4D
102
}
330
D4D
100
AcDbXrecord
280
     1
102
RTVSPost2010Prop28
280
     0
102
RTVSPost2010PropOp28
 70
     0
102
RTVSPost2010Prop29
280
     1
102
RTVSPost2010PropOp29
 70
     0
102
RTVSPost2010Prop30
280
     1
102
RTVSPost2010PropOp30
 70
     0
102
RTVSPost2010Prop31
280
     0
102
RTVSPost2010PropOp31
 70
     0
102
RTVSPost2010Prop32
280
     0
102
RTVSPost2010PropOp32
 70
     0
102
RTVSPost2010Prop33
280
     0
102
RTVSPost2010PropOp33
 70
     0
102
RTVSPost2010Prop34
280
     0
102
RTVSPost2010PropOp34
 70
     0
102
RTVSPost2010Prop35
280
     0
102
RTVSPost2010PropOp35
 70
     0
102
RTVSPost2010Prop36
280
     0
102
RTVSPost2010PropOp36
 70
     0
102
RTVSPost2010Prop37
 90
       50
102
RTVSPost2010PropOp37
 70
     0
102
RTVSPost2010Prop38
140
0.0
102
RTVSPost2010PropOp38
 70
     0
102
RTVSPost2010Prop39
140
1.0
102
RTVSPost2010PropOp39
 70
     0
102
RTVSPost2010Prop40
 90
        0
102
RTVSPost2010PropOp40
 70
     0
102
RTVSPost2010Prop41ColorIndex
 90
       18
102
RTVSPost2010Prop41ColorRGB
 90
-16777216
102
RTVSPost2010PropOp41
 70
     0
102
RTVSPost2010Prop42
 90
       50
102
RTVSPost2010PropOp42
 70
     0
102
RTVSPost2010Prop43
 90
        3
102
RTVSPost2010PropOp43
 70
     0
102
RTVSPost2010Prop44ColorIndex
 90
        5
102
RTVSPost2010Prop44ColorRGB
 90
      255
102
RTVSPost2010PropOp44
 70
     0
102
RTVSPost2010Prop45
280
     0
102
RTVSPost2010PropOp45
 70
     0
102
RTVSPost2010Prop46
 90
       50
102
RTVSPost2010PropOp46
 70
     0
102
RTVSPost2010Prop47
 90
       50
102
RTVSPost2010PropOp47
 70
     0
102
RTVSPost2010Prop48
 90
       50
102
RTVSPost2010PropOp48
 70
     0
102
RTVSPost2010Prop49
280
     0
102
RTVSPost2010PropOp49
 70
     0
102
RTVSPost2010Prop50
 90
       50
102
RTVSPost2010PropOp50
 70
     0
102
RTVSPost2010Prop51ColorIndex
 90
      256
102
RTVSPost2010Prop51ColorRGB
 90
-16777216
102
RTVSPost2010PropOp51
 70
     0
102
RTVSPost2010Prop52
140
1.0
102
RTVSPost2010PropOp52
 70
     0
102
RTVSPost2010Prop53
 90
        2
102
RTVSPost2010PropOp53
 70
     0
102
RTVSPost2010Prop54
  1
strokes_ogs.tif
102
RTVSPost2010PropOp54
 70
     0
102
RTVSPost2010Prop55
280
     0
102
RTVSPost2010PropOp55
 70
     0
102
RTVSPost2010Prop56
140
1.0
102
RTVSPost2010PropOp56
 70
     0
102
RTVSPost2010Prop57
140
1.0
102
RTVSPost2010PropOp57
 70
     0
102
RTVSPropertyOp0
 70
     0
102
RTVSPropertyOp1
 70
     0
102
RTVSPropertyOp2
 70
     0
102
RTVSPropertyOp3
 70
     0
102
RTVSPropertyOp4
 70
     0
102
RTVSPropertyOp5
 70
     0
102
RTVSPropertyOp6
 70
     0
102
RTVSPropertyOp7
 70
     0
102
RTVSPropertyOp8
 70
     0
102
RTVSPropertyOp9
 70
     0
102
RTVSPropertyOp10
 70
     0
102
RTVSPropertyOp11
 70
     0
102
RTVSPropertyOp12
 70
     0
102
RTVSPropertyOp13
 70
     0
102
RTVSPropertyOp14
 70
     2
102
RTVSPropertyOp15
 70
     0
102
RTVSPropertyOp16
 70
     0
102
RTVSPropertyOp17
 70
     0
102
RTVSPropertyOp18
 70
     0
102
RTVSPropertyOp19
 70
     0
102
RTVSPropertyOp20
 70
     0
102
RTVSPropertyOp21
 70
     0
102
RTVSPropertyOp22
 70
     0
102
RTVSPropertyOp23
 70
     0
102
RTVSPropertyOp24
 70
     0
102
RTVSPropertyOp25
 70
     0
102
RTVSPropertyOp26
 70
     0
102
RTVSPropertyOp27
 70
     0
102
RTVSPropertyOp28
 70
     0
102
RTVSPropertyOp29
 70
     0
102
RTVSPropertyOp30
 70
     0
102
RTVSPropertyOp31
 70
     0
102
RTVSPropertyOp32
 70
     0
102
RTVSPropertyOp33
 70
     0
102
RTVSPropertyOp34
 70
     0
102
RTVSPropertyOp35
 70
     0
102
RTVSPropertyOp36
 70
     0
102
RTVSPropertyOp37
 70
     0
102
RTVSPropertyOp38
 70
     0
102
RTVSPropertyOp39
 70
     0
102
RTVSPropertyOp40
 70
     0
102
RTVSPropertyOp41
 70
     0
102
RTVSPropertyOp42
 70
     0
102
RTVSPropertyOp43
 70
     0
102
RTVSPropertyOp44
 70
     0
102
RTVSPropertyOp45
 70
     0
102
RTVSPropertyOp46
 70
     0
102
RTVSPropertyOp47
 70
     0
102
RTVSPropertyOp48
 70
     0
102
RTVSPropertyOp49
 70
     0
102
RTVSPropertyOp50
 70
     0
102
RTVSPropertyOp51
 70
     0
102
RTVSPropertyOp52
 70
     0
102
RTVSPropertyOp53
 70
     0
102
RTVSPropertyOp54
 70
     0
102
RTVSPropertyOp55
 70
     0
102
RTVSPropertyOp56
 70
     0
102
RTVSPropertyOp57
 70
     0
102
RTVSPropertyOp58
 70
     1
102
RTVSPropertyOp59
 70
     1
102
RTVSPropertyOp60
 70
     1
102
RTVSPropertyOp61
 70
     1
102
RTVSPropertyOp62
 70
     1
  0
XRECORD
  5
D34
102
{ACAD_REACTORS
330
D33
102
}
330
D33
100
AcDbXrecord
280
     1
102
RTVSPost2010Prop28
280
     0
102
RTVSPost2010PropOp28
 70
     1
102
RTVSPost2010Prop29
280
     1
102
RTVSPost2010PropOp29
 70
     1
102
RTVSPost2010Prop30
280
     1
102
RTVSPost2010PropOp30
 70
     1
102
RTVSPost2010Prop31
280
     0
102
RTVSPost2010PropOp31
 70
     1
102
RTVSPost2010Prop32
280
     0
102
RTVSPost2010PropOp32
 70
     1
102
RTVSPost2010Prop33
280
     0
102
RTVSPost2010PropOp33
 70
     1
102
RTVSPost2010Prop34
280
     0
102
RTVSPost2010PropOp34
 70
     1
102
RTVSPost2010Prop35
280
     0
102
RTVSPost2010PropOp35
 70
     1
102
RTVSPost2010Prop36
280
     0
102
RTVSPost2010PropOp36
 70
     1
102
RTVSPost2010Prop37
 90
       50
102
RTVSPost2010PropOp37
 70
     1
102
RTVSPost2010Prop38
140
0.0
102
RTVSPost2010PropOp38
 70
     1
102
RTVSPost2010Prop39
140
1.0
102
RTVSPost2010PropOp39
 70
     1
102
RTVSPost2010Prop40
 90
        0
102
RTVSPost2010PropOp40
 70
     1
102
RTVSPost2010Prop41ColorIndex
 90
       18
102
RTVSPost2010Prop41ColorRGB
 90
-16777216
102
RTVSPost2010PropOp41
 70
     1
102
RTVSPost2010Prop42
 90
       50
102
RTVSPost2010PropOp42
 70
     1
102
RTVSPost2010Prop43
 90
        3
102
RTVSPost2010PropOp43
 70
     1
102
RTVSPost2010Prop44ColorIndex
 90
        5
102
RTVSPost2010Prop44ColorRGB
 90
      255
102
RTVSPost2010PropOp44
 70
     1
102
RTVSPost2010Prop45
280
     0
102
RTVSPost2010PropOp45
 70
     1
102
RTVSPost2010Prop46
 90
       50
102
RTVSPost2010PropOp46
 70
     1
102
RTVSPost2010Prop47
 90
       50
102
RTVSPost2010PropOp47
 70
     1
102
RTVSPost2010Prop48
 90
       50
102
RTVSPost2010PropOp48
 70
     1
102
RTVSPost2010Prop49
280
     0
102
RTVSPost2010PropOp49
 70
     1
102
RTVSPost2010Prop50
 90
       50
102
RTVSPost2010PropOp50
 70
     1
102
RTVSPost2010Prop51ColorIndex
 90
      256
102
RTVSPost2010Prop51ColorRGB
 90
-16777216
102
RTVSPost2010PropOp51
 70
     0
102
RTVSPost2010Prop52
140
1.0
102
RTVSPost2010PropOp52
 70
     0
102
RTVSPost2010Prop53
 90
        2
102
RTVSPost2010PropOp53
 70
     1
102
RTVSPost2010Prop54
  1
strokes_ogs.tif
102
RTVSPost2010PropOp54
 70
     1
102
RTVSPost2010Prop55
280
     0
102
RTVSPost2010PropOp55
 70
     1
102
RTVSPost2010Prop56
140
1.0
102
RTVSPost2010PropOp56
 70
     1
102
RTVSPost2010Prop57
140
1.0
102
RTVSPost2010PropOp57
 70
     1
102
RTVSPropertyOp0
 70
     1
102
RTVSPropertyOp1
 70
     1
102
RTVSPropertyOp2
 70
     1
102
RTVSPropertyOp3
 70
     1
102
RTVSPropertyOp4
 70
     1
102
RTVSPropertyOp5
 70
     1
102
RTVSPropertyOp6
 70
     1
102
RTVSPropertyOp7
 70
     1
102
RTVSPropertyOp8
 70
     1
102
RTVSPropertyOp9
 70
     1
102
RTVSPropertyOp10
 70
     1
102
RTVSPropertyOp11
 70
     1
102
RTVSPropertyOp12
 70
     1
102
RTVSPropertyOp13
 70
     1
102
RTVSPropertyOp14
 70
     1
102
RTVSPropertyOp15
 70
     1
102
RTVSPropertyOp16
 70
     1
102
RTVSPropertyOp17
 70
     1
102
RTVSPropertyOp18
 70
     1
102
RTVSPropertyOp19
 70
     1
102
RTVSPropertyOp20
 70
     1
102
RTVSPropertyOp21
 70
     1
102
RTVSPropertyOp22
 70
     1
102
RTVSPropertyOp23
 70
     1
102
RTVSPropertyOp24
 70
     1
102
RTVSPropertyOp25
 70
     1
102
RTVSPropertyOp26
 70
     1
102
RTVSPropertyOp27
 70
     1
102
RTVSPropertyOp28
 70
     1
102
RTVSPropertyOp29
 70
     1
102
RTVSPropertyOp30
 70
     1
102
RTVSPropertyOp31
 70
     1
102
RTVSPropertyOp32
 70
     1
102
RTVSPropertyOp33
 70
     1
102
RTVSPropertyOp34
 70
     1
102
RTVSPropertyOp35
 70
     1
102
RTVSPropertyOp36
 70
     1
102
RTVSPropertyOp37
 70
     1
102
RTVSPropertyOp38
 70
     1
102
RTVSPropertyOp39
 70
     1
102
RTVSPropertyOp40
 70
     1
102
RTVSPropertyOp41
 70
     1
102
RTVSPropertyOp42
 70
     1
102
RTVSPropertyOp43
 70
     1
102
RTVSPropertyOp44
 70
     1
102
RTVSPropertyOp45
 70
     1
102
RTVSPropertyOp46
 70
     1
102
RTVSPropertyOp47
 70
     1
102
RTVSPropertyOp48
 70
     1
102
RTVSPropertyOp49
 70
     1
102
RTVSPropertyOp50
 70
     1
102
RTVSPropertyOp51
 70
     0
102
RTVSPropertyOp52
 70
     0
102
RTVSPropertyOp53
 70
     1
102
RTVSPropertyOp54
 70
     1
102
RTVSPropertyOp55
 70
     1
102
RTVSPropertyOp56
 70
     1
102
RTVSPropertyOp57
 70
     1
102
RTVSPropertyOp58
 70
     1
102
RTVSPropertyOp59
 70
     1
102
RTVSPropertyOp60
 70
     1
102
RTVSPropertyOp61
 70
     1
102
RTVSPropertyOp62
 70
     1
  0
XRECORD
  5
D4A
102
{ACAD_REACTORS
330
D49
102
}
330
D49
100
AcDbXrecord
280
     1
102
RTVSPost2010Prop28
280
     0
102
RTVSPost2010PropOp28
 70
     1
102
RTVSPost2010Prop29
280
     1
102
RTVSPost2010PropOp29
 70
     1
102
RTVSPost2010Prop30
280
     1
102
RTVSPost2010PropOp30
 70
     1
102
RTVSPost2010Prop31
280
     0
102
RTVSPost2010PropOp31
 70
     1
102
RTVSPost2010Prop32
280
     0
102
RTVSPost2010PropOp32
 70
     1
102
RTVSPost2010Prop33
280
     0
102
RTVSPost2010PropOp33
 70
     1
102
RTVSPost2010Prop34
280
     0
102
RTVSPost2010PropOp34
 70
     1
102
RTVSPost2010Prop35
280
     0
102
RTVSPost2010PropOp35
 70
     1
102
RTVSPost2010Prop36
280
     0
102
RTVSPost2010PropOp36
 70
     1
102
RTVSPost2010Prop37
 90
       50
102
RTVSPost2010PropOp37
 70
     1
102
RTVSPost2010Prop38
140
0.0
102
RTVSPost2010PropOp38
 70
     1
102
RTVSPost2010Prop39
140
1.0
102
RTVSPost2010PropOp39
 70
     1
102
RTVSPost2010Prop40
 90
        0
102
RTVSPost2010PropOp40
 70
     1
102
RTVSPost2010Prop41ColorIndex
 90
       18
102
RTVSPost2010Prop41ColorRGB
 90
-16777216
102
RTVSPost2010PropOp41
 70
     1
102
RTVSPost2010Prop42
 90
       50
102
RTVSPost2010PropOp42
 70
     1
102
RTVSPost2010Prop43
 90
        3
102
RTVSPost2010PropOp43
 70
     1
102
RTVSPost2010Prop44ColorIndex
 90
        5
102
RTVSPost2010Prop44ColorRGB
 90
      255
102
RTVSPost2010PropOp44
 70
     1
102
RTVSPost2010Prop45
280
     0
102
RTVSPost2010PropOp45
 70
     1
102
RTVSPost2010Prop46
 90
       50
102
RTVSPost2010PropOp46
 70
     1
102
RTVSPost2010Prop47
 90
       50
102
RTVSPost2010PropOp47
 70
     1
102
RTVSPost2010Prop48
 90
       50
102
RTVSPost2010PropOp48
 70
     1
102
RTVSPost2010Prop49
280
     0
102
RTVSPost2010PropOp49
 70
     1
102
RTVSPost2010Prop50
 90
       50
102
RTVSPost2010PropOp50
 70
     1
102
RTVSPost2010Prop51ColorIndex
 90
      256
102
RTVSPost2010Prop51ColorRGB
 90
-16777216
102
RTVSPost2010PropOp51
 70
     0
102
RTVSPost2010Prop52
140
1.0
102
RTVSPost2010PropOp52
 70
     0
102
RTVSPost2010Prop53
 90
        2
102
RTVSPost2010PropOp53
 70
     1
102
RTVSPost2010Prop54
  1
strokes_ogs.tif
102
RTVSPost2010PropOp54
 70
     1
102
RTVSPost2010Prop55
280
     0
102
RTVSPost2010PropOp55
 70
     1
102
RTVSPost2010Prop56
140
1.0
102
RTVSPost2010PropOp56
 70
     1
102
RTVSPost2010Prop57
140
1.0
102
RTVSPost2010PropOp57
 70
     1
102
RTVSPropertyOp0
 70
     1
102
RTVSPropertyOp1
 70
     1
102
RTVSPropertyOp2
 70
     1
102
RTVSPropertyOp3
 70
     1
102
RTVSPropertyOp4
 70
     1
102
RTVSPropertyOp5
 70
     1
102
RTVSPropertyOp6
 70
     1
102
RTVSPropertyOp7
 70
     1
102
RTVSPropertyOp8
 70
     1
102
RTVSPropertyOp9
 70
     1
102
RTVSPropertyOp10
 70
     1
102
RTVSPropertyOp11
 70
     1
102
RTVSPropertyOp12
 70
     1
102
RTVSPropertyOp13
 70
     1
102
RTVSPropertyOp14
 70
     1
102
RTVSPropertyOp15
 70
     1
102
RTVSPropertyOp16
 70
     1
102
RTVSPropertyOp17
 70
     1
102
RTVSPropertyOp18
 70
     1
102
RTVSPropertyOp19
 70
     1
102
RTVSPropertyOp20
 70
     1
102
RTVSPropertyOp21
 70
     1
102
RTVSPropertyOp22
 70
     1
102
RTVSPropertyOp23
 70
     1
102
RTVSPropertyOp24
 70
     1
102
RTVSPropertyOp25
 70
     1
102
RTVSPropertyOp26
 70
     1
102
RTVSPropertyOp27
 70
     1
102
RTVSPropertyOp28
 70
     1
102
RTVSPropertyOp29
 70
     1
102
RTVSPropertyOp30
 70
     1
102
RTVSPropertyOp31
 70
     1
102
RTVSPropertyOp32
 70
     1
102
RTVSPropertyOp33
 70
     1
102
RTVSPropertyOp34
 70
     1
102
RTVSPropertyOp35
 70
     1
102
RTVSPropertyOp36
 70
     1
102
RTVSPropertyOp37
 70
     1
102
RTVSPropertyOp38
 70
     1
102
RTVSPropertyOp39
 70
     1
102
RTVSPropertyOp40
 70
     1
102
RTVSPropertyOp41
 70
     1
102
RTVSPropertyOp42
 70
     1
102
RTVSPropertyOp43
 70
     1
102
RTVSPropertyOp44
 70
     1
102
RTVSPropertyOp45
 70
     1
102
RTVSPropertyOp46
 70
     1
102
RTVSPropertyOp47
 70
     1
102
RTVSPropertyOp48
 70
     1
102
RTVSPropertyOp49
 70
     1
102
RTVSPropertyOp50
 70
     1
102
RTVSPropertyOp51
 70
     0
102
RTVSPropertyOp52
 70
     0
102
RTVSPropertyOp53
 70
     1
102
RTVSPropertyOp54
 70
     1
102
RTVSPropertyOp55
 70
     1
102
RTVSPropertyOp56
 70
     1
102
RTVSPropertyOp57
 70
     1
102
RTVSPropertyOp58
 70
     1
102
RTVSPropertyOp59
 70
     1
102
RTVSPropertyOp60
 70
     1
102
RTVSPropertyOp61
 70
     1
102
RTVSPropertyOp62
 70
     1
  0
XRECORD
  5
D48
102
{ACAD_REACTORS
330
D47
102
}
330
D47
100
AcDbXrecord
280
     1
102
RTVSPost2010Prop28
280
     0
102
RTVSPost2010PropOp28
 70
     1
102
RTVSPost2010Prop29
280
     1
102
RTVSPost2010PropOp29
 70
     1
102
RTVSPost2010Prop30
280
     1
102
RTVSPost2010PropOp30
 70
     1
102
RTVSPost2010Prop31
280
     0
102
RTVSPost2010PropOp31
 70
     1
102
RTVSPost2010Prop32
280
     0
102
RTVSPost2010PropOp32
 70
     1
102
RTVSPost2010Prop33
280
     0
102
RTVSPost2010PropOp33
 70
     1
102
RTVSPost2010Prop34
280
     0
102
RTVSPost2010PropOp34
 70
     1
102
RTVSPost2010Prop35
280
     0
102
RTVSPost2010PropOp35
 70
     1
102
RTVSPost2010Prop36
280
     0
102
RTVSPost2010PropOp36
 70
     1
102
RTVSPost2010Prop37
 90
       50
102
RTVSPost2010PropOp37
 70
     1
102
RTVSPost2010Prop38
140
0.0
102
RTVSPost2010PropOp38
 70
     1
102
RTVSPost2010Prop39
140
1.0
102
RTVSPost2010PropOp39
 70
     1
102
RTVSPost2010Prop40
 90
        0
102
RTVSPost2010PropOp40
 70
     1
102
RTVSPost2010Prop41ColorIndex
 90
       18
102
RTVSPost2010Prop41ColorRGB
 90
-16777216
102
RTVSPost2010PropOp41
 70
     1
102
RTVSPost2010Prop42
 90
       50
102
RTVSPost2010PropOp42
 70
     1
102
RTVSPost2010Prop43
 90
        3
102
RTVSPost2010PropOp43
 70
     1
102
RTVSPost2010Prop44ColorIndex
 90
        5
102
RTVSPost2010Prop44ColorRGB
 90
      255
102
RTVSPost2010PropOp44
 70
     1
102
RTVSPost2010Prop45
280
     0
102
RTVSPost2010PropOp45
 70
     1
102
RTVSPost2010Prop46
 90
       50
102
RTVSPost2010PropOp46
 70
     1
102
RTVSPost2010Prop47
 90
       50
102
RTVSPost2010PropOp47
 70
     1
102
RTVSPost2010Prop48
 90
       50
102
RTVSPost2010PropOp48
 70
     1
102
RTVSPost2010Prop49
280
     0
102
RTVSPost2010PropOp49
 70
     1
102
RTVSPost2010Prop50
 90
       50
102
RTVSPost2010PropOp50
 70
     1
102
RTVSPost2010Prop51ColorIndex
 90
      256
102
RTVSPost2010Prop51ColorRGB
 90
-16777216
102
RTVSPost2010PropOp51
 70
     0
102
RTVSPost2010Prop52
140
1.0
102
RTVSPost2010PropOp52
 70
     0
102
RTVSPost2010Prop53
 90
        2
102
RTVSPost2010PropOp53
 70
     1
102
RTVSPost2010Prop54
  1
strokes_ogs.tif
102
RTVSPost2010PropOp54
 70
     1
102
RTVSPost2010Prop55
280
     0
102
RTVSPost2010PropOp55
 70
     1
102
RTVSPost2010Prop56
140
1.0
102
RTVSPost2010PropOp56
 70
     1
102
RTVSPost2010Prop57
140
1.0
102
RTVSPost2010PropOp57
 70
     1
102
RTVSPropertyOp0
 70
     1
102
RTVSPropertyOp1
 70
     1
102
RTVSPropertyOp2
 70
     1
102
RTVSPropertyOp3
 70
     1
102
RTVSPropertyOp4
 70
     1
102
RTVSPropertyOp5
 70
     1
102
RTVSPropertyOp6
 70
     1
102
RTVSPropertyOp7
 70
     1
102
RTVSPropertyOp8
 70
     1
102
RTVSPropertyOp9
 70
     1
102
RTVSPropertyOp10
 70
     1
102
RTVSPropertyOp11
 70
     1
102
RTVSPropertyOp12
 70
     1
102
RTVSPropertyOp13
 70
     1
102
RTVSPropertyOp14
 70
     1
102
RTVSPropertyOp15
 70
     1
102
RTVSPropertyOp16
 70
     1
102
RTVSPropertyOp17
 70
     1
102
RTVSPropertyOp18
 70
     1
102
RTVSPropertyOp19
 70
     1
102
RTVSPropertyOp20
 70
     1
102
RTVSPropertyOp21
 70
     1
102
RTVSPropertyOp22
 70
     1
102
RTVSPropertyOp23
 70
     1
102
RTVSPropertyOp24
 70
     1
102
RTVSPropertyOp25
 70
     1
102
RTVSPropertyOp26
 70
     1
102
RTVSPropertyOp27
 70
     1
102
RTVSPropertyOp28
 70
     1
102
RTVSPropertyOp29
 70
     1
102
RTVSPropertyOp30
 70
     1
102
RTVSPropertyOp31
 70
     1
102
RTVSPropertyOp32
 70
     1
102
RTVSPropertyOp33
 70
     1
102
RTVSPropertyOp34
 70
     1
102
RTVSPropertyOp35
 70
     1
102
RTVSPropertyOp36
 70
     1
102
RTVSPropertyOp37
 70
     1
102
RTVSPropertyOp38
 70
     1
102
RTVSPropertyOp39
 70
     1
102
RTVSPropertyOp40
 70
     1
102
RTVSPropertyOp41
 70
     1
102
RTVSPropertyOp42
 70
     1
102
RTVSPropertyOp43
 70
     1
102
RTVSPropertyOp44
 70
     1
102
RTVSPropertyOp45
 70
     1
102
RTVSPropertyOp46
 70
     1
102
RTVSPropertyOp47
 70
     1
102
RTVSPropertyOp48
 70
     1
102
RTVSPropertyOp49
 70
     1
102
RTVSPropertyOp50
 70
     1
102
RTVSPropertyOp51
 70
     0
102
RTVSPropertyOp52
 70
     0
102
RTVSPropertyOp53
 70
     1
102
RTVSPropertyOp54
 70
     1
102
RTVSPropertyOp55
 70
     1
102
RTVSPropertyOp56
 70
     1
102
RTVSPropertyOp57
 70
     1
102
RTVSPropertyOp58
 70
     1
102
RTVSPropertyOp59
 70
     1
102
RTVSPropertyOp60
 70
     1
102
RTVSPropertyOp61
 70
     1
102
RTVSPropertyOp62
 70
     1
  0
XRECORD
  5
D42
102
{ACAD_REACTORS
330
D41
102
}
330
D41
100
AcDbXrecord
280
     1
102
RTVSPost2010Prop28
280
     0
102
RTVSPost2010PropOp28
 70
     1
102
RTVSPost2010Prop29
280
     1
102
RTVSPost2010PropOp29
 70
     1
102
RTVSPost2010Prop30
280
     1
102
RTVSPost2010PropOp30
 70
     1
102
RTVSPost2010Prop31
280
     0
102
RTVSPost2010PropOp31
 70
     1
102
RTVSPost2010Prop32
280
     0
102
RTVSPost2010PropOp32
 70
     1
102
RTVSPost2010Prop33
280
     0
102
RTVSPost2010PropOp33
 70
     1
102
RTVSPost2010Prop34
280
     0
102
RTVSPost2010PropOp34
 70
     1
102
RTVSPost2010Prop35
280
     0
102
RTVSPost2010PropOp35
 70
     1
102
RTVSPost2010Prop36
280
     0
102
RTVSPost2010PropOp36
 70
     1
102
RTVSPost2010Prop37
 90
       50
102
RTVSPost2010PropOp37
 70
     1
102
RTVSPost2010Prop38
140
0.0
102
RTVSPost2010PropOp38
 70
     1
102
RTVSPost2010Prop39
140
1.0
102
RTVSPost2010PropOp39
 70
     1
102
RTVSPost2010Prop40
 90
        0
102
RTVSPost2010PropOp40
 70
     1
102
RTVSPost2010Prop41ColorIndex
 90
       18
102
RTVSPost2010Prop41ColorRGB
 90
-16777216
102
RTVSPost2010PropOp41
 70
     1
102
RTVSPost2010Prop42
 90
       50
102
RTVSPost2010PropOp42
 70
     1
102
RTVSPost2010Prop43
 90
        3
102
RTVSPost2010PropOp43
 70
     1
102
RTVSPost2010Prop44ColorIndex
 90
        5
102
RTVSPost2010Prop44ColorRGB
 90
      255
102
RTVSPost2010PropOp44
 70
     1
102
RTVSPost2010Prop45
280
     0
102
RTVSPost2010PropOp45
 70
     1
102
RTVSPost2010Prop46
 90
       50
102
RTVSPost2010PropOp46
 70
     1
102
RTVSPost2010Prop47
 90
       50
102
RTVSPost2010PropOp47
 70
     1
102
RTVSPost2010Prop48
 90
       50
102
RTVSPost2010PropOp48
 70
     1
102
RTVSPost2010Prop49
280
     0
102
RTVSPost2010PropOp49
 70
     1
102
RTVSPost2010Prop50
 90
       50
102
RTVSPost2010PropOp50
 70
     1
102
RTVSPost2010Prop51ColorIndex
 90
      256
102
RTVSPost2010Prop51ColorRGB
 90
-16777216
102
RTVSPost2010PropOp51
 70
     0
102
RTVSPost2010Prop52
140
1.0
102
RTVSPost2010PropOp52
 70
     0
102
RTVSPost2010Prop53
 90
        2
102
RTVSPost2010PropOp53
 70
     1
102
RTVSPost2010Prop54
  1
strokes_ogs.tif
102
RTVSPost2010PropOp54
 70
     1
102
RTVSPost2010Prop55
280
     0
102
RTVSPost2010PropOp55
 70
     1
102
RTVSPost2010Prop56
140
1.0
102
RTVSPost2010PropOp56
 70
     1
102
RTVSPost2010Prop57
140
1.0
102
RTVSPost2010PropOp57
 70
     1
102
RTVSPropertyOp0
 70
     1
102
RTVSPropertyOp1
 70
     1
102
RTVSPropertyOp2
 70
     1
102
RTVSPropertyOp3
 70
     1
102
RTVSPropertyOp4
 70
     1
102
RTVSPropertyOp5
 70
     1
102
RTVSPropertyOp6
 70
     1
102
RTVSPropertyOp7
 70
     1
102
RTVSPropertyOp8
 70
     1
102
RTVSPropertyOp9
 70
     1
102
RTVSPropertyOp10
 70
     1
102
RTVSPropertyOp11
 70
     1
102
RTVSPropertyOp12
 70
     1
102
RTVSPropertyOp13
 70
     1
102
RTVSPropertyOp14
 70
     1
102
RTVSPropertyOp15
 70
     1
102
RTVSPropertyOp16
 70
     1
102
RTVSPropertyOp17
 70
     1
102
RTVSPropertyOp18
 70
     1
102
RTVSPropertyOp19
 70
     1
102
RTVSPropertyOp20
 70
     1
102
RTVSPropertyOp21
 70
     1
102
RTVSPropertyOp22
 70
     1
102
RTVSPropertyOp23
 70
     1
102
RTVSPropertyOp24
 70
     1
102
RTVSPropertyOp25
 70
     1
102
RTVSPropertyOp26
 70
     1
102
RTVSPropertyOp27
 70
     1
102
RTVSPropertyOp28
 70
     1
102
RTVSPropertyOp29
 70
     1
102
RTVSPropertyOp30
 70
     1
102
RTVSPropertyOp31
 70
     1
102
RTVSPropertyOp32
 70
     1
102
RTVSPropertyOp33
 70
     1
102
RTVSPropertyOp34
 70
     1
102
RTVSPropertyOp35
 70
     1
102
RTVSPropertyOp36
 70
     1
102
RTVSPropertyOp37
 70
     1
102
RTVSPropertyOp38
 70
     1
102
RTVSPropertyOp39
 70
     1
102
RTVSPropertyOp40
 70
     1
102
RTVSPropertyOp41
 70
     1
102
RTVSPropertyOp42
 70
     1
102
RTVSPropertyOp43
 70
     1
102
RTVSPropertyOp44
 70
     1
102
RTVSPropertyOp45
 70
     1
102
RTVSPropertyOp46
 70
     1
102
RTVSPropertyOp47
 70
     1
102
RTVSPropertyOp48
 70
     1
102
RTVSPropertyOp49
 70
     1
102
RTVSPropertyOp50
 70
     1
102
RTVSPropertyOp51
 70
     0
102
RTVSPropertyOp52
 70
     0
102
RTVSPropertyOp53
 70
     1
102
RTVSPropertyOp54
 70
     1
102
RTVSPropertyOp55
 70
     1
102
RTVSPropertyOp56
 70
     1
102
RTVSPropertyOp57
 70
     1
102
RTVSPropertyOp58
 70
     1
102
RTVSPropertyOp59
 70
     1
102
RTVSPropertyOp60
 70
     1
102
RTVSPropertyOp61
 70
     1
102
RTVSPropertyOp62
 70
     1
  0
XRECORD
  5
D44
102
{ACAD_REACTORS
330
D43
102
}
330
D43
100
AcDbXrecord
280
     1
102
RTVSPost2010Prop28
280
     0
102
RTVSPost2010PropOp28
 70
     1
102
RTVSPost2010Prop29
280
     1
102
RTVSPost2010PropOp29
 70
     1
102
RTVSPost2010Prop30
280
     1
102
RTVSPost2010PropOp30
 70
     1
102
RTVSPost2010Prop31
280
     0
102
RTVSPost2010PropOp31
 70
     1
102
RTVSPost2010Prop32
280
     0
102
RTVSPost2010PropOp32
 70
     1
102
RTVSPost2010Prop33
280
     0
102
RTVSPost2010PropOp33
 70
     1
102
RTVSPost2010Prop34
280
     0
102
RTVSPost2010PropOp34
 70
     1
102
RTVSPost2010Prop35
280
     0
102
RTVSPost2010PropOp35
 70
     1
102
RTVSPost2010Prop36
280
     0
102
RTVSPost2010PropOp36
 70
     1
102
RTVSPost2010Prop37
 90
       50
102
RTVSPost2010PropOp37
 70
     1
102
RTVSPost2010Prop38
140
0.0
102
RTVSPost2010PropOp38
 70
     1
102
RTVSPost2010Prop39
140
1.0
102
RTVSPost2010PropOp39
 70
     1
102
RTVSPost2010Prop40
 90
        0
102
RTVSPost2010PropOp40
 70
     1
102
RTVSPost2010Prop41ColorIndex
 90
       18
102
RTVSPost2010Prop41ColorRGB
 90
-16777216
102
RTVSPost2010PropOp41
 70
     1
102
RTVSPost2010Prop42
 90
       50
102
RTVSPost2010PropOp42
 70
     1
102
RTVSPost2010Prop43
 90
        3
102
RTVSPost2010PropOp43
 70
     1
102
RTVSPost2010Prop44ColorIndex
 90
        5
102
RTVSPost2010Prop44ColorRGB
 90
      255
102
RTVSPost2010PropOp44
 70
     1
102
RTVSPost2010Prop45
280
     0
102
RTVSPost2010PropOp45
 70
     1
102
RTVSPost2010Prop46
 90
       50
102
RTVSPost2010PropOp46
 70
     1
102
RTVSPost2010Prop47
 90
       50
102
RTVSPost2010PropOp47
 70
     1
102
RTVSPost2010Prop48
 90
       50
102
RTVSPost2010PropOp48
 70
     1
102
RTVSPost2010Prop49
280
     0
102
RTVSPost2010PropOp49
 70
     1
102
RTVSPost2010Prop50
 90
       50
102
RTVSPost2010PropOp50
 70
     1
102
RTVSPost2010Prop51ColorIndex
 90
      256
102
RTVSPost2010Prop51ColorRGB
 90
-16777216
102
RTVSPost2010PropOp51
 70
     0
102
RTVSPost2010Prop52
140
1.0
102
RTVSPost2010PropOp52
 70
     0
102
RTVSPost2010Prop53
 90
        2
102
RTVSPost2010PropOp53
 70
     1
102
RTVSPost2010Prop54
  1
strokes_ogs.tif
102
RTVSPost2010PropOp54
 70
     1
102
RTVSPost2010Prop55
280
     0
102
RTVSPost2010PropOp55
 70
     1
102
RTVSPost2010Prop56
140
1.0
102
RTVSPost2010PropOp56
 70
     1
102
RTVSPost2010Prop57
140
1.0
102
RTVSPost2010PropOp57
 70
     1
102
RTVSPropertyOp0
 70
     1
102
RTVSPropertyOp1
 70
     1
102
RTVSPropertyOp2
 70
     1
102
RTVSPropertyOp3
 70
     1
102
RTVSPropertyOp4
 70
     1
102
RTVSPropertyOp5
 70
     1
102
RTVSPropertyOp6
 70
     1
102
RTVSPropertyOp7
 70
     1
102
RTVSPropertyOp8
 70
     1
102
RTVSPropertyOp9
 70
     1
102
RTVSPropertyOp10
 70
     1
102
RTVSPropertyOp11
 70
     1
102
RTVSPropertyOp12
 70
     1
102
RTVSPropertyOp13
 70
     1
102
RTVSPropertyOp14
 70
     1
102
RTVSPropertyOp15
 70
     1
102
RTVSPropertyOp16
 70
     1
102
RTVSPropertyOp17
 70
     1
102
RTVSPropertyOp18
 70
     1
102
RTVSPropertyOp19
 70
     1
102
RTVSPropertyOp20
 70
     1
102
RTVSPropertyOp21
 70
     1
102
RTVSPropertyOp22
 70
     1
102
RTVSPropertyOp23
 70
     1
102
RTVSPropertyOp24
 70
     1
102
RTVSPropertyOp25
 70
     1
102
RTVSPropertyOp26
 70
     1
102
RTVSPropertyOp27
 70
     1
102
RTVSPropertyOp28
 70
     1
102
RTVSPropertyOp29
 70
     1
102
RTVSPropertyOp30
 70
     1
102
RTVSPropertyOp31
 70
     1
102
RTVSPropertyOp32
 70
     1
102
RTVSPropertyOp33
 70
     1
102
RTVSPropertyOp34
 70
     1
102
RTVSPropertyOp35
 70
     1
102
RTVSPropertyOp36
 70
     1
102
RTVSPropertyOp37
 70
     1
102
RTVSPropertyOp38
 70
     1
102
RTVSPropertyOp39
 70
     1
102
RTVSPropertyOp40
 70
     1
102
RTVSPropertyOp41
 70
     1
102
RTVSPropertyOp42
 70
     1
102
RTVSPropertyOp43
 70
     1
102
RTVSPropertyOp44
 70
     1
102
RTVSPropertyOp45
 70
     1
102
RTVSPropertyOp46
 70
     1
102
RTVSPropertyOp47
 70
     1
102
RTVSPropertyOp48
 70
     1
102
RTVSPropertyOp49
 70
     1
102
RTVSPropertyOp50
 70
     1
102
RTVSPropertyOp51
 70
     0
102
RTVSPropertyOp52
 70
     0
102
RTVSPropertyOp53
 70
     1
102
RTVSPropertyOp54
 70
     1
102
RTVSPropertyOp55
 70
     1
102
RTVSPropertyOp56
 70
     1
102
RTVSPropertyOp57
 70
     1
102
RTVSPropertyOp58
 70
     1
102
RTVSPropertyOp59
 70
     1
102
RTVSPropertyOp60
 70
     1
102
RTVSPropertyOp61
 70
     1
102
RTVSPropertyOp62
 70
     1
  0
XRECORD
  5
D3A
102
{ACAD_REACTORS
330
D39
102
}
330
D39
100
AcDbXrecord
280
     1
102
RTVSPost2010Prop28
280
     0
102
RTVSPost2010PropOp28
 70
     1
102
RTVSPost2010Prop29
280
     1
102
RTVSPost2010PropOp29
 70
     1
102
RTVSPost2010Prop30
280
     1
102
RTVSPost2010PropOp30
 70
     1
102
RTVSPost2010Prop31
280
     0
102
RTVSPost2010PropOp31
 70
     1
102
RTVSPost2010Prop32
280
     0
102
RTVSPost2010PropOp32
 70
     1
102
RTVSPost2010Prop33
280
     0
102
RTVSPost2010PropOp33
 70
     1
102
RTVSPost2010Prop34
280
     0
102
RTVSPost2010PropOp34
 70
     1
102
RTVSPost2010Prop35
280
     0
102
RTVSPost2010PropOp35
 70
     1
102
RTVSPost2010Prop36
280
     0
102
RTVSPost2010PropOp36
 70
     1
102
RTVSPost2010Prop37
 90
       50
102
RTVSPost2010PropOp37
 70
     1
102
RTVSPost2010Prop38
140
0.0
102
RTVSPost2010PropOp38
 70
     1
102
RTVSPost2010Prop39
140
1.0
102
RTVSPost2010PropOp39
 70
     1
102
RTVSPost2010Prop40
 90
        0
102
RTVSPost2010PropOp40
 70
     1
102
RTVSPost2010Prop41ColorIndex
 90
       18
102
RTVSPost2010Prop41ColorRGB
 90
-16777216
102
RTVSPost2010PropOp41
 70
     1
102
RTVSPost2010Prop42
 90
       50
102
RTVSPost2010PropOp42
 70
     1
102
RTVSPost2010Prop43
 90
        3
102
RTVSPost2010PropOp43
 70
     1
102
RTVSPost2010Prop44ColorIndex
 90
        5
102
RTVSPost2010Prop44ColorRGB
 90
      255
102
RTVSPost2010PropOp44
 70
     1
102
RTVSPost2010Prop45
280
     0
102
RTVSPost2010PropOp45
 70
     1
102
RTVSPost2010Prop46
 90
       50
102
RTVSPost2010PropOp46
 70
     1
102
RTVSPost2010Prop47
 90
       50
102
RTVSPost2010PropOp47
 70
     1
102
RTVSPost2010Prop48
 90
       50
102
RTVSPost2010PropOp48
 70
     1
102
RTVSPost2010Prop49
280
     0
102
RTVSPost2010PropOp49
 70
     1
102
RTVSPost2010Prop50
 90
       50
102
RTVSPost2010PropOp50
 70
     1
102
RTVSPost2010Prop51ColorIndex
 90
      256
102
RTVSPost2010Prop51ColorRGB
 90
-16777216
102
RTVSPost2010PropOp51
 70
     0
102
RTVSPost2010Prop52
140
1.0
102
RTVSPost2010PropOp52
 70
     0
102
RTVSPost2010Prop53
 90
        2
102
RTVSPost2010PropOp53
 70
     1
102
RTVSPost2010Prop54
  1
strokes_ogs.tif
102
RTVSPost2010PropOp54
 70
     1
102
RTVSPost2010Prop55
280
     0
102
RTVSPost2010PropOp55
 70
     1
102
RTVSPost2010Prop56
140
1.0
102
RTVSPost2010PropOp56
 70
     1
102
RTVSPost2010Prop57
140
1.0
102
RTVSPost2010PropOp57
 70
     1
102
RTVSPropertyOp0
 70
     1
102
RTVSPropertyOp1
 70
     1
102
RTVSPropertyOp2
 70
     1
102
RTVSPropertyOp3
 70
     1
102
RTVSPropertyOp4
 70
     1
102
RTVSPropertyOp5
 70
     1
102
RTVSPropertyOp6
 70
     1
102
RTVSPropertyOp7
 70
     1
102
RTVSPropertyOp8
 70
     1
102
RTVSPropertyOp9
 70
     1
102
RTVSPropertyOp10
 70
     1
102
RTVSPropertyOp11
 70
     1
102
RTVSPropertyOp12
 70
     1
102
RTVSPropertyOp13
 70
     1
102
RTVSPropertyOp14
 70
     1
102
RTVSPropertyOp15
 70
     1
102
RTVSPropertyOp16
 70
     1
102
RTVSPropertyOp17
 70
     1
102
RTVSPropertyOp18
 70
     1
102
RTVSPropertyOp19
 70
     1
102
RTVSPropertyOp20
 70
     1
102
RTVSPropertyOp21
 70
     1
102
RTVSPropertyOp22
 70
     1
102
RTVSPropertyOp23
 70
     1
102
RTVSPropertyOp24
 70
     1
102
RTVSPropertyOp25
 70
     1
102
RTVSPropertyOp26
 70
     1
102
RTVSPropertyOp27
 70
     1
102
RTVSPropertyOp28
 70
     1
102
RTVSPropertyOp29
 70
     1
102
RTVSPropertyOp30
 70
     1
102
RTVSPropertyOp31
 70
     1
102
RTVSPropertyOp32
 70
     1
102
RTVSPropertyOp33
 70
     1
102
RTVSPropertyOp34
 70
     1
102
RTVSPropertyOp35
 70
     1
102
RTVSPropertyOp36
 70
     1
102
RTVSPropertyOp37
 70
     1
102
RTVSPropertyOp38
 70
     1
102
RTVSPropertyOp39
 70
     1
102
RTVSPropertyOp40
 70
     1
102
RTVSPropertyOp41
 70
     1
102
RTVSPropertyOp42
 70
     1
102
RTVSPropertyOp43
 70
     1
102
RTVSPropertyOp44
 70
     1
102
RTVSPropertyOp45
 70
     1
102
RTVSPropertyOp46
 70
     1
102
RTVSPropertyOp47
 70
     1
102
RTVSPropertyOp48
 70
     1
102
RTVSPropertyOp49
 70
     1
102
RTVSPropertyOp50
 70
     1
102
RTVSPropertyOp51
 70
     0
102
RTVSPropertyOp52
 70
     0
102
RTVSPropertyOp53
 70
     1
102
RTVSPropertyOp54
 70
     1
102
RTVSPropertyOp55
 70
     1
102
RTVSPropertyOp56
 70
     1
102
RTVSPropertyOp57
 70
     1
102
RTVSPropertyOp58
 70
     1
102
RTVSPropertyOp59
 70
     1
102
RTVSPropertyOp60
 70
     1
102
RTVSPropertyOp61
 70
     1
102
RTVSPropertyOp62
 70
     1
  0
XRECORD
  5
D2E
102
{ACAD_REACTORS
330
D2D
102
}
330
D2D
100
AcDbXrecord
280
     1
102
RTVSPost2010Prop28
280
     0
102
RTVSPost2010PropOp28
 70
     1
102
RTVSPost2010Prop29
280
     1
102
RTVSPost2010PropOp29
 70
     1
102
RTVSPost2010Prop30
280
     1
102
RTVSPost2010PropOp30
 70
     1
102
RTVSPost2010Prop31
280
     0
102
RTVSPost2010PropOp31
 70
     1
102
RTVSPost2010Prop32
280
     0
102
RTVSPost2010PropOp32
 70
     1
102
RTVSPost2010Prop33
280
     0
102
RTVSPost2010PropOp33
 70
     1
102
RTVSPost2010Prop34
280
     0
102
RTVSPost2010PropOp34
 70
     1
102
RTVSPost2010Prop35
280
     0
102
RTVSPost2010PropOp35
 70
     1
102
RTVSPost2010Prop36
280
     0
102
RTVSPost2010PropOp36
 70
     1
102
RTVSPost2010Prop37
 90
       50
102
RTVSPost2010PropOp37
 70
     1
102
RTVSPost2010Prop38
140
0.0
102
RTVSPost2010PropOp38
 70
     1
102
RTVSPost2010Prop39
140
1.0
102
RTVSPost2010PropOp39
 70
     1
102
RTVSPost2010Prop40
 90
        0
102
RTVSPost2010PropOp40
 70
     1
102
RTVSPost2010Prop41ColorIndex
 90
       18
102
RTVSPost2010Prop41ColorRGB
 90
-16777216
102
RTVSPost2010PropOp41
 70
     1
102
RTVSPost2010Prop42
 90
       50
102
RTVSPost2010PropOp42
 70
     1
102
RTVSPost2010Prop43
 90
        3
102
RTVSPost2010PropOp43
 70
     1
102
RTVSPost2010Prop44ColorIndex
 90
        5
102
RTVSPost2010Prop44ColorRGB
 90
      255
102
RTVSPost2010PropOp44
 70
     1
102
RTVSPost2010Prop45
280
     0
102
RTVSPost2010PropOp45
 70
     1
102
RTVSPost2010Prop46
 90
       50
102
RTVSPost2010PropOp46
 70
     1
102
RTVSPost2010Prop47
 90
       50
102
RTVSPost2010PropOp47
 70
     1
102
RTVSPost2010Prop48
 90
       50
102
RTVSPost2010PropOp48
 70
     1
102
RTVSPost2010Prop49
280
     0
102
RTVSPost2010PropOp49
 70
     1
102
RTVSPost2010Prop50
 90
       50
102
RTVSPost2010PropOp50
 70
     1
102
RTVSPost2010Prop51ColorIndex
 90
      256
102
RTVSPost2010Prop51ColorRGB
 90
-16777216
102
RTVSPost2010PropOp51
 70
     0
102
RTVSPost2010Prop52
140
1.0
102
RTVSPost2010PropOp52
 70
     0
102
RTVSPost2010Prop53
 90
        2
102
RTVSPost2010PropOp53
 70
     1
102
RTVSPost2010Prop54
  1
strokes_ogs.tif
102
RTVSPost2010PropOp54
 70
     1
102
RTVSPost2010Prop55
280
     0
102
RTVSPost2010PropOp55
 70
     1
102
RTVSPost2010Prop56
140
1.0
102
RTVSPost2010PropOp56
 70
     1
102
RTVSPost2010Prop57
140
1.0
102
RTVSPost2010PropOp57
 70
     1
102
RTVSPropertyOp0
 70
     1
102
RTVSPropertyOp1
 70
     1
102
RTVSPropertyOp2
 70
     1
102
RTVSPropertyOp3
 70
     1
102
RTVSPropertyOp4
 70
     1
102
RTVSPropertyOp5
 70
     1
102
RTVSPropertyOp6
 70
     1
102
RTVSPropertyOp7
 70
     1
102
RTVSPropertyOp8
 70
     1
102
RTVSPropertyOp9
 70
     1
102
RTVSPropertyOp10
 70
     1
102
RTVSPropertyOp11
 70
     1
102
RTVSPropertyOp12
 70
     1
102
RTVSPropertyOp13
 70
     1
102
RTVSPropertyOp14
 70
     1
102
RTVSPropertyOp15
 70
     1
102
RTVSPropertyOp16
 70
     1
102
RTVSPropertyOp17
 70
     1
102
RTVSPropertyOp18
 70
     1
102
RTVSPropertyOp19
 70
     1
102
RTVSPropertyOp20
 70
     1
102
RTVSPropertyOp21
 70
     1
102
RTVSPropertyOp22
 70
     1
102
RTVSPropertyOp23
 70
     1
102
RTVSPropertyOp24
 70
     1
102
RTVSPropertyOp25
 70
     1
102
RTVSPropertyOp26
 70
     1
102
RTVSPropertyOp27
 70
     1
102
RTVSPropertyOp28
 70
     1
102
RTVSPropertyOp29
 70
     1
102
RTVSPropertyOp30
 70
     1
102
RTVSPropertyOp31
 70
     1
102
RTVSPropertyOp32
 70
     1
102
RTVSPropertyOp33
 70
     1
102
RTVSPropertyOp34
 70
     1
102
RTVSPropertyOp35
 70
     1
102
RTVSPropertyOp36
 70
     1
102
RTVSPropertyOp37
 70
     1
102
RTVSPropertyOp38
 70
     1
102
RTVSPropertyOp39
 70
     1
102
RTVSPropertyOp40
 70
     1
102
RTVSPropertyOp41
 70
     1
102
RTVSPropertyOp42
 70
     1
102
RTVSPropertyOp43
 70
     1
102
RTVSPropertyOp44
 70
     1
102
RTVSPropertyOp45
 70
     1
102
RTVSPropertyOp46
 70
     1
102
RTVSPropertyOp47
 70
     1
102
RTVSPropertyOp48
 70
     1
102
RTVSPropertyOp49
 70
     1
102
RTVSPropertyOp50
 70
     1
102
RTVSPropertyOp51
 70
     0
102
RTVSPropertyOp52
 70
     0
102
RTVSPropertyOp53
 70
     1
102
RTVSPropertyOp54
 70
     1
102
RTVSPropertyOp55
 70
     1
102
RTVSPropertyOp56
 70
     1
102
RTVSPropertyOp57
 70
     1
102
RTVSPropertyOp58
 70
     1
102
RTVSPropertyOp59
 70
     1
102
RTVSPropertyOp60
 70
     1
102
RTVSPropertyOp61
 70
     1
102
RTVSPropertyOp62
 70
     1
  0
XRECORD
  5
D46
102
{ACAD_REACTORS
330
D45
102
}
330
D45
100
AcDbXrecord
280
     1
102
RTVSPost2010Prop28
280
     0
102
RTVSPost2010PropOp28
 70
     1
102
RTVSPost2010Prop29
280
     1
102
RTVSPost2010PropOp29
 70
     1
102
RTVSPost2010Prop30
280
     1
102
RTVSPost2010PropOp30
 70
     1
102
RTVSPost2010Prop31
280
     0
102
RTVSPost2010PropOp31
 70
     1
102
RTVSPost2010Prop32
280
     0
102
RTVSPost2010PropOp32
 70
     1
102
RTVSPost2010Prop33
280
     0
102
RTVSPost2010PropOp33
 70
     1
102
RTVSPost2010Prop34
280
     0
102
RTVSPost2010PropOp34
 70
     1
102
RTVSPost2010Prop35
280
     0
102
RTVSPost2010PropOp35
 70
     1
102
RTVSPost2010Prop36
280
     0
102
RTVSPost2010PropOp36
 70
     1
102
RTVSPost2010Prop37
 90
       50
102
RTVSPost2010PropOp37
 70
     1
102
RTVSPost2010Prop38
140
0.0
102
RTVSPost2010PropOp38
 70
     1
102
RTVSPost2010Prop39
140
1.0
102
RTVSPost2010PropOp39
 70
     1
102
RTVSPost2010Prop40
 90
        0
102
RTVSPost2010PropOp40
 70
     1
102
RTVSPost2010Prop41ColorIndex
 90
       18
102
RTVSPost2010Prop41ColorRGB
 90
-16777216
102
RTVSPost2010PropOp41
 70
     1
102
RTVSPost2010Prop42
 90
       50
102
RTVSPost2010PropOp42
 70
     1
102
RTVSPost2010Prop43
 90
        3
102
RTVSPost2010PropOp43
 70
     1
102
RTVSPost2010Prop44ColorIndex
 90
        5
102
RTVSPost2010Prop44ColorRGB
 90
      255
102
RTVSPost2010PropOp44
 70
     1
102
RTVSPost2010Prop45
280
     0
102
RTVSPost2010PropOp45
 70
     1
102
RTVSPost2010Prop46
 90
       50
102
RTVSPost2010PropOp46
 70
     1
102
RTVSPost2010Prop47
 90
       50
102
RTVSPost2010PropOp47
 70
     1
102
RTVSPost2010Prop48
 90
       50
102
RTVSPost2010PropOp48
 70
     1
102
RTVSPost2010Prop49
280
     0
102
RTVSPost2010PropOp49
 70
     1
102
RTVSPost2010Prop50
 90
       50
102
RTVSPost2010PropOp50
 70
     1
102
RTVSPost2010Prop51ColorIndex
 90
      256
102
RTVSPost2010Prop51ColorRGB
 90
-16777216
102
RTVSPost2010PropOp51
 70
     0
102
RTVSPost2010Prop52
140
1.0
102
RTVSPost2010PropOp52
 70
     0
102
RTVSPost2010Prop53
 90
        2
102
RTVSPost2010PropOp53
 70
     1
102
RTVSPost2010Prop54
  1
strokes_ogs.tif
102
RTVSPost2010PropOp54
 70
     1
102
RTVSPost2010Prop55
280
     0
102
RTVSPost2010PropOp55
 70
     1
102
RTVSPost2010Prop56
140
1.0
102
RTVSPost2010PropOp56
 70
     1
102
RTVSPost2010Prop57
140
1.0
102
RTVSPost2010PropOp57
 70
     1
102
RTVSPropertyOp0
 70
     1
102
RTVSPropertyOp1
 70
     1
102
RTVSPropertyOp2
 70
     1
102
RTVSPropertyOp3
 70
     1
102
RTVSPropertyOp4
 70
     1
102
RTVSPropertyOp5
 70
     1
102
RTVSPropertyOp6
 70
     1
102
RTVSPropertyOp7
 70
     1
102
RTVSPropertyOp8
 70
     1
102
RTVSPropertyOp9
 70
     1
102
RTVSPropertyOp10
 70
     1
102
RTVSPropertyOp11
 70
     1
102
RTVSPropertyOp12
 70
     1
102
RTVSPropertyOp13
 70
     1
102
RTVSPropertyOp14
 70
     1
102
RTVSPropertyOp15
 70
     1
102
RTVSPropertyOp16
 70
     1
102
RTVSPropertyOp17
 70
     1
102
RTVSPropertyOp18
 70
     1
102
RTVSPropertyOp19
 70
     1
102
RTVSPropertyOp20
 70
     1
102
RTVSPropertyOp21
 70
     1
102
RTVSPropertyOp22
 70
     1
102
RTVSPropertyOp23
 70
     1
102
RTVSPropertyOp24
 70
     1
102
RTVSPropertyOp25
 70
     1
102
RTVSPropertyOp26
 70
     1
102
RTVSPropertyOp27
 70
     1
102
RTVSPropertyOp28
 70
     1
102
RTVSPropertyOp29
 70
     1
102
RTVSPropertyOp30
 70
     1
102
RTVSPropertyOp31
 70
     1
102
RTVSPropertyOp32
 70
     1
102
RTVSPropertyOp33
 70
     1
102
RTVSPropertyOp34
 70
     1
102
RTVSPropertyOp35
 70
     1
102
RTVSPropertyOp36
 70
     1
102
RTVSPropertyOp37
 70
     1
102
RTVSPropertyOp38
 70
     1
102
RTVSPropertyOp39
 70
     1
102
RTVSPropertyOp40
 70
     1
102
RTVSPropertyOp41
 70
     1
102
RTVSPropertyOp42
 70
     1
102
RTVSPropertyOp43
 70
     1
102
RTVSPropertyOp44
 70
     1
102
RTVSPropertyOp45
 70
     1
102
RTVSPropertyOp46
 70
     1
102
RTVSPropertyOp47
 70
     1
102
RTVSPropertyOp48
 70
     1
102
RTVSPropertyOp49
 70
     1
102
RTVSPropertyOp50
 70
     1
102
RTVSPropertyOp51
 70
     0
102
RTVSPropertyOp52
 70
     0
102
RTVSPropertyOp53
 70
     1
102
RTVSPropertyOp54
 70
     1
102
RTVSPropertyOp55
 70
     1
102
RTVSPropertyOp56
 70
     1
102
RTVSPropertyOp57
 70
     1
102
RTVSPropertyOp58
 70
     1
102
RTVSPropertyOp59
 70
     1
102
RTVSPropertyOp60
 70
     1
102
RTVSPropertyOp61
 70
     1
102
RTVSPropertyOp62
 70
     1
  0
ENDSEC
  0
EOF
