  0
SECTION
  2
HEADER
  9
$ACADVER
  1
AC1015
  9
$ACADMAINTVER
 70
    20
  9
$DWGCODEPAGE
  3
ANSI_1252
  9
$INSBASE
 10
0.0
 20
0.0
 30
0.0
  9
$EXTMIN
 10
-0.0003660013843749
 20
-0.0002745010382874
 30
-0.000000000000014
  9
$EXTMAX
 10
11.05089198768104
 20
8.500358638002179
 30
0.0000000000000013
  9
$LIMMIN
 10
0.0
 20
0.0
  9
$LIMMAX
 10
12.0
 20
9.0
  9
$ORTHOMODE
 70
     0
  9
$REGENMODE
 70
     1
  9
$FILLMODE
 70
     1
  9
$QTEXTMODE
 70
     0
  9
$MIRRTEXT
 70
     1
  9
$LTSCALE
 40
0.25
  9
$ATTMODE
 70
     1
  9
$TEXTSIZE
 40
0.078
  9
$TRACEWID
 40
0.05
  9
$TEXTSTYLE
  7
SIMPLEX
  9
$CLAYER
  8
3
  9
$CELTYPE
  6
BYLAYER
  9
$CECOLOR
 62
   256
  9
$CELTSCALE
 40
1.0
  9
$DISPSILH
 70
     0
  9
$DIMSCALE
 40
1.0
  9
$DIMASZ
 40
0.125
  9
$DIMEXO
 40
0.0625
  9
$DIMDLI
 40
0.38
  9
$DIMRND
 40
0.0
  9
$DIMDLE
 40
0.0
  9
$DIMEXE
 40
0.0625
  9
$DIMTP
 40
0.0
  9
$DIMTM
 40
0.0
  9
$DIMTXT
 40
0.125
  9
$DIMCEN
 40
-0.125
  9
$DIMTSZ
 40
0.0
  9
$DIMTOL
 70
     0
  9
$DIMLIM
 70
     0
  9
$DIMTIH
 70
     1
  9
$DIMTOH
 70
     1
  9
$DIMSE1
 70
     0
  9
$DIMSE2
 70
     0
  9
$DIMTAD
 70
     0
  9
$DIMZIN
 70
     4
  9
$DIMBLK
  1

  9
$DIMASO
 70
     1
  9
$DIMSHO
 70
     0
  9
$DIMPOST
  1

  9
$DIMAPOST
  1

  9
$DIMALT
 70
     0
  9
$DIMALTD
 70
     2
  9
$DIMALTF
 40
25.4
  9
$DIMLFAC
 40
1.0
  9
$DIMTOFL
 70
     0
  9
$DIMTVP
 40
0.0
  9
$DIMTIX
 70
     0
  9
$DIMSOXD
 70
     0
  9
$DIMSAH
 70
     0
  9
$DIMBLK1
  1

  9
$DIMBLK2
  1

  9
$DIMSTYLE
  2
STANDARD
  9
$DIMCLRD
 70
     0
  9
$DIMCLRE
 70
     0
  9
$DIMCLRT
 70
     0
  9
$DIMTFAC
 40
1.0
  9
$DIMGAP
 40
0.09
  9
$DIMJUST
 70
     0
  9
$DIMSD1
 70
     0
  9
$DIMSD2
 70
     0
  9
$DIMTOLJ
 70
     1
  9
$DIMTZIN
 70
     4
  9
$DIMALTZ
 70
     4
  9
$DIMALTTZ
 70
     4
  9
$DIMUPT
 70
     0
  9
$DIMDEC
 70
     5
  9
$DIMTDEC
 70
     5
  9
$DIMALTU
 70
     2
  9
$DIMALTTD
 70
     2
  9
$DIMTXSTY
  7
SIMPLEX
  9
$DIMAUNIT
 70
     0
  9
$DIMADEC
 70
     0
  9
$DIMALTRND
 40
0.0
  9
$DIMAZIN
 70
     0
  9
$DIMDSEP
 70
    46
  9
$DIMATFIT
 70
     3
  9
$DIMFRAC
 70
     2
  9
$DIMLDRBLK
  1

  9
$DIMLUNIT
 70
     5
  9
$DIMLWD
 70
    -2
  9
$DIMLWE
 70
    -2
  9
$DIMTMOVE
 70
     2
  9
$LUNITS
 70
     2
  9
$LUPREC
 70
     3
  9
$SKETCHINC
 40
0.1
  9
$FILLETRAD
 40
0.0
  9
$AUNITS
 70
     0
  9
$AUPREC
 70
     2
  9
$MENU
  1
ACAD
  9
$ELEVATION
 40
0.0
  9
$PELEVATION
 40
0.0
  9
$THICKNESS
 40
0.0
  9
$LIMCHECK
 70
     0
  9
$CHAMFERA
 40
0.1875
  9
$CHAMFERB
 40
0.1875
  9
$CHAMFERC
 40
0.0
  9
$CHAMFERD
 40
0.0
  9
$SKPOLY
 70
     0
  9
$TDCREATE
 40
2449051.539295139
  9
$TDUCREATE
 40
2449051.705961806
  9
$TDUPDATE
 40
2457155.475089653
  9
$TDUUPDATE
 40
2457155.641756319
  9
$TDINDWG
 40
0.1680753935
  9
$TDUSRTIMER
 40
0.1680753819
  9
$USRTIMER
 70
     1
  9
$ANGBASE
 50
0.0
  9
$ANGDIR
 70
     0
  9
$PDMODE
 70
     0
  9
$PDSIZE
 40
0.0
  9
$PLINEWID
 40
0.0
  9
$SPLFRAME
 70
     0
  9
$SPLINETYPE
 70
     6
  9
$SPLINESEGS
 70
     8
  9
$HANDSEED
  5
D58
  9
$SURFTAB1
 70
     6
  9
$SURFTAB2
 70
     6
  9
$SURFTYPE
 70
     6
  9
$SURFU
 70
     6
  9
$SURFV
 70
     6
  9
$UCSBASE
  2

  9
$UCSNAME
  2

  9
$UCSORG
 10
0.0
 20
0.0
 30
0.0
  9
$UCSXDIR
 10
1.0
 20
0.0
 30
0.0
  9
$UCSYDIR
 10
0.0
 20
1.0
 30
0.0
  9
$UCSORTHOREF
  2

  9
$UCSORTHOVIEW
 70
     0
  9
$UCSORGTOP
 10
0.0
 20
0.0
 30
0.0
  9
$UCSORGBOTTOM
 10
0.0
 20
0.0
 30
0.0
  9
$UCSORGLEFT
 10
0.0
 20
0.0
 30
0.0
  9
$UCSORGRIGHT
 10
0.0
 20
0.0
 30
0.0
  9
$UCSORGFRONT
 10
0.0
 20
0.0
 30
0.0
  9
$UCSORGBACK
 10
0.0
 20
0.0
 30
0.0
  9
$PUCSBASE
  2

  9
$PUCSNAME
  2

  9
$PUCSORG
 10
0.0
 20
0.0
 30
0.0
  9
$PUCSXDIR
 10
1.0
 20
0.0
 30
0.0
  9
$PUCSYDIR
 10
0.0
 20
1.0
 30
0.0
  9
$PUCSORTHOREF
  2

  9
$PUCSORTHOVIEW
 70
     0
  9
$PUCSORGTOP
 10
0.0
 20
0.0
 30
0.0
  9
$PUCSORGBOTTOM
 10
0.0
 20
0.0
 30
0.0
  9
$PUCSORGLEFT
 10
0.0
 20
0.0
 30
0.0
  9
$PUCSORGRIGHT
 10
0.0
 20
0.0
 30
0.0
  9
$PUCSORGFRONT
 10
0.0
 20
0.0
 30
0.0
  9
$PUCSORGBACK
 10
0.0
 20
0.0
 30
0.0
  9
$USERI1
 70
     0
  9
$USERI2
 70
     0
  9
$USERI3
 70
     0
  9
$USERI4
 70
     0
  9
$USERI5
 70
     0
  9
$USERR1
 40
0.0
  9
$USERR2
 40
0.0
  9
$USERR3
 40
0.0
  9
$USERR4
 40
0.0
  9
$USERR5
 40
0.0
  9
$WORLDVIEW
 70
     1
  9
$SHADEDGE
 70
     3
  9
$SHADEDIF
 70
    70
  9
$TILEMODE
 70
     1
  9
$MAXACTVP
 70
    16
  9
$PINSBASE
 10
0.0
 20
0.0
 30
0.0
  9
$PLIMCHECK
 70
     0
  9
$PEXTMIN
 10
1.000000000000000E+20
 20
1.000000000000000E+20
 30
1.000000000000000E+20
  9
$PEXTMAX
 10
-1.000000000000000E+20
 20
-1.000000000000000E+20
 30
-1.000000000000000E+20
  9
$PLIMMIN
 10
0.0
 20
0.0
  9
$PLIMMAX
 10
12.0
 20
9.0
  9
$UNITMODE
 70
     0
  9
$VISRETAIN
 70
     0
  9
$PLINEGEN
 70
     0
  9
$PSLTSCALE
 70
     0
  9
$TREEDEPTH
 70
  3020
  9
$CMLSTYLE
  2
STANDARD
  9
$CMLJUST
 70
     0
  9
$CMLSCALE
 40
1.0
  9
$PROXYGRAPHICS
 70
     1
  9
$MEASUREMENT
 70
     0
  9
$CELWEIGHT
370
    -1
  9
$ENDCAPS
280
     0
  9
$JOINSTYLE
280
     0
  9
$LWDISPLAY
290
     0
  9
$INSUNITS
 70
     0
  9
$HYPERLINKBASE
  1

  9
$STYLESHEET
  1
BLK1500.CTB
  9
$XEDIT
290
     1
  9
$CEPSNTYPE
380
     0
  9
$PSTYLEMODE
290
     1
  9
$FINGERPRINTGUID
  2
{913FDC60-9FCA-11D6-8B45-00A0CCD630B6}
  9
$VERSIONGUID
  2
{434510F5-149C-4D7B-A691-242939FD5115}
  9
$EXTNAMES
290
     1
  9
$PSVPSCALE
 40
0.0
  9
$OLESTARTUP
290
     0
  0
ENDSEC
  0
SECTION
  2
CLASSES
  0
CLASS
  1
DICTIONARYVAR
  2
AcDbDictionaryVar
  3
ObjectDBX Classes
 90
        0
280
     0
281
     0
  0
CLASS
  1
ACDBDICTIONARYWDFLT
  2
AcDbDictionaryWithDefault
  3
ObjectDBX Classes
 90
        0
280
     0
281
     0
  0
CLASS
  1
MATERIAL
  2
AcDbMaterial
  3
ObjectDBX Classes
 90
     1153
280
     0
281
     0
  0
CLASS
  1
VISUALSTYLE
  2
AcDbVisualStyle
  3
ObjectDBX Classes
 90
     4095
280
     0
281
     0
  0
CLASS
  1
TABLESTYLE
  2
AcDbTableStyle
  3
ObjectDBX Classes
 90
     4095
280
     0
281
     0
  0
CLASS
  1
SCALE
  2
AcDbScale
  3
ObjectDBX Classes
 90
     1153
280
     0
281
     0
  0
CLASS
  1
MLEADERSTYLE
  2
AcDbMLeaderStyle
  3
ACDB_MLEADERSTYLE_CLASS
 90
     4095
280
     0
281
     0
  0
CLASS
  1
ACDBSECTIONVIEWSTYLE
  2
AcDbSectionViewStyle
  3
ObjectDBX Classes
 90
     1025
280
     0
281
     0
  0
CLASS
  1
ACDBDETAILVIEWSTYLE
  2
AcDbDetailViewStyle
  3
ObjectDBX Classes
 90
     1025
280
     0
281
     0
  0
CLASS
  1
CELLSTYLEMAP
  2
AcDbCellStyleMap
  3
ObjectDBX Classes
 90
     1152
280
     0
281
     0
  0
CLASS
  1
ACDBPLACEHOLDER
  2
AcDbPlaceHolder
  3
ObjectDBX Classes
 90
        0
280
     0
281
     0
  0
CLASS
  1
LAYOUT
  2
AcDbLayout
  3
ObjectDBX Classes
 90
        0
280
     0
281
     0
  0
ENDSEC
  0
SECTION
  2
TABLES
  0
TABLE
  2
VPORT
  5
8
330
0
100
AcDbSymbolTable
 70
     1
  0
VPORT
  5
C1D
330
8
100
AcDbSymbolTableRecord
100
AcDbViewportTableRecord
  2
*Active
 70
     0
 10
0.0
 20
0.0
 11
1.0
 21
1.0
 12
5.525262993148333
 22
4.250042068481945
 13
0.0
 23
0.0
 14
1.0
 24
1.0
 15
0.0
 25
0.0
 16
0.0
 26
0.0
 36
1.0
 17
0.0
 27
0.0
 37
0.0
 40
8.563756652449182
 41
2.080545229244113
 42
50.0
 43
0.0
 44
0.0
 50
0.0
 51
0.0
 71
     0
 72
   250
 73
     1
 74
     0
 75
     0
 76
     0
 77
     0
 78
     0
281
     0
 65
     1
110
0.0
120
0.0
130
0.0
111
1.0
121
0.0
131
0.0
112
0.0
122
1.0
132
0.0
 79
     0
146
0.0
1001
ACAD_NAV_VCDISPLAY
1070
     3
  0
ENDTAB
  0
TABLE
  2
LTYPE
  5
5
330
0
100
AcDbSymbolTable
 70
     2
  0
LTYPE
  5
11
330
5
100
AcDbSymbolTableRecord
100
AcDbLinetypeTableRecord
  2
BYBLOCK
 70
     0
  3

 72
    65
 73
     0
 40
0.0
  0
LTYPE
  5
12
330
5
100
AcDbSymbolTableRecord
100
AcDbLinetypeTableRecord
  2
BYLAYER
 70
     0
  3

 72
    65
 73
     0
 40
0.0
  0
LTYPE
  5
13
330
5
100
AcDbSymbolTableRecord
100
AcDbLinetypeTableRecord
  2
CONTINUOUS
 70
     0
  3
Solid line
 72
    65
 73
     0
 40
0.0
  0
LTYPE
  5
20
330
5
100
AcDbSymbolTableRecord
100
AcDbLinetypeTableRecord
  2
HIDDEN
 70
     0
  3
__ __ __ __ __ __ __ __ __ __ __ __ __ __ __ __
 72
    65
 73
     2
 40
0.375
 49
0.25
 74
     0
 49
-0.125
 74
     0
  0
ENDTAB
  0
TABLE
  2
LAYER
  5
2
102
{ACAD_XDICTIONARY
360
C95
102
}
330
0
100
AcDbSymbolTable
 70
     5
  0
LAYER
  5
E
102
{ACAD_XDICTIONARY
360
C8A
102
}
330
2
100
AcDbSymbolTableRecord
100
AcDbLayerTableRecord
  2
0
 70
     0
 62
     7
  6
CONTINUOUS
370
    -3
390
B14
  0
LAYER
  5
23
102
{ACAD_XDICTIONARY
360
C8C
102
}
330
2
100
AcDbSymbolTableRecord
100
AcDbLayerTableRecord
  2
2
 70
     0
 62
     2
  6
CONTINUOUS
370
    -3
390
B14
  0
LAYER
  5
24
102
{ACAD_XDICTIONARY
360
C8E
102
}
330
2
100
AcDbSymbolTableRecord
100
AcDbLayerTableRecord
  2
3
 70
     0
 62
     3
  6
CONTINUOUS
370
    -3
390
B14
  0
LAYER
  5
25
102
{ACAD_XDICTIONARY
360
C90
102
}
330
2
100
AcDbSymbolTableRecord
100
AcDbLayerTableRecord
  2
4
 70
     0
 62
     4
  6
CONTINUOUS
370
    -3
390
B14
  0
LAYER
  5
B35
330
2
100
AcDbSymbolTableRecord
100
AcDbLayerTableRecord
  2
Defpoints
 70
     0
 62
     7
  6
CONTINUOUS
290
     0
370
    -3
390
B14
  0
ENDTAB
  0
TABLE
  2
STYLE
  5
3
330
0
100
AcDbSymbolTable
 70
     4
  0
STYLE
  5
F
330
3
100
AcDbSymbolTableRecord
100
AcDbTextStyleTableRecord
  2
STANDARD
 70
     0
 40
0.0
 41
1.0
 50
0.0
 71
     0
 42
0.2
  3
txt
  4

  0
STYLE
  5
1C
330
3
100
AcDbSymbolTableRecord
100
AcDbTextStyleTableRecord
  2
SIMPLEX
 70
     0
 40
0.0
 41
1.0
 50
0.0
 71
     0
 42
0.078
  3
SIMPLEX.shx
  4

  0
STYLE
  5
1E
330
3
100
AcDbSymbolTableRecord
100
AcDbTextStyleTableRecord
  2
T
 70
     0
 40
0.0
 41
1.0
 50
0.0
 71
     0
 42
1.0
  3
ROMI____.PFB
  4

  0
ENDTAB
  0
TABLE
  2
VIEW
  5
6
330
0
100
AcDbSymbolTable
 70
     0
  0
ENDTAB
  0
TABLE
  2
UCS
  5
7
330
0
100
AcDbSymbolTable
 70
     0
  0
ENDTAB
  0
TABLE
  2
APPID
  5
9
330
0
100
AcDbSymbolTable
 70
     3
  0
APPID
  5
10
330
9
100
AcDbSymbolTableRecord
100
AcDbRegAppTableRecord
  2
ACAD
 70
     0
  0
APPID
  5
C9B
330
9
100
AcDbSymbolTableRecord
100
AcDbRegAppTableRecord
  2
ACAD_NAV_VCDISPLAY
 70
     0
  0
APPID
  5
D53
330
9
100
AcDbSymbolTableRecord
100
AcDbRegAppTableRecord
  2
ACAD_MLEADERVER
 70
     0
  0
ENDTAB
  0
TABLE
  2
DIMSTYLE
  5
A
330
0
100
AcDbSymbolTable
 70
     2
100
AcDbDimStyleTable
 71
     1
340
B05
  0
DIMSTYLE
105
B05
102
{ACAD_REACTORS
330
B34
330
B79
330
BE5
330
BD7
102
}
330
A
100
AcDbSymbolTableRecord
100
AcDbDimStyleTableRecord
  2
STANDARD
 70
     0
340
F
  0
ENDTAB
  0
TABLE
  2
BLOCK_RECORD
  5
1
330
0
100
AcDbSymbolTable
 70
     7
  0
BLOCK_RECORD
  5
17
330
1
100
AcDbSymbolTableRecord
100
AcDbBlockTableRecord
  2
*MODEL_SPACE
340
B17
  0
BLOCK_RECORD
  5
14
330
1
100
AcDbSymbolTableRecord
100
AcDbBlockTableRecord
  2
*PAPER_SPACE
340
B18
  0
BLOCK_RECORD
  5
B36
330
1
100
AcDbSymbolTableRecord
100
AcDbBlockTableRecord
  2
*D0
340
0
  0
BLOCK_RECORD
  5
B44
330
1
100
AcDbSymbolTableRecord
100
AcDbBlockTableRecord
  2
*D1
340
0
  0
BLOCK_RECORD
  5
B7A
330
1
100
AcDbSymbolTableRecord
100
AcDbBlockTableRecord
  2
*D2
340
0
  0
BLOCK_RECORD
  5
B88
330
1
100
AcDbSymbolTableRecord
100
AcDbBlockTableRecord
  2
*D3
340
0
  0
BLOCK_RECORD
  5
BD8
330
1
100
AcDbSymbolTableRecord
100
AcDbBlockTableRecord
  2
*D4
340
0
  0
BLOCK_RECORD
  5
BE6
330
1
100
AcDbSymbolTableRecord
100
AcDbBlockTableRecord
  2
*D5
340
0
  0
ENDTAB
  0
ENDSEC
  0
SECTION
  2
BLOCKS
  0
BLOCK
  5
29
330
17
100
AcDbEntity
  8
0
100
AcDbBlockBegin
  2
*MODEL_SPACE
 70
     0
 10
0.0
 20
0.0
 30
0.0
  3
*MODEL_SPACE
  1

  0
ENDBLK
  5
2A
330
17
100
AcDbEntity
  8
0
100
AcDbBlockEnd
  0
BLOCK
  5
27
330
14
100
AcDbEntity
 67
     1
  8
0
100
AcDbBlockBegin
  2
*PAPER_SPACE
 70
     0
 10
0.0
 20
0.0
 30
0.0
  3
*PAPER_SPACE
  1

  0
ENDBLK
  5
28
330
14
100
AcDbEntity
 67
     1
  8
0
100
AcDbBlockEnd
  0
BLOCK
  5
B41
330
B36
100
AcDbEntity
  8
0
100
AcDbBlockBegin
  2
*D0
 70
     1
 10
0.0
 20
0.0
 30
0.0
  3
*D0
  1

  0
LINE
  5
B6F
330
B36
100
AcDbEntity
  8
3
 62
     0
370
    -2
100
AcDbLine
 10
3.031164724796336
 20
2.853322249865231
 30
0.0
 11
3.031164724796336
 21
2.465123741139862
 31
0.0
  0
LINE
  5
B70
330
B36
100
AcDbEntity
  8
3
 62
     0
370
    -2
100
AcDbLine
 10
5.156164724796337
 20
2.853322249865231
 30
0.0
 11
5.156164724796337
 21
2.465123741139862
 31
0.0
  0
LINE
  5
B71
330
B36
100
AcDbEntity
  8
3
 62
     0
370
    -2
100
AcDbLine
 10
3.156164724796336
 20
2.527623741139862
 30
0.0
 11
3.732831391463003
 21
2.527623741139862
 31
0.0
  0
LINE
  5
B72
330
B36
100
AcDbEntity
  8
3
 62
     0
370
    -2
100
AcDbLine
 10
5.031164724796337
 20
2.527623741139862
 30
0.0
 11
4.45449805812967
 21
2.527623741139862
 31
0.0
  0
SOLID
  5
B73
330
B36
100
AcDbEntity
  8
3
 62
     0
100
AcDbTrace
 10
3.156164724796336
 20
2.548457074473195
 30
0.0
 11
3.156164724796336
 21
2.506790407806529
 31
0.0
 12
3.031164724796336
 22
2.527623741139862
 32
0.0
 13
3.031164724796336
 23
2.527623741139862
 33
0.0
  0
SOLID
  5
B74
330
B36
100
AcDbEntity
  8
3
 62
     0
100
AcDbTrace
 10
5.031164724796337
 20
2.548457074473195
 30
0.0
 11
5.031164724796337
 21
2.506790407806529
 31
0.0
 12
5.156164724796337
 22
2.527623741139862
 32
0.0
 13
5.156164724796337
 23
2.527623741139862
 33
0.0
  0
MTEXT
  5
B75
330
B36
100
AcDbEntity
  8
3
 62
     0
100
AcDbMText
 10
4.093664724796337
 20
2.527623741139862
 30
0.0
 40
0.125
 41
0.0
 71
     5
 72
     1
  1
\A1;2 1/8
  7
SIMPLEX
 73
     1
 44
1.0
1001
ACAD
1000
MTEXTBEGIN
1070
    73
1070
     1
1070
    44
1040
1.0
1070
    74
1070
     0
1000
MTEXTEND
  0
POINT
  5
B76
330
B36
100
AcDbEntity
  8
Defpoints
 62
     0
100
AcDbPoint
 10
3.031164724796336
 20
2.915822249865231
 30
0.0
  0
POINT
  5
B77
330
B36
100
AcDbEntity
  8
Defpoints
 62
     0
100
AcDbPoint
 10
5.156164724796337
 20
2.915822249865231
 30
0.0
  0
POINT
  5
B78
330
B36
100
AcDbEntity
  8
Defpoints
 62
     0
100
AcDbPoint
 10
5.156164724796337
 20
2.527623741139862
 30
0.0
  0
ENDBLK
  5
B42
330
B36
100
AcDbEntity
  8
0
100
AcDbBlockEnd
  0
BLOCK
  5
B4F
330
B44
100
AcDbEntity
  8
0
100
AcDbBlockBegin
  2
*D1
 70
     1
 10
0.0
 20
0.0
 30
0.0
  3
*D1
  1

  0
LINE
  5
B65
330
B44
100
AcDbEntity
  8
3
 62
     0
370
    -2
100
AcDbLine
 10
5.218664724796337
 20
2.915822249865231
 30
0.0
 11
5.633215603487029
 21
2.915822249865231
 31
0.0
  0
LINE
  5
B66
330
B44
100
AcDbEntity
  8
3
 62
     0
370
    -2
100
AcDbLine
 10
5.218664724796337
 20
3.290822249865231
 30
0.0
 11
5.633215603487029
 21
3.290822249865231
 31
0.0
  0
LINE
  5
B67
330
B44
100
AcDbEntity
  8
3
 62
     0
370
    -2
100
AcDbLine
 10
5.570715603487029
 20
2.790822249865231
 30
0.0
 11
5.570715603487029
 21
2.665822249865231
 31
0.0
  0
LINE
  5
B68
330
B44
100
AcDbEntity
  8
3
 62
     0
370
    -2
100
AcDbLine
 10
5.570715603487029
 20
3.415822249865231
 30
0.0
 11
5.570715603487029
 21
3.540822249865231
 31
0.0
  0
SOLID
  5
B69
330
B44
100
AcDbEntity
  8
3
 62
     0
100
AcDbTrace
 10
5.549882270153697
 20
2.790822249865231
 30
0.0
 11
5.591548936820363
 21
2.790822249865231
 31
0.0
 12
5.570715603487029
 22
2.915822249865231
 32
0.0
 13
5.570715603487029
 23
2.915822249865231
 33
0.0
  0
SOLID
  5
B6A
330
B44
100
AcDbEntity
  8
3
 62
     0
100
AcDbTrace
 10
5.549882270153697
 20
3.415822249865231
 30
0.0
 11
5.591548936820363
 21
3.415822249865231
 31
0.0
 12
5.570715603487029
 22
3.290822249865231
 32
0.0
 13
5.570715603487029
 23
3.290822249865231
 33
0.0
  0
MTEXT
  5
B6B
330
B44
100
AcDbEntity
  8
3
 62
     0
100
AcDbMText
 10
5.570715603487028
 20
3.103322249865232
 30
0.0
 40
0.125
 41
0.0
 71
     5
 72
     1
  1
\A1;3/8
  7
SIMPLEX
 73
     1
 44
1.0
1001
ACAD
1000
MTEXTBEGIN
1070
    73
1070
     1
1070
    44
1040
1.0
1070
    74
1070
     0
1000
MTEXTEND
  0
POINT
  5
B6C
330
B44
100
AcDbEntity
  8
Defpoints
 62
     0
100
AcDbPoint
 10
5.156164724796337
 20
2.915822249865231
 30
0.0
  0
POINT
  5
B6D
330
B44
100
AcDbEntity
  8
Defpoints
 62
     0
100
AcDbPoint
 10
5.156164724796337
 20
3.290822249865231
 30
0.0
  0
POINT
  5
B6E
330
B44
100
AcDbEntity
  8
Defpoints
 62
     0
100
AcDbPoint
 10
5.570715603487029
 20
3.290822249865231
 30
0.0
  0
ENDBLK
  5
B50
330
B44
100
AcDbEntity
  8
0
100
AcDbBlockEnd
  0
BLOCK
  5
B85
330
B7A
100
AcDbEntity
  8
0
100
AcDbBlockBegin
  2
*D2
 70
     1
 10
0.0
 20
0.0
 30
0.0
  3
*D2
  1

  0
LINE
  5
C80
330
B7A
100
AcDbEntity
  8
3
 62
     0
370
    -2
100
AcDbLine
 10
7.297225690273722
 20
3.290822249865231
 30
0.0
 11
8.012347999885882
 21
3.290822249865231
 31
0.0
  0
LINE
  5
C81
330
B7A
100
AcDbEntity
  8
3
 62
     0
370
    -2
100
AcDbLine
 10
7.484725690273722
 20
2.915822249865231
 30
0.0
 11
8.012347999885882
 21
2.915822249865231
 31
0.0
  0
LINE
  5
C82
330
B7A
100
AcDbEntity
  8
3
 62
     0
370
    -2
100
AcDbLine
 10
7.949847999885883
 20
3.415822249865231
 30
0.0
 11
7.949847999885883
 21
3.540822249865231
 31
0.0
  0
LINE
  5
C83
330
B7A
100
AcDbEntity
  8
3
 62
     0
370
    -2
100
AcDbLine
 10
7.949847999885883
 20
2.790822249865231
 30
0.0
 11
7.949847999885883
 21
2.665822249865231
 31
0.0
  0
MTEXT
  5
C84
330
B7A
100
AcDbEntity
  8
3
 62
     0
100
AcDbMText
 10
8.181762215130959
 20
3.661918762991415
 30
0.0
 40
0.125
 41
0.0
 71
     5
 72
     1
  1
\A1;3/8
  7
SIMPLEX
 73
     1
 44
1.0
1001
ACAD
1000
MTEXTBEGIN
1070
    73
1070
     1
1070
    44
1040
1.0
1070
    74
1070
     0
1000
MTEXTEND
  0
SOLID
  5
C85
330
B7A
100
AcDbEntity
  8
3
 62
     0
100
AcDbTrace
 10
7.929014666552548
 20
3.415822249865231
 30
0.0
 11
7.970681333219214
 21
3.415822249865231
 31
0.0
 12
7.949847999885883
 22
3.290822249865231
 32
0.0
 13
7.949847999885883
 23
3.290822249865231
 33
0.0
  0
SOLID
  5
C86
330
B7A
100
AcDbEntity
  8
3
 62
     0
100
AcDbTrace
 10
7.929014666552548
 20
2.790822249865231
 30
0.0
 11
7.970681333219214
 21
2.790822249865231
 31
0.0
 12
7.949847999885883
 22
2.915822249865231
 32
0.0
 13
7.949847999885883
 23
2.915822249865231
 33
0.0
  0
POINT
  5
C87
330
B7A
100
AcDbEntity
  8
Defpoints
 62
     0
100
AcDbPoint
 10
7.234725690273722
 20
3.290822249865231
 30
0.0
  0
POINT
  5
C88
330
B7A
100
AcDbEntity
  8
Defpoints
 62
     0
100
AcDbPoint
 10
7.422225690273722
 20
2.915822249865231
 30
0.0
  0
POINT
  5
C89
330
B7A
100
AcDbEntity
  8
Defpoints
 62
     0
100
AcDbPoint
 10
7.949847999885883
 20
2.915822249865231
 30
0.0
  0
ENDBLK
  5
B86
330
B7A
100
AcDbEntity
  8
0
100
AcDbBlockEnd
  0
BLOCK
  5
B93
330
B88
100
AcDbEntity
  8
0
100
AcDbBlockBegin
  2
*D3
 70
     1
 10
0.0
 20
0.0
 30
0.0
  3
*D3
  1

  0
LINE
  5
BCB
330
B88
100
AcDbEntity
  8
3
 62
     0
370
    -2
100
AcDbLine
 10
7.190531516449562
 20
3.335016423689391
 30
0.0
 11
6.716234817297795
 21
3.809313122841158
 31
0.0
  0
ARC
  5
BCC
330
B88
100
AcDbEntity
  8
3
 62
     0
370
    -2
100
AcDbCircle
 10
7.23472569027372
 20
3.290822249865231
 30
0.0
 40
0.6707568245292214
100
AcDbArc
 50
113.6140774364131
 51
124.3070387182065
  0
ARC
  5
BCD
330
B88
100
AcDbEntity
  8
3
 62
     0
370
    -2
100
AcDbCircle
 10
7.23472569027372
 20
3.290822249865231
 30
0.0
 40
0.6707568245292214
100
AcDbArc
 50
190.6929612817934
 51
201.3859225635868
  0
ARC
  5
BCE
330
B88
100
AcDbEntity
  8
3
 62
     0
370
    -2
100
AcDbCircle
 10
7.23472569027372
 20
3.290822249865231
 30
0.0
 40
0.6707568245292214
100
AcDbArc
 50
134.9999999999999
 51
180.0
  0
SOLID
  5
BCF
330
B88
100
AcDbEntity
  8
3
 62
     0
100
AcDbTrace
 10
6.869963333107272
 20
3.8288469311255
 30
0.0
 11
6.843374023126932
 21
3.860926826790548
 31
0.0
 12
6.760428991121957
 22
3.765118949017
 32
0.0
 13
6.760428991121957
 23
3.765118949017
 33
0.0
  0
SOLID
  5
BD0
330
B88
100
AcDbEntity
  8
3
 62
     0
100
AcDbTrace
 10
6.554873460276186
 20
3.164424855204008
 30
0.0
 11
6.596358853434868
 21
3.168307285574352
 31
0.0
 12
6.563968865744501
 22
3.290822249865231
 32
0.0
 13
6.563968865744501
 23
3.290822249865231
 33
0.0
  0
MTEXT
  5
BD1
330
B88
100
AcDbEntity
  8
3
 62
     0
100
AcDbMText
 10
6.481057970000428
 20
3.573598135282251
 30
0.0
 40
0.125
 41
0.0
 71
     5
 72
     1
  1
\A1;45°
  7
SIMPLEX
 73
     1
 44
1.0
1001
ACAD
1000
MTEXTBEGIN
1070
    73
1070
     1
1070
    44
1040
1.0
1070
    74
1070
     0
1000
MTEXTEND
  0
POINT
  5
BD2
330
B88
100
AcDbEntity
  8
Defpoints
 62
     0
100
AcDbPoint
 10
6.653833240469634
 20
3.626200662129843
 30
0.0
  0
POINT
  5
BD3
330
B88
100
AcDbEntity
  8
Defpoints
 62
     0
100
AcDbPoint
 10
6.23472569027372
 20
3.290822249865231
 30
0.0
  0
POINT
  5
BD4
330
B88
100
AcDbEntity
  8
Defpoints
 62
     0
100
AcDbPoint
 10
7.23472569027372
 20
3.290822249865231
 30
0.0
  0
POINT
  5
BD5
330
B88
100
AcDbEntity
  8
Defpoints
 62
     0
100
AcDbPoint
 10
7.42222569027372
 20
3.103322249865231
 30
0.0
  0
POINT
  5
BD6
330
B88
100
AcDbEntity
  8
Defpoints
 62
     0
100
AcDbPoint
 10
7.23472569027372
 20
3.290822249865231
 30
0.0
  0
ENDBLK
  5
B94
330
B88
100
AcDbEntity
  8
0
100
AcDbBlockEnd
  0
BLOCK
  5
BE3
330
BD8
100
AcDbEntity
  8
0
100
AcDbBlockBegin
  2
*D4
 70
     1
 10
0.0
 20
0.0
 30
0.0
  3
*D4
  1

  0
LINE
  5
BD9
330
BD8
100
AcDbEntity
  8
3
 62
     0
370
    -2
100
AcDbLine
 10
5.218664724796337
 20
5.948210916016918
 30
0.0
 11
5.626944656240914
 21
5.948210916016918
 31
0.0
  0
LINE
  5
BDA
330
BD8
100
AcDbEntity
  8
3
 62
     0
370
    -2
100
AcDbLine
 10
5.218664724796337
 20
4.573210916016917
 30
0.0
 11
5.626944656240914
 21
4.573210916016917
 31
0.0
  0
LINE
  5
BDB
330
BD8
100
AcDbEntity
  8
3
 62
     0
370
    -2
100
AcDbLine
 10
5.564444656240914
 20
5.823210916016918
 30
0.0
 11
5.564444656240914
 21
5.445949011255013
 31
0.0
  0
LINE
  5
BDC
330
BD8
100
AcDbEntity
  8
3
 62
     0
370
    -2
100
AcDbLine
 10
5.564444656240914
 20
4.698210916016917
 30
0.0
 11
5.564444656240914
 21
5.075472820778823
 31
0.0
  0
SOLID
  5
BDD
330
BD8
100
AcDbEntity
  8
3
 62
     0
100
AcDbTrace
 10
5.543611322907582
 20
5.823210916016918
 30
0.0
 11
5.585277989574247
 21
5.823210916016918
 31
0.0
 12
5.564444656240914
 22
5.948210916016918
 32
0.0
 13
5.564444656240914
 23
5.948210916016918
 33
0.0
  0
SOLID
  5
BDE
330
BD8
100
AcDbEntity
  8
3
 62
     0
100
AcDbTrace
 10
5.543611322907582
 20
4.698210916016917
 30
0.0
 11
5.585277989574247
 21
4.698210916016917
 31
0.0
 12
5.564444656240914
 22
4.573210916016917
 32
0.0
 13
5.564444656240914
 23
4.573210916016917
 33
0.0
  0
MTEXT
  5
BDF
330
BD8
100
AcDbEntity
  8
3
 62
     0
100
AcDbMText
 10
5.564444656240914
 20
5.260710916016918
 30
0.0
 40
0.125
 41
0.0
 71
     5
 72
     1
  1
\A1;1 3/8
  7
SIMPLEX
 73
     1
 44
1.0
1001
ACAD
1000
MTEXTBEGIN
1070
    73
1070
     1
1070
    44
1040
1.0
1070
    74
1070
     0
1000
MTEXTEND
  0
POINT
  5
BE0
330
BD8
100
AcDbEntity
  8
Defpoints
 62
     0
100
AcDbPoint
 10
5.156164724796337
 20
5.948210916016918
 30
0.0
  0
POINT
  5
BE1
330
BD8
100
AcDbEntity
  8
Defpoints
 62
     0
100
AcDbPoint
 10
5.156164724796337
 20
4.573210916016917
 30
0.0
  0
POINT
  5
BE2
330
BD8
100
AcDbEntity
  8
Defpoints
 62
     0
100
AcDbPoint
 10
5.564444656240914
 20
4.573210916016917
 30
0.0
  0
ENDBLK
  5
BE4
330
BD8
100
AcDbEntity
  8
0
100
AcDbBlockEnd
  0
BLOCK
  5
BF1
330
BE6
100
AcDbEntity
  8
0
100
AcDbBlockBegin
  2
*D5
 70
     1
 10
0.0
 20
0.0
 30
0.0
  3
*D5
  1

  0
LINE
  5
C07
330
BE6
100
AcDbEntity
  8
3
 62
     0
370
    -2
100
AcDbLine
 10
2.968664724796336
 20
2.915822249865232
 30
0.0
 11
2.619582271153602
 21
2.915822249865232
 31
0.0
  0
LINE
  5
C08
330
BE6
100
AcDbEntity
  8
3
 62
     0
370
    -2
100
AcDbLine
 10
2.968664724796336
 20
2.931822249865232
 30
0.0
 11
2.619582271153602
 21
2.931822249865232
 31
0.0
  0
LINE
  5
C09
330
BE6
100
AcDbEntity
  8
3
 62
     0
370
    -2
100
AcDbLine
 10
2.682082271153602
 20
2.790822249865232
 30
0.0
 11
2.682082271153602
 21
2.665822249865232
 31
0.0
  0
LINE
  5
C0A
330
BE6
100
AcDbEntity
  8
3
 62
     0
370
    -2
100
AcDbLine
 10
2.682082271153602
 20
3.056822249865232
 30
0.0
 11
2.682082271153602
 21
3.181822249865232
 31
0.0
  0
MTEXT
  5
C0B
330
BE6
100
AcDbEntity
  8
3
 62
     0
100
AcDbMText
 10
2.67103872393283
 20
3.308636252154747
 30
0.0
 40
0.125
 41
0.0
 71
     5
 72
     1
  1
\A1;.016
  7
SIMPLEX
 73
     1
 44
1.0
1001
ACAD
1000
MTEXTBEGIN
1070
    73
1070
     1
1070
    44
1040
1.0
1070
    74
1070
     0
1000
MTEXTEND
  0
SOLID
  5
C0C
330
BE6
100
AcDbEntity
  8
3
 62
     0
100
AcDbTrace
 10
2.661248937820269
 20
2.790822249865232
 30
0.0
 11
2.702915604486936
 21
2.790822249865232
 31
0.0
 12
2.682082271153602
 22
2.915822249865232
 32
0.0
 13
2.682082271153602
 23
2.915822249865232
 33
0.0
  0
SOLID
  5
C0D
330
BE6
100
AcDbEntity
  8
3
 62
     0
100
AcDbTrace
 10
2.661248937820269
 20
3.056822249865232
 30
0.0
 11
2.702915604486936
 21
3.056822249865232
 31
0.0
 12
2.682082271153602
 22
2.931822249865232
 32
0.0
 13
2.682082271153602
 23
2.931822249865232
 33
0.0
  0
POINT
  5
C0E
330
BE6
100
AcDbEntity
  8
Defpoints
 62
     0
100
AcDbPoint
 10
3.031164724796336
 20
2.915822249865231
 30
0.0
  0
POINT
  5
C0F
330
BE6
100
AcDbEntity
  8
Defpoints
 62
     0
100
AcDbPoint
 10
3.031164724796336
 20
2.931822249865232
 30
0.0
  0
POINT
  5
C10
330
BE6
100
AcDbEntity
  8
Defpoints
 62
     0
100
AcDbPoint
 10
2.682082271153602
 20
2.931822249865232
 30
0.0
  0
ENDBLK
  5
BF2
330
BE6
100
AcDbEntity
  8
0
100
AcDbBlockEnd
  0
ENDSEC
  0
SECTION
  2
ENTITIES
  0
LINE
  5
2D
330
17
100
AcDbEntity
  8
0
100
AcDbLine
 10
5.030927540495336
 20
1.581522982138519
 30
0.0
 11
6.046907417275479
 21
1.581522982138519
 31
0.0
  0
LINE
  5
2E
330
17
100
AcDbEntity
  8
0
100
AcDbLine
 10
5.030927540495336
 20
1.698751429459288
 30
0.0
 11
6.046907417275479
 21
1.698751429459288
 31
0.0
  0
TEXT
  5
2F
330
17
100
AcDbEntity
  8
3
100
AcDbText
 10
5.061498189592095
 20
1.617010761484773
 30
0.0
 40
0.0495371109926942
  1
DIMENSIONS ARE IN INCHES
 41
0.9163641132346455
  7
SIMPLEX
 72
     5
 11
6.01477283611965
 21
1.617010761484773
 31
0.0
100
AcDbText
  0
TEXT
  5
31
330
17
100
AcDbEntity
  8
3
100
AcDbText
 10
5.061498189592095
 20
1.737244711247941
 30
0.0
 40
0.0495371109926942
  1
UNLESS OTHERWISE SPECIFIED
 41
0.8436671689696851
  7
SIMPLEX
 72
     5
 11
6.01477283611965
 21
1.737244711247941
 31
0.0
100
AcDbText
  0
LINE
  5
32
330
17
100
AcDbEntity
  8
0
100
AcDbLine
 10
5.030927540495336
 20
0.940730428956474
 30
0.0
 11
6.046907417275479
 21
0.940730428956474
 31
0.0
  0
LINE
  5
33
330
17
100
AcDbEntity
  8
0
100
AcDbLine
 10
5.030927540495336
 20
1.816000699999956
 30
0.0
 11
10.175
 21
1.816000699999956
 31
0.0
  0
LINE
  5
36
330
17
100
AcDbEntity
  8
4
100
AcDbLine
 10
11.05
 20
-0.0000000000000013
 30
0.0
 11
0.0
 21
0.0
 31
0.0
  0
LINE
  5
37
330
17
100
AcDbEntity
  8
4
100
AcDbLine
 10
10.175
 20
0.799999999999999
 30
0.0
 11
0.8750000000000001
 21
0.8
 31
0.0
  0
LINE
  5
38
330
17
100
AcDbEntity
  8
4
100
AcDbLine
 10
10.175
 20
7.699999999999998
 30
0.0
 11
0.8750000000000001
 21
7.699999999999998
 31
0.0
  0
LINE
  5
39
330
17
100
AcDbEntity
  8
4
100
AcDbLine
 10
0.0
 20
0.0
 30
0.0
 11
0.0000000000000002
 21
8.499999999999998
 31
0.0
  0
LINE
  5
3A
330
17
100
AcDbEntity
  8
4
100
AcDbLine
 10
0.8750000000000001
 20
0.7999999999999999
 30
0.0
 11
0.8750000000000001
 21
7.699999999999998
 31
0.0
  0
LINE
  5
3F
330
17
100
AcDbEntity
  8
3
100
AcDbLine
 10
0.999508247262103
 20
1.971874999999999
 30
0.0
 11
0.8750000000000001
 21
1.971874999999999
 31
0.0
  0
TEXT
  5
40
330
17
100
AcDbEntity
  8
2
100
AcDbText
 10
0.9031253662046617
 20
2.654509031615021
 30
0.0
 40
0.078
  1
4
  7
SIMPLEX
 72
     1
 11
0.9309825090618046
 21
2.654509031615021
 31
0.0
100
AcDbText
  0
LINE
  5
41
330
17
100
AcDbEntity
  8
3
100
AcDbLine
 10
0.999508247262103
 20
3.403906249999999
 30
0.0
 11
0.8750000000000001
 21
3.403906249999999
 31
0.0
  0
TEXT
  5
42
330
17
100
AcDbEntity
  8
2
100
AcDbText
 10
0.9049825090618027
 20
4.030574231773566
 30
0.0
 40
0.078
  1
3
  7
SIMPLEX
 72
     1
 11
0.9309825090618028
 21
4.030574231773566
 31
0.0
100
AcDbText
  0
LINE
  5
43
330
17
100
AcDbEntity
  8
4
100
AcDbLine
 10
5.030927540495336
 20
1.816000699999956
 30
0.0
 11
5.030927540495336
 21
0.7999999999999563
 31
0.0
  0
TEXT
  5
4F
330
17
100
AcDbEntity
  8
3
100
AcDbText
 10
5.207290074512327
 20
0.9675806143738499
 30
0.0
 40
0.0618196890168171
  1
HOLES %%P .005
  7
SIMPLEX
 72
     1
 11
5.542882672032191
 21
0.9675806143738499
 31
0.0
100
AcDbText
  0
TEXT
  5
50
330
17
100
AcDbEntity
  8
3
100
AcDbText
 10
5.297950889448269
 20
0.8780150085737686
 30
0.0
 40
0.0420373885314357
  1
DO NOT SCALE
  7
SIMPLEX
 72
     1
 11
5.534160977386813
 21
0.8780150085737686
 31
0.0
100
AcDbText
  0
TEXT
  5
51
330
17
100
AcDbEntity
  8
3
100
AcDbText
 10
5.26191884213561
 20
0.8181221239476908
 30
0.0
 40
0.0420373885314357
  1
READ ALL NOTES
  7
SIMPLEX
 72
     1
 11
5.534160977386813
 21
0.8181221239476908
 31
0.0
100
AcDbText
  0
TEXT
  5
52
330
17
100
AcDbEntity
  8
3
100
AcDbText
 10
5.255862687311254
 20
1.487547199255823
 30
0.0
 40
0.0618196890168171
  1
TOLERANCES
  7
SIMPLEX
 72
     1
 11
5.542882672032191
 21
1.487547199255823
 31
0.0
100
AcDbText
  0
TEXT
  5
53
330
17
100
AcDbEntity
  8
3
100
AcDbText
 10
5.286772531819663
 20
1.391487053346329
 30
0.0
 40
0.0618196890168171
  1
.XX %%P .010
  7
SIMPLEX
 72
     1
 11
5.542882672032191
 21
1.391487053346329
 31
0.0
100
AcDbText
  0
TEXT
  5
54
330
17
100
AcDbEntity
  8
3
100
AcDbText
 10
5.214649561300043
 20
1.285510443603197
 30
0.0
 40
0.0618196890168171
  1
.XXX %%P .005 
  7
SIMPLEX
 72
     1
 11
5.542882672032191
 21
1.285510443603197
 31
0.0
100
AcDbText
  0
TEXT
  5
55
330
17
100
AcDbEntity
  8
3
100
AcDbText
 10
5.179324024719004
 20
1.073557224116979
 30
0.0
 40
0.0618196890168171
  1
ANGLES %%P 1/2%%D
  7
SIMPLEX
 72
     1
 11
5.542882672032191
 21
1.073557224116979
 31
0.0
100
AcDbText
  0
TEXT
  5
56
330
17
100
AcDbEntity
  8
3
100
AcDbText
 10
5.089538285908865
 20
1.17953383386011
 30
0.0
 40
0.0618196890168171
  1
FRACTIONS %%P 1/32
  7
SIMPLEX
 72
     1
 11
5.542882672032191
 21
1.17953383386011
 31
0.0
100
AcDbText
  0
LINE
  5
59
330
17
100
AcDbEntity
  8
3
100
AcDbLine
 10
0.999508247262103
 20
4.8359375
 30
0.0
 11
0.8750000000000001
 21
4.8359375
 31
0.0
  0
TEXT
  5
5A
330
17
100
AcDbEntity
  8
2
100
AcDbText
 10
0.9155696056437514
 20
5.457521318574992
 30
0.0
 40
0.078
  1
2
  7
SIMPLEX
 72
     1
 11
0.9415696056437516
 21
5.457521318574992
 31
0.0
100
AcDbText
  0
LINE
  5
5B
330
17
100
AcDbEntity
  8
3
100
AcDbLine
 10
0.999508247262103
 20
6.267968749999998
 30
0.0
 11
0.8750000000000001
 21
6.267968749999998
 31
0.0
  0
TEXT
  5
5C
330
17
100
AcDbEntity
  8
2
100
AcDbText
 10
0.9216967947760903
 20
6.896081873965398
 30
0.0
 40
0.078
  1
1
  7
SIMPLEX
 72
     1
 11
0.9309825090618046
 21
6.896081873965398
 31
0.0
100
AcDbText
  0
TEXT
  5
5D
330
17
100
AcDbEntity
  8
2
100
AcDbText
 10
1.846604119492712
 20
7.572559019520411
 30
0.0
 40
0.078
  1
A
  7
SIMPLEX
 72
     1
 11
1.876318405206998
 21
7.572559019520411
 31
0.0
100
AcDbText
  0
LINE
  5
5E
330
17
100
AcDbEntity
  8
3
100
AcDbLine
 10
2.632019757010883
 20
7.575126224606082
 30
0.0
 11
2.632019757010883
 21
7.7
 31
0.0
  0
TEXT
  5
5F
330
17
100
AcDbEntity
  8
2
100
AcDbText
 10
3.369640262201778
 20
7.572559019520411
 30
0.0
 40
0.078
  1
B
  7
SIMPLEX
 72
     1
 11
3.395640262201778
 21
7.572559019520411
 31
0.0
100
AcDbText
  0
LINE
  5
60
330
17
100
AcDbEntity
  8
3
100
AcDbLine
 10
4.140615805608705
 20
7.575126224606082
 30
0.0
 11
4.140615805608705
 21
7.7
 31
0.0
  0
TEXT
  5
61
330
17
100
AcDbEntity
  8
2
100
AcDbText
 10
4.843383484051793
 20
7.572559019520411
 30
0.0
 40
0.078
  1
C
  7
SIMPLEX
 72
     1
 11
4.871240626908936
 21
7.572559019520411
 31
0.0
100
AcDbText
  0
LINE
  5
62
330
17
100
AcDbEntity
  8
3
100
AcDbLine
 10
5.649211854206527
 20
7.575126224606082
 30
0.0
 11
5.649211854206527
 21
7.7
 31
0.0
  0
LINE
  5
63
330
17
100
AcDbEntity
  8
4
100
AcDbLine
 10
11.04999999999999
 20
8.5
 30
0.0
 11
11.05
 21
-0.0000000000000013
 31
0.0
  0
LINE
  5
64
330
17
100
AcDbEntity
  8
4
100
AcDbLine
 10
10.175
 20
7.699999999999998
 30
0.0
 11
10.175
 21
0.8000000000000005
 31
0.0
  0
TEXT
  5
65
330
17
100
AcDbEntity
  8
4
100
AcDbText
 10
9.385786919138793
 20
1.577369927989766
 30
0.0
 40
0.094
  1
inc., erie, pa.
  7
T
100
AcDbText
  0
TEXT
  5
67
330
17
100
AcDbEntity
  8
3
100
AcDbText
 10
9.604944096898279
 20
1.15613944390253
 30
0.0
 40
0.0390761491069264
  1
SCALE:
  7
SIMPLEX
100
AcDbText
  0
TEXT
  5
68
330
17
100
AcDbEntity
  8
3
100
AcDbText
 10
9.054043579781854
 20
0.8589523399345065
 30
0.0
 40
0.0875305739995151
  1
2620.69
  7
SIMPLEX
 72
     1
 11
9.310383117923292
 21
0.8589523399345065
 31
0.0
100
AcDbText
  0
LINE
  5
69
330
17
100
AcDbEntity
  8
0
100
AcDbLine
 10
8.773484695253902
 20
1.088837136489871
 30
0.0
 11
10.175
 21
1.088837136489871
 31
0.0
  0
LINE
  5
6A
330
17
100
AcDbEntity
  8
0
100
AcDbLine
 10
6.046907417275437
 20
1.506851047390887
 30
0.0
 11
10.175
 21
1.506851047390887
 31
0.0
  0
LINE
  5
6B
330
17
100
AcDbEntity
  8
0
100
AcDbLine
 10
6.046907417275437
 20
1.268913789283077
 30
0.0
 11
10.175
 21
1.268913789283077
 31
0.0
  0
LWPOLYLINE
  5
6C
330
17
100
AcDbEntity
  8
4
  6
Continuous
 62
     4
100
AcDbPolyline
 90
      205
 70
     0
 43
0.0
 10
9.31357977936965
 20
1.711439166089896
 10
9.309674777331995
 20
1.71548879783264
 10
9.305480515884076
 20
1.719104540460119
 10
9.300707735615846
 20
1.722286393972286
 10
9.29564569593735
 20
1.725178988074276
 10
9.290294396848725
 20
1.727493063355868
 10
9.284798468054923
 20
1.729373249522151
 10
9.279013279850984
 20
1.730819546573125
 10
9.273083461941958
 20
1.731831954508831
 10
9.2670090143278
 20
1.732265843624141
 10
9.26093456671364
 20
1.73241047332923
 10
9.254860119099486
 20
1.732121213919053
 10
9.248785671485324
 20
1.731253435688435
 10
9.242855853576255
 20
1.72995176834255
 10
9.237070665372275
 20
1.728216211881355
 10
9.231574736578556
 20
1.726046766304895
 10
9.226223437489846
 20
1.723443431613081
 10
9.2221738057471
 20
1.7209847266264
 10
9.218413433414539
 20
1.718236762229542
 10
9.214797690787056
 20
1.715344168127551
 10
9.21147120756976
 20
1.712162314615384
 10
9.208289354057635
 20
1.708691201692995
 10
9.205396759955599
 20
1.70493082936043
 10
9.202648795558744
 20
1.701170457027864
 10
9.200334720277151
 20
1.697120825285078
 10
9.198165274700693
 20
1.692926563837203
 10
9.196285088534406
 20
1.688587672684239
 10
9.194838791483432
 20
1.684248781531274
 10
9.193681753842636
 20
1.679765260673221
 10
9.192813975612015
 20
1.675137110110036
 10
9.192235456791616
 20
1.670508959546895
 10
9.192090827086532
 20
1.665880808983711
 10
9.192380086496752
 20
1.66125265842057
 10
9.192524716201836
 20
1.658793953433889
 10
9.192813975612015
 20
1.656479878152296
 10
9.193103235022196
 20
1.654021173165616
 10
9.193681753842636
 20
1.651707097884024
 10
9.19454953207321
 20
1.649537652307521
 10
9.195561940008881
 20
1.647512836436149
 10
9.19715286676498
 20
1.645921909680044
 10
9.199033052931266
 20
1.64476487203929
 10
9.199900831161883
 20
1.64433098292398
 10
9.200768609392456
 20
1.644041723513759
 10
9.201781017328167
 20
1.644041723513759
 10
9.202648795558744
 20
1.644041723513759
 10
9.203661203494448
 20
1.644041723513759
 10
9.204673611430155
 20
1.644186353218891
 10
9.205830649070952
 20
1.64447561262907
 10
9.207132316416835
 20
1.644620242334158
 10
9.25008733883121
 20
1.652140986999332
 10
9.251967524997496
 20
1.65243024640951
 10
9.253992340868862
 20
1.652574876114599
 10
9.25587252703519
 20
1.65286413552482
 10
9.257897342906519
 20
1.65286413552482
 10
9.259777529072843
 20
1.653008765229909
 10
9.261802344944216
 20
1.653008765229909
 10
9.263682531110504
 20
1.65286413552482
 10
9.265707346981916
 20
1.652719505819731
 10
9.267587533148155
 20
1.652574876114599
 10
9.26961234901957
 20
1.652285616704421
 10
9.271492535185851
 20
1.6519963572942
 10
9.273372721352135
 20
1.651562468178934
 10
9.275252907518419
 20
1.651128579063625
 10
9.2771330936847
 20
1.650694689948315
 10
9.279013279850984
 20
1.650116171127917
 10
9.280748836312179
 20
1.64939302260243
 10
9.285087727465183
 20
1.64707894732084
 10
9.288703470092618
 20
1.64389709380867
 10
9.291306804784431
 20
1.640136721476106
 10
9.293186990950671
 20
1.635797830323141
 10
9.294199398886382
 20
1.631314309465088
 10
9.294344028591472
 20
1.626541529196815
 10
9.293765509771112
 20
1.621768748928543
 10
9.292319212720096
 20
1.616995968660269
 10
9.29087291566908
 20
1.613958744853189
 10
9.289281988913018
 20
1.6110661507512
 10
9.287257173041606
 20
1.608462816059429
 10
9.285087727465183
 20
1.606004111072748
 10
9.282773652183596
 20
1.603690035791156
 10
9.280170317491782
 20
1.601665219919785
 10
9.277277723389792
 20
1.59992966345859
 10
9.274385129287843
 20
1.598338736702529
 10
9.271347905480761
 20
1.5970370693566
 10
9.268310681673684
 20
1.596169291126025
 10
9.264984198456382
 20
1.595446142600539
 10
9.261802344944216
 20
1.595012253485229
 10
9.258620491432052
 20
1.59486762378014
 10
9.25529400821475
 20
1.595156883190318
 10
9.252112154702583
 20
1.595735402010715
 10
9.248930301190412
 20
1.596747809946423
 10
9.246326966498642
 20
1.59776021788213
 10
9.243868261511966
 20
1.598917255522884
 10
9.241409556525283
 20
1.600074293163681
 10
9.239095481243689
 20
1.601520590214696
 10
9.236781405962098
 20
1.60296688726567
 10
9.234611960385599
 20
1.604557814021774
 10
9.232587144514264
 20
1.606293370482969
 10
9.23041769893776
 20
1.608173556649251
 10
9.228537512771435
 20
1.610053742815534
 10
9.226657326605199
 20
1.611933928981819
 10
9.224777140438868
 20
1.613958744853189
 10
9.223041583977721
 20
1.616128190429694
 10
9.221306027516483
 20
1.618297636006154
 10
9.219715100760419
 20
1.620467081582658
 10
9.218124174004362
 20
1.622636527159118
 10
9.216677876953344
 20
1.62495060244071
 10
9.182256007139807
 20
1.608173556649251
 10
9.185003971536666
 20
1.603690035791156
 10
9.188185825048837
 20
1.599495774343282
 10
9.19165693797122
 20
1.595590772305626
 10
9.195417310303787
 20
1.592119659383239
 10
9.199466942046576
 20
1.588793176165983
 10
9.203805833199542
 20
1.585900582063993
 10
9.208433983762724
 20
1.583297247372223
 10
9.213062134325863
 20
1.581127801795718
 10
9.217979544299266
 20
1.579247615629436
 10
9.223041583977721
 20
1.577656688873372
 10
9.228248253361259
 20
1.576499651232578
 10
9.233454922744801
 20
1.57577650270709
 10
9.23866159212838
 20
1.57534261359178
 10
9.243868261511966
 20
1.57534261359178
 10
9.249074930895506
 20
1.575631873001958
 10
9.254281600279043
 20
1.576499651232578
 10
9.259488269662668
 20
1.577656688873372
 10
9.264550309341119
 20
1.579392245334524
 10
9.269323089609393
 20
1.581417061205939
 10
9.274095869877623
 20
1.58387576619262
 10
9.278579390735675
 20
1.58676836029461
 10
9.282918281888683
 20
1.589950213806779
 10
9.286823283926334
 20
1.593421326729123
 10
9.290583656258903
 20
1.597181699061732
 10
9.294054769181288
 20
1.601231330804475
 10
9.297091992988368
 20
1.60557022195744
 10
9.299839957385273
 20
1.610053742815534
 10
9.302298662371908
 20
1.614826523083809
 10
9.304178848538192
 20
1.61974393305717
 10
9.305769775294296
 20
1.624805972735621
 10
9.306926812935095
 20
1.630012642119161
 10
9.307505331755493
 20
1.635219311502743
 10
9.30779459116567
 20
1.63926894324553
 10
9.30764996146058
 20
1.643318574988273
 10
9.307216072345315
 20
1.64736820673106
 10
9.306492923819781
 20
1.651273208768714
 10
9.30533588617899
 20
1.655178210806413
 10
9.303889589128015
 20
1.658938583138977
 10
9.302154032666823
 20
1.662554325766454
 10
9.29998458709036
 20
1.6660254386888
 10
9.298249030629124
 20
1.668194884265303
 10
9.296368844462882
 20
1.670364329841764
 10
9.294344028591472
 20
1.67224451600809
 10
9.292174583015011
 20
1.673835442764153
 10
9.289715878028282
 20
1.675426369520257
 10
9.287257173041606
 20
1.676872666571232
 10
9.284653838349836
 20
1.678029704212027
 10
9.282050503658062
 20
1.679186741852824
 10
9.279302539261202
 20
1.680054520083399
 10
9.276554574864302
 20
1.680922298314017
 10
9.273661980762316
 20
1.681645446839504
 10
9.270769386660363
 20
1.682223965659902
 10
9.267876792558377
 20
1.682657854775212
 10
9.264984198456382
 20
1.682947114185389
 10
9.262091604354438
 20
1.683236373595566
 10
9.259343639957537
 20
1.683381003300699
 10
9.257608083496343
 20
1.683381003300699
 10
9.255727897330059
 20
1.683381003300699
 10
9.253992340868862
 20
1.683381003300699
 10
9.252256784407716
 20
1.683236373595566
 10
9.250521227946482
 20
1.683091743890478
 10
9.248785671485324
 20
1.682947114185389
 10
9.247050115024132
 20
1.682802484480301
 10
9.245314558562938
 20
1.68251322507008
 10
9.243434372396656
 20
1.682223965659902
 10
9.24169881593546
 20
1.681934706249682
 10
9.239963259474267
 20
1.681645446839504
 10
9.238227703013071
 20
1.681500817134416
 10
9.23649214655192
 20
1.681211557724195
 10
9.234756590090723
 20
1.680922298314017
 10
9.232876403924445
 20
1.680633038903798
 10
9.231140847463253
 20
1.68034377949362
 10
9.20525213025051
 20
1.673980072469241
 10
9.204818241135246
 20
1.676438777455921
 10
9.205107500545423
 20
1.680199149788531
 10
9.205975278776042
 20
1.684827300351673
 10
9.207710835237193
 20
1.690033969735254
 10
9.209880280813695
 20
1.695240639118794
 10
9.212772874915684
 20
1.700158049092156
 10
9.216243987838034
 20
1.704207680834944
 10
9.220148989875733
 20
1.707244904642021
 10
9.223620102798076
 20
1.708835831398085
 10
9.227235845425553
 20
1.710137498744011
 10
9.230996217758116
 20
1.710860647269498
 10
9.234901219795821
 20
1.711439166089896
 10
9.238806221833515
 20
1.711583795794985
 10
9.242855853576255
 20
1.711294536384765
 10
9.246760855613914
 20
1.710860647269498
 10
9.250665857651608
 20
1.70999286903888
 10
9.254570859689264
 20
1.708835831398085
 10
9.25818660231674
 20
1.707389534347111
 10
9.261657715239087
 20
1.705653977885917
 10
9.264984198456382
 20
1.703773791719633
 10
9.268021422263462
 20
1.701604346143174
 10
9.270914016365452
 20
1.699145641156492
 10
9.273372721352135
 20
1.696542306464679
 10
9.275397537223547
 20
1.693794342067821
 10
9.31357977936965
 20
1.711439166089896
  0
LWPOLYLINE
  5
13B
330
17
100
AcDbEntity
  8
4
  6
Continuous
100
AcDbPolyline
 90
       21
 70
     0
 43
0.0
 10
8.913785433678865
 20
1.697843973810564
 10
8.913351544563514
 20
1.693360452952511
 10
8.912049877217629
 20
1.689166191504638
 10
8.910025061346257
 20
1.685550448877159
 10
8.907277096949352
 20
1.682368595364992
 10
8.903950613732142
 20
1.679765260673221
 10
8.900190241399535
 20
1.67788507450694
 10
8.896140609656747
 20
1.676728036866141
 10
8.891801718503824
 20
1.676294147750834
 10
8.862731147778918
 20
1.676294147750834
 10
8.862731147778918
 20
1.713463981961269
 10
8.8596939239718
 20
1.720550837511135
 10
8.89223560761909
 20
1.720550837511135
 10
8.896719128477187
 20
1.720116948395824
 10
8.90076876021993
 20
1.718815281049939
 10
8.904384502847404
 20
1.716790465178525
 10
8.907566356359618
 20
1.714042500781666
 10
8.91016969105139
 20
1.710571387859278
 10
8.912049877217629
 20
1.706811015526713
 10
8.913351544563514
 20
1.702472124373748
 10
8.913785433678865
 20
1.697843973810564
  0
LWPOLYLINE
  5
152
330
17
100
AcDbEntity
  8
4
  6
Continuous
100
AcDbPolyline
 90
       61
 70
     0
 43
0.0
 10
8.914508582204312
 20
1.665157660458224
 10
8.918702843652226
 20
1.665446919868402
 10
8.922752475394972
 20
1.6660254386888
 10
8.926368218022448
 20
1.66689321691942
 10
8.929694701239702
 20
1.668050254560215
 10
8.932587295341697
 20
1.669496551611189
 10
8.935335259738554
 20
1.671087478367294
 10
8.937793964725234
 20
1.672967664533576
 10
8.939963410301738
 20
1.675137110110036
 10
8.941843596468064
 20
1.677451185391629
 10
8.943434523224127
 20
1.67990989037831
 10
8.944736190570015
 20
1.68251322507008
 10
8.945748598505717
 20
1.68540581917207
 10
8.946616376736292
 20
1.688298413274061
 10
8.947194895556695
 20
1.691335637081139
 10
8.947484154966867
 20
1.694517490593308
 10
8.947628784671998
 20
1.697843973810564
 10
8.947484154966867
 20
1.700881197617643
 10
8.946905636146517
 20
1.703918421424723
 10
8.946182487620982
 20
1.706811015526713
 10
8.945025449980192
 20
1.709703609628704
 10
8.943723782634304
 20
1.712451574025561
 10
8.941988226173149
 20
1.715054908717375
 10
8.940252669711917
 20
1.717513613704054
 10
8.938083224135453
 20
1.719827688985605
 10
8.935913778558994
 20
1.72185250485702
 10
8.933455073572309
 20
1.723732691023301
 10
8.930851738880543
 20
1.725323617779364
 10
8.92810377448364
 20
1.726769914830381
 10
8.925355810086742
 20
1.727926952471176
 10
8.922463215984793
 20
1.728650100996664
 10
8.919425992177668
 20
1.729228619817063
 10
8.916388768370635
 20
1.729373249522151
 10
8.815003345096274
 20
1.729373249522151
 10
8.816449642147247
 20
1.728216211881355
 10
8.817751309493132
 20
1.727059174240558
 10
8.819052976839017
 20
1.725757506894673
 10
8.820210014479814
 20
1.724600469253878
 10
8.821367052120612
 20
1.723443431613081
 10
8.822524089761403
 20
1.721997134562109
 10
8.823536497697114
 20
1.720550837511135
 10
8.824548905632777
 20
1.718815281049939
 10
8.825995202683794
 20
1.715633427537771
 10
8.82715224032459
 20
1.711873055205163
 10
8.827875388850035
 20
1.708257312577686
 10
8.828164648260255
 20
1.705364718475738
 10
8.828309277965383
 20
1.57534261359178
 10
8.863165036894187
 20
1.605859481367659
 10
8.863165036894187
 20
1.666170068393933
 10
8.878495785634713
 20
1.666314698099021
 10
8.930707109175411
 20
1.579826134449833
 10
8.975686947461156
 20
1.579536875039656
 10
8.972938983064299
 20
1.581127801795718
 10
8.970191018667437
 20
1.583007987962003
 10
8.967587683975667
 20
1.584888174128328
 10
8.965128978988987
 20
1.587057619704788
 10
8.962670274002308
 20
1.589082435576159
 10
8.960356198720715
 20
1.591396510857753
 10
8.958042123439122
 20
1.593710586139343
 10
8.955728048157531
 20
1.596169291126025
 10
8.914508582204312
 20
1.665157660458224
  0
LWPOLYLINE
  5
191
330
17
100
AcDbEntity
  8
4
  6
Continuous
100
AcDbPolyline
 90
      205
 70
     0
 43
0.0
 10
8.651456341485436
 20
1.712451574025561
 10
8.647551339447781
 20
1.716501205768349
 10
8.643357077999905
 20
1.720261578100914
 10
8.638584297731632
 20
1.723443431613081
 10
8.633522258053181
 20
1.726191396009983
 10
8.628170958964512
 20
1.728505471291575
 10
8.622675030170752
 20
1.730385657457857
 10
8.616745212261726
 20
1.731831954508831
 10
8.610815394352659
 20
1.73284436244454
 10
8.604885576443585
 20
1.733422881264938
 10
8.598811128829431
 20
1.733567510970026
 10
8.592592051510184
 20
1.733133621854716
 10
8.586662233601114
 20
1.73241047332923
 10
8.580732415692043
 20
1.731108805983344
 10
8.574947227488106
 20
1.729373249522151
 10
8.56945129869435
 20
1.727059174240558
 10
8.564099999605719
 20
1.724455839548789
 10
8.560050367862887
 20
1.721997134562109
 10
8.556289995530324
 20
1.719393799870339
 10
8.552674252902846
 20
1.71635657606326
 10
8.549347769685589
 20
1.713174722551091
 10
8.546165916173421
 20
1.709703609628704
 10
8.543273322071478
 20
1.706087867001226
 10
8.54066998737966
 20
1.702182864963571
 10
8.538211282392976
 20
1.698133233220785
 10
8.536186466521606
 20
1.694083601477997
 10
8.534306280355284
 20
1.689744710325034
 10
8.532859983304309
 20
1.685261189466983
 10
8.531702945663511
 20
1.680777668608928
 10
8.530835167432936
 20
1.676294147750834
 10
8.530401278317629
 20
1.671665997187693
 10
8.530112018907452
 20
1.66689321691942
 10
8.530401278317629
 20
1.662265066356234
 10
8.530545908022716
 20
1.659950991074643
 10
8.530835167432936
 20
1.65749228608796
 10
8.531124426843156
 20
1.655178210806413
 10
8.531702945663511
 20
1.65286413552482
 10
8.532426094189045
 20
1.650694689948315
 10
8.533583131829839
 20
1.648669874076944
 10
8.535029428880815
 20
1.64707894732084
 10
8.536909615047097
 20
1.645921909680044
 10
8.537777393277671
 20
1.645488020564777
 10
8.538645171508289
 20
1.645198761154555
 10
8.539657579443996
 20
1.645054131449468
 10
8.540525357674527
 20
1.645054131449468
 10
8.54153776561024
 20
1.645198761154555
 10
8.542550173545944
 20
1.645198761154555
 10
8.543562581481655
 20
1.645488020564777
 10
8.544864248827536
 20
1.645632650269865
 10
8.587819271241906
 20
1.653153394934998
 10
8.589699457408237
 20
1.653442654345217
 10
8.591724273279567
 20
1.653731913755396
 10
8.593604459445892
 20
1.653876543460484
 10
8.595629275317262
 20
1.654021173165616
 10
8.597509461483543
 20
1.654021173165616
 10
8.599534277354957
 20
1.654021173165616
 10
8.601414463521201
 20
1.654021173165616
 10
8.603439279392611
 20
1.653876543460484
 10
8.605319465558856
 20
1.653731913755396
 10
8.607344281430272
 20
1.653442654345217
 10
8.609224467596551
 20
1.653153394934998
 10
8.611104653762836
 20
1.652719505819731
 10
8.613129469634252
 20
1.652285616704421
 10
8.615009655800529
 20
1.651707097884024
 10
8.616745212261726
 20
1.651128579063625
 10
8.618625398427964
 20
1.650405430538139
 10
8.622964289580972
 20
1.648091355256545
 10
8.626435402503362
 20
1.644909501744379
 10
8.629183366900218
 20
1.641149129411813
 10
8.630918923361374
 20
1.636954867963938
 10
8.631931331297082
 20
1.632326717400753
 10
8.6322205907073
 20
1.627553937132479
 10
8.631642071886902
 20
1.62278115686425
 10
8.630195774835929
 20
1.618153006301065
 10
8.628749477784952
 20
1.615115782493986
 10
8.627158551028808
 20
1.612223188391996
 10
8.625133735157476
 20
1.609619853700226
 10
8.622964289580972
 20
1.607161148713544
 10
8.620505584594294
 20
1.604847073431954
 10
8.617902249902524
 20
1.602822257560581
 10
8.615154285505621
 20
1.601086701099386
 10
8.612261691403631
 20
1.599495774343282
 10
8.609224467596551
 20
1.598194106997396
 10
8.606042614084383
 20
1.597181699061732
 10
8.602860760572214
 20
1.596458550536203
 10
8.599678907060049
 20
1.596169291126025
 10
8.596352423842747
 20
1.596024661420935
 10
8.593025940625446
 20
1.596313920831114
 10
8.589844087113322
 20
1.596892439651511
 10
8.586662233601114
 20
1.59776021788213
 10
8.584058898909347
 20
1.598772625817794
 10
8.581600193922664
 20
1.59992966345859
 10
8.579286118641071
 20
1.601086701099386
 10
8.576972043359475
 20
1.60253299815036
 10
8.574657968077929
 20
1.603979295201376
 10
8.572488522501425
 20
1.605714851662571
 10
8.570319076924967
 20
1.607305778418635
 10
8.56829426105355
 20
1.609185964584917
 10
8.566414074887266
 20
1.6110661507512
 10
8.564389259015896
 20
1.613090966622613
 10
8.562653702554701
 20
1.615115782493986
 10
8.560918146093509
 20
1.617140598365359
 10
8.55918258963236
 20
1.61931004394186
 10
8.557591662876253
 20
1.621624119223453
 10
8.556000736120147
 20
1.623793564799914
 10
8.554554439069171
 20
1.626107640081506
 10
8.520277198960723
 20
1.609185964584917
 10
8.523025163357587
 20
1.604702443726864
 10
8.526207016869797
 20
1.600652811984077
 10
8.529678129792136
 20
1.596747809946423
 10
8.533438502124706
 20
1.593132067318946
 10
8.537488133867494
 20
1.589950213806779
 10
8.541827025020458
 20
1.587057619704788
 10
8.546310545878508
 20
1.584454285013019
 10
8.551083326146784
 20
1.582284839436514
 10
8.556000736120147
 20
1.580404653270232
 10
8.560918146093509
 20
1.578813726514169
 10
8.566124815477046
 20
1.577656688873372
 10
8.571331484860627
 20
1.576788910642755
 10
8.576538154244211
 20
1.576355021527489
 10
8.581744823627751
 20
1.576355021527489
 10
8.586951493011332
 20
1.576788910642755
 10
8.592158162394872
 20
1.577512059168241
 10
8.597364831778456
 20
1.578813726514169
 10
8.602426871456906
 20
1.580404653270232
 10
8.607199651725178
 20
1.582429469141646
 10
8.611972431993454
 20
1.585032803833416
 10
8.616455952851504
 20
1.587780768230274
 10
8.620650214299384
 20
1.590962621742443
 10
8.624699846042121
 20
1.594433734664831
 10
8.628460218374737
 20
1.598338736702529
 10
8.631786701591988
 20
1.602388368445271
 10
8.634968555104201
 20
1.606582629893147
 10
8.637716519501058
 20
1.611210780456331
 10
8.640030594782651
 20
1.615983560724561
 10
8.642055410654021
 20
1.620756340992834
 10
8.643646337410128
 20
1.625818380671329
 10
8.644803375050923
 20
1.631025050054868
 10
8.645381893871277
 20
1.636376349143541
 10
8.645526523576371
 20
1.640425980886284
 10
8.645381893871277
 20
1.64447561262907
 10
8.644948004756013
 20
1.648380614666725
 10
8.644224856230481
 20
1.65243024640951
 10
8.643067818589727
 20
1.656190618742076
 10
8.641766151243801
 20
1.659950991074643
 10
8.640030594782651
 20
1.663566733702118
 10
8.637861149206152
 20
1.667037846624506
 10
8.636125592744999
 20
1.6693519219061
 10
8.634245406578671
 20
1.671376737777471
 10
8.6322205907073
 20
1.673256923943755
 10
8.629906515425709
 20
1.67499248040495
 10
8.627592440144159
 20
1.676583407161054
 10
8.625133735157476
 20
1.67788507450694
 10
8.622530400465661
 20
1.679186741852824
 10
8.619782436068764
 20
1.680199149788531
 10
8.617034471671901
 20
1.681211557724195
 10
8.614286507275046
 20
1.681934706249682
 10
8.611393913173056
 20
1.682657854775212
 10
8.608645948776151
 20
1.683236373595566
 10
8.605753354674206
 20
1.683670262710878
 10
8.602860760572214
 20
1.683959522121098
 10
8.59996816647023
 20
1.684248781531274
 10
8.597220202073366
 20
1.684393411236363
 10
8.595484645612168
 20
1.684538040941494
 10
8.593604459445892
 20
1.684538040941494
 10
8.591868902984696
 20
1.684393411236363
 10
8.590133346523504
 20
1.684393411236363
 10
8.588397790062307
 20
1.684248781531274
 10
8.586517603896023
 20
1.684104151826186
 10
8.584782047434874
 20
1.683814892415965
 10
8.583046490973638
 20
1.683670262710878
 10
8.581310934512483
 20
1.683381003300699
 10
8.579575378051249
 20
1.683091743890478
 10
8.577695191885009
 20
1.682802484480301
 10
8.575959635423814
 20
1.68251322507008
 10
8.574224078962622
 20
1.682223965659902
 10
8.572488522501425
 20
1.681934706249682
 10
8.570608336335144
 20
1.681645446839504
 10
8.568872779873951
 20
1.681356187429285
 10
8.543128692366343
 20
1.675137110110036
 10
8.542550173545944
 20
1.677595815096719
 10
8.542839432956121
 20
1.681356187429285
 10
8.543851840891829
 20
1.685984337992469
 10
8.545442767647934
 20
1.69119100737605
 10
8.547756842929484
 20
1.69639767675959
 10
8.55064943703152
 20
1.701315086732953
 10
8.553975920248772
 20
1.705364718475738
 10
8.557880922286427
 20
1.708401942282819
 10
8.561352035208816
 20
1.70999286903888
 10
8.564967777836251
 20
1.711149906679676
 10
8.568728150168857
 20
1.712017684910295
 10
8.572633152206559
 20
1.712451574025561
 10
8.576538154244211
 20
1.712596203730694
 10
8.580587785986956
 20
1.712451574025561
 10
8.584492788024611
 20
1.711873055205163
 10
8.588397790062307
 20
1.711005276974589
 10
8.592302792100007
 20
1.709848239333791
 10
8.595918534727484
 20
1.708401942282819
 10
8.599534277354957
 20
1.706811015526713
 10
8.602860760572214
 20
1.70493082936043
 10
8.605897984379296
 20
1.702761383783926
 10
8.608645948776151
 20
1.700302678797245
 10
8.611104653762836
 20
1.697699344105475
 10
8.613274099339339
 20
1.694951379708617
 10
8.651456341485436
 20
1.712451574025561
  0
LWPOLYLINE
  5
260
330
17
100
AcDbEntity
  8
4
  6
Continuous
100
AcDbPolyline
 90
      133
 70
     0
 43
0.0
 10
8.684411380195115
 20
1.722575653382506
 10
8.681952675208439
 20
1.719972318690735
 10
8.679638599926843
 20
1.716935094883656
 10
8.677613784055472
 20
1.713753241371446
 10
8.67544433847901
 20
1.710426758154189
 10
8.673274892902508
 20
1.707244904642021
 10
8.670960817620915
 20
1.704063051129853
 10
8.668646742339323
 20
1.701170457027864
 10
8.665898777942462
 20
1.698711752041183
 10
8.664886370006755
 20
1.697988603515695
 10
8.663873962071049
 20
1.697265454990167
 10
8.662861554135343
 20
1.696542306464679
 10
8.661849146199678
 20
1.695819157939193
 10
8.660836738264011
 20
1.695096009413705
 10
8.659679700623218
 20
1.694372860888218
 10
8.658522662982424
 20
1.693649712362732
 10
8.657076365931406
 20
1.692926563837203
 10
8.709576948882368
 20
1.692926563837203
 10
8.707262873600775
 20
1.691046377670919
 10
8.705093428024268
 20
1.689166191504638
 10
8.703068612152858
 20
1.687286005338354
 10
8.701043796281531
 20
1.685261189466983
 10
8.699163610115203
 20
1.683091743890478
 10
8.697283423948919
 20
1.680922298314017
 10
8.695547867487725
 20
1.678752852737515
 10
8.693956940731659
 20
1.676438777455921
 10
8.692221384270425
 20
1.673980072469241
 10
8.690775087219451
 20
1.671376737777471
 10
8.689328790168481
 20
1.668628773380613
 10
8.687882493117506
 20
1.665880808983711
 10
8.686436196066534
 20
1.662843585176631
 10
8.685134528720602
 20
1.659806361369554
 10
8.683832861374717
 20
1.656479878152296
 10
8.682675823733918
 20
1.653008765229909
 10
8.68065100786255
 20
1.645343390859645
 10
8.679493970221752
 20
1.637678016489424
 10
8.679349340516669
 20
1.629868012414071
 10
8.68007248904211
 20
1.622058008338719
 10
8.681663415798261
 20
1.614537263673589
 10
8.684266750490028
 20
1.607161148713544
 10
8.687593233707326
 20
1.600218922868811
 10
8.691932124860247
 20
1.593855215844433
 10
8.694101570436753
 20
1.591251881152663
 10
8.696560275423433
 20
1.588793176165983
 10
8.699308239820293
 20
1.5863344711793
 10
8.702345463627413
 20
1.584165025602798
 10
8.705382687434447
 20
1.581995580026338
 10
8.708709170651751
 20
1.579970764154922
 10
8.712180283574138
 20
1.578235207693771
 10
8.715796026201616
 20
1.576644280937665
 10
8.71941176882909
 20
1.575197983886691
 10
8.723172141161658
 20
1.573896316540808
 10
8.726787883789132
 20
1.5728839086051
 10
8.7305482561217
 20
1.572160760079612
 10
8.734308628454268
 20
1.571582241259215
 10
8.737924371081742
 20
1.571437611554084
 10
8.74154011370922
 20
1.571437611554084
 10
8.745011226631563
 20
1.571726870964304
 10
8.74935011778453
 20
1.572450019489791
 10
8.753689008937538
 20
1.57331779772041
 10
8.757883270385367
 20
1.574474835361205
 10
8.761932902128112
 20
1.57592113241218
 10
8.765982533870943
 20
1.577512059168241
 10
8.769742906203507
 20
1.579392245334524
 10
8.773503278536072
 20
1.581561690911028
 10
8.776829761753328
 20
1.584020395897709
 10
8.780156244970587
 20
1.58676836029461
 10
8.78304883907262
 20
1.589660954396558
 10
8.78579680346948
 20
1.592842807908768
 10
8.78825550845616
 20
1.596313920831114
 10
8.790424954032662
 20
1.600074293163681
 10
8.792160510493815
 20
1.603979295201376
 10
8.793606807544787
 20
1.60831818635434
 10
8.794763845185585
 20
1.612801707212395
 10
8.79158199167346
 20
1.610053742815534
 10
8.78825550845616
 20
1.607595037828854
 10
8.784639765828682
 20
1.605280962547261
 10
8.781024023201206
 20
1.603400776380979
 10
8.77726365086864
 20
1.601665219919785
 10
8.773358648830985
 20
1.600218922868811
 10
8.769309017088199
 20
1.599061885228015
 10
8.765259385345412
 20
1.598194106997396
 10
8.761209753602667
 20
1.597615588176999
 10
8.757015492154792
 20
1.59747095847191
 10
8.752965860412007
 20
1.59747095847191
 10
8.748916228669266
 20
1.597904847587218
 10
8.744866596926476
 20
1.598627996112706
 10
8.740961594888776
 20
1.599785033753502
 10
8.737056592851125
 20
1.601231330804475
 10
8.733296220518557
 20
1.60296688726567
 10
8.729680477891081
 20
1.605280962547261
 10
8.726353994673782
 20
1.607739667533943
 10
8.723316770866746
 20
1.610632261635934
 10
8.720424176764757
 20
1.613669485443013
 10
8.717965471778075
 20
1.617140598365359
 10
8.715651396496481
 20
1.620611711287746
 10
8.7137712103302
 20
1.624372083620311
 10
8.712035653869005
 20
1.62827708565801
 10
8.71058935681799
 20
1.632326717400753
 10
8.709576948882368
 20
1.636376349143541
 10
8.708709170651751
 20
1.640570610591415
 10
8.708130651831311
 20
1.644909501744379
 10
8.70784139242113
 20
1.649103763192254
 10
8.70784139242113
 20
1.653442654345217
 10
8.708130651831311
 20
1.657781545498181
 10
8.708709170651751
 20
1.661975806946056
 10
8.710300097407813
 20
1.66689321691942
 10
8.712035653869005
 20
1.671232108072381
 10
8.713915840035287
 20
1.675281739815126
 10
8.716085285611793
 20
1.679042112147735
 10
8.718399360893386
 20
1.682657854775212
 10
8.721147325290242
 20
1.685984337992469
 10
8.724329178802456
 20
1.689455450914858
 10
8.72794492142993
 20
1.692781934132113
 10
8.755424565398687
 20
1.692781934132113
 10
8.757015492154792
 20
1.692781934132113
 10
8.758895678321076
 20
1.693071193542333
 10
8.760920494192447
 20
1.693360452952511
 10
8.76294531006382
 20
1.69393897177291
 10
8.764970125935231
 20
1.694517490593308
 10
8.766705682396388
 20
1.695385268823884
 10
8.768296609152535
 20
1.696253047054502
 10
8.769453646793285
 20
1.697410084695298
 10
8.795776253121292
 20
1.72951787922724
 10
8.700899166576396
 20
1.72951787922724
 10
8.698151202179499
 20
1.729373249522151
 10
8.695837126897902
 20
1.729228619817063
 10
8.693667681321441
 20
1.728794730701753
 10
8.691787495155161
 20
1.728071582176266
 10
8.689907308988876
 20
1.727203803945648
 10
8.688171752527683
 20
1.726046766304895
 10
8.686291566361401
 20
1.724455839548789
 10
8.684411380195115
 20
1.722575653382506
  0
LWPOLYLINE
  5
2E7
330
17
100
AcDbEntity
  8
4
  6
Continuous
100
AcDbPolyline
 90
      138
 70
     0
 43
0.0
 10
8.458797282318855
 20
1.72951787922724
 10
8.461834506125931
 20
1.72734843365078
 10
8.464293211112611
 20
1.724889728664098
 10
8.466318026983984
 20
1.722141764267196
 10
8.467764324034959
 20
1.719249170165206
 10
8.468921361675757
 20
1.716211946358128
 10
8.469644510201288
 20
1.713030092845959
 10
8.470078399316552
 20
1.709558979923614
 10
8.470223029021642
 20
1.705943237296136
 10
8.470223029021642
 20
1.597326328766821
 10
8.467619694329872
 20
1.597326328766821
 10
8.465016359638099
 20
1.59747095847191
 10
8.462413024946329
 20
1.59776021788213
 10
8.459954319959649
 20
1.598194106997396
 10
8.457350985267879
 20
1.598772625817794
 10
8.4548922802812
 20
1.599495774343282
 10
8.452433575294515
 20
1.6003635525739
 10
8.450119500012924
 20
1.601231330804475
 10
8.447660795026244
 20
1.602388368445271
 10
8.445346719744655
 20
1.603545406086069
 10
8.443177274168148
 20
1.604847073431954
 10
8.441007828591686
 20
1.606293370482969
 10
8.438838383015188
 20
1.607884297239032
 10
8.436668937438721
 20
1.609475223995138
 10
8.434644121567313
 20
1.611210780456331
 10
8.432763935401068
 20
1.612946336917484
 10
8.429437452183773
 20
1.616272820134781
 10
8.426400228376692
 20
1.61988856276226
 10
8.423652263979793
 20
1.623648935094825
 10
8.42119355899311
 20
1.627698566837611
 10
8.419024113416647
 20
1.631892828285444
 10
8.417288556955451
 20
1.63608708973332
 10
8.415842259904477
 20
1.640570610591415
 10
8.414829851968772
 20
1.645054131449468
 10
8.414251333148374
 20
1.649248392897342
 10
8.413817444033067
 20
1.653442654345217
 10
8.413817444033067
 20
1.657781545498181
 10
8.414106703443245
 20
1.661975806946056
 10
8.414685222263683
 20
1.666170068393933
 10
8.415553000494258
 20
1.670364329841764
 10
8.416854667840187
 20
1.674413961584551
 10
8.41859022430134
 20
1.678318963622248
 10
8.419891891647225
 20
1.680777668608928
 10
8.42119355899311
 20
1.683236373595566
 10
8.422495226338995
 20
1.685550448877159
 10
8.423941523390007
 20
1.687864524158752
 10
8.425243190735898
 20
1.690178599440343
 10
8.42668948778691
 20
1.692348045016804
 10
8.428280414542975
 20
1.694517490593308
 10
8.429871341299037
 20
1.696542306464679
 10
8.431462268055183
 20
1.698711752041183
 10
8.433053194811247
 20
1.700736567912555
 10
8.4347887512724
 20
1.702761383783926
 10
8.436524307733638
 20
1.704786199655341
 10
8.438404493899877
 20
1.706666385821623
 10
8.4402846800662
 20
1.708691201692995
 10
8.442164866232442
 20
1.710571387859278
 10
8.444189682103857
 20
1.712596203730694
 10
8.445925238565049
 20
1.714621019602065
 10
8.447082276205803
 20
1.716790465178525
 10
8.447805424731331
 20
1.718959910755029
 10
8.447950054436422
 20
1.721129356331533
 10
8.447805424731331
 20
1.723298801907994
 10
8.447371535616067
 20
1.725468247484496
 10
8.446648387090537
 20
1.727493063355868
 10
8.445635979154829
 20
1.72951787922724
 10
8.393713915024347
 20
1.72951787922724
 10
8.394870952665147
 20
1.728505471291575
 10
8.396027990305945
 20
1.727493063355868
 10
8.397185027946697
 20
1.72648065542016
 10
8.398342065587495
 20
1.725323617779364
 10
8.399354473523157
 20
1.724166580138611
 10
8.400366881458865
 20
1.722864912792684
 10
8.401234659689482
 20
1.721563245446799
 10
8.40210243792006
 20
1.720261578100914
 10
8.403837994381252
 20
1.71635657606326
 10
8.404705772611871
 20
1.712162314615384
 10
8.404705772611871
 20
1.707823423462419
 10
8.404127253791433
 20
1.703484532309456
 10
8.402970216150638
 20
1.698856381746271
 10
8.401090029984393
 20
1.694372860888218
 10
8.398920584407891
 20
1.690178599440343
 10
8.39646187942121
 20
1.686128967697558
 10
8.393858544729441
 20
1.682079335954813
 10
8.39111058033254
 20
1.678174333917116
 10
8.388362615935637
 20
1.674124702174372
 10
8.385903910948957
 20
1.670075070431586
 10
8.383879095077627
 20
1.6660254386888
 10
8.382143538616389
 20
1.661975806946056
 10
8.380841871270504
 20
1.657636915793093
 10
8.3798294633348
 20
1.653298024640086
 10
8.379250944514442
 20
1.648959133487123
 10
8.378961685104265
 20
1.64447561262907
 10
8.378961685104265
 20
1.639992091771016
 10
8.379395574219531
 20
1.635508570912921
 10
8.37997409303993
 20
1.632615976810973
 10
8.380552611860327
 20
1.629723382708983
 10
8.381420390090946
 20
1.626830788606993
 10
8.382432798026611
 20
1.624082824210135
 10
8.383589835667407
 20
1.621334859813233
 10
8.384891503013289
 20
1.618731525121464
 10
8.386193170359177
 20
1.615983560724561
 10
8.387784097115281
 20
1.61352485573788
 10
8.389375023871345
 20
1.6110661507512
 10
8.39111058033254
 20
1.608607445764518
 10
8.392990766498822
 20
1.606293370482969
 10
8.395015582370236
 20
1.603979295201376
 10
8.397040398241607
 20
1.601809849624874
 10
8.399065214112976
 20
1.599640404048414
 10
8.401234659689482
 20
1.597615588176999
 10
8.403548734971073
 20
1.595735402010715
 10
8.406152069662839
 20
1.593710586139343
 10
8.409044663764792
 20
1.591830399973061
 10
8.411937257866826
 20
1.590094843511868
 10
8.414974481673862
 20
1.588503916755763
 10
8.418156335186072
 20
1.587057619704788
 10
8.421338188698197
 20
1.585755952358903
 10
8.4246646719155
 20
1.584454285013019
 10
8.427991155132797
 20
1.58344187707731
 10
8.43131763835005
 20
1.582574098846736
 10
8.434644121567313
 20
1.581706320616116
 10
8.438115234489696
 20
1.580983172090629
 10
8.441586347412087
 20
1.580549282975321
 10
8.444912830629339
 20
1.580115393860054
 10
8.448383943551732
 20
1.579826134449833
 10
8.45171042676899
 20
1.579536875039656
 10
8.455036909986286
 20
1.579536875039656
 10
8.503487861194424
 20
1.579536875039656
 10
8.503487861194424
 20
1.711294536384765
 10
8.503487861194424
 20
1.713608611666358
 10
8.503487861194424
 20
1.715922686947949
 10
8.503777120604642
 20
1.71838139193463
 10
8.504211009719906
 20
1.720840096921311
 10
8.505078787950527
 20
1.723154172202904
 10
8.506235825591321
 20
1.725323617779364
 10
8.507971382052469
 20
1.727493063355868
 10
8.510285457334063
 20
1.72951787922724
 10
8.458797282318855
 20
1.72951787922724
  0
LWPOLYLINE
  5
373
330
17
100
AcDbEntity
  8
4
  6
Continuous
100
AcDbPolyline
 90
       21
 70
     0
 43
0.0
 10
8.980253526839886
 20
1.72951787922724
 10
8.983001491236743
 20
1.728071582176266
 10
8.985315566518337
 20
1.726336025715071
 10
8.98734038238971
 20
1.724311209843699
 10
8.988786679440725
 20
1.721997134562109
 10
8.989943717081523
 20
1.719393799870339
 10
8.990811495312097
 20
1.716645835473436
 10
8.991245384427408
 20
1.713608611666358
 10
8.991390014132493
 20
1.710426758154189
 10
8.991390014132493
 20
1.579536875039656
 10
9.026968921586828
 20
1.579536875039656
 10
9.026968921586828
 20
1.710860647269498
 10
9.027113551291911
 20
1.713897871076579
 10
9.027836699817443
 20
1.716501205768349
 10
9.02870447804802
 20
1.719104540460119
 10
9.030150775098991
 20
1.721418615741709
 10
9.031741701855098
 20
1.723588061318213
 10
9.033766517726473
 20
1.725757506894673
 10
9.035935963302927
 20
1.727637693060958
 10
9.038539297994743
 20
1.72951787922724
 10
8.980253526839886
 20
1.72951787922724
  0
LWPOLYLINE
  5
38A
330
17
100
AcDbEntity
  8
4
  6
Continuous
100
AcDbPolyline
 90
       73
 70
     0
 43
0.0
 10
7.721811722549055
 20
1.616995968660269
 10
7.724270427535735
 20
1.615549671609294
 10
7.72629524340715
 20
1.613669485443013
 10
7.728030799868299
 20
1.611355410161419
 10
7.729332467214187
 20
1.60875207546965
 10
7.730055615739717
 20
1.605859481367659
 10
7.730200245444803
 20
1.60296688726567
 10
7.729766356329538
 20
1.600218922868811
 10
7.728609318688741
 20
1.59747095847191
 10
7.727307651342856
 20
1.595880031715847
 10
7.726005983996928
 20
1.594433734664831
 10
7.724415057240824
 20
1.593132067318946
 10
7.722679500779673
 20
1.591975029678149
 10
7.720799314613348
 20
1.591107251447573
 10
7.718774498742018
 20
1.590384102922087
 10
7.716605053165513
 20
1.589950213806779
 10
7.714435607589012
 20
1.589805584101689
 10
7.661645765227913
 20
1.589805584101689
 10
7.690137817132377
 20
1.613958744853189
 10
7.691873373593614
 20
1.615549671609294
 10
7.693175040939504
 20
1.617140598365359
 10
7.694332078580255
 20
1.618586895416375
 10
7.695055227105743
 20
1.620033192467349
 10
7.69563374592618
 20
1.621479489518321
 10
7.695923005336361
 20
1.623070416274428
 10
7.696212264746537
 20
1.624516713325401
 10
7.696212264746537
 20
1.626107640081506
 10
7.696212264746537
 20
1.721997134562109
 10
7.695923005336361
 20
1.724021950433479
 10
7.695344486515959
 20
1.726046766304895
 10
7.694332078580255
 20
1.727637693060958
 10
7.693030411234371
 20
1.729083990111973
 10
7.691439484478266
 20
1.730241027752726
 10
7.689703928017111
 20
1.731108805983344
 10
7.687679112145696
 20
1.731687324803742
 10
7.685654296274329
 20
1.731831954508831
 10
7.654414279972961
 20
1.731831954508831
 10
7.656583725549462
 20
1.729662508932371
 10
7.658463911715701
 20
1.727637693060958
 10
7.660054838471807
 20
1.725323617779364
 10
7.661356505817734
 20
1.723009542497814
 10
7.662513543458491
 20
1.720406207806003
 10
7.663236691983977
 20
1.717658243409144
 10
7.663670581099284
 20
1.714476389896977
 10
7.663815210804417
 20
1.710860647269498
 10
7.663815210804417
 20
1.610776891341021
 10
7.638071123296767
 20
1.579536875039656
 10
7.735406914828344
 20
1.579536875039656
 10
7.736997841584449
 20
1.579681504744745
 10
7.738733398045646
 20
1.579826134449833
 10
7.740324324801707
 20
1.580115393860054
 10
7.742059881262942
 20
1.580693912680453
 10
7.743795437724094
 20
1.58127243150085
 10
7.745386364480199
 20
1.581995580026338
 10
7.746977291236309
 20
1.582718728551824
 10
7.748568217992367
 20
1.583586506782399
 10
7.750159144748432
 20
1.584598914718107
 10
7.751605441799447
 20
1.585611322653813
 10
7.753051738850462
 20
1.58676836029461
 10
7.754498035901432
 20
1.587925397935364
 10
7.755655073542232
 20
1.589082435576159
 10
7.756956740888117
 20
1.590384102922087
 10
7.757969148823825
 20
1.591685770267972
 10
7.758981556759489
 20
1.592987437613856
 10
7.761295632041078
 20
1.597615588176999
 10
7.762741929092097
 20
1.602822257560581
 10
7.763465077617546
 20
1.608607445764518
 10
7.763320447912452
 20
1.614537263673589
 10
7.762308039976747
 20
1.620177822172438
 10
7.760572483515595
 20
1.62538449155602
 10
7.758113778528914
 20
1.629723382708983
 10
7.754787295311611
 20
1.633049865926239
 10
7.721811722549055
 20
1.616995968660269
  0
LWPOLYLINE
  5
3D5
330
17
100
AcDbEntity
  8
4
  6
Continuous
100
AcDbPolyline
 90
       21
 70
     0
 43
0.0
 10
8.046968334053016
 20
1.729228619817063
 10
8.00878609190687
 20
1.729228619817063
 10
8.010666278073195
 20
1.727926952471176
 10
8.012546464239438
 20
1.726191396009983
 10
8.014426650405761
 20
1.724455839548789
 10
8.016017577161829
 20
1.722431023677418
 10
8.01746387421284
 20
1.720406207806003
 10
8.018620911853595
 20
1.718092132524454
 10
8.019344060379124
 20
1.715778057242861
 10
8.019633319789306
 20
1.71331935225618
 10
8.019633319789306
 20
1.580115393860054
 10
8.055646116358985
 20
1.580115393860054
 10
8.055646116358985
 20
1.720550837511135
 10
8.055501486653856
 20
1.722575653382506
 10
8.055067597538549
 20
1.724311209843699
 10
8.054199819307967
 20
1.725757506894673
 10
8.053187411372306
 20
1.727059174240558
 10
8.051885744026378
 20
1.727926952471176
 10
8.050439446975406
 20
1.728650100996664
 10
8.048848520219296
 20
1.729083990111973
 10
8.046968334053016
 20
1.729228619817063
  0
LWPOLYLINE
  5
3EC
330
17
100
AcDbEntity
  8
4
  6
Continuous
100
AcDbPolyline
 90
      133
 70
     0
 43
0.0
 10
7.896098949464771
 20
1.731976584213922
 10
7.865292822278714
 20
1.731976584213922
 10
7.867462267855219
 20
1.729662508932371
 10
7.869342454021456
 20
1.72734843365078
 10
7.870788751072473
 20
1.725034358369186
 10
7.872090418418355
 20
1.722864912792684
 10
7.87310282635407
 20
1.720695467216224
 10
7.87382597487955
 20
1.71852602163972
 10
7.874404493699952
 20
1.716211946358169
 10
7.874549123405042
 20
1.713897871076579
 10
7.874549123405042
 20
1.634930052092523
 10
7.871945788713272
 20
1.635219311502743
 10
7.869197824316371
 20
1.635653200618053
 10
7.866594489624603
 20
1.63608708973332
 10
7.863846525227738
 20
1.636665608553718
 10
7.861243190535971
 20
1.637388757079245
 10
7.858495226139068
 20
1.638111905604734
 10
7.855891891447257
 20
1.63897968383531
 10
7.853288556755487
 20
1.639847462065885
 10
7.850829851768807
 20
1.640859870001592
 10
7.848226517077036
 20
1.642016907642388
 10
7.845912441795443
 20
1.643173945283185
 10
7.843453736808765
 20
1.64447561262907
 10
7.841139661527172
 20
1.645921909680044
 10
7.83882558624558
 20
1.64736820673106
 10
7.83665614066912
 20
1.649103763192254
 10
7.834631324797746
 20
1.650839319653405
 10
7.830870952465178
 20
1.654599691986014
 10
7.827544469247881
 20
1.658793953433889
 10
7.824651875145934
 20
1.663277474291941
 10
7.822048540454119
 20
1.668194884265303
 10
7.820023724582749
 20
1.673112294238666
 10
7.818288168121553
 20
1.678463593327336
 10
7.81713113048076
 20
1.683814892415965
 10
7.816407981955271
 20
1.689310821209725
 10
7.815974092840003
 20
1.694806750003485
 10
7.815974092840003
 20
1.700447308502377
 10
7.816552611660362
 20
1.705943237296136
 10
7.817420389890981
 20
1.711439166089896
 10
7.818722057236866
 20
1.716935094883656
 10
7.820602243403147
 20
1.722141764267196
 10
7.82277168897961
 20
1.72720380394569
 10
7.825375023671377
 20
1.731976584213922
 10
7.785891114179393
 20
1.731976584213922
 10
7.782998520077445
 20
1.722720283087595
 10
7.780973704206028
 20
1.713753241371446
 10
7.779961296270324
 20
1.704786199655341
 10
7.779816666565236
 20
1.696253047054502
 10
7.780395185385632
 20
1.687864524158752
 10
7.781986112141741
 20
1.67990989037831
 10
7.78430018742333
 20
1.67224451600809
 10
7.787337411230367
 20
1.664868401048004
 10
7.791242413268022
 20
1.658070804908359
 10
7.795725934126113
 20
1.651562468178934
 10
7.800932603509657
 20
1.645632650269865
 10
7.806717791713642
 20
1.640136721476106
 10
7.813226128443062
 20
1.635363941207832
 10
7.820312983992928
 20
1.631025050054868
 10
7.82783372865806
 20
1.627409307427391
 10
7.835932992143628
 20
1.624372083620311
 10
7.838247067425224
 20
1.623648935094825
 10
7.840705772411903
 20
1.623070416274428
 10
7.843164477398583
 20
1.622491897454029
 10
7.845767812090353
 20
1.621913378633631
 10
7.848226517077036
 20
1.621479489518321
 10
7.850829851768807
 20
1.621190230108144
 10
7.853288556755487
 20
1.620756340992834
 10
7.855891891447257
 20
1.620611711287746
 10
7.85835059643394
 20
1.620322451877568
 10
7.860809301420619
 20
1.620177822172438
 10
7.863268006407299
 20
1.620033192467349
 10
7.865582081688893
 20
1.620033192467349
 10
7.867896156970482
 20
1.620033192467349
 10
7.870065602546989
 20
1.620033192467349
 10
7.872235048123491
 20
1.620177822172438
 10
7.874259863994822
 20
1.620322451877568
 10
7.874259863994822
 20
1.604991703137041
 10
7.858495226139068
 20
1.596169291126025
 10
7.855313372626901
 20
1.595446142600539
 10
7.852131519114687
 20
1.595012253485229
 10
7.848949665602525
 20
1.595012253485229
 10
7.846057071500535
 20
1.595446142600539
 10
7.843019847693494
 20
1.596024661420935
 10
7.840271883296598
 20
1.5970370693566
 10
7.837668548604824
 20
1.598338736702529
 10
7.835065213913015
 20
1.599785033753502
 10
7.832606508926332
 20
1.601520590214696
 10
7.830292433644737
 20
1.603400776380979
 10
7.82812298806828
 20
1.60557022195744
 10
7.826098172196906
 20
1.607739667533943
 10
7.824217986030582
 20
1.610198372520624
 10
7.822482429569432
 20
1.612657077507304
 10
7.820891502813366
 20
1.615115782493986
 10
7.819589835467485
 20
1.617719117185755
 10
7.791820932088463
 20
1.604847073431954
 10
7.793122599434346
 20
1.602388368445271
 10
7.794713526190409
 20
1.59992966345859
 10
7.796304452946511
 20
1.597326328766821
 10
7.798040009407706
 20
1.59486762378014
 10
7.800064825279079
 20
1.592408918793458
 10
7.802089641150452
 20
1.589950213806779
 10
7.804403716432044
 20
1.587780768230274
 10
7.806717791713642
 20
1.585466692948683
 10
7.809176496700318
 20
1.58344187707731
 10
7.811924461097177
 20
1.581561690911028
 10
7.814817055199209
 20
1.579970764154922
 10
7.817709649301156
 20
1.57837983739886
 10
7.820891502813366
 20
1.577222799758065
 10
7.824073356325492
 20
1.576210391822356
 10
7.827544469247881
 20
1.57548724329687
 10
7.831160211875356
 20
1.575197983886691
 10
7.832317249516155
 20
1.575197983886691
 10
7.833474287156952
 20
1.57534261359178
 10
7.834775954502833
 20
1.57548724329687
 10
7.836077621848723
 20
1.575631873001958
 10
7.837234659489516
 20
1.57592113241218
 10
7.838536326835398
 20
1.576355021527489
 10
7.839693364476196
 20
1.576788910642755
 10
7.840850402116994
 20
1.577222799758065
 10
7.903475064424814
 20
1.614103374558278
 10
7.904921361475827
 20
1.615260412199075
 10
7.905933769411497
 20
1.616851338955179
 10
7.906367658526845
 20
1.618731525121464
 10
7.906512288231938
 20
1.620756340992834
 10
7.906512288231938
 20
1.717658243409144
 10
7.906223028821717
 20
1.7209847266264
 10
7.905644510001318
 20
1.724021950433479
 10
7.904632102065606
 20
1.72648065542016
 10
7.903330434719727
 20
1.728505471291575
 10
7.901739507963664
 20
1.72995176834255
 10
7.899859321797336
 20
1.731108805983344
 10
7.897979135631099
 20
1.731687324803742
 10
7.896098949464771
 20
1.731976584213922
  0
LWPOLYLINE
  5
473
330
17
100
AcDbEntity
  8
4
  6
Continuous
100
AcDbPolyline
 90
       96
 70
     0
 43
0.0
 10
8.207181828515981
 20
1.579536875039656
 10
8.204867753234386
 20
1.581127801795718
 10
8.202553677952796
 20
1.582718728551824
 10
8.200528862081423
 20
1.584598914718107
 10
8.198793305620231
 20
1.586479100884389
 10
8.197347008569257
 20
1.588648546460894
 10
8.196189970928459
 20
1.591107251447573
 10
8.195466822402973
 20
1.593710586139343
 10
8.195177562992752
 20
1.596458550536203
 10
8.195177562992752
 20
1.690323229145433
 10
8.195177562992752
 20
1.69422823118313
 10
8.194888303582532
 20
1.698133233220785
 10
8.194309784762179
 20
1.70232749466866
 10
8.193152747121381
 20
1.706377126411403
 10
8.191417190660187
 20
1.710571387859278
 10
8.188669226263286
 20
1.714476389896977
 10
8.185053483635806
 20
1.71838139193463
 10
8.180136073662449
 20
1.722141764267196
 10
8.177098849855415
 20
1.724021950433479
 10
8.173916996343201
 20
1.725612877189584
 10
8.170735142831034
 20
1.72691454453547
 10
8.16726402990869
 20
1.728071582176266
 10
8.163792916986299
 20
1.728794730701753
 10
8.160321804063906
 20
1.729228619817063
 10
8.156850691141523
 20
1.72951787922724
 10
8.153234948514047
 20
1.72951787922724
 10
8.149763835591702
 20
1.729228619817063
 10
8.146292722669311
 20
1.728794730701753
 10
8.142966239452054
 20
1.728216211881355
 10
8.139639756234757
 20
1.72734843365078
 10
8.136602532427717
 20
1.726336025715071
 10
8.133565308620596
 20
1.725034358369186
 10
8.130672714518652
 20
1.723732691023301
 10
8.128069379826882
 20
1.722141764267196
 10
8.126623082775866
 20
1.721418615741709
 10
8.125321415429976
 20
1.720695467216224
 10
8.123875118378961
 20
1.719972318690735
 10
8.122573451033076
 20
1.719104540460119
 10
8.121271783687195
 20
1.718092132524454
 10
8.119825486636219
 20
1.717079724588746
 10
8.118523819290334
 20
1.715778057242861
 10
8.116932892534228
 20
1.714476389896977
 10
8.116209744008738
 20
1.717224354293834
 10
8.115052706367944
 20
1.719683059280515
 10
8.113751039022062
 20
1.72185250485702
 10
8.112160112266
 20
1.723877320728391
 10
8.110424555804762
 20
1.725612877189584
 10
8.108544369638517
 20
1.727059174240558
 10
8.106664183472194
 20
1.728360841586443
 10
8.104639367600821
 20
1.729373249522151
 10
8.071519165133175
 20
1.729373249522151
 10
8.074556388940253
 20
1.727203803945648
 10
8.077159723632025
 20
1.724745098958966
 10
8.079329169208527
 20
1.722141764267196
 10
8.081209355374767
 20
1.719104540460119
 10
8.082655652425785
 20
1.715922686947949
 10
8.08366806036145
 20
1.712306944320473
 10
8.084391208886977
 20
1.708546571987906
 10
8.084535838592064
 20
1.704352310540032
 10
8.084535838592064
 20
1.57592113241218
 10
8.118234559880157
 20
1.601954479329964
 10
8.118234559880157
 20
1.690901747965831
 10
8.118813078700508
 20
1.695674528234103
 10
8.120259375751484
 20
1.699868789681979
 10
8.122428821327988
 20
1.703484532309456
 10
8.125321415429976
 20
1.706521756116536
 10
8.128647898647232
 20
1.708980461103215
 10
8.132263641274715
 20
1.71071601756441
 10
8.136168643312366
 20
1.711873055205163
 10
8.140073645350067
 20
1.712306944320473
 10
8.142387720631656
 20
1.712306944320473
 10
8.144701795913206
 20
1.712017684910295
 10
8.146871241489712
 20
1.711583795794985
 10
8.149040687066211
 20
1.711005276974589
 10
8.151065502937584
 20
1.710282128449101
 10
8.153090318808956
 20
1.709269720513394
 10
8.154970504975281
 20
1.708257312577686
 10
8.15670606143643
 20
1.706955645231801
 10
8.158441617897628
 20
1.705653977885917
 10
8.159887914948644
 20
1.704207680834944
 10
8.161044952589442
 20
1.702472124373748
 10
8.162201990230192
 20
1.700881197617643
 10
8.163069768460772
 20
1.69900101145136
 10
8.163648287281207
 20
1.697120825285078
 10
8.164082176396476
 20
1.695096009413705
 10
8.164226806101567
 20
1.692926563837203
 10
8.164226806101567
 20
1.593710586139343
 10
8.164371435806652
 20
1.591396510857753
 10
8.164660695216872
 20
1.58893780587107
 10
8.165383843742365
 20
1.586623730589478
 10
8.166396251678069
 20
1.584309655307929
 10
8.167987178434135
 20
1.582429469141646
 10
8.170011994305546
 20
1.58083854238554
 10
8.172759958702407
 20
1.579826134449833
 10
8.176231071624794
 20
1.579536875039656
 10
8.207181828515981
 20
1.579536875039656
  0
LWPOLYLINE
  5
4D5
330
17
100
AcDbEntity
  8
4
  6
Continuous
100
AcDbPolyline
 90
       34
 70
     0
 43
0.0
 10
8.27091100342054
 20
1.717947502819321
 10
8.276551561919347
 20
1.717368983998924
 10
8.28204749071315
 20
1.716211946358128
 10
8.287254160096692
 20
1.714187130486755
 10
8.292316199775138
 20
1.711439166089896
 10
8.296944350338325
 20
1.708257312577686
 10
8.30142787119642
 20
1.704352310540032
 10
8.305477502939163
 20
1.700013419387069
 10
8.30923787527173
 20
1.695240639118794
 10
8.312708988194119
 20
1.689889340030123
 10
8.315601582296068
 20
1.684393411236363
 10
8.318204916987838
 20
1.678463593327336
 10
8.32037436256434
 20
1.672389145713178
 10
8.322109919025532
 20
1.6660254386888
 10
8.32326695666633
 20
1.659517101959376
 10
8.324134734896905
 20
1.653008765229909
 10
8.324279364601995
 20
1.646355798795353
 10
8.323845475486731
 20
1.640281351181195
 10
8.322688437845931
 20
1.634496162977255
 10
8.320952881384737
 20
1.628855604478364
 10
8.318638806103187
 20
1.623648935094825
 10
8.315746212001201
 20
1.618586895416375
 10
8.31241972878394
 20
1.613958744853189
 10
8.308659356451329
 20
1.609764483405315
 10
8.304754354413635
 20
1.605859481367659
 10
8.300560092965802
 20
1.602243738740184
 10
8.296221201812837
 20
1.599061885228015
 10
8.291737680954787
 20
1.596313920831114
 10
8.287398789801779
 20
1.593999845549523
 10
8.282915268943726
 20
1.59226428908837
 10
8.278721007495848
 20
1.590817992037354
 10
8.274671375753106
 20
1.589950213806779
 10
8.27091100342054
 20
1.589516324691468
 10
8.27091100342054
 20
1.717947502819321
  0
LWPOLYLINE
  5
4F9
330
17
100
AcDbEntity
  8
4
  6
Continuous
100
AcDbPolyline
 90
       44
 70
     0
 43
0.0
 10
8.287254160096692
 20
1.72995176834255
 10
8.223183200737853
 20
1.72995176834255
 10
8.225208016609226
 20
1.728794730701753
 10
8.227522091890815
 20
1.727203803945648
 10
8.229691537467321
 20
1.724889728664098
 10
8.231860983043825
 20
1.722286393972286
 10
8.233741169210061
 20
1.719249170165206
 10
8.235332095966167
 20
1.715778057242861
 10
8.236199874196746
 20
1.712162314615384
 10
8.236633763312099
 20
1.708257312577686
 10
8.236633763312099
 20
1.579536875039656
 10
8.284650825404918
 20
1.579536875039656
 10
8.29275008889045
 20
1.579970764154922
 10
8.300560092965802
 20
1.581127801795718
 10
8.308080837630933
 20
1.583007987962003
 10
8.315167693180795
 20
1.585611322653813
 10
8.321820659615312
 20
1.58893780587107
 10
8.328184366639693
 20
1.592987437613856
 10
8.333969554843626
 20
1.59747095847191
 10
8.339320853932346
 20
1.602677627855493
 10
8.344093634200575
 20
1.60831818635434
 10
8.34843252535354
 20
1.614537263673589
 10
8.352192897686105
 20
1.621190230108144
 10
8.355230121493223
 20
1.62827708565801
 10
8.357688826479906
 20
1.635797830323141
 10
8.359569012646147
 20
1.643607834398494
 10
8.360581420581855
 20
1.651851727589113
 10
8.361015309697165
 20
1.660384880189951
 10
8.360726050286942
 20
1.667616365444906
 10
8.359569012646147
 20
1.674558591289639
 10
8.357688826479906
 20
1.681211557724195
 10
8.35508549178809
 20
1.687575264748573
 10
8.351903638275922
 20
1.693794342067821
 10
8.34814326594336
 20
1.69943490056667
 10
8.343804374790352
 20
1.704786199655341
 10
8.338886964816992
 20
1.709703609628704
 10
8.333680295433449
 20
1.714187130486755
 10
8.327895107229469
 20
1.718236762229542
 10
8.321820659615312
 20
1.72170787515193
 10
8.315312322885889
 20
1.724600469253878
 10
8.308659356451329
 20
1.72691454453547
 10
8.301717130606601
 20
1.728650100996664
 10
8.294485645351642
 20
1.729662508932371
 10
8.287254160096692
 20
1.72995176834255
  0
LWPOLYLINE
  5
527
330
17
100
AcDbEntity
  8
4
  6
Continuous
100
AcDbPolyline
 90
       21
 70
     0
 43
0.0
 10
7.551726676231956
 20
1.723732691023301
 10
7.5871609539812
 20
1.723732691023301
 10
7.591789104544338
 20
1.723298801907994
 10
7.595983365992218
 20
1.721997134562109
 10
7.599888368029914
 20
1.719972318690735
 10
7.603359480952298
 20
1.717224354293834
 10
7.606107445349159
 20
1.713897871076579
 10
7.608276890925664
 20
1.70999286903888
 10
7.609578558271547
 20
1.705798607591005
 10
7.610012447386812
 20
1.701170457027864
 10
7.609723187976633
 20
1.697410084695298
 10
7.608855409746015
 20
1.693649712362732
 10
7.607409112695044
 20
1.690323229145433
 10
7.605528926528762
 20
1.687141375633264
 10
7.603070221542079
 20
1.684538040941494
 10
7.600177627440088
 20
1.68251322507008
 10
7.596851144222791
 20
1.681211557724195
 10
7.592946142185136
 20
1.680777668608928
 10
7.558379642666512
 20
1.680777668608928
 10
7.558379642666512
 20
1.715922686947949
 10
7.551726676231956
 20
1.723732691023301
  0
LWPOLYLINE
  5
53E
330
17
100
AcDbEntity
  8
4
  6
Continuous
100
AcDbPolyline
 90
       21
 70
     0
 43
0.0
 10
7.411709161267363
 20
1.724021950433479
 10
7.447143439016602
 20
1.724021950433479
 10
7.451626959874657
 20
1.723588061318213
 10
7.455965851027619
 20
1.722286393972286
 10
7.459726223360227
 20
1.720261578100914
 10
7.463197336282572
 20
1.717513613704054
 10
7.465945300679474
 20
1.714187130486755
 10
7.468114746255937
 20
1.710426758154189
 10
7.469416413601865
 20
1.706232496706314
 10
7.46985030271713
 20
1.701604346143174
 10
7.469561043306952
 20
1.697843973810564
 10
7.468693265076336
 20
1.694083601477997
 10
7.467391597730447
 20
1.690612488555653
 10
7.465511411564167
 20
1.687575264748573
 10
7.463052706577485
 20
1.684971930056762
 10
7.460160112475495
 20
1.682947114185389
 10
7.456833629258195
 20
1.681645446839504
 10
7.45292862722054
 20
1.681211557724195
 10
7.418362127701917
 20
1.681211557724195
 10
7.418362127701917
 20
1.71635657606326
 10
7.411709161267363
 20
1.724021950433479
  0
LWPOLYLINE
  5
555
330
17
100
AcDbEntity
  8
4
  6
Continuous
100
AcDbPolyline
 90
       46
 70
     0
 43
0.0
 10
7.452639367810362
 20
1.731976584213922
 10
7.374105437941657
 20
1.731976584213922
 10
7.375840994402813
 20
1.729662508932371
 10
7.377431921158876
 20
1.727059174240558
 10
7.379022847915019
 20
1.724455839548789
 10
7.380324515260908
 20
1.72170787515193
 10
7.38133692319657
 20
1.718815281049939
 10
7.382204701427149
 20
1.715922686947949
 10
7.382783220247584
 20
1.713174722551091
 10
7.382927849952678
 20
1.710282128449101
 10
7.382927849952678
 20
1.576788910642755
 10
7.418072868291741
 20
1.610487631930801
 10
7.418072868291741
 20
1.670364329841764
 10
7.465222152153945
 20
1.670364329841764
 10
7.468404005666156
 20
1.670508959546895
 10
7.471441229473192
 20
1.670653589251985
 10
7.474478453280313
 20
1.671087478367294
 10
7.477371047382259
 20
1.671665997187693
 10
7.480263641484253
 20
1.672533775418268
 10
7.483011605881151
 20
1.673690813059063
 10
7.485614940572923
 20
1.67499248040495
 10
7.487929015854514
 20
1.676583407161054
 10
7.490243091136107
 20
1.678463593327336
 10
7.492123277302347
 20
1.680777668608928
 10
7.493858833763584
 20
1.683236373595566
 10
7.495305130814561
 20
1.686128967697558
 10
7.496317538750266
 20
1.689455450914858
 10
7.497185316980842
 20
1.693071193542333
 10
7.497619206096151
 20
1.697120825285078
 10
7.497619206096151
 20
1.701604346143174
 10
7.497185316980842
 20
1.706377126411403
 10
7.496317538750266
 20
1.710571387859278
 10
7.494871241699249
 20
1.714331760191845
 10
7.493135685238055
 20
1.717658243409144
 10
7.490821609956466
 20
1.720550837511135
 10
7.488362904969781
 20
1.723009542497814
 10
7.485470310867834
 20
1.725178988074276
 10
7.482288457355624
 20
1.72691454453547
 10
7.478961974138367
 20
1.728360841586443
 10
7.475346231510889
 20
1.72951787922724
 10
7.471730488883411
 20
1.730385657457857
 10
7.467970116550847
 20
1.730964176278256
 10
7.46406511451315
 20
1.731542695098655
 10
7.460160112475495
 20
1.731831954508831
 10
7.456399740142932
 20
1.731976584213922
 10
7.452639367810362
 20
1.731976584213922
  0
LWPOLYLINE
  5
585
330
17
100
AcDbEntity
  8
4
  6
Continuous
100
AcDbPolyline
 90
      104
 70
     0
 43
0.0
 10
7.308127577275615
 20
1.731831954508831
 10
7.312177209018358
 20
1.727493063355868
 10
7.313912765479552
 20
1.725034358369186
 10
7.315359062530525
 20
1.722575653382506
 10
7.316660729876452
 20
1.720261578100914
 10
7.317673137812117
 20
1.718092132524454
 10
7.318540916042692
 20
1.715778057242861
 10
7.319119434863137
 20
1.713463981961269
 10
7.319408694273311
 20
1.711149906679676
 10
7.319553323978404
 20
1.708691201692995
 10
7.319553323978404
 20
1.596313920831114
 10
7.315937581350922
 20
1.596747809946423
 10
7.312321838723446
 20
1.59747095847191
 10
7.308850725801057
 20
1.598338736702529
 10
7.305379612878716
 20
1.599495774343282
 10
7.302053129661454
 20
1.600942071394299
 10
7.298726646444157
 20
1.602388368445271
 10
7.295400163226862
 20
1.604123924906466
 10
7.292362939419819
 20
1.606004111072748
 10
7.289325715612701
 20
1.608173556649251
 10
7.286433121510749
 20
1.610343002225714
 10
7.283685157113898
 20
1.612801707212395
 10
7.281081822422081
 20
1.615405041904163
 10
7.278478487730311
 20
1.618008376595977
 10
7.276164412448721
 20
1.620900970697924
 10
7.273994966872257
 20
1.623938194505003
 10
7.271970151000846
 20
1.626975418312082
 10
7.268788297488678
 20
1.632760606516063
 10
7.266184962796906
 20
1.638835054130221
 10
7.264160146925532
 20
1.645198761154555
 10
7.262858479579652
 20
1.651707097884024
 10
7.262279960759213
 20
1.65836006431858
 10
7.262569220169432
 20
1.664868401048004
 10
7.263870887515312
 20
1.671521367482561
 10
7.266040333091776
 20
1.67788507450694
 10
7.267197370732571
 20
1.680633038903798
 10
7.268499038078456
 20
1.683236373595566
 10
7.269945335129473
 20
1.68583970828738
 10
7.271391632180487
 20
1.688298413274061
 10
7.27298255893655
 20
1.690901747965831
 10
7.274718115397746
 20
1.693360452952511
 10
7.27645367185894
 20
1.695674528234103
 10
7.278189228320091
 20
1.698133233220785
 10
7.280069414486418
 20
1.700447308502377
 10
7.281949600652655
 20
1.702616754078838
 10
7.283974416524074
 20
1.70493082936043
 10
7.285999232395442
 20
1.707100274936934
 10
7.288024048266816
 20
1.709269720513394
 10
7.290193493843316
 20
1.711294536384765
 10
7.292218309714736
 20
1.71331935225618
 10
7.294387755291192
 20
1.715344168127551
 10
7.296123311752387
 20
1.717368983998924
 10
7.297280349393187
 20
1.719683059280515
 10
7.298003497918667
 20
1.721997134562109
 10
7.298003497918667
 20
1.724455839548789
 10
7.297714238508451
 20
1.726625285125249
 10
7.296846460277872
 20
1.728794730701753
 10
7.29583405234221
 20
1.730530287162946
 10
7.294387755291192
 20
1.731831954508831
 10
7.242610320865762
 20
1.731831954508831
 10
7.245069025852442
 20
1.72951787922724
 10
7.247816990249297
 20
1.726625285125249
 10
7.250420324941113
 20
1.723154172202904
 10
7.252589770517571
 20
1.719393799870339
 10
7.254180697273677
 20
1.715199538422464
 10
7.254903845799169
 20
1.710860647269498
 10
7.25432532697881
 20
1.706521756116536
 10
7.252300511107397
 20
1.70232749466866
 10
7.236391243546512
 20
1.674558591289639
 10
7.232486241508857
 20
1.666459327804109
 10
7.230027536522178
 20
1.657926175203271
 10
7.228870498881383
 20
1.649103763192254
 10
7.229015128586467
 20
1.640136721476106
 10
7.230461425637447
 20
1.631169679759956
 10
7.233354019739432
 20
1.622636527159118
 10
7.237403651482222
 20
1.614537263673589
 10
7.242754950570851
 20
1.607305778418635
 10
7.245358285262621
 20
1.604413184316686
 10
7.248106249659524
 20
1.601665219919785
 10
7.250998843761512
 20
1.598917255522884
 10
7.25403606756859
 20
1.596313920831114
 10
7.257073291375667
 20
1.593999845549523
 10
7.260399774592968
 20
1.591685770267972
 10
7.263726257810182
 20
1.589516324691468
 10
7.267197370732571
 20
1.587636138525186
 10
7.270668483654956
 20
1.585755952358903
 10
7.274284226282436
 20
1.584165025602798
 10
7.277899968909911
 20
1.582863358256913
 10
7.281660341242481
 20
1.581706320616116
 10
7.285420713575046
 20
1.580693912680453
 10
7.289325715612701
 20
1.580115393860054
 10
7.293086087945312
 20
1.579681504744745
 10
7.296991089983008
 20
1.579536875039656
 10
7.352384267035876
 20
1.579536875039656
 10
7.352384267035876
 20
1.710137498744011
 10
7.352528896740963
 20
1.713030092845959
 10
7.352673526446045
 20
1.715922686947949
 10
7.35310741556136
 20
1.718670651344808
 10
7.353685934381761
 20
1.721563245446799
 10
7.354553712612375
 20
1.724311209843699
 10
7.355566120548039
 20
1.72691454453547
 10
7.356723158188837
 20
1.729373249522151
 10
7.358024825534722
 20
1.731831954508831
 10
7.308127577275615
 20
1.731831954508831
  0
LWPOLYLINE
  5
5EF
330
17
100
AcDbEntity
  8
4
  6
Continuous
100
AcDbPolyline
 90
      213
 70
     0
 43
0.0
 10
7.19506435757077
 20
1.723009542497814
 10
7.191737874353552
 20
1.724311209843699
 10
7.188411391136255
 20
1.725468247484496
 10
7.185084907918954
 20
1.72648065542016
 10
7.181613794996611
 20
1.72734843365078
 10
7.178142682074224
 20
1.727926952471176
 10
7.174671569151878
 20
1.728505471291575
 10
7.171200456229487
 20
1.728939360406841
 10
7.167729343307101
 20
1.729228619817063
 10
7.164113600679621
 20
1.729373249522151
 10
7.160642487757235
 20
1.729373249522151
 10
7.157026745129758
 20
1.729228619817063
 10
7.153555632207414
 20
1.728939360406841
 10
7.149939889579936
 20
1.728505471291575
 10
7.146468776657549
 20
1.728071582176266
 10
7.142997663735201
 20
1.72734843365078
 10
7.139526550812813
 20
1.726625285125249
 10
7.133452103198655
 20
1.724745098958966
 10
7.12752228528959
 20
1.721997134562109
 10
7.121881726790737
 20
1.718815281049939
 10
7.116385797996978
 20
1.714910279012243
 10
7.11132375831853
 20
1.710571387859278
 10
7.106550978050253
 20
1.705653977885917
 10
7.102356716602378
 20
1.700447308502377
 10
7.098596344269812
 20
1.694951379708617
 10
7.095559120462733
 20
1.689166191504638
 10
7.093245045181141
 20
1.683091743890478
 10
7.091509488719946
 20
1.677017296276321
 10
7.090786340194462
 20
1.670798218957074
 10
7.090930969899548
 20
1.664579141637826
 10
7.091943377835256
 20
1.65836006431858
 10
7.093968193706673
 20
1.652285616704421
 10
7.097150047218792
 20
1.64650042850044
 10
7.097873195744327
 20
1.645632650269865
 10
7.098740973974901
 20
1.644909501744379
 10
7.09960875220548
 20
1.64433098292398
 10
7.100621160141183
 20
1.643752464103583
 10
7.101633568076891
 20
1.643463204693363
 10
7.102645976012598
 20
1.643318574988273
 10
7.103803013653394
 20
1.643318574988273
 10
7.104960051294192
 20
1.643607834398494
 10
7.146034887542238
 20
1.651417838473804
 10
7.14834896282383
 20
1.651851727589113
 10
7.150663038105419
 20
1.652140986999332
 10
7.153121743092103
 20
1.652574876114599
 10
7.155435818373696
 20
1.652719505819731
 10
7.157894523360376
 20
1.653008765229909
 10
7.160208598641967
 20
1.653153394934998
 10
7.162522673923561
 20
1.653153394934998
 10
7.164981378910241
 20
1.653153394934998
 10
7.167295454191832
 20
1.653008765229909
 10
7.169609529473381
 20
1.65286413552482
 10
7.171923604754976
 20
1.652574876114599
 10
7.174237680036527
 20
1.652140986999332
 10
7.176407125613027
 20
1.651562468178934
 10
7.178721200894621
 20
1.650983949358536
 10
7.180890646471128
 20
1.650116171127917
 10
7.183060092047581
 20
1.649248392897342
 10
7.187977502020949
 20
1.646211169090264
 10
7.191593244648423
 20
1.641872277937299
 10
7.194051949635106
 20
1.636810238258806
 10
7.195498246686121
 20
1.631025050054868
 10
7.19564287639121
 20
1.62495060244071
 10
7.194630468455502
 20
1.618731525121464
 10
7.192605652584131
 20
1.612946336917484
 10
7.189568428777049
 20
1.607595037828854
 10
7.187398983200552
 20
1.605136332842174
 10
7.185229537624045
 20
1.602677627855493
 10
7.182626202932277
 20
1.600652811984077
 10
7.180022868240502
 20
1.598772625817794
 10
7.177274903843648
 20
1.5970370693566
 10
7.174237680036527
 20
1.595590772305626
 10
7.171200456229487
 20
1.594578364369919
 10
7.168018602717283
 20
1.593710586139343
 10
7.164258230384713
 20
1.593276697024034
 10
7.160497858052146
 20
1.593276697024034
 10
7.156882115424672
 20
1.593565956434255
 10
7.153121743092103
 20
1.594433734664831
 10
7.149650630169715
 20
1.595446142600539
 10
7.146034887542238
 20
1.596892439651511
 10
7.142708404324981
 20
1.598627996112706
 10
7.139381921107727
 20
1.600652811984077
 10
7.136200067595512
 20
1.60296688726567
 10
7.133162843788478
 20
1.60542559225235
 10
7.130270249686442
 20
1.608173556649251
 10
7.12752228528959
 20
1.6110661507512
 10
7.125063580302902
 20
1.614103374558278
 10
7.122604875316222
 20
1.61728522807049
 10
7.120435429739721
 20
1.620611711287746
 10
7.118555243573477
 20
1.623938194505003
 10
7.085145781695612
 20
1.60875207546965
 10
7.086881338156802
 20
1.604413184316686
 10
7.089050783733267
 20
1.600218922868811
 10
7.091943377835256
 20
1.596458550536203
 10
7.095269861052552
 20
1.592842807908768
 10
7.09903023338512
 20
1.589516324691468
 10
7.103224494832954
 20
1.586479100884389
 10
7.107708015691049
 20
1.583731136487531
 10
7.112480795959323
 20
1.58127243150085
 10
7.117542835637773
 20
1.579247615629436
 10
7.122749505021313
 20
1.577512059168241
 10
7.128245433815115
 20
1.576065762117268
 10
7.133596732903747
 20
1.575197983886691
 10
7.139092661697503
 20
1.574474835361205
 10
7.144588590491262
 20
1.574330205656074
 10
7.149939889579936
 20
1.574619465066295
 10
7.155291188668606
 20
1.575197983886691
 10
7.159340820411347
 20
1.576065762117268
 10
7.163245822449005
 20
1.577222799758065
 10
7.167150824486707
 20
1.57852446710395
 10
7.170911196819311
 20
1.580115393860054
 10
7.174526939446746
 20
1.581995580026338
 10
7.178142682074224
 20
1.584165025602798
 10
7.18146916529148
 20
1.5863344711793
 10
7.184795648508777
 20
1.58893780587107
 10
7.187832872315855
 20
1.59154114056284
 10
7.190870096122938
 20
1.594433734664831
 10
7.193618060519795
 20
1.59747095847191
 10
7.196221395211567
 20
1.600797441689209
 10
7.198535470493161
 20
1.604123924906466
 10
7.200704916069661
 20
1.607595037828854
 10
7.202585102235941
 20
1.611210780456331
 10
7.204320658697137
 20
1.614971152788898
 10
7.205911585453203
 20
1.619165414236773
 10
7.207068623093998
 20
1.623359675684648
 10
7.207936401324611
 20
1.627553937132479
 10
7.208659549850104
 20
1.632037457990576
 10
7.208948809260322
 20
1.636376349143541
 10
7.208948809260322
 20
1.640715240296504
 10
7.208659549850104
 20
1.645054131449468
 10
7.207936401324611
 20
1.64939302260243
 10
7.207068623093998
 20
1.653153394934998
 10
7.205911585453203
 20
1.656769137562475
 10
7.204465288402228
 20
1.660240250484863
 10
7.202729731941076
 20
1.663711363407251
 10
7.20056028636457
 20
1.66674858721433
 10
7.198101581377891
 20
1.669641181316276
 10
7.195208987275901
 20
1.67224451600809
 10
7.192171763468819
 20
1.674413961584551
 10
7.190870096122938
 20
1.675281739815126
 10
7.189423799071962
 20
1.676149518045745
 10
7.187977502020949
 20
1.676872666571232
 10
7.186531204969932
 20
1.677595815096719
 10
7.185084907918954
 20
1.678318963622248
 10
7.183493981162892
 20
1.678897482442603
 10
7.18204768411192
 20
1.679331371557913
 10
7.180456757355816
 20
1.679765260673221
 10
7.17886583059971
 20
1.680199149788531
 10
7.177274903843648
 20
1.680633038903798
 10
7.17568397708754
 20
1.680922298314017
 10
7.174093050331434
 20
1.681211557724195
 10
7.172502123575371
 20
1.681500817134416
 10
7.170911196819311
 20
1.681645446839504
 10
7.169175640358072
 20
1.681934706249682
 10
7.16758471360201
 20
1.682079335954813
 10
7.165993786845947
 20
1.682079335954813
 10
7.1644028600898
 20
1.682079335954813
 10
7.162811933333737
 20
1.682223965659902
 10
7.161221006577672
 20
1.682223965659902
 10
7.159630079821571
 20
1.682223965659902
 10
7.158039153065465
 20
1.682368595364992
 10
7.156303596604271
 20
1.682368595364992
 10
7.154568040143078
 20
1.682368595364992
 10
7.152832483681925
 20
1.682368595364992
 10
7.151096927220732
 20
1.682223965659902
 10
7.149072111349357
 20
1.682079335954813
 10
7.147191925183032
 20
1.681934706249682
 10
7.14516710931166
 20
1.681790076544593
 10
7.142997663735201
 20
1.681500817134416
 10
7.140828218158699
 20
1.681066928019108
 10
7.138514142877106
 20
1.680633038903798
 10
7.105393940409456
 20
1.674558591289639
 10
7.104526162178842
 20
1.677595815096719
 10
7.104092273063574
 20
1.68048840919871
 10
7.104236902768657
 20
1.683525633005787
 10
7.104670791883967
 20
1.686418227107778
 10
7.105683199819632
 20
1.689310821209725
 10
7.106840237460431
 20
1.692058785606628
 10
7.108575793921628
 20
1.694806750003485
 10
7.110455980087909
 20
1.697265454990167
 10
7.11262542566441
 20
1.699579530271759
 10
7.115084130651093
 20
1.70189360555335
 10
7.117687465342863
 20
1.703773791719633
 10
7.120580059444852
 20
1.705509348180828
 10
7.123617283251931
 20
1.706955645231801
 10
7.126654507059011
 20
1.70825731257773
 10
7.129836360571178
 20
1.709125090808304
 10
7.133162843788478
 20
1.709703609628704
 10
7.136055437890425
 20
1.709848239333791
 10
7.139092661697503
 20
1.709848239333791
 10
7.141985255799492
 20
1.709558979923614
 10
7.144877849901443
 20
1.709125090808304
 10
7.147770444003477
 20
1.708546571987906
 10
7.150663038105419
 20
1.707678793757331
 10
7.153411002502281
 20
1.706666385821623
 10
7.156158966899178
 20
1.705509348180828
 10
7.158906931296081
 20
1.704207680834944
 10
7.161654895692943
 20
1.702761383783926
 10
7.164258230384713
 20
1.701315086732953
 10
7.166861565076483
 20
1.699579530271759
 10
7.169320270063161
 20
1.697843973810564
 10
7.171778975049842
 20
1.696108417349413
 10
7.174237680036527
 20
1.69422823118313
 10
7.176551755318119
 20
1.692348045016804
 10
7.214010848938772
 20
1.70999286903888
 10
7.211986033067357
 20
1.712017684910295
 10
7.209816587490896
 20
1.714042500781666
 10
7.207647141914438
 20
1.715922686947949
 10
7.205188436927755
 20
1.717513613704054
 10
7.202729731941076
 20
1.719104540460119
 10
7.200271026954392
 20
1.720550837511135
 10
7.197667692262584
 20
1.72185250485702
 10
7.19506435757077
 20
1.723009542497814
  0
LWPOLYLINE
  5
6C6
330
17
100
AcDbEntity
  8
4
  6
Continuous
100
AcDbPolyline
 90
       21
 70
     0
 43
0.0
 10
6.475383002139227
 20
1.69668693616981
 10
6.474949113023956
 20
1.692203415311715
 10
6.473647445678075
 20
1.68800915386384
 10
6.47162262980666
 20
1.684393411236363
 10
6.468874665409802
 20
1.681211557724195
 10
6.465548182192505
 20
1.678608223032425
 10
6.461787809859937
 20
1.676728036866141
 10
6.457593548412106
 20
1.675570999225347
 10
6.453254657259093
 20
1.675137110110036
 10
6.424184086534189
 20
1.675137110110036
 10
6.424184086534189
 20
1.712306944320473
 10
6.421291492432246
 20
1.719393799870339
 10
6.453833176079491
 20
1.719393799870339
 10
6.458172067232459
 20
1.718959910755029
 10
6.462366328680335
 20
1.717658243409144
 10
6.465982071307807
 20
1.715633427537771
 10
6.46916392481998
 20
1.71288546314087
 10
6.471767259511747
 20
1.709414350218483
 10
6.473647445678075
 20
1.705653977885917
 10
6.474949113023956
 20
1.701315086732953
 10
6.475383002139227
 20
1.69668693616981
  0
LWPOLYLINE
  5
6DD
330
17
100
AcDbEntity
  8
4
  6
Continuous
100
AcDbPolyline
 90
      114
 70
     0
 43
0.0
 10
6.827077428686127
 20
1.57837983739886
 10
6.825486501930065
 20
1.579681504744745
 10
6.823895575173955
 20
1.581561690911028
 10
6.822304648417855
 20
1.584165025602798
 10
6.820713721661793
 20
1.587346879115008
 10
6.819267424610817
 20
1.591107251447573
 10
6.818110386970023
 20
1.595735402010715
 10
6.817242608739404
 20
1.601086701099386
 10
6.816664089919047
 20
1.607161148713544
 10
6.816664089919047
 20
1.702906013489059
 10
6.81651946021396
 20
1.705509348180828
 10
6.815940941393517
 20
1.70825731257773
 10
6.814928533457812
 20
1.711005276974589
 10
6.813482236406837
 20
1.713608611666358
 10
6.811602050240557
 20
1.716211946358169
 10
6.809287974958963
 20
1.718815281049939
 10
6.806684640267191
 20
1.721273986036622
 10
6.803647416460115
 20
1.723732691023301
 10
6.800320933242815
 20
1.725902136599763
 10
6.796560560910247
 20
1.727926952471176
 10
6.792366299462418
 20
1.729662508932371
 10
6.788027408309407
 20
1.731253435688435
 10
6.783109998336048
 20
1.73241047332923
 10
6.778047958657595
 20
1.733422881264938
 10
6.772552029863837
 20
1.734001400085335
 10
6.766766841659897
 20
1.734290659495513
 10
6.760547764340651
 20
1.734001400085335
 10
6.754473316726492
 20
1.733133621854716
 10
6.748543498817426
 20
1.731398065393523
 10
6.742902940318535
 20
1.729228619817063
 10
6.737551641229906
 20
1.726336025715071
 10
6.732344971846365
 20
1.723009542497814
 10
6.727572191578094
 20
1.719104540460119
 10
6.723088670719995
 20
1.714765649307154
 10
6.719039038977258
 20
1.70999286903888
 10
6.715278666644688
 20
1.70493082936043
 10
6.712096813132477
 20
1.699579530271759
 10
6.709493478440709
 20
1.69393897177291
 10
6.707324032864201
 20
1.68800915386384
 10
6.705733106108142
 20
1.681934706249682
 10
6.704720698172431
 20
1.675715628930436
 10
6.704431438762256
 20
1.6693519219061
 10
6.704431438762256
 20
1.598772625817794
 10
6.704142179352036
 20
1.594289104959741
 10
6.70312977141637
 20
1.590528732627176
 10
6.701828104070485
 20
1.587346879115008
 10
6.700092547609246
 20
1.584743544423196
 10
6.698356991148099
 20
1.582718728551824
 10
6.696621434686902
 20
1.580983172090629
 10
6.694885878225706
 20
1.579681504744745
 10
6.693584210879826
 20
1.57852446710395
 10
6.724245708360792
 20
1.57852446710395
 10
6.728295340103535
 20
1.579102985924347
 10
6.731766453025926
 20
1.580549282975321
 10
6.734803676833045
 20
1.582718728551824
 10
6.737407011524815
 20
1.585611322653813
 10
6.739576457101275
 20
1.588793176165983
 10
6.741167383857384
 20
1.59226428908837
 10
6.742179791793088
 20
1.595880031715847
 10
6.742758310613442
 20
1.599495774343282
 10
6.74304757002362
 20
1.604702443726864
 10
6.742324421498178
 20
1.610053742815534
 10
6.741312013562469
 20
1.615260412199075
 10
6.740010346216584
 20
1.620322451877568
 10
6.738274789755393
 20
1.627553937132479
 10
6.736683862999285
 20
1.634785422387435
 10
6.735237565948317
 20
1.642016907642388
 10
6.73379126889734
 20
1.649248392897342
 10
6.732489601551451
 20
1.656479878152296
 10
6.731477193615749
 20
1.663855993112339
 10
6.730609415385128
 20
1.671087478367294
 10
6.730030896564771
 20
1.678463593327336
 10
6.729886266859685
 20
1.684538040941494
 10
6.730320155974951
 20
1.690757118260743
 10
6.731332563910655
 20
1.6968315658749
 10
6.732923490666721
 20
1.702761383783968
 10
6.735237565948317
 20
1.70825731257773
 10
6.738274789755393
 20
1.71331935225618
 10
6.742035162087956
 20
1.717658243409144
 10
6.746807942356229
 20
1.721273986036622
 10
6.749555906753132
 20
1.722720283087595
 10
6.752448500855081
 20
1.723732691023301
 10
6.75548572466216
 20
1.724455839548789
 10
6.758522948469237
 20
1.724889728664098
 10
6.761704801981446
 20
1.724889728664098
 10
6.764886655493576
 20
1.724455839548789
 10
6.767923879300695
 20
1.723732691023301
 10
6.770961103107732
 20
1.722720283087595
 10
6.773709067504637
 20
1.721273986036622
 10
6.776312402196442
 20
1.719538429575426
 10
6.778771107183085
 20
1.717368983998924
 10
6.780795923054456
 20
1.714910279012243
 10
6.782531479515691
 20
1.712162314615384
 10
6.783977776566665
 20
1.708980461103215
 10
6.784990184502371
 20
1.705509348180828
 10
6.785424073617639
 20
1.701748975848262
 10
6.785424073617639
 20
1.599061885228015
 10
6.785568703322731
 20
1.596603180241333
 10
6.786002592438037
 20
1.594433734664831
 10
6.786725740963525
 20
1.59226428908837
 10
6.787593519194142
 20
1.590239473216955
 10
6.788750556834941
 20
1.588503916755763
 10
6.790052224180826
 20
1.58676836029461
 10
6.791498521231797
 20
1.585177433538505
 10
6.793234077692992
 20
1.583731136487531
 10
6.795114263859272
 20
1.582574098846736
 10
6.796994450025557
 20
1.581417061205939
 10
6.799019265896929
 20
1.580549282975321
 10
6.801188711473432
 20
1.579826134449833
 10
6.803358157049936
 20
1.579102985924347
 10
6.805672232331531
 20
1.578669096809038
 10
6.807841677907989
 20
1.57852446710395
 10
6.81015575318954
 20
1.57837983739886
 10
6.827077428686127
 20
1.57837983739886
  0
LWPOLYLINE
  5
751
330
17
100
AcDbEntity
  8
4
  6
Continuous
100
AcDbPolyline
 90
       59
 70
     0
 43
0.0
 10
6.276103269444611
 20
1.687719894453663
 10
6.290855499364695
 20
1.69900101145136
 10
6.293169574646293
 20
1.698856381746271
 10
6.295339020222789
 20
1.698567122336094
 10
6.297508465799257
 20
1.697988603515695
 10
6.299533281670626
 20
1.697410084695298
 10
6.301702727247128
 20
1.696542306464679
 10
6.303727543118543
 20
1.695529898529015
 10
6.305607729284782
 20
1.694372860888218
 10
6.307487915451106
 20
1.693071193542333
 10
6.309223471912261
 20
1.691769526196407
 10
6.310959028373456
 20
1.690323229145433
 10
6.312694584834652
 20
1.688876932094458
 10
6.314285511590714
 20
1.687286005338354
 10
6.315731808641728
 20
1.685695078582291
 10
6.317178105692746
 20
1.684104151826186
 10
6.318479773038627
 20
1.682657854775212
 10
6.319636810679383
 20
1.681066928019108
 10
6.323686442422168
 20
1.674703220994771
 10
6.326868295934338
 20
1.668050254560215
 10
6.329182371215932
 20
1.66096339901035
 10
6.330773297972031
 20
1.653731913755396
 10
6.331785705907702
 20
1.646355798795353
 10
6.332219595023007
 20
1.638835054130221
 10
6.332508854433186
 20
1.631314309465088
 10
6.332364224728094
 20
1.623793564799914
 10
6.332074965317922
 20
1.61988856276226
 10
6.331351816792388
 20
1.616128190429694
 10
6.330194779151592
 20
1.612512447802216
 10
6.328748482100616
 20
1.609041334879828
 10
6.327012925639425
 20
1.605714851662571
 10
6.324843480062966
 20
1.60253299815036
 10
6.322529404781374
 20
1.599640404048414
 10
6.319926070089604
 20
1.596892439651511
 10
6.317033475987613
 20
1.594433734664831
 10
6.31414088188562
 20
1.592119659383239
 10
6.310959028373456
 20
1.590094843511868
 10
6.307777174861286
 20
1.588214657345583
 10
6.304595321349076
 20
1.586623730589478
 10
6.301268838131862
 20
1.585466692948683
 10
6.297942354914564
 20
1.584454285013019
 10
6.294760501402352
 20
1.583731136487531
 10
6.292880315236112
 20
1.58387576619262
 10
6.291000129069789
 20
1.584020395897709
 10
6.289119942903549
 20
1.584454285013019
 10
6.287384386442312
 20
1.585032803833416
 10
6.285648829981158
 20
1.585755952358903
 10
6.284057903225053
 20
1.586623730589478
 10
6.282466976468949
 20
1.587780768230274
 10
6.281165309123062
 20
1.58893780587107
 10
6.279719012072089
 20
1.590384102922087
 10
6.278706604136381
 20
1.591975029678149
 10
6.277838825905806
 20
1.593710586139343
 10
6.277115677380318
 20
1.595590772305626
 10
6.276681788265007
 20
1.59747095847191
 10
6.276392528854787
 20
1.599495774343282
 10
6.276103269444611
 20
1.601520590214696
 10
6.276103269444611
 20
1.603545406086069
 10
6.276103269444611
 20
1.687719894453663
  0
LWPOLYLINE
  5
78E
330
17
100
AcDbEntity
  8
4
  6
Continuous
100
AcDbPolyline
 90
       61
 70
     0
 43
0.0
 10
6.475961520959668
 20
1.664000622817429
 10
6.480155782407499
 20
1.664289882227649
 10
6.484205414150286
 20
1.664868401048047
 10
6.487821156777719
 20
1.665736179278622
 10
6.491147639995019
 20
1.66689321691942
 10
6.494040234097012
 20
1.668339513970391
 10
6.496788198493912
 20
1.669930440726498
 10
6.499246903480592
 20
1.671810626892781
 10
6.501416349057056
 20
1.673980072469241
 10
6.503296535223333
 20
1.676294147750834
 10
6.504887461979397
 20
1.678752852737515
 10
6.506189129325326
 20
1.681356187429285
 10
6.507201537260992
 20
1.684248781531274
 10
6.508069315491606
 20
1.687141375633264
 10
6.508647834311964
 20
1.690178599440343
 10
6.508937093722227
 20
1.693360452952511
 10
6.509081723427317
 20
1.69668693616981
 10
6.508937093722227
 20
1.699724159976891
 10
6.508358574901786
 20
1.702761383783968
 10
6.507635426376301
 20
1.705653977885917
 10
6.506478388735505
 20
1.708546571987906
 10
6.50517672138962
 20
1.711294536384765
 10
6.503585794633512
 20
1.713897871076579
 10
6.501705608467275
 20
1.71635657606326
 10
6.499680792595859
 20
1.718670651344851
 10
6.497366717314267
 20
1.720695467216224
 10
6.494908012327587
 20
1.722575653382506
 10
6.492449307340905
 20
1.724166580138611
 10
6.489701342944043
 20
1.725612877189584
 10
6.486808748842058
 20
1.726769914830381
 10
6.483916154740067
 20
1.727493063355868
 10
6.480878930933027
 20
1.728071582176266
 10
6.477841707125906
 20
1.728216211881355
 10
6.376600913556636
 20
1.728216211881355
 10
6.378047210607648
 20
1.727059174240558
 10
6.379348877953538
 20
1.725902136599763
 10
6.380650545299463
 20
1.724600469253878
 10
6.381807582940261
 20
1.723443431613081
 10
6.382964620581012
 20
1.722286393972286
 10
6.38412165822181
 20
1.720840096921311
 10
6.385134066157472
 20
1.719393799870339
 10
6.386146474093179
 20
1.717658243409144
 10
6.387592771144156
 20
1.714476389896977
 10
6.388749808784949
 20
1.71071601756441
 10
6.389472957310483
 20
1.707100274936934
 10
6.389762216720662
 20
1.704207680834944
 10
6.389906846425745
 20
1.574185575950985
 10
6.424762605354636
 20
1.604702443726864
 10
6.424762605354636
 20
1.665013030753136
 10
6.440093354095075
 20
1.665157660458224
 10
6.492304677635813
 20
1.578669096809038
 10
6.537284515921605
 20
1.57837983739886
 10
6.534536551524702
 20
1.579970764154922
 10
6.531788587127845
 20
1.581850950321249
 10
6.529185252436028
 20
1.583731136487531
 10
6.526581917744258
 20
1.585900582063993
 10
6.524123212757581
 20
1.587925397935364
 10
6.521809137475989
 20
1.590239473216955
 10
6.519495062194393
 20
1.592553548498548
 10
6.517180986912804
 20
1.595012253485229
 10
6.475961520959668
 20
1.664000622817429
  0
LWPOLYLINE
  5
7CD
330
17
100
AcDbEntity
  8
4
  6
Continuous
100
AcDbPolyline
 90
       83
 70
     0
 43
0.0
 10
6.334822929714777
 20
1.712596203730694
 10
6.332508854433186
 20
1.714765649307154
 10
6.330194779151592
 20
1.716935094883656
 10
6.327880703870042
 20
1.718959910755029
 10
6.325421998883362
 20
1.720840096921311
 10
6.322818664191551
 20
1.722431023677418
 10
6.319926070089604
 20
1.723877320728391
 10
6.316744216577394
 20
1.725178988074276
 10
6.313128473949916
 20
1.726046766304895
 10
6.245731031373825
 20
1.68873230238937
 10
6.245441771963647
 20
1.592553548498548
 10
6.24558640166873
 20
1.590962621742485
 10
6.245875661078907
 20
1.58922706528129
 10
6.246454179899353
 20
1.587780768230274
 10
6.247177328424798
 20
1.5863344711793
 10
6.248045106655413
 20
1.585032803833416
 10
6.249057514591121
 20
1.583731136487531
 10
6.250214552231919
 20
1.582718728551824
 10
6.2515162195778
 20
1.581706320616116
 10
6.253685665154308
 20
1.580404653270232
 10
6.255999740435853
 20
1.579247615629436
 10
6.258313815717446
 20
1.578235207693771
 10
6.260772520704126
 20
1.577367429463153
 10
6.263231225690808
 20
1.576788910642755
 10
6.265689930677488
 20
1.576210391822356
 10
6.268293265369262
 20
1.57577650270709
 10
6.270896600061075
 20
1.57534261359178
 10
6.27349993475284
 20
1.575197983886691
 10
6.276103269444611
 20
1.575053354181561
 10
6.278706604136381
 20
1.575053354181561
 10
6.281454568533241
 20
1.575197983886691
 10
6.284057903225053
 20
1.57534261359178
 10
6.286661237916868
 20
1.575631873001958
 10
6.289264572608638
 20
1.57592113241218
 10
6.291867907300401
 20
1.576355021527489
 10
6.294905131107483
 20
1.576788910642755
 10
6.297942354914564
 20
1.577512059168241
 10
6.300834949016511
 20
1.578235207693771
 10
6.303727543118543
 20
1.579102985924347
 10
6.306620137220491
 20
1.580115393860054
 10
6.309512731322437
 20
1.58127243150085
 10
6.31226069571938
 20
1.582574098846736
 10
6.315008660116244
 20
1.58387576619262
 10
6.317611994808012
 20
1.585322063243593
 10
6.320359959204871
 20
1.586912989999698
 10
6.322818664191551
 20
1.588648546460894
 10
6.325421998883362
 20
1.590384102922087
 10
6.327880703870042
 20
1.59226428908837
 10
6.330194779151592
 20
1.594144475254653
 10
6.332508854433186
 20
1.596169291126025
 10
6.334822929714777
 20
1.598194106997396
 10
6.338438672342256
 20
1.601954479329964
 10
6.341765155559553
 20
1.605859481367659
 10
6.344947009071723
 20
1.609909113110403
 10
6.347694973468628
 20
1.61424800426341
 10
6.350298308160398
 20
1.618876154826551
 10
6.352612383441985
 20
1.623504305389736
 10
6.354492569608225
 20
1.62827708565801
 10
6.356228126069468
 20
1.63319449563137
 10
6.357529793415344
 20
1.638111905604734
 10
6.358542201351013
 20
1.643318574988273
 10
6.359265349876496
 20
1.648380614666725
 10
6.359699238991812
 20
1.653587284050306
 10
6.359843868696894
 20
1.658649323728758
 10
6.359554609286679
 20
1.663855993112339
 10
6.35897609046632
 20
1.669062662495879
 10
6.358108312235702
 20
1.674124702174372
 10
6.357385163710218
 20
1.676872666571232
 10
6.356662015184728
 20
1.679620630968132
 10
6.355794236954113
 20
1.682368595364992
 10
6.354781829018449
 20
1.684971930056762
 10
6.353624791377651
 20
1.687575264748573
 10
6.352323124031766
 20
1.690178599440343
 10
6.351021456685837
 20
1.692637304427025
 10
6.349575159634861
 20
1.695096009413705
 10
6.347984232878799
 20
1.697554714400387
 10
6.346248676417608
 20
1.699868789681979
 10
6.344513119956411
 20
1.702182864963571
 10
6.342777563495221
 20
1.704352310540032
 10
6.340897377328936
 20
1.706521756116536
 10
6.338872561457562
 20
1.708546571987906
 10
6.336847745586189
 20
1.710571387859278
 10
6.334822929714777
 20
1.712596203730694
  0
LWPOLYLINE
  5
822
330
17
100
AcDbEntity
  8
4
  6
Continuous
100
AcDbPolyline
 90
      271
 70
     0
 43
0.0
 10
6.653879028538867
 20
1.670508959546895
 10
6.651854212667493
 20
1.671665997187693
 10
6.649829396796079
 20
1.672678405123356
 10
6.647659951219619
 20
1.673546183353975
 10
6.645635135348245
 20
1.674413961584551
 10
6.643465689771743
 20
1.675281739815126
 10
6.641296244195242
 20
1.675860258635524
 10
6.639126798618778
 20
1.676583407161054
 10
6.636957353042318
 20
1.677161925981453
 10
6.634643277760731
 20
1.677595815096719
 10
6.632473832184223
 20
1.67788507450694
 10
6.630015127197544
 20
1.678174333917116
 10
6.627701051915951
 20
1.678463593327336
 10
6.625242346929272
 20
1.678608223032425
 10
6.622783641942585
 20
1.678608223032425
 10
6.620324936955905
 20
1.678608223032425
 10
6.617721602264137
 20
1.678463593327336
 10
6.583588991860781
 20
1.648091355256545
 10
6.586192326552553
 20
1.648669874076944
 10
6.588795661244321
 20
1.649248392897342
 10
6.591398995936129
 20
1.64982691171774
 10
6.594002330627946
 20
1.650260800833049
 10
6.596605665319717
 20
1.650694689948315
 10
6.599209000011486
 20
1.650983949358536
 10
6.601812334703258
 20
1.651273208768714
 10
6.604560299100112
 20
1.651417838473804
 10
6.607163633791883
 20
1.651562468178934
 10
6.609766968483697
 20
1.651562468178934
 10
6.612370303175512
 20
1.651562468178934
 10
6.614973637867278
 20
1.651417838473804
 10
6.617576972559048
 20
1.651128579063625
 10
6.620180307250818
 20
1.650694689948315
 10
6.622783641942585
 20
1.650260800833049
 10
6.625386976634357
 20
1.649682282012651
 10
6.627122533095597
 20
1.649103763192254
 10
6.629002719261838
 20
1.648669874076944
 10
6.630738275723028
 20
1.647946725551457
 10
6.632473832184223
 20
1.64736820673106
 10
6.63420938864542
 20
1.646645058205573
 10
6.635944945106611
 20
1.645921909680044
 10
6.637535871862669
 20
1.645054131449468
 10
6.639271428323912
 20
1.644186353218891
 10
6.640862355079973
 20
1.643173945283185
 10
6.64230865213095
 20
1.642161537347478
 10
6.643754949181921
 20
1.641149129411813
 10
6.645201246232936
 20
1.639992091771016
 10
6.646502913578824
 20
1.638690424425131
 10
6.647804580924706
 20
1.637388757079245
 10
6.648961618565503
 20
1.635942460028229
 10
6.650118656206299
 20
1.634496162977255
 10
6.651854212667493
 20
1.631892828285444
 10
6.653300509718465
 20
1.629000234183496
 10
6.654312917654178
 20
1.626107640081506
 10
6.65503606617966
 20
1.622925786569338
 10
6.655469955294972
 20
1.61988856276226
 10
6.655325325589884
 20
1.616706709250092
 10
6.654602177064353
 20
1.613669485443013
 10
6.65344513942356
 20
1.610776891341021
 10
6.651709582962402
 20
1.608173556649251
 10
6.649684767090991
 20
1.606004111072748
 10
6.647370691809397
 20
1.604123924906466
 10
6.644622727412538
 20
1.60253299815036
 10
6.641730133310594
 20
1.601231330804475
 10
6.638837539208562
 20
1.600218922868811
 10
6.635655685696433
 20
1.599351144638194
 10
6.632618461889316
 20
1.598772625817794
 10
6.631172164838342
 20
1.598627996112706
 10
6.629581238082277
 20
1.598338736702529
 10
6.628134941031259
 20
1.598194106997396
 10
6.626544014275153
 20
1.598194106997396
 10
6.624953087519092
 20
1.598049477292308
 10
6.62350679046812
 20
1.598049477292308
 10
6.621915863711972
 20
1.598049477292308
 10
6.620324936955905
 20
1.598049477292308
 10
6.618878639904933
 20
1.598049477292308
 10
6.617287713148871
 20
1.598194106997396
 10
6.615696786392723
 20
1.598194106997396
 10
6.614105859636661
 20
1.598483366407618
 10
6.612659562585682
 20
1.598627996112706
 10
6.611068635829582
 20
1.598917255522926
 10
6.609622338778563
 20
1.599206514933103
 10
6.6080314120225
 20
1.599495774343282
 10
6.606295855561352
 20
1.59992966345859
 10
6.604560299100112
 20
1.6003635525739
 10
6.602969372344053
 20
1.600942071394299
 10
6.601233815882856
 20
1.601520590214696
 10
6.599642889126752
 20
1.602243738740184
 10
6.598051962370688
 20
1.60296688726567
 10
6.596461035614583
 20
1.603834665496289
 10
6.594870108858478
 20
1.604702443726864
 10
6.593423811807503
 20
1.60557022195744
 10
6.591832885051442
 20
1.606582629893147
 10
6.590386588000427
 20
1.607595037828854
 10
6.588940290949408
 20
1.608607445764518
 10
6.587493993898433
 20
1.609619853700226
 10
6.586192326552553
 20
1.610776891341021
 10
6.584746029501579
 20
1.611933928981819
 10
6.583444362155692
 20
1.613090966622613
 10
6.581274916579188
 20
1.615260412199075
 10
6.579250100707817
 20
1.617574487480668
 10
6.577225284836443
 20
1.61988856276226
 10
6.575200468965031
 20
1.622202638043851
 10
6.573320282798793
 20
1.624516713325401
 10
6.571584726337554
 20
1.626975418312082
 10
6.569704540171311
 20
1.629578753003895
 10
6.568113613415168
 20
1.632037457990576
 10
6.566522686659106
 20
1.634640792682345
 10
6.565076389608125
 20
1.637388757079245
 10
6.563774722262245
 20
1.639992091771016
 10
6.56247305491636
 20
1.642740056167876
 10
6.561316017275562
 20
1.645632650269865
 10
6.560448239044947
 20
1.648380614666725
 10
6.55958046081437
 20
1.651417838473804
 10
6.558857312288886
 20
1.654310432575793
 10
6.557844904353177
 20
1.66096339901035
 10
6.557411015237907
 20
1.667905624855084
 10
6.557844904353177
 20
1.67484785069986
 10
6.559001941993972
 20
1.681500817134416
 10
6.561026757865344
 20
1.687864524158752
 10
6.564063981672422
 20
1.693649712362732
 10
6.567968983710076
 20
1.698856381746271
 10
6.57288639368344
 20
1.703050643194147
 10
6.574621950144673
 20
1.704063051129853
 10
6.576357506605826
 20
1.70493082936043
 10
6.578237692772152
 20
1.705798607591005
 10
6.579973249233304
 20
1.706521756116536
 10
6.581853435399632
 20
1.707100274936934
 10
6.583878251270955
 20
1.707678793757331
 10
6.585758437437283
 20
1.708112682872599
 10
6.587783253308657
 20
1.708401942282819
 10
6.589663439474937
 20
1.708691201692995
 10
6.591688255346355
 20
1.708835831398085
 10
6.59371307121768
 20
1.708835831398085
 10
6.595737887089097
 20
1.708835831398085
 10
6.597762702960512
 20
1.708835831398085
 10
6.599787518831843
 20
1.708691201692995
 10
6.601667704998167
 20
1.708401942282819
 10
6.60369252086954
 20
1.708112682872599
 10
6.606295855561352
 20
1.707678793757331
 10
6.608899190253121
 20
1.707100274936934
 10
6.611502524944893
 20
1.706521756116536
 10
6.613961229931573
 20
1.705653977885917
 10
6.61641993491825
 20
1.704786199655341
 10
6.618878639904933
 20
1.703773791719633
 10
6.621337344891613
 20
1.702761383783968
 10
6.623796049878293
 20
1.701604346143174
 10
6.626110125159887
 20
1.700302678797245
 10
6.628279570736392
 20
1.69900101145136
 10
6.630593646017942
 20
1.697410084695298
 10
6.632763091594402
 20
1.695963787644281
 10
6.634932537170903
 20
1.69422823118313
 10
6.636957353042318
 20
1.692637304427025
 10
6.638982168913687
 20
1.690757118260743
 10
6.640862355079973
 20
1.688876932094458
 10
6.66761885052329
 20
1.703339902604326
 10
6.665883294062052
 20
1.706521756116536
 10
6.663858478190721
 20
1.709414350218483
 10
6.661544402909128
 20
1.712162314615384
 10
6.658941068217358
 20
1.714621019602065
 10
6.656193103820458
 20
1.716935094883656
 10
6.653155880013374
 20
1.718959910755029
 10
6.650118656206299
 20
1.720840096921311
 10
6.64693680269413
 20
1.722575653382506
 10
6.644478097707451
 20
1.723732691023301
 10
6.641874763015683
 20
1.724889728664098
 10
6.639416058028999
 20
1.725902136599763
 10
6.636812723337228
 20
1.726769914830381
 10
6.634064758940287
 20
1.727637693060958
 10
6.631461424248517
 20
1.728216211881355
 10
6.628713459851655
 20
1.728794730701753
 10
6.625965495454798
 20
1.729228619817063
 10
6.623217531057896
 20
1.72951787922724
 10
6.620469566660996
 20
1.729662508932371
 10
6.617576972559048
 20
1.729807138637459
 10
6.614829008162188
 20
1.729807138637459
 10
6.612081043765247
 20
1.729662508932371
 10
6.609333079368385
 20
1.729373249522151
 10
6.606585114971526
 20
1.728939360406841
 10
6.603837150574626
 20
1.728360841586443
 10
6.601233815882856
 20
1.727782322766046
 10
6.598775110896177
 20
1.72691454453547
 10
6.596171776204366
 20
1.726046766304895
 10
6.59371307121768
 20
1.725178988074276
 10
6.591398995936129
 20
1.724021950433479
 10
6.588940290949408
 20
1.722864912792684
 10
6.586626215667858
 20
1.721563245446799
 10
6.584312140386308
 20
1.720261578100914
 10
6.581998065104715
 20
1.718815281049939
 10
6.579828619528213
 20
1.717368983998924
 10
6.577659173951714
 20
1.715778057242861
 10
6.575489728375249
 20
1.714187130486755
 10
6.573320282798793
 20
1.712451574025561
 10
6.571295466927377
 20
1.71071601756441
 10
6.569126021350871
 20
1.708980461103215
 10
6.567101205479502
 20
1.707244904642021
 10
6.564208611377511
 20
1.704641569950251
 10
6.561460646980652
 20
1.70203823525844
 10
6.558712682583794
 20
1.69929027086158
 10
6.556109347891977
 20
1.69639767675959
 10
6.553506013200209
 20
1.6935050826576
 10
6.551047308213528
 20
1.690612488555653
 10
6.548733232931937
 20
1.687575264748573
 10
6.546419157650387
 20
1.684393411236363
 10
6.544394341778971
 20
1.681211557724195
 10
6.542369525907559
 20
1.67788507450694
 10
6.54048933974132
 20
1.674558591289639
 10
6.538898412985171
 20
1.671087478367294
 10
6.537452115934192
 20
1.667616365444906
 10
6.536150448588313
 20
1.664000622817429
 10
6.534993410947516
 20
1.660384880189951
 10
6.534125632716941
 20
1.656624507857385
 10
6.533257854486365
 20
1.651562468178934
 10
6.532823965371052
 20
1.646355798795353
 10
6.532679335665924
 20
1.6412937591169
 10
6.532823965371052
 20
1.63608708973332
 10
6.533402484191454
 20
1.631025050054868
 10
6.534414892127162
 20
1.625963010376418
 10
6.535716559473047
 20
1.620900970697966
 10
6.537452115934192
 20
1.616128190429694
 10
6.538609153574994
 20
1.61352485573788
 10
6.539910820920879
 20
1.61092152104611
 10
6.541212488266761
 20
1.608462816059429
 10
6.542803415022912
 20
1.606148740777838
 10
6.544394341778971
 20
1.603834665496289
 10
6.546129898240127
 20
1.601520590214696
 10
6.548010084406449
 20
1.599351144638194
 10
6.549890270572735
 20
1.597326328766821
 10
6.551915086444107
 20
1.595301512895449
 10
6.554084532020606
 20
1.593421326729167
 10
6.556253977597112
 20
1.59154114056284
 10
6.558423423173528
 20
1.589805584101689
 10
6.560737498455121
 20
1.588214657345583
 10
6.5631962034418
 20
1.58676836029461
 10
6.565654908428482
 20
1.585322063243593
 10
6.568113613415168
 20
1.584020395897709
 10
6.573898801619146
 20
1.581561690911028
 10
6.579828619528213
 20
1.579536875039656
 10
6.585903067142374
 20
1.578090577988639
 10
6.592122144461622
 20
1.576933540347886
 10
6.598341221780869
 20
1.576355021527489
 10
6.604560299100112
 20
1.576065762117268
 10
6.610779376419361
 20
1.576355021527489
 10
6.617143083443738
 20
1.577078170052975
 10
6.623217531057896
 20
1.578235207693771
 10
6.629147348966924
 20
1.579826134449833
 10
6.635077166875993
 20
1.581995580026338
 10
6.640717725374888
 20
1.584454285013019
 10
6.646069024463509
 20
1.587491508820098
 10
6.651131064141964
 20
1.590962621742485
 10
6.655903844410236
 20
1.59486762378014
 10
6.66038736526833
 20
1.599206514933103
 10
6.663713848485634
 20
1.603111516970758
 10
6.666751072292668
 20
1.607305778418635
 10
6.669499036689526
 20
1.611500039866509
 10
6.671813111971117
 20
1.616128190429694
 10
6.673837927842533
 20
1.620756340992834
 10
6.675428854598596
 20
1.625529121261108
 10
6.676441262534306
 20
1.630446531234469
 10
6.677164411059833
 20
1.635508570912921
 10
6.67730904076492
 20
1.639558202655707
 10
6.677019781354704
 20
1.643463204693363
 10
6.676296632829212
 20
1.64736820673106
 10
6.674994965483331
 20
1.651273208768714
 10
6.673259409022136
 20
1.654455062280883
 10
6.671234593150763
 20
1.657347656382873
 10
6.668775888164083
 20
1.660095620779774
 10
6.666172553472271
 20
1.662554325766454
 10
6.663279959370276
 20
1.664723771342917
 10
6.660242735563246
 20
1.66689321691942
 10
6.657060882051034
 20
1.668773403085701
 10
6.653879028538867
 20
1.670508959546895
  0
LWPOLYLINE
  5
933
330
17
100
AcDbEntity
  8
4
  6
Continuous
 62
     4
100
AcDbPolyline
 90
       96
 70
     0
 43
0.0
 10
6.983032181370872
 20
1.57852446710395
 10
6.980718106089284
 20
1.579970764154922
 10
6.978259401102601
 20
1.581706320616116
 10
6.975656066410831
 20
1.58387576619262
 10
6.973341991129242
 20
1.5863344711793
 10
6.971172545552736
 20
1.589082435576159
 10
6.969436989091581
 20
1.592408918793458
 10
6.968279951450789
 20
1.596024661420935
 10
6.967846062335438
 20
1.600218922868811
 10
6.967846062335438
 20
1.696108417349413
 10
6.967556802925262
 20
1.700158049092156
 10
6.96697828410486
 20
1.703918421424723
 10
6.965821246464107
 20
1.707534164052199
 10
6.964374949413094
 20
1.710860647269498
 10
6.962639392951898
 20
1.714187130486755
 10
6.960469947375393
 20
1.717079724588746
 10
6.958011242388713
 20
1.719827688985605
 10
6.955263277991857
 20
1.722431023677418
 10
6.95237068388991
 20
1.724745098958966
 10
6.949188830377696
 20
1.726769914830381
 10
6.945862347160396
 20
1.728505471291575
 10
6.942535863943182
 20
1.730096398047638
 10
6.938920121315707
 20
1.731253435688435
 10
6.935304378688227
 20
1.732121213919053
 10
6.931544006355661
 20
1.73284436244454
 10
6.927783634023053
 20
1.733133621854716
 10
6.92518029933124
 20
1.733133621854716
 10
6.922576964639471
 20
1.733133621854716
 10
6.920118259652793
 20
1.73284436244454
 10
6.917514924961017
 20
1.732555103034318
 10
6.915056219974342
 20
1.732121213919053
 10
6.912452885282572
 20
1.731398065393523
 10
6.909994180295893
 20
1.730674916868037
 10
6.907535475309206
 20
1.72995176834255
 10
6.905076770322526
 20
1.728939360406841
 10
6.902762695040934
 20
1.727926952471176
 10
6.900448619759345
 20
1.726769914830381
 10
6.898134544477752
 20
1.725612877189584
 10
6.895820469196156
 20
1.724166580138611
 10
6.893651023619739
 20
1.722864912792684
 10
6.89148157804324
 20
1.721418615741709
 10
6.889456762171825
 20
1.719827688985605
 10
6.888588983941247
 20
1.72185250485702
 10
6.887431946300451
 20
1.724021950433479
 10
6.885841019544344
 20
1.726046766304895
 10
6.884105463083191
 20
1.727926952471176
 10
6.88236990662196
 20
1.72951787922724
 10
6.880634350160807
 20
1.730819546573125
 10
6.879043423404745
 20
1.731687324803742
 10
6.877886385763947
 20
1.731976584213922
 10
6.842452108014707
 20
1.731976584213922
 10
6.844621553591167
 20
1.72995176834255
 10
6.847080258577847
 20
1.727637693060958
 10
6.84982822297475
 20
1.724889728664098
 10
6.85243155766652
 20
1.72170787515193
 10
6.854890262653201
 20
1.718092132524454
 10
6.856770448819482
 20
1.714331760191845
 10
6.858216745870499
 20
1.710137498744011
 10
6.858650634985767
 20
1.705798607591005
 10
6.858650634985767
 20
1.578669096809038
 10
6.891192318633063
 20
1.604991703137041
 10
6.891192318633063
 20
1.696976195579988
 10
6.891336948338151
 20
1.69929027086158
 10
6.891770837453417
 20
1.701459716438041
 10
6.892638615684035
 20
1.703484532309456
 10
6.893651023619739
 20
1.705509348180828
 10
6.894808061260493
 20
1.707534164052199
 10
6.896254358311512
 20
1.709269720513394
 10
6.897989914772661
 20
1.711005276974589
 10
6.899725471233858
 20
1.712596203730694
 10
6.901750287105226
 20
1.713897871076579
 10
6.903775102976643
 20
1.715054908717375
 10
6.905944548553147
 20
1.716211946358169
 10
6.908113994129607
 20
1.716935094883656
 10
6.910428069411157
 20
1.717658243409144
 10
6.912742144692749
 20
1.717947502819321
 10
6.914911590269253
 20
1.718236762229542
 10
6.917225665550843
 20
1.718092132524454
 10
6.920841408178322
 20
1.717513613704054
 10
6.924312521100709
 20
1.71635657606326
 10
6.927639004317968
 20
1.714765649307154
 10
6.930531598419952
 20
1.712596203730694
 10
6.932990303406636
 20
1.70999286903888
 10
6.934870489572875
 20
1.706955645231801
 10
6.936027527213673
 20
1.703339902604326
 10
6.936461416329027
 20
1.69929027086158
 10
6.936461416329027
 20
1.596603180241333
 10
6.936895305444291
 20
1.592842807908768
 10
6.93805234308509
 20
1.589371694986381
 10
6.93978789954628
 20
1.5863344711793
 10
6.942246604532917
 20
1.583731136487531
 10
6.945139198634951
 20
1.581561690911028
 10
6.948465681852213
 20
1.579826134449833
 10
6.952081424479691
 20
1.578813726514169
 10
6.95598642651734
 20
1.57852446710395
 10
6.983032181370872
 20
1.57852446710395
  0
LWPOLYLINE
  5
995
330
17
100
AcDbEntity
  8
4
  6
Continuous
100
AcDbPolyline
 90
       46
 70
     0
 43
0.0
 10
7.592656882774956
 20
1.731542695098655
 10
7.514122952906254
 20
1.731542695098655
 10
7.515858509367407
 20
1.729228619817063
 10
7.517594065828602
 20
1.726625285125249
 10
7.519040362879617
 20
1.724021950433479
 10
7.520342030225503
 20
1.721273986036622
 10
7.521499067866297
 20
1.71838139193463
 10
7.522366846096828
 20
1.71548879783264
 10
7.522945364917272
 20
1.712740833435781
 10
7.523089994622356
 20
1.709848239333791
 10
7.523089994622356
 20
1.576355021527489
 10
7.558090383256296
 20
1.610053742815534
 10
7.558090383256296
 20
1.669930440726498
 10
7.605239667118538
 20
1.669930440726498
 10
7.608276890925664
 20
1.670075070431586
 10
7.611458744437785
 20
1.670219700136676
 10
7.614351338539818
 20
1.670653589251985
 10
7.617388562346858
 20
1.671232108072381
 10
7.620136526743717
 20
1.672099886302959
 10
7.622884491140617
 20
1.673256923943755
 10
7.625487825832428
 20
1.674558591289639
 10
7.627946530819108
 20
1.676149518045745
 10
7.630115976395572
 20
1.678029704212027
 10
7.631996162561851
 20
1.68034377949362
 10
7.633731719023046
 20
1.682802484480301
 10
7.635178016074063
 20
1.685695078582291
 10
7.636190424009728
 20
1.689021561799549
 10
7.637058202240307
 20
1.692637304427025
 10
7.637492091355613
 20
1.69668693616981
 10
7.637492091355613
 20
1.701170457027864
 10
7.637058202240307
 20
1.705943237296136
 10
7.636190424009728
 20
1.710282128449101
 10
7.634744126958715
 20
1.714042500781666
 10
7.633008570497563
 20
1.717368983998924
 10
7.630694495215968
 20
1.720261578100914
 10
7.628235790229292
 20
1.722720283087595
 10
7.6253431961273
 20
1.724745098958966
 10
7.622305972320218
 20
1.72648065542016
 10
7.618834859397832
 20
1.727926952471176
 10
7.615363746475487
 20
1.729083990111973
 10
7.611748003848005
 20
1.72995176834255
 10
7.607987631515442
 20
1.730530287162946
 10
7.604082629477743
 20
1.731108805983344
 10
7.600177627440088
 20
1.731398065393523
 10
7.596417255107525
 20
1.731542695098655
 10
7.592656882774956
 20
1.731542695098655
  0
LWPOLYLINE
  5
9C5
330
17
100
AcDbEntity
  8
4
  6
Continuous
100
AcDbPolyline
 90
       88
 70
     0
 43
0.0
 10
9.149277554532501
 20
1.729373249522151
 10
9.05454509769274
 20
1.729373249522151
 10
9.057148432384511
 20
1.72734843365078
 10
9.059751767076278
 20
1.725034358369186
 10
9.062065842357872
 20
1.722431023677418
 10
9.064235287934334
 20
1.719827688985605
 10
9.065970844395527
 20
1.716790465178525
 10
9.067272511741411
 20
1.713753241371446
 10
9.068140289972028
 20
1.710282128449101
 10
9.068574179087296
 20
1.706811015526713
 10
9.068574179087296
 20
1.606293370482969
 10
9.044131758925573
 20
1.579536875039656
 10
9.131343471100247
 20
1.579536875039656
 10
9.133079027561439
 20
1.579536875039656
 10
9.134814584022596
 20
1.579826134449833
 10
9.13655014048383
 20
1.579970764154922
 10
9.138141067239892
 20
1.580404653270232
 10
9.139876623701088
 20
1.58083854238554
 10
9.14161218016228
 20
1.581417061205939
 10
9.143203106918344
 20
1.581995580026338
 10
9.144938663379535
 20
1.582863358256913
 10
9.146529590135646
 20
1.583586506782399
 10
9.148120516891703
 20
1.584454285013019
 10
9.149566813942724
 20
1.585466692948683
 10
9.151013110993741
 20
1.586479100884389
 10
9.152459408044713
 20
1.587636138525186
 10
9.153905705095686
 20
1.588793176165983
 10
9.155062742736483
 20
1.589950213806779
 10
9.156364410082362
 20
1.591251881152663
 10
9.159835523004755
 20
1.595590772305626
 10
9.162583487401617
 20
1.600652811984077
 10
9.164608303273029
 20
1.606004111072748
 10
9.165765340913823
 20
1.611500039866509
 10
9.165909970618912
 20
1.617140598365359
 10
9.165042192388296
 20
1.622347267748939
 10
9.162872746811792
 20
1.627264677722303
 10
9.159546263594576
 20
1.631603568875266
 10
9.12801698788299
 20
1.618008376595977
 10
9.129607914639056
 20
1.615694301314384
 10
9.130909581984939
 20
1.613090966622613
 10
9.131921989920645
 20
1.610487631930801
 10
9.132645138446136
 20
1.607739667533943
 10
9.133079027561439
 20
1.604991703137041
 10
9.133079027561439
 20
1.602243738740184
 10
9.132645138446136
 20
1.599495774343282
 10
9.131777360215556
 20
1.596892439651511
 10
9.130620322574763
 20
1.595012253485229
 10
9.129318655228876
 20
1.593276697024034
 10
9.127583098767685
 20
1.591685770267972
 10
9.125847542306491
 20
1.590528732627176
 10
9.123822726435076
 20
1.589516324691468
 10
9.121797910563746
 20
1.588648546460894
 10
9.11962846498724
 20
1.588214657345583
 10
9.117459019410738
 20
1.588070027640496
 10
9.068140289972028
 20
1.588070027640496
 10
9.100826603324366
 20
1.621913378633631
 10
9.100826603324366
 20
1.65488895139619
 10
9.139298104880689
 20
1.65488895139619
 10
9.139298104880689
 20
1.666459327804109
 10
9.101405122144763
 20
1.666459327804109
 10
9.101405122144763
 20
1.710426758154189
 10
9.094607526005122
 20
1.7209847266264
 10
9.116446611475028
 20
1.7209847266264
 10
9.121364021448393
 20
1.720695467216224
 10
9.12541365319122
 20
1.719538429575426
 10
9.128595506703343
 20
1.717658243409144
 10
9.130909581984939
 20
1.715054908717375
 10
9.132211249330826
 20
1.712017684910295
 10
9.132645138446136
 20
1.708546571987906
 10
9.132066619625735
 20
1.704641569950251
 10
9.130475692869667
 20
1.700736567912555
 10
9.164319043862812
 20
1.690467858850522
 10
9.1666331191444
 20
1.692926563837203
 10
9.168368675605595
 20
1.695674528234103
 10
9.16967034295148
 20
1.698711752041183
 10
9.170393491476966
 20
1.701748975848262
 10
9.170682750887184
 20
1.70493082936043
 10
9.170393491476966
 20
1.708257312577686
 10
9.16981497265657
 20
1.711439166089896
 10
9.168802564720863
 20
1.714621019602065
 10
9.167500897374974
 20
1.717513613704054
 10
9.165765340913823
 20
1.720406207806003
 10
9.163740525042411
 20
1.722864912792684
 10
9.16128182005573
 20
1.725034358369186
 10
9.15867848536396
 20
1.72691454453547
 10
9.155785891261965
 20
1.728216211881355
 10
9.152604037749803
 20
1.729083990111973
 10
9.149277554532501
 20
1.729373249522151
  0
LWPOLYLINE
  5
A1F
330
17
100
AcDbEntity
  8
4
  6
Continuous
100
AcDbPolyline
 90
       21
 70
     0
 43
0.0
 10
6.14807392204084
 20
1.771701683024874
 10
6.14807392204084
 20
1.601872722709718
 10
6.154712977162637
 20
1.53601566699277
 10
6.162596855119747
 20
1.601872722709718
 10
6.162596855119747
 20
1.771405296635501
 10
6.162419023286155
 20
1.7738356650283
 10
6.161944805063149
 20
1.775969647031725
 10
6.161233477728661
 20
1.777747965367929
 10
6.160344318560579
 20
1.779229897314755
 10
6.159218050280972
 20
1.78035616559436
 10
6.157973227445629
 20
1.781186047484548
 10
6.15666912733243
 20
1.781660265707555
 10
6.155365027219238
 20
1.781838097541146
 10
6.154001649828152
 20
1.781719542985405
 10
6.152697549714954
 20
1.78124532476244
 10
6.15145272687961
 20
1.780415442872209
 10
6.150326458600047
 20
1.779348451870498
 10
6.149437299431927
 20
1.77792579720156
 10
6.14872597209748
 20
1.776147478865359
 10
6.148251753874472
 20
1.774072774139782
 10
6.14807392204084
 20
1.771701683024874
  0
LWPOLYLINE
  5
A36
330
17
100
AcDbEntity
  8
4
  6
Continuous
100
AcDbPolyline
 90
       21
 70
     0
 43
0.0
 10
6.123412263550168
 20
1.74742597861269
 10
6.123412263550168
 20
1.601931999987611
 10
6.130703368728521
 20
1.53601566699277
 10
6.138231583018406
 20
1.601635613598236
 10
6.138231583018406
 20
1.747959474113548
 10
6.138053751184773
 20
1.750330565228455
 10
6.137579532961807
 20
1.752345992676139
 10
6.136868205627314
 20
1.75406503373445
 10
6.135919769181348
 20
1.755487688403429
 10
6.134793500901738
 20
1.75649540212725
 10
6.133548678066438
 20
1.757266006739588
 10
6.132185300675352
 20
1.757680947684704
 10
6.130821923284266
 20
1.757799502240446
 10
6.129458545893179
 20
1.757562393128964
 10
6.128095168502087
 20
1.757028897628106
 10
6.126850345666787
 20
1.756199015737875
 10
6.125724077387186
 20
1.755072747458314
 10
6.124775640941255
 20
1.753590815511484
 10
6.124064313606722
 20
1.751871774453133
 10
6.123590095383762
 20
1.749797069727599
 10
6.123412263550168
 20
1.74742597861269
  0
LINE
  5
A4D
330
17
100
AcDbEntity
  8
0
100
AcDbLine
 10
6.046907417275479
 20
0.7999999999999563
 30
0.0
 11
6.046907417275479
 21
1.815979876780058
 31
0.0
  0
LWPOLYLINE
  5
A4E
330
17
100
AcDbEntity
  8
4
  6
Continuous
100
AcDbPolyline
 90
       21
 70
     0
 43
0.0
 10
6.172083530474957
 20
1.757605381194096
 10
6.172083530474957
 20
1.601872722709718
 10
6.178722585596716
 20
1.53601566699277
 10
6.186606463553864
 20
1.601872722709718
 10
6.186606463553864
 20
1.757308994804723
 10
6.186428631720228
 20
1.759739363197523
 10
6.185954413497223
 20
1.761873345200948
 10
6.185243086162773
 20
1.763651663537149
 10
6.184353926994652
 20
1.765133595483979
 10
6.183227658715089
 20
1.766259863763583
 10
6.181982835879746
 20
1.767089745653814
 10
6.180678735766547
 20
1.767563963876778
 10
6.179374635653355
 20
1.767741795710412
 10
6.178011258262268
 20
1.767623241154669
 10
6.176707158149071
 20
1.767149022931663
 10
6.175462335313727
 20
1.766319141041432
 10
6.174336067034164
 20
1.76525215003972
 10
6.173446907866042
 20
1.763829495370783
 10
6.172735580531553
 20
1.762051177034581
 10
6.172261362308546
 20
1.759976472309046
 10
6.172083530474957
 20
1.757605381194096
  0
LINE
  5
A65
330
17
100
AcDbEntity
  8
0
100
AcDbLine
 10
6.046907417275479
 20
1.134922461148745
 30
0.0
 11
8.773484695253902
 21
1.134922461148745
 31
0.0
  0
TEXT
  5
A66
330
17
100
AcDbEntity
  8
3
100
AcDbText
 10
6.086506016559246
 20
1.186077063341496
 30
0.0
 40
0.0390761491069264
  1
FILE PATH:
  7
SIMPLEX
100
AcDbText
  0
TEXT
  5
A67
330
17
100
AcDbEntity
  8
3
100
AcDbText
 10
6.080274928195279
 20
1.048988710554688
 30
0.0
 40
0.0390761491069264
  1
MAT'L DESCRIPTION:
  7
SIMPLEX
100
AcDbText
  0
TEXT
  5
A68
330
17
100
AcDbEntity
  8
3
100
AcDbText
 10
6.088605668526677
 20
1.425218385710798
 30
0.0
 40
0.0390761491069264
  1
NAME:
  7
SIMPLEX
100
AcDbText
  0
LWPOLYLINE
  5
A69
330
17
100
AcDbEntity
  8
4
  6
Continuous
100
AcDbPolyline
 90
       18
 70
     0
 43
0.0
 10
6.159573713948197
 20
1.601754168153977
 10
6.159514436670348
 20
1.600805731708006
 10
6.159395882114607
 20
1.599857295262034
 10
6.159099495725232
 20
1.599027413371804
 10
6.158743832057966
 20
1.598256808759465
 10
6.158151059279263
 20
1.597545481425018
 10
6.157439731944776
 20
1.59701198592412
 10
6.15660985005454
 20
1.596656322256897
 10
6.155542859052828
 20
1.596478490423264
 10
6.154535145329005
 20
1.596537767701154
 10
6.153586708883036
 20
1.596834154090529
 10
6.152875381548549
 20
1.597367649591386
 10
6.152282608769843
 20
1.598078976925874
 10
6.151808390546835
 20
1.598908858816063
 10
6.15145272687961
 20
1.599798017984184
 10
6.151215617768125
 20
1.600746454430158
 10
6.151156340490281
 20
1.601754168153977
 10
6.159573713948197
 20
1.601754168153977
  0
LWPOLYLINE
  5
A7D
330
17
100
AcDbEntity
  8
4
  6
Continuous
100
AcDbPolyline
 90
       18
 70
     0
 43
0.0
 10
6.15109706321239
 20
1.605251527548491
 10
6.151037785934494
 20
1.60780045049703
 10
6.151037785934494
 20
1.610586482557055
 10
6.151037785934494
 20
1.613609623728603
 10
6.151274895045979
 20
1.61686987401159
 10
6.151689835991137
 20
1.620307956128254
 10
6.152460440603473
 20
1.623983147356358
 10
6.153645986160931
 20
1.627836170418136
 10
6.155365027219238
 20
1.631867025313504
 10
6.156787681888221
 20
1.628073279529617
 10
6.157913950167781
 20
1.624338811023623
 10
6.158743832057966
 20
1.62072289707337
 10
6.159336604836719
 20
1.617225537678856
 10
6.159692268503983
 20
1.613846732840085
 10
6.159810823059724
 20
1.610764314390688
 10
6.159810823059724
 20
1.607859727774924
 10
6.159692268503983
 20
1.605251527548491
 10
6.15109706321239
 20
1.605251527548491
  0
LWPOLYLINE
  5
A91
330
17
100
AcDbEntity
  8
4
  6
Continuous
100
AcDbPolyline
 90
       18
 70
     0
 43
0.0
 10
6.125901909220816
 20
1.605014418437009
 10
6.125842631942968
 20
1.60845250055363
 10
6.12607974105445
 20
1.612009137226034
 10
6.12649468199952
 20
1.615565773898395
 10
6.127087454778268
 20
1.619063133292907
 10
6.127858059390611
 20
1.622382660853787
 10
6.128747218558732
 20
1.625346524747445
 10
6.129754932282555
 20
1.627954724973877
 10
6.130881200562157
 20
1.629970152421561
 10
6.131829637008087
 20
1.628014002251725
 10
6.132778073454105
 20
1.625524356581077
 10
6.133667232622181
 20
1.622501215409528
 10
6.13443783723452
 20
1.619122410570799
 10
6.135089887291119
 20
1.615565773898395
 10
6.135564105514123
 20
1.611949859948141
 10
6.135801214625607
 20
1.60839322327578
 10
6.135801214625607
 20
1.605014418437009
 10
6.125901909220816
 20
1.605014418437009
  0
LWPOLYLINE
  5
AA5
330
17
100
AcDbEntity
  8
4
  6
Continuous
100
AcDbPolyline
 90
       18
 70
     0
 43
0.0
 10
6.135682660069867
 20
1.601754168153977
 10
6.135682660069867
 20
1.600805731708006
 10
6.135564105514123
 20
1.599857295262034
 10
6.13526771912475
 20
1.598968136093954
 10
6.134793500901738
 20
1.598078976925874
 10
6.134200728123036
 20
1.597308372313493
 10
6.133370846232807
 20
1.596715599534788
 10
6.132422409786838
 20
1.596300658589671
 10
6.131236864229382
 20
1.596182104033931
 10
6.130051318671927
 20
1.596359935867521
 10
6.129043604948106
 20
1.596715599534788
 10
6.128154445779983
 20
1.597249095035644
 10
6.127383841167644
 20
1.598019699647982
 10
6.126850345666787
 20
1.598849581538213
 10
6.126376127443825
 20
1.599738740706293
 10
6.126139018332298
 20
1.600746454430158
 10
6.126020463776557
 20
1.601754168153977
 10
6.135682660069867
 20
1.601754168153977
  0
LWPOLYLINE
  5
AB9
330
17
100
AcDbEntity
  8
4
  6
Continuous
100
AcDbPolyline
 90
       18
 70
     0
 43
0.0
 10
6.175106671646505
 20
1.605251527548491
 10
6.175047394368611
 20
1.60780045049703
 10
6.175047394368611
 20
1.610586482557055
 10
6.175047394368611
 20
1.613609623728603
 10
6.175284503480097
 20
1.61686987401159
 10
6.175699444425212
 20
1.620307956128254
 10
6.17647004903759
 20
1.623983147356358
 10
6.177655594595004
 20
1.627836170418136
 10
6.179374635653355
 20
1.631867025313504
 10
6.180797290322287
 20
1.628073279529617
 10
6.181923558601854
 20
1.624338811023623
 10
6.182753440492081
 20
1.62072289707337
 10
6.183346213270833
 20
1.617225537678856
 10
6.183701876938097
 20
1.613846732840085
 10
6.183820431493798
 20
1.610764314390688
 10
6.183820431493798
 20
1.607859727774924
 10
6.183701876938097
 20
1.605251527548491
 10
6.175106671646505
 20
1.605251527548491
  0
LWPOLYLINE
  5
ACD
330
17
100
AcDbEntity
  8
4
  6
Continuous
100
AcDbPolyline
 90
       18
 70
     0
 43
0.0
 10
6.183583322382317
 20
1.601754168153977
 10
6.183524045104465
 20
1.600805731708006
 10
6.183405490548724
 20
1.599857295262034
 10
6.183109104159349
 20
1.599027413371804
 10
6.182753440492081
 20
1.598256808759465
 10
6.182160667713378
 20
1.597545481425018
 10
6.181449340378892
 20
1.59701198592412
 10
6.180619458488656
 20
1.596656322256897
 10
6.179552467486946
 20
1.596478490423264
 10
6.178544753763122
 20
1.596537767701154
 10
6.177596317317152
 20
1.596834154090529
 10
6.176884989982664
 20
1.597367649591386
 10
6.176292217203915
 20
1.598078976925874
 10
6.175817998980952
 20
1.598908858816063
 10
6.175462335313727
 20
1.599798017984184
 10
6.175225226202203
 20
1.600746454430158
 10
6.175165948924355
 20
1.601754168153977
 10
6.183583322382317
 20
1.601754168153977
  0
LWPOLYLINE
  5
AE1
330
17
100
AcDbEntity
  8
4
  6
Continuous
100
AcDbPolyline
 90
        5
 70
     0
 43
0.0
 10
6.781229812169808
 20
1.654455062280883
 10
6.738853308575791
 20
1.681500817134416
 10
6.738853308575791
 20
1.655033581101281
 10
6.781374441874895
 20
1.632182087695665
 10
6.781229812169808
 20
1.654455062280883
  0
TEXT
  5
AE8
330
17
100
AcDbEntity
  8
3
100
AcDbText
 10
6.467840961571366
 20
0.8915767529290155
 30
0.0
 40
0.0581453098711065
  1
MATERIAL: .016 ALUMINUM (P/N 6300.16)
  7
SIMPLEX
 72
     1
 11
7.410625628767164
 21
0.8915767529290155
 31
0.0
100
AcDbText
  0
TEXT
  5
AE9
330
17
100
AcDbEntity
  8
3
100
AcDbText
 10
6.890853868139058
 20
1.172721701144442
 30
0.0
 40
0.0581453098711065
  1
DWG/PART NO/2620.69
  7
SIMPLEX
 72
     1
 11
7.414161656979016
 21
1.172721701144442
 31
0.0
100
AcDbText
  0
TEXT
  5
AEA
330
17
100
AcDbEntity
  8
3
100
AcDbText
 10
8.81058982005296
 20
1.015588455926574
 30
0.0
 40
0.0390761491069264
  1
PART/DWG. NO.
  7
SIMPLEX
100
AcDbText
  0
LINE
  5
AEB
330
17
100
AcDbEntity
  8
0
100
AcDbLine
 10
8.773484695253902
 20
0.7999999999999563
 30
0.0
 11
8.773484695253902
 21
1.268913789283077
 31
0.0
  0
TEXT
  5
AEC
330
17
100
AcDbEntity
  8
3
100
AcDbText
 10
7.629284163789527
 20
1.311149142688045
 30
0.0
 40
0.0781522982138528
  1
ALUMINUM SLIDE
  7
SIMPLEX
 72
     1
 11
8.111223336108286
 21
1.311149142688045
 31
0.0
100
AcDbText
  0
TEXT
  5
AED
330
17
100
AcDbEntity
  8
3
100
AcDbText
 10
9.232024171881027
 20
1.161751422157341
 30
0.0
 40
0.038763539914071
  1
OF
  7
SIMPLEX
100
AcDbText
  0
TEXT
  5
AEE
330
17
100
AcDbEntity
  8
3
100
AcDbText
 10
8.830739989161255
 20
1.162083521424067
 30
0.0
 40
0.038763539914071
  1
SHEET
  7
SIMPLEX
100
AcDbText
  0
TEXT
  5
AEF
330
17
100
AcDbEntity
  8
3
100
AcDbText
 10
9.095907186201896
 20
1.14069934460157
 30
0.0
 40
0.0781522982138528
  1
1
  7
SIMPLEX
100
AcDbText
  0
TEXT
  5
AF0
330
17
100
AcDbEntity
  8
3
100
AcDbText
 10
9.400426086095226
 20
1.14069934460157
 30
0.0
 40
0.0781522982138528
  1
1
  7
SIMPLEX
100
AcDbText
  0
LINE
  5
AF1
330
17
100
AcDbEntity
  8
0
100
AcDbLine
 10
9.500003654213116
 20
1.088837136489871
 30
0.0
 11
9.500003654213116
 21
1.268913789283077
 31
0.0
  0
LINE
  5
AF3
330
17
100
AcDbEntity
  8
0
100
AcDbLine
 10
6.155218017985428
 20
1.781825314129531
 30
0.0
 11
6.155218017985428
 21
1.781825314129531
 31
0.0
  0
LINE
  5
AF9
330
17
100
AcDbEntity
  8
0
100
AcDbLine
 10
9.839754791408363
 20
0.799999999999999
 30
0.0
 11
9.839754791408363
 21
1.088837136489871
 31
0.0
  0
TEXT
  5
AFA
330
17
100
AcDbEntity
  8
3
100
AcDbText
 10
9.991191803339741
 20
0.8589523399345065
 30
0.0
 40
0.0875305739995151
  1
*
  7
SIMPLEX
 72
     1
 11
10.01203241619677
 21
0.8589523399345065
 31
0.0
100
AcDbText
  0
TEXT
  5
AFB
330
17
100
AcDbEntity
  8
3
100
AcDbText
 10
9.957937952005462
 20
1.015346836363333
 30
0.0
 40
0.0390761491069264
  1
REV.
  7
SIMPLEX
100
AcDbText
  0
TEXT
  5
AFC
330
17
100
AcDbEntity
  8
3
100
AcDbText
 10
9.906909695007863
 20
1.148242052218146
 30
0.0
 40
0.0535812156554175
  1
1=1
  7
SIMPLEX
 72
     1
 11
9.966869626812735
 21
1.148242052218146
 31
0.0
100
AcDbText
  0
TEXT
  5
AFD
330
17
100
AcDbEntity
  8
2
100
AcDbText
 10
7.863880737611827
 20
7.572559019520411
 30
0.0
 40
0.078
  1
E
  7
SIMPLEX
 72
     1
 11
7.888023594754685
 21
7.572559019520411
 31
0.0
100
AcDbText
  0
TEXT
  5
AFE
330
17
100
AcDbEntity
  8
2
100
AcDbText
 10
6.331771364688003
 20
7.572559019520411
 30
0.0
 40
0.078
  1
D
  7
SIMPLEX
 72
     1
 11
6.357771364688002
 21
7.572559019520411
 31
0.0
100
AcDbText
  0
LINE
  5
AFF
330
17
100
AcDbEntity
  8
3
100
AcDbLine
 10
7.157807902804349
 20
7.575126224606082
 30
0.0
 11
7.157807902804349
 21
7.7
 31
0.0
  0
LINE
  5
B00
330
17
100
AcDbEntity
  8
3
100
AcDbLine
 10
8.666403951402173
 20
7.575126224606082
 30
0.0
 11
8.666403951402173
 21
7.7
 31
0.0
  0
TEXT
  5
B01
330
17
100
AcDbEntity
  8
2
100
AcDbText
 10
9.372272221534707
 20
7.572559019520411
 30
0.0
 40
0.078
  1
F
  7
SIMPLEX
 72
     1
 11
9.396415078677565
 21
7.572559019520411
 31
0.0
100
AcDbText
  0
LINE
  5
B02
330
17
100
AcDbEntity
  8
4
100
AcDbLine
 10
11.04999999999999
 20
8.5
 30
0.0
 11
0.0000000000000002
 21
8.499999999999998
 31
0.0
  0
LINE
  5
B1C
330
17
100
AcDbEntity
  8
0
100
AcDbLine
 10
3.031164724796336
 20
5.823210916016918
 30
0.0
 11
3.031164724796336
 21
4.698210916016916
 31
0.0
  0
LINE
  5
B1D
330
17
100
AcDbEntity
  8
0
100
AcDbLine
 10
3.093664724796336
 20
4.573210916016917
 30
0.0
 11
5.156164724796337
 21
4.573210916016917
 31
0.0
  0
LINE
  5
B1E
330
17
100
AcDbEntity
  8
0
100
AcDbLine
 10
5.156164724796337
 20
4.573210916016917
 30
0.0
 11
5.156164724796337
 21
5.948210916016918
 31
0.0
  0
LINE
  5
B1F
330
17
100
AcDbEntity
  8
0
100
AcDbLine
 10
5.156164724796337
 20
5.948210916016918
 30
0.0
 11
3.093664724796336
 21
5.948210916016918
 31
0.0
  0
LINE
  5
B21
330
17
100
AcDbEntity
  8
0
100
AcDbLine
 10
3.031164724796336
 20
2.915822249865231
 30
0.0
 11
5.156164724796337
 21
2.915822249865231
 31
0.0
  0
LINE
  5
B22
330
17
100
AcDbEntity
  8
0
100
AcDbLine
 10
3.031164724796336
 20
2.931822249865232
 30
0.0
 11
3.031164724796336
 21
2.915822249865231
 31
0.0
  0
LINE
  5
B23
330
17
100
AcDbEntity
  8
0
100
AcDbLine
 10
5.156164724796337
 20
2.915822249865231
 30
0.0
 11
5.156164724796337
 21
3.290822249865231
 31
0.0
  0
LINE
  5
B24
330
17
100
AcDbEntity
  8
0
100
AcDbLine
 10
6.047225690273722
 20
2.915822249865231
 30
0.0
 11
7.422225690273722
 21
2.915822249865231
 31
0.0
  0
LINE
  5
B26
330
17
100
AcDbEntity
  8
0
100
AcDbLine
 10
6.047225690273722
 20
3.103322249865232
 30
0.0
 11
6.047225690273722
 21
2.915822249865231
 31
0.0
  0
LINE
  5
B28
330
17
100
AcDbEntity
  8
0
100
AcDbLine
 10
5.140164724796337
 20
3.290822249865231
 30
0.0
 11
5.156164724796337
 21
3.290822249865231
 31
0.0
  0
LINE
  5
B29
330
17
100
AcDbEntity
  8
0
100
AcDbLine
 10
6.234725690273722
 20
3.290822249865232
 30
0.0
 11
7.234725690273722
 21
3.290822249865231
 31
0.0
  0
LINE
  5
B2A
330
17
100
AcDbEntity
  8
0
100
AcDbLine
 10
7.422225690273722
 20
3.103322249865231
 30
0.0
 11
7.422225690273722
 21
2.915822249865231
 31
0.0
  0
LINE
  5
B2B
330
17
100
AcDbEntity
  8
0
100
AcDbLine
 10
3.031164724796336
 20
2.931822249865231
 30
0.0
 11
5.140164724796337
 21
2.931822249865231
 31
0.0
  0
LINE
  5
B2C
330
17
100
AcDbEntity
  8
0
100
AcDbLine
 10
5.140164724796337
 20
2.931822249865231
 30
0.0
 11
5.140164724796337
 21
3.290822249865231
 31
0.0
  0
LINE
  5
B2D
330
17
100
AcDbEntity
  8
3
  6
HIDDEN
100
AcDbLine
 10
6.047225690273722
 20
2.931822249865231
 30
0.0
 11
7.422225690273722
 21
2.931822249865231
 31
0.0
  0
LINE
  5
B2E
330
17
100
AcDbEntity
  8
0
100
AcDbLine
 10
5.140164724796337
 20
4.573210916016917
 30
0.0
 11
5.140164724796337
 21
5.948210916016918
 31
0.0
  0
LINE
  5
B2F
330
17
100
AcDbEntity
  8
0
100
AcDbLine
 10
5.140164724796337
 20
3.103322249865231
 30
0.0
 11
5.156164724796337
 21
3.103322249865231
 31
0.0
  0
LINE
  5
B30
330
17
100
AcDbEntity
  8
0
100
AcDbLine
 10
5.140164724796337
 20
4.760710916016917
 30
0.0
 11
5.156164724796337
 21
4.760710916016917
 31
0.0
  0
LINE
  5
B31
330
17
100
AcDbEntity
  8
0
100
AcDbLine
 10
5.156164724796337
 20
5.760710916016918
 30
0.0
 11
5.140164724796337
 21
5.760710916016918
 31
0.0
  0
LINE
  5
B32
330
17
100
AcDbEntity
  8
0
100
AcDbLine
 10
6.047225690273722
 20
3.103322249865232
 30
0.0
 11
6.234725690273722
 21
3.290822249865232
 31
0.0
  0
LINE
  5
B33
330
17
100
AcDbEntity
  8
0
100
AcDbLine
 10
7.234725690273722
 20
3.290822249865231
 30
0.0
 11
7.422225690273722
 21
3.103322249865231
 31
0.0
  0
DIMENSION
  5
B34
330
17
100
AcDbEntity
  8
3
100
AcDbDimension
  2
*D0
 10
5.156164724796337
 20
2.527623741139862
 30
0.0
 11
4.093664724796337
 21
2.527623741139862
 31
0.0
 70
    32
 71
     5
 42
2.125
  3
STANDARD
100
AcDbAlignedDimension
 13
3.031164724796336
 23
2.915822249865231
 33
0.0
 14
5.156164724796337
 24
2.915822249865231
 34
0.0
100
AcDbRotatedDimension
1001
ACAD
1000
DSTYLE
1002
{
1070
    41
1040
0.125
1070
    44
1040
0.0625
1070
    78
1070
     4
1070
   140
1040
0.125
1070
   141
1040
-0.125
1070
   271
1070
     5
1070
   272
1070
     5
1070
   276
1070
     2
1070
   277
1070
     5
1070
   279
1070
     2
1070
   284
1070
     4
1070
   285
1070
     4
1070
   286
1070
     4
1070
   340
1005
1C
1002
}
  0
DIMENSION
  5
B79
330
17
100
AcDbEntity
  8
3
100
AcDbDimension
  2
*D2
 10
7.949847999885883
 20
2.915822249865231
 30
0.0
 11
8.181762215130959
 21
3.661918762991415
 31
0.0
 70
   160
 71
     5
 42
0.3750000000000004
  3
STANDARD
100
AcDbAlignedDimension
 13
7.234725690273722
 23
3.290822249865231
 33
0.0
 14
7.422225690273722
 24
2.915822249865231
 34
0.0
 50
90.0
100
AcDbRotatedDimension
1001
ACAD
1000
DSTYLE
1002
{
1070
    41
1040
0.125
1070
    44
1040
0.0625
1070
    78
1070
     4
1070
   140
1040
0.125
1070
   141
1040
-0.125
1070
   271
1070
     5
1070
   272
1070
     5
1070
   276
1070
     2
1070
   277
1070
     5
1070
   279
1070
     2
1070
   284
1070
     4
1070
   285
1070
     4
1070
   286
1070
     4
1070
   340
1005
1C
1002
}
  0
DIMENSION
  5
BD7
330
17
100
AcDbEntity
  8
3
100
AcDbDimension
  2
*D4
 10
5.564444656240914
 20
4.573210916016917
 30
0.0
 11
5.564444656240914
 21
5.260710916016918
 31
0.0
 70
    32
 71
     5
 42
1.375
  3
STANDARD
100
AcDbAlignedDimension
 13
5.156164724796337
 23
5.948210916016918
 33
0.0
 14
5.156164724796337
 24
4.573210916016917
 34
0.0
 50
90.0
100
AcDbRotatedDimension
1001
ACAD
1000
DSTYLE
1002
{
1070
    41
1040
0.125
1070
    44
1040
0.0625
1070
    78
1070
     4
1070
   140
1040
0.125
1070
   141
1040
-0.125
1070
   271
1070
     5
1070
   272
1070
     5
1070
   276
1070
     2
1070
   277
1070
     5
1070
   279
1070
     2
1070
   284
1070
     4
1070
   285
1070
     4
1070
   286
1070
     4
1070
   340
1005
1C
1002
}
  0
DIMENSION
  5
BE5
330
17
100
AcDbEntity
  8
3
100
AcDbDimension
  2
*D5
 10
2.682082271153602
 20
2.931822249865232
 30
0.0
 11
2.67103872393283
 21
3.308636252154747
 31
0.0
 70
   160
  1
.016
 71
     5
 42
0.0160000000000005
  3
STANDARD
100
AcDbAlignedDimension
 13
3.031164724796336
 23
2.915822249865231
 33
0.0
 14
3.031164724796336
 24
2.931822249865232
 34
0.0
 50
90.0
100
AcDbRotatedDimension
1001
ACAD
1000
DSTYLE
1002
{
1070
    41
1040
0.125
1070
    44
1040
0.0625
1070
    78
1070
     4
1070
   140
1040
0.125
1070
   141
1040
-0.125
1070
   271
1070
     5
1070
   272
1070
     5
1070
   276
1070
     2
1070
   277
1070
     5
1070
   279
1070
     2
1070
   284
1070
     4
1070
   285
1070
     4
1070
   286
1070
     4
1070
   340
1005
1C
1002
}
  0
ARC
  5
C17
330
17
100
AcDbEntity
  8
0
100
AcDbCircle
 10
3.313172200367006
 20
5.760332178231581
 30
0.0
 40
0.2889324349103421
100
AcDbArc
 50
139.4394363995955
 51
167.4304612462482
  0
ARC
  5
C18
330
17
100
AcDbEntity
  8
0
100
AcDbCircle
 10
3.313172200367006
 20
4.761089653802254
 30
0.0
 40
0.2889324349103421
100
AcDbArc
 50
192.5695387537517
 51
220.5605636004044
  0
ENDSEC
  0
SECTION
  2
OBJECTS
  0
DICTIONARY
  5
C
330
0
100
AcDbDictionary
281
     1
  3
ACAD_CIP_PREVIOUS_PRODUCT_INFO
350
C6F
  3
ACAD_COLOR
350
C51
  3
ACAD_DETAILVIEWSTYLE
350
C6A
  3
ACAD_GROUP
350
D
  3
ACAD_LAYOUT
350
B15
  3
ACAD_MATERIAL
350
C1F
  3
ACAD_MLEADERSTYLE
350
C66
  3
ACAD_MLINESTYLE
350
1A
  3
ACAD_PLOTSETTINGS
350
B16
  3
ACAD_PLOTSTYLENAME
350
B13
  3
ACAD_SCALELIST
350
C54
  3
ACAD_SECTIONVIEWSTYLE
350
C68
  3
ACAD_TABLESTYLE
350
C52
  3
ACAD_VISUALSTYLE
350
C38
  3
ACDB_RECOMPOSE_DATA
350
D11
  3
ACDBVARIABLEDICTIONARY
350
2B
  3
AcDsDecomposeData
350
D18
  3
DWGPROPS
350
D12
  0
DICTIONARY
  5
C95
330
2
100
AcDbDictionary
280
     1
281
     1
  3
ACAD_LAYERSTATES
360
C96
  0
DICTIONARY
  5
C8A
330
E
100
AcDbDictionary
280
     1
281
     1
  3
ADSK_XREC_LAYER_RECONCILED
360
C8B
  0
DICTIONARY
  5
C8C
330
23
100
AcDbDictionary
280
     1
281
     1
  3
ADSK_XREC_LAYER_RECONCILED
360
C8D
  0
DICTIONARY
  5
C8E
330
24
100
AcDbDictionary
280
     1
281
     1
  3
ADSK_XREC_LAYER_RECONCILED
360
C8F
  0
DICTIONARY
  5
C90
330
25
100
AcDbDictionary
280
     1
281
     1
  3
ADSK_XREC_LAYER_RECONCILED
360
C91
  0
XRECORD
  5
C6F
102
{ACAD_REACTORS
330
C
102
}
330
C
100
AcDbXrecord
280
     1
300
AMECH_PP
300
2015
300
PDSU_F_S
  0
DICTIONARY
  5
C51
102
{ACAD_REACTORS
330
C
102
}
330
C
100
AcDbDictionary
281
     1
  0
DICTIONARY
  5
C6A
102
{ACAD_REACTORS
330
C
102
}
330
C
100
AcDbDictionary
281
     1
  3
Imperial24
350
C6B
  0
DICTIONARY
  5
D
102
{ACAD_REACTORS
330
C
102
}
330
C
100
AcDbDictionary
281
     1
  0
DICTIONARY
  5
B15
102
{ACAD_REACTORS
330
C
102
}
330
C
100
AcDbDictionary
281
     1
  3
Layout1
350
B18
  3
Model
350
B17
  0
DICTIONARY
  5
C1F
102
{ACAD_REACTORS
330
C
102
}
330
C
100
AcDbDictionary
281
     1
  3
ByBlock
350
C28
  3
ByLayer
350
C20
  3
Global
350
C30
  0
DICTIONARY
  5
C66
102
{ACAD_REACTORS
330
C
102
}
330
C
100
AcDbDictionary
281
     1
  3
Standard
350
C67
  0
DICTIONARY
  5
1A
102
{ACAD_REACTORS
330
C
102
}
330
C
100
AcDbDictionary
281
     1
  3
STANDARD
350
1B
  0
DICTIONARY
  5
B16
102
{ACAD_REACTORS
330
C
102
}
330
C
100
AcDbDictionary
281
     1
  0
ACDBDICTIONARYWDFLT
  5
B13
102
{ACAD_REACTORS
330
C
102
}
330
C
100
AcDbDictionary
281
     1
  3
Normal
350
B14
100
AcDbDictionaryWithDefault
340
B14
  0
DICTIONARY
  5
C54
102
{ACAD_REACTORS
330
C
102
}
330
C
100
AcDbDictionary
281
     1
  3
A0
350
C55
  3
A1
350
C56
  3
A2
350
C57
  3
A3
350
C58
  3
A4
350
C59
  3
A5
350
C5A
  3
A6
350
C5B
  3
A7
350
C5C
  3
A8
350
C5D
  3
A9
350
C5E
  3
B0
350
C5F
  3
B1
350
C60
  3
B2
350
C61
  3
B3
350
C62
  3
B4
350
C63
  3
B5
350
C64
  3
B6
350
C65
  0
DICTIONARY
  5
C68
102
{ACAD_REACTORS
330
C
102
}
330
C
100
AcDbDictionary
281
     1
  3
Imperial24
350
C69
  0
DICTIONARY
  5
C52
102
{ACAD_REACTORS
330
C
102
}
330
C
100
AcDbDictionary
281
     1
  3
Standard
350
C53
  0
DICTIONARY
  5
C38
102
{ACAD_REACTORS
330
C
102
}
330
C
100
AcDbDictionary
281
     1
  3
2dWireframe
350
C3E
  3
Basic
350
C3D
  3
Brighten
350
C44
  3
ColorChange
350
C48
  3
Conceptual
350
C41
  3
Dim
350
C43
  3
EdgeColorOff
350
C50
  3
Facepattern
350
C47
  3
Flat
350
C39
  3
FlatWithEdges
350
C3A
  3
Gouraud
350
C3B
  3
GouraudWithEdges
350
C3C
  3
Hidden
350
C40
  3
JitterOff
350
C4E
  3
Linepattern
350
C46
  3
OverhangOff
350
C4F
  3
Realistic
350
C42
  3
Shaded
350
C4D
  3
Shaded with edges
350
C4C
  3
Shades of Gray
350
C49
  3
Sketchy
350
C4A
  3
Thicken
350
C45
  3
Wireframe
350
C3F
  3
X-Ray
350
C4B
  0
XRECORD
  5
D11
102
{ACAD_REACTORS
330
C
102
}
330
C
100
AcDbXrecord
280
     1
 90
        1
330
C53
  0
DICTIONARY
  5
2B
102
{ACAD_REACTORS
330
C
102
}
330
C
100
AcDbDictionary
281
     1
  3
CANNOSCALE
350
CF1
  3
CMLEADERSTYLE
350
CED
  3
CTABLESTYLE
350
CEC
  3
CVIEWDETAILSTYLE
350
CEE
  3
CVIEWSECTIONSTYLE
350
CEF
  3
DIMADEC
350
2C
  3
DIMASSOC
350
C14
  3
INDEXCTL
350
D0B
  3
LAYEREVAL
350
CF3
  3
LAYERNOTIFY
350
CF4
  3
LIGHTINGUNITS
350
CF2
  3
LOFTANG1
350
D0C
  3
LOFTANG2
350
D0D
  3
LONGITUDE
350
D0E
  3
MSLTSCALE
350
CF0
  3
SORTENTS
350
D0A
  3
XCLIPFRAME
350
D0F
  0
DICTIONARY
  5
D18
102
{ACAD_REACTORS
330
C
102
}
330
C
100
AcDbDictionary
281
     1
  3
AcDsRecords
350
D1A
  3
AcDsSchemas
350
D19
1001
ACAD
1070
     2
  0
XRECORD
  5
D12
102
{ACAD_REACTORS
330
C
102
}
330
C
100
AcDbXrecord
280
     1
  1
DWGPROPS COOKIE
  2

  3

  4

  6

  7

  8
jmilewski
  9

300
=
301
=
302
=
303
=
304
=
305
=
306
=
307
=
308
=
309
=
 40
0.1680740277777778
 41
2449051.539295139
 42
2457155.475089653
  1

 90
        0
  0
DICTIONARY
  5
C96
102
{ACAD_REACTORS
330
C95
102
}
330
C95
100
AcDbDictionary
281
     1
  0
XRECORD
  5
C8B
102
{ACAD_REACTORS
330
C8A
102
}
330
C8A
100
AcDbXrecord
280
     1
290
     1
  0
XRECORD
  5
C8D
102
{ACAD_REACTORS
330
C8C
102
}
330
C8C
100
AcDbXrecord
280
     1
290
     1
  0
XRECORD
  5
C8F
102
{ACAD_REACTORS
330
C8E
102
}
330
C8E
100
AcDbXrecord
280
     1
290
     1
  0
XRECORD
  5
C91
102
{ACAD_REACTORS
330
C90
102
}
330
C90
100
AcDbXrecord
280
     1
290
     1
  0
ACDBDETAILVIEWSTYLE
  5
C6B
102
{ACAD_XDICTIONARY
360
CF9
102
}
102
{ACAD_REACTORS
330
C6A
102
}
330
C6A
100
AcDbModelDocViewStyle
 70
     0
  3
Imperial24
290
     0
100
AcDbDetailViewStyle
 70
     0
 71
     0
 90
        3
 71
     1
340
F
 40
0.24
340
0
 40
0.24
300

 40
0.36
280
     3
 71
     2
340
13
 90
       25
 71
     3
340
F
 40
0.24
 90
        1
 40
0.75
 90
        1
300
%<\AcVar ViewType \f "%tc1">% %<\AcVar ViewDetailId>%\PSCALE %<\AcVar ViewScale \f "%sn">%
 71
     4
340
13
 90
       25
340
13
 90
       25
280
     0
  0
LAYOUT
  5
B18
102
{ACAD_XDICTIONARY
360
D1D
102
}
102
{ACAD_REACTORS
330
B15
102
}
330
B15
100
AcDbPlotSettings
  1

  2
HP DesignJet 500 42 by HP
  4

  6

 40
0.0
 41
0.0
 42
0.0
 43
0.0
 44
0.0
 45
0.0
 46
0.0
 47
0.0
 48
0.0
 49
0.0
140
0.0
141
0.0
142
1.0
143
1.0
 70
   688
 72
     0
 73
     0
 74
     5
  7
blk1500.ctb
 75
    16
147
1.0
148
0.0
149
0.0
100
AcDbLayout
  1
Layout1
 70
     0
 71
     1
 10
0.0
 20
0.0
 11
12.0
 21
9.0
 12
0.0
 22
0.0
 32
0.0
 14
1.000000000000000E+20
 24
1.000000000000000E+20
 34
1.000000000000000E+20
 15
-1.000000000000000E+20
 25
-1.000000000000000E+20
 35
-1.000000000000000E+20
146
0.0
 13
0.0
 23
0.0
 33
0.0
 16
1.0
 26
0.0
 36
0.0
 17
0.0
 27
1.0
 37
0.0
 76
     0
330
14
  0
LAYOUT
  5
B17
102
{ACAD_XDICTIONARY
360
D1B
102
}
102
{ACAD_REACTORS
330
B15
102
}
330
B15
100
AcDbPlotSettings
  1

  2
HP DesignJet 500 42 by HP
  4
User262
  6

 40
4.995333194732666
 41
16.97567367553711
 42
4.995330810546875
 43
16.97567749023437
 44
215.857666015625
 45
279.3153381347656
 46
0.0
 47
0.0
 48
0.0
 49
0.0
140
0.0
141
0.0
142
1.0
143
1.0
 70
 11952
 72
     0
 73
     1
 74
     0
  7
PHOTO.ctb
 75
     0
147
1.0
148
-25.54655502065664
149
6.832195834122543
100
AcDbLayout
  1
Model
 70
     1
 71
     0
 10
0.0
 20
0.0
 11
12.0
 21
9.0
 12
0.0
 22
0.0
 32
0.0
 14
0.0
 24
0.0
 34
0.0
 15
0.0
 25
0.0
 35
0.0
146
0.0
 13
0.0
 23
0.0
 33
0.0
 16
1.0
 26
0.0
 36
0.0
 17
0.0
 27
1.0
 37
0.0
 76
     0
330
17
331
C1D
  0
MATERIAL
  5
C28
102
{ACAD_XDICTIONARY
360
C29
102
}
102
{ACAD_REACTORS
330
C1F
102
}
330
C1F
100
AcDbMaterial
  1
ByBlock
 72
     0
 43
0.0208333333333333
 43
0.0
 43
0.0
 43
0.0
 43
0.0
 43
0.0208333333333333
 43
0.0
 43
0.0
 43
0.0
 43
0.0
 43
1.0
 43
0.0
 43
0.0
 43
0.0
 43
0.0
 43
1.0
 77
     0
 47
0.0208333333333333
 47
0.0
 47
0.0
 47
0.0
 47
0.0
 47
0.0208333333333333
 47
0.0
 47
0.0
 47
0.0
 47
0.0
 47
1.0
 47
0.0
 47
0.0
 47
0.0
 47
0.0
 47
1.0
171
     0
 49
0.0208333333333333
 49
0.0
 49
0.0
 49
0.0
 49
0.0
 49
0.0208333333333333
 49
0.0
 49
0.0
 49
0.0
 49
0.0
 49
1.0
 49
0.0
 49
0.0
 49
0.0
 49
0.0
 49
1.0
175
     0
142
0.0208333333333333
142
0.0
142
0.0
142
0.0
142
0.0
142
0.0208333333333333
142
0.0
142
0.0
142
0.0
142
0.0
142
1.0
142
0.0
142
0.0
142
0.0
142
0.0
142
1.0
179
     0
144
0.0208333333333333
144
0.0
144
0.0
144
0.0
144
0.0
144
0.0208333333333333
144
0.0
144
0.0
144
0.0
144
0.0
144
1.0
144
0.0
144
0.0
144
0.0
144
0.0
144
1.0
147
0.0208333333333333
147
0.0
147
0.0
147
0.0
147
0.0
147
0.0208333333333333
147
0.0
147
0.0
147
0.0
147
0.0
147
1.0
147
0.0
147
0.0
147
0.0
147
0.0
147
1.0
  0
MATERIAL
  5
C20
102
{ACAD_XDICTIONARY
360
C21
102
}
102
{ACAD_REACTORS
330
C1F
102
}
330
C1F
100
AcDbMaterial
  1
ByLayer
 72
     0
 43
0.0208333333333333
 43
0.0
 43
0.0
 43
0.0
 43
0.0
 43
0.0208333333333333
 43
0.0
 43
0.0
 43
0.0
 43
0.0
 43
1.0
 43
0.0
 43
0.0
 43
0.0
 43
0.0
 43
1.0
 77
     0
 47
0.0208333333333333
 47
0.0
 47
0.0
 47
0.0
 47
0.0
 47
0.0208333333333333
 47
0.0
 47
0.0
 47
0.0
 47
0.0
 47
1.0
 47
0.0
 47
0.0
 47
0.0
 47
0.0
 47
1.0
171
     0
 49
0.0208333333333333
 49
0.0
 49
0.0
 49
0.0
 49
0.0
 49
0.0208333333333333
 49
0.0
 49
0.0
 49
0.0
 49
0.0
 49
1.0
 49
0.0
 49
0.0
 49
0.0
 49
0.0
 49
1.0
175
     0
142
0.0208333333333333
142
0.0
142
0.0
142
0.0
142
0.0
142
0.0208333333333333
142
0.0
142
0.0
142
0.0
142
0.0
142
1.0
142
0.0
142
0.0
142
0.0
142
0.0
142
1.0
179
     0
144
0.0208333333333333
144
0.0
144
0.0
144
0.0
144
0.0
144
0.0208333333333333
144
0.0
144
0.0
144
0.0
144
0.0
144
1.0
144
0.0
144
0.0
144
0.0
144
0.0
144
1.0
147
0.0208333333333333
147
0.0
147
0.0
147
0.0
147
0.0
147
0.0208333333333333
147
0.0
147
0.0
147
0.0
147
0.0
147
1.0
147
0.0
147
0.0
147
0.0
147
0.0
147
1.0
  0
MATERIAL
  5
C30
102
{ACAD_XDICTIONARY
360
C31
102
}
102
{ACAD_REACTORS
330
C1F
102
}
330
C1F
100
AcDbMaterial
  1
Global
 72
     0
 43
0.0208333333333333
 43
0.0
 43
0.0
 43
0.0
 43
0.0
 43
0.0208333333333333
 43
0.0
 43
0.0
 43
0.0
 43
0.0
 43
1.0
 43
0.0
 43
0.0
 43
0.0
 43
0.0
 43
1.0
 77
     0
 47
0.0208333333333333
 47
0.0
 47
0.0
 47
0.0
 47
0.0
 47
0.0208333333333333
 47
0.0
 47
0.0
 47
0.0
 47
0.0
 47
1.0
 47
0.0
 47
0.0
 47
0.0
 47
0.0
 47
1.0
171
     0
 49
0.0208333333333333
 49
0.0
 49
0.0
 49
0.0
 49
0.0
 49
0.0208333333333333
 49
0.0
 49
0.0
 49
0.0
 49
0.0
 49
1.0
 49
0.0
 49
0.0
 49
0.0
 49
0.0
 49
1.0
175
     0
142
0.0208333333333333
142
0.0
142
0.0
142
0.0
142
0.0
142
0.0208333333333333
142
0.0
142
0.0
142
0.0
142
0.0
142
1.0
142
0.0
142
0.0
142
0.0
142
0.0
142
1.0
179
     0
144
0.0208333333333333
144
0.0
144
0.0
144
0.0
144
0.0
144
0.0208333333333333
144
0.0
144
0.0
144
0.0
144
0.0
144
1.0
144
0.0
144
0.0
144
0.0
144
0.0
144
1.0
147
0.0208333333333333
147
0.0
147
0.0
147
0.0
147
0.0
147
0.0208333333333333
147
0.0
147
0.0
147
0.0
147
0.0
147
1.0
147
0.0
147
0.0
147
0.0
147
0.0
147
1.0
  0
MLEADERSTYLE
  5
C67
102
{ACAD_XDICTIONARY
360
D54
102
}
102
{ACAD_REACTORS
330
C66
102
}
330
C66
100
AcDbMLeaderStyle
170
     2
171
     1
172
     0
 90
        2
 40
0.0
 41
0.0
173
     1
 91
-1056964608
340
11
 92
       -2
290
     1
 42
0.09
291
     1
 43
0.36
  3
Standard
 44
0.18
300

342
F
174
     1
178
     6
175
     1
176
     0
 93
-1056964608
 45
0.18
292
     0
297
     0
 46
0.18
 94
-1056964608
 47
1.0
 49
1.0
140
1.0
293
     1
141
0.0
294
     1
177
     0
142
1.0
295
     0
296
     0
143
0.125
1001
ACAD_MLEADERVER
1070
     2
  0
MLINESTYLE
  5
1B
102
{ACAD_REACTORS
330
1A
102
}
330
1A
100
AcDbMlineStyle
  2
STANDARD
 70
     0
  3

 62
   256
 51
90.0
 52
90.0
 71
     2
 49
0.5
 62
   256
  6
BYLAYER
 49
-0.5
 62
   256
  6
BYLAYER
  0
ACDBPLACEHOLDER
  5
B14
102
{ACAD_REACTORS
330
B13
102
}
330
B13
  0
SCALE
  5
C55
102
{ACAD_REACTORS
330
C54
102
}
330
C54
100
AcDbScale
 70
     0
300
1:1
140
1.0
141
1.0
290
     1
  0
SCALE
  5
C56
102
{ACAD_REACTORS
330
C54
102
}
330
C54
100
AcDbScale
 70
     0
300
1/128" = 1'-0"
140
0.0078125
141
12.0
290
     0
  0
SCALE
  5
C57
102
{ACAD_REACTORS
330
C54
102
}
330
C54
100
AcDbScale
 70
     0
300
1/64" = 1'-0"
140
0.015625
141
12.0
290
     0
  0
SCALE
  5
C58
102
{ACAD_REACTORS
330
C54
102
}
330
C54
100
AcDbScale
 70
     0
300
1/32" = 1'-0"
140
0.03125
141
12.0
290
     0
  0
SCALE
  5
C59
102
{ACAD_REACTORS
330
C54
102
}
330
C54
100
AcDbScale
 70
     0
300
1/16" = 1'-0"
140
0.0625
141
12.0
290
     0
  0
SCALE
  5
C5A
102
{ACAD_REACTORS
330
C54
102
}
330
C54
100
AcDbScale
 70
     0
300
3/32" = 1'-0"
140
0.09375
141
12.0
290
     0
  0
SCALE
  5
C5B
102
{ACAD_REACTORS
330
C54
102
}
330
C54
100
AcDbScale
 70
     0
300
1/8" = 1'-0"
140
0.125
141
12.0
290
     0
  0
SCALE
  5
C5C
102
{ACAD_REACTORS
330
C54
102
}
330
C54
100
AcDbScale
 70
     0
300
3/16" = 1'-0"
140
0.1875
141
12.0
290
     0
  0
SCALE
  5
C5D
102
{ACAD_REACTORS
330
C54
102
}
330
C54
100
AcDbScale
 70
     0
300
1/4" = 1'-0"
140
0.25
141
12.0
290
     0
  0
SCALE
  5
C5E
102
{ACAD_REACTORS
330
C54
102
}
330
C54
100
AcDbScale
 70
     0
300
3/8" = 1'-0"
140
0.375
141
12.0
290
     0
  0
SCALE
  5
C5F
102
{ACAD_REACTORS
330
C54
102
}
330
C54
100
AcDbScale
 70
     0
300
1/2" = 1'-0"
140
0.5
141
12.0
290
     0
  0
SCALE
  5
C60
102
{ACAD_REACTORS
330
C54
102
}
330
C54
100
AcDbScale
 70
     0
300
3/4" = 1'-0"
140
0.75
141
12.0
290
     0
  0
SCALE
  5
C61
102
{ACAD_REACTORS
330
C54
102
}
330
C54
100
AcDbScale
 70
     0
300
1" = 1'-0"
140
1.0
141
12.0
290
     0
  0
SCALE
  5
C62
102
{ACAD_REACTORS
330
C54
102
}
330
C54
100
AcDbScale
 70
     0
300
1-1/2" = 1'-0"
140
1.5
141
12.0
290
     0
  0
SCALE
  5
C63
102
{ACAD_REACTORS
330
C54
102
}
330
C54
100
AcDbScale
 70
     0
300
3" = 1'-0"
140
3.0
141
12.0
290
     0
  0
SCALE
  5
C64
102
{ACAD_REACTORS
330
C54
102
}
330
C54
100
AcDbScale
 70
     0
300
6" = 1'-0"
140
6.0
141
12.0
290
     0
  0
SCALE
  5
C65
102
{ACAD_REACTORS
330
C54
102
}
330
C54
100
AcDbScale
 70
     0
300
1'-0" = 1'-0"
140
12.0
141
12.0
290
     0
  0
ACDBSECTIONVIEWSTYLE
  5
C69
102
{ACAD_XDICTIONARY
360
CF7
102
}
102
{ACAD_REACTORS
330
C68
102
}
330
C68
100
AcDbModelDocViewStyle
 70
     0
  3
Imperial24
290
     0
100
AcDbSectionViewStyle
 70
     0
 71
     0
 90
       78
 71
     1
340
F
 40
0.24
340
0
340
0
 40
0.24
300
I, O, Q, S, X, Z
 40
0.48
 90
        3
 40
0.18
 90
        1
 71
     2
340
13
 90
       25
340
13
 90
       50
 40
0.24
 40
0.0
 40
0.24
 71
     3
340
F
 40
0.24
 90
        1
 40
0.75
 90
        1
300
%<\AcVar ViewType \f "%tc1">% %<\AcVar ViewSectionStartId>%-%<\AcVar ViewSectionEndId>%\PSCALE %<\AcVar ViewScale \f "%sn">%
 71
     4
300
ANSI31
 40
1.0
 90
        0
290
     0
290
     0
 90
        6
 40
0.0
 40
1.570796326794896
 40
0.2617993877991494
 40
1.308996938995747
 40
-0.2617993877991494
 40
1.832595714594045
  0
TABLESTYLE
  5
C53
102
{ACAD_XDICTIONARY
360
CF5
102
}
102
{ACAD_REACTORS
330
C52
102
}
330
C52
100
AcDbTableStyle
  3
Standard
 70
     0
 71
     0
 40
0.06
 41
0.06
280
     0
281
     0
  7
STANDARD
140
0.18
170
     2
 62
     0
 63
     7
283
     0
274
    -2
284
     1
 64
     0
275
    -2
285
     1
 65
     0
276
    -2
286
     1
 66
     0
277
    -2
287
     1
 67
     0
278
    -2
288
     1
 68
     0
279
    -2
289
     1
 69
     0
  7
STANDARD
140
0.25
170
     5
 62
     0
 63
     7
283
     0
274
    -2
284
     1
 64
     0
275
    -2
285
     1
 65
     0
276
    -2
286
     1
 66
     0
277
    -2
287
     1
 67
     0
278
    -2
288
     1
 68
     0
279
    -2
289
     1
 69
     0
  7
STANDARD
140
0.18
170
     5
 62
     0
 63
     7
283
     0
274
    -2
284
     1
 64
     0
275
    -2
285
     1
 65
     0
276
    -2
286
     1
 66
     0
277
    -2
287
     1
 67
     0
278
    -2
288
     1
 68
     0
279
    -2
289
     1
 69
     0
  0
VISUALSTYLE
  5
C3E
102
{ACAD_XDICTIONARY
360
D2C
102
}
102
{ACAD_REACTORS
330
C38
102
}
330
C38
100
AcDbVisualStyle
  2
2dWireframe
 70
     4
 71
     0
 72
     2
 73
     0
 90
        0
 40
-0.6
 41
-30.0
 62
     5
 63
     7
 74
     1
 91
        4
 64
     7
 65
   257
 75
     1
175
     1
 42
1.0
 92
        0
 66
   257
 43
1.0
 76
     1
 77
     6
 78
     2
 67
     7
 79
     5
170
     0
171
     0
290
     0
174
     0
 93
        1
 44
0.0
173
     0
291
     0
 45
0.0
1001
ACAD
1000
AcDbSavedByObjectVersion
1070
     0
  0
VISUALSTYLE
  5
C3D
102
{ACAD_XDICTIONARY
360
D2A
102
}
102
{ACAD_REACTORS
330
C38
102
}
330
C38
100
AcDbVisualStyle
  2
Basic
 70
     7
 71
     1
 72
     0
 73
     1
 90
        0
 40
-0.6
 41
-30.0
 62
     5
 63
     7
 74
     0
 91
        4
 64
     7
 65
   257
 75
     1
175
     1
 42
1.0
 92
        8
 66
     7
 43
1.0
 76
     1
 77
     6
 78
     2
 67
     7
 79
     5
170
     0
171
     0
290
     0
174
     0
 93
        1
 44
0.0
173
     0
291
     1
 45
0.0
1001
ACAD
1000
AcDbSavedByObjectVersion
1070
     0
  0
VISUALSTYLE
  5
C44
102
{ACAD_XDICTIONARY
360
D38
102
}
102
{ACAD_REACTORS
330
C38
102
}
330
C38
100
AcDbVisualStyle
  2
Brighten
 70
    12
 71
     2
 72
     2
 73
     0
 90
        0
 40
-0.6
 41
-30.0
 62
     5
 63
     7
 74
     1
 91
        4
 64
     7
 65
   257
 75
     1
175
     1
 42
1.0
 92
        8
 66
     7
 43
1.0
 76
     1
 77
     6
 78
     2
 67
     7
 79
     5
170
     0
171
     0
290
     0
174
     0
 93
        1
 44
50.0
173
     0
291
     1
 45
0.0
1001
ACAD
1000
AcDbSavedByObjectVersion
1070
     0
  0
VISUALSTYLE
  5
C48
102
{ACAD_XDICTIONARY
360
D40
102
}
102
{ACAD_REACTORS
330
C38
102
}
330
C38
100
AcDbVisualStyle
  2
ColorChange
 70
    16
 71
     2
 72
     2
 73
     3
 90
        0
 40
-0.6
 41
-30.0
 62
     5
 63
     8
 74
     1
 91
        4
 64
     7
 65
   257
 75
     1
175
     1
 42
1.0
 92
        8
 66
     8
 43
1.0
 76
     1
 77
     6
 78
     2
 67
     7
 79
     5
170
     0
171
     0
290
     0
174
     0
 93
        1
 44
0.0
173
     0
291
     1
 45
0.0
1001
ACAD
1000
AcDbSavedByObjectVersion
1070
     0
  0
VISUALSTYLE
  5
C41
102
{ACAD_XDICTIONARY
360
D32
102
}
102
{ACAD_REACTORS
330
C38
102
}
330
C38
100
AcDbVisualStyle
  2
Conceptual
 70
     9
 71
     3
 72
     2
 73
     0
 90
        0
 40
-0.6
 41
-30.0
 62
     5
 63
     7
 74
     2
 91
        2
 64
     7
 65
   257
 75
     1
175
     1
 42
179.0
 92
        8
 66
     7
 43
1.0
 76
     1
 77
     6
 78
     2
 67
     7
 79
     3
170
     0
171
     0
290
     0
174
     0
 93
        1
 44
0.0
173
     0
291
     0
 45
0.0
1001
ACAD
1000
AcDbSavedByObjectVersion
1070
     0
  0
VISUALSTYLE
  5
C43
102
{ACAD_XDICTIONARY
360
D36
102
}
102
{ACAD_REACTORS
330
C38
102
}
330
C38
100
AcDbVisualStyle
  2
Dim
 70
    11
 71
     2
 72
     2
 73
     0
 90
        0
 40
-0.6
 41
-30.0
 62
     5
 63
     7
 74
     1
 91
        4
 64
     7
 65
   257
 75
     1
175
     1
 42
1.0
 92
        8
 66
     7
 43
1.0
 76
     1
 77
     6
 78
     2
 67
     7
 79
     5
170
     0
171
     0
290
     0
174
     0
 93
        1
 44
-50.0
173
     0
291
     1
 45
0.0
1001
ACAD
1000
AcDbSavedByObjectVersion
1070
     0
  0
VISUALSTYLE
  5
C50
102
{ACAD_XDICTIONARY
360
D50
102
}
102
{ACAD_REACTORS
330
C38
102
}
330
C38
100
AcDbVisualStyle
  2
EdgeColorOff
 70
    22
 71
     2
 72
     2
 73
     0
 90
        0
 40
-0.6
 41
-30.0
 62
     5
 63
     7
 74
     1
 91
        4
 64
     7
 65
   257
 75
     1
175
     1
 42
1.0
 92
        8
 66
     7
 43
1.0
 76
     1
 77
     6
 78
     2
 67
     7
 79
     5
170
     0
171
     0
290
     0
174
     0
 93
        1
 44
0.0
173
     0
291
     1
 45
0.0
1001
ACAD
1000
AcDbSavedByObjectVersion
1070
     0
  0
VISUALSTYLE
  5
C47
102
{ACAD_XDICTIONARY
360
D3E
102
}
102
{ACAD_REACTORS
330
C38
102
}
330
C38
100
AcDbVisualStyle
  2
Facepattern
 70
    15
 71
     2
 72
     2
 73
     0
 90
        0
 40
-0.6
 41
-30.0
 62
     5
 63
     7
 74
     1
 91
        4
 64
     7
 65
   257
 75
     1
175
     1
 42
1.0
 92
        8
 66
     7
 43
1.0
 76
     1
 77
     6
 78
     2
 67
     7
 79
     5
170
     0
171
     0
290
     0
174
     0
 93
        1
 44
0.0
173
     0
291
     1
 45
0.0
1001
ACAD
1000
AcDbSavedByObjectVersion
1070
     0
  0
VISUALSTYLE
  5
C39
102
{ACAD_XDICTIONARY
360
D22
102
}
102
{ACAD_REACTORS
330
C38
102
}
330
C38
100
AcDbVisualStyle
  2
Flat
 70
     0
 71
     2
 72
     1
 73
     1
 90
        2
 40
-0.6
 41
30.0
 62
     5
 63
     7
 74
     0
 91
        0
 64
     7
 65
   257
 75
     1
175
     1
 42
1.0
 92
        8
 66
     7
 43
1.0
 76
     1
 77
     6
 78
     2
 67
     7
 79
     5
170
     0
171
     0
290
     0
174
     0
 93
       13
 44
0.0
173
     0
291
     1
 45
0.0
1001
ACAD
1000
AcDbSavedByObjectVersion
1070
     0
  0
VISUALSTYLE
  5
C3A
102
{ACAD_XDICTIONARY
360
D24
102
}
102
{ACAD_REACTORS
330
C38
102
}
330
C38
100
AcDbVisualStyle
  2
FlatWithEdges
 70
     1
 71
     2
 72
     1
 73
     1
 90
        2
 40
-0.6
 41
30.0
 62
     5
 63
     7
 74
     1
 91
        0
 64
     7
 65
   257
 75
     1
175
     1
 42
1.0
 92
        0
 66
   257
 43
1.0
 76
     1
 77
     6
 78
     2
 67
     7
 79
     5
170
     0
171
     0
290
     0
174
     0
 93
       13
 44
0.0
173
     0
291
     1
 45
0.0
1001
ACAD
1000
AcDbSavedByObjectVersion
1070
     0
  0
VISUALSTYLE
  5
C3B
102
{ACAD_XDICTIONARY
360
D26
102
}
102
{ACAD_REACTORS
330
C38
102
}
330
C38
100
AcDbVisualStyle
  2
Gouraud
 70
     2
 71
     2
 72
     2
 73
     1
 90
        2
 40
-0.6
 41
30.0
 62
     5
 63
     7
 74
     0
 91
        0
 64
     7
 65
   257
 75
     1
175
     1
 42
1.0
 92
        0
 66
     7
 43
1.0
 76
     1
 77
     6
 78
     2
 67
     7
 79
     5
170
     0
171
     0
290
     0
174
     0
 93
       13
 44
0.0
173
     0
291
     1
 45
0.0
1001
ACAD
1000
AcDbSavedByObjectVersion
1070
     0
  0
VISUALSTYLE
  5
C3C
102
{ACAD_XDICTIONARY
360
D28
102
}
102
{ACAD_REACTORS
330
C38
102
}
330
C38
100
AcDbVisualStyle
  2
GouraudWithEdges
 70
     3
 71
     2
 72
     2
 73
     1
 90
        2
 40
-0.6
 41
30.0
 62
     5
 63
     7
 74
     1
 91
        0
 64
     7
 65
   257
 75
     1
175
     1
 42
1.0
 92
        0
 66
   257
 43
1.0
 76
     1
 77
     6
 78
     2
 67
     7
 79
     5
170
     0
171
     0
290
     0
174
     0
 93
       13
 44
0.0
173
     0
291
     1
 45
0.0
1001
ACAD
1000
AcDbSavedByObjectVersion
1070
     0
  0
VISUALSTYLE
  5
C40
102
{ACAD_XDICTIONARY
360
D30
102
}
102
{ACAD_REACTORS
330
C38
102
}
330
C38
100
AcDbVisualStyle
  2
Hidden
 70
     6
 71
     1
 72
     2
 73
     2
 90
        0
 40
-0.6
 41
-30.0
 62
     5
 63
     7
 74
     2
 91
        2
 64
     7
 65
   257
 75
     2
175
     1
 42
40.0
 92
        0
 66
   257
 43
1.0
 76
     1
 77
     6
 78
     2
 67
     7
 79
     3
170
     0
171
     0
290
     0
174
     0
 93
        1
 44
0.0
173
     0
291
     0
 45
0.0
1001
ACAD
1000
AcDbSavedByObjectVersion
1070
     0
  0
VISUALSTYLE
  5
C4E
102
{ACAD_XDICTIONARY
360
D4C
102
}
102
{ACAD_REACTORS
330
C38
102
}
330
C38
100
AcDbVisualStyle
  2
JitterOff
 70
    20
 71
     2
 72
     2
 73
     0
 90
        0
 40
-0.6
 41
-30.0
 62
     5
 63
     7
 74
     1
 91
        4
 64
     7
 65
   257
 75
     1
175
     1
 42
1.0
 92
       10
 66
     7
 43
1.0
 76
     1
 77
     6
 78
     2
 67
     7
 79
     5
170
     0
171
     0
290
     0
174
     0
 93
        1
 44
0.0
173
     0
291
     1
 45
0.0
1001
ACAD
1000
AcDbSavedByObjectVersion
1070
     0
  0
VISUALSTYLE
  5
C46
102
{ACAD_XDICTIONARY
360
D3C
102
}
102
{ACAD_REACTORS
330
C38
102
}
330
C38
100
AcDbVisualStyle
  2
Linepattern
 70
    14
 71
     2
 72
     2
 73
     0
 90
        0
 40
-0.6
 41
-30.0
 62
     5
 63
     7
 74
     1
 91
        4
 64
     7
 65
   257
 75
     7
175
     7
 42
1.0
 92
        8
 66
     7
 43
1.0
 76
     1
 77
     6
 78
     2
 67
     7
 79
     5
170
     0
171
     0
290
     0
174
     0
 93
        1
 44
0.0
173
     0
291
     1
 45
0.0
1001
ACAD
1000
AcDbSavedByObjectVersion
1070
     0
  0
VISUALSTYLE
  5
C4F
102
{ACAD_XDICTIONARY
360
D4E
102
}
102
{ACAD_REACTORS
330
C38
102
}
330
C38
100
AcDbVisualStyle
  2
OverhangOff
 70
    21
 71
     2
 72
     2
 73
     0
 90
        0
 40
-0.6
 41
-30.0
 62
     5
 63
     7
 74
     1
 91
        4
 64
     7
 65
   257
 75
     1
175
     1
 42
1.0
 92
        9
 66
     7
 43
1.0
 76
     1
 77
     6
 78
     2
 67
     7
 79
     5
170
     0
171
     0
290
     0
174
     0
 93
        1
 44
0.0
173
     0
291
     1
 45
0.0
1001
ACAD
1000
AcDbSavedByObjectVersion
1070
     0
  0
VISUALSTYLE
  5
C42
102
{ACAD_XDICTIONARY
360
D34
102
}
102
{ACAD_REACTORS
330
C38
102
}
330
C38
100
AcDbVisualStyle
  2
Realistic
 70
     8
 71
     2
 72
     3
 73
     0
 90
        2
 40
-0.6
 41
30.0
 62
     5
 63
     7
 74
     0
 91
        0
 64
     7
 65
   257
 75
     1
175
     1
 42
1.0
 92
        8
 66
   257
 43
1.0
 76
     1
 77
     6
 78
     2
 67
     7
 79
     3
170
     0
171
     0
290
     0
174
     0
 93
       13
 44
0.0
173
     0
291
     0
 45
0.0
1001
ACAD
1000
AcDbSavedByObjectVersion
1070
     0
  0
VISUALSTYLE
  5
C4D
102
{ACAD_XDICTIONARY
360
D4A
102
}
102
{ACAD_REACTORS
330
C38
102
}
330
C38
100
AcDbVisualStyle
  2
Shaded
 70
    27
 71
     2
 72
     2
 73
     1
 90
        2
 40
-0.6
 41
30.0
 62
     5
 63
     7
 74
     0
 91
        4
 64
     7
 65
   257
 75
     1
175
     1
 42
1.0
 92
        8
 66
   257
 43
1.0
 76
     1
 77
     6
 78
     2
 67
     8
 79
     3
170
     0
171
     0
290
     0
174
     0
 93
        5
 44
0.0
173
     0
291
     0
 45
0.0
1001
ACAD
1000
AcDbSavedByObjectVersion
1070
     0
  0
VISUALSTYLE
  5
C4C
102
{ACAD_XDICTIONARY
360
D48
102
}
102
{ACAD_REACTORS
330
C38
102
}
330
C38
100
AcDbVisualStyle
  2
Shaded with edges
 70
    26
 71
     2
 72
     2
 73
     1
 90
        2
 40
-0.6
 41
30.0
 62
     5
 63
     7
 74
     1
 91
       10
 64
     7
 65
   257
 75
     2
175
     1
 42
1.0
 92
        8
 66
   257
 43
1.0
 76
     1
 77
     6
 78
     2
 67
     7
 79
     3
170
     0
171
     0
290
     0
174
     0
 93
        5
 44
0.0
173
     0
291
     0
 45
0.0
1001
ACAD
1000
AcDbSavedByObjectVersion
1070
     0
  0
VISUALSTYLE
  5
C49
102
{ACAD_XDICTIONARY
360
D42
102
}
102
{ACAD_REACTORS
330
C38
102
}
330
C38
100
AcDbVisualStyle
  2
Shades of Gray
 70
    23
 71
     2
 72
     2
 73
     3
 90
        0
 40
-0.6
 41
-30.0
 62
     5
 63
     7
 74
     2
 91
        2
 64
     7
 65
     7
 75
     1
175
     1
 42
40.0
 92
        8
 66
     7
 43
1.0
 76
     1
 77
     6
 78
     2
 67
     7
 79
     3
170
     0
171
     0
290
     0
174
     0
 93
        1
 44
0.0
173
     0
291
     0
 45
0.0
1001
ACAD
1000
AcDbSavedByObjectVersion
1070
     0
  0
VISUALSTYLE
  5
C4A
102
{ACAD_XDICTIONARY
360
D44
102
}
102
{ACAD_REACTORS
330
C38
102
}
330
C38
100
AcDbVisualStyle
  2
Sketchy
 70
    24
 71
     1
 72
     2
 73
     2
 90
        0
 40
-0.6
 41
-30.0
 62
     5
 63
     7
 74
     2
 91
        2
 64
     7
 65
     7
 75
     1
175
     1
 42
40.0
 92
       11
 66
     7
 43
1.0
 76
     1
 77
     6
 78
     2
 67
     7
 79
     6
170
     0
171
     0
290
     0
174
     0
 93
        1
 44
0.0
173
     0
291
     0
 45
0.0
1001
ACAD
1000
AcDbSavedByObjectVersion
1070
     0
  0
VISUALSTYLE
  5
C45
102
{ACAD_XDICTIONARY
360
D3A
102
}
102
{ACAD_REACTORS
330
C38
102
}
330
C38
100
AcDbVisualStyle
  2
Thicken
 70
    13
 71
     2
 72
     2
 73
     0
 90
        0
 40
-0.6
 41
-30.0
 62
     5
 63
     7
 74
     1
 91
        4
 64
     7
 65
   257
 75
     1
175
     1
 42
1.0
 92
       12
 66
     7
 43
1.0
 76
     1
 77
     6
 78
     2
 67
     7
 79
     5
170
     0
171
     0
290
     0
174
     0
 93
        1
 44
0.0
173
     0
291
     1
 45
0.0
1001
ACAD
1000
AcDbSavedByObjectVersion
1070
     0
  0
VISUALSTYLE
  5
C3F
102
{ACAD_XDICTIONARY
360
D2E
102
}
102
{ACAD_REACTORS
330
C38
102
}
330
C38
100
AcDbVisualStyle
  2
Wireframe
 70
     5
 71
     0
 72
     2
 73
     0
 90
        0
 40
-0.6
 41
-30.0
 62
     5
 63
     7
 74
     1
 91
        4
 64
     7
 65
   257
 75
     1
175
     1
 42
1.0
 92
        0
 66
   257
 43
1.0
 76
     1
 77
     6
 78
     2
 67
     7
 79
     3
170
     0
171
     0
290
     0
174
     0
 93
        1
 44
0.0
173
     0
291
     0
 45
0.0
1001
ACAD
1000
AcDbSavedByObjectVersion
1070
     0
  0
VISUALSTYLE
  5
C4B
102
{ACAD_XDICTIONARY
360
D46
102
}
102
{ACAD_REACTORS
330
C38
102
}
330
C38
100
AcDbVisualStyle
  2
X-Ray
 70
    25
 71
     2
 72
     2
 73
     1
 90
        1
 40
0.5
 41
-30.0
 62
     5
 63
     7
 74
     1
 91
        0
 64
     7
 65
   257
 75
     1
175
     1
 42
1.0
 92
        8
 66
     7
 43
1.0
 76
     1
 77
     6
 78
     2
 67
     7
 79
     3
170
     0
171
     0
290
     0
174
     0
 93
       13
 44
0.0
173
     0
291
     0
 45
0.0
1001
ACAD
1000
AcDbSavedByObjectVersion
1070
     0
  0
DICTIONARYVAR
  5
CF1
102
{ACAD_REACTORS
330
2B
102
}
330
2B
100
DictionaryVariables
280
     0
  1
1:1
  0
DICTIONARYVAR
  5
CED
102
{ACAD_REACTORS
330
2B
102
}
330
2B
100
DictionaryVariables
280
     0
  1
STANDARD
  0
DICTIONARYVAR
  5
CEC
102
{ACAD_REACTORS
330
2B
102
}
330
2B
100
DictionaryVariables
280
     0
  1
STANDARD
  0
DICTIONARYVAR
  5
CEE
102
{ACAD_REACTORS
330
2B
102
}
330
2B
100
DictionaryVariables
280
     0
  1
Imperial24
  0
DICTIONARYVAR
  5
CEF
102
{ACAD_REACTORS
330
2B
102
}
330
2B
100
DictionaryVariables
280
     0
  1
Imperial24
  0
DICTIONARYVAR
  5
2C
102
{ACAD_REACTORS
330
2B
102
}
330
2B
100
DictionaryVariables
280
     0
  1
2
  0
DICTIONARYVAR
  5
C14
102
{ACAD_REACTORS
330
2B
102
}
330
2B
100
DictionaryVariables
280
     0
  1
1
  0
DICTIONARYVAR
  5
D0B
102
{ACAD_REACTORS
330
2B
102
}
330
2B
100
DictionaryVariables
280
     0
  1
0
  0
DICTIONARYVAR
  5
CF3
102
{ACAD_REACTORS
330
2B
102
}
330
2B
100
DictionaryVariables
280
     0
  1
1
  0
DICTIONARYVAR
  5
CF4
102
{ACAD_REACTORS
330
2B
102
}
330
2B
100
DictionaryVariables
280
     0
  1
15
  0
DICTIONARYVAR
  5
CF2
102
{ACAD_REACTORS
330
2B
102
}
330
2B
100
DictionaryVariables
280
     0
  1
0
  0
DICTIONARYVAR
  5
D0C
102
{ACAD_REACTORS
330
2B
102
}
330
2B
100
DictionaryVariables
280
     0
  1
1.570796
  0
DICTIONARYVAR
  5
D0D
102
{ACAD_REACTORS
330
2B
102
}
330
2B
100
DictionaryVariables
280
     0
  1
1.570796
  0
DICTIONARYVAR
  5
D0E
102
{ACAD_REACTORS
330
2B
102
}
330
2B
100
DictionaryVariables
280
     0
  1
-122.394000
  0
DICTIONARYVAR
  5
CF0
102
{ACAD_REACTORS
330
2B
102
}
330
2B
100
DictionaryVariables
280
     0
  1
0
  0
DICTIONARYVAR
  5
D0A
102
{ACAD_REACTORS
330
2B
102
}
330
2B
100
DictionaryVariables
280
     0
  1
127
  0
DICTIONARYVAR
  5
D0F
102
{ACAD_REACTORS
330
2B
102
}
330
2B
100
DictionaryVariables
280
     0
  1
2
  0
DICTIONARY
  5
D1A
102
{ACAD_REACTORS
330
D18
102
}
330
D18
100
AcDbDictionary
281
     1
  0
DICTIONARY
  5
D19
102
{ACAD_REACTORS
330
D18
102
}
330
D18
100
AcDbDictionary
281
     1
  3
8796088138288
350
D13
  3
8796088138304
350
D14
  3
8796088138320
350
D15
  3
8796088138336
350
D16
  3
8796088138352
350
D17
  0
DICTIONARY
  5
CF9
330
C6B
100
AcDbDictionary
280
     1
281
     1
  3
ACAD_XREC_ROUNDTRIP
360
D57
  0
DICTIONARY
  5
D1D
330
B18
100
AcDbDictionary
280
     1
281
     1
  3
ACAD_XREC_ROUNDTRIP
360
D1E
  0
DICTIONARY
  5
D1B
330
B17
100
AcDbDictionary
280
     1
281
     1
  3
ACAD_XREC_ROUNDTRIP
360
D1C
  0
DICTIONARY
  5
C29
330
C28
100
AcDbDictionary
280
     1
281
     1
  3
ACAD_XREC_ROUNDTRIP
360
D20
  3
BUMPTILE
360
C2B
  3
DIFFUSETILE
360
C2A
  3
OPACITYTILE
360
C2E
  3
REFLECTIONTILE
360
C2D
  3
REFRACTIONTILE
360
C2F
  3
SPECULARTILE
360
C2C
  0
DICTIONARY
  5
C21
330
C20
100
AcDbDictionary
280
     1
281
     1
  3
ACAD_XREC_ROUNDTRIP
360
D1F
  3
BUMPTILE
360
C23
  3
DIFFUSETILE
360
C22
  3
OPACITYTILE
360
C26
  3
REFLECTIONTILE
360
C25
  3
REFRACTIONTILE
360
C27
  3
SPECULARTILE
360
C24
  0
DICTIONARY
  5
C31
330
C30
100
AcDbDictionary
280
     1
281
     1
  3
ACAD_XREC_ROUNDTRIP
360
D21
  3
BUMPTILE
360
C33
  3
DIFFUSETILE
360
C32
  3
FBXASSET
360
D09
  3
OPACITYTILE
360
C36
  3
REFLECTIONTILE
360
C35
  3
REFRACTIONTILE
360
C37
  3
SPECULARTILE
360
C34
  0
DICTIONARY
  5
D54
330
C67
100
AcDbDictionary
280
     1
281
     1
  3
ACAD_XREC_ROUNDTRIP
360
D55
  0
DICTIONARY
  5
CF7
330
C69
100
AcDbDictionary
280
     1
281
     1
  3
ACAD_XREC_ROUNDTRIP
360
D56
  0
DICTIONARY
  5
CF5
330
C53
100
AcDbDictionary
280
     1
281
     1
  3
ACAD_ROUNDTRIP_2008_TABLESTYLE_CELLSTYLEMAP
360
D10
  3
ACAD_XREC_ROUNDTRIP
360
D52
  0
DICTIONARY
  5
D2C
330
C3E
100
AcDbDictionary
280
     1
281
     1
  3
ACAD_XREC_ROUNDTRIP
360
D2D
  0
DICTIONARY
  5
D2A
330
C3D
100
AcDbDictionary
280
     1
281
     1
  3
ACAD_XREC_ROUNDTRIP
360
D2B
  0
DICTIONARY
  5
D38
330
C44
100
AcDbDictionary
280
     1
281
     1
  3
ACAD_XREC_ROUNDTRIP
360
D39
  0
DICTIONARY
  5
D40
330
C48
100
AcDbDictionary
280
     1
281
     1
  3
ACAD_XREC_ROUNDTRIP
360
D41
  0
DICTIONARY
  5
D32
330
C41
100
AcDbDictionary
280
     1
281
     1
  3
ACAD_XREC_ROUNDTRIP
360
D33
  0
DICTIONARY
  5
D36
330
C43
100
AcDbDictionary
280
     1
281
     1
  3
ACAD_XREC_ROUNDTRIP
360
D37
  0
DICTIONARY
  5
D50
330
C50
100
AcDbDictionary
280
     1
281
     1
  3
ACAD_XREC_ROUNDTRIP
360
D51
  0
DICTIONARY
  5
D3E
330
C47
100
AcDbDictionary
280
     1
281
     1
  3
ACAD_XREC_ROUNDTRIP
360
D3F
  0
DICTIONARY
  5
D22
330
C39
100
AcDbDictionary
280
     1
281
     1
  3
ACAD_XREC_ROUNDTRIP
360
D23
  0
DICTIONARY
  5
D24
330
C3A
100
AcDbDictionary
280
     1
281
     1
  3
ACAD_XREC_ROUNDTRIP
360
D25
  0
DICTIONARY
  5
D26
330
C3B
100
AcDbDictionary
280
     1
281
     1
  3
ACAD_XREC_ROUNDTRIP
360
D27
  0
DICTIONARY
  5
D28
330
C3C
100
AcDbDictionary
280
     1
281
     1
  3
ACAD_XREC_ROUNDTRIP
360
D29
  0
DICTIONARY
  5
D30
330
C40
100
AcDbDictionary
280
     1
281
     1
  3
ACAD_XREC_ROUNDTRIP
360
D31
  0
DICTIONARY
  5
D4C
330
C4E
100
AcDbDictionary
280
     1
281
     1
  3
ACAD_XREC_ROUNDTRIP
360
D4D
  0
DICTIONARY
  5
D3C
330
C46
100
AcDbDictionary
280
     1
281
     1
  3
ACAD_XREC_ROUNDTRIP
360
D3D
  0
DICTIONARY
  5
D4E
330
C4F
100
AcDbDictionary
280
     1
281
     1
  3
ACAD_XREC_ROUNDTRIP
360
D4F
  0
DICTIONARY
  5
D34
330
C42
100
AcDbDictionary
280
     1
281
     1
  3
ACAD_XREC_ROUNDTRIP
360
D35
  0
DICTIONARY
  5
D4A
330
C4D
100
AcDbDictionary
280
     1
281
     1
  3
ACAD_XREC_ROUNDTRIP
360
D4B
  0
DICTIONARY
  5
D48
330
C4C
100
AcDbDictionary
280
     1
281
     1
  3
ACAD_XREC_ROUNDTRIP
360
D49
  0
DICTIONARY
  5
D42
330
C49
100
AcDbDictionary
280
     1
281
     1
  3
ACAD_XREC_ROUNDTRIP
360
D43
  0
DICTIONARY
  5
D44
330
C4A
100
AcDbDictionary
280
     1
281
     1
  3
ACAD_XREC_ROUNDTRIP
360
D45
  0
DICTIONARY
  5
D3A
330
C45
100
AcDbDictionary
280
     1
281
     1
  3
ACAD_XREC_ROUNDTRIP
360
D3B
  0
DICTIONARY
  5
D2E
330
C3F
100
AcDbDictionary
280
     1
281
     1
  3
ACAD_XREC_ROUNDTRIP
360
D2F
  0
DICTIONARY
  5
D46
330
C4B
100
AcDbDictionary
280
     1
281
     1
  3
ACAD_XREC_ROUNDTRIP
360
D47
  0
XRECORD
  5
D13
102
{ACAD_REACTORS
330
D19
102
}
330
D19
100
AcDbXrecord
280
     1
  1
AcDb_Thumbnail_Schema
102
{ATTRRECORD
341
D14
  2
AcDbDs::TreatedAsObjectData
280
     1
291
     1
102
ATTRRECORD}
102
{ATTRRECORD
341
D15
  2
AcDbDs::Legacy
280
     1
291
     1
102
ATTRRECORD}
  2
AcDbDs::ID
280
    10
 91
        8
102
{ATTRRECORD
341
D16
  2
AcDs:Indexable
280
     1
291
     1
102
ATTRRECORD}
102
{ATTRRECORD
341
D17
  2
AcDbDs::HandleAttribute
280
     7
282
     1
102
ATTRRECORD}
  2
Thumbnail_Data
280
    15
 91
        0
  0
XRECORD
  5
D14
102
{ACAD_REACTORS
330
D19
102
}
330
D19
100
AcDbXrecord
280
     1
  1
AcDbDs::TreatedAsObjectDataSchema
  2
AcDbDs::TreatedAsObjectData
280
     1
 91
        0
  0
XRECORD
  5
D15
102
{ACAD_REACTORS
330
D19
102
}
330
D19
100
AcDbXrecord
280
     1
  1
AcDbDs::LegacySchema
  2
AcDbDs::Legacy
280
     1
 91
        0
  0
XRECORD
  5
D16
102
{ACAD_REACTORS
330
D19
102
}
330
D19
100
AcDbXrecord
280
     1
  1
AcDbDs::IndexedPropertySchema
  2
AcDs:Indexable
280
     1
 91
        0
  0
XRECORD
  5
D17
102
{ACAD_REACTORS
330
D19
102
}
330
D19
100
AcDbXrecord
280
     1
  1
AcDbDs::HandleAttributeSchema
  2
AcDbDs::HandleAttribute
280
     7
 91
        1
284
     1
  0
XRECORD
  5
D57
102
{ACAD_REACTORS
330
CF9
102
}
330
CF9
100
AcDbXrecord
280
     1
102
DISPLAYNAME
  1
Imperial24
102
FLAGS
 90
        0
  0
XRECORD
  5
D1E
102
{ACAD_REACTORS
330
D1D
102
}
330
D1D
100
AcDbXrecord
280
     1
102
SHADEPLOT
 70
     0
102
SHADEPLOTRESLEVEL
 70
     2
102
SHADEPLOTCUSTOMDPI
 70
   300
  0
XRECORD
  5
D1C
102
{ACAD_REACTORS
330
D1B
102
}
330
D1B
100
AcDbXrecord
280
     1
102
SHADEPLOT
 70
     0
102
SHADEPLOTRESLEVEL
 70
     2
102
SHADEPLOTCUSTOMDPI
 70
   300
  0
XRECORD
  5
D20
102
{ACAD_REACTORS
330
C29
102
}
330
C29
100
AcDbXrecord
280
     1
102
MATERIAL
148
0.0
149
0.0
149
0.0
 93
        0
 94
      127
282
     0
 72
     0
 77
     0
171
     0
175
     0
179
     0
273
     0
  0
XRECORD
  5
C2B
102
{ACAD_REACTORS
330
C29
102
}
330
C29
100
AcDbXrecord
280
     1
270
     1
271
     1
  0
XRECORD
  5
C2A
102
{ACAD_REACTORS
330
C29
102
}
330
C29
100
AcDbXrecord
280
     1
270
     1
271
     1
  0
XRECORD
  5
C2E
102
{ACAD_REACTORS
330
C29
102
}
330
C29
100
AcDbXrecord
280
     1
270
     1
271
     1
  0
XRECORD
  5
C2D
102
{ACAD_REACTORS
330
C29
102
}
330
C29
100
AcDbXrecord
280
     1
270
     1
271
     1
  0
XRECORD
  5
C2F
102
{ACAD_REACTORS
330
C29
102
}
330
C29
100
AcDbXrecord
280
     1
270
     1
271
     1
  0
XRECORD
  5
C2C
102
{ACAD_REACTORS
330
C29
102
}
330
C29
100
AcDbXrecord
280
     1
270
     1
271
     1
  0
XRECORD
  5
D1F
102
{ACAD_REACTORS
330
C21
102
}
330
C21
100
AcDbXrecord
280
     1
102
MATERIAL
148
0.0
149
0.0
149
0.0
 93
        0
 94
      127
282
     0
 72
     0
 77
     0
171
     0
175
     0
179
     0
273
     0
  0
XRECORD
  5
C23
102
{ACAD_REACTORS
330
C21
102
}
330
C21
100
AcDbXrecord
280
     1
270
     1
271
     1
  0
XRECORD
  5
C22
102
{ACAD_REACTORS
330
C21
102
}
330
C21
100
AcDbXrecord
280
     1
270
     1
271
     1
  0
XRECORD
  5
C26
102
{ACAD_REACTORS
330
C21
102
}
330
C21
100
AcDbXrecord
280
     1
270
     1
271
     1
  0
XRECORD
  5
C25
102
{ACAD_REACTORS
330
C21
102
}
330
C21
100
AcDbXrecord
280
     1
270
     1
271
     1
  0
XRECORD
  5
C27
102
{ACAD_REACTORS
330
C21
102
}
330
C21
100
AcDbXrecord
280
     1
270
     1
271
     1
  0
XRECORD
  5
C24
102
{ACAD_REACTORS
330
C21
102
}
330
C21
100
AcDbXrecord
280
     1
270
     1
271
     1
  0
XRECORD
  5
D21
102
{ACAD_REACTORS
330
C31
102
}
330
C31
100
AcDbXrecord
280
     1
102
MATERIAL
148
0.0
149
0.0
149
0.0
 93
        0
 94
      127
282
     0
 72
     0
 77
     0
171
     0
175
     0
179
     0
273
     0
  0
XRECORD
  5
C33
102
{ACAD_REACTORS
330
C31
102
}
330
C31
100
AcDbXrecord
280
     1
270
     1
271
     1
  0
XRECORD
  5
C32
102
{ACAD_REACTORS
330
C31
102
}
330
C31
100
AcDbXrecord
280
     1
270
     1
271
     1
  0
XRECORD
  5
D09
102
{ACAD_REACTORS
330
C31
102
}
330
C31
100
AcDbXrecord
280
     1
 70
     1
 90
652598616
 71
     1
  1
A9488FCD-B10F-4975-9B4D-96C71E83ED46
311
504B0304140006080800EA5AAC46131486CBD8000000200100004F00000031363342383338382D383143312D343741352D393241422D4437363344304643363737312F4173736574446174612F446566696E6974696F6E4974657261746F7250726F706572746965732E62696E454E3B4FC3400C3E18400C0CFC83AAFB718F
311
BC48D416051A31C102134BE55EDC12E99254B9446264E45F832D8A6AE9F3E7E7677F0B217E8E46A138237C91BF267EC20E87C6BDBA0F6C415C70C5F75BF097A7DE39859CAE7107931F79EBB9090EBD870EFB29DC9C46672D8C2407FE9697AE08FF85C00AFBBF637CFF85C02F31437D28EE21041C976AB7FD54516532F398E6
311
325A675AC699AE64F9905B999779AA932A2EABF44E0D18FA69701854ACF4E6A8BC3974FBA65E2DC6A6C559072D2EE76E40FAA99EAFAC3689D48934F6CD98C2468535EF0BC593BF504B0304140006080800EA5AAC46D133F33D08010000300200004500000031363342383338382D383143312D343741352D393241422D4437
311
363344304643363737312F4173736574446174612F496E7374616E636550726F706572746965732E62696EEB606060F80F0540260323103700495E20ED9E9A975A94991C9C9C919A9BA8021470B434B1B0707376D175323470D335B13437D5B5743271D1B53473363774B53076753131634768046931363471713532B5D435
311
353131D635313332D475727372D13534373670367376B67474B5042A03DBCBA019D37FE8ABC6157B20CD04146B0062181F4C03F940F0C11EA29A8141C08141002C0426541C106CAC2CA046088033B02A030AC2157C6006F21A8018AAF50194E6010A610250382264E08660284CD9E98021862280A91564B406929A0FF62C40
311
1E28B6F88038B83CB1243943D7A928312F25350524C310BA0AA8E36A8336880D02DA0D578102AB42213C2C221005483A607A508400504B0304140006080800EA5AAC4628BB58AF800100009E0500003D00000031363342383338382D383143312D343741352D393241422D4437363344304643363737312F536368656D6173
311
2F436F6D6D6F6E536368656D612E786D6CBD544D4FC23018BEFB2B96DE15493C78601010A34B880709DEDFB52FD0D8B54BD70DF6EFED3AC0B12E6442E2716BFB3CEFF3D18E26FB440405EA8C2B1992E1C323095052C5B8DC842437EBFB673219DF8DA659866649B798C078B48AE6410122242F2A4994AC7F93815DF85C049C
311
8564CA0A901499DD886B2EB9B1E02448F358701A9235880C49A0119892A20C89D1B9FD768815CAD268CB5E0355B40B1E47F3E37A2020464BED06AA57CE8FCC20C3C3446D46761A2632A8C1283D07031EFF2AE7CCB1BFEEE916E406DFAC8E36FFD99A9D60A6944090EEDC3B670C7DC13DE86B6B2C5C240D6E503BB85ACD579D
311
513F1B9F9A69DC9CC22AFA80C426D40AF0B21EA168559156B6276F0F726A6BFF04DCD513A87A62CAD41FB24FCB2858B3952E3D852084DA25B9303C15687973CC8E8AAE11DF2836C38C6A9E765E8C1BA1BFB1DC29CDFE518C8B5A7655A4ED7E77291ABEB80DBD82EC866ADE1B8D05AF9E35CF09D7A061F38A986D9EC412B8F0
311
F65E5D81534D9B231D1E5A8FE577A241F3A5FD01504B0304140006080800EA5AAC462CCEBD668A040000E01200003E00000031363342383338382D383143312D343741352D393241422D4437363344304643363737312F536368656D61732F47656E65726963536368656D612E786D6CD5586D6FDB380CFE7EBF42F0F7A649
311
B70E1B90744856B4970F450FCD7A5F05459613EDE4174872DADCAF3F522F8ED3B88D2F1D06AC4050DBA2493EE4438AF2F8EB73AEC8466823CB62928C06C384888297A92C5693A4B6D9D9E7E4EBD51FE3A931C22EF85AE4EC6AFC38BF261BA626C9AD288496DC3F4FCEAFC63366845F7A10452AF41DB320C0D44EC26EAB2091
311
8735565582695670811A6A49643A49A6E9069FA4604A64B29016DC4B48552F95E4932463CA888468C1D2B250DB4962750DF7CE273069CE8363F1FF4EDB00E0A21999574AE4A2B00C353B93F3BD4777B8A61ED8F604ABFEDD79CE56A2B7BDFBDBC50996E0ADDE16FED26223C5D30956C29BDF4A55EA686E5E58B112DA45CE67
311
F76F4FA27EFA3FB672FD7372FC388FAECDCA5209E693CAD167BADCD272F943701B3812F8A3D852008B1D2E32DB927B2F833C6EA95879925356D254582695095A3CE982924720BE5774A3CB9CDCDB350427D2DF20DA1B5532EBE2D5D6288D75D4F7E4FD9890A0EF8E3D93EBB8F8BA4758158EF6FB90A6F9520281C93DE7AAC6
311
D24607DA296BB96018123F821A7D6A5C5884050C475DA4865442732C8B95684A50165CBB3A32F25F783A4A480ED59AD7F924B968AEA50131F46303223E6A397B0E52976030DC1DCA81D7E7C1EDEEA42C19FF27635C505E2BD5198A599020DF50A2330FCB3AAF28CB0124108429553EF1B228802E2265D8F7CC2401042B155B
311
CC7070F1E5C55F13B4A9577362CCCE46C32174E010C3C378C44841A4BDA00FE3A12006CE11EE6AEC59894D3526DDE1CD59D503ECC324017F8061B7F162162FA62EDD81AE3308617770796DCBDAD2B2625C5AE8A63DE20B2C8AA5E95E76E5730823955956E33E705425A2187C185D36489A1B44D3DCEC2172F6BA2105C35462
311
87A7194B2331768EBBE64F6E70A9930ABE0ADEA89E9E2C38523B810287AD67A54A039C1606EAFE68F8304610BB9093DBDDABC0B2AE4E290DCDA15376D7E39F72B556F0B32EAB5D3D498B4C41ABADEC3A1434C422D87E8025A84BDCB2B1417ED750FAE4DA8976863974C577C7F902D3F156AD354DEA3540DE6BEAE2BEA52F7A
311
2EB4CA43802ECE5BF2CE2EDC9347179FFB023CE412E60BE16DA0BE29B374988A553F561DC04615DD35F7D2C8979F60E5955CE93DF29DED8AFA1EE6642D53418086C03C47C377910F75F7E8F5EF665F70B60FFB22AEDF897D119E8423C773E819A3C1E55E550599EE6EDCA34D0C86FD72057DF2CD46F16A470682471C164E43
311
46D5306BF12D7D12D82CFF673D41636C347443FEB51B50D72EA171A8E4A58623A4A16E0FA2B8B10A0D23268D87C33896EE8FB73305A74BF224EDBADFA0BD674AB354D63DB7BD5D83426761C077DE767728235446A552754EB93B755891C3C4CC6CADE37CF0E912A7BB38DBA010F9DE1282EDF470CA69A9CDA482E334C4A6EA
311
4107987980B17E72F31730EBF88BBD39E7C629F56797A3C0009C2C5AE7951D9A05A02773440F02EEB4DE396A3B6A570C72CCFBCD823B0B8ED3F1D5CEDDFED772FA70236C83FB7D86C385D570B87107535572A60A96035F8F7C6A7192F13007246BBE0521855E6AC46F3E27689CEE7D186A6FD679D98CDCAD13333E04EBE7ED
311
6F55FF01504B0304140006080800EA5AAC466180134D5F0100006B0300004500000031363342383338382D383143312D343741352D393241422D4437363344304643363737312F536368656D61732F52656E6465724D6174657269616C536368656D612E786D6CA5934D6FC2300C86EFFB1551EEE343DBA41D1A103009551A
311
DAD40EAE28A4A68D9426284961FCFBE5A340113B2071746D3F765EBF4DC6BFB5407BD0862B49F0B037C0082453059725C18DDD3EBFE3F1E829991803366715D474942CD30FB4A782E00C64017A412D684E454CE3FE28995203B162A6EA5AC94B66997D225E109CD63B0135484BAD1B3C07E9080CA35DB3119C11BCA5C20046
311
1A68A1A438126C75E3E230D40FF81FB3F03C91D1E3A3A0AF79FE28E25BC39EC3E17E4C2A2D94A0833A51AF55BCCA7D88572FCBAC529C4140B020FC3AAFA886621DCED7EAD7664CC86024E806DC297DA1BB393E4156543457A4537DB8817349A70F8ACBF09B3EEE2CB2F33E91B65D60786E4E3B39B77E3FEEEF5650424525DA
311
657FB8B46BE6BF064646F0A0F7327C0BC1BC1B4CBBC1C419FA3CCB23500007872A2580CAAE5461865565294E4EDB4617B62FF579DF9A5B2F54E834076A597573A020912FED777F9B3F504B0304140006080800EA5AAC4623B8E01051000000570000004700000031363342383338382D383143312D343741352D393241422D
311
4437363344304643363737312F4173736574446174612F41737365745461626C654F66436F6E74656E74732E62696E5361606070B434B1B0707376D175323470D335B13437D5B5743271D1B53473363774B530767531311302AACB4D2C492DCA4CCC492C28484D2C4ACC4B4E050A82012F90744FCD03CA26072767A4E62602
311
00504B0304140006080800EA5AAC46F865834058000000680000004500000031363342383338382D383143312D343741352D393241422D4437363344304643363737312F4173736574446174612F53747265616D56657273696F6E5461626C652E696E66558CBD0A80300C06F73E4B117FB66E451741D041DC5BF98480A492
311
E4FDD18EAEC7DD4555D89EF28DF51A0B1BD8340C4DE7DD848B988C0ACF0649566493F2408C508DDEBB99D5129FF8F1AF8CF5B9503E20FAE5A16B5AF702504B0304140006080800EA5AAC46B50BA1C7340100009A0400003600000031363342383338382D383143312D343741352D393241422D443736334430464336373731
311
2F4173736574446174612F636E782E786D6CCD94314FC3301085FF4AE43D761C5409558E2B044B2790A818D8AECEA55875ECC8BE20F8F7D86D061088A943D7F3BBF3F327BF539B8FD155EF18930DBE639237AC426F426FFDA163330DF52DAB365AC510E89B8C551E46EC582933AD0E31CCD352EA7180D995AAB3FEB814EF52
311
42DAC1DEE1E3701F3CA1A7C42AE320A58E25F38623709829F4988EBC07022E79C414E668304F223BE232C94404C29EE9B691ABBA59D5B2DD49B96E6FD6AD7C55A228B5DA87E016BDCD97C53055E67C2BD38D12E558AB39DA4553DEC2F45F1EF9DE7A25B252AB443133593AE873CA1D304DCE1AA08C4E0443487516218C4A9C
311
C55A89C2E00789071CACB7A5659B8D0185F894ED61248B5747E43FAF9727B3F589C01BBC5E1EBF1D5E9EC2F3E907BD9C03794ACCB5E5E4B7436EFD70819488D31AC9A1295B457F01504B0304140006080800EA5AAC46922B0610070100004F0300003400000031363342383338382D383143312D343741352D393241422D44
311
37363344304643363737312F536368656D61732F636E782E786D6CCD933F4F432114C5BFCA0B7BE1F14C13D3F0E8D0C1C9459DDC106E2B29705FF863F4DB0B4F863671D3A11B1C7E21E71C2E62FFE9DDF00131590C33E1742403048DC686D34C4A3E6EEEC9B0972222E60B8C0C41799849938914A78865E99281A32AAEA9CE
311
8673170FE83D8667FD0E5E91413B95D24CD2BAA5AA643490CED4A8AC28A7111296A8A1DE90AD877E838EA0321822A7916F37E376C3A717CE77D3DD6EE2AF8235528A3744D7791B32445C068D7511AA9D51B0762C4589B6332D039197DE686D43B04A489172AC1D74327F2D9554CBE2AC56B956C556F0879182B5A857811F20
311
40B4FA36135F99FBB7C84F100CC4C7FA4AD12A779BC97FF3F8B702D83AFB7504DA5790DF504B0304140006080800EA5AAC46410A3D5871000000A40000002C00000031363342383338382D383143312D343741352D393241422D4437363344304643363737312F636E782E786D6C55CC4D0E82301086E1AB34B31774E7A22D
311
31F1069E60020334B633A63FC6E34B0909B07DDE2F9FEE7EC1AB2FC5E4840DDC9A2B28E25E06C7938192C7CB1D54677514C9871928C640062A83D55394F2D968A0118BAFEA1DBF377CA444F98919176EAB9FEAAB9F2960DA5BBB1E2ED3FA6FFF504B0304140006080800EA5AAC46E335C5FE7F000000A30000000700000063
311
6E782E786D6C4D8CDF0AC2201C465F457EF7AE99A506EAD81F7A8FD1DC909C86CDD1E3A7B18BAE3E387CE7C8E6B33AB49BF8B6C12B20550DC8F84798AC5F14A46DC60250A3650C61FBBB01F2E36A14140C5A2E31A4D78126338FC915EAAC7F1E9030DA092A0416A427F8C2DB2BBE9DDB0E0F9CD1A1BEF78C73928D5351F2FC
311
7A794B5E7F01504B0304140006080800EA5AAC4616E99B5DA600000035010000130000005B436F6E74656E745F54797065735D2E786D6C9590410E82301045AFD2740F4517C6180A0BF5065E60AC53688469D30E066F6F91AD9AB89CF9FFFD3F99BA9DC7413C3026E749CB4D59498164FCCD51A7E5C4B6D84BD136F5E51930
311
89ECA5A465CF1C0E4A25D3E308A9F401292BD6C711388FB15301CC1D3A54DBAADA29E38991B8E0254336F5092D4C038BF39CD76B6FC6A538AEBEA54A4B08617006389FA516557DE4AE8E7E70DE30729138228C5F021CD93F02D4FB0DCD0B504B0304140006080800EA5AAC463DEE336E64000000790000001B000000617574
311
6F6465736B2D64657369676E2D7061636B6167652E786D6C35CBC10E83200C00D05F21DCA56CA76D41FC96062B120735B69A7DBE268BB7777961F8D5AF396893C2ADB70FE7ADA196782C2DF776D7A97B5933C430F15651E5469C55D70F80A4992A3ADC954792C525AE70A1E4D6AD9816CC044FEFDF01FE3FDE907802504B03
311
04140006080800EA5AAC46CAB2631EF8000000960100003700000031363342383338382D383143312D343741352D393241422D4437363344304643363737312F4173736574446174612F636F72652E786D6C8550CB6EC32010FC156BEFD80687C4893051DA285FD0536F08888B1283C523CAE71762576A4F3DED6A76667677
311
D8F139DDAB87F6C1383B00AE5BA8B4954E193B0E90E215F5501D39F3CEC55F34A8AC98F4000506CE46EFD2BC42D2D9A86D41AD537A0545083A4225EFB91920C82F3D895AA49819E156CF42DEC4A86B5C2F3CCE52326A951A95DDCCD5680FBCA35D4F5BBA472DDD6DD1A63D11F446FB2DDA6DF684BE9F2F1DC517D6143167D1
311
4C3FDBA5D7226A059CB498662DC2E403E303E90E047FB2A630390BD1E79FD7A5E53BE0A772F55944C19A65FAC735CDEA7FD7646CECC8EABA2802709C8F7C0D386B4A4AB9BC22CCB524CABF01504B0304140006080800EA5AAC46D04DC564F6000000940100003500000031363342383338382D383143312D343741352D3932
311
41422D4437363344304643363737312F536368656D61732F636F72652E786D6C8550CB6EC32010FC156BEFD80687C48930511FCA0FB4A7DE10100725068B47D5CF2FD8AED49E7ADAD5ECCCECEEB0F3D7F4A83EB50FC6D90170DD42A5AD74CAD8718014AFA887EACC99772EFEA24165C5A407283070367A97E60D92CE466D0B
311
6A9DD21B2842D0112AF9C8CD0041DEF4246A916266847B3D0B7917A3AE71BDF2384BC9A84D6A54763357A33DF08E763D6DE911B5F4B047BBF689A067DAEFD1617724F4E5F5D2517C614D117316CDF4B35D7A2DA256C0498B69D6224CDE313E91EE44F0076B0A93B3107DFE795B5ABE03FEB6DC1958B3CEFE78A659FDEF998C
311
8D1DD93C5745008EF389CB80B3A66494CB1260AE254FFE0D504B0304140006080800EA5AAC4680A6BB2701010000D70100002D00000031363342383338382D383143312D343741352D393241422D4437363344304643363737312F636F72652E786D6C9591CB6EC32010457F05B1C736B87E34C24479A85FD05577D44C1C94
311
182C1E553FBF50BB6ABB6B57A0CBB933DC19BE7F9FEFE80D9CD7D60C981615466046ABB499061CC385F418ED0577D6861F184646CE30E02C63C12767E3B249A335014C568D55B089D27B08188DF77419B01FAF30CB42C690087F2B1639DEE404052D564EF0A0E72FEBE840065058B08A36A46A0865CF94EE58BD63F4859799
311
143C6A136AB63583F91514B24B4891B06878B9BE262A6AB5315AA53FEA8B0687056DEB635FF73DE9E9899287EED0904776389273D7D6E7EAE9D4761D4D459259701F5C9ACC5624CFE0AFF6D5F82B595CD43F93AD0E9F7A7E872AF398052F3F7790CEBC12F101504B0304140006080800EA5AAC460DB74D5A05010000B20100
311
0008000000636F72652E786D6C8D50C96EC32010FD1534776CC0219B305117E50B7AEA8D1AE2A0D860191CB57F5F88A9D4DE7A1AF496798F11A7CF7140773307EB5D0BB422808CEBBCB6AE6F618917BC07749262F63EFE9201726A342D6418A4E867BF4C05EABC8BC665D4796D0AA84230115037A4470BA1BB9A51556A8949
311
116ED5A4BA9BEA4D45AB552745B4E38FB59B8D8A46836484724C38A6EC8DD2236B8E8CBE8B3A2BA55816AB4B94D529DD5EAC994136BCD973C20FC9B6DBE20D7962F899EFB778B73930FEF27A6E383D8B3A9BA508714E7F2E4B52CF8882BAE75C51AF94141FDE0F45904A69E4DDF00592883A137F4A2F93FE4769EB62C3CAC2
311
D51140D254E841A4E07CC1341EE74D335F5B7E03504B01021400140006080800EA5AAC46131486CBD8000000200100004F000000000000000000000000000000000031363342383338382D383143312D343741352D393241422D4437363344304643363737312F4173736574446174612F446566696E6974696F6E49746572
311
61746F7250726F706572746965732E62696E504B01021400140006080800EA5AAC46D133F33D080100003002000045000000000000000000000000004501000031363342383338382D383143312D343741352D393241422D4437363344304643363737312F4173736574446174612F496E7374616E636550726F7065727469
311
65732E62696E504B01021400140006080800EA5AAC4628BB58AF800100009E0500003D00000000000000000000000000B002000031363342383338382D383143312D343741352D393241422D4437363344304643363737312F536368656D61732F436F6D6D6F6E536368656D612E786D6C504B01021400140006080800EA5A
311
AC462CCEBD668A040000E01200003E000000000000000000000000008B04000031363342383338382D383143312D343741352D393241422D4437363344304643363737312F536368656D61732F47656E65726963536368656D612E786D6C504B01021400140006080800EA5AAC466180134D5F0100006B0300004500000000
311
0000000000000000007109000031363342383338382D383143312D343741352D393241422D4437363344304643363737312F536368656D61732F52656E6465724D6174657269616C536368656D612E786D6C504B01021400140006080800EA5AAC4623B8E01051000000570000004700000000000000000000000000330B00
311
0031363342383338382D383143312D343741352D393241422D4437363344304643363737312F4173736574446174612F41737365745461626C654F66436F6E74656E74732E62696E504B01021400140006080800EA5AAC46F865834058000000680000004500000000000000000000000000E90B000031363342383338382D
311
383143312D343741352D393241422D4437363344304643363737312F4173736574446174612F53747265616D56657273696F6E5461626C652E696E66504B01021400140006080800EA5AAC46B50BA1C7340100009A0400003600000000000000000000000000A40C000031363342383338382D383143312D343741352D3932
311
41422D4437363344304643363737312F4173736574446174612F636E782E786D6C504B01021400140006080800EA5AAC46922B0610070100004F03000034000000000000000000000000002C0E000031363342383338382D383143312D343741352D393241422D4437363344304643363737312F536368656D61732F636E78
311
2E786D6C504B01021400140006080800EA5AAC46410A3D5871000000A40000002C00000000000000000000000000850F000031363342383338382D383143312D343741352D393241422D4437363344304643363737312F636E782E786D6C504B01021400140006080800EA5AAC46E335C5FE7F000000A30000000700000000
311
00000000000000000040100000636E782E786D6C504B01021400140006080800EA5AAC4616E99B5DA6000000350100001300000000000000000000000000E41000005B436F6E74656E745F54797065735D2E786D6C504B01021400140006080800EA5AAC463DEE336E64000000790000001B00000000000000000000000000
311
BB1100006175746F6465736B2D64657369676E2D7061636B6167652E786D6C504B01021400140006080800EA5AAC46CAB2631EF80000009601000037000000000000000000000000005812000031363342383338382D383143312D343741352D393241422D4437363344304643363737312F4173736574446174612F636F72
311
652E786D6C504B01021400140006080800EA5AAC46D04DC564F6000000940100003500000000000000000000000000A513000031363342383338382D383143312D343741352D393241422D4437363344304643363737312F536368656D61732F636F72652E786D6C504B01021400140006080800EA5AAC4680A6BB27010100
311
00D70100002D00000000000000000000000000EE14000031363342383338382D383143312D343741352D393241422D4437363344304643363737312F636F72652E786D6C504B01021400140006080800EA5AAC460DB74D5A05010000B201000008000000000000000000000000003A160000636F72652E786D6C504B050600
311
000000110011005A060000651700000000
310
504B0304140006080800EA5AAC46000000000000000000000000370000006662782F35433145343744312D464335432D343043442D384542322D4441454631453135304437422F617474726962757465732E62696E504B0304140006080800EA5AAC46000000000000000000000000350000006662782F3543314534374431
310
2D464335432D343043442D384542322D4441454631453135304437422F76657274696365732E62696E504B0304140006080800EA5AAC46F270F1330600000004000000360000006662782F35433145343744312D464335432D343043442D384542322D4441454631453135304437422F747269616E676C65732E62696E6366
310
60600000504B0304140006080800EA5AAC4651464CB48900000043010000360000006662782F35433145343744312D464335432D343043442D384542322D4441454631453135304437422F6469726563746F72792E786D6C9D8F310EC2300C45AF127987122606C71DD918B841D4B851A43646695A717C52A85029031293A5
310
A76FBF6FACEF7DA7264E43906840EF0FA03836E242F406C6DCEE4EA06AC22492573150D1F66C60C640E8938CB705396EEDD86DE9B5042FE27813D640EA63BB001C722AF6E55CB61E4863F58284D5D3F53DD715CE1C3985E63FD7F1B7EBDD617E9F1E504B0304140006080800EA5AAC463C4A7B0C36070000201C0000340000
310
006662782F35433145343744312D464335432D343043442D384542322D4441454631453135304437422F6F626A656374732E786D6CDD59596FDB3810FE2B84F665F74197AF5885E3C2B19DC228D21635BAD837819669871B5D20A5C4D95FBF438A942559B6956E0B149B00B14293C3996FEED1E4FD210AD133619C26F1ADE1
310
5A8E81481C245B1AEF6F8D3CDB996303BD9FA2094B92ACB2CF40318EC8AD21968DE964CF923C554B5BB2C379D85CBDBFFB0BF180C4C440418839BF3578F048226CE13C4BB6843F595B9C616BBF3B58AE556CAC93DD339C3E36AE4A31237106ACC27A0C5414076EFD5F10C99E4E6CB1A1B6ADD76D5BFFC2365B0A5E6794C63C
310
C37170C255834EAF1B577D77B058F6869E391C0CFAE660D473CDBBFBBB85E9DEF49DF9683EF7664BCF40D3C92649C252012989B7A0C55763EA4E6CF14D29BE42A18DEF208963122834DB366C89A24B096F625203D695A2551452C85A59E87714FECCB64EA0D458AAA1AD85D39F55EB4D367F0308BC8B95324E8495F38C81AE
310
15F6853F3813BB58ADE9857214E18C308A4314D20DC30C14045B0B05D5C8086F11A490C04C6A51D3ABF20A867DDD97DAB8DCE56128FCD7984A4FF3C11F49C62567F41FC28EDC576F039E40DA9CC6D958099BBDA640C29BD872B1F8AEDF535F1640A25D88F7602D20A6D8D4EF35F09A8B58B05A18D38FF79BC35AC487F6CB53
310
96A48465C2F2A4332BBFD31AAC9816185F07500A5CEBBA3BA2F215A0FF04C897BCA009688ED1C3E030D0B2331CF35DC222D00E7290E9C01F0789C793A7895D1E9E22548B95E73005B7FD4198D6C4A8DD5D81743A7906A34F585F09B70E700836FD4063E1E76028284C6009E2FD6E7330A62B08A6B008A77008D2C3EFC4168F
310
083E0A3A106F1A1A6A0BBF1D14A51DA6E967475D7D009B613428555593F11CBEC31F82EF6CB1FEB8CED90E07E44139F682EC684C3348A6ED0CD540AFB9FCB7D527E99127F2D4760570CF3E1181A3452F6BA517241503AC883C5CA846AE3C5070F730C4314972AED6DB0255908409F337AF7EE1C3AD77FDA98DA0B80CFC5B58
310
406B3083EC1E309A0A508CA912AF8C84D6112711079501EE0BA5FA1B1C3C0978FD0022D6F7F001568B5993681EA53E8E923C16E1FBD4BC9BA2597D47FEB8AED773BCDED81B6961B924AFBD4787869279714F84D33397CC6BDA525143532EFC6800D1B24D82006AA63CF3931407346BB7858610CA4301EC8B2C6FE96E977308
310
EAADB03438B6FAEE103995BFE52597B95797F834C27BE2EFB0C870ADF7D5002A896B095A91D98709E734265C56282791AB818A63412028EC56536D3142CAFD8864F87BEC4FA6BC86F931B20B7DA8A53251CD5EB73ECDA0CA9EE7288ACA2D897D29FFABCF7194864595760D03B7D7B8A11557C1B4B8E219ECCDC799EF6C892C
310
BAAF512FE382C6B71375EFBBC99F8187E19F0E8FBE8242E90D39F2BA665D6BE87AE2670C41653474FB375A11D7B0D25765A2060973A89A8257FF85D0FD63B780D6E91E4EC29D4FC3308FFC221F642482120C6739EBE4AFA3A173A27C15171A0E51B969474328903B074D597BE8EA03A492C5C7B9A059B90684A231F4689D04
310
3991A2D584A52E643F2ADAAEEBDA7F3BD5FF1C2FAB7DCA13797D49D8B695D37A19A12B305D308870A9325C694792F2745275BE48362ED7711868222ABE155D82B210469EA9184CC80EA8B57FE02F380B2090AEE5A779071EB125DB634D5123A7C61CC6142ED5D4749D5AED7420D889F4512BBC5622A046306DC022CE3E8887
310
F02B065543E5C76D55D5D8C5FA4A24360B062B473E2ED0FAFC61DDA0022B9D4F7F111891970605B53A1785DC0552DF56C77AB5414149F46D75E178F698479B185391198559E06DFAEEBDEC256F6D6814ECFED2BD71E723CFEC2F6E1C7370E32CCDD99DD733BD99377286CBC16C391ADB8CF0246701E1F6C0767C5D3BA5F15E
310
1B46015D978E02A60AD75B3F6DCF4D05FF8F3B8A30D9E073B6F8AB361465B9270AB2862F766D285A03F5E66DD5BF7B12A8DB93D89B2AE76256A00DFC72DA8260A4F37DF7D24293D695443BCF958CF8C6C47BB65BF9E939A616D05BF3436D475BC8AFC762983DB56429DDDDCAB836F306E3F1FD7C61DEB9CEBD39F06E86A677
310
375898DE687EE32EC7FDE562706C09552EEC9A577E8918AA99AD8CD1601ACC9390C2509E6CD19E24D001C1D4A1437C6511E1B2B3810240A571FD46A0C3E9E762A69AE14DA84F078F1806D3A1CAC879004351E83A6E0DB58E7E8331A89844CAE194F504894759BB8172466F0D30818C427EB13630CE92C34349BD31AE04B5E1
310
782F7AA6E254F9FFF19840076CE52857B9A70B2E4AB29A75C2702095EF0920DAE982E4FB45D7EC209CC1E326CF4A618E0B47691408FA8540211C4CFD9E14BC07083C97E5722DB9A70649A7C9FC453B28A89A19667B395EAFE03D5B7CB1C5647CF519A561BE17EABC94EF6B944C5167847931849A80612831532CFAF0F93BFB
310
0B4BE0155384EE291801FAFD301EFD61CF93284AE262C99EA9175568FD08AF9DB6B61EF971BBE7B8435BD63D6AAC0F732B4E2CBCE54FB000AA6554CC460B886B065086A78A01688D085DC0B1DAFED502A924502961ABA5AB8047CEF4113892789723DCA6BAA13280045F00AE8A396DF9A01726368321F8F45F504B03041400
310
06080800EA5AAC46740938903D01000046050000300000006662782F35433145343744312D464335432D343043442D384542322D4441454631453135304437422F636E782E786D6CCD94C14EC3300C865FA5CABD695334094D692671E00938206E69EA95B034AE1217B1B72719DD00A1210E93C62D727E4BFF67FFB2DCBC8D
310
AE7885102DFA96095EB302BCC1DEFAA165336DCB5B566C940C88F445C60AAF4768592E33258780F3B4947AD8EAD9E5AAB37EB7143551B0DD4C1059619C8EB165D13CC3A8B99E097B883BDE6BD25CF00011E76020F5931D61E937013441CF54538B5559AF4AD13C08B16E6ED68D789255562AD921BA456F3D41C0A930981E3E
310
99A96595BF959C835D349980A94F67BCB35E56E95FC998DCFA61D1D17ECABA6972D6684A63AAD010509944A047597D8895AC32EF37EAFBBBC7A383A2B7010C61D85F6900E2DC004EC6784AC2DFF80FC2DFB1B17B49B8D7DAF659D8C5D6C5508F698D29AE3FF79F52A4FDE0FE5FE84FC62E9FF9744AC89AFF877CF47521E2EA
310
70F2D2D2F30554EF504B0304140006080800EA5AAC46FBE196237E000000A30000000B0000006662782F636E782E786D6C4D8C410E83201405AF42FE9E161A892E005301EF612A1A520443A5E9F10B8D8BAE5E327933BCFF6C1EBD6D7AB91804D00B0164C323CE2EAC02F2B1E00E502F798AF1F8BB010AD36605540C92AF29
310
E6FD44B35DA6EC2BF52E3C4FC814354DAB291E1553B8214AE3CE0C37ACEF66A48632A2DBA118D7AA94F9F5CAD6BCFC02504B0304140006080800EA5AAC46A6D797065F0000008200000007000000636E782E786D6C4DCB3B0E80201045D1AD90E9FD7516806B51190811670C8A61F982B1B0BAC9C97B72CA7B1037C6D33329
310
18DA1E04D2CAC69353902EDB8C20262D23F3F59B81A079470595414B17391D1F19B4730A5583A7ED43BBE4025D9592775E5ADFFA01504B0304140006080800EA5AAC464FEB6A7CA0000000F4000000130000005B436F6E74656E745F54797065735D2E786D6C7D8F4B0EC2300C44AF1279DFA6B0400835ED02B8011730C16D
310
239A8F121795DB93D02D6269CFBC19BBED573B8B17C564BC53B0AB1B10E4B47F18372A5878A88E20FAAEBDBD032591BD2E299898C349CAA427B2986A1FC86565F0D122E7318E32A07EE24872DF3407A9BD63725C71C980AEBDD080CBCCE2BAE6F5D69B7110E7CD57AA146008B3D1C8F92C5954F993BB1BF787F39A89ABC491
310
D09600F9FDA2FB00504B0304140006080800EA5AAC463DEE336E64000000790000001B0000006175746F6465736B2D64657369676E2D7061636B6167652E786D6C35CBC10E83200C00D05F21DCA56CA76D41FC96062B120735B69A7DBE268BB7777961F8D5AF396893C2ADB70FE7ADA196782C2DF776D7A97B5933C430F156
310
51E5469C55D70F80A4992A3ADC954792C525AE70A1E4D6AD9816CC044FEFDF01FE3FDE907802504B0304140006080800EA5AAC46CF19DDEAF8000000960100003B0000006662782F35433145343744312D464335432D343043442D384542322D4441454631453135304437422F7265736F75726365732F636F72652E786D6C
310
8550CB6E833010FC15B4770336049AC838A254FD829E7AB3CC865A0936F2A3EAE7D74EA8D49E7ADAD5ECCCECEEF0F3D77A2B3ED1796DCD00B4ACA140A3ECACCD32400C17F204C55970676DF84583C2C81507C83008BE381BB71D52D60434193576C61D94DE638042DD523380571FB8CA52C69018FE5A6E525DE582252D1F3C
310
C163D4F32ED57372D3178D0E444FDB6E6A8E47D2D6AF3D69593792F1851E4843FB6E7C9EFA89761DAFB258F0A0D79FEDCAA10C3883607522D70742D91BA527D69C187DE755660AEE834B3FEF4BF377201C7A1B9D42CFABC7F48F6BDCE6FF5DA336A161BBEB43E141D074E47D207895534AE51E61AA3951F10D504B03041400
310
06080800EA5AAC4664905C7CF1000000B1010000310000006662782F35433145343744312D464335432D343043442D384542322D4441454631453135304437422F636F72652E786D6C8D50416EC32010FC8AB5776C2F899528C2448DEDBCA0A7DE10101725060B70D5E71762576A6F392D9A9D6166879DBFA747F1A57D30CE
310
B680650D85B6D22963C7169678234728CE9C79E7E21F1A14564CBA850C0367A377CBBC41D2D9A86D46AD537A0345083A42211FE9D142909F7A12A5586262847B390B7917A32EB15C799C4533FD4AA5D7226A059CD6D890BA2148DF114F7477A2F8C1AACCE46C598CDAAC8C4AEEE666B407DE7438EC0F3D926BD774645F773D
310
390E174AFAB7E18A0336757FB8B02A8B390BD1A79BB74FF275AFCA57E1BFCCCBAC5EC86C6CDCD1CD705504E098F23C179C55B9C0349EEDA699CBE63F504B0304140006080800EA5AAC4633C0C61853010000DD0200000C0000006662782F636F72652E786D6C8D52CB6E833010FC15E43B0F038126328ED254FD829E7A738C
310
43AD808D8C8DF2F95DF310CDA1698564ACD9DDD99991C9F1DEB5C128CC20B5AA108E121408C5752D55532167AFE10B0A8E9418ADED8F361428D6890A791851D218EDFA05E25A59A13CAA742D16900D83B028E02D5C2A34F02FD1B188390B1DC32DEA19BFB14644389AFB28714ED6CBA8AC814D5EA5308896382FCED97E1FE6
310
C97B19E669710A4F6F781766B82C4EAFE7F28C8B82C47E98122BBB753B37825951239A26D09CEC429C7E607C48B3438A3F49EC3B2919AC01CFCB52EF0ED1EBE54EE2197FE0737DFD379F93CA66E9C2374F0C886290371528897D3EF09BC27BCC1016437E965DDAD5C20DA05170AB4D0E955ABBAD34B2D609A04E82E923F15C
310
05E689E0379EF409CF730E088AA906A4310BD78BB37EFBA3A65E9870B4F74069D3B17613374BDCCE6DD183A5759CEB569BFF4CAF56D73063FF30E937504B0304140006080800EA5AAC4658C3667306010000B201000008000000636F72652E786D6C8D50C96EC32010FD1534772F60C76E224CE4BAEA17F4D41B35C441B1C1
310
6289DABF2FC4AED4DE7A1AF4E66D0C3D7F2E33BA4BEB94D11DE0BC0424F56884D25307C15FB227406746AD31FE170D90E68BEC20C1C0E8644D58776834DA4B9D506D84DC41EE9CF480C6393E3A70E3552E3CE7C14786BBE52B1F6F7C9239CE371EA35E2D3FD2D14AEEA500464A7CC8CA4386C91BC627529D087EA74562321A
310
82127B9412315D5D94B4C05A5C3743753C6675F9DA663569FAAC7F892E156E9BFE796807DC34B44862469DB7F1CFBB49ECE991E3F7944B8B6DC5E88731F34E88A504327AFE0256D2222DFE940EABF84769A57D4576C34DE180E158E8B188C1E982713CCE1B67BA36FB06504B01021400140006080800EA5AAC460000000000
310
000000000000003700000000000000000000000000000000006662782F35433145343744312D464335432D343043442D384542322D4441454631453135304437422F617474726962757465732E62696E504B01021400140006080800EA5AAC4600000000000000000000000035000000000000000000000000005500000066
310
62782F35433145343744312D464335432D343043442D384542322D4441454631453135304437422F76657274696365732E62696E504B01021400140006080800EA5AAC46F270F13306000000040000003600000000000000000000000000A80000006662782F35433145343744312D464335432D343043442D384542322D44
310
41454631453135304437422F747269616E676C65732E62696E504B01021400140006080800EA5AAC4651464CB489000000430100003600000000000000000000000000020100006662782F35433145343744312D464335432D343043442D384542322D4441454631453135304437422F6469726563746F72792E786D6C504B
310
01021400140006080800EA5AAC463C4A7B0C36070000201C00003400000000000000000000000000DF0100006662782F35433145343744312D464335432D343043442D384542322D4441454631453135304437422F6F626A656374732E786D6C504B01021400140006080800EA5AAC46740938903D01000046050000300000
310
0000000000000000000000670900006662782F35433145343744312D464335432D343043442D384542322D4441454631453135304437422F636E782E786D6C504B01021400140006080800EA5AAC46FBE196237E000000A30000000B00000000000000000000000000F20A00006662782F636E782E786D6C504B0102140014
310
0006080800EA5AAC46A6D797065F000000820000000700000000000000000000000000990B0000636E782E786D6C504B01021400140006080800EA5AAC464FEB6A7CA0000000F400000013000000000000000000000000001D0C00005B436F6E74656E745F54797065735D2E786D6C504B01021400140006080800EA5AAC46
310
3DEE336E64000000790000001B00000000000000000000000000EE0C00006175746F6465736B2D64657369676E2D7061636B6167652E786D6C504B01021400140006080800EA5AAC46CF19DDEAF8000000960100003B000000000000000000000000008B0D00006662782F35433145343744312D464335432D343043442D38
310
4542322D4441454631453135304437422F7265736F75726365732F636F72652E786D6C504B01021400140006080800EA5AAC4664905C7CF1000000B10100003100000000000000000000000000DC0E00006662782F35433145343744312D464335432D343043442D384542322D4441454631453135304437422F636F72652E
310
786D6C504B01021400140006080800EA5AAC4633C0C61853010000DD0200000C000000000000000000000000001C1000006662782F636F72652E786D6C504B01021400140006080800EA5AAC4658C3667306010000B2010000080000000000000000000000000099110000636F72652E786D6C504B0506000000000E000E00
310
80040000C51200000000
  0
XRECORD
  5
C36
102
{ACAD_REACTORS
330
C31
102
}
330
C31
100
AcDbXrecord
280
     1
270
     1
271
     1
  0
XRECORD
  5
C35
102
{ACAD_REACTORS
330
C31
102
}
330
C31
100
AcDbXrecord
280
     1
270
     1
271
     1
  0
XRECORD
  5
C37
102
{ACAD_REACTORS
330
C31
102
}
330
C31
100
AcDbXrecord
280
     1
270
     1
271
     1
  0
XRECORD
  5
C34
102
{ACAD_REACTORS
330
C31
102
}
330
C31
100
AcDbXrecord
280
     1
270
     1
271
     1
  0
XRECORD
  5
D55
102
{ACAD_REACTORS
330
D54
102
}
330
D54
100
AcDbXrecord
280
     1
102
ACAD_ROUNDTRIP_2012_MLEADER_STYLE
298
     1
  0
XRECORD
  5
D56
102
{ACAD_REACTORS
330
CF7
102
}
330
CF7
100
AcDbXrecord
280
     1
102
DISPLAYNAME
  1
Imperial24
102
FLAGS
 90
        0
  0
CELLSTYLEMAP
  5
D10
102
{ACAD_REACTORS
330
CF5
102
}
330
CF5
100
AcDbCellStyleMap
 90
        3
300
CELLSTYLE
  1
TABLEFORMAT_BEGIN
 90
        5
170
     1
 91
        0
 92
    32768
 62
   257
 93
        1
300
CONTENTFORMAT
  1
CONTENTFORMAT_BEGIN
 90
        0
 91
        0
 92
      512
 93
        0
300

 40
0.0
140
1.0
 94
        5
 62
     0
340
F
144
0.25
309
CONTENTFORMAT_END
171
     1
301
MARGIN
  1
CELLMARGIN_BEGIN
 40
0.06
 40
0.06
 40
0.06
 40
0.06
 40
0.18
 40
0.18
309
CELLMARGIN_END
 94
        6
 95
        1
302
GRIDFORMAT
  1
GRIDFORMAT_BEGIN
 90
        0
 91
        1
 62
     0
 92
       -2
340
0
 93
        0
 40
0.045
309
GRIDFORMAT_END
 95
        2
302
GRIDFORMAT
  1
GRIDFORMAT_BEGIN
 90
        0
 91
        1
 62
     0
 92
       -2
340
0
 93
        0
 40
0.045
309
GRIDFORMAT_END
 95
        4
302
GRIDFORMAT
  1
GRIDFORMAT_BEGIN
 90
        0
 91
        1
 62
     0
 92
       -2
340
0
 93
        0
 40
0.045
309
GRIDFORMAT_END
 95
        8
302
GRIDFORMAT
  1
GRIDFORMAT_BEGIN
 90
        0
 91
        1
 62
     0
 92
       -2
340
0
 93
        0
 40
0.045
309
GRIDFORMAT_END
 95
       16
302
GRIDFORMAT
  1
GRIDFORMAT_BEGIN
 90
        0
 91
        1
 62
     0
 92
       -2
340
0
 93
        0
 40
0.045
309
GRIDFORMAT_END
 95
       32
302
GRIDFORMAT
  1
GRIDFORMAT_BEGIN
 90
        0
 91
        1
 62
     0
 92
       -2
340
0
 93
        0
 40
0.045
309
GRIDFORMAT_END
309
TABLEFORMAT_END
  1
CELLSTYLE_BEGIN
 90
        1
 91
        1
300
_TITLE
309
CELLSTYLE_END
300
CELLSTYLE
  1
TABLEFORMAT_BEGIN
 90
        5
170
     1
 91
        0
 92
        0
 62
   257
 93
        1
300
CONTENTFORMAT
  1
CONTENTFORMAT_BEGIN
 90
        0
 91
        0
 92
      512
 93
        0
300

 40
0.0
140
1.0
 94
        5
 62
     0
340
F
144
0.18
309
CONTENTFORMAT_END
171
     1
301
MARGIN
  1
CELLMARGIN_BEGIN
 40
0.06
 40
0.06
 40
0.06
 40
0.06
 40
0.18
 40
0.18
309
CELLMARGIN_END
 94
        6
 95
        1
302
GRIDFORMAT
  1
GRIDFORMAT_BEGIN
 90
        0
 91
        1
 62
     0
 92
       -2
340
0
 93
        0
 40
0.045
309
GRIDFORMAT_END
 95
        2
302
GRIDFORMAT
  1
GRIDFORMAT_BEGIN
 90
        0
 91
        1
 62
     0
 92
       -2
340
0
 93
        0
 40
0.045
309
GRIDFORMAT_END
 95
        4
302
GRIDFORMAT
  1
GRIDFORMAT_BEGIN
 90
        0
 91
        1
 62
     0
 92
       -2
340
0
 93
        0
 40
0.045
309
GRIDFORMAT_END
 95
        8
302
GRIDFORMAT
  1
GRIDFORMAT_BEGIN
 90
        0
 91
        1
 62
     0
 92
       -2
340
0
 93
        0
 40
0.045
309
GRIDFORMAT_END
 95
       16
302
GRIDFORMAT
  1
GRIDFORMAT_BEGIN
 90
        0
 91
        1
 62
     0
 92
       -2
340
0
 93
        0
 40
0.045
309
GRIDFORMAT_END
 95
       32
302
GRIDFORMAT
  1
GRIDFORMAT_BEGIN
 90
        0
 91
        1
 62
     0
 92
       -2
340
0
 93
        0
 40
0.045
309
GRIDFORMAT_END
309
TABLEFORMAT_END
  1
CELLSTYLE_BEGIN
 90
        2
 91
        1
300
_HEADER
309
CELLSTYLE_END
300
CELLSTYLE
  1
TABLEFORMAT_BEGIN
 90
        5
170
     1
 91
        0
 92
        0
 62
   257
 93
        1
300
CONTENTFORMAT
  1
CONTENTFORMAT_BEGIN
 90
        0
 91
        0
 92
      512
 93
        0
300

 40
0.0
140
1.0
 94
        2
 62
     0
340
F
144
0.18
309
CONTENTFORMAT_END
171
     1
301
MARGIN
  1
CELLMARGIN_BEGIN
 40
0.06
 40
0.06
 40
0.06
 40
0.06
 40
0.18
 40
0.18
309
CELLMARGIN_END
 94
        6
 95
        1
302
GRIDFORMAT
  1
GRIDFORMAT_BEGIN
 90
        0
 91
        1
 62
     0
 92
       -2
340
0
 93
        0
 40
0.045
309
GRIDFORMAT_END
 95
        2
302
GRIDFORMAT
  1
GRIDFORMAT_BEGIN
 90
        0
 91
        1
 62
     0
 92
       -2
340
0
 93
        0
 40
0.045
309
GRIDFORMAT_END
 95
        4
302
GRIDFORMAT
  1
GRIDFORMAT_BEGIN
 90
        0
 91
        1
 62
     0
 92
       -2
340
0
 93
        0
 40
0.045
309
GRIDFORMAT_END
 95
        8
302
GRIDFORMAT
  1
GRIDFORMAT_BEGIN
 90
        0
 91
        1
 62
     0
 92
       -2
340
0
 93
        0
 40
0.045
309
GRIDFORMAT_END
 95
       16
302
GRIDFORMAT
  1
GRIDFORMAT_BEGIN
 90
        0
 91
        1
 62
     0
 92
       -2
340
0
 93
        0
 40
0.045
309
GRIDFORMAT_END
 95
       32
302
GRIDFORMAT
  1
GRIDFORMAT_BEGIN
 90
        0
 91
        1
 62
     0
 92
       -2
340
0
 93
        0
 40
0.045
309
GRIDFORMAT_END
309
TABLEFORMAT_END
  1
CELLSTYLE_BEGIN
 90
        3
 91
        2
300
_DATA
309
CELLSTYLE_END
  0
XRECORD
  5
D52
102
{ACAD_REACTORS
330
CF5
102
}
330
CF5
100
AcDbXrecord
280
     1
102
ACAD_ROUNDTRIP_PRE2007_TABLESTYLE
 90
      512
 91
        0
  1

 92
      512
 93
        0
  2

 94
      512
 95
        0
  3

  0
XRECORD
  5
D2D
102
{ACAD_REACTORS
330
D2C
102
}
330
D2C
100
AcDbXrecord
280
     1
102
RTVSPost2010Prop28
280
     1
102
RTVSPost2010PropOp28
 70
     1
102
RTVSPost2010Prop29
280
     1
102
RTVSPost2010PropOp29
 70
     1
102
RTVSPost2010Prop30
280
     0
102
RTVSPost2010PropOp30
 70
     1
102
RTVSPost2010Prop31
280
     0
102
RTVSPost2010PropOp31
 70
     1
102
RTVSPost2010Prop32
280
     0
102
RTVSPost2010PropOp32
 70
     1
102
RTVSPost2010Prop33
280
     0
102
RTVSPost2010PropOp33
 70
     1
102
RTVSPost2010Prop34
280
     0
102
RTVSPost2010PropOp34
 70
     1
102
RTVSPost2010Prop35
280
     0
102
RTVSPost2010PropOp35
 70
     1
102
RTVSPost2010Prop36
280
     0
102
RTVSPost2010PropOp36
 70
     1
102
RTVSPost2010Prop37
 90
       50
102
RTVSPost2010PropOp37
 70
     1
102
RTVSPost2010Prop38
140
0.0
102
RTVSPost2010PropOp38
 70
     1
102
RTVSPost2010Prop39
140
1.0
102
RTVSPost2010PropOp39
 70
     1
102
RTVSPost2010Prop40
 90
        0
102
RTVSPost2010PropOp40
 70
     1
102
RTVSPost2010Prop41ColorIndex
 90
       18
102
RTVSPost2010Prop41ColorRGB
 90
-16777216
102
RTVSPost2010PropOp41
 70
     1
102
RTVSPost2010Prop42
 90
       50
102
RTVSPost2010PropOp42
 70
     1
102
RTVSPost2010Prop43
 90
        3
102
RTVSPost2010PropOp43
 70
     1
102
RTVSPost2010Prop44ColorIndex
 90
        5
102
RTVSPost2010Prop44ColorRGB
 90
      255
102
RTVSPost2010PropOp44
 70
     1
102
RTVSPost2010Prop45
280
     0
102
RTVSPost2010PropOp45
 70
     1
102
RTVSPost2010Prop46
 90
       50
102
RTVSPost2010PropOp46
 70
     1
102
RTVSPost2010Prop47
 90
       50
102
RTVSPost2010PropOp47
 70
     1
102
RTVSPost2010Prop48
 90
       50
102
RTVSPost2010PropOp48
 70
     1
102
RTVSPost2010Prop49
280
     0
102
RTVSPost2010PropOp49
 70
     1
102
RTVSPost2010Prop50
 90
       50
102
RTVSPost2010PropOp50
 70
     1
102
RTVSPost2010Prop51ColorIndex
 90
      256
102
RTVSPost2010Prop51ColorRGB
 90
-16777216
102
RTVSPost2010PropOp51
 70
     0
102
RTVSPost2010Prop52
140
1.0
102
RTVSPost2010PropOp52
 70
     0
102
RTVSPost2010Prop53
 90
        2
102
RTVSPost2010PropOp53
 70
     1
102
RTVSPost2010Prop54
  1
strokes_ogs.tif
102
RTVSPost2010PropOp54
 70
     1
102
RTVSPost2010Prop55
280
     0
102
RTVSPost2010PropOp55
 70
     1
102
RTVSPost2010Prop56
140
1.0
102
RTVSPost2010PropOp56
 70
     1
102
RTVSPost2010Prop57
140
1.0
102
RTVSPost2010PropOp57
 70
     1
102
RTVSPropertyOp0
 70
     1
102
RTVSPropertyOp1
 70
     1
102
RTVSPropertyOp2
 70
     1
102
RTVSPropertyOp3
 70
     1
102
RTVSPropertyOp4
 70
     1
102
RTVSPropertyOp5
 70
     1
102
RTVSPropertyOp6
 70
     1
102
RTVSPropertyOp7
 70
     1
102
RTVSPropertyOp8
 70
     1
102
RTVSPropertyOp9
 70
     1
102
RTVSPropertyOp10
 70
     1
102
RTVSPropertyOp11
 70
     1
102
RTVSPropertyOp12
 70
     1
102
RTVSPropertyOp13
 70
     1
102
RTVSPropertyOp14
 70
     1
102
RTVSPropertyOp15
 70
     1
102
RTVSPropertyOp16
 70
     1
102
RTVSPropertyOp17
 70
     1
102
RTVSPropertyOp18
 70
     1
102
RTVSPropertyOp19
 70
     1
102
RTVSPropertyOp20
 70
     1
102
RTVSPropertyOp21
 70
     1
102
RTVSPropertyOp22
 70
     1
102
RTVSPropertyOp23
 70
     1
102
RTVSPropertyOp24
 70
     1
102
RTVSPropertyOp25
 70
     1
102
RTVSPropertyOp26
 70
     1
102
RTVSPropertyOp27
 70
     1
102
RTVSPropertyOp28
 70
     1
102
RTVSPropertyOp29
 70
     1
102
RTVSPropertyOp30
 70
     1
102
RTVSPropertyOp31
 70
     1
102
RTVSPropertyOp32
 70
     1
102
RTVSPropertyOp33
 70
     1
102
RTVSPropertyOp34
 70
     1
102
RTVSPropertyOp35
 70
     1
102
RTVSPropertyOp36
 70
     1
102
RTVSPropertyOp37
 70
     1
102
RTVSPropertyOp38
 70
     1
102
RTVSPropertyOp39
 70
     1
102
RTVSPropertyOp40
 70
     1
102
RTVSPropertyOp41
 70
     1
102
RTVSPropertyOp42
 70
     1
102
RTVSPropertyOp43
 70
     1
102
RTVSPropertyOp44
 70
     1
102
RTVSPropertyOp45
 70
     1
102
RTVSPropertyOp46
 70
     1
102
RTVSPropertyOp47
 70
     1
102
RTVSPropertyOp48
 70
     1
102
RTVSPropertyOp49
 70
     1
102
RTVSPropertyOp50
 70
     1
102
RTVSPropertyOp51
 70
     0
102
RTVSPropertyOp52
 70
     0
102
RTVSPropertyOp53
 70
     1
102
RTVSPropertyOp54
 70
     1
102
RTVSPropertyOp55
 70
     1
102
RTVSPropertyOp56
 70
     1
102
RTVSPropertyOp57
 70
     1
102
RTVSPropertyOp58
 70
     1
102
RTVSPropertyOp59
 70
     1
102
RTVSPropertyOp60
 70
     1
102
RTVSPropertyOp61
 70
     1
102
RTVSPropertyOp62
 70
     1
  0
XRECORD
  5
D2B
102
{ACAD_REACTORS
330
D2A
102
}
330
D2A
100
AcDbXrecord
280
     1
102
RTVSPost2010Prop28
280
     0
102
RTVSPost2010PropOp28
 70
     1
102
RTVSPost2010Prop29
280
     1
102
RTVSPost2010PropOp29
 70
     1
102
RTVSPost2010Prop30
280
     1
102
RTVSPost2010PropOp30
 70
     1
102
RTVSPost2010Prop31
280
     0
102
RTVSPost2010PropOp31
 70
     1
102
RTVSPost2010Prop32
280
     0
102
RTVSPost2010PropOp32
 70
     1
102
RTVSPost2010Prop33
280
     0
102
RTVSPost2010PropOp33
 70
     1
102
RTVSPost2010Prop34
280
     0
102
RTVSPost2010PropOp34
 70
     1
102
RTVSPost2010Prop35
280
     0
102
RTVSPost2010PropOp35
 70
     1
102
RTVSPost2010Prop36
280
     0
102
RTVSPost2010PropOp36
 70
     1
102
RTVSPost2010Prop37
 90
       50
102
RTVSPost2010PropOp37
 70
     1
102
RTVSPost2010Prop38
140
0.0
102
RTVSPost2010PropOp38
 70
     1
102
RTVSPost2010Prop39
140
1.0
102
RTVSPost2010PropOp39
 70
     1
102
RTVSPost2010Prop40
 90
        0
102
RTVSPost2010PropOp40
 70
     1
102
RTVSPost2010Prop41ColorIndex
 90
       18
102
RTVSPost2010Prop41ColorRGB
 90
-16777216
102
RTVSPost2010PropOp41
 70
     1
102
RTVSPost2010Prop42
 90
       50
102
RTVSPost2010PropOp42
 70
     1
102
RTVSPost2010Prop43
 90
        3
102
RTVSPost2010PropOp43
 70
     1
102
RTVSPost2010Prop44ColorIndex
 90
        5
102
RTVSPost2010Prop44ColorRGB
 90
      255
102
RTVSPost2010PropOp44
 70
     1
102
RTVSPost2010Prop45
280
     0
102
RTVSPost2010PropOp45
 70
     1
102
RTVSPost2010Prop46
 90
       50
102
RTVSPost2010PropOp46
 70
     1
102
RTVSPost2010Prop47
 90
       50
102
RTVSPost2010PropOp47
 70
     1
102
RTVSPost2010Prop48
 90
       50
102
RTVSPost2010PropOp48
 70
     1
102
RTVSPost2010Prop49
280
     0
102
RTVSPost2010PropOp49
 70
     1
102
RTVSPost2010Prop50
 90
       50
102
RTVSPost2010PropOp50
 70
     1
102
RTVSPost2010Prop51ColorIndex
 90
      256
102
RTVSPost2010Prop51ColorRGB
 90
-16777216
102
RTVSPost2010PropOp51
 70
     0
102
RTVSPost2010Prop52
140
1.0
102
RTVSPost2010PropOp52
 70
     0
102
RTVSPost2010Prop53
 90
        2
102
RTVSPost2010PropOp53
 70
     1
102
RTVSPost2010Prop54
  1
strokes_ogs.tif
102
RTVSPost2010PropOp54
 70
     1
102
RTVSPost2010Prop55
280
     0
102
RTVSPost2010PropOp55
 70
     1
102
RTVSPost2010Prop56
140
1.0
102
RTVSPost2010PropOp56
 70
     1
102
RTVSPost2010Prop57
140
1.0
102
RTVSPost2010PropOp57
 70
     1
102
RTVSPropertyOp0
 70
     1
102
RTVSPropertyOp1
 70
     1
102
RTVSPropertyOp2
 70
     1
102
RTVSPropertyOp3
 70
     1
102
RTVSPropertyOp4
 70
     1
102
RTVSPropertyOp5
 70
     1
102
RTVSPropertyOp6
 70
     1
102
RTVSPropertyOp7
 70
     1
102
RTVSPropertyOp8
 70
     1
102
RTVSPropertyOp9
 70
     1
102
RTVSPropertyOp10
 70
     1
102
RTVSPropertyOp11
 70
     1
102
RTVSPropertyOp12
 70
     1
102
RTVSPropertyOp13
 70
     1
102
RTVSPropertyOp14
 70
     1
102
RTVSPropertyOp15
 70
     1
102
RTVSPropertyOp16
 70
     1
102
RTVSPropertyOp17
 70
     1
102
RTVSPropertyOp18
 70
     1
102
RTVSPropertyOp19
 70
     1
102
RTVSPropertyOp20
 70
     1
102
RTVSPropertyOp21
 70
     1
102
RTVSPropertyOp22
 70
     1
102
RTVSPropertyOp23
 70
     1
102
RTVSPropertyOp24
 70
     1
102
RTVSPropertyOp25
 70
     1
102
RTVSPropertyOp26
 70
     1
102
RTVSPropertyOp27
 70
     1
102
RTVSPropertyOp28
 70
     1
102
RTVSPropertyOp29
 70
     1
102
RTVSPropertyOp30
 70
     1
102
RTVSPropertyOp31
 70
     1
102
RTVSPropertyOp32
 70
     1
102
RTVSPropertyOp33
 70
     1
102
RTVSPropertyOp34
 70
     1
102
RTVSPropertyOp35
 70
     1
102
RTVSPropertyOp36
 70
     1
102
RTVSPropertyOp37
 70
     1
102
RTVSPropertyOp38
 70
     1
102
RTVSPropertyOp39
 70
     1
102
RTVSPropertyOp40
 70
     1
102
RTVSPropertyOp41
 70
     1
102
RTVSPropertyOp42
 70
     1
102
RTVSPropertyOp43
 70
     1
102
RTVSPropertyOp44
 70
     1
102
RTVSPropertyOp45
 70
     1
102
RTVSPropertyOp46
 70
     1
102
RTVSPropertyOp47
 70
     1
102
RTVSPropertyOp48
 70
     1
102
RTVSPropertyOp49
 70
     1
102
RTVSPropertyOp50
 70
     1
102
RTVSPropertyOp51
 70
     0
102
RTVSPropertyOp52
 70
     0
102
RTVSPropertyOp53
 70
     1
102
RTVSPropertyOp54
 70
     1
102
RTVSPropertyOp55
 70
     1
102
RTVSPropertyOp56
 70
     1
102
RTVSPropertyOp57
 70
     1
102
RTVSPropertyOp58
 70
     1
102
RTVSPropertyOp59
 70
     1
102
RTVSPropertyOp60
 70
     1
102
RTVSPropertyOp61
 70
     1
102
RTVSPropertyOp62
 70
     1
  0
XRECORD
  5
D39
102
{ACAD_REACTORS
330
D38
102
}
330
D38
100
AcDbXrecord
280
     1
102
RTVSPost2010Prop28
280
     0
102
RTVSPost2010PropOp28
 70
     1
102
RTVSPost2010Prop29
280
     1
102
RTVSPost2010PropOp29
 70
     1
102
RTVSPost2010Prop30
280
     1
102
RTVSPost2010PropOp30
 70
     1
102
RTVSPost2010Prop31
280
     0
102
RTVSPost2010PropOp31
 70
     1
102
RTVSPost2010Prop32
280
     0
102
RTVSPost2010PropOp32
 70
     1
102
RTVSPost2010Prop33
280
     0
102
RTVSPost2010PropOp33
 70
     1
102
RTVSPost2010Prop34
280
     0
102
RTVSPost2010PropOp34
 70
     1
102
RTVSPost2010Prop35
280
     0
102
RTVSPost2010PropOp35
 70
     1
102
RTVSPost2010Prop36
280
     0
102
RTVSPost2010PropOp36
 70
     1
102
RTVSPost2010Prop37
 90
       50
102
RTVSPost2010PropOp37
 70
     1
102
RTVSPost2010Prop38
140
0.0
102
RTVSPost2010PropOp38
 70
     1
102
RTVSPost2010Prop39
140
1.0
102
RTVSPost2010PropOp39
 70
     1
102
RTVSPost2010Prop40
 90
        0
102
RTVSPost2010PropOp40
 70
     1
102
RTVSPost2010Prop41ColorIndex
 90
       18
102
RTVSPost2010Prop41ColorRGB
 90
-16777216
102
RTVSPost2010PropOp41
 70
     1
102
RTVSPost2010Prop42
 90
       50
102
RTVSPost2010PropOp42
 70
     1
102
RTVSPost2010Prop43
 90
        3
102
RTVSPost2010PropOp43
 70
     1
102
RTVSPost2010Prop44ColorIndex
 90
        5
102
RTVSPost2010Prop44ColorRGB
 90
      255
102
RTVSPost2010PropOp44
 70
     1
102
RTVSPost2010Prop45
280
     0
102
RTVSPost2010PropOp45
 70
     1
102
RTVSPost2010Prop46
 90
       50
102
RTVSPost2010PropOp46
 70
     1
102
RTVSPost2010Prop47
 90
       50
102
RTVSPost2010PropOp47
 70
     1
102
RTVSPost2010Prop48
 90
       50
102
RTVSPost2010PropOp48
 70
     1
102
RTVSPost2010Prop49
280
     0
102
RTVSPost2010PropOp49
 70
     1
102
RTVSPost2010Prop50
 90
       50
102
RTVSPost2010PropOp50
 70
     1
102
RTVSPost2010Prop51ColorIndex
 90
      256
102
RTVSPost2010Prop51ColorRGB
 90
-16777216
102
RTVSPost2010PropOp51
 70
     0
102
RTVSPost2010Prop52
140
1.0
102
RTVSPost2010PropOp52
 70
     0
102
RTVSPost2010Prop53
 90
        2
102
RTVSPost2010PropOp53
 70
     1
102
RTVSPost2010Prop54
  1
strokes_ogs.tif
102
RTVSPost2010PropOp54
 70
     1
102
RTVSPost2010Prop55
280
     0
102
RTVSPost2010PropOp55
 70
     1
102
RTVSPost2010Prop56
140
1.0
102
RTVSPost2010PropOp56
 70
     1
102
RTVSPost2010Prop57
140
1.0
102
RTVSPost2010PropOp57
 70
     1
102
RTVSPropertyOp0
 70
     1
102
RTVSPropertyOp1
 70
     1
102
RTVSPropertyOp2
 70
     1
102
RTVSPropertyOp3
 70
     1
102
RTVSPropertyOp4
 70
     1
102
RTVSPropertyOp5
 70
     1
102
RTVSPropertyOp6
 70
     1
102
RTVSPropertyOp7
 70
     1
102
RTVSPropertyOp8
 70
     1
102
RTVSPropertyOp9
 70
     1
102
RTVSPropertyOp10
 70
     1
102
RTVSPropertyOp11
 70
     1
102
RTVSPropertyOp12
 70
     1
102
RTVSPropertyOp13
 70
     1
102
RTVSPropertyOp14
 70
     1
102
RTVSPropertyOp15
 70
     1
102
RTVSPropertyOp16
 70
     1
102
RTVSPropertyOp17
 70
     1
102
RTVSPropertyOp18
 70
     1
102
RTVSPropertyOp19
 70
     1
102
RTVSPropertyOp20
 70
     1
102
RTVSPropertyOp21
 70
     1
102
RTVSPropertyOp22
 70
     1
102
RTVSPropertyOp23
 70
     1
102
RTVSPropertyOp24
 70
     1
102
RTVSPropertyOp25
 70
     1
102
RTVSPropertyOp26
 70
     1
102
RTVSPropertyOp27
 70
     1
102
RTVSPropertyOp28
 70
     1
102
RTVSPropertyOp29
 70
     1
102
RTVSPropertyOp30
 70
     1
102
RTVSPropertyOp31
 70
     1
102
RTVSPropertyOp32
 70
     1
102
RTVSPropertyOp33
 70
     1
102
RTVSPropertyOp34
 70
     1
102
RTVSPropertyOp35
 70
     1
102
RTVSPropertyOp36
 70
     1
102
RTVSPropertyOp37
 70
     1
102
RTVSPropertyOp38
 70
     1
102
RTVSPropertyOp39
 70
     1
102
RTVSPropertyOp40
 70
     1
102
RTVSPropertyOp41
 70
     1
102
RTVSPropertyOp42
 70
     1
102
RTVSPropertyOp43
 70
     1
102
RTVSPropertyOp44
 70
     1
102
RTVSPropertyOp45
 70
     1
102
RTVSPropertyOp46
 70
     1
102
RTVSPropertyOp47
 70
     1
102
RTVSPropertyOp48
 70
     1
102
RTVSPropertyOp49
 70
     1
102
RTVSPropertyOp50
 70
     1
102
RTVSPropertyOp51
 70
     0
102
RTVSPropertyOp52
 70
     0
102
RTVSPropertyOp53
 70
     1
102
RTVSPropertyOp54
 70
     1
102
RTVSPropertyOp55
 70
     1
102
RTVSPropertyOp56
 70
     1
102
RTVSPropertyOp57
 70
     1
102
RTVSPropertyOp58
 70
     1
102
RTVSPropertyOp59
 70
     1
102
RTVSPropertyOp60
 70
     1
102
RTVSPropertyOp61
 70
     1
102
RTVSPropertyOp62
 70
     1
  0
XRECORD
  5
D41
102
{ACAD_REACTORS
330
D40
102
}
330
D40
100
AcDbXrecord
280
     1
102
RTVSPost2010Prop28
280
     0
102
RTVSPost2010PropOp28
 70
     1
102
RTVSPost2010Prop29
280
     1
102
RTVSPost2010PropOp29
 70
     1
102
RTVSPost2010Prop30
280
     1
102
RTVSPost2010PropOp30
 70
     1
102
RTVSPost2010Prop31
280
     0
102
RTVSPost2010PropOp31
 70
     1
102
RTVSPost2010Prop32
280
     0
102
RTVSPost2010PropOp32
 70
     1
102
RTVSPost2010Prop33
280
     0
102
RTVSPost2010PropOp33
 70
     1
102
RTVSPost2010Prop34
280
     0
102
RTVSPost2010PropOp34
 70
     1
102
RTVSPost2010Prop35
280
     0
102
RTVSPost2010PropOp35
 70
     1
102
RTVSPost2010Prop36
280
     0
102
RTVSPost2010PropOp36
 70
     1
102
RTVSPost2010Prop37
 90
       50
102
RTVSPost2010PropOp37
 70
     1
102
RTVSPost2010Prop38
140
0.0
102
RTVSPost2010PropOp38
 70
     1
102
RTVSPost2010Prop39
140
1.0
102
RTVSPost2010PropOp39
 70
     1
102
RTVSPost2010Prop40
 90
        0
102
RTVSPost2010PropOp40
 70
     1
102
RTVSPost2010Prop41ColorIndex
 90
       18
102
RTVSPost2010Prop41ColorRGB
 90
-16777216
102
RTVSPost2010PropOp41
 70
     1
102
RTVSPost2010Prop42
 90
       50
102
RTVSPost2010PropOp42
 70
     1
102
RTVSPost2010Prop43
 90
        3
102
RTVSPost2010PropOp43
 70
     1
102
RTVSPost2010Prop44ColorIndex
 90
        5
102
RTVSPost2010Prop44ColorRGB
 90
      255
102
RTVSPost2010PropOp44
 70
     1
102
RTVSPost2010Prop45
280
     0
102
RTVSPost2010PropOp45
 70
     1
102
RTVSPost2010Prop46
 90
       50
102
RTVSPost2010PropOp46
 70
     1
102
RTVSPost2010Prop47
 90
       50
102
RTVSPost2010PropOp47
 70
     1
102
RTVSPost2010Prop48
 90
       50
102
RTVSPost2010PropOp48
 70
     1
102
RTVSPost2010Prop49
280
     0
102
RTVSPost2010PropOp49
 70
     1
102
RTVSPost2010Prop50
 90
       50
102
RTVSPost2010PropOp50
 70
     1
102
RTVSPost2010Prop51ColorIndex
 90
      256
102
RTVSPost2010Prop51ColorRGB
 90
-16777216
102
RTVSPost2010PropOp51
 70
     0
102
RTVSPost2010Prop52
140
1.0
102
RTVSPost2010PropOp52
 70
     0
102
RTVSPost2010Prop53
 90
        2
102
RTVSPost2010PropOp53
 70
     1
102
RTVSPost2010Prop54
  1
strokes_ogs.tif
102
RTVSPost2010PropOp54
 70
     1
102
RTVSPost2010Prop55
280
     0
102
RTVSPost2010PropOp55
 70
     1
102
RTVSPost2010Prop56
140
1.0
102
RTVSPost2010PropOp56
 70
     1
102
RTVSPost2010Prop57
140
1.0
102
RTVSPost2010PropOp57
 70
     1
102
RTVSPropertyOp0
 70
     1
102
RTVSPropertyOp1
 70
     1
102
RTVSPropertyOp2
 70
     1
102
RTVSPropertyOp3
 70
     1
102
RTVSPropertyOp4
 70
     1
102
RTVSPropertyOp5
 70
     1
102
RTVSPropertyOp6
 70
     1
102
RTVSPropertyOp7
 70
     1
102
RTVSPropertyOp8
 70
     1
102
RTVSPropertyOp9
 70
     1
102
RTVSPropertyOp10
 70
     1
102
RTVSPropertyOp11
 70
     1
102
RTVSPropertyOp12
 70
     1
102
RTVSPropertyOp13
 70
     1
102
RTVSPropertyOp14
 70
     1
102
RTVSPropertyOp15
 70
     1
102
RTVSPropertyOp16
 70
     1
102
RTVSPropertyOp17
 70
     1
102
RTVSPropertyOp18
 70
     1
102
RTVSPropertyOp19
 70
     1
102
RTVSPropertyOp20
 70
     1
102
RTVSPropertyOp21
 70
     1
102
RTVSPropertyOp22
 70
     1
102
RTVSPropertyOp23
 70
     1
102
RTVSPropertyOp24
 70
     1
102
RTVSPropertyOp25
 70
     1
102
RTVSPropertyOp26
 70
     1
102
RTVSPropertyOp27
 70
     1
102
RTVSPropertyOp28
 70
     1
102
RTVSPropertyOp29
 70
     1
102
RTVSPropertyOp30
 70
     1
102
RTVSPropertyOp31
 70
     1
102
RTVSPropertyOp32
 70
     1
102
RTVSPropertyOp33
 70
     1
102
RTVSPropertyOp34
 70
     1
102
RTVSPropertyOp35
 70
     1
102
RTVSPropertyOp36
 70
     1
102
RTVSPropertyOp37
 70
     1
102
RTVSPropertyOp38
 70
     1
102
RTVSPropertyOp39
 70
     1
102
RTVSPropertyOp40
 70
     1
102
RTVSPropertyOp41
 70
     1
102
RTVSPropertyOp42
 70
     1
102
RTVSPropertyOp43
 70
     1
102
RTVSPropertyOp44
 70
     1
102
RTVSPropertyOp45
 70
     1
102
RTVSPropertyOp46
 70
     1
102
RTVSPropertyOp47
 70
     1
102
RTVSPropertyOp48
 70
     1
102
RTVSPropertyOp49
 70
     1
102
RTVSPropertyOp50
 70
     1
102
RTVSPropertyOp51
 70
     0
102
RTVSPropertyOp52
 70
     0
102
RTVSPropertyOp53
 70
     1
102
RTVSPropertyOp54
 70
     1
102
RTVSPropertyOp55
 70
     1
102
RTVSPropertyOp56
 70
     1
102
RTVSPropertyOp57
 70
     1
102
RTVSPropertyOp58
 70
     1
102
RTVSPropertyOp59
 70
     1
102
RTVSPropertyOp60
 70
     1
102
RTVSPropertyOp61
 70
     1
102
RTVSPropertyOp62
 70
     1
  0
XRECORD
  5
D33
102
{ACAD_REACTORS
330
D32
102
}
330
D32
100
AcDbXrecord
280
     1
102
RTVSPost2010Prop28
280
     0
102
RTVSPost2010PropOp28
 70
     1
102
RTVSPost2010Prop29
280
     1
102
RTVSPost2010PropOp29
 70
     1
102
RTVSPost2010Prop30
280
     1
102
RTVSPost2010PropOp30
 70
     1
102
RTVSPost2010Prop31
280
     0
102
RTVSPost2010PropOp31
 70
     1
102
RTVSPost2010Prop32
280
     0
102
RTVSPost2010PropOp32
 70
     1
102
RTVSPost2010Prop33
280
     0
102
RTVSPost2010PropOp33
 70
     1
102
RTVSPost2010Prop34
280
     0
102
RTVSPost2010PropOp34
 70
     1
102
RTVSPost2010Prop35
280
     0
102
RTVSPost2010PropOp35
 70
     1
102
RTVSPost2010Prop36
280
     0
102
RTVSPost2010PropOp36
 70
     1
102
RTVSPost2010Prop37
 90
       50
102
RTVSPost2010PropOp37
 70
     1
102
RTVSPost2010Prop38
140
0.0
102
RTVSPost2010PropOp38
 70
     1
102
RTVSPost2010Prop39
140
1.0
102
RTVSPost2010PropOp39
 70
     1
102
RTVSPost2010Prop40
 90
        0
102
RTVSPost2010PropOp40
 70
     1
102
RTVSPost2010Prop41ColorIndex
 90
       18
102
RTVSPost2010Prop41ColorRGB
 90
-16777216
102
RTVSPost2010PropOp41
 70
     1
102
RTVSPost2010Prop42
 90
       50
102
RTVSPost2010PropOp42
 70
     1
102
RTVSPost2010Prop43
 90
        3
102
RTVSPost2010PropOp43
 70
     1
102
RTVSPost2010Prop44ColorIndex
 90
        5
102
RTVSPost2010Prop44ColorRGB
 90
      255
102
RTVSPost2010PropOp44
 70
     1
102
RTVSPost2010Prop45
280
     0
102
RTVSPost2010PropOp45
 70
     1
102
RTVSPost2010Prop46
 90
       50
102
RTVSPost2010PropOp46
 70
     1
102
RTVSPost2010Prop47
 90
       50
102
RTVSPost2010PropOp47
 70
     1
102
RTVSPost2010Prop48
 90
       50
102
RTVSPost2010PropOp48
 70
     1
102
RTVSPost2010Prop49
280
     0
102
RTVSPost2010PropOp49
 70
     1
102
RTVSPost2010Prop50
 90
       50
102
RTVSPost2010PropOp50
 70
     1
102
RTVSPost2010Prop51ColorIndex
 90
      256
102
RTVSPost2010Prop51ColorRGB
 90
-16777216
102
RTVSPost2010PropOp51
 70
     0
102
RTVSPost2010Prop52
140
1.0
102
RTVSPost2010PropOp52
 70
     0
102
RTVSPost2010Prop53
 90
        2
102
RTVSPost2010PropOp53
 70
     1
102
RTVSPost2010Prop54
  1
strokes_ogs.tif
102
RTVSPost2010PropOp54
 70
     1
102
RTVSPost2010Prop55
280
     0
102
RTVSPost2010PropOp55
 70
     1
102
RTVSPost2010Prop56
140
1.0
102
RTVSPost2010PropOp56
 70
     1
102
RTVSPost2010Prop57
140
1.0
102
RTVSPost2010PropOp57
 70
     1
102
RTVSPropertyOp0
 70
     1
102
RTVSPropertyOp1
 70
     1
102
RTVSPropertyOp2
 70
     1
102
RTVSPropertyOp3
 70
     1
102
RTVSPropertyOp4
 70
     1
102
RTVSPropertyOp5
 70
     1
102
RTVSPropertyOp6
 70
     1
102
RTVSPropertyOp7
 70
     1
102
RTVSPropertyOp8
 70
     1
102
RTVSPropertyOp9
 70
     1
102
RTVSPropertyOp10
 70
     1
102
RTVSPropertyOp11
 70
     1
102
RTVSPropertyOp12
 70
     1
102
RTVSPropertyOp13
 70
     1
102
RTVSPropertyOp14
 70
     1
102
RTVSPropertyOp15
 70
     1
102
RTVSPropertyOp16
 70
     1
102
RTVSPropertyOp17
 70
     1
102
RTVSPropertyOp18
 70
     1
102
RTVSPropertyOp19
 70
     1
102
RTVSPropertyOp20
 70
     1
102
RTVSPropertyOp21
 70
     1
102
RTVSPropertyOp22
 70
     1
102
RTVSPropertyOp23
 70
     1
102
RTVSPropertyOp24
 70
     1
102
RTVSPropertyOp25
 70
     1
102
RTVSPropertyOp26
 70
     1
102
RTVSPropertyOp27
 70
     1
102
RTVSPropertyOp28
 70
     1
102
RTVSPropertyOp29
 70
     1
102
RTVSPropertyOp30
 70
     1
102
RTVSPropertyOp31
 70
     1
102
RTVSPropertyOp32
 70
     1
102
RTVSPropertyOp33
 70
     1
102
RTVSPropertyOp34
 70
     1
102
RTVSPropertyOp35
 70
     1
102
RTVSPropertyOp36
 70
     1
102
RTVSPropertyOp37
 70
     1
102
RTVSPropertyOp38
 70
     1
102
RTVSPropertyOp39
 70
     1
102
RTVSPropertyOp40
 70
     1
102
RTVSPropertyOp41
 70
     1
102
RTVSPropertyOp42
 70
     1
102
RTVSPropertyOp43
 70
     1
102
RTVSPropertyOp44
 70
     1
102
RTVSPropertyOp45
 70
     1
102
RTVSPropertyOp46
 70
     1
102
RTVSPropertyOp47
 70
     1
102
RTVSPropertyOp48
 70
     1
102
RTVSPropertyOp49
 70
     1
102
RTVSPropertyOp50
 70
     1
102
RTVSPropertyOp51
 70
     0
102
RTVSPropertyOp52
 70
     0
102
RTVSPropertyOp53
 70
     1
102
RTVSPropertyOp54
 70
     1
102
RTVSPropertyOp55
 70
     1
102
RTVSPropertyOp56
 70
     1
102
RTVSPropertyOp57
 70
     1
102
RTVSPropertyOp58
 70
     1
102
RTVSPropertyOp59
 70
     1
102
RTVSPropertyOp60
 70
     1
102
RTVSPropertyOp61
 70
     1
102
RTVSPropertyOp62
 70
     1
  0
XRECORD
  5
D37
102
{ACAD_REACTORS
330
D36
102
}
330
D36
100
AcDbXrecord
280
     1
102
RTVSPost2010Prop28
280
     0
102
RTVSPost2010PropOp28
 70
     1
102
RTVSPost2010Prop29
280
     1
102
RTVSPost2010PropOp29
 70
     1
102
RTVSPost2010Prop30
280
     1
102
RTVSPost2010PropOp30
 70
     1
102
RTVSPost2010Prop31
280
     0
102
RTVSPost2010PropOp31
 70
     1
102
RTVSPost2010Prop32
280
     0
102
RTVSPost2010PropOp32
 70
     1
102
RTVSPost2010Prop33
280
     0
102
RTVSPost2010PropOp33
 70
     1
102
RTVSPost2010Prop34
280
     0
102
RTVSPost2010PropOp34
 70
     1
102
RTVSPost2010Prop35
280
     0
102
RTVSPost2010PropOp35
 70
     1
102
RTVSPost2010Prop36
280
     0
102
RTVSPost2010PropOp36
 70
     1
102
RTVSPost2010Prop37
 90
       50
102
RTVSPost2010PropOp37
 70
     1
102
RTVSPost2010Prop38
140
0.0
102
RTVSPost2010PropOp38
 70
     1
102
RTVSPost2010Prop39
140
1.0
102
RTVSPost2010PropOp39
 70
     1
102
RTVSPost2010Prop40
 90
        0
102
RTVSPost2010PropOp40
 70
     1
102
RTVSPost2010Prop41ColorIndex
 90
       18
102
RTVSPost2010Prop41ColorRGB
 90
-16777216
102
RTVSPost2010PropOp41
 70
     1
102
RTVSPost2010Prop42
 90
       50
102
RTVSPost2010PropOp42
 70
     1
102
RTVSPost2010Prop43
 90
        3
102
RTVSPost2010PropOp43
 70
     1
102
RTVSPost2010Prop44ColorIndex
 90
        5
102
RTVSPost2010Prop44ColorRGB
 90
      255
102
RTVSPost2010PropOp44
 70
     1
102
RTVSPost2010Prop45
280
     0
102
RTVSPost2010PropOp45
 70
     1
102
RTVSPost2010Prop46
 90
       50
102
RTVSPost2010PropOp46
 70
     1
102
RTVSPost2010Prop47
 90
       50
102
RTVSPost2010PropOp47
 70
     1
102
RTVSPost2010Prop48
 90
       50
102
RTVSPost2010PropOp48
 70
     1
102
RTVSPost2010Prop49
280
     0
102
RTVSPost2010PropOp49
 70
     1
102
RTVSPost2010Prop50
 90
       50
102
RTVSPost2010PropOp50
 70
     1
102
RTVSPost2010Prop51ColorIndex
 90
      256
102
RTVSPost2010Prop51ColorRGB
 90
-16777216
102
RTVSPost2010PropOp51
 70
     0
102
RTVSPost2010Prop52
140
1.0
102
RTVSPost2010PropOp52
 70
     0
102
RTVSPost2010Prop53
 90
        2
102
RTVSPost2010PropOp53
 70
     1
102
RTVSPost2010Prop54
  1
strokes_ogs.tif
102
RTVSPost2010PropOp54
 70
     1
102
RTVSPost2010Prop55
280
     0
102
RTVSPost2010PropOp55
 70
     1
102
RTVSPost2010Prop56
140
1.0
102
RTVSPost2010PropOp56
 70
     1
102
RTVSPost2010Prop57
140
1.0
102
RTVSPost2010PropOp57
 70
     1
102
RTVSPropertyOp0
 70
     1
102
RTVSPropertyOp1
 70
     1
102
RTVSPropertyOp2
 70
     1
102
RTVSPropertyOp3
 70
     1
102
RTVSPropertyOp4
 70
     1
102
RTVSPropertyOp5
 70
     1
102
RTVSPropertyOp6
 70
     1
102
RTVSPropertyOp7
 70
     1
102
RTVSPropertyOp8
 70
     1
102
RTVSPropertyOp9
 70
     1
102
RTVSPropertyOp10
 70
     1
102
RTVSPropertyOp11
 70
     1
102
RTVSPropertyOp12
 70
     1
102
RTVSPropertyOp13
 70
     1
102
RTVSPropertyOp14
 70
     1
102
RTVSPropertyOp15
 70
     1
102
RTVSPropertyOp16
 70
     1
102
RTVSPropertyOp17
 70
     1
102
RTVSPropertyOp18
 70
     1
102
RTVSPropertyOp19
 70
     1
102
RTVSPropertyOp20
 70
     1
102
RTVSPropertyOp21
 70
     1
102
RTVSPropertyOp22
 70
     1
102
RTVSPropertyOp23
 70
     1
102
RTVSPropertyOp24
 70
     1
102
RTVSPropertyOp25
 70
     1
102
RTVSPropertyOp26
 70
     1
102
RTVSPropertyOp27
 70
     1
102
RTVSPropertyOp28
 70
     1
102
RTVSPropertyOp29
 70
     1
102
RTVSPropertyOp30
 70
     1
102
RTVSPropertyOp31
 70
     1
102
RTVSPropertyOp32
 70
     1
102
RTVSPropertyOp33
 70
     1
102
RTVSPropertyOp34
 70
     1
102
RTVSPropertyOp35
 70
     1
102
RTVSPropertyOp36
 70
     1
102
RTVSPropertyOp37
 70
     1
102
RTVSPropertyOp38
 70
     1
102
RTVSPropertyOp39
 70
     1
102
RTVSPropertyOp40
 70
     1
102
RTVSPropertyOp41
 70
     1
102
RTVSPropertyOp42
 70
     1
102
RTVSPropertyOp43
 70
     1
102
RTVSPropertyOp44
 70
     1
102
RTVSPropertyOp45
 70
     1
102
RTVSPropertyOp46
 70
     1
102
RTVSPropertyOp47
 70
     1
102
RTVSPropertyOp48
 70
     1
102
RTVSPropertyOp49
 70
     1
102
RTVSPropertyOp50
 70
     1
102
RTVSPropertyOp51
 70
     0
102
RTVSPropertyOp52
 70
     0
102
RTVSPropertyOp53
 70
     1
102
RTVSPropertyOp54
 70
     1
102
RTVSPropertyOp55
 70
     1
102
RTVSPropertyOp56
 70
     1
102
RTVSPropertyOp57
 70
     1
102
RTVSPropertyOp58
 70
     1
102
RTVSPropertyOp59
 70
     1
102
RTVSPropertyOp60
 70
     1
102
RTVSPropertyOp61
 70
     1
102
RTVSPropertyOp62
 70
     1
  0
XRECORD
  5
D51
102
{ACAD_REACTORS
330
D50
102
}
330
D50
100
AcDbXrecord
280
     1
102
RTVSPost2010Prop28
280
     0
102
RTVSPost2010PropOp28
 70
     0
102
RTVSPost2010Prop29
280
     1
102
RTVSPost2010PropOp29
 70
     0
102
RTVSPost2010Prop30
280
     1
102
RTVSPost2010PropOp30
 70
     0
102
RTVSPost2010Prop31
280
     0
102
RTVSPost2010PropOp31
 70
     0
102
RTVSPost2010Prop32
280
     0
102
RTVSPost2010PropOp32
 70
     0
102
RTVSPost2010Prop33
280
     0
102
RTVSPost2010PropOp33
 70
     0
102
RTVSPost2010Prop34
280
     0
102
RTVSPost2010PropOp34
 70
     0
102
RTVSPost2010Prop35
280
     0
102
RTVSPost2010PropOp35
 70
     0
102
RTVSPost2010Prop36
280
     0
102
RTVSPost2010PropOp36
 70
     0
102
RTVSPost2010Prop37
 90
       50
102
RTVSPost2010PropOp37
 70
     0
102
RTVSPost2010Prop38
140
0.0
102
RTVSPost2010PropOp38
 70
     0
102
RTVSPost2010Prop39
140
1.0
102
RTVSPost2010PropOp39
 70
     0
102
RTVSPost2010Prop40
 90
        0
102
RTVSPost2010PropOp40
 70
     0
102
RTVSPost2010Prop41ColorIndex
 90
       18
102
RTVSPost2010Prop41ColorRGB
 90
-16777216
102
RTVSPost2010PropOp41
 70
     0
102
RTVSPost2010Prop42
 90
       50
102
RTVSPost2010PropOp42
 70
     0
102
RTVSPost2010Prop43
 90
        3
102
RTVSPost2010PropOp43
 70
     0
102
RTVSPost2010Prop44ColorIndex
 90
        5
102
RTVSPost2010Prop44ColorRGB
 90
      255
102
RTVSPost2010PropOp44
 70
     0
102
RTVSPost2010Prop45
280
     0
102
RTVSPost2010PropOp45
 70
     0
102
RTVSPost2010Prop46
 90
       50
102
RTVSPost2010PropOp46
 70
     0
102
RTVSPost2010Prop47
 90
       50
102
RTVSPost2010PropOp47
 70
     0
102
RTVSPost2010Prop48
 90
       50
102
RTVSPost2010PropOp48
 70
     0
102
RTVSPost2010Prop49
280
     0
102
RTVSPost2010PropOp49
 70
     0
102
RTVSPost2010Prop50
 90
       50
102
RTVSPost2010PropOp50
 70
     0
102
RTVSPost2010Prop51ColorIndex
 90
      256
102
RTVSPost2010Prop51ColorRGB
 90
-16777216
102
RTVSPost2010PropOp51
 70
     0
102
RTVSPost2010Prop52
140
1.0
102
RTVSPost2010PropOp52
 70
     0
102
RTVSPost2010Prop53
 90
        2
102
RTVSPost2010PropOp53
 70
     0
102
RTVSPost2010Prop54
  1
strokes_ogs.tif
102
RTVSPost2010PropOp54
 70
     0
102
RTVSPost2010Prop55
280
     0
102
RTVSPost2010PropOp55
 70
     0
102
RTVSPost2010Prop56
140
1.0
102
RTVSPost2010PropOp56
 70
     0
102
RTVSPost2010Prop57
140
1.0
102
RTVSPost2010PropOp57
 70
     0
102
RTVSPropertyOp0
 70
     0
102
RTVSPropertyOp1
 70
     0
102
RTVSPropertyOp2
 70
     0
102
RTVSPropertyOp3
 70
     0
102
RTVSPropertyOp4
 70
     0
102
RTVSPropertyOp5
 70
     0
102
RTVSPropertyOp6
 70
     0
102
RTVSPropertyOp7
 70
     0
102
RTVSPropertyOp8
 70
     0
102
RTVSPropertyOp9
 70
     0
102
RTVSPropertyOp10
 70
     0
102
RTVSPropertyOp11
 70
     0
102
RTVSPropertyOp12
 70
     0
102
RTVSPropertyOp13
 70
     0
102
RTVSPropertyOp14
 70
     2
102
RTVSPropertyOp15
 70
     0
102
RTVSPropertyOp16
 70
     0
102
RTVSPropertyOp17
 70
     0
102
RTVSPropertyOp18
 70
     0
102
RTVSPropertyOp19
 70
     0
102
RTVSPropertyOp20
 70
     0
102
RTVSPropertyOp21
 70
     0
102
RTVSPropertyOp22
 70
     0
102
RTVSPropertyOp23
 70
     0
102
RTVSPropertyOp24
 70
     0
102
RTVSPropertyOp25
 70
     0
102
RTVSPropertyOp26
 70
     0
102
RTVSPropertyOp27
 70
     0
102
RTVSPropertyOp28
 70
     0
102
RTVSPropertyOp29
 70
     0
102
RTVSPropertyOp30
 70
     0
102
RTVSPropertyOp31
 70
     0
102
RTVSPropertyOp32
 70
     0
102
RTVSPropertyOp33
 70
     0
102
RTVSPropertyOp34
 70
     0
102
RTVSPropertyOp35
 70
     0
102
RTVSPropertyOp36
 70
     0
102
RTVSPropertyOp37
 70
     0
102
RTVSPropertyOp38
 70
     0
102
RTVSPropertyOp39
 70
     0
102
RTVSPropertyOp40
 70
     0
102
RTVSPropertyOp41
 70
     0
102
RTVSPropertyOp42
 70
     0
102
RTVSPropertyOp43
 70
     0
102
RTVSPropertyOp44
 70
     0
102
RTVSPropertyOp45
 70
     0
102
RTVSPropertyOp46
 70
     0
102
RTVSPropertyOp47
 70
     0
102
RTVSPropertyOp48
 70
     0
102
RTVSPropertyOp49
 70
     0
102
RTVSPropertyOp50
 70
     0
102
RTVSPropertyOp51
 70
     0
102
RTVSPropertyOp52
 70
     0
102
RTVSPropertyOp53
 70
     0
102
RTVSPropertyOp54
 70
     0
102
RTVSPropertyOp55
 70
     0
102
RTVSPropertyOp56
 70
     0
102
RTVSPropertyOp57
 70
     0
102
RTVSPropertyOp58
 70
     1
102
RTVSPropertyOp59
 70
     1
102
RTVSPropertyOp60
 70
     1
102
RTVSPropertyOp61
 70
     1
102
RTVSPropertyOp62
 70
     1
  0
XRECORD
  5
D3F
102
{ACAD_REACTORS
330
D3E
102
}
330
D3E
100
AcDbXrecord
280
     1
102
RTVSPost2010Prop28
280
     0
102
RTVSPost2010PropOp28
 70
     1
102
RTVSPost2010Prop29
280
     1
102
RTVSPost2010PropOp29
 70
     1
102
RTVSPost2010Prop30
280
     1
102
RTVSPost2010PropOp30
 70
     1
102
RTVSPost2010Prop31
280
     0
102
RTVSPost2010PropOp31
 70
     1
102
RTVSPost2010Prop32
280
     0
102
RTVSPost2010PropOp32
 70
     1
102
RTVSPost2010Prop33
280
     0
102
RTVSPost2010PropOp33
 70
     1
102
RTVSPost2010Prop34
280
     0
102
RTVSPost2010PropOp34
 70
     1
102
RTVSPost2010Prop35
280
     0
102
RTVSPost2010PropOp35
 70
     1
102
RTVSPost2010Prop36
280
     0
102
RTVSPost2010PropOp36
 70
     1
102
RTVSPost2010Prop37
 90
       50
102
RTVSPost2010PropOp37
 70
     1
102
RTVSPost2010Prop38
140
0.0
102
RTVSPost2010PropOp38
 70
     1
102
RTVSPost2010Prop39
140
1.0
102
RTVSPost2010PropOp39
 70
     1
102
RTVSPost2010Prop40
 90
        0
102
RTVSPost2010PropOp40
 70
     1
102
RTVSPost2010Prop41ColorIndex
 90
       18
102
RTVSPost2010Prop41ColorRGB
 90
-16777216
102
RTVSPost2010PropOp41
 70
     1
102
RTVSPost2010Prop42
 90
       50
102
RTVSPost2010PropOp42
 70
     1
102
RTVSPost2010Prop43
 90
        3
102
RTVSPost2010PropOp43
 70
     1
102
RTVSPost2010Prop44ColorIndex
 90
        5
102
RTVSPost2010Prop44ColorRGB
 90
      255
102
RTVSPost2010PropOp44
 70
     1
102
RTVSPost2010Prop45
280
     0
102
RTVSPost2010PropOp45
 70
     1
102
RTVSPost2010Prop46
 90
       50
102
RTVSPost2010PropOp46
 70
     1
102
RTVSPost2010Prop47
 90
       50
102
RTVSPost2010PropOp47
 70
     1
102
RTVSPost2010Prop48
 90
       50
102
RTVSPost2010PropOp48
 70
     1
102
RTVSPost2010Prop49
280
     0
102
RTVSPost2010PropOp49
 70
     1
102
RTVSPost2010Prop50
 90
       50
102
RTVSPost2010PropOp50
 70
     1
102
RTVSPost2010Prop51ColorIndex
 90
      256
102
RTVSPost2010Prop51ColorRGB
 90
-16777216
102
RTVSPost2010PropOp51
 70
     0
102
RTVSPost2010Prop52
140
1.0
102
RTVSPost2010PropOp52
 70
     0
102
RTVSPost2010Prop53
 90
        2
102
RTVSPost2010PropOp53
 70
     1
102
RTVSPost2010Prop54
  1
strokes_ogs.tif
102
RTVSPost2010PropOp54
 70
     1
102
RTVSPost2010Prop55
280
     0
102
RTVSPost2010PropOp55
 70
     1
102
RTVSPost2010Prop56
140
1.0
102
RTVSPost2010PropOp56
 70
     1
102
RTVSPost2010Prop57
140
1.0
102
RTVSPost2010PropOp57
 70
     1
102
RTVSPropertyOp0
 70
     1
102
RTVSPropertyOp1
 70
     1
102
RTVSPropertyOp2
 70
     1
102
RTVSPropertyOp3
 70
     1
102
RTVSPropertyOp4
 70
     1
102
RTVSPropertyOp5
 70
     1
102
RTVSPropertyOp6
 70
     1
102
RTVSPropertyOp7
 70
     1
102
RTVSPropertyOp8
 70
     1
102
RTVSPropertyOp9
 70
     1
102
RTVSPropertyOp10
 70
     1
102
RTVSPropertyOp11
 70
     1
102
RTVSPropertyOp12
 70
     1
102
RTVSPropertyOp13
 70
     1
102
RTVSPropertyOp14
 70
     1
102
RTVSPropertyOp15
 70
     1
102
RTVSPropertyOp16
 70
     1
102
RTVSPropertyOp17
 70
     1
102
RTVSPropertyOp18
 70
     1
102
RTVSPropertyOp19
 70
     1
102
RTVSPropertyOp20
 70
     1
102
RTVSPropertyOp21
 70
     1
102
RTVSPropertyOp22
 70
     1
102
RTVSPropertyOp23
 70
     1
102
RTVSPropertyOp24
 70
     1
102
RTVSPropertyOp25
 70
     1
102
RTVSPropertyOp26
 70
     1
102
RTVSPropertyOp27
 70
     1
102
RTVSPropertyOp28
 70
     1
102
RTVSPropertyOp29
 70
     1
102
RTVSPropertyOp30
 70
     1
102
RTVSPropertyOp31
 70
     1
102
RTVSPropertyOp32
 70
     1
102
RTVSPropertyOp33
 70
     1
102
RTVSPropertyOp34
 70
     1
102
RTVSPropertyOp35
 70
     1
102
RTVSPropertyOp36
 70
     1
102
RTVSPropertyOp37
 70
     1
102
RTVSPropertyOp38
 70
     1
102
RTVSPropertyOp39
 70
     1
102
RTVSPropertyOp40
 70
     1
102
RTVSPropertyOp41
 70
     1
102
RTVSPropertyOp42
 70
     1
102
RTVSPropertyOp43
 70
     1
102
RTVSPropertyOp44
 70
     1
102
RTVSPropertyOp45
 70
     1
102
RTVSPropertyOp46
 70
     1
102
RTVSPropertyOp47
 70
     1
102
RTVSPropertyOp48
 70
     1
102
RTVSPropertyOp49
 70
     1
102
RTVSPropertyOp50
 70
     1
102
RTVSPropertyOp51
 70
     0
102
RTVSPropertyOp52
 70
     0
102
RTVSPropertyOp53
 70
     1
102
RTVSPropertyOp54
 70
     1
102
RTVSPropertyOp55
 70
     1
102
RTVSPropertyOp56
 70
     1
102
RTVSPropertyOp57
 70
     1
102
RTVSPropertyOp58
 70
     1
102
RTVSPropertyOp59
 70
     1
102
RTVSPropertyOp60
 70
     1
102
RTVSPropertyOp61
 70
     1
102
RTVSPropertyOp62
 70
     1
  0
XRECORD
  5
D23
102
{ACAD_REACTORS
330
D22
102
}
330
D22
100
AcDbXrecord
280
     1
102
RTVSPost2010Prop28
280
     0
102
RTVSPost2010PropOp28
 70
     1
102
RTVSPost2010Prop29
280
     1
102
RTVSPost2010PropOp29
 70
     1
102
RTVSPost2010Prop30
280
     1
102
RTVSPost2010PropOp30
 70
     1
102
RTVSPost2010Prop31
280
     0
102
RTVSPost2010PropOp31
 70
     1
102
RTVSPost2010Prop32
280
     0
102
RTVSPost2010PropOp32
 70
     1
102
RTVSPost2010Prop33
280
     0
102
RTVSPost2010PropOp33
 70
     1
102
RTVSPost2010Prop34
280
     0
102
RTVSPost2010PropOp34
 70
     1
102
RTVSPost2010Prop35
280
     0
102
RTVSPost2010PropOp35
 70
     1
102
RTVSPost2010Prop36
280
     0
102
RTVSPost2010PropOp36
 70
     1
102
RTVSPost2010Prop37
 90
       50
102
RTVSPost2010PropOp37
 70
     1
102
RTVSPost2010Prop38
140
0.0
102
RTVSPost2010PropOp38
 70
     1
102
RTVSPost2010Prop39
140
1.0
102
RTVSPost2010PropOp39
 70
     1
102
RTVSPost2010Prop40
 90
        0
102
RTVSPost2010PropOp40
 70
     1
102
RTVSPost2010Prop41ColorIndex
 90
       18
102
RTVSPost2010Prop41ColorRGB
 90
-16777216
102
RTVSPost2010PropOp41
 70
     1
102
RTVSPost2010Prop42
 90
       50
102
RTVSPost2010PropOp42
 70
     1
102
RTVSPost2010Prop43
 90
        3
102
RTVSPost2010PropOp43
 70
     1
102
RTVSPost2010Prop44ColorIndex
 90
        5
102
RTVSPost2010Prop44ColorRGB
 90
      255
102
RTVSPost2010PropOp44
 70
     1
102
RTVSPost2010Prop45
280
     0
102
RTVSPost2010PropOp45
 70
     1
102
RTVSPost2010Prop46
 90
       50
102
RTVSPost2010PropOp46
 70
     1
102
RTVSPost2010Prop47
 90
       50
102
RTVSPost2010PropOp47
 70
     1
102
RTVSPost2010Prop48
 90
       50
102
RTVSPost2010PropOp48
 70
     1
102
RTVSPost2010Prop49
280
     0
102
RTVSPost2010PropOp49
 70
     1
102
RTVSPost2010Prop50
 90
       50
102
RTVSPost2010PropOp50
 70
     1
102
RTVSPost2010Prop51ColorIndex
 90
      256
102
RTVSPost2010Prop51ColorRGB
 90
-16777216
102
RTVSPost2010PropOp51
 70
     0
102
RTVSPost2010Prop52
140
1.0
102
RTVSPost2010PropOp52
 70
     0
102
RTVSPost2010Prop53
 90
        2
102
RTVSPost2010PropOp53
 70
     1
102
RTVSPost2010Prop54
  1
strokes_ogs.tif
102
RTVSPost2010PropOp54
 70
     1
102
RTVSPost2010Prop55
280
     0
102
RTVSPost2010PropOp55
 70
     1
102
RTVSPost2010Prop56
140
1.0
102
RTVSPost2010PropOp56
 70
     1
102
RTVSPost2010Prop57
140
1.0
102
RTVSPost2010PropOp57
 70
     1
102
RTVSPropertyOp0
 70
     1
102
RTVSPropertyOp1
 70
     1
102
RTVSPropertyOp2
 70
     1
102
RTVSPropertyOp3
 70
     1
102
RTVSPropertyOp4
 70
     1
102
RTVSPropertyOp5
 70
     1
102
RTVSPropertyOp6
 70
     1
102
RTVSPropertyOp7
 70
     1
102
RTVSPropertyOp8
 70
     1
102
RTVSPropertyOp9
 70
     1
102
RTVSPropertyOp10
 70
     1
102
RTVSPropertyOp11
 70
     1
102
RTVSPropertyOp12
 70
     1
102
RTVSPropertyOp13
 70
     1
102
RTVSPropertyOp14
 70
     1
102
RTVSPropertyOp15
 70
     1
102
RTVSPropertyOp16
 70
     1
102
RTVSPropertyOp17
 70
     1
102
RTVSPropertyOp18
 70
     1
102
RTVSPropertyOp19
 70
     1
102
RTVSPropertyOp20
 70
     1
102
RTVSPropertyOp21
 70
     1
102
RTVSPropertyOp22
 70
     1
102
RTVSPropertyOp23
 70
     1
102
RTVSPropertyOp24
 70
     1
102
RTVSPropertyOp25
 70
     1
102
RTVSPropertyOp26
 70
     1
102
RTVSPropertyOp27
 70
     1
102
RTVSPropertyOp28
 70
     1
102
RTVSPropertyOp29
 70
     1
102
RTVSPropertyOp30
 70
     1
102
RTVSPropertyOp31
 70
     1
102
RTVSPropertyOp32
 70
     1
102
RTVSPropertyOp33
 70
     1
102
RTVSPropertyOp34
 70
     1
102
RTVSPropertyOp35
 70
     1
102
RTVSPropertyOp36
 70
     1
102
RTVSPropertyOp37
 70
     1
102
RTVSPropertyOp38
 70
     1
102
RTVSPropertyOp39
 70
     1
102
RTVSPropertyOp40
 70
     1
102
RTVSPropertyOp41
 70
     1
102
RTVSPropertyOp42
 70
     1
102
RTVSPropertyOp43
 70
     1
102
RTVSPropertyOp44
 70
     1
102
RTVSPropertyOp45
 70
     1
102
RTVSPropertyOp46
 70
     1
102
RTVSPropertyOp47
 70
     1
102
RTVSPropertyOp48
 70
     1
102
RTVSPropertyOp49
 70
     1
102
RTVSPropertyOp50
 70
     1
102
RTVSPropertyOp51
 70
     0
102
RTVSPropertyOp52
 70
     0
102
RTVSPropertyOp53
 70
     1
102
RTVSPropertyOp54
 70
     1
102
RTVSPropertyOp55
 70
     1
102
RTVSPropertyOp56
 70
     1
102
RTVSPropertyOp57
 70
     1
102
RTVSPropertyOp58
 70
     1
102
RTVSPropertyOp59
 70
     1
102
RTVSPropertyOp60
 70
     1
102
RTVSPropertyOp61
 70
     1
102
RTVSPropertyOp62
 70
     1
  0
XRECORD
  5
D25
102
{ACAD_REACTORS
330
D24
102
}
330
D24
100
AcDbXrecord
280
     1
102
RTVSPost2010Prop28
280
     0
102
RTVSPost2010PropOp28
 70
     1
102
RTVSPost2010Prop29
280
     1
102
RTVSPost2010PropOp29
 70
     1
102
RTVSPost2010Prop30
280
     1
102
RTVSPost2010PropOp30
 70
     1
102
RTVSPost2010Prop31
280
     0
102
RTVSPost2010PropOp31
 70
     1
102
RTVSPost2010Prop32
280
     0
102
RTVSPost2010PropOp32
 70
     1
102
RTVSPost2010Prop33
280
     0
102
RTVSPost2010PropOp33
 70
     1
102
RTVSPost2010Prop34
280
     0
102
RTVSPost2010PropOp34
 70
     1
102
RTVSPost2010Prop35
280
     0
102
RTVSPost2010PropOp35
 70
     1
102
RTVSPost2010Prop36
280
     0
102
RTVSPost2010PropOp36
 70
     1
102
RTVSPost2010Prop37
 90
       50
102
RTVSPost2010PropOp37
 70
     1
102
RTVSPost2010Prop38
140
0.0
102
RTVSPost2010PropOp38
 70
     1
102
RTVSPost2010Prop39
140
1.0
102
RTVSPost2010PropOp39
 70
     1
102
RTVSPost2010Prop40
 90
        0
102
RTVSPost2010PropOp40
 70
     1
102
RTVSPost2010Prop41ColorIndex
 90
       18
102
RTVSPost2010Prop41ColorRGB
 90
-16777216
102
RTVSPost2010PropOp41
 70
     1
102
RTVSPost2010Prop42
 90
       50
102
RTVSPost2010PropOp42
 70
     1
102
RTVSPost2010Prop43
 90
        3
102
RTVSPost2010PropOp43
 70
     1
102
RTVSPost2010Prop44ColorIndex
 90
        5
102
RTVSPost2010Prop44ColorRGB
 90
      255
102
RTVSPost2010PropOp44
 70
     1
102
RTVSPost2010Prop45
280
     0
102
RTVSPost2010PropOp45
 70
     1
102
RTVSPost2010Prop46
 90
       50
102
RTVSPost2010PropOp46
 70
     1
102
RTVSPost2010Prop47
 90
       50
102
RTVSPost2010PropOp47
 70
     1
102
RTVSPost2010Prop48
 90
       50
102
RTVSPost2010PropOp48
 70
     1
102
RTVSPost2010Prop49
280
     0
102
RTVSPost2010PropOp49
 70
     1
102
RTVSPost2010Prop50
 90
       50
102
RTVSPost2010PropOp50
 70
     1
102
RTVSPost2010Prop51ColorIndex
 90
      256
102
RTVSPost2010Prop51ColorRGB
 90
-16777216
102
RTVSPost2010PropOp51
 70
     0
102
RTVSPost2010Prop52
140
1.0
102
RTVSPost2010PropOp52
 70
     0
102
RTVSPost2010Prop53
 90
        2
102
RTVSPost2010PropOp53
 70
     1
102
RTVSPost2010Prop54
  1
strokes_ogs.tif
102
RTVSPost2010PropOp54
 70
     1
102
RTVSPost2010Prop55
280
     0
102
RTVSPost2010PropOp55
 70
     1
102
RTVSPost2010Prop56
140
1.0
102
RTVSPost2010PropOp56
 70
     1
102
RTVSPost2010Prop57
140
1.0
102
RTVSPost2010PropOp57
 70
     1
102
RTVSPropertyOp0
 70
     1
102
RTVSPropertyOp1
 70
     1
102
RTVSPropertyOp2
 70
     1
102
RTVSPropertyOp3
 70
     1
102
RTVSPropertyOp4
 70
     1
102
RTVSPropertyOp5
 70
     1
102
RTVSPropertyOp6
 70
     1
102
RTVSPropertyOp7
 70
     1
102
RTVSPropertyOp8
 70
     1
102
RTVSPropertyOp9
 70
     1
102
RTVSPropertyOp10
 70
     1
102
RTVSPropertyOp11
 70
     1
102
RTVSPropertyOp12
 70
     1
102
RTVSPropertyOp13
 70
     1
102
RTVSPropertyOp14
 70
     1
102
RTVSPropertyOp15
 70
     1
102
RTVSPropertyOp16
 70
     1
102
RTVSPropertyOp17
 70
     1
102
RTVSPropertyOp18
 70
     1
102
RTVSPropertyOp19
 70
     1
102
RTVSPropertyOp20
 70
     1
102
RTVSPropertyOp21
 70
     1
102
RTVSPropertyOp22
 70
     1
102
RTVSPropertyOp23
 70
     1
102
RTVSPropertyOp24
 70
     1
102
RTVSPropertyOp25
 70
     1
102
RTVSPropertyOp26
 70
     1
102
RTVSPropertyOp27
 70
     1
102
RTVSPropertyOp28
 70
     1
102
RTVSPropertyOp29
 70
     1
102
RTVSPropertyOp30
 70
     1
102
RTVSPropertyOp31
 70
     1
102
RTVSPropertyOp32
 70
     1
102
RTVSPropertyOp33
 70
     1
102
RTVSPropertyOp34
 70
     1
102
RTVSPropertyOp35
 70
     1
102
RTVSPropertyOp36
 70
     1
102
RTVSPropertyOp37
 70
     1
102
RTVSPropertyOp38
 70
     1
102
RTVSPropertyOp39
 70
     1
102
RTVSPropertyOp40
 70
     1
102
RTVSPropertyOp41
 70
     1
102
RTVSPropertyOp42
 70
     1
102
RTVSPropertyOp43
 70
     1
102
RTVSPropertyOp44
 70
     1
102
RTVSPropertyOp45
 70
     1
102
RTVSPropertyOp46
 70
     1
102
RTVSPropertyOp47
 70
     1
102
RTVSPropertyOp48
 70
     1
102
RTVSPropertyOp49
 70
     1
102
RTVSPropertyOp50
 70
     1
102
RTVSPropertyOp51
 70
     0
102
RTVSPropertyOp52
 70
     0
102
RTVSPropertyOp53
 70
     1
102
RTVSPropertyOp54
 70
     1
102
RTVSPropertyOp55
 70
     1
102
RTVSPropertyOp56
 70
     1
102
RTVSPropertyOp57
 70
     1
102
RTVSPropertyOp58
 70
     1
102
RTVSPropertyOp59
 70
     1
102
RTVSPropertyOp60
 70
     1
102
RTVSPropertyOp61
 70
     1
102
RTVSPropertyOp62
 70
     1
  0
XRECORD
  5
D27
102
{ACAD_REACTORS
330
D26
102
}
330
D26
100
AcDbXrecord
280
     1
102
RTVSPost2010Prop28
280
     0
102
RTVSPost2010PropOp28
 70
     1
102
RTVSPost2010Prop29
280
     1
102
RTVSPost2010PropOp29
 70
     1
102
RTVSPost2010Prop30
280
     1
102
RTVSPost2010PropOp30
 70
     1
102
RTVSPost2010Prop31
280
     0
102
RTVSPost2010PropOp31
 70
     1
102
RTVSPost2010Prop32
280
     0
102
RTVSPost2010PropOp32
 70
     1
102
RTVSPost2010Prop33
280
     0
102
RTVSPost2010PropOp33
 70
     1
102
RTVSPost2010Prop34
280
     0
102
RTVSPost2010PropOp34
 70
     1
102
RTVSPost2010Prop35
280
     0
102
RTVSPost2010PropOp35
 70
     1
102
RTVSPost2010Prop36
280
     0
102
RTVSPost2010PropOp36
 70
     1
102
RTVSPost2010Prop37
 90
       50
102
RTVSPost2010PropOp37
 70
     1
102
RTVSPost2010Prop38
140
0.0
102
RTVSPost2010PropOp38
 70
     1
102
RTVSPost2010Prop39
140
1.0
102
RTVSPost2010PropOp39
 70
     1
102
RTVSPost2010Prop40
 90
        0
102
RTVSPost2010PropOp40
 70
     1
102
RTVSPost2010Prop41ColorIndex
 90
       18
102
RTVSPost2010Prop41ColorRGB
 90
-16777216
102
RTVSPost2010PropOp41
 70
     1
102
RTVSPost2010Prop42
 90
       50
102
RTVSPost2010PropOp42
 70
     1
102
RTVSPost2010Prop43
 90
        3
102
RTVSPost2010PropOp43
 70
     1
102
RTVSPost2010Prop44ColorIndex
 90
        5
102
RTVSPost2010Prop44ColorRGB
 90
      255
102
RTVSPost2010PropOp44
 70
     1
102
RTVSPost2010Prop45
280
     0
102
RTVSPost2010PropOp45
 70
     1
102
RTVSPost2010Prop46
 90
       50
102
RTVSPost2010PropOp46
 70
     1
102
RTVSPost2010Prop47
 90
       50
102
RTVSPost2010PropOp47
 70
     1
102
RTVSPost2010Prop48
 90
       50
102
RTVSPost2010PropOp48
 70
     1
102
RTVSPost2010Prop49
280
     0
102
RTVSPost2010PropOp49
 70
     1
102
RTVSPost2010Prop50
 90
       50
102
RTVSPost2010PropOp50
 70
     1
102
RTVSPost2010Prop51ColorIndex
 90
      256
102
RTVSPost2010Prop51ColorRGB
 90
-16777216
102
RTVSPost2010PropOp51
 70
     0
102
RTVSPost2010Prop52
140
1.0
102
RTVSPost2010PropOp52
 70
     0
102
RTVSPost2010Prop53
 90
        2
102
RTVSPost2010PropOp53
 70
     1
102
RTVSPost2010Prop54
  1
strokes_ogs.tif
102
RTVSPost2010PropOp54
 70
     1
102
RTVSPost2010Prop55
280
     0
102
RTVSPost2010PropOp55
 70
     1
102
RTVSPost2010Prop56
140
1.0
102
RTVSPost2010PropOp56
 70
     1
102
RTVSPost2010Prop57
140
1.0
102
RTVSPost2010PropOp57
 70
     1
102
RTVSPropertyOp0
 70
     1
102
RTVSPropertyOp1
 70
     1
102
RTVSPropertyOp2
 70
     1
102
RTVSPropertyOp3
 70
     1
102
RTVSPropertyOp4
 70
     1
102
RTVSPropertyOp5
 70
     1
102
RTVSPropertyOp6
 70
     1
102
RTVSPropertyOp7
 70
     1
102
RTVSPropertyOp8
 70
     1
102
RTVSPropertyOp9
 70
     1
102
RTVSPropertyOp10
 70
     1
102
RTVSPropertyOp11
 70
     1
102
RTVSPropertyOp12
 70
     1
102
RTVSPropertyOp13
 70
     1
102
RTVSPropertyOp14
 70
     1
102
RTVSPropertyOp15
 70
     1
102
RTVSPropertyOp16
 70
     1
102
RTVSPropertyOp17
 70
     1
102
RTVSPropertyOp18
 70
     1
102
RTVSPropertyOp19
 70
     1
102
RTVSPropertyOp20
 70
     1
102
RTVSPropertyOp21
 70
     1
102
RTVSPropertyOp22
 70
     1
102
RTVSPropertyOp23
 70
     1
102
RTVSPropertyOp24
 70
     1
102
RTVSPropertyOp25
 70
     1
102
RTVSPropertyOp26
 70
     1
102
RTVSPropertyOp27
 70
     1
102
RTVSPropertyOp28
 70
     1
102
RTVSPropertyOp29
 70
     1
102
RTVSPropertyOp30
 70
     1
102
RTVSPropertyOp31
 70
     1
102
RTVSPropertyOp32
 70
     1
102
RTVSPropertyOp33
 70
     1
102
RTVSPropertyOp34
 70
     1
102
RTVSPropertyOp35
 70
     1
102
RTVSPropertyOp36
 70
     1
102
RTVSPropertyOp37
 70
     1
102
RTVSPropertyOp38
 70
     1
102
RTVSPropertyOp39
 70
     1
102
RTVSPropertyOp40
 70
     1
102
RTVSPropertyOp41
 70
     1
102
RTVSPropertyOp42
 70
     1
102
RTVSPropertyOp43
 70
     1
102
RTVSPropertyOp44
 70
     1
102
RTVSPropertyOp45
 70
     1
102
RTVSPropertyOp46
 70
     1
102
RTVSPropertyOp47
 70
     1
102
RTVSPropertyOp48
 70
     1
102
RTVSPropertyOp49
 70
     1
102
RTVSPropertyOp50
 70
     1
102
RTVSPropertyOp51
 70
     0
102
RTVSPropertyOp52
 70
     0
102
RTVSPropertyOp53
 70
     1
102
RTVSPropertyOp54
 70
     1
102
RTVSPropertyOp55
 70
     1
102
RTVSPropertyOp56
 70
     1
102
RTVSPropertyOp57
 70
     1
102
RTVSPropertyOp58
 70
     1
102
RTVSPropertyOp59
 70
     1
102
RTVSPropertyOp60
 70
     1
102
RTVSPropertyOp61
 70
     1
102
RTVSPropertyOp62
 70
     1
  0
XRECORD
  5
D29
102
{ACAD_REACTORS
330
D28
102
}
330
D28
100
AcDbXrecord
280
     1
102
RTVSPost2010Prop28
280
     0
102
RTVSPost2010PropOp28
 70
     1
102
RTVSPost2010Prop29
280
     1
102
RTVSPost2010PropOp29
 70
     1
102
RTVSPost2010Prop30
280
     1
102
RTVSPost2010PropOp30
 70
     1
102
RTVSPost2010Prop31
280
     0
102
RTVSPost2010PropOp31
 70
     1
102
RTVSPost2010Prop32
280
     0
102
RTVSPost2010PropOp32
 70
     1
102
RTVSPost2010Prop33
280
     0
102
RTVSPost2010PropOp33
 70
     1
102
RTVSPost2010Prop34
280
     0
102
RTVSPost2010PropOp34
 70
     1
102
RTVSPost2010Prop35
280
     0
102
RTVSPost2010PropOp35
 70
     1
102
RTVSPost2010Prop36
280
     0
102
RTVSPost2010PropOp36
 70
     1
102
RTVSPost2010Prop37
 90
       50
102
RTVSPost2010PropOp37
 70
     1
102
RTVSPost2010Prop38
140
0.0
102
RTVSPost2010PropOp38
 70
     1
102
RTVSPost2010Prop39
140
1.0
102
RTVSPost2010PropOp39
 70
     1
102
RTVSPost2010Prop40
 90
        0
102
RTVSPost2010PropOp40
 70
     1
102
RTVSPost2010Prop41ColorIndex
 90
       18
102
RTVSPost2010Prop41ColorRGB
 90
-16777216
102
RTVSPost2010PropOp41
 70
     1
102
RTVSPost2010Prop42
 90
       50
102
RTVSPost2010PropOp42
 70
     1
102
RTVSPost2010Prop43
 90
        3
102
RTVSPost2010PropOp43
 70
     1
102
RTVSPost2010Prop44ColorIndex
 90
        5
102
RTVSPost2010Prop44ColorRGB
 90
      255
102
RTVSPost2010PropOp44
 70
     1
102
RTVSPost2010Prop45
280
     0
102
RTVSPost2010PropOp45
 70
     1
102
RTVSPost2010Prop46
 90
       50
102
RTVSPost2010PropOp46
 70
     1
102
RTVSPost2010Prop47
 90
       50
102
RTVSPost2010PropOp47
 70
     1
102
RTVSPost2010Prop48
 90
       50
102
RTVSPost2010PropOp48
 70
     1
102
RTVSPost2010Prop49
280
     0
102
RTVSPost2010PropOp49
 70
     1
102
RTVSPost2010Prop50
 90
       50
102
RTVSPost2010PropOp50
 70
     1
102
RTVSPost2010Prop51ColorIndex
 90
      256
102
RTVSPost2010Prop51ColorRGB
 90
-16777216
102
RTVSPost2010PropOp51
 70
     0
102
RTVSPost2010Prop52
140
1.0
102
RTVSPost2010PropOp52
 70
     0
102
RTVSPost2010Prop53
 90
        2
102
RTVSPost2010PropOp53
 70
     1
102
RTVSPost2010Prop54
  1
strokes_ogs.tif
102
RTVSPost2010PropOp54
 70
     1
102
RTVSPost2010Prop55
280
     0
102
RTVSPost2010PropOp55
 70
     1
102
RTVSPost2010Prop56
140
1.0
102
RTVSPost2010PropOp56
 70
     1
102
RTVSPost2010Prop57
140
1.0
102
RTVSPost2010PropOp57
 70
     1
102
RTVSPropertyOp0
 70
     1
102
RTVSPropertyOp1
 70
     1
102
RTVSPropertyOp2
 70
     1
102
RTVSPropertyOp3
 70
     1
102
RTVSPropertyOp4
 70
     1
102
RTVSPropertyOp5
 70
     1
102
RTVSPropertyOp6
 70
     1
102
RTVSPropertyOp7
 70
     1
102
RTVSPropertyOp8
 70
     1
102
RTVSPropertyOp9
 70
     1
102
RTVSPropertyOp10
 70
     1
102
RTVSPropertyOp11
 70
     1
102
RTVSPropertyOp12
 70
     1
102
RTVSPropertyOp13
 70
     1
102
RTVSPropertyOp14
 70
     1
102
RTVSPropertyOp15
 70
     1
102
RTVSPropertyOp16
 70
     1
102
RTVSPropertyOp17
 70
     1
102
RTVSPropertyOp18
 70
     1
102
RTVSPropertyOp19
 70
     1
102
RTVSPropertyOp20
 70
     1
102
RTVSPropertyOp21
 70
     1
102
RTVSPropertyOp22
 70
     1
102
RTVSPropertyOp23
 70
     1
102
RTVSPropertyOp24
 70
     1
102
RTVSPropertyOp25
 70
     1
102
RTVSPropertyOp26
 70
     1
102
RTVSPropertyOp27
 70
     1
102
RTVSPropertyOp28
 70
     1
102
RTVSPropertyOp29
 70
     1
102
RTVSPropertyOp30
 70
     1
102
RTVSPropertyOp31
 70
     1
102
RTVSPropertyOp32
 70
     1
102
RTVSPropertyOp33
 70
     1
102
RTVSPropertyOp34
 70
     1
102
RTVSPropertyOp35
 70
     1
102
RTVSPropertyOp36
 70
     1
102
RTVSPropertyOp37
 70
     1
102
RTVSPropertyOp38
 70
     1
102
RTVSPropertyOp39
 70
     1
102
RTVSPropertyOp40
 70
     1
102
RTVSPropertyOp41
 70
     1
102
RTVSPropertyOp42
 70
     1
102
RTVSPropertyOp43
 70
     1
102
RTVSPropertyOp44
 70
     1
102
RTVSPropertyOp45
 70
     1
102
RTVSPropertyOp46
 70
     1
102
RTVSPropertyOp47
 70
     1
102
RTVSPropertyOp48
 70
     1
102
RTVSPropertyOp49
 70
     1
102
RTVSPropertyOp50
 70
     1
102
RTVSPropertyOp51
 70
     0
102
RTVSPropertyOp52
 70
     0
102
RTVSPropertyOp53
 70
     1
102
RTVSPropertyOp54
 70
     1
102
RTVSPropertyOp55
 70
     1
102
RTVSPropertyOp56
 70
     1
102
RTVSPropertyOp57
 70
     1
102
RTVSPropertyOp58
 70
     1
102
RTVSPropertyOp59
 70
     1
102
RTVSPropertyOp60
 70
     1
102
RTVSPropertyOp61
 70
     1
102
RTVSPropertyOp62
 70
     1
  0
XRECORD
  5
D31
102
{ACAD_REACTORS
330
D30
102
}
330
D30
100
AcDbXrecord
280
     1
102
RTVSPost2010Prop28
280
     0
102
RTVSPost2010PropOp28
 70
     1
102
RTVSPost2010Prop29
280
     1
102
RTVSPost2010PropOp29
 70
     1
102
RTVSPost2010Prop30
280
     1
102
RTVSPost2010PropOp30
 70
     1
102
RTVSPost2010Prop31
280
     0
102
RTVSPost2010PropOp31
 70
     1
102
RTVSPost2010Prop32
280
     0
102
RTVSPost2010PropOp32
 70
     1
102
RTVSPost2010Prop33
280
     0
102
RTVSPost2010PropOp33
 70
     1
102
RTVSPost2010Prop34
280
     0
102
RTVSPost2010PropOp34
 70
     1
102
RTVSPost2010Prop35
280
     0
102
RTVSPost2010PropOp35
 70
     1
102
RTVSPost2010Prop36
280
     0
102
RTVSPost2010PropOp36
 70
     1
102
RTVSPost2010Prop37
 90
       50
102
RTVSPost2010PropOp37
 70
     1
102
RTVSPost2010Prop38
140
0.0
102
RTVSPost2010PropOp38
 70
     1
102
RTVSPost2010Prop39
140
1.0
102
RTVSPost2010PropOp39
 70
     1
102
RTVSPost2010Prop40
 90
        0
102
RTVSPost2010PropOp40
 70
     1
102
RTVSPost2010Prop41ColorIndex
 90
       18
102
RTVSPost2010Prop41ColorRGB
 90
-16777216
102
RTVSPost2010PropOp41
 70
     1
102
RTVSPost2010Prop42
 90
       50
102
RTVSPost2010PropOp42
 70
     1
102
RTVSPost2010Prop43
 90
        3
102
RTVSPost2010PropOp43
 70
     1
102
RTVSPost2010Prop44ColorIndex
 90
        5
102
RTVSPost2010Prop44ColorRGB
 90
      255
102
RTVSPost2010PropOp44
 70
     1
102
RTVSPost2010Prop45
280
     0
102
RTVSPost2010PropOp45
 70
     1
102
RTVSPost2010Prop46
 90
       50
102
RTVSPost2010PropOp46
 70
     1
102
RTVSPost2010Prop47
 90
       50
102
RTVSPost2010PropOp47
 70
     1
102
RTVSPost2010Prop48
 90
       50
102
RTVSPost2010PropOp48
 70
     1
102
RTVSPost2010Prop49
280
     0
102
RTVSPost2010PropOp49
 70
     1
102
RTVSPost2010Prop50
 90
       50
102
RTVSPost2010PropOp50
 70
     1
102
RTVSPost2010Prop51ColorIndex
 90
      256
102
RTVSPost2010Prop51ColorRGB
 90
-16777216
102
RTVSPost2010PropOp51
 70
     0
102
RTVSPost2010Prop52
140
1.0
102
RTVSPost2010PropOp52
 70
     0
102
RTVSPost2010Prop53
 90
        2
102
RTVSPost2010PropOp53
 70
     1
102
RTVSPost2010Prop54
  1
strokes_ogs.tif
102
RTVSPost2010PropOp54
 70
     1
102
RTVSPost2010Prop55
280
     0
102
RTVSPost2010PropOp55
 70
     1
102
RTVSPost2010Prop56
140
1.0
102
RTVSPost2010PropOp56
 70
     1
102
RTVSPost2010Prop57
140
1.0
102
RTVSPost2010PropOp57
 70
     1
102
RTVSPropertyOp0
 70
     1
102
RTVSPropertyOp1
 70
     1
102
RTVSPropertyOp2
 70
     1
102
RTVSPropertyOp3
 70
     1
102
RTVSPropertyOp4
 70
     1
102
RTVSPropertyOp5
 70
     1
102
RTVSPropertyOp6
 70
     1
102
RTVSPropertyOp7
 70
     1
102
RTVSPropertyOp8
 70
     1
102
RTVSPropertyOp9
 70
     1
102
RTVSPropertyOp10
 70
     1
102
RTVSPropertyOp11
 70
     1
102
RTVSPropertyOp12
 70
     1
102
RTVSPropertyOp13
 70
     1
102
RTVSPropertyOp14
 70
     1
102
RTVSPropertyOp15
 70
     1
102
RTVSPropertyOp16
 70
     1
102
RTVSPropertyOp17
 70
     1
102
RTVSPropertyOp18
 70
     1
102
RTVSPropertyOp19
 70
     1
102
RTVSPropertyOp20
 70
     1
102
RTVSPropertyOp21
 70
     1
102
RTVSPropertyOp22
 70
     1
102
RTVSPropertyOp23
 70
     1
102
RTVSPropertyOp24
 70
     1
102
RTVSPropertyOp25
 70
     1
102
RTVSPropertyOp26
 70
     1
102
RTVSPropertyOp27
 70
     1
102
RTVSPropertyOp28
 70
     1
102
RTVSPropertyOp29
 70
     1
102
RTVSPropertyOp30
 70
     1
102
RTVSPropertyOp31
 70
     1
102
RTVSPropertyOp32
 70
     1
102
RTVSPropertyOp33
 70
     1
102
RTVSPropertyOp34
 70
     1
102
RTVSPropertyOp35
 70
     1
102
RTVSPropertyOp36
 70
     1
102
RTVSPropertyOp37
 70
     1
102
RTVSPropertyOp38
 70
     1
102
RTVSPropertyOp39
 70
     1
102
RTVSPropertyOp40
 70
     1
102
RTVSPropertyOp41
 70
     1
102
RTVSPropertyOp42
 70
     1
102
RTVSPropertyOp43
 70
     1
102
RTVSPropertyOp44
 70
     1
102
RTVSPropertyOp45
 70
     1
102
RTVSPropertyOp46
 70
     1
102
RTVSPropertyOp47
 70
     1
102
RTVSPropertyOp48
 70
     1
102
RTVSPropertyOp49
 70
     1
102
RTVSPropertyOp50
 70
     1
102
RTVSPropertyOp51
 70
     0
102
RTVSPropertyOp52
 70
     0
102
RTVSPropertyOp53
 70
     1
102
RTVSPropertyOp54
 70
     1
102
RTVSPropertyOp55
 70
     1
102
RTVSPropertyOp56
 70
     1
102
RTVSPropertyOp57
 70
     1
102
RTVSPropertyOp58
 70
     1
102
RTVSPropertyOp59
 70
     1
102
RTVSPropertyOp60
 70
     1
102
RTVSPropertyOp61
 70
     1
102
RTVSPropertyOp62
 70
     1
  0
XRECORD
  5
D4D
102
{ACAD_REACTORS
330
D4C
102
}
330
D4C
100
AcDbXrecord
280
     1
102
RTVSPost2010Prop28
280
     0
102
RTVSPost2010PropOp28
 70
     0
102
RTVSPost2010Prop29
280
     1
102
RTVSPost2010PropOp29
 70
     0
102
RTVSPost2010Prop30
280
     1
102
RTVSPost2010PropOp30
 70
     0
102
RTVSPost2010Prop31
280
     0
102
RTVSPost2010PropOp31
 70
     0
102
RTVSPost2010Prop32
280
     0
102
RTVSPost2010PropOp32
 70
     0
102
RTVSPost2010Prop33
280
     0
102
RTVSPost2010PropOp33
 70
     0
102
RTVSPost2010Prop34
280
     0
102
RTVSPost2010PropOp34
 70
     0
102
RTVSPost2010Prop35
280
     0
102
RTVSPost2010PropOp35
 70
     0
102
RTVSPost2010Prop36
280
     0
102
RTVSPost2010PropOp36
 70
     0
102
RTVSPost2010Prop37
 90
       50
102
RTVSPost2010PropOp37
 70
     0
102
RTVSPost2010Prop38
140
0.0
102
RTVSPost2010PropOp38
 70
     0
102
RTVSPost2010Prop39
140
1.0
102
RTVSPost2010PropOp39
 70
     0
102
RTVSPost2010Prop40
 90
        0
102
RTVSPost2010PropOp40
 70
     0
102
RTVSPost2010Prop41ColorIndex
 90
       18
102
RTVSPost2010Prop41ColorRGB
 90
-16777216
102
RTVSPost2010PropOp41
 70
     0
102
RTVSPost2010Prop42
 90
       50
102
RTVSPost2010PropOp42
 70
     0
102
RTVSPost2010Prop43
 90
        3
102
RTVSPost2010PropOp43
 70
     0
102
RTVSPost2010Prop44ColorIndex
 90
        5
102
RTVSPost2010Prop44ColorRGB
 90
      255
102
RTVSPost2010PropOp44
 70
     0
102
RTVSPost2010Prop45
280
     0
102
RTVSPost2010PropOp45
 70
     0
102
RTVSPost2010Prop46
 90
       50
102
RTVSPost2010PropOp46
 70
     0
102
RTVSPost2010Prop47
 90
       50
102
RTVSPost2010PropOp47
 70
     0
102
RTVSPost2010Prop48
 90
       50
102
RTVSPost2010PropOp48
 70
     0
102
RTVSPost2010Prop49
280
     0
102
RTVSPost2010PropOp49
 70
     0
102
RTVSPost2010Prop50
 90
       50
102
RTVSPost2010PropOp50
 70
     0
102
RTVSPost2010Prop51ColorIndex
 90
      256
102
RTVSPost2010Prop51ColorRGB
 90
-16777216
102
RTVSPost2010PropOp51
 70
     0
102
RTVSPost2010Prop52
140
1.0
102
RTVSPost2010PropOp52
 70
     0
102
RTVSPost2010Prop53
 90
        2
102
RTVSPost2010PropOp53
 70
     0
102
RTVSPost2010Prop54
  1
strokes_ogs.tif
102
RTVSPost2010PropOp54
 70
     0
102
RTVSPost2010Prop55
280
     0
102
RTVSPost2010PropOp55
 70
     0
102
RTVSPost2010Prop56
140
1.0
102
RTVSPost2010PropOp56
 70
     0
102
RTVSPost2010Prop57
140
1.0
102
RTVSPost2010PropOp57
 70
     0
102
RTVSPropertyOp0
 70
     0
102
RTVSPropertyOp1
 70
     0
102
RTVSPropertyOp2
 70
     0
102
RTVSPropertyOp3
 70
     0
102
RTVSPropertyOp4
 70
     0
102
RTVSPropertyOp5
 70
     0
102
RTVSPropertyOp6
 70
     0
102
RTVSPropertyOp7
 70
     0
102
RTVSPropertyOp8
 70
     0
102
RTVSPropertyOp9
 70
     0
102
RTVSPropertyOp10
 70
     0
102
RTVSPropertyOp11
 70
     0
102
RTVSPropertyOp12
 70
     0
102
RTVSPropertyOp13
 70
     0
102
RTVSPropertyOp14
 70
     2
102
RTVSPropertyOp15
 70
     0
102
RTVSPropertyOp16
 70
     0
102
RTVSPropertyOp17
 70
     0
102
RTVSPropertyOp18
 70
     0
102
RTVSPropertyOp19
 70
     0
102
RTVSPropertyOp20
 70
     0
102
RTVSPropertyOp21
 70
     0
102
RTVSPropertyOp22
 70
     0
102
RTVSPropertyOp23
 70
     0
102
RTVSPropertyOp24
 70
     0
102
RTVSPropertyOp25
 70
     0
102
RTVSPropertyOp26
 70
     0
102
RTVSPropertyOp27
 70
     0
102
RTVSPropertyOp28
 70
     0
102
RTVSPropertyOp29
 70
     0
102
RTVSPropertyOp30
 70
     0
102
RTVSPropertyOp31
 70
     0
102
RTVSPropertyOp32
 70
     0
102
RTVSPropertyOp33
 70
     0
102
RTVSPropertyOp34
 70
     0
102
RTVSPropertyOp35
 70
     0
102
RTVSPropertyOp36
 70
     0
102
RTVSPropertyOp37
 70
     0
102
RTVSPropertyOp38
 70
     0
102
RTVSPropertyOp39
 70
     0
102
RTVSPropertyOp40
 70
     0
102
RTVSPropertyOp41
 70
     0
102
RTVSPropertyOp42
 70
     0
102
RTVSPropertyOp43
 70
     0
102
RTVSPropertyOp44
 70
     0
102
RTVSPropertyOp45
 70
     0
102
RTVSPropertyOp46
 70
     0
102
RTVSPropertyOp47
 70
     0
102
RTVSPropertyOp48
 70
     0
102
RTVSPropertyOp49
 70
     0
102
RTVSPropertyOp50
 70
     0
102
RTVSPropertyOp51
 70
     0
102
RTVSPropertyOp52
 70
     0
102
RTVSPropertyOp53
 70
     0
102
RTVSPropertyOp54
 70
     0
102
RTVSPropertyOp55
 70
     0
102
RTVSPropertyOp56
 70
     0
102
RTVSPropertyOp57
 70
     0
102
RTVSPropertyOp58
 70
     1
102
RTVSPropertyOp59
 70
     1
102
RTVSPropertyOp60
 70
     1
102
RTVSPropertyOp61
 70
     1
102
RTVSPropertyOp62
 70
     1
  0
XRECORD
  5
D3D
102
{ACAD_REACTORS
330
D3C
102
}
330
D3C
100
AcDbXrecord
280
     1
102
RTVSPost2010Prop28
280
     0
102
RTVSPost2010PropOp28
 70
     1
102
RTVSPost2010Prop29
280
     1
102
RTVSPost2010PropOp29
 70
     1
102
RTVSPost2010Prop30
280
     1
102
RTVSPost2010PropOp30
 70
     1
102
RTVSPost2010Prop31
280
     0
102
RTVSPost2010PropOp31
 70
     1
102
RTVSPost2010Prop32
280
     0
102
RTVSPost2010PropOp32
 70
     1
102
RTVSPost2010Prop33
280
     0
102
RTVSPost2010PropOp33
 70
     1
102
RTVSPost2010Prop34
280
     0
102
RTVSPost2010PropOp34
 70
     1
102
RTVSPost2010Prop35
280
     0
102
RTVSPost2010PropOp35
 70
     1
102
RTVSPost2010Prop36
280
     0
102
RTVSPost2010PropOp36
 70
     1
102
RTVSPost2010Prop37
 90
       50
102
RTVSPost2010PropOp37
 70
     1
102
RTVSPost2010Prop38
140
0.0
102
RTVSPost2010PropOp38
 70
     1
102
RTVSPost2010Prop39
140
1.0
102
RTVSPost2010PropOp39
 70
     1
102
RTVSPost2010Prop40
 90
        0
102
RTVSPost2010PropOp40
 70
     1
102
RTVSPost2010Prop41ColorIndex
 90
       18
102
RTVSPost2010Prop41ColorRGB
 90
-16777216
102
RTVSPost2010PropOp41
 70
     1
102
RTVSPost2010Prop42
 90
       50
102
RTVSPost2010PropOp42
 70
     1
102
RTVSPost2010Prop43
 90
        3
102
RTVSPost2010PropOp43
 70
     1
102
RTVSPost2010Prop44ColorIndex
 90
        5
102
RTVSPost2010Prop44ColorRGB
 90
      255
102
RTVSPost2010PropOp44
 70
     1
102
RTVSPost2010Prop45
280
     0
102
RTVSPost2010PropOp45
 70
     1
102
RTVSPost2010Prop46
 90
       50
102
RTVSPost2010PropOp46
 70
     1
102
RTVSPost2010Prop47
 90
       50
102
RTVSPost2010PropOp47
 70
     1
102
RTVSPost2010Prop48
 90
       50
102
RTVSPost2010PropOp48
 70
     1
102
RTVSPost2010Prop49
280
     0
102
RTVSPost2010PropOp49
 70
     1
102
RTVSPost2010Prop50
 90
       50
102
RTVSPost2010PropOp50
 70
     1
102
RTVSPost2010Prop51ColorIndex
 90
      256
102
RTVSPost2010Prop51ColorRGB
 90
-16777216
102
RTVSPost2010PropOp51
 70
     0
102
RTVSPost2010Prop52
140
1.0
102
RTVSPost2010PropOp52
 70
     0
102
RTVSPost2010Prop53
 90
        2
102
RTVSPost2010PropOp53
 70
     1
102
RTVSPost2010Prop54
  1
strokes_ogs.tif
102
RTVSPost2010PropOp54
 70
     1
102
RTVSPost2010Prop55
280
     0
102
RTVSPost2010PropOp55
 70
     1
102
RTVSPost2010Prop56
140
1.0
102
RTVSPost2010PropOp56
 70
     1
102
RTVSPost2010Prop57
140
1.0
102
RTVSPost2010PropOp57
 70
     1
102
RTVSPropertyOp0
 70
     1
102
RTVSPropertyOp1
 70
     1
102
RTVSPropertyOp2
 70
     1
102
RTVSPropertyOp3
 70
     1
102
RTVSPropertyOp4
 70
     1
102
RTVSPropertyOp5
 70
     1
102
RTVSPropertyOp6
 70
     1
102
RTVSPropertyOp7
 70
     1
102
RTVSPropertyOp8
 70
     1
102
RTVSPropertyOp9
 70
     1
102
RTVSPropertyOp10
 70
     1
102
RTVSPropertyOp11
 70
     1
102
RTVSPropertyOp12
 70
     1
102
RTVSPropertyOp13
 70
     1
102
RTVSPropertyOp14
 70
     1
102
RTVSPropertyOp15
 70
     1
102
RTVSPropertyOp16
 70
     1
102
RTVSPropertyOp17
 70
     1
102
RTVSPropertyOp18
 70
     1
102
RTVSPropertyOp19
 70
     1
102
RTVSPropertyOp20
 70
     1
102
RTVSPropertyOp21
 70
     1
102
RTVSPropertyOp22
 70
     1
102
RTVSPropertyOp23
 70
     1
102
RTVSPropertyOp24
 70
     1
102
RTVSPropertyOp25
 70
     1
102
RTVSPropertyOp26
 70
     1
102
RTVSPropertyOp27
 70
     1
102
RTVSPropertyOp28
 70
     1
102
RTVSPropertyOp29
 70
     1
102
RTVSPropertyOp30
 70
     1
102
RTVSPropertyOp31
 70
     1
102
RTVSPropertyOp32
 70
     1
102
RTVSPropertyOp33
 70
     1
102
RTVSPropertyOp34
 70
     1
102
RTVSPropertyOp35
 70
     1
102
RTVSPropertyOp36
 70
     1
102
RTVSPropertyOp37
 70
     1
102
RTVSPropertyOp38
 70
     1
102
RTVSPropertyOp39
 70
     1
102
RTVSPropertyOp40
 70
     1
102
RTVSPropertyOp41
 70
     1
102
RTVSPropertyOp42
 70
     1
102
RTVSPropertyOp43
 70
     1
102
RTVSPropertyOp44
 70
     1
102
RTVSPropertyOp45
 70
     1
102
RTVSPropertyOp46
 70
     1
102
RTVSPropertyOp47
 70
     1
102
RTVSPropertyOp48
 70
     1
102
RTVSPropertyOp49
 70
     1
102
RTVSPropertyOp50
 70
     1
102
RTVSPropertyOp51
 70
     0
102
RTVSPropertyOp52
 70
     0
102
RTVSPropertyOp53
 70
     1
102
RTVSPropertyOp54
 70
     1
102
RTVSPropertyOp55
 70
     1
102
RTVSPropertyOp56
 70
     1
102
RTVSPropertyOp57
 70
     1
102
RTVSPropertyOp58
 70
     1
102
RTVSPropertyOp59
 70
     1
102
RTVSPropertyOp60
 70
     1
102
RTVSPropertyOp61
 70
     1
102
RTVSPropertyOp62
 70
     1
  0
XRECORD
  5
D4F
102
{ACAD_REACTORS
330
D4E
102
}
330
D4E
100
AcDbXrecord
280
     1
102
RTVSPost2010Prop28
280
     0
102
RTVSPost2010PropOp28
 70
     0
102
RTVSPost2010Prop29
280
     1
102
RTVSPost2010PropOp29
 70
     0
102
RTVSPost2010Prop30
280
     1
102
RTVSPost2010PropOp30
 70
     0
102
RTVSPost2010Prop31
280
     0
102
RTVSPost2010PropOp31
 70
     0
102
RTVSPost2010Prop32
280
     0
102
RTVSPost2010PropOp32
 70
     0
102
RTVSPost2010Prop33
280
     0
102
RTVSPost2010PropOp33
 70
     0
102
RTVSPost2010Prop34
280
     0
102
RTVSPost2010PropOp34
 70
     0
102
RTVSPost2010Prop35
280
     0
102
RTVSPost2010PropOp35
 70
     0
102
RTVSPost2010Prop36
280
     0
102
RTVSPost2010PropOp36
 70
     0
102
RTVSPost2010Prop37
 90
       50
102
RTVSPost2010PropOp37
 70
     0
102
RTVSPost2010Prop38
140
0.0
102
RTVSPost2010PropOp38
 70
     0
102
RTVSPost2010Prop39
140
1.0
102
RTVSPost2010PropOp39
 70
     0
102
RTVSPost2010Prop40
 90
        0
102
RTVSPost2010PropOp40
 70
     0
102
RTVSPost2010Prop41ColorIndex
 90
       18
102
RTVSPost2010Prop41ColorRGB
 90
-16777216
102
RTVSPost2010PropOp41
 70
     0
102
RTVSPost2010Prop42
 90
       50
102
RTVSPost2010PropOp42
 70
     0
102
RTVSPost2010Prop43
 90
        3
102
RTVSPost2010PropOp43
 70
     0
102
RTVSPost2010Prop44ColorIndex
 90
        5
102
RTVSPost2010Prop44ColorRGB
 90
      255
102
RTVSPost2010PropOp44
 70
     0
102
RTVSPost2010Prop45
280
     0
102
RTVSPost2010PropOp45
 70
     0
102
RTVSPost2010Prop46
 90
       50
102
RTVSPost2010PropOp46
 70
     0
102
RTVSPost2010Prop47
 90
       50
102
RTVSPost2010PropOp47
 70
     0
102
RTVSPost2010Prop48
 90
       50
102
RTVSPost2010PropOp48
 70
     0
102
RTVSPost2010Prop49
280
     0
102
RTVSPost2010PropOp49
 70
     0
102
RTVSPost2010Prop50
 90
       50
102
RTVSPost2010PropOp50
 70
     0
102
RTVSPost2010Prop51ColorIndex
 90
      256
102
RTVSPost2010Prop51ColorRGB
 90
-16777216
102
RTVSPost2010PropOp51
 70
     0
102
RTVSPost2010Prop52
140
1.0
102
RTVSPost2010PropOp52
 70
     0
102
RTVSPost2010Prop53
 90
        2
102
RTVSPost2010PropOp53
 70
     0
102
RTVSPost2010Prop54
  1
strokes_ogs.tif
102
RTVSPost2010PropOp54
 70
     0
102
RTVSPost2010Prop55
280
     0
102
RTVSPost2010PropOp55
 70
     0
102
RTVSPost2010Prop56
140
1.0
102
RTVSPost2010PropOp56
 70
     0
102
RTVSPost2010Prop57
140
1.0
102
RTVSPost2010PropOp57
 70
     0
102
RTVSPropertyOp0
 70
     0
102
RTVSPropertyOp1
 70
     0
102
RTVSPropertyOp2
 70
     0
102
RTVSPropertyOp3
 70
     0
102
RTVSPropertyOp4
 70
     0
102
RTVSPropertyOp5
 70
     0
102
RTVSPropertyOp6
 70
     0
102
RTVSPropertyOp7
 70
     0
102
RTVSPropertyOp8
 70
     0
102
RTVSPropertyOp9
 70
     0
102
RTVSPropertyOp10
 70
     0
102
RTVSPropertyOp11
 70
     0
102
RTVSPropertyOp12
 70
     0
102
RTVSPropertyOp13
 70
     0
102
RTVSPropertyOp14
 70
     2
102
RTVSPropertyOp15
 70
     0
102
RTVSPropertyOp16
 70
     0
102
RTVSPropertyOp17
 70
     0
102
RTVSPropertyOp18
 70
     0
102
RTVSPropertyOp19
 70
     0
102
RTVSPropertyOp20
 70
     0
102
RTVSPropertyOp21
 70
     0
102
RTVSPropertyOp22
 70
     0
102
RTVSPropertyOp23
 70
     0
102
RTVSPropertyOp24
 70
     0
102
RTVSPropertyOp25
 70
     0
102
RTVSPropertyOp26
 70
     0
102
RTVSPropertyOp27
 70
     0
102
RTVSPropertyOp28
 70
     0
102
RTVSPropertyOp29
 70
     0
102
RTVSPropertyOp30
 70
     0
102
RTVSPropertyOp31
 70
     0
102
RTVSPropertyOp32
 70
     0
102
RTVSPropertyOp33
 70
     0
102
RTVSPropertyOp34
 70
     0
102
RTVSPropertyOp35
 70
     0
102
RTVSPropertyOp36
 70
     0
102
RTVSPropertyOp37
 70
     0
102
RTVSPropertyOp38
 70
     0
102
RTVSPropertyOp39
 70
     0
102
RTVSPropertyOp40
 70
     0
102
RTVSPropertyOp41
 70
     0
102
RTVSPropertyOp42
 70
     0
102
RTVSPropertyOp43
 70
     0
102
RTVSPropertyOp44
 70
     0
102
RTVSPropertyOp45
 70
     0
102
RTVSPropertyOp46
 70
     0
102
RTVSPropertyOp47
 70
     0
102
RTVSPropertyOp48
 70
     0
102
RTVSPropertyOp49
 70
     0
102
RTVSPropertyOp50
 70
     0
102
RTVSPropertyOp51
 70
     0
102
RTVSPropertyOp52
 70
     0
102
RTVSPropertyOp53
 70
     0
102
RTVSPropertyOp54
 70
     0
102
RTVSPropertyOp55
 70
     0
102
RTVSPropertyOp56
 70
     0
102
RTVSPropertyOp57
 70
     0
102
RTVSPropertyOp58
 70
     1
102
RTVSPropertyOp59
 70
     1
102
RTVSPropertyOp60
 70
     1
102
RTVSPropertyOp61
 70
     1
102
RTVSPropertyOp62
 70
     1
  0
XRECORD
  5
D35
102
{ACAD_REACTORS
330
D34
102
}
330
D34
100
AcDbXrecord
280
     1
102
RTVSPost2010Prop28
280
     0
102
RTVSPost2010PropOp28
 70
     1
102
RTVSPost2010Prop29
280
     1
102
RTVSPost2010PropOp29
 70
     1
102
RTVSPost2010Prop30
280
     1
102
RTVSPost2010PropOp30
 70
     1
102
RTVSPost2010Prop31
280
     0
102
RTVSPost2010PropOp31
 70
     1
102
RTVSPost2010Prop32
280
     0
102
RTVSPost2010PropOp32
 70
     1
102
RTVSPost2010Prop33
280
     0
102
RTVSPost2010PropOp33
 70
     1
102
RTVSPost2010Prop34
280
     0
102
RTVSPost2010PropOp34
 70
     1
102
RTVSPost2010Prop35
280
     0
102
RTVSPost2010PropOp35
 70
     1
102
RTVSPost2010Prop36
280
     0
102
RTVSPost2010PropOp36
 70
     1
102
RTVSPost2010Prop37
 90
       50
102
RTVSPost2010PropOp37
 70
     1
102
RTVSPost2010Prop38
140
0.0
102
RTVSPost2010PropOp38
 70
     1
102
RTVSPost2010Prop39
140
1.0
102
RTVSPost2010PropOp39
 70
     1
102
RTVSPost2010Prop40
 90
        0
102
RTVSPost2010PropOp40
 70
     1
102
RTVSPost2010Prop41ColorIndex
 90
       18
102
RTVSPost2010Prop41ColorRGB
 90
-16777216
102
RTVSPost2010PropOp41
 70
     1
102
RTVSPost2010Prop42
 90
       50
102
RTVSPost2010PropOp42
 70
     1
102
RTVSPost2010Prop43
 90
        3
102
RTVSPost2010PropOp43
 70
     1
102
RTVSPost2010Prop44ColorIndex
 90
        5
102
RTVSPost2010Prop44ColorRGB
 90
      255
102
RTVSPost2010PropOp44
 70
     1
102
RTVSPost2010Prop45
280
     0
102
RTVSPost2010PropOp45
 70
     1
102
RTVSPost2010Prop46
 90
       50
102
RTVSPost2010PropOp46
 70
     1
102
RTVSPost2010Prop47
 90
       50
102
RTVSPost2010PropOp47
 70
     1
102
RTVSPost2010Prop48
 90
       50
102
RTVSPost2010PropOp48
 70
     1
102
RTVSPost2010Prop49
280
     0
102
RTVSPost2010PropOp49
 70
     1
102
RTVSPost2010Prop50
 90
       50
102
RTVSPost2010PropOp50
 70
     1
102
RTVSPost2010Prop51ColorIndex
 90
      256
102
RTVSPost2010Prop51ColorRGB
 90
-16777216
102
RTVSPost2010PropOp51
 70
     0
102
RTVSPost2010Prop52
140
1.0
102
RTVSPost2010PropOp52
 70
     0
102
RTVSPost2010Prop53
 90
        2
102
RTVSPost2010PropOp53
 70
     1
102
RTVSPost2010Prop54
  1
strokes_ogs.tif
102
RTVSPost2010PropOp54
 70
     1
102
RTVSPost2010Prop55
280
     0
102
RTVSPost2010PropOp55
 70
     1
102
RTVSPost2010Prop56
140
1.0
102
RTVSPost2010PropOp56
 70
     1
102
RTVSPost2010Prop57
140
1.0
102
RTVSPost2010PropOp57
 70
     1
102
RTVSPropertyOp0
 70
     1
102
RTVSPropertyOp1
 70
     1
102
RTVSPropertyOp2
 70
     1
102
RTVSPropertyOp3
 70
     1
102
RTVSPropertyOp4
 70
     1
102
RTVSPropertyOp5
 70
     1
102
RTVSPropertyOp6
 70
     1
102
RTVSPropertyOp7
 70
     1
102
RTVSPropertyOp8
 70
     1
102
RTVSPropertyOp9
 70
     1
102
RTVSPropertyOp10
 70
     1
102
RTVSPropertyOp11
 70
     1
102
RTVSPropertyOp12
 70
     1
102
RTVSPropertyOp13
 70
     1
102
RTVSPropertyOp14
 70
     1
102
RTVSPropertyOp15
 70
     1
102
RTVSPropertyOp16
 70
     1
102
RTVSPropertyOp17
 70
     1
102
RTVSPropertyOp18
 70
     1
102
RTVSPropertyOp19
 70
     1
102
RTVSPropertyOp20
 70
     1
102
RTVSPropertyOp21
 70
     1
102
RTVSPropertyOp22
 70
     1
102
RTVSPropertyOp23
 70
     1
102
RTVSPropertyOp24
 70
     1
102
RTVSPropertyOp25
 70
     1
102
RTVSPropertyOp26
 70
     1
102
RTVSPropertyOp27
 70
     1
102
RTVSPropertyOp28
 70
     1
102
RTVSPropertyOp29
 70
     1
102
RTVSPropertyOp30
 70
     1
102
RTVSPropertyOp31
 70
     1
102
RTVSPropertyOp32
 70
     1
102
RTVSPropertyOp33
 70
     1
102
RTVSPropertyOp34
 70
     1
102
RTVSPropertyOp35
 70
     1
102
RTVSPropertyOp36
 70
     1
102
RTVSPropertyOp37
 70
     1
102
RTVSPropertyOp38
 70
     1
102
RTVSPropertyOp39
 70
     1
102
RTVSPropertyOp40
 70
     1
102
RTVSPropertyOp41
 70
     1
102
RTVSPropertyOp42
 70
     1
102
RTVSPropertyOp43
 70
     1
102
RTVSPropertyOp44
 70
     1
102
RTVSPropertyOp45
 70
     1
102
RTVSPropertyOp46
 70
     1
102
RTVSPropertyOp47
 70
     1
102
RTVSPropertyOp48
 70
     1
102
RTVSPropertyOp49
 70
     1
102
RTVSPropertyOp50
 70
     1
102
RTVSPropertyOp51
 70
     0
102
RTVSPropertyOp52
 70
     0
102
RTVSPropertyOp53
 70
     1
102
RTVSPropertyOp54
 70
     1
102
RTVSPropertyOp55
 70
     1
102
RTVSPropertyOp56
 70
     1
102
RTVSPropertyOp57
 70
     1
102
RTVSPropertyOp58
 70
     1
102
RTVSPropertyOp59
 70
     1
102
RTVSPropertyOp60
 70
     1
102
RTVSPropertyOp61
 70
     1
102
RTVSPropertyOp62
 70
     1
  0
XRECORD
  5
D4B
102
{ACAD_REACTORS
330
D4A
102
}
330
D4A
100
AcDbXrecord
280
     1
102
RTVSPost2010Prop28
280
     0
102
RTVSPost2010PropOp28
 70
     1
102
RTVSPost2010Prop29
280
     1
102
RTVSPost2010PropOp29
 70
     1
102
RTVSPost2010Prop30
280
     1
102
RTVSPost2010PropOp30
 70
     1
102
RTVSPost2010Prop31
280
     0
102
RTVSPost2010PropOp31
 70
     1
102
RTVSPost2010Prop32
280
     0
102
RTVSPost2010PropOp32
 70
     1
102
RTVSPost2010Prop33
280
     0
102
RTVSPost2010PropOp33
 70
     1
102
RTVSPost2010Prop34
280
     0
102
RTVSPost2010PropOp34
 70
     1
102
RTVSPost2010Prop35
280
     0
102
RTVSPost2010PropOp35
 70
     1
102
RTVSPost2010Prop36
280
     0
102
RTVSPost2010PropOp36
 70
     1
102
RTVSPost2010Prop37
 90
       50
102
RTVSPost2010PropOp37
 70
     1
102
RTVSPost2010Prop38
140
0.0
102
RTVSPost2010PropOp38
 70
     1
102
RTVSPost2010Prop39
140
1.0
102
RTVSPost2010PropOp39
 70
     1
102
RTVSPost2010Prop40
 90
        0
102
RTVSPost2010PropOp40
 70
     1
102
RTVSPost2010Prop41ColorIndex
 90
       18
102
RTVSPost2010Prop41ColorRGB
 90
-16777216
102
RTVSPost2010PropOp41
 70
     1
102
RTVSPost2010Prop42
 90
       50
102
RTVSPost2010PropOp42
 70
     1
102
RTVSPost2010Prop43
 90
        3
102
RTVSPost2010PropOp43
 70
     1
102
RTVSPost2010Prop44ColorIndex
 90
        5
102
RTVSPost2010Prop44ColorRGB
 90
      255
102
RTVSPost2010PropOp44
 70
     1
102
RTVSPost2010Prop45
280
     0
102
RTVSPost2010PropOp45
 70
     1
102
RTVSPost2010Prop46
 90
       50
102
RTVSPost2010PropOp46
 70
     1
102
RTVSPost2010Prop47
 90
       50
102
RTVSPost2010PropOp47
 70
     1
102
RTVSPost2010Prop48
 90
       50
102
RTVSPost2010PropOp48
 70
     1
102
RTVSPost2010Prop49
280
     0
102
RTVSPost2010PropOp49
 70
     1
102
RTVSPost2010Prop50
 90
       50
102
RTVSPost2010PropOp50
 70
     1
102
RTVSPost2010Prop51ColorIndex
 90
      256
102
RTVSPost2010Prop51ColorRGB
 90
-16777216
102
RTVSPost2010PropOp51
 70
     0
102
RTVSPost2010Prop52
140
1.0
102
RTVSPost2010PropOp52
 70
     0
102
RTVSPost2010Prop53
 90
        2
102
RTVSPost2010PropOp53
 70
     1
102
RTVSPost2010Prop54
  1
strokes_ogs.tif
102
RTVSPost2010PropOp54
 70
     1
102
RTVSPost2010Prop55
280
     0
102
RTVSPost2010PropOp55
 70
     1
102
RTVSPost2010Prop56
140
1.0
102
RTVSPost2010PropOp56
 70
     1
102
RTVSPost2010Prop57
140
1.0
102
RTVSPost2010PropOp57
 70
     1
102
RTVSPropertyOp0
 70
     1
102
RTVSPropertyOp1
 70
     1
102
RTVSPropertyOp2
 70
     1
102
RTVSPropertyOp3
 70
     1
102
RTVSPropertyOp4
 70
     1
102
RTVSPropertyOp5
 70
     1
102
RTVSPropertyOp6
 70
     1
102
RTVSPropertyOp7
 70
     1
102
RTVSPropertyOp8
 70
     1
102
RTVSPropertyOp9
 70
     1
102
RTVSPropertyOp10
 70
     1
102
RTVSPropertyOp11
 70
     1
102
RTVSPropertyOp12
 70
     1
102
RTVSPropertyOp13
 70
     1
102
RTVSPropertyOp14
 70
     1
102
RTVSPropertyOp15
 70
     1
102
RTVSPropertyOp16
 70
     1
102
RTVSPropertyOp17
 70
     1
102
RTVSPropertyOp18
 70
     1
102
RTVSPropertyOp19
 70
     1
102
RTVSPropertyOp20
 70
     1
102
RTVSPropertyOp21
 70
     1
102
RTVSPropertyOp22
 70
     1
102
RTVSPropertyOp23
 70
     1
102
RTVSPropertyOp24
 70
     1
102
RTVSPropertyOp25
 70
     1
102
RTVSPropertyOp26
 70
     1
102
RTVSPropertyOp27
 70
     1
102
RTVSPropertyOp28
 70
     1
102
RTVSPropertyOp29
 70
     1
102
RTVSPropertyOp30
 70
     1
102
RTVSPropertyOp31
 70
     1
102
RTVSPropertyOp32
 70
     1
102
RTVSPropertyOp33
 70
     1
102
RTVSPropertyOp34
 70
     1
102
RTVSPropertyOp35
 70
     1
102
RTVSPropertyOp36
 70
     1
102
RTVSPropertyOp37
 70
     1
102
RTVSPropertyOp38
 70
     1
102
RTVSPropertyOp39
 70
     1
102
RTVSPropertyOp40
 70
     1
102
RTVSPropertyOp41
 70
     1
102
RTVSPropertyOp42
 70
     1
102
RTVSPropertyOp43
 70
     1
102
RTVSPropertyOp44
 70
     1
102
RTVSPropertyOp45
 70
     1
102
RTVSPropertyOp46
 70
     1
102
RTVSPropertyOp47
 70
     1
102
RTVSPropertyOp48
 70
     1
102
RTVSPropertyOp49
 70
     1
102
RTVSPropertyOp50
 70
     1
102
RTVSPropertyOp51
 70
     0
102
RTVSPropertyOp52
 70
     0
102
RTVSPropertyOp53
 70
     1
102
RTVSPropertyOp54
 70
     1
102
RTVSPropertyOp55
 70
     1
102
RTVSPropertyOp56
 70
     1
102
RTVSPropertyOp57
 70
     1
102
RTVSPropertyOp58
 70
     1
102
RTVSPropertyOp59
 70
     1
102
RTVSPropertyOp60
 70
     1
102
RTVSPropertyOp61
 70
     1
102
RTVSPropertyOp62
 70
     1
  0
XRECORD
  5
D49
102
{ACAD_REACTORS
330
D48
102
}
330
D48
100
AcDbXrecord
280
     1
102
RTVSPost2010Prop28
280
     0
102
RTVSPost2010PropOp28
 70
     1
102
RTVSPost2010Prop29
280
     1
102
RTVSPost2010PropOp29
 70
     1
102
RTVSPost2010Prop30
280
     1
102
RTVSPost2010PropOp30
 70
     1
102
RTVSPost2010Prop31
280
     0
102
RTVSPost2010PropOp31
 70
     1
102
RTVSPost2010Prop32
280
     0
102
RTVSPost2010PropOp32
 70
     1
102
RTVSPost2010Prop33
280
     0
102
RTVSPost2010PropOp33
 70
     1
102
RTVSPost2010Prop34
280
     0
102
RTVSPost2010PropOp34
 70
     1
102
RTVSPost2010Prop35
280
     0
102
RTVSPost2010PropOp35
 70
     1
102
RTVSPost2010Prop36
280
     0
102
RTVSPost2010PropOp36
 70
     1
102
RTVSPost2010Prop37
 90
       50
102
RTVSPost2010PropOp37
 70
     1
102
RTVSPost2010Prop38
140
0.0
102
RTVSPost2010PropOp38
 70
     1
102
RTVSPost2010Prop39
140
1.0
102
RTVSPost2010PropOp39
 70
     1
102
RTVSPost2010Prop40
 90
        0
102
RTVSPost2010PropOp40
 70
     1
102
RTVSPost2010Prop41ColorIndex
 90
       18
102
RTVSPost2010Prop41ColorRGB
 90
-16777216
102
RTVSPost2010PropOp41
 70
     1
102
RTVSPost2010Prop42
 90
       50
102
RTVSPost2010PropOp42
 70
     1
102
RTVSPost2010Prop43
 90
        3
102
RTVSPost2010PropOp43
 70
     1
102
RTVSPost2010Prop44ColorIndex
 90
        5
102
RTVSPost2010Prop44ColorRGB
 90
      255
102
RTVSPost2010PropOp44
 70
     1
102
RTVSPost2010Prop45
280
     0
102
RTVSPost2010PropOp45
 70
     1
102
RTVSPost2010Prop46
 90
       50
102
RTVSPost2010PropOp46
 70
     1
102
RTVSPost2010Prop47
 90
       50
102
RTVSPost2010PropOp47
 70
     1
102
RTVSPost2010Prop48
 90
       50
102
RTVSPost2010PropOp48
 70
     1
102
RTVSPost2010Prop49
280
     0
102
RTVSPost2010PropOp49
 70
     1
102
RTVSPost2010Prop50
 90
       50
102
RTVSPost2010PropOp50
 70
     1
102
RTVSPost2010Prop51ColorIndex
 90
      256
102
RTVSPost2010Prop51ColorRGB
 90
-16777216
102
RTVSPost2010PropOp51
 70
     0
102
RTVSPost2010Prop52
140
1.0
102
RTVSPost2010PropOp52
 70
     0
102
RTVSPost2010Prop53
 90
        2
102
RTVSPost2010PropOp53
 70
     1
102
RTVSPost2010Prop54
  1
strokes_ogs.tif
102
RTVSPost2010PropOp54
 70
     1
102
RTVSPost2010Prop55
280
     0
102
RTVSPost2010PropOp55
 70
     1
102
RTVSPost2010Prop56
140
1.0
102
RTVSPost2010PropOp56
 70
     1
102
RTVSPost2010Prop57
140
1.0
102
RTVSPost2010PropOp57
 70
     1
102
RTVSPropertyOp0
 70
     1
102
RTVSPropertyOp1
 70
     1
102
RTVSPropertyOp2
 70
     1
102
RTVSPropertyOp3
 70
     1
102
RTVSPropertyOp4
 70
     1
102
RTVSPropertyOp5
 70
     1
102
RTVSPropertyOp6
 70
     1
102
RTVSPropertyOp7
 70
     1
102
RTVSPropertyOp8
 70
     1
102
RTVSPropertyOp9
 70
     1
102
RTVSPropertyOp10
 70
     1
102
RTVSPropertyOp11
 70
     1
102
RTVSPropertyOp12
 70
     1
102
RTVSPropertyOp13
 70
     1
102
RTVSPropertyOp14
 70
     1
102
RTVSPropertyOp15
 70
     1
102
RTVSPropertyOp16
 70
     1
102
RTVSPropertyOp17
 70
     1
102
RTVSPropertyOp18
 70
     1
102
RTVSPropertyOp19
 70
     1
102
RTVSPropertyOp20
 70
     1
102
RTVSPropertyOp21
 70
     1
102
RTVSPropertyOp22
 70
     1
102
RTVSPropertyOp23
 70
     1
102
RTVSPropertyOp24
 70
     1
102
RTVSPropertyOp25
 70
     1
102
RTVSPropertyOp26
 70
     1
102
RTVSPropertyOp27
 70
     1
102
RTVSPropertyOp28
 70
     1
102
RTVSPropertyOp29
 70
     1
102
RTVSPropertyOp30
 70
     1
102
RTVSPropertyOp31
 70
     1
102
RTVSPropertyOp32
 70
     1
102
RTVSPropertyOp33
 70
     1
102
RTVSPropertyOp34
 70
     1
102
RTVSPropertyOp35
 70
     1
102
RTVSPropertyOp36
 70
     1
102
RTVSPropertyOp37
 70
     1
102
RTVSPropertyOp38
 70
     1
102
RTVSPropertyOp39
 70
     1
102
RTVSPropertyOp40
 70
     1
102
RTVSPropertyOp41
 70
     1
102
RTVSPropertyOp42
 70
     1
102
RTVSPropertyOp43
 70
     1
102
RTVSPropertyOp44
 70
     1
102
RTVSPropertyOp45
 70
     1
102
RTVSPropertyOp46
 70
     1
102
RTVSPropertyOp47
 70
     1
102
RTVSPropertyOp48
 70
     1
102
RTVSPropertyOp49
 70
     1
102
RTVSPropertyOp50
 70
     1
102
RTVSPropertyOp51
 70
     0
102
RTVSPropertyOp52
 70
     0
102
RTVSPropertyOp53
 70
     1
102
RTVSPropertyOp54
 70
     1
102
RTVSPropertyOp55
 70
     1
102
RTVSPropertyOp56
 70
     1
102
RTVSPropertyOp57
 70
     1
102
RTVSPropertyOp58
 70
     1
102
RTVSPropertyOp59
 70
     1
102
RTVSPropertyOp60
 70
     1
102
RTVSPropertyOp61
 70
     1
102
RTVSPropertyOp62
 70
     1
  0
XRECORD
  5
D43
102
{ACAD_REACTORS
330
D42
102
}
330
D42
100
AcDbXrecord
280
     1
102
RTVSPost2010Prop28
280
     0
102
RTVSPost2010PropOp28
 70
     1
102
RTVSPost2010Prop29
280
     1
102
RTVSPost2010PropOp29
 70
     1
102
RTVSPost2010Prop30
280
     1
102
RTVSPost2010PropOp30
 70
     1
102
RTVSPost2010Prop31
280
     0
102
RTVSPost2010PropOp31
 70
     1
102
RTVSPost2010Prop32
280
     0
102
RTVSPost2010PropOp32
 70
     1
102
RTVSPost2010Prop33
280
     0
102
RTVSPost2010PropOp33
 70
     1
102
RTVSPost2010Prop34
280
     0
102
RTVSPost2010PropOp34
 70
     1
102
RTVSPost2010Prop35
280
     0
102
RTVSPost2010PropOp35
 70
     1
102
RTVSPost2010Prop36
280
     0
102
RTVSPost2010PropOp36
 70
     1
102
RTVSPost2010Prop37
 90
       50
102
RTVSPost2010PropOp37
 70
     1
102
RTVSPost2010Prop38
140
0.0
102
RTVSPost2010PropOp38
 70
     1
102
RTVSPost2010Prop39
140
1.0
102
RTVSPost2010PropOp39
 70
     1
102
RTVSPost2010Prop40
 90
        0
102
RTVSPost2010PropOp40
 70
     1
102
RTVSPost2010Prop41ColorIndex
 90
       18
102
RTVSPost2010Prop41ColorRGB
 90
-16777216
102
RTVSPost2010PropOp41
 70
     1
102
RTVSPost2010Prop42
 90
       50
102
RTVSPost2010PropOp42
 70
     1
102
RTVSPost2010Prop43
 90
        3
102
RTVSPost2010PropOp43
 70
     1
102
RTVSPost2010Prop44ColorIndex
 90
        5
102
RTVSPost2010Prop44ColorRGB
 90
      255
102
RTVSPost2010PropOp44
 70
     1
102
RTVSPost2010Prop45
280
     0
102
RTVSPost2010PropOp45
 70
     1
102
RTVSPost2010Prop46
 90
       50
102
RTVSPost2010PropOp46
 70
     1
102
RTVSPost2010Prop47
 90
       50
102
RTVSPost2010PropOp47
 70
     1
102
RTVSPost2010Prop48
 90
       50
102
RTVSPost2010PropOp48
 70
     1
102
RTVSPost2010Prop49
280
     0
102
RTVSPost2010PropOp49
 70
     1
102
RTVSPost2010Prop50
 90
       50
102
RTVSPost2010PropOp50
 70
     1
102
RTVSPost2010Prop51ColorIndex
 90
      256
102
RTVSPost2010Prop51ColorRGB
 90
-16777216
102
RTVSPost2010PropOp51
 70
     0
102
RTVSPost2010Prop52
140
1.0
102
RTVSPost2010PropOp52
 70
     0
102
RTVSPost2010Prop53
 90
        2
102
RTVSPost2010PropOp53
 70
     1
102
RTVSPost2010Prop54
  1
strokes_ogs.tif
102
RTVSPost2010PropOp54
 70
     1
102
RTVSPost2010Prop55
280
     0
102
RTVSPost2010PropOp55
 70
     1
102
RTVSPost2010Prop56
140
1.0
102
RTVSPost2010PropOp56
 70
     1
102
RTVSPost2010Prop57
140
1.0
102
RTVSPost2010PropOp57
 70
     1
102
RTVSPropertyOp0
 70
     1
102
RTVSPropertyOp1
 70
     1
102
RTVSPropertyOp2
 70
     1
102
RTVSPropertyOp3
 70
     1
102
RTVSPropertyOp4
 70
     1
102
RTVSPropertyOp5
 70
     1
102
RTVSPropertyOp6
 70
     1
102
RTVSPropertyOp7
 70
     1
102
RTVSPropertyOp8
 70
     1
102
RTVSPropertyOp9
 70
     1
102
RTVSPropertyOp10
 70
     1
102
RTVSPropertyOp11
 70
     1
102
RTVSPropertyOp12
 70
     1
102
RTVSPropertyOp13
 70
     1
102
RTVSPropertyOp14
 70
     1
102
RTVSPropertyOp15
 70
     1
102
RTVSPropertyOp16
 70
     1
102
RTVSPropertyOp17
 70
     1
102
RTVSPropertyOp18
 70
     1
102
RTVSPropertyOp19
 70
     1
102
RTVSPropertyOp20
 70
     1
102
RTVSPropertyOp21
 70
     1
102
RTVSPropertyOp22
 70
     1
102
RTVSPropertyOp23
 70
     1
102
RTVSPropertyOp24
 70
     1
102
RTVSPropertyOp25
 70
     1
102
RTVSPropertyOp26
 70
     1
102
RTVSPropertyOp27
 70
     1
102
RTVSPropertyOp28
 70
     1
102
RTVSPropertyOp29
 70
     1
102
RTVSPropertyOp30
 70
     1
102
RTVSPropertyOp31
 70
     1
102
RTVSPropertyOp32
 70
     1
102
RTVSPropertyOp33
 70
     1
102
RTVSPropertyOp34
 70
     1
102
RTVSPropertyOp35
 70
     1
102
RTVSPropertyOp36
 70
     1
102
RTVSPropertyOp37
 70
     1
102
RTVSPropertyOp38
 70
     1
102
RTVSPropertyOp39
 70
     1
102
RTVSPropertyOp40
 70
     1
102
RTVSPropertyOp41
 70
     1
102
RTVSPropertyOp42
 70
     1
102
RTVSPropertyOp43
 70
     1
102
RTVSPropertyOp44
 70
     1
102
RTVSPropertyOp45
 70
     1
102
RTVSPropertyOp46
 70
     1
102
RTVSPropertyOp47
 70
     1
102
RTVSPropertyOp48
 70
     1
102
RTVSPropertyOp49
 70
     1
102
RTVSPropertyOp50
 70
     1
102
RTVSPropertyOp51
 70
     0
102
RTVSPropertyOp52
 70
     0
102
RTVSPropertyOp53
 70
     1
102
RTVSPropertyOp54
 70
     1
102
RTVSPropertyOp55
 70
     1
102
RTVSPropertyOp56
 70
     1
102
RTVSPropertyOp57
 70
     1
102
RTVSPropertyOp58
 70
     1
102
RTVSPropertyOp59
 70
     1
102
RTVSPropertyOp60
 70
     1
102
RTVSPropertyOp61
 70
     1
102
RTVSPropertyOp62
 70
     1
  0
XRECORD
  5
D45
102
{ACAD_REACTORS
330
D44
102
}
330
D44
100
AcDbXrecord
280
     1
102
RTVSPost2010Prop28
280
     0
102
RTVSPost2010PropOp28
 70
     1
102
RTVSPost2010Prop29
280
     1
102
RTVSPost2010PropOp29
 70
     1
102
RTVSPost2010Prop30
280
     1
102
RTVSPost2010PropOp30
 70
     1
102
RTVSPost2010Prop31
280
     0
102
RTVSPost2010PropOp31
 70
     1
102
RTVSPost2010Prop32
280
     0
102
RTVSPost2010PropOp32
 70
     1
102
RTVSPost2010Prop33
280
     0
102
RTVSPost2010PropOp33
 70
     1
102
RTVSPost2010Prop34
280
     0
102
RTVSPost2010PropOp34
 70
     1
102
RTVSPost2010Prop35
280
     0
102
RTVSPost2010PropOp35
 70
     1
102
RTVSPost2010Prop36
280
     0
102
RTVSPost2010PropOp36
 70
     1
102
RTVSPost2010Prop37
 90
       50
102
RTVSPost2010PropOp37
 70
     1
102
RTVSPost2010Prop38
140
0.0
102
RTVSPost2010PropOp38
 70
     1
102
RTVSPost2010Prop39
140
1.0
102
RTVSPost2010PropOp39
 70
     1
102
RTVSPost2010Prop40
 90
        0
102
RTVSPost2010PropOp40
 70
     1
102
RTVSPost2010Prop41ColorIndex
 90
       18
102
RTVSPost2010Prop41ColorRGB
 90
-16777216
102
RTVSPost2010PropOp41
 70
     1
102
RTVSPost2010Prop42
 90
       50
102
RTVSPost2010PropOp42
 70
     1
102
RTVSPost2010Prop43
 90
        3
102
RTVSPost2010PropOp43
 70
     1
102
RTVSPost2010Prop44ColorIndex
 90
        5
102
RTVSPost2010Prop44ColorRGB
 90
      255
102
RTVSPost2010PropOp44
 70
     1
102
RTVSPost2010Prop45
280
     0
102
RTVSPost2010PropOp45
 70
     1
102
RTVSPost2010Prop46
 90
       50
102
RTVSPost2010PropOp46
 70
     1
102
RTVSPost2010Prop47
 90
       50
102
RTVSPost2010PropOp47
 70
     1
102
RTVSPost2010Prop48
 90
       50
102
RTVSPost2010PropOp48
 70
     1
102
RTVSPost2010Prop49
280
     0
102
RTVSPost2010PropOp49
 70
     1
102
RTVSPost2010Prop50
 90
       50
102
RTVSPost2010PropOp50
 70
     1
102
RTVSPost2010Prop51ColorIndex
 90
      256
102
RTVSPost2010Prop51ColorRGB
 90
-16777216
102
RTVSPost2010PropOp51
 70
     0
102
RTVSPost2010Prop52
140
1.0
102
RTVSPost2010PropOp52
 70
     0
102
RTVSPost2010Prop53
 90
        2
102
RTVSPost2010PropOp53
 70
     1
102
RTVSPost2010Prop54
  1
strokes_ogs.tif
102
RTVSPost2010PropOp54
 70
     1
102
RTVSPost2010Prop55
280
     0
102
RTVSPost2010PropOp55
 70
     1
102
RTVSPost2010Prop56
140
1.0
102
RTVSPost2010PropOp56
 70
     1
102
RTVSPost2010Prop57
140
1.0
102
RTVSPost2010PropOp57
 70
     1
102
RTVSPropertyOp0
 70
     1
102
RTVSPropertyOp1
 70
     1
102
RTVSPropertyOp2
 70
     1
102
RTVSPropertyOp3
 70
     1
102
RTVSPropertyOp4
 70
     1
102
RTVSPropertyOp5
 70
     1
102
RTVSPropertyOp6
 70
     1
102
RTVSPropertyOp7
 70
     1
102
RTVSPropertyOp8
 70
     1
102
RTVSPropertyOp9
 70
     1
102
RTVSPropertyOp10
 70
     1
102
RTVSPropertyOp11
 70
     1
102
RTVSPropertyOp12
 70
     1
102
RTVSPropertyOp13
 70
     1
102
RTVSPropertyOp14
 70
     1
102
RTVSPropertyOp15
 70
     1
102
RTVSPropertyOp16
 70
     1
102
RTVSPropertyOp17
 70
     1
102
RTVSPropertyOp18
 70
     1
102
RTVSPropertyOp19
 70
     1
102
RTVSPropertyOp20
 70
     1
102
RTVSPropertyOp21
 70
     1
102
RTVSPropertyOp22
 70
     1
102
RTVSPropertyOp23
 70
     1
102
RTVSPropertyOp24
 70
     1
102
RTVSPropertyOp25
 70
     1
102
RTVSPropertyOp26
 70
     1
102
RTVSPropertyOp27
 70
     1
102
RTVSPropertyOp28
 70
     1
102
RTVSPropertyOp29
 70
     1
102
RTVSPropertyOp30
 70
     1
102
RTVSPropertyOp31
 70
     1
102
RTVSPropertyOp32
 70
     1
102
RTVSPropertyOp33
 70
     1
102
RTVSPropertyOp34
 70
     1
102
RTVSPropertyOp35
 70
     1
102
RTVSPropertyOp36
 70
     1
102
RTVSPropertyOp37
 70
     1
102
RTVSPropertyOp38
 70
     1
102
RTVSPropertyOp39
 70
     1
102
RTVSPropertyOp40
 70
     1
102
RTVSPropertyOp41
 70
     1
102
RTVSPropertyOp42
 70
     1
102
RTVSPropertyOp43
 70
     1
102
RTVSPropertyOp44
 70
     1
102
RTVSPropertyOp45
 70
     1
102
RTVSPropertyOp46
 70
     1
102
RTVSPropertyOp47
 70
     1
102
RTVSPropertyOp48
 70
     1
102
RTVSPropertyOp49
 70
     1
102
RTVSPropertyOp50
 70
     1
102
RTVSPropertyOp51
 70
     0
102
RTVSPropertyOp52
 70
     0
102
RTVSPropertyOp53
 70
     1
102
RTVSPropertyOp54
 70
     1
102
RTVSPropertyOp55
 70
     1
102
RTVSPropertyOp56
 70
     1
102
RTVSPropertyOp57
 70
     1
102
RTVSPropertyOp58
 70
     1
102
RTVSPropertyOp59
 70
     1
102
RTVSPropertyOp60
 70
     1
102
RTVSPropertyOp61
 70
     1
102
RTVSPropertyOp62
 70
     1
  0
XRECORD
  5
D3B
102
{ACAD_REACTORS
330
D3A
102
}
330
D3A
100
AcDbXrecord
280
     1
102
RTVSPost2010Prop28
280
     0
102
RTVSPost2010PropOp28
 70
     1
102
RTVSPost2010Prop29
280
     1
102
RTVSPost2010PropOp29
 70
     1
102
RTVSPost2010Prop30
280
     1
102
RTVSPost2010PropOp30
 70
     1
102
RTVSPost2010Prop31
280
     0
102
RTVSPost2010PropOp31
 70
     1
102
RTVSPost2010Prop32
280
     0
102
RTVSPost2010PropOp32
 70
     1
102
RTVSPost2010Prop33
280
     0
102
RTVSPost2010PropOp33
 70
     1
102
RTVSPost2010Prop34
280
     0
102
RTVSPost2010PropOp34
 70
     1
102
RTVSPost2010Prop35
280
     0
102
RTVSPost2010PropOp35
 70
     1
102
RTVSPost2010Prop36
280
     0
102
RTVSPost2010PropOp36
 70
     1
102
RTVSPost2010Prop37
 90
       50
102
RTVSPost2010PropOp37
 70
     1
102
RTVSPost2010Prop38
140
0.0
102
RTVSPost2010PropOp38
 70
     1
102
RTVSPost2010Prop39
140
1.0
102
RTVSPost2010PropOp39
 70
     1
102
RTVSPost2010Prop40
 90
        0
102
RTVSPost2010PropOp40
 70
     1
102
RTVSPost2010Prop41ColorIndex
 90
       18
102
RTVSPost2010Prop41ColorRGB
 90
-16777216
102
RTVSPost2010PropOp41
 70
     1
102
RTVSPost2010Prop42
 90
       50
102
RTVSPost2010PropOp42
 70
     1
102
RTVSPost2010Prop43
 90
        3
102
RTVSPost2010PropOp43
 70
     1
102
RTVSPost2010Prop44ColorIndex
 90
        5
102
RTVSPost2010Prop44ColorRGB
 90
      255
102
RTVSPost2010PropOp44
 70
     1
102
RTVSPost2010Prop45
280
     0
102
RTVSPost2010PropOp45
 70
     1
102
RTVSPost2010Prop46
 90
       50
102
RTVSPost2010PropOp46
 70
     1
102
RTVSPost2010Prop47
 90
       50
102
RTVSPost2010PropOp47
 70
     1
102
RTVSPost2010Prop48
 90
       50
102
RTVSPost2010PropOp48
 70
     1
102
RTVSPost2010Prop49
280
     0
102
RTVSPost2010PropOp49
 70
     1
102
RTVSPost2010Prop50
 90
       50
102
RTVSPost2010PropOp50
 70
     1
102
RTVSPost2010Prop51ColorIndex
 90
      256
102
RTVSPost2010Prop51ColorRGB
 90
-16777216
102
RTVSPost2010PropOp51
 70
     0
102
RTVSPost2010Prop52
140
1.0
102
RTVSPost2010PropOp52
 70
     0
102
RTVSPost2010Prop53
 90
        2
102
RTVSPost2010PropOp53
 70
     1
102
RTVSPost2010Prop54
  1
strokes_ogs.tif
102
RTVSPost2010PropOp54
 70
     1
102
RTVSPost2010Prop55
280
     0
102
RTVSPost2010PropOp55
 70
     1
102
RTVSPost2010Prop56
140
1.0
102
RTVSPost2010PropOp56
 70
     1
102
RTVSPost2010Prop57
140
1.0
102
RTVSPost2010PropOp57
 70
     1
102
RTVSPropertyOp0
 70
     1
102
RTVSPropertyOp1
 70
     1
102
RTVSPropertyOp2
 70
     1
102
RTVSPropertyOp3
 70
     1
102
RTVSPropertyOp4
 70
     1
102
RTVSPropertyOp5
 70
     1
102
RTVSPropertyOp6
 70
     1
102
RTVSPropertyOp7
 70
     1
102
RTVSPropertyOp8
 70
     1
102
RTVSPropertyOp9
 70
     1
102
RTVSPropertyOp10
 70
     1
102
RTVSPropertyOp11
 70
     1
102
RTVSPropertyOp12
 70
     1
102
RTVSPropertyOp13
 70
     1
102
RTVSPropertyOp14
 70
     1
102
RTVSPropertyOp15
 70
     1
102
RTVSPropertyOp16
 70
     1
102
RTVSPropertyOp17
 70
     1
102
RTVSPropertyOp18
 70
     1
102
RTVSPropertyOp19
 70
     1
102
RTVSPropertyOp20
 70
     1
102
RTVSPropertyOp21
 70
     1
102
RTVSPropertyOp22
 70
     1
102
RTVSPropertyOp23
 70
     1
102
RTVSPropertyOp24
 70
     1
102
RTVSPropertyOp25
 70
     1
102
RTVSPropertyOp26
 70
     1
102
RTVSPropertyOp27
 70
     1
102
RTVSPropertyOp28
 70
     1
102
RTVSPropertyOp29
 70
     1
102
RTVSPropertyOp30
 70
     1
102
RTVSPropertyOp31
 70
     1
102
RTVSPropertyOp32
 70
     1
102
RTVSPropertyOp33
 70
     1
102
RTVSPropertyOp34
 70
     1
102
RTVSPropertyOp35
 70
     1
102
RTVSPropertyOp36
 70
     1
102
RTVSPropertyOp37
 70
     1
102
RTVSPropertyOp38
 70
     1
102
RTVSPropertyOp39
 70
     1
102
RTVSPropertyOp40
 70
     1
102
RTVSPropertyOp41
 70
     1
102
RTVSPropertyOp42
 70
     1
102
RTVSPropertyOp43
 70
     1
102
RTVSPropertyOp44
 70
     1
102
RTVSPropertyOp45
 70
     1
102
RTVSPropertyOp46
 70
     1
102
RTVSPropertyOp47
 70
     1
102
RTVSPropertyOp48
 70
     1
102
RTVSPropertyOp49
 70
     1
102
RTVSPropertyOp50
 70
     1
102
RTVSPropertyOp51
 70
     0
102
RTVSPropertyOp52
 70
     0
102
RTVSPropertyOp53
 70
     1
102
RTVSPropertyOp54
 70
     1
102
RTVSPropertyOp55
 70
     1
102
RTVSPropertyOp56
 70
     1
102
RTVSPropertyOp57
 70
     1
102
RTVSPropertyOp58
 70
     1
102
RTVSPropertyOp59
 70
     1
102
RTVSPropertyOp60
 70
     1
102
RTVSPropertyOp61
 70
     1
102
RTVSPropertyOp62
 70
     1
  0
XRECORD
  5
D2F
102
{ACAD_REACTORS
330
D2E
102
}
330
D2E
100
AcDbXrecord
280
     1
102
RTVSPost2010Prop28
280
     0
102
RTVSPost2010PropOp28
 70
     1
102
RTVSPost2010Prop29
280
     1
102
RTVSPost2010PropOp29
 70
     1
102
RTVSPost2010Prop30
280
     1
102
RTVSPost2010PropOp30
 70
     1
102
RTVSPost2010Prop31
280
     0
102
RTVSPost2010PropOp31
 70
     1
102
RTVSPost2010Prop32
280
     0
102
RTVSPost2010PropOp32
 70
     1
102
RTVSPost2010Prop33
280
     0
102
RTVSPost2010PropOp33
 70
     1
102
RTVSPost2010Prop34
280
     0
102
RTVSPost2010PropOp34
 70
     1
102
RTVSPost2010Prop35
280
     0
102
RTVSPost2010PropOp35
 70
     1
102
RTVSPost2010Prop36
280
     0
102
RTVSPost2010PropOp36
 70
     1
102
RTVSPost2010Prop37
 90
       50
102
RTVSPost2010PropOp37
 70
     1
102
RTVSPost2010Prop38
140
0.0
102
RTVSPost2010PropOp38
 70
     1
102
RTVSPost2010Prop39
140
1.0
102
RTVSPost2010PropOp39
 70
     1
102
RTVSPost2010Prop40
 90
        0
102
RTVSPost2010PropOp40
 70
     1
102
RTVSPost2010Prop41ColorIndex
 90
       18
102
RTVSPost2010Prop41ColorRGB
 90
-16777216
102
RTVSPost2010PropOp41
 70
     1
102
RTVSPost2010Prop42
 90
       50
102
RTVSPost2010PropOp42
 70
     1
102
RTVSPost2010Prop43
 90
        3
102
RTVSPost2010PropOp43
 70
     1
102
RTVSPost2010Prop44ColorIndex
 90
        5
102
RTVSPost2010Prop44ColorRGB
 90
      255
102
RTVSPost2010PropOp44
 70
     1
102
RTVSPost2010Prop45
280
     0
102
RTVSPost2010PropOp45
 70
     1
102
RTVSPost2010Prop46
 90
       50
102
RTVSPost2010PropOp46
 70
     1
102
RTVSPost2010Prop47
 90
       50
102
RTVSPost2010PropOp47
 70
     1
102
RTVSPost2010Prop48
 90
       50
102
RTVSPost2010PropOp48
 70
     1
102
RTVSPost2010Prop49
280
     0
102
RTVSPost2010PropOp49
 70
     1
102
RTVSPost2010Prop50
 90
       50
102
RTVSPost2010PropOp50
 70
     1
102
RTVSPost2010Prop51ColorIndex
 90
      256
102
RTVSPost2010Prop51ColorRGB
 90
-16777216
102
RTVSPost2010PropOp51
 70
     0
102
RTVSPost2010Prop52
140
1.0
102
RTVSPost2010PropOp52
 70
     0
102
RTVSPost2010Prop53
 90
        2
102
RTVSPost2010PropOp53
 70
     1
102
RTVSPost2010Prop54
  1
strokes_ogs.tif
102
RTVSPost2010PropOp54
 70
     1
102
RTVSPost2010Prop55
280
     0
102
RTVSPost2010PropOp55
 70
     1
102
RTVSPost2010Prop56
140
1.0
102
RTVSPost2010PropOp56
 70
     1
102
RTVSPost2010Prop57
140
1.0
102
RTVSPost2010PropOp57
 70
     1
102
RTVSPropertyOp0
 70
     1
102
RTVSPropertyOp1
 70
     1
102
RTVSPropertyOp2
 70
     1
102
RTVSPropertyOp3
 70
     1
102
RTVSPropertyOp4
 70
     1
102
RTVSPropertyOp5
 70
     1
102
RTVSPropertyOp6
 70
     1
102
RTVSPropertyOp7
 70
     1
102
RTVSPropertyOp8
 70
     1
102
RTVSPropertyOp9
 70
     1
102
RTVSPropertyOp10
 70
     1
102
RTVSPropertyOp11
 70
     1
102
RTVSPropertyOp12
 70
     1
102
RTVSPropertyOp13
 70
     1
102
RTVSPropertyOp14
 70
     1
102
RTVSPropertyOp15
 70
     1
102
RTVSPropertyOp16
 70
     1
102
RTVSPropertyOp17
 70
     1
102
RTVSPropertyOp18
 70
     1
102
RTVSPropertyOp19
 70
     1
102
RTVSPropertyOp20
 70
     1
102
RTVSPropertyOp21
 70
     1
102
RTVSPropertyOp22
 70
     1
102
RTVSPropertyOp23
 70
     1
102
RTVSPropertyOp24
 70
     1
102
RTVSPropertyOp25
 70
     1
102
RTVSPropertyOp26
 70
     1
102
RTVSPropertyOp27
 70
     1
102
RTVSPropertyOp28
 70
     1
102
RTVSPropertyOp29
 70
     1
102
RTVSPropertyOp30
 70
     1
102
RTVSPropertyOp31
 70
     1
102
RTVSPropertyOp32
 70
     1
102
RTVSPropertyOp33
 70
     1
102
RTVSPropertyOp34
 70
     1
102
RTVSPropertyOp35
 70
     1
102
RTVSPropertyOp36
 70
     1
102
RTVSPropertyOp37
 70
     1
102
RTVSPropertyOp38
 70
     1
102
RTVSPropertyOp39
 70
     1
102
RTVSPropertyOp40
 70
     1
102
RTVSPropertyOp41
 70
     1
102
RTVSPropertyOp42
 70
     1
102
RTVSPropertyOp43
 70
     1
102
RTVSPropertyOp44
 70
     1
102
RTVSPropertyOp45
 70
     1
102
RTVSPropertyOp46
 70
     1
102
RTVSPropertyOp47
 70
     1
102
RTVSPropertyOp48
 70
     1
102
RTVSPropertyOp49
 70
     1
102
RTVSPropertyOp50
 70
     1
102
RTVSPropertyOp51
 70
     0
102
RTVSPropertyOp52
 70
     0
102
RTVSPropertyOp53
 70
     1
102
RTVSPropertyOp54
 70
     1
102
RTVSPropertyOp55
 70
     1
102
RTVSPropertyOp56
 70
     1
102
RTVSPropertyOp57
 70
     1
102
RTVSPropertyOp58
 70
     1
102
RTVSPropertyOp59
 70
     1
102
RTVSPropertyOp60
 70
     1
102
RTVSPropertyOp61
 70
     1
102
RTVSPropertyOp62
 70
     1
  0
XRECORD
  5
D47
102
{ACAD_REACTORS
330
D46
102
}
330
D46
100
AcDbXrecord
280
     1
102
RTVSPost2010Prop28
280
     0
102
RTVSPost2010PropOp28
 70
     1
102
RTVSPost2010Prop29
280
     1
102
RTVSPost2010PropOp29
 70
     1
102
RTVSPost2010Prop30
280
     1
102
RTVSPost2010PropOp30
 70
     1
102
RTVSPost2010Prop31
280
     0
102
RTVSPost2010PropOp31
 70
     1
102
RTVSPost2010Prop32
280
     0
102
RTVSPost2010PropOp32
 70
     1
102
RTVSPost2010Prop33
280
     0
102
RTVSPost2010PropOp33
 70
     1
102
RTVSPost2010Prop34
280
     0
102
RTVSPost2010PropOp34
 70
     1
102
RTVSPost2010Prop35
280
     0
102
RTVSPost2010PropOp35
 70
     1
102
RTVSPost2010Prop36
280
     0
102
RTVSPost2010PropOp36
 70
     1
102
RTVSPost2010Prop37
 90
       50
102
RTVSPost2010PropOp37
 70
     1
102
RTVSPost2010Prop38
140
0.0
102
RTVSPost2010PropOp38
 70
     1
102
RTVSPost2010Prop39
140
1.0
102
RTVSPost2010PropOp39
 70
     1
102
RTVSPost2010Prop40
 90
        0
102
RTVSPost2010PropOp40
 70
     1
102
RTVSPost2010Prop41ColorIndex
 90
       18
102
RTVSPost2010Prop41ColorRGB
 90
-16777216
102
RTVSPost2010PropOp41
 70
     1
102
RTVSPost2010Prop42
 90
       50
102
RTVSPost2010PropOp42
 70
     1
102
RTVSPost2010Prop43
 90
        3
102
RTVSPost2010PropOp43
 70
     1
102
RTVSPost2010Prop44ColorIndex
 90
        5
102
RTVSPost2010Prop44ColorRGB
 90
      255
102
RTVSPost2010PropOp44
 70
     1
102
RTVSPost2010Prop45
280
     0
102
RTVSPost2010PropOp45
 70
     1
102
RTVSPost2010Prop46
 90
       50
102
RTVSPost2010PropOp46
 70
     1
102
RTVSPost2010Prop47
 90
       50
102
RTVSPost2010PropOp47
 70
     1
102
RTVSPost2010Prop48
 90
       50
102
RTVSPost2010PropOp48
 70
     1
102
RTVSPost2010Prop49
280
     0
102
RTVSPost2010PropOp49
 70
     1
102
RTVSPost2010Prop50
 90
       50
102
RTVSPost2010PropOp50
 70
     1
102
RTVSPost2010Prop51ColorIndex
 90
      256
102
RTVSPost2010Prop51ColorRGB
 90
-16777216
102
RTVSPost2010PropOp51
 70
     0
102
RTVSPost2010Prop52
140
1.0
102
RTVSPost2010PropOp52
 70
     0
102
RTVSPost2010Prop53
 90
        2
102
RTVSPost2010PropOp53
 70
     1
102
RTVSPost2010Prop54
  1
strokes_ogs.tif
102
RTVSPost2010PropOp54
 70
     1
102
RTVSPost2010Prop55
280
     0
102
RTVSPost2010PropOp55
 70
     1
102
RTVSPost2010Prop56
140
1.0
102
RTVSPost2010PropOp56
 70
     1
102
RTVSPost2010Prop57
140
1.0
102
RTVSPost2010PropOp57
 70
     1
102
RTVSPropertyOp0
 70
     1
102
RTVSPropertyOp1
 70
     1
102
RTVSPropertyOp2
 70
     1
102
RTVSPropertyOp3
 70
     1
102
RTVSPropertyOp4
 70
     1
102
RTVSPropertyOp5
 70
     1
102
RTVSPropertyOp6
 70
     1
102
RTVSPropertyOp7
 70
     1
102
RTVSPropertyOp8
 70
     1
102
RTVSPropertyOp9
 70
     1
102
RTVSPropertyOp10
 70
     1
102
RTVSPropertyOp11
 70
     1
102
RTVSPropertyOp12
 70
     1
102
RTVSPropertyOp13
 70
     1
102
RTVSPropertyOp14
 70
     1
102
RTVSPropertyOp15
 70
     1
102
RTVSPropertyOp16
 70
     1
102
RTVSPropertyOp17
 70
     1
102
RTVSPropertyOp18
 70
     1
102
RTVSPropertyOp19
 70
     1
102
RTVSPropertyOp20
 70
     1
102
RTVSPropertyOp21
 70
     1
102
RTVSPropertyOp22
 70
     1
102
RTVSPropertyOp23
 70
     1
102
RTVSPropertyOp24
 70
     1
102
RTVSPropertyOp25
 70
     1
102
RTVSPropertyOp26
 70
     1
102
RTVSPropertyOp27
 70
     1
102
RTVSPropertyOp28
 70
     1
102
RTVSPropertyOp29
 70
     1
102
RTVSPropertyOp30
 70
     1
102
RTVSPropertyOp31
 70
     1
102
RTVSPropertyOp32
 70
     1
102
RTVSPropertyOp33
 70
     1
102
RTVSPropertyOp34
 70
     1
102
RTVSPropertyOp35
 70
     1
102
RTVSPropertyOp36
 70
     1
102
RTVSPropertyOp37
 70
     1
102
RTVSPropertyOp38
 70
     1
102
RTVSPropertyOp39
 70
     1
102
RTVSPropertyOp40
 70
     1
102
RTVSPropertyOp41
 70
     1
102
RTVSPropertyOp42
 70
     1
102
RTVSPropertyOp43
 70
     1
102
RTVSPropertyOp44
 70
     1
102
RTVSPropertyOp45
 70
     1
102
RTVSPropertyOp46
 70
     1
102
RTVSPropertyOp47
 70
     1
102
RTVSPropertyOp48
 70
     1
102
RTVSPropertyOp49
 70
     1
102
RTVSPropertyOp50
 70
     1
102
RTVSPropertyOp51
 70
     0
102
RTVSPropertyOp52
 70
     0
102
RTVSPropertyOp53
 70
     1
102
RTVSPropertyOp54
 70
     1
102
RTVSPropertyOp55
 70
     1
102
RTVSPropertyOp56
 70
     1
102
RTVSPropertyOp57
 70
     1
102
RTVSPropertyOp58
 70
     1
102
RTVSPropertyOp59
 70
     1
102
RTVSPropertyOp60
 70
     1
102
RTVSPropertyOp61
 70
     1
102
RTVSPropertyOp62
 70
     1
  0
ENDSEC
  0
EOF
