  0
SECTION
  2
HEADER
  9
$ACADVER
  1
AC1015
  9
$ACADMAINTVER
 70
    20
  9
$DWGCODEPAGE
  3
ANSI_1252
  9
$INSBASE
 10
0.0
 20
0.0
 30
0.0
  9
$EXTMIN
 10
0.0
 20
-0.000000000000004
 30
0.0
  9
$EXTMAX
 10
34.0
 20
22.0
 30
0.0
  9
$LIMMIN
 10
0.0
 20
0.0
  9
$LIMMAX
 10
12.0
 20
9.0
  9
$ORTHOMODE
 70
     0
  9
$REGENMODE
 70
     1
  9
$FILLMODE
 70
     1
  9
$QTEXTMODE
 70
     0
  9
$MIRRTEXT
 70
     1
  9
$LTSCALE
 40
2.0
  9
$ATTMODE
 70
     1
  9
$TEXTSIZE
 40
0.078
  9
$TRACEWID
 40
0.05
  9
$TEXTSTYLE
  7
SIMPLEX
  9
$CLAYER
  8
0
  9
$CELTYPE
  6
BYLAYER
  9
$CECOLOR
 62
   256
  9
$CELTSCALE
 40
1.0
  9
$DISPSILH
 70
     0
  9
$DIMSCALE
 40
2.0
  9
$DIMASZ
 40
0.125
  9
$DIMEXO
 40
0.0625
  9
$DIMDLI
 40
0.38
  9
$DIMRND
 40
0.0
  9
$DIMDLE
 40
0.0
  9
$DIMEXE
 40
0.0625
  9
$DIMTP
 40
0.0
  9
$DIMTM
 40
0.0
  9
$DIMTXT
 40
0.125
  9
$DIMCEN
 40
-0.125
  9
$DIMTSZ
 40
0.0
  9
$DIMTOL
 70
     0
  9
$DIMLIM
 70
     0
  9
$DIMTIH
 70
     1
  9
$DIMTOH
 70
     1
  9
$DIMSE1
 70
     0
  9
$DIMSE2
 70
     0
  9
$DIMTAD
 70
     0
  9
$DIMZIN
 70
     4
  9
$DIMBLK
  1

  9
$DIMASO
 70
     1
  9
$DIMSHO
 70
     0
  9
$DIMPOST
  1

  9
$DIMAPOST
  1

  9
$DIMALT
 70
     0
  9
$DIMALTD
 70
     2
  9
$DIMALTF
 40
25.4
  9
$DIMLFAC
 40
1.0
  9
$DIMTOFL
 70
     0
  9
$DIMTVP
 40
0.0
  9
$DIMTIX
 70
     0
  9
$DIMSOXD
 70
     0
  9
$DIMSAH
 70
     0
  9
$DIMBLK1
  1

  9
$DIMBLK2
  1

  9
$DIMSTYLE
  2
STANDARD
  9
$DIMCLRD
 70
     0
  9
$DIMCLRE
 70
     0
  9
$DIMCLRT
 70
     0
  9
$DIMTFAC
 40
1.0
  9
$DIMGAP
 40
0.09
  9
$DIMJUST
 70
     0
  9
$DIMSD1
 70
     0
  9
$DIMSD2
 70
     0
  9
$DIMTOLJ
 70
     1
  9
$DIMTZIN
 70
     4
  9
$DIMALTZ
 70
     4
  9
$DIMALTTZ
 70
     4
  9
$DIMUPT
 70
     0
  9
$DIMDEC
 70
     5
  9
$DIMTDEC
 70
     3
  9
$DIMALTU
 70
     2
  9
$DIMALTTD
 70
     2
  9
$DIMTXSTY
  7
SIMPLEX
  9
$DIMAUNIT
 70
     0
  9
$DIMADEC
 70
     0
  9
$DIMALTRND
 40
0.0
  9
$DIMAZIN
 70
     0
  9
$DIMDSEP
 70
    46
  9
$DIMATFIT
 70
     3
  9
$DIMFRAC
 70
     0
  9
$DIMLDRBLK
  1

  9
$DIMLUNIT
 70
     5
  9
$DIMLWD
 70
    -2
  9
$DIMLWE
 70
    -2
  9
$DIMTMOVE
 70
     2
  9
$LUNITS
 70
     2
  9
$LUPREC
 70
     3
  9
$SKETCHINC
 40
0.1
  9
$FILLETRAD
 40
0.0
  9
$AUNITS
 70
     0
  9
$AUPREC
 70
     2
  9
$MENU
  1
ACAD
  9
$ELEVATION
 40
0.0
  9
$PELEVATION
 40
0.0
  9
$THICKNESS
 40
0.0
  9
$LIMCHECK
 70
     0
  9
$CHAMFERA
 40
0.0
  9
$CHAMFERB
 40
0.0
  9
$CHAMFERC
 40
0.0
  9
$CHAMFERD
 40
0.0
  9
$SKPOLY
 70
     0
  9
$TDCREATE
 40
2447600.588331482
  9
$TDUCREATE
 40
2447600.754998148
  9
$TDUPDATE
 40
2457155.487380556
  9
$TDUUPDATE
 40
2457155.654047222
  9
$TDINDWG
 40
0.2046710880
  9
$TDUSRTIMER
 40
0.2046710764
  9
$USRTIMER
 70
     1
  9
$ANGBASE
 50
0.0
  9
$ANGDIR
 70
     0
  9
$PDMODE
 70
     0
  9
$PDSIZE
 40
0.0
  9
$PLINEWID
 40
0.0
  9
$SPLFRAME
 70
     0
  9
$SPLINETYPE
 70
     6
  9
$SPLINESEGS
 70
     8
  9
$HANDSEED
  5
F98
  9
$SURFTAB1
 70
     6
  9
$SURFTAB2
 70
     6
  9
$SURFTYPE
 70
     6
  9
$SURFU
 70
     6
  9
$SURFV
 70
     6
  9
$UCSBASE
  2

  9
$UCSNAME
  2

  9
$UCSORG
 10
0.0
 20
0.0
 30
0.0
  9
$UCSXDIR
 10
1.0
 20
0.0
 30
0.0
  9
$UCSYDIR
 10
0.0
 20
1.0
 30
0.0
  9
$UCSORTHOREF
  2

  9
$UCSORTHOVIEW
 70
     0
  9
$UCSORGTOP
 10
0.0
 20
0.0
 30
0.0
  9
$UCSORGBOTTOM
 10
0.0
 20
0.0
 30
0.0
  9
$UCSORGLEFT
 10
0.0
 20
0.0
 30
0.0
  9
$UCSORGRIGHT
 10
0.0
 20
0.0
 30
0.0
  9
$UCSORGFRONT
 10
0.0
 20
0.0
 30
0.0
  9
$UCSORGBACK
 10
0.0
 20
0.0
 30
0.0
  9
$PUCSBASE
  2

  9
$PUCSNAME
  2

  9
$PUCSORG
 10
0.0
 20
0.0
 30
0.0
  9
$PUCSXDIR
 10
1.0
 20
0.0
 30
0.0
  9
$PUCSYDIR
 10
0.0
 20
1.0
 30
0.0
  9
$PUCSORTHOREF
  2

  9
$PUCSORTHOVIEW
 70
     0
  9
$PUCSORGTOP
 10
0.0
 20
0.0
 30
0.0
  9
$PUCSORGBOTTOM
 10
0.0
 20
0.0
 30
0.0
  9
$PUCSORGLEFT
 10
0.0
 20
0.0
 30
0.0
  9
$PUCSORGRIGHT
 10
0.0
 20
0.0
 30
0.0
  9
$PUCSORGFRONT
 10
0.0
 20
0.0
 30
0.0
  9
$PUCSORGBACK
 10
0.0
 20
0.0
 30
0.0
  9
$USERI1
 70
     0
  9
$USERI2
 70
     0
  9
$USERI3
 70
     0
  9
$USERI4
 70
     0
  9
$USERI5
 70
     0
  9
$USERR1
 40
0.0
  9
$USERR2
 40
0.0
  9
$USERR3
 40
0.0
  9
$USERR4
 40
0.0
  9
$USERR5
 40
0.0
  9
$WORLDVIEW
 70
     1
  9
$SHADEDGE
 70
     3
  9
$SHADEDIF
 70
    70
  9
$TILEMODE
 70
     1
  9
$MAXACTVP
 70
    16
  9
$PINSBASE
 10
0.0
 20
0.0
 30
0.0
  9
$PLIMCHECK
 70
     0
  9
$PEXTMIN
 10
1.000000000000000E+20
 20
1.000000000000000E+20
 30
1.000000000000000E+20
  9
$PEXTMAX
 10
-1.000000000000000E+20
 20
-1.000000000000000E+20
 30
-1.000000000000000E+20
  9
$PLIMMIN
 10
0.0
 20
0.0
  9
$PLIMMAX
 10
12.0
 20
9.0
  9
$UNITMODE
 70
     0
  9
$VISRETAIN
 70
     0
  9
$PLINEGEN
 70
     0
  9
$PSLTSCALE
 70
     0
  9
$TREEDEPTH
 70
  3020
  9
$CMLSTYLE
  2
STANDARD
  9
$CMLJUST
 70
     0
  9
$CMLSCALE
 40
1.0
  9
$PROXYGRAPHICS
 70
     1
  9
$MEASUREMENT
 70
     0
  9
$CELWEIGHT
370
    -1
  9
$ENDCAPS
280
     0
  9
$JOINSTYLE
280
     0
  9
$LWDISPLAY
290
     0
  9
$INSUNITS
 70
     0
  9
$HYPERLINKBASE
  1

  9
$STYLESHEET
  1

  9
$XEDIT
290
     1
  9
$CEPSNTYPE
380
     0
  9
$PSTYLEMODE
290
     1
  9
$FINGERPRINTGUID
  2
{EC26BE42-671C-42C2-B505-B0B4C3E2E44F}
  9
$VERSIONGUID
  2
{669C87DC-88B7-4991-AA02-AF53064E992D}
  9
$EXTNAMES
290
     1
  9
$PSVPSCALE
 40
0.0
  9
$OLESTARTUP
290
     0
  0
ENDSEC
  0
SECTION
  2
CLASSES
  0
CLASS
  1
DICTIONARYVAR
  2
AcDbDictionaryVar
  3
ObjectDBX Classes
 90
        0
280
     0
281
     0
  0
CLASS
  1
ACDBDICTIONARYWDFLT
  2
AcDbDictionaryWithDefault
  3
ObjectDBX Classes
 90
        0
280
     0
281
     0
  0
CLASS
  1
MATERIAL
  2
AcDbMaterial
  3
ObjectDBX Classes
 90
     1153
280
     0
281
     0
  0
CLASS
  1
VISUALSTYLE
  2
AcDbVisualStyle
  3
ObjectDBX Classes
 90
     4095
280
     0
281
     0
  0
CLASS
  1
TABLESTYLE
  2
AcDbTableStyle
  3
ObjectDBX Classes
 90
     4095
280
     0
281
     0
  0
CLASS
  1
SCALE
  2
AcDbScale
  3
ObjectDBX Classes
 90
     1153
280
     0
281
     0
  0
CLASS
  1
MLEADERSTYLE
  2
AcDbMLeaderStyle
  3
ACDB_MLEADERSTYLE_CLASS
 90
     4095
280
     0
281
     0
  0
CLASS
  1
ACDBSECTIONVIEWSTYLE
  2
AcDbSectionViewStyle
  3
ObjectDBX Classes
 90
     1025
280
     0
281
     0
  0
CLASS
  1
ACDBDETAILVIEWSTYLE
  2
AcDbDetailViewStyle
  3
ObjectDBX Classes
 90
     1025
280
     0
281
     0
  0
CLASS
  1
CELLSTYLEMAP
  2
AcDbCellStyleMap
  3
ObjectDBX Classes
 90
     1152
280
     0
281
     0
  0
CLASS
  1
ACDBPLACEHOLDER
  2
AcDbPlaceHolder
  3
ObjectDBX Classes
 90
        0
280
     0
281
     0
  0
CLASS
  1
LAYOUT
  2
AcDbLayout
  3
ObjectDBX Classes
 90
        0
280
     0
281
     0
  0
ENDSEC
  0
SECTION
  2
TABLES
  0
TABLE
  2
VPORT
  5
8
102
{ACAD_XDICTIONARY
360
EA3
102
}
330
0
100
AcDbSymbolTable
 70
     1
  0
VPORT
  5
E24
330
8
100
AcDbSymbolTableRecord
100
AcDbViewportTableRecord
  2
*ACTIVE
 70
     0
 10
0.0
 20
0.0
 11
1.0
 21
1.0
 12
16.99870328002802
 22
12.22301039657449
 13
0.0
 23
0.0
 14
1.0
 24
1.0
 15
0.0
 25
0.0
 16
0.0
 26
0.0
 36
1.0
 17
0.0
 27
0.0
 37
0.0
 40
22.96986594687424
 41
2.080545229244113
 42
50.0
 43
0.0
 44
0.0
 50
0.0
 51
0.0
 71
     0
 72
   250
 73
     1
 74
     0
 75
     0
 76
     0
 77
     0
 78
     0
281
     0
 65
     1
110
0.0
120
0.0
130
0.0
111
1.0
121
0.0
131
0.0
112
0.0
122
1.0
132
0.0
 79
     0
146
0.0
1001
ACAD_NAV_VCDISPLAY
1070
     3
  0
ENDTAB
  0
TABLE
  2
LTYPE
  5
5
330
0
100
AcDbSymbolTable
 70
     3
  0
LTYPE
  5
11
330
5
100
AcDbSymbolTableRecord
100
AcDbLinetypeTableRecord
  2
BYBLOCK
 70
     0
  3

 72
    65
 73
     0
 40
0.0
  0
LTYPE
  5
12
330
5
100
AcDbSymbolTableRecord
100
AcDbLinetypeTableRecord
  2
BYLAYER
 70
     0
  3

 72
    65
 73
     0
 40
0.0
  0
LTYPE
  5
13
330
5
100
AcDbSymbolTableRecord
100
AcDbLinetypeTableRecord
  2
CONTINUOUS
 70
     0
  3
Solid line
 72
    65
 73
     0
 40
0.0
  0
LTYPE
  5
21
330
5
100
AcDbSymbolTableRecord
100
AcDbLinetypeTableRecord
  2
HIDDEN
 70
     0
  3

 72
    65
 73
     2
 40
0.124
 49
0.062
 74
     0
 49
-0.062
 74
     0
  0
LTYPE
  5
22
330
5
100
AcDbSymbolTableRecord
100
AcDbLinetypeTableRecord
  2
CENTER
 70
     0
  3

 72
    65
 73
     4
 40
1.125
 49
0.75
 74
     0
 49
-0.125
 74
     0
 49
0.125
 74
     0
 49
-0.125
 74
     0
  0
ENDTAB
  0
TABLE
  2
LAYER
  5
2
102
{ACAD_XDICTIONARY
360
E91
102
}
330
0
100
AcDbSymbolTable
 70
     6
  0
LAYER
  5
E
102
{ACAD_XDICTIONARY
360
E84
102
}
330
2
100
AcDbSymbolTableRecord
100
AcDbLayerTableRecord
  2
0
 70
     0
 62
     7
  6
CONTINUOUS
370
    -3
390
E27
  0
LAYER
  5
26
102
{ACAD_XDICTIONARY
360
E86
102
}
330
2
100
AcDbSymbolTableRecord
100
AcDbLayerTableRecord
  2
2
 70
     0
 62
     2
  6
CONTINUOUS
370
    -3
390
E27
  0
LAYER
  5
27
102
{ACAD_XDICTIONARY
360
E88
102
}
330
2
100
AcDbSymbolTableRecord
100
AcDbLayerTableRecord
  2
3
 70
     0
 62
     3
  6
CONTINUOUS
370
    -3
390
E27
  0
LAYER
  5
28
102
{ACAD_XDICTIONARY
360
E8A
102
}
330
2
100
AcDbSymbolTableRecord
100
AcDbLayerTableRecord
  2
4
 70
     0
 62
     4
  6
CONTINUOUS
370
    -3
390
E27
  0
LAYER
  5
BA7
102
{ACAD_XDICTIONARY
360
E8C
102
}
330
2
100
AcDbSymbolTableRecord
100
AcDbLayerTableRecord
  2
CCC
 70
     0
 62
     6
  6
CONTINUOUS
370
    -3
390
E27
  0
LAYER
  5
BA8
330
2
100
AcDbSymbolTableRecord
100
AcDbLayerTableRecord
  2
DEFPOINTS
 70
     0
 62
     7
  6
CONTINUOUS
290
     0
370
    -3
390
E27
  0
ENDTAB
  0
TABLE
  2
STYLE
  5
3
330
0
100
AcDbSymbolTable
 70
     4
  0
STYLE
  5
F
330
3
100
AcDbSymbolTableRecord
100
AcDbTextStyleTableRecord
  2
STANDARD
 70
     0
 40
0.0
 41
1.0
 50
0.0
 71
     0
 42
0.2
  3
txt
  4

  0
STYLE
  5
1C
330
3
100
AcDbSymbolTableRecord
100
AcDbTextStyleTableRecord
  2
SIMPLEX
 70
     0
 40
0.0
 41
1.0
 50
0.0
 71
     0
 42
0.078
  3
SIMPLEX.shx
  4

  0
STYLE
  5
1D
330
3
100
AcDbSymbolTableRecord
100
AcDbTextStyleTableRecord
  2
MED
 70
     0
 40
0.25
 41
1.0
 50
0.0
 71
     0
 42
0.25
  3
ROMANS
  4

  0
STYLE
  5
1E
330
3
100
AcDbSymbolTableRecord
100
AcDbTextStyleTableRecord
  2
T
 70
     0
 40
0.0
 41
1.0
 50
0.0
 71
     0
 42
1.0
  3
ROMI____.PFB
  4

  0
ENDTAB
  0
TABLE
  2
VIEW
  5
6
330
0
100
AcDbSymbolTable
 70
     0
  0
ENDTAB
  0
TABLE
  2
UCS
  5
7
330
0
100
AcDbSymbolTable
 70
     0
  0
ENDTAB
  0
TABLE
  2
APPID
  5
9
330
0
100
AcDbSymbolTable
 70
     3
  0
APPID
  5
10
330
9
100
AcDbSymbolTableRecord
100
AcDbRegAppTableRecord
  2
ACAD
 70
     0
  0
APPID
  5
E97
330
9
100
AcDbSymbolTableRecord
100
AcDbRegAppTableRecord
  2
ACAD_NAV_VCDISPLAY
 70
     0
  0
APPID
  5
ED9
330
9
100
AcDbSymbolTableRecord
100
AcDbRegAppTableRecord
  2
ACAD_MLEADERVER
 70
     0
  0
ENDTAB
  0
TABLE
  2
DIMSTYLE
  5
A
330
0
100
AcDbSymbolTable
 70
     1
100
AcDbDimStyleTable
 71
     1
340
B0E
  0
DIMSTYLE
105
B0E
102
{ACAD_REACTORS
330
BF2
330
C35
330
DAE
330
DB8
102
}
330
A
100
AcDbSymbolTableRecord
100
AcDbDimStyleTableRecord
  2
STANDARD
 70
     0
340
F
  0
ENDTAB
  0
TABLE
  2
BLOCK_RECORD
  5
1
330
0
100
AcDbSymbolTable
 70
     4
  0
BLOCK_RECORD
  5
17
330
1
100
AcDbSymbolTableRecord
100
AcDbBlockTableRecord
  2
*MODEL_SPACE
340
E77
  0
BLOCK_RECORD
  5
14
330
1
100
AcDbSymbolTableRecord
100
AcDbBlockTableRecord
  2
*PAPER_SPACE
340
E78
  0
BLOCK_RECORD
  5
BE5
330
1
100
AcDbSymbolTableRecord
100
AcDbBlockTableRecord
  2
*D0
340
0
  0
BLOCK_RECORD
  5
C28
330
1
100
AcDbSymbolTableRecord
100
AcDbBlockTableRecord
  2
*D1
340
0
  0
BLOCK_RECORD
  5
DBB
330
1
100
AcDbSymbolTableRecord
100
AcDbBlockTableRecord
  2
*D2
340
0
  0
BLOCK_RECORD
  5
DD6
330
1
100
AcDbSymbolTableRecord
100
AcDbBlockTableRecord
  2
*D3
340
0
  0
ENDTAB
  0
ENDSEC
  0
SECTION
  2
BLOCKS
  0
BLOCK
  5
2C
330
17
100
AcDbEntity
  8
0
100
AcDbBlockBegin
  2
*MODEL_SPACE
 70
     0
 10
0.0
 20
0.0
 30
0.0
  3
*MODEL_SPACE
  1

  0
ENDBLK
  5
2D
330
17
100
AcDbEntity
  8
0
100
AcDbBlockEnd
  0
BLOCK
  5
2A
330
14
100
AcDbEntity
 67
     1
  8
0
100
AcDbBlockBegin
  2
*PAPER_SPACE
 70
     0
 10
0.0
 20
0.0
 30
0.0
  3
*PAPER_SPACE
  1

  0
ENDBLK
  5
2B
330
14
100
AcDbEntity
 67
     1
  8
0
100
AcDbBlockEnd
  0
BLOCK
  5
D2B
330
BE5
100
AcDbEntity
  8
0
100
AcDbBlockBegin
  2
*D0
 70
     1
 10
0.0
 20
0.0
 30
0.0
  3
*D0
  1

  0
LINE
  5
D2C
330
BE5
100
AcDbEntity
  8
0
  6
ByBlock
 62
     0
100
AcDbLine
 10
7.271397605412929
 20
7.035107958258612
 30
0.0
 11
4.434645201471563
 21
7.035107958258613
 31
0.0
  0
LINE
  5
D2D
330
BE5
100
AcDbEntity
  8
0
  6
ByBlock
 62
     0
100
AcDbLine
 10
7.271397605412929
 20
11.03510795825861
 30
0.0
 11
4.434645201471563
 21
11.03510795825861
 31
0.0
  0
LINE
  5
D2E
330
BE5
100
AcDbEntity
  8
0
  6
ByBlock
 62
     0
100
AcDbLine
 10
4.559645201471563
 20
7.285107958258613
 30
0.0
 11
4.559645201471563
 21
8.730107958258614
 31
0.0
  0
LINE
  5
D2F
330
BE5
100
AcDbEntity
  8
0
  6
ByBlock
 62
     0
100
AcDbLine
 10
4.559645201471563
 20
10.78510795825861
 30
0.0
 11
4.559645201471563
 21
9.340107958258613
 31
0.0
  0
SOLID
  5
D30
330
BE5
100
AcDbEntity
  8
0
  6
ByBlock
 62
     0
100
AcDbTrace
 10
4.517978534804896
 20
7.285107958258613
 30
0.0
 11
4.60131186813823
 21
7.285107958258613
 31
0.0
 12
4.559645201471563
 22
7.035107958258613
 32
0.0
 13
4.559645201471563
 23
7.035107958258613
 33
0.0
  0
SOLID
  5
D31
330
BE5
100
AcDbEntity
  8
0
  6
ByBlock
 62
     0
100
AcDbTrace
 10
4.517978534804896
 20
10.78510795825861
 30
0.0
 11
4.601311868138231
 21
10.78510795825861
 31
0.0
 12
4.559645201471563
 22
11.03510795825861
 32
0.0
 13
4.559645201471563
 23
11.03510795825861
 33
0.0
  0
MTEXT
  5
D32
330
BE5
100
AcDbEntity
  8
0
  6
ByBlock
 62
     0
100
AcDbMText
 10
4.559645201471563
 20
9.035107958258613
 30
0.0
 40
0.25
 41
0.0
 71
     5
 72
     1
  1
\A1;4
  7
SIMPLEX
 73
     1
 44
1.0
1001
ACAD
1000
MTEXTBEGIN
1070
    73
1070
     1
1070
    44
1040
1.0
1070
    74
1070
     0
1000
MTEXTEND
  0
POINT
  5
D33
330
BE5
100
AcDbEntity
  8
DEFPOINTS
  6
ByBlock
 62
     0
100
AcDbPoint
 10
7.396397605412929
 20
7.035107958258612
 30
0.0
  0
POINT
  5
D34
330
BE5
100
AcDbEntity
  8
DEFPOINTS
  6
ByBlock
 62
     0
100
AcDbPoint
 10
7.396397605412929
 20
11.03510795825861
 30
0.0
  0
POINT
  5
D35
330
BE5
100
AcDbEntity
  8
DEFPOINTS
  6
ByBlock
 62
     0
100
AcDbPoint
 10
4.559645201471563
 20
11.03510795825861
 30
0.0
  0
ENDBLK
  5
D36
330
BE5
100
AcDbEntity
  8
0
100
AcDbBlockEnd
  0
BLOCK
  5
C29
330
C28
100
AcDbEntity
  8
0
100
AcDbBlockBegin
  2
*D1
 70
     1
 10
0.0
 20
0.0
 30
0.0
  3
*D1
  1

  0
LINE
  5
C2A
330
C28
100
AcDbEntity
  8
0
  6
ByBlock
 62
     0
100
AcDbLine
 10
7.396397605412929
 20
6.910107958258612
 30
0.0
 11
7.396397605412929
 21
5.13039012608444
 31
0.0
  0
LINE
  5
C2B
330
C28
100
AcDbEntity
  8
0
  6
ByBlock
 62
     0
100
AcDbLine
 10
24.64639760541293
 20
6.910107958258612
 30
0.0
 11
24.64639760541293
 21
5.13039012608444
 31
0.0
  0
LINE
  5
C2C
330
C28
100
AcDbEntity
  8
0
  6
ByBlock
 62
     0
100
AcDbLine
 10
7.646397605412929
 20
5.25539012608444
 30
0.0
 11
15.5378261768415
 21
5.25539012608444
 31
0.0
  0
LINE
  5
C2D
330
C28
100
AcDbEntity
  8
0
  6
ByBlock
 62
     0
100
AcDbLine
 10
24.39639760541294
 20
5.25539012608444
 30
0.0
 11
16.50496903398435
 21
5.25539012608444
 31
0.0
  0
SOLID
  5
C2E
330
C28
100
AcDbEntity
  8
0
  6
ByBlock
 62
     0
100
AcDbTrace
 10
7.646397605412929
 20
5.297056792751106
 30
0.0
 11
7.646397605412929
 21
5.213723459417773
 31
0.0
 12
7.396397605412929
 22
5.25539012608444
 32
0.0
 13
7.396397605412929
 23
5.25539012608444
 33
0.0
  0
SOLID
  5
C2F
330
C28
100
AcDbEntity
  8
0
  6
ByBlock
 62
     0
100
AcDbTrace
 10
24.39639760541294
 20
5.297056792751106
 30
0.0
 11
24.39639760541294
 21
5.213723459417773
 31
0.0
 12
24.64639760541293
 22
5.25539012608444
 32
0.0
 13
24.64639760541293
 23
5.25539012608444
 33
0.0
  0
MTEXT
  5
C30
330
C28
100
AcDbEntity
  8
0
  6
ByBlock
 62
     0
100
AcDbMText
 10
16.02139760541293
 20
5.25539012608444
 30
0.0
 40
0.25
 41
0.0
 71
     5
 72
     1
  1
\A1;17{\H1.000000x;\S1/4;}
  7
SIMPLEX
 73
     1
 44
1.0
1001
ACAD
1000
MTEXTBEGIN
1070
    73
1070
     1
1070
    44
1040
1.0
1070
    74
1070
     0
1000
MTEXTEND
  0
POINT
  5
C31
330
C28
100
AcDbEntity
  8
DEFPOINTS
  6
ByBlock
 62
     0
100
AcDbPoint
 10
7.396397605412929
 20
7.035107958258612
 30
0.0
  0
POINT
  5
C32
330
C28
100
AcDbEntity
  8
DEFPOINTS
  6
ByBlock
 62
     0
100
AcDbPoint
 10
24.64639760541293
 20
7.035107958258612
 30
0.0
  0
POINT
  5
C33
330
C28
100
AcDbEntity
  8
DEFPOINTS
  6
ByBlock
 62
     0
100
AcDbPoint
 10
24.64639760541293
 20
5.25539012608444
 30
0.0
  0
ENDBLK
  5
C34
330
C28
100
AcDbEntity
  8
0
100
AcDbBlockEnd
  0
BLOCK
  5
DF0
330
DBB
100
AcDbEntity
  8
0
100
AcDbBlockBegin
  2
*D2
 70
     1
 10
0.0
 20
0.0
 30
0.0
  3
*D2
  1

  0
LINE
  5
DF1
330
DBB
100
AcDbEntity
  8
0
  6
ByBlock
 62
     0
100
AcDbLine
 10
7.271397605412929
 20
15.84488418322939
 30
0.0
 11
6.24789573244098
 21
15.84488418322939
 31
0.0
  0
LINE
  5
DF2
330
DBB
100
AcDbEntity
  8
0
  6
ByBlock
 62
     0
100
AcDbLine
 10
7.271397605412929
 20
16.46988418322939
 30
0.0
 11
6.24789573244098
 21
16.46988418322939
 31
0.0
  0
LINE
  5
DF3
330
DBB
100
AcDbEntity
  8
0
  6
ByBlock
 62
     0
100
AcDbLine
 10
6.37289573244098
 20
15.59488418322939
 30
0.0
 11
6.37289573244098
 21
15.34488418322939
 31
0.0
  0
LINE
  5
DF4
330
DBB
100
AcDbEntity
  8
0
  6
ByBlock
 62
     0
100
AcDbLine
 10
6.37289573244098
 20
16.71988418322939
 30
0.0
 11
6.37289573244098
 21
16.96988418322939
 31
0.0
  0
MTEXT
  5
DF5
330
DBB
100
AcDbEntity
  8
0
  6
ByBlock
 62
     0
100
AcDbMText
 10
6.051063516861289
 20
15.34742271952554
 30
0.0
 40
0.25
 41
0.0
 71
     5
 72
     1
  1
\A1;{\H1.000000x;\S5/8;}
  7
SIMPLEX
 73
     1
 44
1.0
1001
ACAD
1000
MTEXTBEGIN
1070
    73
1070
     1
1070
    44
1040
1.0
1070
    74
1070
     0
1000
MTEXTEND
  0
LINE
  5
DF6
330
DBB
100
AcDbEntity
  8
0
  6
ByBlock
 62
     0
100
AcDbLine
 10
6.37289573244098
 20
15.84488418322939
 30
0.0
 11
6.37289573244098
 21
16.46988418322939
 31
0.0
  0
SOLID
  5
DF7
330
DBB
100
AcDbEntity
  8
0
  6
ByBlock
 62
     0
100
AcDbTrace
 10
6.331229065774311
 20
15.59488418322939
 30
0.0
 11
6.414562399107646
 21
15.59488418322939
 31
0.0
 12
6.37289573244098
 22
15.84488418322939
 32
0.0
 13
6.37289573244098
 23
15.84488418322939
 33
0.0
  0
SOLID
  5
DF8
330
DBB
100
AcDbEntity
  8
0
  6
ByBlock
 62
     0
100
AcDbTrace
 10
6.331229065774311
 20
16.71988418322939
 30
0.0
 11
6.414562399107646
 21
16.71988418322939
 31
0.0
 12
6.37289573244098
 22
16.46988418322939
 32
0.0
 13
6.37289573244098
 23
16.46988418322939
 33
0.0
  0
POINT
  5
DF9
330
DBB
100
AcDbEntity
  8
DEFPOINTS
  6
ByBlock
 62
     0
100
AcDbPoint
 10
7.396397605412929
 20
15.84488418322939
 30
0.0
  0
POINT
  5
DFA
330
DBB
100
AcDbEntity
  8
DEFPOINTS
  6
ByBlock
 62
     0
100
AcDbPoint
 10
7.396397605412929
 20
16.46988418322939
 30
0.0
  0
POINT
  5
DFB
330
DBB
100
AcDbEntity
  8
DEFPOINTS
  6
ByBlock
 62
     0
100
AcDbPoint
 10
6.37289573244098
 20
16.46988418322939
 30
0.0
  0
ENDBLK
  5
DFC
330
DBB
100
AcDbEntity
  8
0
100
AcDbBlockEnd
  0
BLOCK
  5
E09
330
DD6
100
AcDbEntity
  8
0
100
AcDbBlockBegin
  2
*D3
 70
     1
 10
0.0
 20
0.0
 30
0.0
  3
*D3
  1

  0
LINE
  5
E0A
330
DD6
100
AcDbEntity
  8
0
  6
ByBlock
 62
     0
100
AcDbLine
 10
24.77139760541293
 20
15.8448841832294
 30
0.0
 11
26.08791370480088
 21
15.8448841832294
 31
0.0
  0
LINE
  5
E0B
330
DD6
100
AcDbEntity
  8
0
  6
ByBlock
 62
     0
100
AcDbLine
 10
24.77139760541293
 20
17.09488418322938
 30
0.0
 11
26.08791370480088
 21
17.09488418322938
 31
0.0
  0
LINE
  5
E0C
330
DD6
100
AcDbEntity
  8
0
  6
ByBlock
 62
     0
100
AcDbLine
 10
25.96291370480088
 20
15.5948841832294
 30
0.0
 11
25.96291370480088
 21
15.34488418322939
 31
0.0
  0
LINE
  5
E0D
330
DD6
100
AcDbEntity
  8
0
  6
ByBlock
 62
     0
100
AcDbLine
 10
25.96291370480088
 20
17.34488418322938
 30
0.0
 11
25.96291370480088
 21
17.59488418322938
 31
0.0
  0
SOLID
  5
E0E
330
DD6
100
AcDbEntity
  8
0
  6
ByBlock
 62
     0
100
AcDbTrace
 10
25.92124703813422
 20
15.5948841832294
 30
0.0
 11
26.00458037146755
 21
15.5948841832294
 31
0.0
 12
25.96291370480088
 22
15.8448841832294
 32
0.0
 13
25.96291370480088
 23
15.8448841832294
 33
0.0
  0
SOLID
  5
E0F
330
DD6
100
AcDbEntity
  8
0
  6
ByBlock
 62
     0
100
AcDbTrace
 10
25.92124703813422
 20
17.34488418322938
 30
0.0
 11
26.00458037146755
 21
17.34488418322938
 31
0.0
 12
25.96291370480088
 22
17.09488418322938
 32
0.0
 13
25.96291370480088
 23
17.09488418322938
 33
0.0
  0
MTEXT
  5
E10
330
DD6
100
AcDbEntity
  8
0
  6
ByBlock
 62
     0
100
AcDbMText
 10
25.96291370480088
 20
16.46988418322939
 30
0.0
 40
0.25
 41
0.0
 71
     5
 72
     1
  1
\A1;1{\H1.000000x;\S1/4;}
  7
SIMPLEX
 73
     1
 44
1.0
1001
ACAD
1000
MTEXTBEGIN
1070
    73
1070
     1
1070
    44
1040
1.0
1070
    74
1070
     0
1000
MTEXTEND
  0
POINT
  5
E11
330
DD6
100
AcDbEntity
  8
DEFPOINTS
  6
ByBlock
 62
     0
100
AcDbPoint
 10
24.64639760541293
 20
15.8448841832294
 30
0.0
  0
POINT
  5
E12
330
DD6
100
AcDbEntity
  8
DEFPOINTS
  6
ByBlock
 62
     0
100
AcDbPoint
 10
24.64639760541293
 20
17.09488418322938
 30
0.0
  0
POINT
  5
E13
330
DD6
100
AcDbEntity
  8
DEFPOINTS
  6
ByBlock
 62
     0
100
AcDbPoint
 10
25.96291370480088
 20
17.09488418322938
 30
0.0
  0
ENDBLK
  5
E14
330
DD6
100
AcDbEntity
  8
0
100
AcDbBlockEnd
  0
ENDSEC
  0
SECTION
  2
ENTITIES
  0
TEXT
  5
B11
330
17
100
AcDbEntity
  8
2
100
AcDbText
 10
4.111625285400191
 20
20.1790499463757
 30
0.0
 40
0.156
  1
A
  7
SIMPLEX
 72
     1
 11
4.171053856828763
 21
20.1790499463757
 31
0.0
100
AcDbText
  0
TEXT
  5
B12
330
17
100
AcDbEntity
  8
2
100
AcDbText
 10
1.807066995195517
 20
17.62182901565825
 30
0.0
 40
0.156
  1
1
  7
SIMPLEX
 72
     1
 11
1.825638423766945
 21
17.62182901565825
 31
0.0
100
AcDbText
  0
LINE
  5
B1E
330
17
100
AcDbEntity
  8
4
100
AcDbLine
 10
1.700000000000002
 20
1.599999999999999
 30
0.0
 11
1.700000000000002
 21
20.4
 31
0.0
  0
LINE
  5
B1F
330
17
100
AcDbEntity
  8
4
100
AcDbLine
 10
32.29999999999999
 20
20.4
 30
0.0
 11
1.700000000000002
 21
20.4
 31
0.0
  0
LINE
  5
B20
330
17
100
AcDbEntity
  8
4
100
AcDbLine
 10
32.29999999999999
 20
20.4
 30
0.0
 11
32.3
 21
1.599999999999999
 31
0.0
  0
LINE
  5
B22
330
17
100
AcDbEntity
  8
4
100
AcDbLine
 10
32.29999999999999
 20
1.599999999999995
 30
0.0
 11
1.700000000000002
 21
1.599999999999999
 31
0.0
  0
LINE
  5
B23
330
17
100
AcDbEntity
  8
3
100
AcDbLine
 10
6.497297785850959
 20
20.12489485051321
 30
0.0
 11
6.497297785850959
 21
20.4
 31
0.0
  0
LINE
  5
B24
330
17
100
AcDbEntity
  8
3
100
AcDbLine
 10
1.924699416826114
 20
16.23911588041056
 30
0.0
 11
1.700000000000002
 21
16.23911588041056
 31
0.0
  0
LINE
  5
B25
330
17
100
AcDbEntity
  8
3
100
AcDbLine
 10
10.77307019453582
 20
20.12489485051321
 30
0.0
 11
10.77307019453582
 21
20.4
 31
0.0
  0
LINE
  5
B26
330
17
100
AcDbEntity
  8
3
100
AcDbLine
 10
15.09819852390063
 20
20.12489485051321
 30
0.0
 11
15.09819852390063
 21
20.4
 31
0.0
  0
LINE
  5
B27
330
17
100
AcDbEntity
  8
3
100
AcDbLine
 10
19.39864889292548
 20
20.12489485051321
 30
0.0
 11
19.39864889292548
 21
20.4
 31
0.0
  0
LINE
  5
B28
330
17
100
AcDbEntity
  8
3
100
AcDbLine
 10
23.69909926195032
 20
20.12489485051321
 30
0.0
 11
23.69909926195032
 21
20.4
 31
0.0
  0
LINE
  5
B29
330
17
100
AcDbEntity
  8
3
100
AcDbLine
 10
27.99954963097516
 20
20.12489485051321
 30
0.0
 11
27.99954963097516
 21
20.4
 31
0.0
  0
LINE
  5
B2A
330
17
100
AcDbEntity
  8
3
100
AcDbLine
 10
1.924699416826114
 20
12.57933691030793
 30
0.0
 11
1.700000000000002
 21
12.57933691030793
 31
0.0
  0
LINE
  5
B2B
330
17
100
AcDbEntity
  8
3
100
AcDbLine
 10
1.924699416826114
 20
8.919557940205285
 30
0.0
 11
1.700000000000002
 21
8.919557940205285
 31
0.0
  0
LINE
  5
B2C
330
17
100
AcDbEntity
  8
3
100
AcDbLine
 10
1.924699416826114
 20
5.259778970102641
 30
0.0
 11
1.700000000000002
 21
5.259778970102641
 31
0.0
  0
TEXT
  5
B2D
330
17
100
AcDbEntity
  8
2
100
AcDbText
 10
1.773638423766945
 20
14.25976005014101
 30
0.0
 40
0.156
  1
2
  7
SIMPLEX
 72
     1
 11
1.825638423766945
 21
14.25976005014101
 31
0.0
100
AcDbText
  0
TEXT
  5
B2E
330
17
100
AcDbEntity
  8
2
100
AcDbText
 10
1.773638423766945
 20
10.56148418807205
 30
0.0
 40
0.156
  1
3
  7
SIMPLEX
 72
     1
 11
1.825638423766945
 21
10.56148418807205
 31
0.0
100
AcDbText
  0
TEXT
  5
B2F
330
17
100
AcDbEntity
  8
2
100
AcDbText
 10
1.76992413805266
 20
6.863208326003081
 30
0.0
 40
0.156
  1
4
  7
SIMPLEX
 72
     1
 11
1.825638423766945
 21
6.863208326003081
 31
0.0
100
AcDbText
  0
TEXT
  5
B30
330
17
100
AcDbEntity
  8
2
100
AcDbText
 10
1.773638423766945
 20
3.164932463934118
 30
0.0
 40
0.156
  1
5
  7
SIMPLEX
 72
     1
 11
1.825638423766945
 21
3.164932463934118
 31
0.0
100
AcDbText
  0
TEXT
  5
B31
330
17
100
AcDbEntity
  8
2
100
AcDbText
 10
8.657846960277032
 20
20.1790499463757
 30
0.0
 40
0.156
  1
B
  7
SIMPLEX
 72
     1
 11
8.709846960277031
 21
20.1790499463757
 31
0.0
100
AcDbText
  0
TEXT
  5
B32
330
17
100
AcDbEntity
  8
2
100
AcDbText
 10
12.96878784697653
 20
20.1790499463757
 30
0.0
 40
0.156
  1
C
  7
SIMPLEX
 72
     1
 11
13.02450213269082
 21
20.1790499463757
 31
0.0
100
AcDbText
  0
TEXT
  5
B33
330
17
100
AcDbEntity
  8
2
100
AcDbText
 10
17.231122822346
 20
20.1790499463757
 30
0.0
 40
0.156
  1
D
  7
SIMPLEX
 72
     1
 11
17.283122822346
 21
20.1790499463757
 31
0.0
100
AcDbText
  0
TEXT
  5
B34
330
17
100
AcDbEntity
  8
2
100
AcDbText
 10
21.60552676323271
 20
20.1790499463757
 30
0.0
 40
0.156
  1
E
  7
SIMPLEX
 72
     1
 11
21.65381247751842
 21
20.1790499463757
 31
0.0
100
AcDbText
  0
TEXT
  5
B35
330
17
100
AcDbEntity
  8
2
100
AcDbText
 10
25.80811297012925
 20
20.1790499463757
 30
0.0
 40
0.156
  1
F
  7
SIMPLEX
 72
     1
 11
25.85639868441496
 21
20.1790499463757
 31
0.0
100
AcDbText
  0
TEXT
  5
B36
330
17
100
AcDbEntity
  8
2
100
AcDbText
 10
30.05930508835584
 20
20.1790499463757
 30
0.0
 40
0.156
  1
G
  7
SIMPLEX
 72
     1
 11
30.11501937407013
 21
20.1790499463757
 31
0.0
100
AcDbText
  0
LINE
  5
B3C
330
17
100
AcDbEntity
  8
4
100
AcDbLine
 10
0.0
 20
0.0
 30
0.0
 11
0.0
 21
22.0
 31
0.0
  0
LINE
  5
B3D
330
17
100
AcDbEntity
  8
4
100
AcDbLine
 10
34.0
 20
22.0
 30
0.0
 11
34.0
 21
-0.000000000000004
 31
0.0
  0
LINE
  5
B3E
330
17
100
AcDbEntity
  8
4
100
AcDbLine
 10
34.0
 20
22.0
 30
0.0
 11
0.0
 21
22.0
 31
0.0
  0
LINE
  5
B3F
330
17
100
AcDbEntity
  8
4
100
AcDbLine
 10
34.0
 20
-0.000000000000004
 30
0.0
 11
0.0
 21
0.0
 31
0.0
  0
LINE
  5
B4A
330
17
100
AcDbEntity
  8
0
100
AcDbLine
 10
22.01185508099067
 20
3.632001399999909
 30
0.0
 11
32.29999999999999
 21
3.632001399999909
 31
0.0
  0
LWPOLYLINE
  5
B4B
330
17
100
AcDbEntity
  8
4
  6
Continuous
100
AcDbPolyline
 90
       18
 70
     0
 43
0.0
 10
24.31716664476463
 20
3.203508336307955
 10
24.31704809020893
 20
3.201611463416011
 10
24.31681098109745
 20
3.199714590524068
 10
24.3162182083187
 20
3.198054826743608
 10
24.31550688098416
 20
3.196513617518928
 10
24.31432133542676
 20
3.195090962850036
 10
24.31289868075778
 20
3.19402397184824
 10
24.31123891697732
 20
3.19331264451379
 10
24.30910493497389
 20
3.192956980846526
 10
24.30708950752624
 20
3.193075535402308
 10
24.3051926346343
 20
3.193668308181058
 10
24.30376997996532
 20
3.194735299182767
 10
24.30258443440783
 20
3.196157953851746
 10
24.30163599796192
 20
3.197817717632123
 10
24.30092467062745
 20
3.199596035968371
 10
24.3004504524044
 20
3.201492908860315
 10
24.30033189784871
 20
3.203508336307955
 10
24.31716664476463
 20
3.203508336307955
  0
LWPOLYLINE
  5
B4C
330
17
100
AcDbEntity
  8
4
  6
Continuous
100
AcDbPolyline
 90
       18
 70
     0
 43
0.0
 10
24.30021334329302
 20
3.210503055096979
 10
24.30009478873723
 20
3.215600900994063
 10
24.30009478873723
 20
3.221172965114107
 10
24.30009478873723
 20
3.227219247457203
 10
24.30056900696019
 20
3.233739748023181
 10
24.30139888885043
 20
3.240615912256505
 10
24.30294009807517
 20
3.247966294712712
 10
24.30531118919001
 20
3.255672340836271
 10
24.30874927130671
 20
3.263734050627008
 10
24.31159458064457
 20
3.256146559059232
 10
24.31384711720371
 20
3.248677622047247
 10
24.31550688098416
 20
3.241445794146736
 10
24.31669242654166
 20
3.234451075357712
 10
24.31740375387619
 20
3.227693465680169
 10
24.31764086298759
 20
3.221528628781372
 10
24.31764086298759
 20
3.215719455549846
 10
24.31740375387619
 20
3.210503055096979
 10
24.30021334329302
 20
3.210503055096979
  0
TEXT
  5
B4D
330
17
100
AcDbEntity
  8
3
100
AcDbText
 10
24.12721133705336
 20
2.850436771421593
 30
0.0
 40
0.0781522982138528
  1
NAME:
  7
SIMPLEX
100
AcDbText
  0
LWPOLYLINE
  5
B4E
330
17
100
AcDbEntity
  8
4
  6
Continuous
100
AcDbPolyline
 90
       21
 70
     0
 43
0.0
 10
24.29416706094992
 20
3.515210762388193
 10
24.29416706094992
 20
3.203745445419437
 10
24.30744517119342
 20
3.07203133398554
 10
24.32321292710773
 20
3.203745445419437
 10
24.32321292710773
 20
3.514617989609441
 10
24.32285726344046
 20
3.519478726395043
 10
24.32190882699444
 20
3.523746690401893
 10
24.32048617232555
 20
3.527303327074301
 10
24.31870785398931
 20
3.530267190967956
 10
24.31645531743019
 20
3.532519727527167
 10
24.31396567175949
 20
3.534179491307626
 10
24.31135747153309
 20
3.535127927753554
 10
24.30874927130671
 20
3.535483591420821
 10
24.30602251652454
 20
3.535246482309341
 10
24.30341431629813
 20
3.534298045863324
 10
24.30092467062745
 20
3.532638282082865
 10
24.29867213406833
 20
3.530504300079436
 10
24.29689381573209
 20
3.527658990741565
 10
24.29547116106311
 20
3.524102354069158
 10
24.29452272461708
 20
3.519952944618091
 10
24.29416706094992
 20
3.515210762388193
  0
TEXT
  5
B4F
330
17
100
AcDbEntity
  8
3
100
AcDbText
 10
24.11054985639055
 20
2.097977421109375
 30
0.0
 40
0.0781522982138528
  1
MAT'L DESCRIPTION:
  7
SIMPLEX
100
AcDbText
  0
TEXT
  5
B50
330
17
100
AcDbEntity
  8
3
100
AcDbText
 10
24.1230120331185
 20
2.372154126682993
 30
0.0
 40
0.0781522982138528
  1
FILE PATH:
  7
SIMPLEX
100
AcDbText
  0
LINE
  5
B51
330
17
100
AcDbEntity
  8
0
100
AcDbLine
 10
24.04381483455096
 20
2.269844922297489
 30
0.0
 11
29.49696939050781
 21
2.269844922297489
 31
0.0
  0
LINE
  5
B52
330
17
100
AcDbEntity
  8
0
100
AcDbLine
 10
24.04381483455087
 20
2.537827578566153
 30
0.0
 11
32.3
 21
2.537827578566153
 31
0.0
  0
LINE
  5
B53
330
17
100
AcDbEntity
  8
0
100
AcDbLine
 10
24.04381483455087
 20
3.013702094781774
 30
0.0
 11
32.3
 21
3.013702094781774
 31
0.0
  0
LINE
  5
B54
330
17
100
AcDbEntity
  8
0
100
AcDbLine
 10
24.04381483455096
 20
1.59999999999991
 30
0.0
 11
24.04381483455096
 21
3.631959753560114
 31
0.0
  0
LINE
  5
B55
330
17
100
AcDbEntity
  8
4
100
AcDbLine
 10
22.01185508099067
 20
3.632001399999909
 30
0.0
 11
22.01185508099067
 21
1.59999999999991
 31
0.0
  0
TEXT
  5
B56
330
17
100
AcDbEntity
  8
3
100
AcDbText
 10
22.12907657181772
 20
2.35906766772022
 30
0.0
 40
0.1236393780336343
  1
FRACTIONS %%P 1/32
  7
SIMPLEX
 72
     1
 11
23.03576534406437
 21
2.35906766772022
 31
0.0
100
AcDbText
  0
TEXT
  5
B57
330
17
100
AcDbEntity
  8
3
100
AcDbText
 10
22.47383768427123
 20
1.636244247895378
 30
0.0
 40
0.0840747770628713
  1
READ ALL NOTES
  7
SIMPLEX
 72
     1
 11
23.01832195477363
 21
1.636244247895378
 31
0.0
100
AcDbText
  0
TEXT
  5
B58
330
17
100
AcDbEntity
  8
3
100
AcDbText
 10
22.54590177889655
 20
1.756030017147534
 30
0.0
 40
0.0840747770628713
  1
DO NOT SCALE
  7
SIMPLEX
 72
     1
 11
23.01832195477363
 21
1.756030017147534
 31
0.0
100
AcDbText
  0
TEXT
  5
B59
330
17
100
AcDbEntity
  8
3
100
AcDbText
 10
22.36458014902464
 20
1.935161228747696
 30
0.0
 40
0.1236393780336343
  1
HOLES %%P .005
  7
SIMPLEX
 72
     1
 11
23.03576534406437
 21
1.935161228747696
 31
0.0
100
AcDbText
  0
TEXT
  5
B5A
330
17
100
AcDbEntity
  8
3
100
AcDbText
 10
22.308648049438
 20
2.147114448233957
 30
0.0
 40
0.1236393780336343
  1
ANGLES %%P 1/2%%D
  7
SIMPLEX
 72
     1
 11
23.03576534406437
 21
2.147114448233957
 31
0.0
100
AcDbText
  0
LINE
  5
B5B
330
17
100
AcDbEntity
  8
0
100
AcDbLine
 10
22.01185508099067
 20
1.881460857912946
 30
0.0
 11
24.04381483455096
 21
1.881460857912946
 31
0.0
  0
TEXT
  5
B5C
330
17
100
AcDbEntity
  8
3
100
AcDbText
 10
22.07299637918419
 20
3.474489422495883
 30
0.0
 40
0.0990742219853884
  1
UNLESS OTHERWISE SPECIFIED
 41
0.8436671689696837
  7
SIMPLEX
 72
     5
 11
23.9795456722393
 21
3.474489422495883
 31
0.0
100
AcDbText
  0
TEXT
  5
B5D
330
17
100
AcDbEntity
  8
3
100
AcDbText
 10
22.07299637918419
 20
3.234021522969542
 30
0.0
 40
0.0990742219853884
  1
DIMENSIONS ARE IN INCHES
 41
0.9163641132346441
  7
SIMPLEX
 72
     5
 11
23.9795456722393
 21
3.234021522969542
 31
0.0
100
AcDbText
  0
TEXT
  5
B5E
330
17
100
AcDbEntity
  8
3
100
AcDbText
 10
22.37929912260007
 20
2.571020887206395
 30
0.0
 40
0.1236393780336343
  1
.XXX %%P .005 
  7
SIMPLEX
 72
     1
 11
23.03576534406437
 21
2.571020887206395
 31
0.0
100
AcDbText
  0
TEXT
  5
B5F
330
17
100
AcDbEntity
  8
3
100
AcDbText
 10
22.52354506363932
 20
2.782974106692656
 30
0.0
 40
0.1236393780336343
  1
.XX %%P .010
  7
SIMPLEX
 72
     1
 11
23.03576534406437
 21
2.782974106692656
 31
0.0
100
AcDbText
  0
TEXT
  5
B60
330
17
100
AcDbEntity
  8
3
100
AcDbText
 10
22.4617253746225
 20
2.975094398511645
 30
0.0
 40
0.1236393780336343
  1
TOLERANCES
  7
SIMPLEX
 72
     1
 11
23.03576534406437
 21
2.975094398511645
 31
0.0
100
AcDbText
  0
LINE
  5
B61
330
17
100
AcDbEntity
  8
0
100
AcDbLine
 10
22.01185508099067
 20
3.397502858918576
 30
0.0
 11
24.04381483455096
 21
3.397502858918576
 31
0.0
  0
LINE
  5
B62
330
17
100
AcDbEntity
  8
0
100
AcDbLine
 10
22.01185508099067
 20
3.163045964277037
 30
0.0
 11
24.04381483455096
 21
3.163045964277037
 31
0.0
  0
LWPOLYLINE
  5
B63
330
17
100
AcDbEntity
  8
4
  6
Continuous
100
AcDbPolyline
 90
       21
 70
     0
 43
0.0
 10
24.19682452710033
 20
3.49485195722538
 10
24.19682452710033
 20
3.20386399997522
 10
24.21140673745704
 20
3.07203133398554
 10
24.22646316603681
 20
3.203271227196475
 10
24.22646316603681
 20
3.495918948227093
 10
24.22610750236954
 20
3.50066113045691
 10
24.22515906592361
 20
3.504691985352279
 10
24.22373641125464
 20
3.508130067468898
 10
24.2218395383627
 20
3.510975376806856
 10
24.21958700180347
 20
3.512990804254501
 10
24.21709735613288
 20
3.514532013479176
 10
24.21437060135071
 20
3.515361895369407
 10
24.21164384656854
 20
3.515599004480892
 10
24.20891709178636
 20
3.515124786257926
 10
24.20619033700417
 20
3.514057795256214
 10
24.20370069133358
 20
3.512398031475748
 10
24.20144815477437
 20
3.510145494916626
 10
24.19955128188251
 20
3.507181631022968
 10
24.19812862721343
 20
3.503743548906266
 10
24.19718019076751
 20
3.499594139455198
 10
24.19682452710033
 20
3.49485195722538
  0
LWPOLYLINE
  5
B64
330
17
100
AcDbEntity
  8
4
  6
Continuous
100
AcDbPolyline
 90
       21
 70
     0
 43
0.0
 10
24.24614784408168
 20
3.543403366049746
 10
24.24614784408168
 20
3.203745445419437
 10
24.25942595432528
 20
3.07203133398554
 10
24.27519371023949
 20
3.203745445419437
 10
24.27519371023949
 20
3.542810593271001
 10
24.27483804657232
 20
3.5476713300566
 10
24.2738896101263
 20
3.551939294063453
 10
24.27246695545732
 20
3.555495930735856
 10
24.27068863712115
 20
3.558459794629511
 10
24.26843610056194
 20
3.560712331188718
 10
24.26594645489127
 20
3.562372094969096
 10
24.26333825466486
 20
3.563320531415109
 10
24.26073005443849
 20
3.563676195082288
 10
24.25800329965631
 20
3.563439085970808
 10
24.25539509942991
 20
3.56249064952488
 10
24.25290545375921
 20
3.560830885744416
 10
24.25065291720009
 20
3.558696903740996
 10
24.24887459886385
 20
3.555851594403121
 10
24.24745194419495
 20
3.552294957730717
 10
24.24650350774895
 20
3.548145548279565
 10
24.24614784408168
 20
3.543403366049746
  0
LWPOLYLINE
  5
B65
330
17
100
AcDbEntity
  8
4
  6
Continuous
100
AcDbPolyline
 90
       18
 70
     0
 43
0.0
 10
24.22136532013974
 20
3.203508336307955
 10
24.22136532013974
 20
3.201611463416011
 10
24.22112821102825
 20
3.199714590524068
 10
24.2205354382495
 20
3.197936272187908
 10
24.21958700180347
 20
3.196157953851746
 10
24.21840145624607
 20
3.194616744626984
 10
24.21674169246561
 20
3.193431199069573
 10
24.21484481957368
 20
3.192601317179343
 10
24.21247372845876
 20
3.192364208067861
 10
24.21010263734385
 20
3.192719871735044
 10
24.20808720989621
 20
3.193431199069573
 10
24.20630889155996
 20
3.194498190071286
 10
24.20476768233529
 20
3.196039399295963
 10
24.20370069133358
 20
3.197699163076427
 10
24.20275225488766
 20
3.199477481412587
 10
24.2022780366646
 20
3.201492908860315
 10
24.20204092755311
 20
3.203508336307955
 10
24.22136532013974
 20
3.203508336307955
  0
LWPOLYLINE
  5
B66
330
17
100
AcDbEntity
  8
4
  6
Continuous
100
AcDbPolyline
 90
       18
 70
     0
 43
0.0
 10
24.20180381844164
 20
3.210028836874018
 10
24.20168526388593
 20
3.216905001107258
 10
24.2021594821089
 20
3.224018274452065
 10
24.20298936399904
 20
3.23113154779679
 10
24.20417490955654
 20
3.238126266585816
 10
24.20571611878123
 20
3.244765321707576
 10
24.20749443711746
 20
3.250693049494886
 10
24.20950986456511
 20
3.255909449947751
 10
24.2117624011243
 20
3.259940304843121
 10
24.21365927401618
 20
3.25602800450345
 10
24.2155561469082
 20
3.251048713162154
 10
24.21733446524437
 20
3.245002430819057
 10
24.21887567446905
 20
3.238244821141599
 10
24.22017977458224
 20
3.23113154779679
 10
24.22112821102825
 20
3.223899719896281
 10
24.22160242925122
 20
3.21678644655156
 10
24.22160242925122
 20
3.210028836874018
 10
24.20180381844164
 20
3.210028836874018
  0
LWPOLYLINE
  5
B67
330
17
100
AcDbEntity
  8
4
  6
Continuous
100
AcDbPolyline
 90
       18
 70
     0
 43
0.0
 10
24.25219412642477
 20
3.210503055096979
 10
24.25207557186899
 20
3.215600900994063
 10
24.25207557186899
 20
3.221172965114107
 10
24.25207557186899
 20
3.227219247457203
 10
24.25254979009196
 20
3.233739748023181
 10
24.25337967198228
 20
3.240615912256505
 10
24.25492088120694
 20
3.247966294712712
 10
24.25729197232187
 20
3.255672340836271
 10
24.26073005443849
 20
3.263734050627008
 10
24.26357536377644
 20
3.256146559059232
 10
24.26582790033555
 20
3.248677622047247
 10
24.26748766411594
 20
3.241445794146736
 10
24.26867320967345
 20
3.234451075357712
 10
24.26938453700797
 20
3.227693465680169
 10
24.26962164611945
 20
3.221528628781372
 10
24.26962164611945
 20
3.215719455549846
 10
24.26938453700797
 20
3.210503055096979
 10
24.25219412642477
 20
3.210503055096979
  0
LWPOLYLINE
  5
B68
330
17
100
AcDbEntity
  8
4
  6
Continuous
100
AcDbPolyline
 90
       18
 70
     0
 43
0.0
 10
24.2691474278964
 20
3.203508336307955
 10
24.26902887334069
 20
3.201611463416011
 10
24.26879176422922
 20
3.199714590524068
 10
24.26819899145046
 20
3.198054826743608
 10
24.26748766411594
 20
3.196513617518928
 10
24.26630211855851
 20
3.195090962850036
 10
24.26487946388955
 20
3.19402397184824
 10
24.26321970010908
 20
3.19331264451379
 10
24.26108571810565
 20
3.192956980846526
 10
24.259070290658
 20
3.193075535402308
 10
24.25717341776607
 20
3.193668308181058
 10
24.2557507630971
 20
3.194735299182767
 10
24.25456521753969
 20
3.196157953851746
 10
24.25361678109367
 20
3.197817717632123
 10
24.25290545375921
 20
3.199596035968371
 10
24.25243123553625
 20
3.201492908860315
 10
24.25231268098057
 20
3.203508336307955
 10
24.2691474278964
 20
3.203508336307955
  0
LINE
  5
B69
330
17
100
AcDbEntity
  8
0
100
AcDbLine
 10
24.26043603597086
 20
3.563650628259062
 30
0.0
 11
24.26043603597086
 21
3.563650628259062
 31
0.0
  0
LWPOLYLINE
  5
B6A
330
17
100
AcDbEntity
  8
4
  6
Continuous
100
AcDbPolyline
 90
       88
 70
     0
 43
0.0
 10
30.248555109065
 20
3.458746499044303
 10
30.05909019538548
 20
3.458746499044303
 10
30.06429686476902
 20
3.454696867301558
 10
30.06950353415256
 20
3.450068716738373
 10
30.07413168471574
 20
3.444862047354833
 10
30.07847057586868
 20
3.439655377971208
 10
30.08194168879106
 20
3.433580930357051
 10
30.08454502348282
 20
3.427506482742892
 10
30.08628057994406
 20
3.420564256898203
 10
30.08714835817459
 20
3.413622031053423
 10
30.08714835817459
 20
3.212586740965939
 10
30.03826351785114
 20
3.159073750079313
 10
30.21268694220049
 20
3.159073750079313
 10
30.21615805512289
 20
3.159073750079313
 10
30.21962916804519
 20
3.159652268899667
 10
30.22310028096766
 20
3.159941528309845
 10
30.22628213447979
 20
3.160809306540461
 10
30.22975324740218
 20
3.16167708477108
 10
30.23322436032456
 20
3.162834122411878
 10
30.2364062138367
 20
3.163991160052676
 10
30.23987732675907
 20
3.165726716513824
 10
30.24305918027129
 20
3.167173013564799
 10
30.24624103378342
 20
3.168908570026035
 10
30.24913362788544
 20
3.170933385897365
 10
30.25202622198748
 20
3.172958201768779
 10
30.25491881608943
 20
3.175272277050368
 10
30.25781141019138
 20
3.177586352331966
 10
30.26012548547297
 20
3.179900427613555
 10
30.26272882016473
 20
3.182503762305325
 10
30.26967104600951
 20
3.191181544611255
 10
30.27516697480323
 20
3.201305623968153
 10
30.27921660654606
 20
3.212008222145497
 10
30.28153068182765
 20
3.223000079733016
 10
30.28181994123781
 20
3.234281196730713
 10
30.28008438477659
 20
3.244694535497878
 10
30.27574549362359
 20
3.254529355444604
 10
30.26909252718914
 20
3.263207137750534
 10
30.20603397576599
 20
3.236016753191951
 10
30.20921582927811
 20
3.231388602628769
 10
30.21181916396988
 20
3.226181933245227
 10
30.21384397984129
 20
3.220975263861604
 10
30.21529027689226
 20
3.215479335067883
 10
30.21615805512289
 20
3.209983406274084
 10
30.21615805512289
 20
3.204487477480363
 10
30.21529027689226
 20
3.198991548686564
 10
30.21355472043112
 20
3.193784879303025
 10
30.21124064514953
 20
3.190024506970456
 10
30.20863731045777
 20
3.186553394048069
 10
30.20516619753536
 20
3.183371540535944
 10
30.20169508461298
 20
3.181057465254353
 10
30.19764545287015
 20
3.179032649382937
 10
30.19359582112749
 20
3.177297092921785
 10
30.18925692997448
 20
3.176429314691167
 10
30.18491803882148
 20
3.17614005528099
 10
30.08628057994406
 20
3.17614005528099
 10
30.15165320664873
 20
3.243826757267261
 10
30.15165320664873
 20
3.309777902792381
 10
30.22859620976138
 20
3.309777902792381
 10
30.22859620976138
 20
3.332918655608219
 10
30.15281024428953
 20
3.332918655608219
 10
30.15281024428953
 20
3.420853516308377
 10
30.13921505201024
 20
3.441969453252799
 10
30.18289322295006
 20
3.441969453252799
 10
30.19272804289679
 20
3.441390934432446
 10
30.20082730638244
 20
3.439076859150853
 10
30.20719101340669
 20
3.435316486818288
 10
30.21181916396988
 20
3.430109817434748
 10
30.21442249866165
 20
3.424035369820587
 10
30.21529027689226
 20
3.417093143975812
 10
30.21413323925147
 20
3.409283139900503
 10
30.21095138573933
 20
3.401473135825107
 10
30.27863808772563
 20
3.380935717701043
 10
30.2832662382888
 20
3.385853127674403
 10
30.28673735121119
 20
3.391349056468206
 10
30.28934068590297
 20
3.397423504082363
 10
30.29078698295393
 20
3.403497951696524
 10
30.29136550177437
 20
3.409861658720858
 10
30.29078698295393
 20
3.416514625155373
 10
30.28962994531314
 20
3.422878332179793
 10
30.28760512944172
 20
3.429242039204127
 10
30.28500179474995
 20
3.435027227408108
 10
30.28153068182765
 20
3.440812415612001
 10
30.27748105008482
 20
3.445729825585368
 10
30.27256364011146
 20
3.450068716738373
 10
30.26735697072792
 20
3.453829089070941
 10
30.26157178252393
 20
3.456432423762707
 10
30.25520807549961
 20
3.458167980223946
 10
30.248555109065
 20
3.458746499044303
  0
TEXT
  5
B6B
330
17
100
AcDbEntity
  8
3
100
AcDbText
 10
30.41404834376206
 20
2.323502844314683
 30
0.0
 40
0.077527079828142
  1
OF
  7
SIMPLEX
100
AcDbText
  0
LINE
  5
B6C
330
17
100
AcDbEntity
  8
0
100
AcDbLine
 10
29.49696939050781
 20
2.177674272979741
 30
0.0
 11
32.3
 21
2.177674272979741
 31
0.0
  0
TEXT
  5
B6D
330
17
100
AcDbEntity
  8
3
100
AcDbText
 10
30.0539190369923
 20
1.71790467986901
 30
0.0
 40
0.1750611479990302
  1
2080.75
  7
SIMPLEX
 72
     1
 11
30.57076623584658
 21
1.71790467986901
 31
0.0
100
AcDbText
  0
TEXT
  5
B6E
330
17
100
AcDbEntity
  8
3
100
AcDbText
 10
26.5014761056442
 20
2.62229828537609
 30
0.0
 40
0.1563045964277055
  1
WURLITZER EQUALIZER LEGS
  7
SIMPLEX
 72
     1
 11
28.17244667221658
 21
2.62229828537609
 31
0.0
100
AcDbText
  0
LWPOLYLINE
  5
B6F
330
17
100
AcDbEntity
  8
4
  6
Continuous
100
AcDbPolyline
 90
       46
 70
     0
 43
0.0
 10
27.13531376554991
 20
3.463085390197308
 10
26.97824590581252
 20
3.463085390197308
 10
26.98171701873481
 20
3.458457239634122
 10
26.9851881316572
 20
3.453250570250498
 10
26.98808072575924
 20
3.448043900866958
 10
26.990684060451
 20
3.442547972073243
 10
26.99299813573259
 20
3.43676278386926
 10
26.99473369219365
 20
3.430977595665281
 10
26.99589072983454
 20
3.425481666871563
 10
26.99617998924471
 20
3.419696478667582
 10
26.99617998924471
 20
3.152710043054975
 10
27.06618076651259
 20
3.220107485631069
 10
27.06618076651259
 20
3.339860881452993
 10
27.16047933423707
 20
3.339860881452993
 10
27.16655378185132
 20
3.340150140863173
 10
27.17291748887557
 20
3.340439400273352
 10
27.17870267707963
 20
3.341307178503968
 10
27.18477712469371
 20
3.342464216144763
 10
27.19027305348743
 20
3.344199772605916
 10
27.19576898228124
 20
3.346513847887508
 10
27.20097565166486
 20
3.349117182579278
 10
27.20589306163822
 20
3.352299036091488
 10
27.21023195279113
 20
3.356059408424053
 10
27.2139923251237
 20
3.360687558987239
 10
27.21746343804608
 20
3.3656049689606
 10
27.22035603214812
 20
3.37139015716458
 10
27.22238084801946
 20
3.378043123599096
 10
27.22411640448061
 20
3.385274608854048
 10
27.22498418271122
 20
3.393373872339621
 10
27.22498418271122
 20
3.402340914055728
 10
27.22411640448061
 20
3.411886474592273
 10
27.22238084801946
 20
3.420564256898203
 10
27.21948825391744
 20
3.428085001563333
 10
27.21601714099512
 20
3.434737967997848
 10
27.21138899043194
 20
3.440523156201828
 10
27.20647158045859
 20
3.445440566175187
 10
27.2006863922546
 20
3.449490197917932
 10
27.19461194464043
 20
3.452961310840319
 10
27.18766971879566
 20
3.455853904942352
 10
27.18072749295098
 20
3.458167980223946
 10
27.173496007696
 20
3.459903536685098
 10
27.16597526303087
 20
3.461060574325892
 10
27.15816525895548
 20
3.462217611966686
 10
27.15035525488017
 20
3.462796130787046
 10
27.14283451021504
 20
3.463085390197308
 10
27.13531376554991
 20
3.463085390197308
  0
TEXT
  5
B70
330
17
100
AcDbEntity
  8
3
100
AcDbText
 10
25.93182268610575
 20
1.783153505858029
 30
0.0
 40
0.156
  1
MAT'L POPLAR
  7
SIMPLEX
 72
     1
 11
26.77125125753432
 21
1.783153505858029
 31
0.0
100
AcDbText
  0
TEXT
  5
B71
330
17
100
AcDbEntity
  8
3
100
AcDbText
 10
25.7566271547943
 20
2.345443402288879
 30
0.0
 40
0.1162906197422129
  1
DWG/PART NO/208075
  7
SIMPLEX
 72
     1
 11
26.77832331395803
 21
2.345443402288879
 31
0.0
100
AcDbText
  0
LWPOLYLINE
  5
B72
330
17
100
AcDbEntity
  8
4
  6
Continuous
 62
     4
100
AcDbPolyline
 90
       96
 70
     0
 43
0.0
 10
25.91606436274174
 20
3.157048934207897
 10
25.91143621217856
 20
3.159941528309845
 10
25.9065188022052
 20
3.163412641232231
 10
25.90131213282166
 20
3.16775153238524
 10
25.89668398225848
 20
3.172668942358598
 10
25.89234509110547
 20
3.178164871152319
 10
25.88887397818318
 20
3.184817837586917
 10
25.88655990290158
 20
3.192049322841868
 10
25.88569212467087
 20
3.200437845737623
 10
25.88569212467087
 20
3.392216834698825
 10
25.88511360585052
 20
3.400316098184313
 10
25.88395656820973
 20
3.407836842849443
 10
25.88164249292822
 20
3.415068328104397
 10
25.87874989882619
 20
3.421721294538998
 10
25.87527878590379
 20
3.428374260973511
 10
25.87093989475079
 20
3.434159449177493
 10
25.86602248477743
 20
3.439655377971208
 10
25.86052655598371
 20
3.444862047354833
 10
25.85474136777981
 20
3.449490197917932
 10
25.84837766075539
 20
3.453539829660763
 10
25.84172469432079
 20
3.457010942583151
 10
25.83507172788636
 20
3.460192796095276
 10
25.82784024263141
 20
3.462506871376867
 10
25.82060875737645
 20
3.464242427838103
 10
25.81308801271132
 20
3.465688724889078
 10
25.80556726804611
 20
3.466267243709433
 10
25.80036059866249
 20
3.466267243709433
 10
25.79515392927894
 20
3.466267243709433
 10
25.79023651930558
 20
3.465688724889078
 10
25.78502984992204
 20
3.465110206068637
 10
25.78011243994868
 20
3.464242427838103
 10
25.77490577056514
 20
3.462796130787046
 10
25.76998836059178
 20
3.461349833736074
 10
25.76507095061841
 20
3.459903536685098
 10
25.76015354064505
 20
3.457878720813683
 10
25.75552539008186
 20
3.455853904942352
 10
25.75089723951868
 20
3.453539829660763
 10
25.7462690889555
 20
3.451225754379168
 10
25.74164093839231
 20
3.448333160277223
 10
25.73730204723947
 20
3.445729825585368
 10
25.73296315608647
 20
3.442837231483417
 10
25.72891352434365
 20
3.439655377971208
 10
25.72717796788249
 20
3.443705009714038
 10
25.72486389260089
 20
3.448043900866958
 10
25.72168203908868
 20
3.452093532609788
 10
25.71821092616638
 20
3.455853904942352
 10
25.71473981324391
 20
3.459035758454477
 10
25.71126870032161
 20
3.461639093146247
 10
25.7080868468095
 20
3.463374649607485
 10
25.70577277152789
 20
3.463953168427844
 10
25.63490421602941
 20
3.463953168427844
 10
25.63924310718233
 20
3.459903536685098
 10
25.64416051715568
 20
3.455275386121912
 10
25.64965644594949
 20
3.449779457328196
 10
25.65486311533303
 20
3.443415750303861
 10
25.65978052530641
 20
3.436184265048908
 10
25.66354089763897
 20
3.428663520383688
 10
25.666433491741
 20
3.420274997488022
 10
25.66730126997153
 20
3.411597215182011
 10
25.66730126997153
 20
3.157338193618075
 10
25.73238463726613
 20
3.209983406274084
 10
25.73238463726613
 20
3.393952391159978
 10
25.73267389667629
 20
3.398580541723161
 10
25.73354167490683
 20
3.402919432876083
 10
25.73527723136806
 20
3.406969064618911
 10
25.73730204723947
 20
3.411018696361653
 10
25.73961612252098
 20
3.415068328104397
 10
25.74250871662302
 20
3.418539441026788
 10
25.74597982954532
 20
3.422010553949176
 10
25.74945094246772
 20
3.425192407461386
 10
25.75350057421045
 20
3.427795742153156
 10
25.75755020595329
 20
3.430109817434748
 10
25.76188909710629
 20
3.432423892716338
 10
25.7662279882592
 20
3.433870189767313
 10
25.77085613882231
 20
3.435316486818288
 10
25.77548428938551
 20
3.435895005638642
 10
25.7798231805385
 20
3.436473524459083
 10
25.78445133110168
 20
3.436184265048908
 10
25.79168281635664
 20
3.435027227408108
 10
25.79862504220142
 20
3.432713152126518
 10
25.80527800863592
 20
3.429531298614308
 10
25.81106319683991
 20
3.425192407461386
 10
25.81598060681327
 20
3.41998573807776
 10
25.81974097914575
 20
3.413911290463603
 10
25.82205505442735
 20
3.406679805208647
 10
25.82292283265805
 20
3.398580541723161
 10
25.82292283265805
 20
3.193206360482667
 10
25.82379061088858
 20
3.185685615817535
 10
25.82610468617017
 20
3.178743389972759
 10
25.82957579909257
 20
3.172668942358598
 10
25.83449320906584
 20
3.167462272975062
 10
25.8402783972699
 20
3.163123381822054
 10
25.84693136370443
 20
3.159652268899667
 10
25.85416284895938
 20
3.157627453028338
 10
25.86197285303467
 20
3.157048934207897
 10
25.91606436274174
 20
3.157048934207897
  0
LWPOLYLINE
  5
B73
330
17
100
AcDbEntity
  8
4
  6
Continuous
100
AcDbPolyline
 90
      271
 70
     0
 43
0.0
 10
25.25775805707772
 20
3.341017919093788
 10
25.25370842533499
 20
3.343331994375383
 10
25.24965879359215
 20
3.345356810246713
 10
25.24531990243924
 20
3.347092366707948
 10
25.24127027069649
 20
3.348827923169098
 10
25.23693137954348
 20
3.350563479630253
 10
25.23259248839048
 20
3.351720517271048
 10
25.22825359723756
 20
3.353166814322109
 10
25.22391470608463
 20
3.354323851962903
 10
25.21928655552145
 20
3.355191630193439
 10
25.21494766436845
 20
3.35577014901388
 10
25.21003025439509
 20
3.356348667834233
 10
25.2054021038319
 20
3.356927186654673
 10
25.20048469385854
 20
3.357216446064851
 10
25.19556728388518
 20
3.357216446064851
 10
25.19064987391181
 20
3.357216446064851
 10
25.18544320452827
 20
3.356927186654673
 10
25.11717798372156
 20
3.29618271051309
 10
25.1223846531051
 20
3.297339748153888
 10
25.12759132248864
 20
3.298496785794683
 10
25.13279799187225
 20
3.299653823435478
 10
25.13800466125589
 20
3.300521601666098
 10
25.14321133063943
 20
3.301389379896631
 10
25.14841800002297
 20
3.301967898717074
 10
25.15362466940651
 20
3.302546417537428
 10
25.15912059820022
 20
3.302835676947606
 10
25.16432726758376
 20
3.303124936357868
 10
25.16953393696738
 20
3.303124936357868
 10
25.17474060635102
 20
3.303124936357868
 10
25.17994727573455
 20
3.302835676947606
 10
25.18515394511809
 20
3.302257158127248
 10
25.19036061450163
 20
3.301389379896631
 10
25.19556728388518
 20
3.300521601666098
 10
25.20077395326871
 20
3.299364564025304
 10
25.20424506619119
 20
3.298207526384506
 10
25.20800543852367
 20
3.297339748153888
 10
25.21147655144606
 20
3.295893451102913
 10
25.21494766436845
 20
3.294736413462118
 10
25.21841877729084
 20
3.293290116411143
 10
25.22188989021322
 20
3.291843819360086
 10
25.22507174372534
 20
3.290108262898933
 10
25.22854285664782
 20
3.288372706437785
 10
25.23172471015994
 20
3.28634789056637
 10
25.23461730426189
 20
3.284323074694953
 10
25.23750989836384
 20
3.282298258823623
 10
25.24040249246588
 20
3.279984183542035
 10
25.24300582715765
 20
3.277380848850265
 10
25.24560916184942
 20
3.274777514158491
 10
25.247923237131
 20
3.271884920056458
 10
25.2502373124126
 20
3.268992325954511
 10
25.25370842533499
 20
3.263785656570886
 10
25.25660101943693
 20
3.258000468366991
 10
25.25862583530835
 20
3.252215280163011
 10
25.26007213235931
 20
3.245851573138677
 10
25.26093991058994
 20
3.23977712552452
 10
25.26065065117976
 20
3.233413418500181
 10
25.25920435412871
 20
3.227338970886024
 10
25.25689027884713
 20
3.221553782682045
 10
25.25341916592481
 20
3.216347113298505
 10
25.24936953418198
 20
3.212008222145497
 10
25.24474138361879
 20
3.208247849812931
 10
25.23924545482508
 20
3.205065996300718
 10
25.2334602666212
 20
3.202462661608948
 10
25.22767507841712
 20
3.200437845737623
 10
25.22131137139286
 20
3.198702289276384
 10
25.21523692377864
 20
3.197545251635589
 10
25.21234432967669
 20
3.197255992225413
 10
25.20916247616455
 20
3.196677473405053
 10
25.20626988206251
 20
3.196388213994795
 10
25.2030880285503
 20
3.196388213994795
 10
25.19990617503818
 20
3.196098954584615
 10
25.19701358093624
 20
3.196098954584615
 10
25.19383172742394
 20
3.196098954584615
 10
25.19064987391181
 20
3.196098954584615
 10
25.18775727980986
 20
3.196098954584615
 10
25.18457542629774
 20
3.196388213994795
 10
25.18139357278545
 20
3.196388213994795
 10
25.17821171927332
 20
3.196966732815234
 10
25.17531912517137
 20
3.197255992225413
 10
25.17213727165915
 20
3.197834511045853
 10
25.16924467755712
 20
3.198413029866207
 10
25.166062824045
 20
3.198991548686564
 10
25.1625917111227
 20
3.199859326917178
 10
25.15912059820022
 20
3.200727105147799
 10
25.1559387446881
 20
3.201884142788593
 10
25.15246763176572
 20
3.203041180429393
 10
25.1492857782535
 20
3.204487477480363
 10
25.14610392474137
 20
3.205933774531339
 10
25.14292207122917
 20
3.207669330992573
 10
25.13974021771697
 20
3.209404887453727
 10
25.13684762361501
 20
3.21114044391488
 10
25.13366577010288
 20
3.213165259786294
 10
25.13077317600084
 20
3.215190075657709
 10
25.12788058189881
 20
3.217214891529037
 10
25.12498798779686
 20
3.219239707400451
 10
25.1223846531051
 20
3.221553782682045
 10
25.11949205900317
 20
3.223867857963633
 10
25.11688872431138
 20
3.226181933245227
 10
25.11254983315837
 20
3.23052082439815
 10
25.10850020141564
 20
3.235148974961334
 10
25.10445056967288
 20
3.23977712552452
 10
25.10040093793006
 20
3.244405276087702
 10
25.09664056559758
 20
3.249033426650802
 10
25.09316945267511
 20
3.253950836624165
 10
25.08940908034262
 20
3.259157506007789
 10
25.08622722683033
 20
3.264074915981149
 10
25.08304537331822
 20
3.269281585364689
 10
25.08015277921626
 20
3.274777514158491
 10
25.07754944452449
 20
3.279984183542035
 10
25.07494610983272
 20
3.285480112335748
 10
25.07263203455112
 20
3.291265300539728
 10
25.07089647808989
 20
3.29676122933345
 10
25.06916092162874
 20
3.302835676947606
 10
25.06771462457777
 20
3.308620865151587
 10
25.06568980870635
 20
3.321926798020699
 10
25.06482203047581
 20
3.335811249710165
 10
25.06568980870635
 20
3.349695701399718
 10
25.06800388398794
 20
3.36300163426883
 10
25.07205351573069
 20
3.375729048317503
 10
25.07812796334484
 20
3.387299424725464
 10
25.08593796742015
 20
3.397712763492543
 10
25.09577278736689
 20
3.406101286388294
 10
25.09924390028934
 20
3.408126102259709
 10
25.10271501321165
 20
3.409861658720858
 10
25.1064753855443
 20
3.411597215182011
 10
25.1099464984666
 20
3.413043512233068
 10
25.11370687079927
 20
3.414200549873866
 10
25.11775650254191
 20
3.415357587514663
 10
25.12151687487457
 20
3.416225365745196
 10
25.12556650661731
 20
3.416803884565636
 10
25.12932687894987
 20
3.417382403385991
 10
25.1333765106927
 20
3.417671662796167
 10
25.13742614243536
 20
3.417671662796167
 10
25.14147577417819
 20
3.417671662796167
 10
25.14552540592102
 20
3.417671662796167
 10
25.14957503766368
 20
3.417382403385991
 10
25.15333540999633
 20
3.416803884565636
 10
25.15738504173908
 20
3.416225365745196
 10
25.1625917111227
 20
3.415357587514663
 10
25.16779838050624
 20
3.414200549873866
 10
25.17300504988978
 20
3.413043512233068
 10
25.17792245986314
 20
3.411307955771833
 10
25.18283986983651
 20
3.409572399310683
 10
25.18775727980986
 20
3.407547583439268
 10
25.19267468978322
 20
3.405522767567939
 10
25.19759209975658
 20
3.403208692286345
 10
25.20222025031977
 20
3.400605357594491
 10
25.20655914147278
 20
3.398002022902721
 10
25.21118729203588
 20
3.394820169390595
 10
25.2155261831888
 20
3.391927575288563
 10
25.21986507434181
 20
3.388456462366258
 10
25.22391470608463
 20
3.385274608854048
 10
25.22796433782737
 20
3.381514236521483
 10
25.23172471015994
 20
3.377753864188918
 10
25.28523770104659
 20
3.406679805208647
 10
25.28176658812411
 20
3.413043512233068
 10
25.27771695638144
 20
3.418828700436962
 10
25.27308880581825
 20
3.424324629230768
 10
25.26788213643471
 20
3.429242039204127
 10
25.26238620764092
 20
3.433870189767313
 10
25.25631176002675
 20
3.437919821510058
 10
25.2502373124126
 20
3.441680193842623
 10
25.24387360538826
 20
3.445151306765013
 10
25.2389561954149
 20
3.447465382046603
 10
25.23374952603136
 20
3.449779457328196
 10
25.22883211605799
 20
3.451804273199526
 10
25.22362544667445
 20
3.453539829660763
 10
25.21812951788057
 20
3.455275386121912
 10
25.21292284849704
 20
3.456432423762707
 10
25.20742691970331
 20
3.457589461403506
 10
25.2019309909096
 20
3.458457239634122
 10
25.1964350621158
 20
3.459035758454477
 10
25.19093913332199
 20
3.459325017864743
 10
25.18515394511809
 20
3.459614277274916
 10
25.17965801632437
 20
3.459614277274916
 10
25.17416208753049
 20
3.459325017864743
 10
25.16866615873677
 20
3.458746499044303
 10
25.16317022994305
 20
3.457878720813683
 10
25.15767430114927
 20
3.456721683172887
 10
25.15246763176572
 20
3.455564645532093
 10
25.14755022179236
 20
3.453829089070941
 10
25.14234355240873
 20
3.452093532609788
 10
25.13742614243536
 20
3.450357976148553
 10
25.13279799187225
 20
3.448043900866958
 10
25.12788058189881
 20
3.445729825585368
 10
25.12325243133572
 20
3.443126490893599
 10
25.11862428077262
 20
3.440523156201828
 10
25.11399613020943
 20
3.437630562099878
 10
25.10965723905642
 20
3.434737967997848
 10
25.10531834790342
 20
3.431556114485723
 10
25.10097945675049
 20
3.428374260973511
 10
25.09664056559758
 20
3.424903148051122
 10
25.09259093385475
 20
3.421432035128818
 10
25.08825204270174
 20
3.417960922206431
 10
25.084202410959
 20
3.414489809284042
 10
25.07841722275502
 20
3.409283139900503
 10
25.0729212939613
 20
3.404076470516877
 10
25.06742536516759
 20
3.398580541723161
 10
25.06221869578395
 20
3.392795353519181
 10
25.05701202640042
 20
3.387010165315201
 10
25.05209461642706
 20
3.381224977111303
 10
25.04746646586387
 20
3.375150529497148
 10
25.04283831530077
 20
3.368786822472728
 10
25.03878868355794
 20
3.362423115448388
 10
25.03473905181511
 20
3.35577014901388
 10
25.03097867948265
 20
3.349117182579278
 10
25.02779682597034
 20
3.342174956734589
 10
25.02490423186839
 20
3.335232730889807
 10
25.02230089717663
 20
3.328001245634856
 10
25.01998682189503
 20
3.320769760379904
 10
25.01825126543389
 20
3.313249015714768
 10
25.01651570897272
 20
3.303124936357868
 10
25.01564793074211
 20
3.292711597590703
 10
25.01535867133185
 20
3.282587518233801
 10
25.01564793074211
 20
3.27217417946664
 10
25.0168049683829
 20
3.262050100109733
 10
25.01882978425432
 20
3.251926020752834
 10
25.02143311894609
 20
3.241801941395932
 10
25.02490423186839
 20
3.232256380859384
 10
25.02721830714998
 20
3.227049711475758
 10
25.02982164184175
 20
3.221843042092218
 10
25.03242497653352
 20
3.216925632118859
 10
25.03560683004582
 20
3.212297481555673
 10
25.03878868355794
 20
3.207669330992573
 10
25.04225979648025
 20
3.203041180429393
 10
25.0460201688129
 20
3.198702289276384
 10
25.04978054114547
 20
3.194652657533638
 10
25.05383017288821
 20
3.190603025790901
 10
25.05816906404121
 20
3.186842653458333
 10
25.06250795519422
 20
3.183082281125678
 10
25.06684684634706
 20
3.179611168203381
 10
25.07147499691024
 20
3.176429314691167
 10
25.0763924068836
 20
3.173536720589219
 10
25.08130981685696
 20
3.170644126487187
 10
25.08622722683033
 20
3.168040791795418
 10
25.09779760323829
 20
3.163123381822054
 10
25.10965723905642
 20
3.159073750079313
 10
25.12180613428475
 20
3.156181155977279
 10
25.13424428892324
 20
3.153867080695769
 10
25.14668244356173
 20
3.152710043054975
 10
25.15912059820022
 20
3.152131524234535
 10
25.17155875283872
 20
3.152710043054975
 10
25.18428616688748
 20
3.15415634010595
 10
25.1964350621158
 20
3.15647041538754
 10
25.20829469793384
 20
3.159652268899667
 10
25.22015433375199
 20
3.163991160052676
 10
25.23143545074977
 20
3.168908570026035
 10
25.24213804892702
 20
3.174983017640196
 10
25.25226212828392
 20
3.18192524348497
 10
25.26180768882047
 20
3.18973524756028
 10
25.27077473053666
 20
3.198413029866207
 10
25.27742769697127
 20
3.206223033941516
 10
25.28350214458533
 20
3.214611556837271
 10
25.28899807337905
 20
3.223000079733016
 10
25.29362622394224
 20
3.232256380859384
 10
25.29767585568507
 20
3.241512681985668
 10
25.30085770919719
 20
3.251058242522213
 10
25.30288252506861
 20
3.260893062468938
 10
25.30432882211966
 20
3.271017141825841
 10
25.30461808152984
 20
3.279116405311413
 10
25.30403956270941
 20
3.286926409386723
 10
25.30259326565843
 20
3.294736413462118
 10
25.29998993096666
 20
3.302546417537428
 10
25.29651881804426
 20
3.308910124561763
 10
25.29246918630153
 20
3.314695312765743
 10
25.28755177632817
 20
3.320191241559546
 10
25.28234510694455
 20
3.325108651532908
 10
25.27655991874056
 20
3.329447542685831
 10
25.27048547112649
 20
3.33378643383884
 10
25.26412176410207
 20
3.337546806171403
 10
25.25775805707772
 20
3.341017919093788
  0
LWPOLYLINE
  5
B74
330
17
100
AcDbEntity
  8
4
  6
Continuous
100
AcDbPolyline
 90
       83
 70
     0
 43
0.0
 10
24.61964585942955
 20
3.425192407461386
 10
24.61501770886636
 20
3.429531298614308
 10
24.61038955830318
 20
3.433870189767313
 10
24.60576140774009
 20
3.437919821510058
 10
24.60084399776673
 20
3.441680193842623
 10
24.59563732838311
 20
3.444862047354833
 10
24.5898521401792
 20
3.447754641456783
 10
24.58348843315479
 20
3.450357976148553
 10
24.57625694789982
 20
3.452093532609788
 10
24.44146206274765
 20
3.377464604778737
 10
24.4408835439273
 20
3.185107096997095
 10
24.44117280333745
 20
3.18192524348497
 10
24.44175132215781
 20
3.178454130562578
 10
24.44290835979872
 20
3.175561536460549
 10
24.44435465684958
 20
3.172668942358598
 10
24.44609021331082
 20
3.170065607666828
 10
24.44811502918225
 20
3.167462272975062
 10
24.45042910446384
 20
3.165437457103648
 10
24.45303243915561
 20
3.163412641232231
 10
24.4573713303086
 20
3.160809306540461
 10
24.4619994808717
 20
3.15849523125887
 10
24.46662763143489
 20
3.15647041538754
 10
24.47154504140825
 20
3.154734858926305
 10
24.47646245138162
 20
3.153577821285511
 10
24.48137986135498
 20
3.152420783644712
 10
24.48658653073852
 20
3.15155300541418
 10
24.49179320012215
 20
3.15068522718356
 10
24.4969998695057
 20
3.150395967773381
 10
24.50220653888923
 20
3.150106708363119
 10
24.50741320827277
 20
3.150106708363119
 10
24.51290913706649
 20
3.150395967773381
 10
24.51811580645011
 20
3.15068522718356
 10
24.52332247583374
 20
3.151263746003913
 10
24.52852914521728
 20
3.151842264824357
 10
24.5337358146008
 20
3.152710043054975
 10
24.53981026221496
 20
3.153577821285511
 10
24.54588470982912
 20
3.155024118336481
 10
24.55166989803303
 20
3.15647041538754
 10
24.55745508623709
 20
3.158205971848691
 10
24.56324027444097
 20
3.160230787720108
 10
24.56902546264487
 20
3.162544863001699
 10
24.57452139143877
 20
3.16514819769347
 10
24.58001732023249
 20
3.16775153238524
 10
24.58522398961604
 20
3.170644126487187
 10
24.59071991840975
 20
3.173825979999396
 10
24.59563732838311
 20
3.177297092921785
 10
24.60084399776673
 20
3.180768205844174
 10
24.60576140774009
 20
3.18452857817674
 10
24.61038955830318
 20
3.188288950509305
 10
24.61501770886636
 20
3.19233858225205
 10
24.61964585942955
 20
3.196388213994795
 10
24.62687734468452
 20
3.203908958659923
 10
24.6335303111191
 20
3.211718962735319
 10
24.63989401814345
 20
3.219818226220807
 10
24.64538994693726
 20
3.228496008526818
 10
24.6505966163208
 20
3.237752309653105
 10
24.65522476688398
 20
3.247008610779471
 10
24.65898513921644
 20
3.256554171316019
 10
24.66245625213892
 20
3.266388991262741
 10
24.66505958683069
 20
3.276223811209467
 10
24.66708440270202
 20
3.286637149976542
 10
24.66853069975299
 20
3.29676122933345
 10
24.66939847798363
 20
3.307174568100615
 10
24.66968773739379
 20
3.317298647457513
 10
24.66910921857336
 20
3.327711986224678
 10
24.66795218093265
 20
3.338125324991759
 10
24.66621662447141
 20
3.348249404348742
 10
24.66477032742043
 20
3.353745333142464
 10
24.66332403036946
 20
3.359241261936263
 10
24.66158847390822
 20
3.364737190729984
 10
24.65956365803689
 20
3.369943860113524
 10
24.6572495827553
 20
3.375150529497148
 10
24.65464624806353
 20
3.380357198880689
 10
24.65204291337168
 20
3.385274608854048
 10
24.64915031926973
 20
3.390192018827411
 10
24.64596846575759
 20
3.395109428800774
 10
24.64249735283522
 20
3.399737579363959
 10
24.63902623991283
 20
3.404365729927143
 10
24.63555512699044
 20
3.408704621080064
 10
24.63179475465788
 20
3.413043512233068
 10
24.62774512291512
 20
3.417093143975812
 10
24.62369549117239
 20
3.421142775718558
 10
24.61964585942955
 20
3.425192407461386
  0
LWPOLYLINE
  5
B75
330
17
100
AcDbEntity
  8
4
  6
Continuous
100
AcDbPolyline
 90
       61
 70
     0
 43
0.0
 10
24.90192304191933
 20
3.328001245634856
 10
24.91031156481501
 20
3.328579764455299
 10
24.91841082830058
 20
3.329736802096094
 10
24.92564231355544
 20
3.331472358557244
 10
24.93229527999003
 20
3.33378643383884
 10
24.93808046819402
 20
3.336679027940783
 10
24.94357639698782
 20
3.339860881452993
 10
24.94849380696118
 20
3.343621253785562
 10
24.95283269811411
 20
3.347960144938483
 10
24.95659307044667
 20
3.352588295501666
 10
24.95977492395879
 20
3.357505705475028
 10
24.96237825865066
 20
3.362712374858568
 10
24.96440307452199
 20
3.368497563062548
 10
24.96613863098321
 20
3.374282751266528
 10
24.96729566862395
 20
3.380357198880689
 10
24.96787418744445
 20
3.386720905905023
 10
24.96816344685463
 20
3.393373872339621
 10
24.96787418744445
 20
3.399448319953778
 10
24.96671714980357
 20
3.405522767567939
 10
24.96527085275261
 20
3.411307955771833
 10
24.96295677747101
 20
3.417093143975812
 10
24.96035344277924
 20
3.422589072769531
 10
24.95717158926702
 20
3.427795742153156
 10
24.95341121693454
 20
3.432713152126518
 10
24.94936158519172
 20
3.437341302689703
 10
24.94473343462853
 20
3.441390934432446
 10
24.93981602465517
 20
3.445151306765013
 10
24.93489861468181
 20
3.448333160277223
 10
24.92940268588808
 20
3.451225754379168
 10
24.92361749768412
 20
3.453539829660763
 10
24.91783230948013
 20
3.454986126711736
 10
24.91175786186605
 20
3.456143164352533
 10
24.90568341425181
 20
3.456432423762707
 10
24.70320182711328
 20
3.456432423762707
 10
24.70609442121528
 20
3.454118348481117
 10
24.70869775590708
 20
3.451804273199526
 10
24.71130109059892
 20
3.449200938507756
 10
24.71361516588054
 20
3.446886863226162
 10
24.71592924116203
 20
3.444572787944573
 10
24.71824331644362
 20
3.441680193842623
 10
24.72026813231494
 20
3.438787599740676
 10
24.72229294818635
 20
3.435316486818288
 10
24.7251855422883
 20
3.428952779793954
 10
24.72749961756989
 20
3.421432035128818
 10
24.72894591462097
 20
3.414200549873866
 10
24.72952443344133
 20
3.408415361669886
 10
24.72981369285149
 20
3.148371151901971
 10
24.79952521070928
 20
3.209404887453727
 10
24.79952521070928
 20
3.330026061506271
 10
24.83018670819016
 20
3.330315320916448
 10
24.93460935527162
 20
3.157338193618075
 10
25.02456903184322
 20
3.15675967479772
 10
25.01907310304941
 20
3.159941528309845
 10
25.01357717425569
 20
3.163701900642495
 10
25.00837050487206
 20
3.167462272975062
 10
25.00316383548852
 20
3.171801164127986
 10
24.99824642551516
 20
3.175850795870728
 10
24.99361827495198
 20
3.180478946433908
 10
24.98899012438878
 20
3.185107096997095
 10
24.9843619738256
 20
3.190024506970456
 10
24.90192304191933
 20
3.328001245634856
  0
LWPOLYLINE
  5
B76
330
17
100
AcDbEntity
  8
4
  6
Continuous
100
AcDbPolyline
 90
       59
 70
     0
 43
0.0
 10
24.50220653888923
 20
3.375439788907323
 10
24.53171099872938
 20
3.398002022902721
 10
24.53633914929259
 20
3.397712763492543
 10
24.54067804044559
 20
3.397134244672188
 10
24.54501693159851
 20
3.395977207031391
 10
24.54906656334126
 20
3.394820169390595
 10
24.55340545449426
 20
3.393084612929357
 10
24.55745508623709
 20
3.391059797058028
 10
24.56121545856956
 20
3.388745721776438
 10
24.56497583090222
 20
3.386142387084668
 10
24.56844694382451
 20
3.383539052392813
 10
24.57191805674691
 20
3.380646458290863
 10
24.57538916966931
 20
3.377753864188918
 10
24.57857102318143
 20
3.374572010676705
 10
24.58146361728345
 20
3.37139015716458
 10
24.58435621138548
 20
3.368208303652371
 10
24.58695954607725
 20
3.365315709550423
 10
24.58927362135876
 20
3.362133856038214
 10
24.59737288484433
 20
3.349406441989541
 10
24.60373659186868
 20
3.336100509120428
 10
24.60836474243186
 20
3.321926798020699
 10
24.61154659594406
 20
3.307463827510788
 10
24.6135714118154
 20
3.292711597590703
 10
24.61443919004601
 20
3.277670108260438
 10
24.61501770886636
 20
3.262628618930176
 10
24.61472844945618
 20
3.247587129599829
 10
24.61414993063586
 20
3.23977712552452
 10
24.61270363358477
 20
3.232256380859384
 10
24.61038955830318
 20
3.225024895604431
 10
24.60749696420123
 20
3.218082669759653
 10
24.60402585127885
 20
3.211429703325142
 10
24.59968696012592
 20
3.205065996300718
 10
24.59505880956275
 20
3.199280808096823
 10
24.5898521401792
 20
3.193784879303025
 10
24.58406695197522
 20
3.188867469329658
 10
24.57828176377123
 20
3.184239318766477
 10
24.57191805674691
 20
3.180189687023736
 10
24.56555434972256
 20
3.176429314691167
 10
24.55919064269816
 20
3.173247461178953
 10
24.55253767626373
 20
3.170933385897365
 10
24.54588470982912
 20
3.168908570026035
 10
24.53952100280471
 20
3.167462272975062
 10
24.53576063047222
 20
3.16775153238524
 10
24.53200025813958
 20
3.168040791795418
 10
24.5282398858071
 20
3.168908570026035
 10
24.52476877288461
 20
3.170065607666828
 10
24.52129765996232
 20
3.171511904717805
 10
24.51811580645011
 20
3.173247461178953
 10
24.5149339529379
 20
3.175561536460549
 10
24.51233061824613
 20
3.177875611742138
 10
24.50943802414418
 20
3.180768205844174
 10
24.50741320827277
 20
3.183950059356299
 10
24.50567765181161
 20
3.187421172278686
 10
24.50423135476063
 20
3.191181544611255
 10
24.50336357653001
 20
3.19494191694382
 10
24.50278505770957
 20
3.198991548686564
 10
24.50220653888923
 20
3.203041180429393
 10
24.50220653888923
 20
3.207090812172133
 10
24.50220653888923
 20
3.375439788907323
  0
LWPOLYLINE
  5
B77
330
17
100
AcDbEntity
  8
4
  6
Continuous
100
AcDbPolyline
 90
      114
 70
     0
 43
0.0
 10
25.60415485737225
 20
3.15675967479772
 10
25.60097300386014
 20
3.15936300948949
 10
25.59779115034793
 20
3.163123381822054
 10
25.5946092968357
 20
3.168330051205594
 10
25.59142744332358
 20
3.174693758230015
 10
25.58853484922163
 20
3.182214502895147
 10
25.58622077394004
 20
3.191470804021428
 10
25.5844852174788
 20
3.202173402198774
 10
25.58332817983809
 20
3.214322297427089
 10
25.58332817983809
 20
3.405812026978116
 10
25.58303892042792
 20
3.411018696361653
 10
25.58188188278704
 20
3.416514625155459
 10
25.57985706691562
 20
3.422010553949176
 10
25.57696447281367
 20
3.427217223332716
 10
25.57320410048112
 20
3.432423892716338
 10
25.56857594991792
 20
3.437630562099878
 10
25.56336928053438
 20
3.442547972073243
 10
25.55729483292024
 20
3.447465382046603
 10
25.55064186648562
 20
3.451804273199526
 10
25.54312112182049
 20
3.455853904942352
 10
25.53473259892483
 20
3.459325017864743
 10
25.52605481661881
 20
3.462506871376867
 10
25.51621999667209
 20
3.464820946658461
 10
25.50609591731518
 20
3.466845762529873
 10
25.49510405972768
 20
3.468002800170671
 10
25.48353368331979
 20
3.468581318991025
 10
25.47109552868131
 20
3.468002800170671
 10
25.45894663345298
 20
3.466267243709433
 10
25.44708699763484
 20
3.462796130787046
 10
25.43580588063708
 20
3.458457239634122
 10
25.42510328245981
 20
3.452672051430142
 10
25.41468994369274
 20
3.446019084995628
 10
25.40514438315618
 20
3.438209080920235
 10
25.39617734144
 20
3.429531298614308
 10
25.3880780779545
 20
3.41998573807776
 10
25.38055733328937
 20
3.409861658720858
 10
25.37419362626496
 20
3.399159060543518
 10
25.36898695688142
 20
3.387877943545818
 10
25.36464806572841
 20
3.376018307727678
 10
25.36146621221627
 20
3.363869412499363
 10
25.35944139634486
 20
3.351431257860872
 10
25.3588628775245
 20
3.338703843812198
 10
25.3588628775245
 20
3.197545251635589
 10
25.35828435870407
 20
3.188578209919485
 10
25.35625954283273
 20
3.181057465254353
 10
25.35365620814096
 20
3.174693758230015
 10
25.3501850952185
 20
3.169487088846388
 10
25.34671398229619
 20
3.165437457103648
 10
25.3432428693738
 20
3.161966344181259
 10
25.33977175645141
 20
3.15936300948949
 10
25.33716842175966
 20
3.157048934207897
 10
25.39849141672159
 20
3.157048934207897
 10
25.40659068020707
 20
3.158205971848691
 10
25.41353290605184
 20
3.161098565950639
 10
25.4196073536661
 20
3.165437457103648
 10
25.42481402304963
 20
3.171222645307626
 10
25.42915291420255
 20
3.177586352331966
 10
25.43233476771476
 20
3.18452857817674
 10
25.43435958358617
 20
3.191760063431694
 10
25.43551662122688
 20
3.198991548686564
 10
25.43609514004723
 20
3.209404887453727
 10
25.43464884299635
 20
3.220107485631069
 10
25.43262402712495
 20
3.23052082439815
 10
25.43002069243318
 20
3.240644903755133
 10
25.42654957951078
 20
3.255107874264959
 10
25.42336772599856
 20
3.26957084477487
 10
25.42047513189664
 20
3.284033815284773
 10
25.41758253779469
 20
3.298496785794683
 10
25.4149792031029
 20
3.312959756304595
 10
25.4129543872315
 20
3.327711986224678
 10
25.41121883077025
 20
3.342174956734589
 10
25.41006179312955
 20
3.356927186654673
 10
25.40977253371938
 20
3.369076081882989
 10
25.41064031194989
 20
3.381514236521483
 10
25.4126651278213
 20
3.393663131749798
 10
25.41584698133343
 20
3.405522767567939
 10
25.42047513189664
 20
3.416514625155459
 10
25.42654957951078
 20
3.426638704512361
 10
25.43407032417591
 20
3.435316486818288
 10
25.44361588471246
 20
3.442547972073243
 10
25.44911181350626
 20
3.445440566175187
 10
25.45489700171015
 20
3.447465382046603
 10
25.46097144932432
 20
3.448911679097578
 10
25.46704589693848
 20
3.449779457328196
 10
25.47340960396289
 20
3.449779457328196
 10
25.47977331098716
 20
3.448911679097578
 10
25.48584775860138
 20
3.447465382046603
 10
25.49192220621546
 20
3.445440566175187
 10
25.49741813500927
 20
3.442547972073243
 10
25.50262480439288
 20
3.439076859150853
 10
25.50754221436618
 20
3.434737967997848
 10
25.51159184610892
 20
3.429820558024482
 10
25.51506295903138
 20
3.424324629230768
 10
25.51795555313333
 20
3.417960922206431
 10
25.51998036900473
 20
3.411018696361653
 10
25.52084814723528
 20
3.403497951696524
 10
25.52084814723528
 20
3.198123770456029
 10
25.52113740664547
 20
3.193206360482667
 10
25.52200518487607
 20
3.188867469329658
 10
25.52345148192705
 20
3.18452857817674
 10
25.52518703838828
 20
3.180478946433908
 10
25.52750111366987
 20
3.177007833511526
 10
25.53010444836164
 20
3.173536720589219
 10
25.53299704246359
 20
3.170354867077009
 10
25.53646815538599
 20
3.167462272975062
 10
25.54022852771854
 20
3.16514819769347
 10
25.54398890005112
 20
3.162834122411878
 10
25.54803853179385
 20
3.161098565950639
 10
25.55237742294686
 20
3.159652268899667
 10
25.55671631409988
 20
3.158205971848691
 10
25.56134446466305
 20
3.157338193618075
 10
25.56568335581598
 20
3.157048934207897
 10
25.57031150637909
 20
3.15675967479772
 10
25.60415485737225
 20
3.15675967479772
  0
LWPOLYLINE
  5
B78
330
17
100
AcDbEntity
  8
4
  6
Continuous
100
AcDbPolyline
 90
        5
 70
     0
 43
0.0
 10
25.51245962433962
 20
3.308910124561763
 10
25.42770661715159
 20
3.36300163426883
 10
25.42770661715159
 20
3.310067162202558
 10
25.5127488837498
 20
3.264364175391329
 10
25.51245962433962
 20
3.308910124561763
  0
LWPOLYLINE
  5
B79
330
17
100
AcDbEntity
  8
4
  6
Continuous
100
AcDbPolyline
 90
       21
 70
     0
 43
0.0
 10
24.90076600427845
 20
3.393373872339621
 10
24.89989822604791
 20
3.384406830623431
 10
24.89729489135616
 20
3.376018307727678
 10
24.89324525961331
 20
3.368786822472728
 10
24.8877493308196
 20
3.362423115448388
 10
24.881096364385
 20
3.357216446064851
 10
24.87357561971987
 20
3.353456073732282
 10
24.8651870968242
 20
3.351141998450694
 10
24.85650931451818
 20
3.350274220220073
 10
24.79836817306838
 20
3.350274220220073
 10
24.79836817306838
 20
3.424613888640942
 10
24.79258298486448
 20
3.438787599740676
 10
24.85766635215899
 20
3.438787599740676
 10
24.86634413446493
 20
3.437919821510058
 10
24.87473265736067
 20
3.435316486818288
 10
24.88196414261562
 20
3.431266855075542
 10
24.88832784963995
 20
3.425770926281741
 10
24.89353451902349
 20
3.418828700436962
 10
24.89729489135616
 20
3.411307955771833
 10
24.89989822604791
 20
3.402630173465903
 10
24.90076600427845
 20
3.393373872339621
  0
LWPOLYLINE
  5
B7A
330
17
100
AcDbEntity
  8
4
  6
Continuous
100
AcDbPolyline
 90
      213
 70
     0
 43
0.0
 10
26.34012871514153
 20
3.446019084995628
 10
26.33347574870711
 20
3.448622419687398
 10
26.3268227822725
 20
3.450936494968993
 10
26.32016981583792
 20
3.452961310840319
 10
26.31322758999322
 20
3.454696867301558
 10
26.30628536414844
 20
3.455853904942352
 10
26.29934313830375
 20
3.457010942583151
 10
26.29240091245897
 20
3.457878720813683
 10
26.28545868661419
 20
3.458457239634122
 10
26.27822720135924
 20
3.458746499044303
 10
26.27128497551448
 20
3.458746499044303
 10
26.26405349025951
 20
3.458457239634122
 10
26.25711126441482
 20
3.457878720813683
 10
26.24987977915987
 20
3.457010942583151
 10
26.2429375533151
 20
3.456143164352533
 10
26.23599532747039
 20
3.454696867301558
 10
26.22905310162563
 20
3.453250570250498
 10
26.21690420639732
 20
3.449490197917932
 10
26.20504457057918
 20
3.443994269124216
 10
26.19376345358148
 20
3.437630562099878
 10
26.18277159599396
 20
3.429820558024482
 10
26.17264751663706
 20
3.421142775718558
 10
26.16310195610051
 20
3.411307955771833
 10
26.15471343320476
 20
3.400894617004754
 10
26.14719268853962
 20
3.389902759417234
 10
26.14111824092546
 20
3.378332383009273
 10
26.13649009036229
 20
3.366183487780955
 10
26.13301897743989
 20
3.354034592552638
 10
26.13157268038893
 20
3.341596437914146
 10
26.13186193979911
 20
3.329158283275653
 10
26.13388675567052
 20
3.316720128637158
 10
26.13793638741333
 20
3.304571233408845
 10
26.14430009443758
 20
3.293000857000881
 10
26.14574639148865
 20
3.291265300539728
 10
26.1474819479498
 20
3.289819003488756
 10
26.14921750441097
 20
3.288661965847958
 10
26.15124232028236
 20
3.287504928207163
 10
26.15326713615377
 20
3.286926409386723
 10
26.15529195202519
 20
3.286637149976542
 10
26.15760602730679
 20
3.286637149976542
 10
26.15992010258839
 20
3.287215668796986
 10
26.24206977508448
 20
3.302835676947606
 10
26.24669792564765
 20
3.303703455178224
 10
26.25132607621083
 20
3.304281973998663
 10
26.2562434861842
 20
3.305149752229198
 10
26.2608716367474
 20
3.305439011639458
 10
26.26578904672076
 20
3.306017530459817
 10
26.27041719728393
 20
3.306306789869994
 10
26.27504534784711
 20
3.306306789869994
 10
26.27996275782047
 20
3.306306789869994
 10
26.28459090838366
 20
3.306017530459817
 10
26.28921905894677
 20
3.305728271049638
 10
26.29384720950995
 20
3.305149752229198
 10
26.29847536007304
 20
3.304281973998663
 10
26.30281425122606
 20
3.303124936357868
 10
26.30744240178925
 20
3.301967898717074
 10
26.31178129294224
 20
3.300232342255833
 10
26.31612018409516
 20
3.298496785794683
 10
26.3259550040419
 20
3.292422338180526
 10
26.33318648929685
 20
3.283744555874599
 10
26.33810389927021
 20
3.273620476517611
 10
26.34099649337225
 20
3.262050100109733
 10
26.34128575278243
 20
3.249901204881418
 10
26.339260936911
 20
3.237463050242924
 10
26.33521130516826
 20
3.225892673834964
 10
26.32913685755409
 20
3.215190075657709
 10
26.32479796640109
 20
3.210272665684343
 10
26.32045907524811
 20
3.205355255710985
 10
26.31525240586455
 20
3.201305623968153
 10
26.310045736481
 20
3.197545251635589
 10
26.3045498076873
 20
3.194074138713198
 10
26.29847536007304
 20
3.191181544611255
 10
26.29240091245897
 20
3.189156728739839
 10
26.28603720543456
 20
3.187421172278686
 10
26.27851646076943
 20
3.186553394048069
 10
26.27099571610429
 20
3.186553394048069
 10
26.26376423084935
 20
3.18713191286851
 10
26.2562434861842
 20
3.188867469329658
 10
26.24930126033942
 20
3.190892285201075
 10
26.24206977508448
 20
3.193784879303025
 10
26.23541680864996
 20
3.197255992225413
 10
26.22876384221545
 20
3.201305623968153
 10
26.22240013519102
 20
3.205933774531339
 10
26.21632568757696
 20
3.210851184504698
 10
26.21054049937288
 20
3.216347113298505
 10
26.20504457057918
 20
3.2221323015024
 10
26.20012716060581
 20
3.228206749116556
 10
26.19520975063244
 20
3.23457045614098
 10
26.19087085947945
 20
3.241223422575491
 10
26.18711048714696
 20
3.247876389010003
 10
26.12029156339122
 20
3.2175041509393
 10
26.1237626763136
 20
3.208826368633372
 10
26.12810156746653
 20
3.200437845737623
 10
26.13388675567052
 20
3.192917101072405
 10
26.1405397221051
 20
3.185685615817535
 10
26.14806046677023
 20
3.179032649382937
 10
26.15644898966591
 20
3.172958201768779
 10
26.16541603138209
 20
3.167462272975062
 10
26.17496159191865
 20
3.162544863001699
 10
26.18508567127554
 20
3.15849523125887
 10
26.19549901004262
 20
3.155024118336481
 10
26.20649086763024
 20
3.152131524234535
 10
26.2171934658075
 20
3.150395967773381
 10
26.228185323395
 20
3.14894967072241
 10
26.23917718098252
 20
3.148660411312147
 10
26.24987977915987
 20
3.149238930132588
 10
26.26058237733722
 20
3.150395967773381
 10
26.26868164082269
 20
3.152131524234535
 10
26.27649164489802
 20
3.154445599516127
 10
26.28430164897341
 20
3.157048934207897
 10
26.29182239363863
 20
3.160230787720108
 10
26.29905387889349
 20
3.163991160052676
 10
26.30628536414844
 20
3.168330051205594
 10
26.31293833058297
 20
3.172668942358598
 10
26.31959129701755
 20
3.177875611742138
 10
26.32566574463171
 20
3.183082281125678
 10
26.33174019224588
 20
3.188867469329658
 10
26.33723612103958
 20
3.19494191694382
 10
26.34244279042312
 20
3.201594883378421
 10
26.34707094098633
 20
3.208247849812931
 10
26.35140983213933
 20
3.215190075657709
 10
26.35517020447188
 20
3.222421560912662
 10
26.35864131739428
 20
3.229942305577794
 10
26.36182317090641
 20
3.238330828473544
 10
26.364137246188
 20
3.246719351369295
 10
26.36587280264922
 20
3.255107874264959
 10
26.36731909970021
 20
3.264074915981149
 10
26.36789761852064
 20
3.272752698287079
 10
26.36789761852064
 20
3.281430480593006
 10
26.36731909970021
 20
3.290108262898933
 10
26.36587280264922
 20
3.29878604520486
 10
26.364137246188
 20
3.306306789869994
 10
26.36182317090641
 20
3.313538275124948
 10
26.35893057680446
 20
3.320480500969723
 10
26.35545946388214
 20
3.327422726814501
 10
26.35112057272915
 20
3.333497174428658
 10
26.34620316275579
 20
3.339282362632553
 10
26.3404179745518
 20
3.344489032016178
 10
26.33434352693763
 20
3.348827923169098
 10
26.33174019224588
 20
3.350563479630253
 10
26.32884759814392
 20
3.352299036091488
 10
26.3259550040419
 20
3.353745333142464
 10
26.32306240993987
 20
3.355191630193439
 10
26.32016981583792
 20
3.356637927244493
 10
26.31698796232579
 20
3.357794964885206
 10
26.31409536822383
 20
3.358662743115823
 10
26.31091351471163
 20
3.359530521346443
 10
26.30773166119943
 20
3.36039829957706
 10
26.3045498076873
 20
3.361266077807593
 10
26.30136795417508
 20
3.361844596628032
 10
26.29818610066286
 20
3.362423115448388
 10
26.29500424715074
 20
3.36300163426883
 10
26.29182239363863
 20
3.363290893679009
 10
26.28835128071614
 20
3.363869412499363
 10
26.28516942720402
 20
3.364158671909629
 10
26.28198757369189
 20
3.364158671909629
 10
26.27880572017961
 20
3.364158671909629
 10
26.27562386666748
 20
3.364447931319802
 10
26.27244201315534
 20
3.364447931319802
 10
26.26926015964314
 20
3.364447931319802
 10
26.26607830613095
 20
3.364737190729984
 10
26.26260719320854
 20
3.364737190729984
 10
26.25913608028616
 20
3.364737190729984
 10
26.25566496736386
 20
3.364737190729984
 10
26.25219385444146
 20
3.364447931319802
 10
26.24814422269871
 20
3.364158671909629
 10
26.24438385036607
 20
3.363869412499363
 10
26.24033421862332
 20
3.363580153089186
 10
26.23599532747039
 20
3.36300163426883
 10
26.2316564363174
 20
3.362133856038214
 10
26.22702828575422
 20
3.361266077807593
 10
26.1607878808189
 20
3.349117182579278
 10
26.15905232435768
 20
3.355191630193439
 10
26.15818454612715
 20
3.36097681839742
 10
26.15847380553731
 20
3.367051266011573
 10
26.15934158376794
 20
3.372836454215553
 10
26.16136639963926
 20
3.378621642419448
 10
26.16368047492085
 20
3.384117571213253
 10
26.16715158784325
 20
3.389613500006971
 10
26.17091196017581
 20
3.394530909980334
 10
26.17525085132883
 20
3.399159060543518
 10
26.18016826130219
 20
3.4037872111067
 10
26.18537493068572
 20
3.407547583439268
 10
26.1911601188897
 20
3.411018696361653
 10
26.19723456650385
 20
3.413911290463603
 10
26.20330901411802
 20
3.416514625155459
 10
26.20967272114235
 20
3.418250181616607
 10
26.21632568757696
 20
3.419407219257406
 10
26.22211087578086
 20
3.419696478667582
 10
26.228185323395
 20
3.419696478667582
 10
26.23397051159898
 20
3.419117959847228
 10
26.23975569980288
 20
3.418250181616607
 10
26.24554088800696
 20
3.417093143975812
 10
26.25132607621083
 20
3.415357587514663
 10
26.25682200500455
 20
3.413332771643248
 10
26.26231793379836
 20
3.411018696361653
 10
26.26781386259216
 20
3.408415361669886
 10
26.27330979138589
 20
3.405522767567853
 10
26.27851646076943
 20
3.402630173465903
 10
26.28372313015296
 20
3.399159060543518
 10
26.28864054012633
 20
3.395687947621127
 10
26.29355795009968
 20
3.392216834698825
 10
26.29847536007304
 20
3.388456462366258
 10
26.30310351063624
 20
3.384696090033608
 10
26.37802169787754
 20
3.41998573807776
 10
26.37397206613471
 20
3.424035369820587
 10
26.3696331749818
 20
3.428085001563333
 10
26.36529428382888
 20
3.431845373895897
 10
26.3603768738555
 20
3.435027227408108
 10
26.35545946388214
 20
3.438209080920235
 10
26.35054205390878
 20
3.441101675022268
 10
26.34533538452516
 20
3.443705009714038
 10
26.34012871514153
 20
3.446019084995628
  0
LWPOLYLINE
  5
B7B
330
17
100
AcDbEntity
  8
4
  6
Continuous
100
AcDbPolyline
 90
      104
 70
     0
 43
0.0
 10
26.56625515455123
 20
3.463663909017662
 10
26.5743544180367
 20
3.454986126711736
 10
26.5778255309591
 20
3.450068716738373
 10
26.58071812506106
 20
3.445151306765013
 10
26.58332145975291
 20
3.440523156201828
 10
26.58534627562423
 20
3.436184265048908
 10
26.58708183208537
 20
3.431556114485723
 10
26.58823886972627
 20
3.426927963922538
 10
26.58881738854663
 20
3.422299813359352
 10
26.58910664795681
 20
3.417382403385991
 10
26.58910664795681
 20
3.192627841662226
 10
26.58187516270184
 20
3.193495619892845
 10
26.57464367744689
 20
3.19494191694382
 10
26.56770145160212
 20
3.196677473405053
 10
26.56075922575744
 20
3.198991548686564
 10
26.55410625932291
 20
3.201884142788593
 10
26.54745329288832
 20
3.204776736890544
 10
26.54080032645372
 20
3.208247849812931
 10
26.53472587883964
 20
3.212008222145497
 10
26.5286514312254
 20
3.216347113298505
 10
26.5228662430215
 20
3.220686004451423
 10
26.51737031422779
 20
3.22560341442479
 10
26.51216364484415
 20
3.230810083808326
 10
26.50695697546061
 20
3.236016753191951
 10
26.50232882489743
 20
3.241801941395846
 10
26.49798993374452
 20
3.247876389010003
 10
26.49394030200169
 20
3.253950836624165
 10
26.48757659497736
 20
3.265521213032123
 10
26.48236992559382
 20
3.277670108260438
 10
26.47832029385106
 20
3.290397522309111
 10
26.4757169591593
 20
3.303414195768047
 10
26.47455992151842
 20
3.316720128637158
 10
26.47513844033887
 20
3.329736802096008
 10
26.47774177503062
 20
3.343042734965118
 10
26.48208066618356
 20
3.35577014901388
 10
26.48439474146514
 20
3.361266077807593
 10
26.48699807615691
 20
3.366472747191133
 10
26.48989067025894
 20
3.371679416574759
 10
26.49278326436098
 20
3.37659682654812
 10
26.4959651178731
 20
3.381803495931661
 10
26.49943623079548
 20
3.386720905905023
 10
26.50290734371788
 20
3.391349056468206
 10
26.50637845664018
 20
3.396266466441568
 10
26.51013882897283
 20
3.400894617004754
 10
26.51389920130531
 20
3.405233508157673
 10
26.51794883304814
 20
3.409861658720858
 10
26.52199846479089
 20
3.414200549873866
 10
26.52604809653363
 20
3.418539441026788
 10
26.53038698768663
 20
3.422589072769531
 10
26.53443661942947
 20
3.426638704512361
 10
26.53877551058239
 20
3.430688336255102
 10
26.54224662350478
 20
3.434737967997848
 10
26.54456069878638
 20
3.43936611856103
 10
26.54600699583733
 20
3.443994269124216
 10
26.54600699583733
 20
3.448911679097578
 10
26.5454284770169
 20
3.453250570250498
 10
26.54369292055574
 20
3.457589461403506
 10
26.54166810468442
 20
3.461060574325892
 10
26.53877551058239
 20
3.463663909017662
 10
26.43522064173152
 20
3.463663909017662
 10
26.44013805170488
 20
3.459035758454477
 10
26.4456339804986
 20
3.453250570250498
 10
26.45084064988223
 20
3.446308344405808
 10
26.45517954103514
 20
3.438787599740676
 10
26.45836139454735
 20
3.430399076844926
 10
26.45980769159834
 20
3.421721294538998
 10
26.45865065395762
 20
3.413043512233068
 10
26.45460102221479
 20
3.404654989337318
 10
26.42278248709303
 20
3.349117182579278
 10
26.41497248301772
 20
3.332918655608219
 10
26.41005507304436
 20
3.315852350406538
 10
26.40774099776277
 20
3.298207526384506
 10
26.40803025717293
 20
3.280273442952208
 10
26.41092285127489
 20
3.262339359519915
 10
26.41670803947886
 20
3.245273054318233
 10
26.42480730296444
 20
3.229074527347173
 10
26.4355099011417
 20
3.214611556837271
 10
26.44071657052524
 20
3.208826368633372
 10
26.44621249931905
 20
3.203330439839569
 10
26.45199768752303
 20
3.197834511045766
 10
26.45807213513717
 20
3.192627841662226
 10
26.46414658275134
 20
3.187999691099046
 10
26.47079954918593
 20
3.183371540535944
 10
26.47745251562037
 20
3.179032649382937
 10
26.48439474146514
 20
3.175272277050368
 10
26.49133696730991
 20
3.171511904717805
 10
26.49856845256487
 20
3.168330051205594
 10
26.50579993781983
 20
3.165726716513824
 10
26.51332068248496
 20
3.163412641232231
 10
26.52084142715009
 20
3.161387825360906
 10
26.5286514312254
 20
3.160230787720108
 10
26.53617217589061
 20
3.15936300948949
 10
26.54398217996601
 20
3.159073750079313
 10
26.65476853407175
 20
3.159073750079313
 10
26.65476853407175
 20
3.420274997488022
 10
26.65505779348193
 20
3.426060185691917
 10
26.65534705289211
 20
3.431845373895897
 10
26.65621483112273
 20
3.437341302689618
 10
26.65737186876352
 20
3.443126490893599
 10
26.65910742522475
 20
3.448622419687398
 10
26.66113224109608
 20
3.453829089070941
 10
26.66344631637767
 20
3.458746499044303
 10
26.66604965106945
 20
3.463663909017662
 10
26.56625515455123
 20
3.463663909017662
  0
LWPOLYLINE
  5
B7C
330
17
100
AcDbEntity
  8
4
  6
Continuous
100
AcDbPolyline
 90
       46
 70
     0
 43
0.0
 10
26.85527873562072
 20
3.463953168427844
 10
26.69821087588332
 20
3.463953168427844
 10
26.70168198880563
 20
3.459325017864743
 10
26.70486384231775
 20
3.454118348481117
 10
26.70804569583004
 20
3.448911679097578
 10
26.71064903052181
 20
3.443415750303861
 10
26.71267384639313
 20
3.437630562099878
 10
26.7144094028543
 20
3.431845373895897
 10
26.71556644049517
 20
3.426349445102183
 10
26.71585569990535
 20
3.420564256898203
 10
26.71585569990535
 20
3.153577821285511
 10
26.78614573658348
 20
3.220975263861604
 10
26.78614573658348
 20
3.340728659683528
 10
26.88044430430789
 20
3.340728659683528
 10
26.88680801133231
 20
3.341017919093788
 10
26.89288245894639
 20
3.341307178503968
 10
26.89895690656062
 20
3.342174956734589
 10
26.90474209476452
 20
3.343331994375383
 10
26.9105272829685
 20
3.345067550836533
 10
26.91602321176231
 20
3.347381626118126
 10
26.92122988114585
 20
3.3499849608099
 10
26.92585803170903
 20
3.353166814322109
 10
26.93048618227221
 20
3.356927186654673
 10
26.9342465546047
 20
3.361555337217859
 10
26.93771766752717
 20
3.366472747191133
 10
26.94061026162912
 20
3.372257935395113
 10
26.94263507750054
 20
3.378910901829713
 10
26.94437063396168
 20
3.386142387084668
 10
26.9452384121923
 20
3.394241650570153
 10
26.9452384121923
 20
3.403208692286345
 10
26.94437063396168
 20
3.412754252822808
 10
26.94263507750054
 20
3.421142775718558
 10
26.93974248339852
 20
3.428663520383688
 10
26.93627137047611
 20
3.435316486818288
 10
26.93164321991293
 20
3.441101675022268
 10
26.92672580993957
 20
3.446019084995628
 10
26.92094062173568
 20
3.450357976148553
 10
26.91457691471125
 20
3.453829089070941
 10
26.90792394827673
 20
3.456721683172887
 10
26.90069246302178
 20
3.459035758454477
 10
26.89346097776682
 20
3.460771314915714
 10
26.88594023310169
 20
3.461928352556513
 10
26.8781302290263
 20
3.463085390197308
 10
26.87032022495099
 20
3.463663909017662
 10
26.86279948028586
 20
3.463953168427844
 10
26.85527873562072
 20
3.463953168427844
  0
LWPOLYLINE
  5
B7D
330
17
100
AcDbEntity
  8
4
  6
Continuous
100
AcDbPolyline
 90
       21
 70
     0
 43
0.0
 10
26.77341832253472
 20
3.448043900866958
 10
26.84428687803321
 20
3.448043900866958
 10
26.85325391974931
 20
3.447176122636426
 10
26.86193170205525
 20
3.444572787944573
 10
26.86945244672046
 20
3.440523156201828
 10
26.87639467256514
 20
3.435027227408108
 10
26.88189060135895
 20
3.428374260973511
 10
26.88622949251187
 20
3.420853516308377
 10
26.88883282720373
 20
3.412464993412628
 10
26.88970060543426
 20
3.403208692286345
 10
26.8891220866139
 20
3.395687947621127
 10
26.88738653015267
 20
3.388167202955995
 10
26.8847831954609
 20
3.381224977111303
 10
26.88102282312833
 20
3.375150529497148
 10
26.87610541315496
 20
3.369943860113524
 10
26.87032022495099
 20
3.365894228370778
 10
26.8636672585164
 20
3.363290893679009
 10
26.85585725444108
 20
3.362423115448388
 10
26.78672425540384
 20
3.362423115448388
 10
26.78672425540384
 20
3.432713152126518
 10
26.77341832253472
 20
3.448043900866958
  0
LWPOLYLINE
  5
B7E
330
17
100
AcDbEntity
  8
4
  6
Continuous
100
AcDbPolyline
 90
       21
 70
     0
 43
0.0
 10
27.05345335246392
 20
3.447465382046603
 10
27.1243219079624
 20
3.447465382046603
 10
27.13357820908868
 20
3.446597603815986
 10
27.14196673198444
 20
3.443994269124216
 10
27.14977673605984
 20
3.43994463738147
 10
27.1567189619046
 20
3.434448708587667
 10
27.16221489069833
 20
3.427795742153156
 10
27.16655378185132
 20
3.41998573807776
 10
27.16915711654309
 20
3.411597215182011
 10
27.17002489477363
 20
3.402340914055728
 10
27.16944637595327
 20
3.394820169390595
 10
27.16771081949203
 20
3.387299424725464
 10
27.16481822539009
 20
3.380646458290863
 10
27.16105785305752
 20
3.374282751266528
 10
27.15614044308416
 20
3.369076081882989
 10
27.15035525488017
 20
3.365026450140157
 10
27.14370228844558
 20
3.362423115448388
 10
27.13589228437027
 20
3.361555337217859
 10
27.06675928533302
 20
3.361555337217859
 10
27.06675928533302
 20
3.431845373895897
 10
27.05345335246392
 20
3.447465382046603
  0
TEXT
  5
B7F
330
17
100
AcDbEntity
  8
3
100
AcDbText
 10
30.14181437240379
 20
2.281398689203137
 30
0.0
 40
0.1563045964277055
  1
1
  7
SIMPLEX
100
AcDbText
  0
LINE
  5
B80
330
17
100
AcDbEntity
  8
0
100
AcDbLine
 10
29.49696939050781
 20
1.59999999999991
 30
0.0
 11
29.49696939050781
 21
2.537827578566153
 31
0.0
  0
TEXT
  5
B81
330
17
100
AcDbEntity
  8
3
100
AcDbText
 10
29.61147997832251
 20
2.324167042848133
 30
0.0
 40
0.077527079828142
  1
SHEET
  7
SIMPLEX
100
AcDbText
  0
TEXT
  5
B82
330
17
100
AcDbEntity
  8
3
100
AcDbText
 10
29.57117964010592
 20
2.031176911853149
 30
0.0
 40
0.0781522982138528
  1
PART/DWG. NO.
  7
SIMPLEX
100
AcDbText
  0
LWPOLYLINE
  5
B83
330
17
100
AcDbEntity
  8
4
  6
Continuous
100
AcDbPolyline
 90
       44
 70
     0
 43
0.0
 10
28.52450832019338
 20
3.459903536685098
 10
28.39636640147571
 20
3.459903536685098
 10
28.40041603321845
 20
3.457589461403506
 10
28.40504418378163
 20
3.454407607891292
 10
28.40938307493464
 20
3.449779457328196
 10
28.41372196608764
 20
3.444572787944573
 10
28.41748233842011
 20
3.438498340330412
 10
28.42066419193233
 20
3.431556114485723
 10
28.42239974839349
 20
3.424324629230768
 10
28.42326752662419
 20
3.416514625155373
 10
28.42326752662419
 20
3.159073750079313
 10
28.51930165080984
 20
3.159073750079313
 10
28.5355001777809
 20
3.159941528309845
 10
28.55112018593161
 20
3.162255603591437
 10
28.56616167526187
 20
3.166015975924006
 10
28.58033538636158
 20
3.171222645307626
 10
28.59364131923062
 20
3.177875611742138
 10
28.60636873327938
 20
3.185974875227714
 10
28.61793910968726
 20
3.19494191694382
 10
28.62864170786469
 20
3.205355255710985
 10
28.63818726840114
 20
3.216636372708678
 10
28.64686505070708
 20
3.229074527347173
 10
28.65438579537221
 20
3.242380460216289
 10
28.66046024298645
 20
3.256554171316019
 10
28.66537765295982
 20
3.271595660646285
 10
28.66913802529229
 20
3.287215668796986
 10
28.67116284116371
 20
3.303703455178224
 10
28.67203061939432
 20
3.320769760379904
 10
28.67145210057387
 20
3.335232730889807
 10
28.66913802529229
 20
3.349117182579278
 10
28.66537765295982
 20
3.362423115448388
 10
28.66017098357618
 20
3.375150529497148
 10
28.65380727655185
 20
3.387588684135645
 10
28.64628653188672
 20
3.398869801133337
 10
28.63760874958069
 20
3.409572399310683
 10
28.62777392963398
 20
3.419407219257406
 10
28.6173605908669
 20
3.428374260973511
 10
28.60579021445893
 20
3.436473524459083
 10
28.59364131923062
 20
3.443415750303861
 10
28.58062464577178
 20
3.449200938507756
 10
28.56731871290265
 20
3.453829089070941
 10
28.5534342612132
 20
3.457300201993328
 10
28.53897129070329
 20
3.459325017864743
 10
28.52450832019338
 20
3.459903536685098
  0
LWPOLYLINE
  5
B84
330
17
100
AcDbEntity
  8
4
  6
Continuous
100
AcDbPolyline
 90
       34
 70
     0
 43
0.0
 10
28.49182200684108
 20
3.435895005638642
 10
28.50310312383868
 20
3.434737967997848
 10
28.5140949814263
 20
3.432423892716252
 10
28.52450832019338
 20
3.428374260973511
 10
28.53463239955028
 20
3.422878332179793
 10
28.54388870067665
 20
3.416514625155373
 10
28.55285574239284
 20
3.408704621080064
 10
28.56095500587833
 20
3.400026838774136
 10
28.56847575054345
 20
3.390481278237587
 10
28.57541797638824
 20
3.379778680060245
 10
28.58120316459213
 20
3.368786822472728
 10
28.58640983397567
 20
3.356927186654673
 10
28.59074872512868
 20
3.344778291426356
 10
28.59421983805106
 20
3.332050877377598
 10
28.59653391333265
 20
3.319034203918747
 10
28.59826946979381
 20
3.306017530459817
 10
28.59855872920399
 20
3.292711597590703
 10
28.59769095097346
 20
3.28056270236239
 10
28.59537687569187
 20
3.268992325954511
 10
28.59190576276947
 20
3.257711208956728
 10
28.58727761220638
 20
3.247297870189648
 10
28.58149242400239
 20
3.23717379083275
 10
28.57483945756788
 20
3.227917489706379
 10
28.56731871290265
 20
3.21952896681063
 10
28.55950870882727
 20
3.211718962735319
 10
28.55112018593161
 20
3.204487477480363
 10
28.54244240362568
 20
3.198123770456029
 10
28.53347536190958
 20
3.192627841662226
 10
28.52479757960356
 20
3.187999691099046
 10
28.51583053788746
 20
3.18452857817674
 10
28.5074420149917
 20
3.181635984074707
 10
28.49934275150622
 20
3.179900427613555
 10
28.49182200684108
 20
3.179032649382937
 10
28.49182200684108
 20
3.435895005638642
  0
LWPOLYLINE
  5
B85
330
17
100
AcDbEntity
  8
4
  6
Continuous
100
AcDbPolyline
 90
       96
 70
     0
 43
0.0
 10
28.36436365703196
 20
3.159073750079313
 10
28.35973550646878
 20
3.162255603591437
 10
28.35510735590559
 20
3.165437457103648
 10
28.35105772416284
 20
3.169197829436212
 10
28.34758661124046
 20
3.172958201768779
 10
28.34469401713852
 20
3.177297092921785
 10
28.34237994185692
 20
3.182214502895147
 10
28.34093364480594
 20
3.187421172278686
 10
28.3403551259855
 20
3.192917101072405
 10
28.3403551259855
 20
3.380646458290863
 10
28.3403551259855
 20
3.388456462366258
 10
28.33977660716506
 20
3.396266466441568
 10
28.33861956952436
 20
3.404654989337318
 10
28.33630549424277
 20
3.412754252822808
 10
28.33283438132037
 20
3.421142775718558
 10
28.32733845252656
 20
3.428952779793954
 10
28.32010696727162
 20
3.43676278386926
 10
28.3102721473249
 20
3.444283528534393
 10
28.30419769971083
 20
3.448043900866958
 10
28.29783399268641
 20
3.451225754379168
 10
28.29147028566206
 20
3.453829089070941
 10
28.28452805981738
 20
3.456143164352533
 10
28.2775858339726
 20
3.457589461403506
 10
28.27064360812781
 20
3.458457239634122
 10
28.26370138228305
 20
3.459035758454477
 10
28.25646989702811
 20
3.459035758454477
 10
28.2495276711834
 20
3.458457239634122
 10
28.24258544533862
 20
3.457589461403506
 10
28.23593247890411
 20
3.456432423762707
 10
28.22927951246951
 20
3.454696867301558
 10
28.22320506485544
 20
3.452672051430142
 10
28.2171306172412
 20
3.450068716738373
 10
28.2113454290373
 20
3.447465382046603
 10
28.20613875965376
 20
3.444283528534393
 10
28.20324616555173
 20
3.442837231483417
 10
28.20064283085995
 20
3.441390934432446
 10
28.19775023675791
 20
3.43994463738147
 10
28.19514690206614
 20
3.438209080920235
 10
28.19254356737438
 20
3.436184265048908
 10
28.18965097327243
 20
3.434159449177493
 10
28.18704763858067
 20
3.431556114485723
 10
28.18386578506846
 20
3.428952779793954
 10
28.18241948801747
 20
3.434448708587667
 10
28.18010541273589
 20
3.43936611856103
 10
28.17750207804412
 20
3.443705009714038
 10
28.174320224532
 20
3.447754641456783
 10
28.17084911160953
 20
3.451225754379168
 10
28.16708873927704
 20
3.454118348481117
 10
28.16332836694439
 20
3.456721683172887
 10
28.15927873520164
 20
3.458746499044303
 10
28.09303833026635
 20
3.458746499044303
 10
28.09911277788051
 20
3.454407607891292
 10
28.10431944726405
 20
3.449490197917932
 10
28.10865833841706
 20
3.444283528534393
 10
28.11241871074953
 20
3.438209080920235
 10
28.11531130485156
 20
3.431845373895897
 10
28.1173361207229
 20
3.424613888640942
 10
28.11878241777396
 20
3.417093143975812
 10
28.11907167718413
 20
3.408704621080064
 10
28.11907167718413
 20
3.151842264824357
 10
28.18646911976032
 20
3.203908958659923
 10
28.18646911976032
 20
3.381803495931661
 10
28.18762615740102
 20
3.391349056468206
 10
28.19051875150297
 20
3.399737579363959
 10
28.19485764265598
 20
3.406969064618911
 10
28.20064283085995
 20
3.413043512233068
 10
28.20729579729447
 20
3.417960922206431
 10
28.21452728254943
 20
3.421432035128818
 10
28.22233728662474
 20
3.423746110410328
 10
28.23014729070013
 20
3.424613888640942
 10
28.23477544126331
 20
3.424613888640942
 10
28.2394035918264
 20
3.424035369820587
 10
28.24374248297943
 20
3.423167591589971
 10
28.24808137413242
 20
3.422010553949176
 10
28.25213100587516
 20
3.420564256898203
 10
28.25618063761793
 20
3.418539441026788
 10
28.25994100995055
 20
3.416514625155373
 10
28.26341212287287
 20
3.413911290463603
 10
28.26688323579526
 20
3.411307955771833
 10
28.26977582989729
 20
3.408415361669886
 10
28.27208990517889
 20
3.404944248747498
 10
28.27440398046039
 20
3.401762395235286
 10
28.27613953692154
 20
3.398002022902721
 10
28.27729657456242
 20
3.394241650570153
 10
28.27816435279294
 20
3.390192018827411
 10
28.27845361220312
 20
3.385853127674403
 10
28.27845361220312
 20
3.187421172278686
 10
28.27874287161331
 20
3.182793021715506
 10
28.27932139043375
 20
3.177875611742138
 10
28.28076768748474
 20
3.173247461178953
 10
28.28279250335614
 20
3.168619310615861
 10
28.28597435686827
 20
3.164858938283288
 10
28.2900239886111
 20
3.16167708477108
 10
28.29551991740482
 20
3.159652268899667
 10
28.30246214324958
 20
3.159073750079313
 10
28.36436365703196
 20
3.159073750079313
  0
LWPOLYLINE
  5
B86
330
17
100
AcDbEntity
  8
4
  6
Continuous
100
AcDbPolyline
 90
      133
 70
     0
 43
0.0
 10
27.74219789892953
 20
3.463953168427844
 10
27.68058564455742
 20
3.463953168427844
 10
27.68492453571044
 20
3.459325017864743
 10
27.68868490804293
 20
3.454696867301558
 10
27.69157750214495
 20
3.450068716738373
 10
27.69418083683671
 20
3.445729825585368
 10
27.69620565270813
 20
3.441390934432446
 10
27.69765194975909
 20
3.437052043279437
 10
27.6988089873999
 20
3.432423892716338
 10
27.69909824681008
 20
3.427795742153156
 10
27.69909824681008
 20
3.269860104185044
 10
27.69389157742654
 20
3.270438623005483
 10
27.68839564863274
 20
3.271306401236103
 10
27.6831889792492
 20
3.27217417946664
 10
27.67769305045547
 20
3.273331217107433
 10
27.67248638107194
 20
3.274777514158491
 10
27.66699045227813
 20
3.276223811209467
 10
27.6617837828945
 20
3.27795936767062
 10
27.65657711351096
 20
3.279694924131768
 10
27.6516597035376
 20
3.281719740003183
 10
27.64645303415406
 20
3.284033815284773
 10
27.64182488359089
 20
3.28634789056637
 10
27.63690747361753
 20
3.28895122525814
 10
27.63227932305435
 20
3.291843819360086
 10
27.62765117249116
 20
3.294736413462118
 10
27.62331228133823
 20
3.298207526384506
 10
27.6192626495955
 20
3.301678639306808
 10
27.61174190493036
 20
3.309199383972026
 10
27.60508893849575
 20
3.317587906867776
 10
27.59930375029187
 20
3.326554948583885
 10
27.59409708090823
 20
3.336389768530606
 10
27.59004744916551
 20
3.346224588477332
 10
27.5865763362431
 20
3.356927186654673
 10
27.58426226096152
 20
3.367629784831927
 10
27.58281596391055
 20
3.378621642419448
 10
27.58194818568
 20
3.389613500006971
 10
27.58194818568
 20
3.400894617004754
 10
27.58310522332073
 20
3.411886474592273
 10
27.58484077978196
 20
3.422878332179793
 10
27.58744411447373
 20
3.433870189767313
 10
27.59120448680629
 20
3.444283528534393
 10
27.59554337795922
 20
3.454407607891381
 10
27.60075004734277
 20
3.463953168427844
 10
27.52178222835877
 20
3.463953168427844
 10
27.51599704015489
 20
3.445440566175187
 10
27.51194740841206
 20
3.427506482742892
 10
27.50992259254065
 20
3.409572399310683
 10
27.50963333313047
 20
3.392506094109004
 10
27.51079037077126
 20
3.375729048317503
 10
27.51397222428348
 20
3.359819780756621
 10
27.51860037484666
 20
3.344489032016178
 10
27.52467482246073
 20
3.329736802096008
 10
27.53248482653603
 20
3.316141609816718
 10
27.54145186825223
 20
3.303124936357868
 10
27.55186520701932
 20
3.291265300539728
 10
27.56343558342728
 20
3.280273442952208
 10
27.57645225688611
 20
3.270727882415663
 10
27.59062596798586
 20
3.262050100109733
 10
27.60566745731612
 20
3.254818614854781
 10
27.62186598428725
 20
3.248744167240625
 10
27.62649413485045
 20
3.247297870189648
 10
27.63141154482381
 20
3.246140832548854
 10
27.63632895479716
 20
3.244983794908059
 10
27.64153562418071
 20
3.243826757267261
 10
27.64645303415406
 20
3.242958979036645
 10
27.6516597035376
 20
3.242380460216289
 10
27.65657711351096
 20
3.241512681985668
 10
27.6617837828945
 20
3.241223422575491
 10
27.66670119286788
 20
3.240644903755133
 10
27.67161860284124
 20
3.240355644344875
 10
27.67653601281459
 20
3.240066384934693
 10
27.68116416337779
 20
3.240066384934693
 10
27.68579231394097
 20
3.240066384934693
 10
27.69013120509398
 20
3.240066384934693
 10
27.69447009624699
 20
3.240355644344875
 10
27.69851972798964
 20
3.240644903755133
 10
27.69851972798964
 20
3.209983406274084
 10
27.66699045227813
 20
3.19233858225205
 10
27.66062674525381
 20
3.190892285201075
 10
27.65426303822938
 20
3.190024506970456
 10
27.64789933120506
 20
3.190024506970456
 10
27.64211414300107
 20
3.190892285201075
 10
27.63603969538698
 20
3.192049322841868
 10
27.63054376659319
 20
3.194074138713198
 10
27.62533709720964
 20
3.196677473405053
 10
27.62013042782604
 20
3.199570067507004
 10
27.61521301785265
 20
3.203041180429393
 10
27.61058486728948
 20
3.206801552761957
 10
27.60624597613656
 20
3.21114044391488
 10
27.6021963443938
 20
3.215479335067883
 10
27.59843597206117
 20
3.220396745041246
 10
27.59496485913885
 20
3.225314155014609
 10
27.59178300562672
 20
3.230231564987971
 10
27.58917967093497
 20
3.235438234371509
 10
27.53364186417693
 20
3.209694146863903
 10
27.5362451988687
 20
3.204776736890544
 10
27.53942705238082
 20
3.199859326917178
 10
27.54260890589302
 20
3.194652657533638
 10
27.54608001881543
 20
3.18973524756028
 10
27.55012965055815
 20
3.184817837586917
 10
27.55417928230091
 20
3.179900427613555
 10
27.55880743286409
 20
3.175561536460549
 10
27.56343558342728
 20
3.170933385897365
 10
27.56835299340063
 20
3.166883754154618
 10
27.57384892219434
 20
3.163123381822054
 10
27.57963411039842
 20
3.159941528309845
 10
27.58541929860232
 20
3.15675967479772
 10
27.59178300562672
 20
3.154445599516127
 10
27.59814671265099
 20
3.152420783644712
 10
27.60508893849575
 20
3.150974486593741
 10
27.6123204237507
 20
3.150395967773381
 10
27.61463449903231
 20
3.150395967773381
 10
27.61694857431391
 20
3.15068522718356
 10
27.61955190900567
 20
3.150974486593741
 10
27.62215524369745
 20
3.151263746003913
 10
27.62446931897904
 20
3.151842264824357
 10
27.6270726536708
 20
3.152710043054975
 10
27.6293867289524
 20
3.153577821285511
 10
27.63170080423399
 20
3.154445599516127
 10
27.75695012884963
 20
3.228206749116556
 10
27.75984272295165
 20
3.23052082439815
 10
27.761867538823
 20
3.233702677910359
 10
27.76273531705368
 20
3.237463050242924
 10
27.76302457646386
 20
3.241512681985668
 10
27.76302457646386
 20
3.435316486818288
 10
27.76244605764343
 20
3.441969453252799
 10
27.76128902000265
 20
3.448043900866958
 10
27.75926420413121
 20
3.452961310840319
 10
27.75666086943946
 20
3.457010942583151
 10
27.75347901592733
 20
3.459903536685098
 10
27.74971864359466
 20
3.462217611966686
 10
27.7459582712622
 20
3.463374649607485
 10
27.74219789892953
 20
3.463953168427844
  0
LWPOLYLINE
  5
B87
330
17
100
AcDbEntity
  8
4
  6
Continuous
100
AcDbPolyline
 90
       21
 70
     0
 43
0.0
 10
28.04393666810603
 20
3.458457239634122
 10
27.96757218381373
 20
3.458457239634122
 10
27.97133255614639
 20
3.455853904942352
 10
27.97509292847887
 20
3.452382792019966
 10
27.97885330081153
 20
3.448911679097578
 10
27.98203515432366
 20
3.444862047354833
 10
27.98492774842568
 20
3.440812415612001
 10
27.98724182370719
 20
3.436184265048908
 10
27.98868812075824
 20
3.431556114485723
 10
27.9892666395786
 20
3.426638704512361
 10
27.9892666395786
 20
3.160230787720108
 10
28.06129223271796
 20
3.160230787720108
 10
28.06129223271796
 20
3.441101675022268
 10
28.06100297330771
 20
3.445151306765013
 10
28.0601351950771
 20
3.448622419687398
 10
28.05839963861592
 20
3.451515013789347
 10
28.05637482274461
 20
3.454118348481117
 10
28.05377148805275
 20
3.455853904942352
 10
28.05087889395081
 20
3.457300201993328
 10
28.04769704043859
 20
3.458167980223946
 10
28.04393666810603
 20
3.458457239634122
  0
LWPOLYLINE
  5
B88
330
17
100
AcDbEntity
  8
4
  6
Continuous
100
AcDbPolyline
 90
       73
 70
     0
 43
0.0
 10
27.39362344509812
 20
3.233991937320536
 10
27.39854085507147
 20
3.231099343218589
 10
27.40259048681429
 20
3.227338970886024
 10
27.40606159973661
 20
3.222710820322839
 10
27.40866493442837
 20
3.2175041509393
 10
27.41011123147944
 20
3.211718962735319
 10
27.4104004908896
 20
3.205933774531339
 10
27.40953271265907
 20
3.200437845737623
 10
27.40721863737749
 20
3.19494191694382
 10
27.40461530268571
 20
3.191760063431694
 10
27.40201196799385
 20
3.188867469329658
 10
27.39883011448166
 20
3.186264134637892
 10
27.39535900155934
 20
3.183950059356299
 10
27.39159862922669
 20
3.182214502895147
 10
27.38754899748403
 20
3.180768205844174
 10
27.38321010633102
 20
3.179900427613555
 10
27.37887121517803
 20
3.179611168203381
 10
27.27329153045582
 20
3.179611168203381
 10
27.33027563426475
 20
3.227917489706379
 10
27.33374674718723
 20
3.231099343218589
 10
27.33635008187901
 20
3.234281196730713
 10
27.33866415716051
 20
3.23717379083275
 10
27.34011045421148
 20
3.240066384934693
 10
27.34126749185236
 20
3.242958979036645
 10
27.34184601067273
 20
3.246140832548854
 10
27.34242452949307
 20
3.249033426650802
 10
27.34242452949307
 20
3.252215280163011
 10
27.34242452949307
 20
3.443994269124216
 10
27.34184601067273
 20
3.448043900866958
 10
27.34068897303192
 20
3.452093532609788
 10
27.33866415716051
 20
3.455275386121912
 10
27.33606082246874
 20
3.458167980223946
 10
27.33287896895652
 20
3.460482055505453
 10
27.32940785603422
 20
3.462217611966686
 10
27.32535822429139
 20
3.463374649607485
 10
27.32130859254866
 20
3.463663909017662
 10
27.25882855994593
 20
3.463663909017662
 10
27.26316745109893
 20
3.459325017864743
 10
27.26692782343139
 20
3.455275386121912
 10
27.27010967694361
 20
3.450647235558728
 10
27.27271301163546
 20
3.446019084995628
 10
27.27502708691698
 20
3.440812415612001
 10
27.27647338396796
 20
3.435316486818288
 10
27.27734116219857
 20
3.428952779793954
 10
27.27763042160884
 20
3.421721294538998
 10
27.27763042160884
 20
3.221553782682045
 10
27.22614224659352
 20
3.159073750079313
 10
27.42081382965669
 20
3.159073750079313
 10
27.4239956831689
 20
3.15936300948949
 10
27.4274667960913
 20
3.159652268899667
 10
27.43064864960341
 20
3.160230787720108
 10
27.43411976252588
 20
3.161387825360906
 10
27.4375908754482
 20
3.162544863001699
 10
27.4407727289604
 20
3.163991160052676
 10
27.44395458247261
 20
3.165437457103648
 10
27.44713643598473
 20
3.167173013564799
 10
27.45031828949687
 20
3.169197829436212
 10
27.4532108835989
 20
3.171222645307626
 10
27.45610347770092
 20
3.173536720589219
 10
27.45899607180286
 20
3.175850795870728
 10
27.46131014708446
 20
3.178164871152319
 10
27.46391348177623
 20
3.180768205844174
 10
27.46593829764766
 20
3.183371540535944
 10
27.46796311351899
 20
3.185974875227714
 10
27.47259126408216
 20
3.195231176353996
 10
27.47548385818419
 20
3.205644515121162
 10
27.47693015523509
 20
3.217214891529037
 10
27.4766408958249
 20
3.229074527347173
 10
27.47461607995349
 20
3.240355644344875
 10
27.47114496703119
 20
3.25076898311204
 10
27.46622755705784
 20
3.259446765417963
 10
27.45957459062322
 20
3.266099731852478
 10
27.39362344509812
 20
3.233991937320536
  0
LWPOLYLINE
  5
B89
330
17
100
AcDbEntity
  8
4
  6
Continuous
100
AcDbPolyline
 90
       21
 70
     0
 43
0.0
 10
29.91050705367977
 20
3.459035758454477
 10
29.91600298247348
 20
3.456143164352533
 10
29.92063113303667
 20
3.452672051430142
 10
29.92468076477943
 20
3.448622419687398
 10
29.92757335888145
 20
3.443994269124216
 10
29.92988743416305
 20
3.438787599740676
 10
29.93162299062419
 20
3.433291670946872
 10
29.93249076885482
 20
3.427217223332716
 10
29.93278002826499
 20
3.420853516308377
 10
29.93278002826499
 20
3.159073750079313
 10
30.00393784317365
 20
3.159073750079313
 10
30.00393784317365
 20
3.421721294538998
 10
30.00422710258383
 20
3.427795742153156
 10
30.00567339963489
 20
3.433002411536696
 10
30.00740895609605
 20
3.438209080920235
 10
30.01030155019798
 20
3.442837231483417
 10
30.0134834037102
 20
3.447176122636426
 10
30.01753303545295
 20
3.451515013789347
 10
30.02187192660585
 20
3.455275386121912
 10
30.02707859598948
 20
3.459035758454477
 10
29.91050705367977
 20
3.459035758454477
  0
LWPOLYLINE
  5
B8A
330
17
100
AcDbEntity
  8
4
  6
Continuous
100
AcDbPolyline
 90
      138
 70
     0
 43
0.0
 10
28.8675945646377
 20
3.459035758454477
 10
28.87366901225187
 20
3.454696867301558
 10
28.87858642222523
 20
3.449779457328196
 10
28.88263605396796
 20
3.444283528534393
 10
28.88552864806991
 20
3.438498340330412
 10
28.88784272335151
 20
3.432423892716252
 10
28.88928902040257
 20
3.426060185691917
 10
28.89015679863311
 20
3.419117959847228
 10
28.89044605804328
 20
3.411886474592273
 10
28.89044605804328
 20
3.194652657533638
 10
28.88523938865974
 20
3.194652657533638
 10
28.88003271927619
 20
3.19494191694382
 10
28.87482604989265
 20
3.195520435764259
 10
28.86990863991929
 20
3.196388213994795
 10
28.86470197053575
 20
3.197545251635589
 10
28.85978456056239
 20
3.198991548686564
 10
28.85486715058903
 20
3.200727105147799
 10
28.85023900002585
 20
3.202462661608948
 10
28.84532159005249
 20
3.204776736890544
 10
28.84069343948932
 20
3.207090812172133
 10
28.83635454833629
 20
3.209694146863903
 10
28.83201565718337
 20
3.212586740965939
 10
28.82767676603038
 20
3.215768594478064
 10
28.82333787487744
 20
3.218950447990275
 10
28.81928824313462
 20
3.222421560912662
 10
28.81552787080213
 20
3.225892673834964
 10
28.80887490436754
 20
3.232545640269564
 10
28.80280045675338
 20
3.23977712552452
 10
28.79730452795958
 20
3.247297870189648
 10
28.79238711798621
 20
3.255397133675221
 10
28.7880482268333
 20
3.263785656570886
 10
28.7845771139109
 20
3.27217417946664
 10
28.78168451980895
 20
3.28114122118283
 10
28.77965970393754
 20
3.290108262898933
 10
28.77850266629675
 20
3.298496785794683
 10
28.77763488806613
 20
3.306885308690433
 10
28.77763488806613
 20
3.315563090996365
 10
28.7782134068865
 20
3.323951613892115
 10
28.77937044452736
 20
3.332340136787864
 10
28.78110600098852
 20
3.340728659683528
 10
28.78370933568037
 20
3.348827923169098
 10
28.78718044860267
 20
3.356637927244493
 10
28.78978378329444
 20
3.361555337217859
 10
28.79238711798621
 20
3.366472747191133
 10
28.79499045267798
 20
3.371100897754318
 10
28.79788304678001
 20
3.375729048317503
 10
28.80048638147179
 20
3.380357198880689
 10
28.80337897557382
 20
3.384696090033608
 10
28.80656082908596
 20
3.389034981186613
 10
28.80974268259807
 20
3.393084612929357
 10
28.81292453611036
 20
3.397423504082363
 10
28.81610638962249
 20
3.401473135825107
 10
28.8195775025448
 20
3.405522767567853
 10
28.82304861546727
 20
3.409572399310683
 10
28.82680898779975
 20
3.413332771643248
 10
28.8305693601324
 20
3.417382403385991
 10
28.83432973246488
 20
3.421142775718558
 10
28.83837936420771
 20
3.425192407461386
 10
28.84185047713009
 20
3.429242039204127
 10
28.84416455241161
 20
3.433580930357051
 10
28.84561084946266
 20
3.437919821510058
 10
28.84590010887284
 20
3.442258712663062
 10
28.84561084946266
 20
3.446597603815986
 10
28.84474307123213
 20
3.450936494968993
 10
28.84329677418107
 20
3.454986126711736
 10
28.84127195830965
 20
3.459035758454477
 10
28.73742783004869
 20
3.459035758454477
 10
28.73974190533029
 20
3.457010942583151
 10
28.7420559806119
 20
3.454986126711736
 10
28.7443700558934
 20
3.452961310840319
 10
28.74668413117499
 20
3.450647235558728
 10
28.74870894704631
 20
3.448333160277223
 10
28.75073376291772
 20
3.445729825585368
 10
28.75246931937896
 20
3.443126490893599
 10
28.75420487584012
 20
3.440523156201828
 10
28.7576759887625
 20
3.432713152126518
 10
28.75941154522374
 20
3.424324629230768
 10
28.75941154522374
 20
3.415646846924837
 10
28.75825450758286
 20
3.406969064618911
 10
28.75594043230127
 20
3.397712763492543
 10
28.7521800599688
 20
3.388745721776438
 10
28.74784116881578
 20
3.380357198880689
 10
28.74292375884241
 20
3.372257935395113
 10
28.73771708945888
 20
3.364158671909629
 10
28.73222116066508
 20
3.356348667834233
 10
28.72672523187127
 20
3.348249404348742
 10
28.72180782189791
 20
3.340150140863173
 10
28.71775819015525
 20
3.332050877377598
 10
28.71428707723277
 20
3.323951613892115
 10
28.711683742541
 20
3.315273831586183
 10
28.70965892666959
 20
3.306596049280174
 10
28.70850188902888
 20
3.297918266974243
 10
28.70792337020854
 20
3.28895122525814
 10
28.70792337020854
 20
3.279984183542035
 10
28.70879114843906
 20
3.271017141825841
 10
28.70994818607986
 20
3.265231953621943
 10
28.71110522372065
 20
3.259446765417963
 10
28.71284078018189
 20
3.253661577213984
 10
28.71486559605322
 20
3.24816564842027
 10
28.71717967133481
 20
3.242669719626463
 10
28.71978300602658
 20
3.237463050242924
 10
28.72238634071834
 20
3.231967121449125
 10
28.72556819423056
 20
3.227049711475758
 10
28.7287500477427
 20
3.2221323015024
 10
28.73222116066508
 20
3.217214891529037
 10
28.73598153299764
 20
3.212586740965939
 10
28.74003116474047
 20
3.207958590402755
 10
28.74408079648322
 20
3.203619699249746
 10
28.74813042822595
 20
3.199280808096823
 10
28.75246931937896
 20
3.195231176353996
 10
28.75709746994215
 20
3.191470804021428
 10
28.76230413932568
 20
3.187421172278686
 10
28.76808932752958
 20
3.183660799946118
 10
28.77387451573365
 20
3.180189687023736
 10
28.77994896334772
 20
3.177007833511526
 10
28.78631267037214
 20
3.174115239409575
 10
28.79267637739639
 20
3.171511904717805
 10
28.79932934383101
 20
3.168908570026035
 10
28.80598231026559
 20
3.166883754154618
 10
28.81263527670009
 20
3.16514819769347
 10
28.81928824313462
 20
3.163412641232231
 10
28.8262304689794
 20
3.161966344181259
 10
28.83317269482417
 20
3.161098565950639
 10
28.83982566125869
 20
3.160230787720108
 10
28.84676788710346
 20
3.159652268899667
 10
28.85342085353798
 20
3.159073750079313
 10
28.86007381997258
 20
3.159073750079313
 10
28.95697572238885
 20
3.159073750079313
 10
28.95697572238885
 20
3.422589072769531
 10
28.95697572238885
 20
3.427217223332716
 10
28.95697572238885
 20
3.431845373895897
 10
28.95755424120928
 20
3.43676278386926
 10
28.95842201943981
 20
3.441680193842623
 10
28.96015757590105
 20
3.446308344405808
 10
28.96247165118264
 20
3.450647235558728
 10
28.96594276410495
 20
3.454986126711736
 10
28.97057091466813
 20
3.459035758454477
 10
28.8675945646377
 20
3.459035758454477
  0
LWPOLYLINE
  5
B8B
330
17
100
AcDbEntity
  8
4
  6
Continuous
100
AcDbPolyline
 90
      133
 70
     0
 43
0.0
 10
29.31882276039022
 20
3.445151306765013
 10
29.31390535041688
 20
3.43994463738147
 10
29.30927719985368
 20
3.433870189767313
 10
29.30522756811095
 20
3.427506482742892
 10
29.30088867695801
 20
3.420853516308377
 10
29.29654978580501
 20
3.414489809284042
 10
29.29192163524183
 20
3.408126102259709
 10
29.28729348467864
 20
3.402340914055728
 10
29.28179755588493
 20
3.397423504082363
 10
29.2797727400135
 20
3.395977207031391
 10
29.27774792414209
 20
3.394530909980334
 10
29.27572310827068
 20
3.393084612929357
 10
29.27369829239936
 20
3.391638315878383
 10
29.27167347652802
 20
3.390192018827411
 10
29.26935940124643
 20
3.388745721776438
 10
29.26704532596485
 20
3.387299424725464
 10
29.26415273186281
 20
3.385853127674403
 10
29.36915389776473
 20
3.385853127674403
 10
29.36452574720155
 20
3.382092755341838
 10
29.36018685604853
 20
3.378332383009273
 10
29.35613722430571
 20
3.374572010676705
 10
29.35208759256307
 20
3.370522378933963
 10
29.3483272202304
 20
3.366183487780955
 10
29.34456684789784
 20
3.361844596628032
 10
29.34109573497546
 20
3.357505705475028
 10
29.33791388146332
 20
3.352877554911843
 10
29.33444276854084
 20
3.347960144938483
 10
29.3315501744389
 20
3.342753475554943
 10
29.32865758033697
 20
3.337257546761223
 10
29.32576498623502
 20
3.331761617967423
 10
29.32287239213307
 20
3.325687170353263
 10
29.32026905744121
 20
3.319612722739107
 10
29.31766572274944
 20
3.312959756304595
 10
29.31535164746783
 20
3.306017530459817
 10
29.31130201572509
 20
3.290686781719288
 10
29.3089879404435
 20
3.275356032978849
 10
29.30869868103334
 20
3.259736024828145
 10
29.31014497808423
 20
3.244116016677439
 10
29.31332683159653
 20
3.229074527347173
 10
29.31853350098005
 20
3.214322297427089
 10
29.32518646741466
 20
3.200437845737623
 10
29.33386424972049
 20
3.187710431688865
 10
29.33820314087352
 20
3.182503762305325
 10
29.34312055084686
 20
3.177586352331966
 10
29.34861647964059
 20
3.172668942358598
 10
29.35469092725482
 20
3.168330051205594
 10
29.36076537486889
 20
3.163991160052676
 10
29.36741834130351
 20
3.159941528309845
 10
29.37436056714827
 20
3.15647041538754
 10
29.38159205240322
 20
3.15328856187533
 10
29.38882353765817
 20
3.150395967773381
 10
29.39634428232331
 20
3.147792633081615
 10
29.40357576757826
 20
3.145767817210201
 10
29.41109651224341
 20
3.144321520159224
 10
29.41861725690854
 20
3.143164482518431
 10
29.42584874216348
 20
3.142875223108163
 10
29.43308022741843
 20
3.142875223108163
 10
29.44002245326313
 20
3.143453741928607
 10
29.44870023556905
 20
3.144900038979579
 10
29.45737801787507
 20
3.146635595440818
 10
29.46576654077073
 20
3.14894967072241
 10
29.47386580425622
 20
3.151842264824357
 10
29.48196506774188
 20
3.155024118336481
 10
29.48948581240701
 20
3.158784490669049
 10
29.49700655707214
 20
3.163123381822054
 10
29.50365952350665
 20
3.168040791795418
 10
29.51031248994117
 20
3.173536720589219
 10
29.51609767814523
 20
3.179321908793114
 10
29.52159360693895
 20
3.185685615817535
 10
29.52651101691231
 20
3.192627841662226
 10
29.53084990806532
 20
3.200148586327359
 10
29.53432102098762
 20
3.207958590402755
 10
29.53721361508957
 20
3.216636372708678
 10
29.53952769037116
 20
3.22560341442479
 10
29.53316398334692
 20
3.220107485631069
 10
29.52651101691231
 20
3.215190075657709
 10
29.51927953165736
 20
3.210561925094524
 10
29.51204804640241
 20
3.206801552761957
 10
29.50452730173728
 20
3.203330439839569
 10
29.49671729766198
 20
3.200437845737623
 10
29.4886180341764
 20
3.198123770456029
 10
29.48051877069082
 20
3.196388213994795
 10
29.47241950720533
 20
3.195231176353996
 10
29.46403098430958
 20
3.19494191694382
 10
29.45593172082401
 20
3.19494191694382
 10
29.44783245733854
 20
3.195809695174437
 10
29.43973319385296
 20
3.197255992225413
 10
29.43192318977755
 20
3.199570067507004
 10
29.42411318570226
 20
3.202462661608948
 10
29.41659244103711
 20
3.205933774531339
 10
29.40936095578216
 20
3.210561925094524
 10
29.40270798934756
 20
3.215479335067883
 10
29.3966335417335
 20
3.221264523271864
 10
29.39084835352952
 20
3.227338970886024
 10
29.38593094355615
 20
3.234281196730713
 10
29.38130279299296
 20
3.241223422575491
 10
29.3775424206604
 20
3.248744167240625
 10
29.37407130773801
 20
3.256554171316019
 10
29.37117871363597
 20
3.264653434801504
 10
29.36915389776473
 20
3.272752698287079
 10
29.36741834130351
 20
3.28114122118283
 10
29.36626130366261
 20
3.289819003488756
 10
29.36568278484225
 20
3.298207526384506
 10
29.36568278484225
 20
3.306885308690433
 10
29.36626130366261
 20
3.315563090996365
 10
29.36741834130351
 20
3.323951613892115
 10
29.37060019481562
 20
3.33378643383884
 10
29.37407130773801
 20
3.342464216144763
 10
29.37783168007057
 20
3.350563479630253
 10
29.38217057122358
 20
3.358084224295468
 10
29.38679872178676
 20
3.365315709550423
 10
29.39229465058048
 20
3.371968675984938
 10
29.39865835760492
 20
3.378910901829713
 10
29.40588984285986
 20
3.385563868264228
 10
29.46084913079737
 20
3.385563868264228
 10
29.46403098430958
 20
3.385563868264228
 10
29.46779135664215
 20
3.386142387084668
 10
29.47184098838489
 20
3.386720905905023
 10
29.47589062012765
 20
3.387877943545818
 10
29.47994025187046
 20
3.389034981186613
 10
29.48341136479277
 20
3.390770537647768
 10
29.48659321830508
 20
3.392506094109004
 10
29.48890729358658
 20
3.394820169390595
 10
29.54155250624258
 20
3.459035758454477
 10
29.3517983331528
 20
3.459035758454477
 10
29.34630240435899
 20
3.458746499044303
 10
29.3416742537958
 20
3.458457239634122
 10
29.33733536264288
 20
3.457589461403506
 10
29.33357499031032
 20
3.456143164352533
 10
29.32981461797775
 20
3.454407607891292
 10
29.32634350505536
 20
3.452093532609788
 10
29.3225831327228
 20
3.448911679097578
 10
29.31882276039022
 20
3.445151306765013
  0
LWPOLYLINE
  5
B8C
330
17
100
AcDbEntity
  8
4
  6
Continuous
100
AcDbPolyline
 90
      205
 70
     0
 43
0.0
 10
29.25291268297087
 20
3.424903148051122
 10
29.24510267889557
 20
3.433002411536696
 10
29.23671415599981
 20
3.440523156201828
 10
29.22716859546327
 20
3.446886863226162
 10
29.21704451610637
 20
3.452382792019966
 10
29.20634191792903
 20
3.457010942583151
 10
29.1953500603415
 20
3.460771314915714
 10
29.18349042452346
 20
3.463663909017662
 10
29.17163078870532
 20
3.465688724889078
 10
29.15977115288717
 20
3.466845762529873
 10
29.14762225765887
 20
3.467135021940053
 10
29.13518410302037
 20
3.466267243709433
 10
29.12332446720223
 20
3.464820946658461
 10
29.11146483138408
 20
3.462217611966686
 10
29.09989445497621
 20
3.458746499044303
 10
29.0889025973887
 20
3.454118348481117
 10
29.07819999921144
 20
3.448911679097578
 10
29.07010073572577
 20
3.443994269124216
 10
29.06257999106065
 20
3.438787599740676
 10
29.05534850580568
 20
3.432713152126518
 10
29.04869553937118
 20
3.426349445102183
 10
29.04233183234683
 20
3.419407219257406
 10
29.03654664414296
 20
3.412175734002451
 10
29.03133997475932
 20
3.404365729927143
 10
29.02642256478595
 20
3.396266466441568
 10
29.02237293304322
 20
3.388167202955995
 10
29.01861256071057
 20
3.379489420650068
 10
29.01571996660861
 20
3.370522378933963
 10
29.01340589132701
 20
3.361555337217859
 10
29.01167033486587
 20
3.352588295501666
 10
29.01080255663526
 20
3.343331994375383
 10
29.01022403781491
 20
3.33378643383884
 10
29.01080255663526
 20
3.324530132712468
 10
29.01109181604542
 20
3.319901982149283
 10
29.01167033486587
 20
3.314984572175921
 10
29.01224885368632
 20
3.310356421612825
 10
29.01340589132701
 20
3.305728271049638
 10
29.01485218837809
 20
3.301389379896631
 10
29.01716626365967
 20
3.297339748153888
 10
29.02005885776162
 20
3.29415789464168
 10
29.02381923009419
 20
3.291843819360086
 10
29.02555478655536
 20
3.290976041129554
 10
29.02729034301657
 20
3.290397522309111
 10
29.02931515888798
 20
3.290108262898933
 10
29.03105071534906
 20
3.290108262898933
 10
29.03307553122047
 20
3.290397522309111
 10
29.03510034709189
 20
3.290397522309111
 10
29.03712516296331
 20
3.290976041129554
 10
29.03972849765506
 20
3.291265300539728
 10
29.12563854248381
 20
3.306306789869994
 10
29.12939891481648
 20
3.306885308690433
 10
29.13344854655912
 20
3.307463827510788
 10
29.13720891889179
 20
3.307753086920969
 10
29.14125855063452
 20
3.308042346331228
 10
29.14501892296708
 20
3.308042346331228
 10
29.14906855470992
 20
3.308042346331228
 10
29.15282892704241
 20
3.308042346331228
 10
29.15687855878522
 20
3.307753086920969
 10
29.16063893111772
 20
3.307463827510788
 10
29.16468856286054
 20
3.306885308690433
 10
29.1684489351931
 20
3.306306789869994
 10
29.17220930752566
 20
3.305439011639458
 10
29.17625893926852
 20
3.304571233408845
 10
29.18001931160106
 20
3.303414195768047
 10
29.18349042452346
 20
3.302257158127248
 10
29.18725079685592
 20
3.300810861076276
 10
29.19592857916195
 20
3.29618271051309
 10
29.20287080500673
 20
3.289819003488756
 10
29.20836673380043
 20
3.282298258823623
 10
29.21183784672275
 20
3.273909735927873
 10
29.21386266259414
 20
3.264653434801504
 10
29.2144411814146
 20
3.255107874264959
 10
29.21328414377381
 20
3.2455623137285
 10
29.21039154967186
 20
3.236306012602129
 10
29.20749895556991
 20
3.230231564987971
 10
29.20431710205761
 20
3.224446376783991
 10
29.20026747031494
 20
3.219239707400451
 10
29.19592857916195
 20
3.214322297427089
 10
29.19101116918858
 20
3.209694146863903
 10
29.18580449980505
 20
3.205644515121162
 10
29.18030857101124
 20
3.202173402198774
 10
29.17452338280725
 20
3.198991548686564
 10
29.1684489351931
 20
3.196388213994795
 10
29.16208522816877
 20
3.194363398123464
 10
29.15572152114443
 20
3.192917101072405
 10
29.1493578141201
 20
3.19233858225205
 10
29.14270484768549
 20
3.192049322841868
 10
29.13605188125089
 20
3.192627841662226
 10
29.12968817422664
 20
3.193784879303025
 10
29.12332446720223
 20
3.195520435764259
 10
29.11811779781869
 20
3.197545251635589
 10
29.11320038784533
 20
3.199859326917178
 10
29.10857223728215
 20
3.202173402198774
 10
29.10394408671894
 20
3.205065996300718
 10
29.09931593615585
 20
3.207958590402755
 10
29.09497704500286
 20
3.211429703325142
 10
29.09063815384994
 20
3.214611556837271
 10
29.08658852210709
 20
3.218371929169834
 10
29.08282814977453
 20
3.2221323015024
 10
29.07877851803178
 20
3.226181933245227
 10
29.0753074051094
 20
3.230231564987971
 10
29.07183629218702
 20
3.234281196730713
 10
29.06836517926472
 20
3.238620087883718
 10
29.0651833257525
 20
3.243248238446903
 10
29.0620014722403
 20
3.247587129599829
 10
29.05910887813835
 20
3.252215280163011
 10
28.99055439792144
 20
3.218371929169834
 10
28.99605032671516
 20
3.209404887453727
 10
29.0024140337396
 20
3.201305623968153
 10
29.00935625958428
 20
3.193495619892845
 10
29.01687700424941
 20
3.186264134637892
 10
29.02497626773499
 20
3.179900427613555
 10
29.03365405004092
 20
3.174115239409575
 10
29.04262109175702
 20
3.168908570026035
 10
29.05216665229357
 20
3.164569678873029
 10
29.0620014722403
 20
3.160809306540461
 10
29.07183629218702
 20
3.157627453028338
 10
29.0822496309541
 20
3.155313377746745
 10
29.09266296972126
 20
3.153577821285511
 10
29.10307630848843
 20
3.152710043054975
 10
29.11348964725551
 20
3.152710043054975
 10
29.12390298602268
 20
3.153577821285511
 10
29.13431632478975
 20
3.155024118336481
 10
29.14472966355692
 20
3.157627453028338
 10
29.15485374291382
 20
3.160809306540461
 10
29.16439930345035
 20
3.164858938283288
 10
29.1739448639869
 20
3.170065607666828
 10
29.18291190570301
 20
3.175561536460549
 10
29.19130042859876
 20
3.181925243484884
 10
29.19939969208424
 20
3.188867469329658
 10
29.20692043674947
 20
3.196677473405053
 10
29.21357340318397
 20
3.204776736890544
 10
29.21993711020841
 20
3.213165259786294
 10
29.22543303900211
 20
3.222421560912662
 10
29.23006118956531
 20
3.231967121449125
 10
29.23411082130804
 20
3.241512681985668
 10
29.23729267482026
 20
3.251636761342656
 10
29.23960675010184
 20
3.262050100109733
 10
29.24076378774255
 20
3.272752698287079
 10
29.24105304715275
 20
3.280851961772567
 10
29.24076378774255
 20
3.28895122525814
 10
29.23989600951202
 20
3.29676122933345
 10
29.23844971246096
 20
3.304860492819018
 10
29.23613563717945
 20
3.312381237484154
 10
29.23353230248761
 20
3.319901982149283
 10
29.23006118956531
 20
3.327133467404238
 10
29.22572229841231
 20
3.334075693249013
 10
29.22225118549
 20
3.338703843812198
 10
29.21849081315733
 20
3.342753475554943
 10
29.2144411814146
 20
3.346513847887508
 10
29.20981303085142
 20
3.3499849608099
 10
29.20518488028831
 20
3.353166814322109
 10
29.20026747031494
 20
3.35577014901388
 10
29.19506080093132
 20
3.358373483705646
 10
29.18956487213753
 20
3.36039829957706
 10
29.1840689433438
 20
3.362423115448388
 10
29.1785730145501
 20
3.363869412499363
 10
29.17278782634611
 20
3.365315709550423
 10
29.1672918975523
 20
3.366472747191133
 10
29.1615067093484
 20
3.367340525421754
 10
29.15572152114443
 20
3.367919044242193
 10
29.14993633294045
 20
3.368497563062548
 10
29.14444040414674
 20
3.368786822472728
 10
29.14096929122434
 20
3.369076081882989
 10
29.13720891889179
 20
3.369076081882989
 10
29.13373780596939
 20
3.368786822472728
 10
29.13026669304701
 20
3.368786822472728
 10
29.12679558012462
 20
3.368497563062548
 10
29.12303520779204
 20
3.368208303652371
 10
29.11956409486974
 20
3.367629784831927
 10
29.11609298194728
 20
3.367340525421754
 10
29.11262186902496
 20
3.366762006601399
 10
29.1091507561025
 20
3.366183487780955
 10
29.10539038377002
 20
3.3656049689606
 10
29.10191927084762
 20
3.365026450140157
 10
29.09844815792525
 20
3.364447931319802
 10
29.09497704500286
 20
3.363869412499363
 10
29.09121667267029
 20
3.363290893679009
 10
29.0877455597479
 20
3.362712374858568
 10
29.03625738473269
 20
3.350274220220073
 10
29.03510034709189
 20
3.355191630193439
 10
29.03567886591225
 20
3.362712374858568
 10
29.03770368178366
 20
3.371968675984938
 10
29.04088553529587
 20
3.382382014752101
 10
29.04551368585897
 20
3.392795353519181
 10
29.05129887406303
 20
3.402630173465903
 10
29.05795184049754
 20
3.410729436951478
 10
29.06576184457285
 20
3.416803884565636
 10
29.07270407041763
 20
3.41998573807776
 10
29.07993555567252
 20
3.422299813359352
 10
29.08745630033772
 20
3.424035369820587
 10
29.09526630441312
 20
3.424903148051122
 10
29.10307630848843
 20
3.425192407461386
 10
29.11117557197392
 20
3.424903148051122
 10
29.11898557604923
 20
3.423746110410328
 10
29.12679558012462
 20
3.422010553949176
 10
29.13460558420002
 20
3.419696478667582
 10
29.14183706945497
 20
3.416803884565636
 10
29.14906855470992
 20
3.413622031053423
 10
29.15572152114443
 20
3.409861658720858
 10
29.16179596875858
 20
3.405522767567853
 10
29.1672918975523
 20
3.400605357594491
 10
29.17220930752566
 20
3.395398688210951
 10
29.17654819867868
 20
3.389902759417234
 10
29.25291268297087
 20
3.424903148051122
  0
LWPOLYLINE
  5
B8D
330
17
100
AcDbEntity
  8
4
  6
Continuous
100
AcDbPolyline
 90
       61
 70
     0
 43
0.0
 10
29.77901716440863
 20
3.330315320916448
 10
29.78740568730444
 20
3.330893839736803
 10
29.79550495078994
 20
3.332050877377598
 10
29.8027364360449
 20
3.33378643383884
 10
29.80938940247941
 20
3.336100509120428
 10
29.8151745906834
 20
3.338993103222379
 10
29.82067051947711
 20
3.342174956734589
 10
29.82558792945047
 20
3.345935329067153
 10
29.82992682060348
 20
3.350274220220073
 10
29.83368719293613
 20
3.354902370783258
 10
29.83686904644824
 20
3.359819780756621
 10
29.83947238114003
 20
3.365026450140157
 10
29.84149719701143
 20
3.370811638344141
 10
29.84323275347259
 20
3.37659682654812
 10
29.84438979111338
 20
3.382671274162277
 10
29.84496830993374
 20
3.389034981186613
 10
29.845257569344
 20
3.395687947621127
 10
29.84496830993374
 20
3.401762395235286
 10
29.84381127229304
 20
3.407836842849443
 10
29.84236497524197
 20
3.413622031053423
 10
29.84005089996037
 20
3.419407219257406
 10
29.8374475652686
 20
3.424903148051122
 10
29.83397645234629
 20
3.430109817434748
 10
29.83050533942384
 20
3.435027227408108
 10
29.8261664482709
 20
3.439655377971208
 10
29.82182755711799
 20
3.443705009714038
 10
29.81691014714463
 20
3.447465382046603
 10
29.81170347776109
 20
3.450647235558728
 10
29.80620754896728
 20
3.453539829660763
 10
29.80071162017348
 20
3.455853904942352
 10
29.79492643196959
 20
3.457300201993328
 10
29.78885198435533
 20
3.458457239634122
 10
29.78277753674126
 20
3.458746499044303
 10
29.58000669019254
 20
3.458746499044303
 10
29.58289928429449
 20
3.456432423762707
 10
29.58550261898627
 20
3.454118348481117
 10
29.58810595367803
 20
3.451515013789347
 10
29.59042002895963
 20
3.449200938507756
 10
29.59273410424123
 20
3.446886863226162
 10
29.59504817952281
 20
3.443994269124216
 10
29.59707299539423
 20
3.441101675022268
 10
29.59909781126555
 20
3.437630562099878
 10
29.60199040536759
 20
3.431266855075542
 10
29.60430448064918
 20
3.423746110410328
 10
29.60575077770007
 20
3.416514625155373
 10
29.6063292965205
 20
3.410729436951478
 10
29.60661855593077
 20
3.15068522718356
 10
29.67633007378836
 20
3.211718962735319
 10
29.67633007378836
 20
3.332340136787864
 10
29.70699157126943
 20
3.332629396198037
 10
29.81141421835082
 20
3.159652268899667
 10
29.9013738949223
 20
3.159073750079313
 10
29.89587796612859
 20
3.162255603591437
 10
29.89038203733488
 20
3.166015975924006
 10
29.88517536795134
 20
3.169776348256656
 10
29.88025795797798
 20
3.174115239409575
 10
29.87534054800462
 20
3.178164871152319
 10
29.87071239744143
 20
3.182793021715506
 10
29.86608424687825
 20
3.187421172278686
 10
29.86145609631507
 20
3.19233858225205
 10
29.77901716440863
 20
3.330315320916448
  0
LWPOLYLINE
  5
B8E
330
17
100
AcDbEntity
  8
4
  6
Continuous
100
AcDbPolyline
 90
       21
 70
     0
 43
0.0
 10
29.77757086735773
 20
3.395687947621127
 10
29.77670308912703
 20
3.386720905905023
 10
29.77409975443526
 20
3.378332383009273
 10
29.77005012269252
 20
3.371100897754318
 10
29.7645541938987
 20
3.364737190729984
 10
29.75790122746429
 20
3.359530521346443
 10
29.75038048279908
 20
3.35577014901388
 10
29.7422812193135
 20
3.353456073732282
 10
29.73360343700765
 20
3.352588295501666
 10
29.67546229555784
 20
3.352588295501666
 10
29.67546229555784
 20
3.426927963922538
 10
29.6693878479436
 20
3.441101675022268
 10
29.73447121523819
 20
3.441101675022268
 10
29.74343825695437
 20
3.440233896791647
 10
29.75153752043985
 20
3.437630562099878
 10
29.7587690056948
 20
3.433580930357051
 10
29.76513271271924
 20
3.428085001563333
 10
29.77033938210278
 20
3.421142775718558
 10
29.77409975443526
 20
3.413622031053423
 10
29.77670308912703
 20
3.404944248747498
 10
29.77757086735773
 20
3.395687947621127
  0
LINE
  5
B8F
330
17
100
AcDbEntity
  8
0
100
AcDbLine
 10
30.95000730842623
 20
2.177674272979741
 30
0.0
 11
30.95000730842623
 21
2.537827578566153
 31
0.0
  0
TEXT
  5
B90
330
17
100
AcDbEntity
  8
3
100
AcDbText
 10
30.75085217219045
 20
2.281398689203137
 30
0.0
 40
0.1563045964277055
  1
1
  7
SIMPLEX
100
AcDbText
  0
TEXT
  5
B91
330
17
100
AcDbEntity
  8
3
100
AcDbText
 10
31.67706885038314
 20
2.296484104436289
 30
0.0
 40
0.1071624313108349
  1
.50=1
  7
SIMPLEX
 72
     1
 11
31.88373925362546
 21
2.296484104436289
 31
0.0
100
AcDbText
  0
TEXT
  5
B92
330
17
100
AcDbEntity
  8
3
100
AcDbText
 10
31.15988819379655
 20
2.312278887805057
 30
0.0
 40
0.0781522982138528
  1
SCALE:
  7
SIMPLEX
100
AcDbText
  0
LINE
  5
B93
330
17
100
AcDbEntity
  8
0
100
AcDbLine
 10
31.62950958281673
 20
1.599999999999995
 30
0.0
 11
31.62950958281673
 21
2.177674272979741
 31
0.0
  0
TEXT
  5
B94
330
17
100
AcDbEntity
  8
3
100
AcDbText
 10
31.93238360667949
 20
1.71790467986901
 30
0.0
 40
0.1750611479990302
  1
*
  7
SIMPLEX
 72
     1
 11
31.97406483239354
 21
1.71790467986901
 31
0.0
100
AcDbText
  0
TEXT
  5
B95
330
17
100
AcDbEntity
  8
3
100
AcDbText
 10
31.86587590401092
 20
2.030693672726664
 30
0.0
 40
0.0781522982138528
  1
REV.
  7
SIMPLEX
100
AcDbText
  0
TEXT
  5
B96
330
17
100
AcDbEntity
  8
4
100
AcDbText
 10
30.72157383827758
 20
3.154739855979533
 30
0.0
 40
0.188
  1
inc., erie, pa.
  7
T
100
AcDbText
  0
LWPOLYLINE
  5
B97
330
17
100
AcDbEntity
  8
4
  6
Continuous
 62
     4
100
AcDbPolyline
 90
      205
 70
     0
 43
0.0
 10
30.5771595587393
 20
3.422878332179793
 10
30.56934955466399
 20
3.430977595665281
 10
30.56096103176816
 20
3.438209080920235
 10
30.55141547123169
 20
3.444572787944573
 10
30.5412913918747
 20
3.450357976148553
 10
30.53058879369745
 20
3.454986126711736
 10
30.51959693610986
 20
3.458746499044303
 10
30.50802655970196
 20
3.461639093146247
 10
30.49616692388392
 20
3.463663909017662
 10
30.4840180286556
 20
3.464531687248283
 10
30.47186913342728
 20
3.464820946658461
 10
30.45972023819897
 20
3.464242427838103
 10
30.44757134297065
 20
3.462506871376867
 10
30.43571170715251
 20
3.459903536685098
 10
30.42414133074455
 20
3.456432423762707
 10
30.41314947315712
 20
3.452093532609788
 10
30.40244687497969
 20
3.446886863226162
 10
30.3943476114942
 20
3.441969453252799
 10
30.38682686682907
 20
3.436473524459083
 10
30.37959538157412
 20
3.430688336255102
 10
30.37294241513952
 20
3.424324629230768
 10
30.36657870811527
 20
3.417382403385991
 10
30.3607935199112
 20
3.409861658720858
 10
30.35529759111748
 20
3.402340914055728
 10
30.3506694405543
 20
3.394241650570153
 10
30.34633054940139
 20
3.385853127674403
 10
30.34257017706881
 20
3.377175345368475
 10
30.33967758296686
 20
3.368497563062548
 10
30.33736350768527
 20
3.359530521346443
 10
30.33562795122403
 20
3.350274220220073
 10
30.33447091358323
 20
3.341017919093788
 10
30.33418165417305
 20
3.331761617967423
 10
30.3347601729935
 20
3.322505316841138
 10
30.33504943240368
 20
3.317587906867776
 10
30.33562795122403
 20
3.312959756304595
 10
30.33620647004439
 20
3.308042346331228
 10
30.33736350768527
 20
3.303414195768047
 10
30.33909906414641
 20
3.299075304615038
 10
30.34112388001776
 20
3.295025672872297
 10
30.34430573352995
 20
3.291843819360086
 10
30.34806610586253
 20
3.28952974407858
 10
30.34980166232376
 20
3.288661965847958
 10
30.35153721878491
 20
3.288083447027518
 10
30.35356203465634
 20
3.288083447027518
 10
30.35529759111748
 20
3.288083447027518
 10
30.3573224069889
 20
3.288083447027518
 10
30.35934722286031
 20
3.288372706437785
 10
30.36166129814191
 20
3.28895122525814
 10
30.36426463283367
 20
3.289240484668313
 10
30.45017467766242
 20
3.304281973998663
 10
30.45393504999498
 20
3.304860492819018
 10
30.45798468173773
 20
3.305149752229198
 10
30.46174505407038
 20
3.305728271049638
 10
30.46579468581304
 20
3.305728271049638
 10
30.46955505814569
 20
3.306017530459817
 10
30.47360468988844
 20
3.306017530459817
 10
30.477365062221
 20
3.305728271049638
 10
30.48141469396383
 20
3.305439011639458
 10
30.48517506629631
 20
3.305149752229198
 10
30.48922469803914
 20
3.304571233408845
 10
30.4929850703717
 20
3.303992714588401
 10
30.49674544270427
 20
3.303124936357868
 10
30.50050581503683
 20
3.302257158127248
 10
30.5042661873694
 20
3.301389379896631
 10
30.50802655970196
 20
3.300232342255833
 10
30.51149767262436
 20
3.29878604520486
 10
30.52017545493037
 20
3.29415789464168
 10
30.52740694018524
 20
3.287794187617341
 10
30.53261360956887
 20
3.280273442952208
 10
30.53637398190133
 20
3.271595660646285
 10
30.53839879777277
 20
3.262628618930176
 10
30.53868805718294
 20
3.253083058393629
 10
30.53753101954223
 20
3.243537497857084
 10
30.53463842544019
 20
3.233991937320536
 10
30.53174583133817
 20
3.227917489706379
 10
30.52856397782603
 20
3.2221323015024
 10
30.52451434608321
 20
3.216925632118859
 10
30.52017545493037
 20
3.212008222145497
 10
30.51554730436719
 20
3.207380071582314
 10
30.51034063498356
 20
3.203330439839569
 10
30.50455544677959
 20
3.199859326917178
 10
30.49877025857569
 20
3.196677473405053
 10
30.49269581096152
 20
3.194074138713198
 10
30.48662136334737
 20
3.19233858225205
 10
30.47996839691277
 20
3.190892285201075
 10
30.47360468988844
 20
3.190024506970456
 10
30.46724098286411
 20
3.18973524756028
 10
30.4605880164295
 20
3.190313766380634
 10
30.45422430940516
 20
3.191470804021428
 10
30.44786060238081
 20
3.193495619892845
 10
30.44265393299728
 20
3.195520435764259
 10
30.43773652302393
 20
3.197834511045766
 10
30.43281911305056
 20
3.200148586327359
 10
30.42819096248738
 20
3.203041180429393
 10
30.4235628119242
 20
3.205933774531339
 10
30.41922392077121
 20
3.209115628043549
 10
30.41517428902853
 20
3.212586740965939
 10
30.41083539787552
 20
3.216347113298505
 10
30.40707502554287
 20
3.220107485631069
 10
30.4033146532104
 20
3.223867857963633
 10
30.39955428087774
 20
3.227917489706379
 10
30.39608316795544
 20
3.232256380859384
 10
30.39261205503297
 20
3.236595272012309
 10
30.38943020152084
 20
3.240934163165314
 10
30.38624834800872
 20
3.245273054318233
 10
30.38335575390668
 20
3.249901204881418
 10
30.31451201427961
 20
3.216347113298505
 10
30.32000794307334
 20
3.207380071582314
 10
30.32637165009767
 20
3.198991548686564
 10
30.33331387594244
 20
3.191181544611255
 10
30.34083462060758
 20
3.184239318766477
 10
30.34893388409316
 20
3.177586352331966
 10
30.35761166639908
 20
3.171801164127986
 10
30.36686796752545
 20
3.166594494744446
 10
30.37612426865172
 20
3.162255603591437
 10
30.38595908859853
 20
3.15849523125887
 10
30.39608316795544
 20
3.155313377746745
 10
30.40649650672252
 20
3.152999302465156
 10
30.41690984548961
 20
3.15155300541418
 10
30.42732318425675
 20
3.15068522718356
 10
30.43773652302393
 20
3.15068522718356
 10
30.44814986179101
 20
3.151263746003913
 10
30.45856320055808
 20
3.152999302465156
 10
30.46897653932532
 20
3.155313377746745
 10
30.47910061868224
 20
3.158784490669049
 10
30.48864617921879
 20
3.162834122411878
 10
30.49819173975524
 20
3.16775153238524
 10
30.50715878147136
 20
3.173536720589219
 10
30.51583656377736
 20
3.179900427613555
 10
30.52364656785267
 20
3.186842653458243
 10
30.5311673125178
 20
3.194363398123464
 10
30.53810953836258
 20
3.202462661608948
 10
30.54418398597673
 20
3.21114044391488
 10
30.54967991477054
 20
3.220107485631069
 10
30.55459732474381
 20
3.229653046167614
 10
30.55835769707639
 20
3.239487866114338
 10
30.56153955058859
 20
3.249611945471241
 10
30.5638536258702
 20
3.260025284238321
 10
30.56501066351098
 20
3.270438623005483
 10
30.56558918233134
 20
3.27853788649106
 10
30.56529992292116
 20
3.286637149976542
 10
30.56443214469063
 20
3.294736413462118
 10
30.56298584763957
 20
3.302546417537428
 10
30.56067177235798
 20
3.310356421612825
 10
30.55777917825603
 20
3.317877166277953
 10
30.55430806533364
 20
3.325108651532908
 10
30.54996917418072
 20
3.332050877377598
 10
30.54649806125823
 20
3.336389768530606
 10
30.54273768892577
 20
3.340728659683528
 10
30.53868805718294
 20
3.344489032016178
 10
30.53434916603001
 20
3.347670885528303
 10
30.52943175605657
 20
3.350852739040512
 10
30.52451434608321
 20
3.353745333142464
 10
30.51930767669967
 20
3.356059408424053
 10
30.51410100731613
 20
3.358373483705646
 10
30.50860507852241
 20
3.360109040166798
 10
30.50310914972861
 20
3.361844596628032
 10
30.49732396152463
 20
3.363290893679009
 10
30.49153877332073
 20
3.364447931319802
 10
30.48575358511675
 20
3.365315709550423
 10
30.47996839691277
 20
3.365894228370778
 10
30.47418320870888
 20
3.366472747191133
 10
30.46868727991507
 20
3.366762006601399
 10
30.4652161669927
 20
3.366762006601399
 10
30.46145579466011
 20
3.366762006601399
 10
30.45798468173773
 20
3.366762006601399
 10
30.45451356881543
 20
3.366472747191133
 10
30.45104245589296
 20
3.366183487780955
 10
30.44757134297065
 20
3.365894228370778
 10
30.44410023004826
 20
3.3656049689606
 10
30.44062911712587
 20
3.365026450140157
 10
30.43686874479332
 20
3.364447931319802
 10
30.43339763187093
 20
3.363869412499363
 10
30.42992651894854
 20
3.363290893679009
 10
30.42645540602615
 20
3.36300163426883
 10
30.42298429310384
 20
3.362423115448388
 10
30.41951318018144
 20
3.361844596628032
 10
30.41575280784889
 20
3.361266077807593
 10
30.41228169492649
 20
3.360687558987239
 10
30.36050426050102
 20
3.347960144938483
 10
30.35963648227049
 20
3.352877554911843
 10
30.36021500109084
 20
3.36039829957706
 10
30.36195055755209
 20
3.369654600703343
 10
30.36542167047438
 20
3.380067939470507
 10
30.36976056162739
 20
3.390481278237587
 10
30.37554574983136
 20
3.400316098184313
 10
30.38248797567607
 20
3.408415361669886
 10
30.39029797975147
 20
3.414489809284042
 10
30.39724020559615
 20
3.417671662796167
 10
30.40447169085111
 20
3.420274997488022
 10
30.41199243551623
 20
3.421721294538998
 10
30.41980243959164
 20
3.422878332179793
 10
30.42761244366703
 20
3.423167591589971
 10
30.43571170715251
 20
3.422589072769531
 10
30.44352171122783
 20
3.421721294538998
 10
30.45133171530321
 20
3.41998573807776
 10
30.45914171937852
 20
3.417671662796167
 10
30.46637320463347
 20
3.414779068694221
 10
30.47331543047818
 20
3.411307955771833
 10
30.47996839691277
 20
3.407547583439268
 10
30.48604284452692
 20
3.403208692286345
 10
30.49182803273089
 20
3.398291282312984
 10
30.49674544270427
 20
3.393084612929357
 10
30.5007950744471
 20
3.387588684135645
 10
30.5771595587393
 20
3.422878332179793
  0
LINE
  5
BA9
330
17
100
AcDbEntity
  8
0
100
AcDbLine
 10
7.396397605412929
 20
11.91799090939883
 30
0.0
 11
7.396397605412929
 21
7.917990909398831
 31
0.0
  0
LINE
  5
BAA
330
17
100
AcDbEntity
  8
0
100
AcDbLine
 10
7.396397605412929
 20
7.917990909398831
 30
0.0
 11
24.64639760541293
 21
7.917990909398831
 31
0.0
  0
LINE
  5
BAB
330
17
100
AcDbEntity
  8
0
100
AcDbLine
 10
7.396397605412929
 20
11.91799090939883
 30
0.0
 11
24.64639760541293
 21
11.91799090939884
 31
0.0
  0
LINE
  5
BAC
330
17
100
AcDbEntity
  8
0
100
AcDbLine
 10
24.64639760541293
 20
11.91799090939884
 30
0.0
 11
24.64639760541293
 21
7.917990909398831
 31
0.0
  0
LINE
  5
BB2
330
17
100
AcDbEntity
  8
0
  6
HIDDEN
100
AcDbLine
 10
12.14639760541293
 20
11.91799090939883
 30
0.0
 11
12.14639760541293
 21
7.917990909398831
 31
0.0
  0
LINE
  5
BB4
330
17
100
AcDbEntity
  8
3
  6
CENTER
100
AcDbLine
 10
9.896397605412927
 20
11.76882251521447
 30
0.0
 11
9.896397605412927
 21
8.067159303583187
 31
0.0
  0
LINE
  5
BB5
330
17
100
AcDbEntity
  8
3
  6
CENTER
100
AcDbLine
 10
9.545565999597286
 20
11.41799090939883
 30
0.0
 11
10.24722921122857
 21
11.41799090939883
 31
0.0
  0
LINE
  5
BB6
330
17
100
AcDbEntity
  8
3
  6
CENTER
100
AcDbLine
 10
9.545565999597286
 20
8.417990909398831
 30
0.0
 11
10.24722921122857
 21
8.417990909398831
 31
0.0
  0
CIRCLE
  5
BB7
330
17
100
AcDbEntity
  8
0
100
AcDbCircle
 10
9.896397605412927
 20
11.41799090939883
 30
0.0
 40
0.102
  0
CIRCLE
  5
BB8
330
17
100
AcDbEntity
  8
0
100
AcDbCircle
 10
9.896397605412927
 20
8.417990909398831
 30
0.0
 40
0.102
  0
CIRCLE
  5
BB9
330
17
100
AcDbEntity
  8
CCC
100
AcDbCircle
 10
9.896397605412927
 20
11.41799090939883
 30
0.0
 40
0.179
  0
CIRCLE
  5
BBA
330
17
100
AcDbEntity
  8
CCC
100
AcDbCircle
 10
9.896397605412927
 20
8.417990909398831
 30
0.0
 40
0.179
  0
DIMENSION
  5
BF2
330
17
100
AcDbEntity
  8
3
100
AcDbDimension
  2
*D0
 10
4.559645201471563
 20
11.91799090939883
 30
0.0
 11
4.559645201471563
 21
9.917990909398831
 31
0.0
 12
0.0
 22
0.8828829511402176
 32
0.0
 70
    32
 71
     5
 42
-1.0
  3
STANDARD
100
AcDbAlignedDimension
 13
7.396397605412929
 23
7.917990909398831
 33
0.0
 14
7.396397605412929
 24
11.91799090939883
 34
0.0
 50
90.0
100
AcDbRotatedDimension
1001
ACAD
1000
DSTYLE
1002
{
1070
    40
1040
2.0
1070
    41
1040
0.125
1070
    44
1040
0.0625
1070
    78
1070
     4
1070
   140
1040
0.125
1070
   141
1040
-0.125
1070
   271
1070
     5
1070
   272
1070
     3
1070
   277
1070
     5
1070
   279
1070
     2
1070
   284
1070
     4
1070
   285
1070
     4
1070
   286
1070
     4
1070
   340
1005
1C
1002
}
  0
DIMENSION
  5
C35
330
17
100
AcDbEntity
  8
3
100
AcDbDimension
  2
*D1
 10
24.64639760541293
 20
6.138273077224657
 30
0.0
 11
16.02139760541293
 21
6.138273077224657
 31
0.0
 12
0.0
 22
0.8828829511402176
 32
0.0
 70
    32
 71
     5
 42
-1.0
  3
STANDARD
100
AcDbAlignedDimension
 13
7.396397605412929
 23
7.917990909398831
 33
0.0
 14
24.64639760541293
 24
7.917990909398831
 34
0.0
100
AcDbRotatedDimension
1001
ACAD
1000
DSTYLE
1002
{
1070
    40
1040
2.0
1070
    41
1040
0.125
1070
    44
1040
0.0625
1070
    78
1070
     4
1070
   140
1040
0.125
1070
   141
1040
-0.125
1070
   271
1070
     5
1070
   272
1070
     3
1070
   277
1070
     5
1070
   279
1070
     2
1070
   284
1070
     4
1070
   285
1070
     4
1070
   286
1070
     4
1070
   340
1005
1C
1002
}
  0
LINE
  5
DAB
330
17
100
AcDbEntity
  8
0
100
AcDbLine
 10
7.396397605412929
 20
15.84488418322939
 30
0.0
 11
24.64639760541293
 21
15.8448841832294
 31
0.0
  0
LINE
  5
DAC
330
17
100
AcDbEntity
  8
0
100
AcDbLine
 10
12.14639760541293
 20
17.09488418322939
 30
0.0
 11
24.64639760541293
 21
17.09488418322938
 31
0.0
  0
DIMENSION
  5
DAE
330
17
100
AcDbEntity
  8
3
100
AcDbDimension
  2
*D2
 10
6.37289573244098
 20
16.46988418322939
 30
0.0
 11
6.051063516861289
 21
15.34742271952554
 31
0.0
 70
   160
 71
     5
 42
-1.0
  3
STANDARD
100
AcDbAlignedDimension
 13
7.396397605412929
 23
15.84488418322939
 33
0.0
 14
7.396397605412929
 24
16.46988418322939
 34
0.0
 50
90.0
100
AcDbRotatedDimension
1001
ACAD
1000
DSTYLE
1002
{
1070
    40
1040
2.0
1070
    41
1040
0.125
1070
    44
1040
0.0625
1070
    78
1070
     4
1070
   140
1040
0.125
1070
   141
1040
-0.125
1070
   271
1070
     5
1070
   272
1070
     3
1070
   277
1070
     5
1070
   279
1070
     2
1070
   284
1070
     4
1070
   285
1070
     4
1070
   286
1070
     4
1070
   340
1005
1C
1002
}
  0
LINE
  5
DAF
330
17
100
AcDbEntity
  8
3
100
AcDbLine
 10
6.37289573244098
 20
15.34488418322939
 30
0.0
 11
6.208320674602389
 21
15.34488418322939
 31
0.0
  0
LINE
  5
DB0
330
17
100
AcDbEntity
  8
0
100
AcDbLine
 10
7.396397605412929
 20
16.46988418322939
 30
0.0
 11
12.14639760541293
 21
16.46988418322939
 31
0.0
  0
LINE
  5
DB1
330
17
100
AcDbEntity
  8
0
100
AcDbLine
 10
7.396397605412929
 20
16.46988418322939
 30
0.0
 11
7.396397605412929
 21
15.84488418322939
 31
0.0
  0
LINE
  5
DB2
330
17
100
AcDbEntity
  8
3
  6
CENTER
100
AcDbLine
 10
9.896397605412927
 20
16.7087880011098
 30
0.0
 11
9.896397605412927
 21
15.61494932265133
 31
0.0
  0
LINE
  5
DB3
330
17
100
AcDbEntity
  8
0
  6
HIDDEN
100
AcDbLine
 10
9.998397605412927
 20
15.9334625505854
 30
0.0
 11
9.998397605412927
 21
16.46988418322939
 31
0.0
  0
LINE
  5
DB4
330
17
100
AcDbEntity
  8
0
  6
HIDDEN
100
AcDbLine
 10
9.794397605412928
 20
15.93346255058541
 30
0.0
 11
9.794397605412928
 21
16.46988418322939
 31
0.0
  0
LINE
  5
DB5
330
17
100
AcDbEntity
  8
0
  6
HIDDEN
100
AcDbLine
 10
10.07539760541293
 20
15.84488418322939
 30
0.0
 11
9.998397605412927
 21
15.9334625505854
 31
0.0
  0
LINE
  5
DB6
330
17
100
AcDbEntity
  8
0
  6
HIDDEN
100
AcDbLine
 10
9.71739760541293
 20
15.84488418322939
 30
0.0
 11
9.794397605412928
 21
15.93346255058541
 31
0.0
  0
LINE
  5
DB7
330
17
100
AcDbEntity
  8
0
100
AcDbLine
 10
12.14639760541293
 20
17.09488418322939
 30
0.0
 11
12.14639760541293
 21
16.46988418322939
 31
0.0
  0
DIMENSION
  5
DB8
330
17
100
AcDbEntity
  8
3
100
AcDbDimension
  2
*D3
 10
25.96291370480088
 20
17.09488418322938
 30
0.0
 11
25.96291370480088
 21
16.46988418322939
 31
0.0
 70
    32
 71
     5
 42
-1.0
  3
STANDARD
100
AcDbAlignedDimension
 13
24.64639760541293
 23
15.8448841832294
 33
0.0
 14
24.64639760541293
 24
17.09488418322938
 34
0.0
 50
90.0
100
AcDbRotatedDimension
1001
ACAD
1000
DSTYLE
1002
{
1070
    40
1040
2.0
1070
    41
1040
0.125
1070
    44
1040
0.0625
1070
    78
1070
     4
1070
   140
1040
0.125
1070
   141
1040
-0.125
1070
   271
1070
     5
1070
   272
1070
     3
1070
   277
1070
     5
1070
   279
1070
     2
1070
   284
1070
     4
1070
   285
1070
     4
1070
   286
1070
     4
1070
   340
1005
1C
1002
}
  0
LINE
  5
DB9
330
17
100
AcDbEntity
  8
0
100
AcDbLine
 10
24.64639760541293
 20
17.09488418322938
 30
0.0
 11
24.64639760541293
 21
15.8448841832294
 31
0.0
  0
ENDSEC
  0
SECTION
  2
OBJECTS
  0
DICTIONARY
  5
C
330
0
100
AcDbDictionary
281
     1
  3
ACAD_CIP_PREVIOUS_PRODUCT_INFO
350
E7D
  3
ACAD_COLOR
350
E5A
  3
ACAD_DETAILVIEWSTYLE
350
E73
  3
ACAD_GROUP
350
D
  3
ACAD_LAYOUT
350
E75
  3
ACAD_MATERIAL
350
E28
  3
ACAD_MLEADERSTYLE
350
E6F
  3
ACAD_MLINESTYLE
350
1A
  3
ACAD_PLOTSETTINGS
350
E76
  3
ACAD_PLOTSTYLENAME
350
E26
  3
ACAD_SCALELIST
350
E5D
  3
ACAD_SECTIONVIEWSTYLE
350
E71
  3
ACAD_TABLESTYLE
350
E5B
  3
ACAD_VISUALSTYLE
350
E41
  3
ACDB_RECOMPOSE_DATA
350
F53
  3
ACDBVARIABLEDICTIONARY
350
2E
  3
AcDsDecomposeData
350
F5A
  3
DWGPROPS
350
F54
  0
DICTIONARY
  5
EA3
330
8
100
AcDbDictionary
280
     1
281
     1
  0
DICTIONARY
  5
E91
330
2
100
AcDbDictionary
280
     1
281
     1
  3
ACAD_LAYERSTATES
360
E92
  0
DICTIONARY
  5
E84
330
E
100
AcDbDictionary
280
     1
281
     1
  3
ADSK_XREC_LAYER_RECONCILED
360
E85
  0
DICTIONARY
  5
E86
330
26
100
AcDbDictionary
280
     1
281
     1
  3
ADSK_XREC_LAYER_RECONCILED
360
E87
  0
DICTIONARY
  5
E88
330
27
100
AcDbDictionary
280
     1
281
     1
  3
ADSK_XREC_LAYER_RECONCILED
360
E89
  0
DICTIONARY
  5
E8A
330
28
100
AcDbDictionary
280
     1
281
     1
  3
ADSK_XREC_LAYER_RECONCILED
360
E8B
  0
DICTIONARY
  5
E8C
330
BA7
100
AcDbDictionary
280
     1
281
     1
  3
ADSK_XREC_LAYER_RECONCILED
360
E8D
  0
XRECORD
  5
E7D
102
{ACAD_REACTORS
330
C
102
}
330
C
100
AcDbXrecord
280
     1
300
AMECH_PP
300
2015
300
PDSU_F_S
  0
DICTIONARY
  5
E5A
102
{ACAD_REACTORS
330
C
102
}
330
C
100
AcDbDictionary
281
     1
  0
DICTIONARY
  5
E73
102
{ACAD_REACTORS
330
C
102
}
330
C
100
AcDbDictionary
281
     1
  3
Imperial24
350
E74
  0
DICTIONARY
  5
D
102
{ACAD_REACTORS
330
C
102
}
330
C
100
AcDbDictionary
281
     1
  0
DICTIONARY
  5
E75
102
{ACAD_REACTORS
330
C
102
}
330
C
100
AcDbDictionary
281
     1
  3
Layout1
350
E78
  3
Model
350
E77
  0
DICTIONARY
  5
E28
102
{ACAD_REACTORS
330
C
102
}
330
C
100
AcDbDictionary
281
     1
  3
ByBlock
350
E31
  3
ByLayer
350
E29
  3
Global
350
E39
  0
DICTIONARY
  5
E6F
102
{ACAD_REACTORS
330
C
102
}
330
C
100
AcDbDictionary
281
     1
  3
Standard
350
E70
  0
DICTIONARY
  5
1A
102
{ACAD_REACTORS
330
C
102
}
330
C
100
AcDbDictionary
281
     1
  3
STANDARD
350
1B
  0
DICTIONARY
  5
E76
102
{ACAD_REACTORS
330
C
102
}
330
C
100
AcDbDictionary
281
     1
  0
ACDBDICTIONARYWDFLT
  5
E26
102
{ACAD_REACTORS
330
C
102
}
330
C
100
AcDbDictionary
281
     1
  3
Normal
350
E27
100
AcDbDictionaryWithDefault
340
E27
  0
DICTIONARY
  5
E5D
102
{ACAD_REACTORS
330
C
102
}
330
C
100
AcDbDictionary
281
     1
  3
A0
350
E5E
  3
A1
350
E5F
  3
A2
350
E60
  3
A3
350
E61
  3
A4
350
E62
  3
A5
350
E63
  3
A6
350
E64
  3
A7
350
E65
  3
A8
350
E66
  3
A9
350
E67
  3
B0
350
E68
  3
B1
350
E69
  3
B2
350
E6A
  3
B3
350
E6B
  3
B4
350
E6C
  3
B5
350
E6D
  3
B6
350
E6E
  0
DICTIONARY
  5
E71
102
{ACAD_REACTORS
330
C
102
}
330
C
100
AcDbDictionary
281
     1
  3
Imperial24
350
E72
  0
DICTIONARY
  5
E5B
102
{ACAD_REACTORS
330
C
102
}
330
C
100
AcDbDictionary
281
     1
  3
Standard
350
E5C
  0
DICTIONARY
  5
E41
102
{ACAD_REACTORS
330
C
102
}
330
C
100
AcDbDictionary
281
     1
  3
2dWireframe
350
E47
  3
Basic
350
E46
  3
Brighten
350
E4D
  3
ColorChange
350
E51
  3
Conceptual
350
E4A
  3
Dim
350
E4C
  3
EdgeColorOff
350
E59
  3
Facepattern
350
E50
  3
Flat
350
E42
  3
FlatWithEdges
350
E43
  3
Gouraud
350
E44
  3
GouraudWithEdges
350
E45
  3
Hidden
350
E49
  3
JitterOff
350
E57
  3
Linepattern
350
E4F
  3
OverhangOff
350
E58
  3
Realistic
350
E4B
  3
Shaded
350
E56
  3
Shaded with edges
350
E55
  3
Shades of Gray
350
E52
  3
Sketchy
350
E53
  3
Thicken
350
E4E
  3
Wireframe
350
E48
  3
X-Ray
350
E54
  0
XRECORD
  5
F53
102
{ACAD_REACTORS
330
C
102
}
330
C
100
AcDbXrecord
280
     1
 90
        1
330
E5C
  0
DICTIONARY
  5
2E
102
{ACAD_REACTORS
330
C
102
}
330
C
100
AcDbDictionary
281
     1
  3
CANNOSCALE
350
EE6
  3
CMLEADERSTYLE
350
EE3
  3
CTABLESTYLE
350
EE2
  3
CVIEWDETAILSTYLE
350
EE4
  3
CVIEWSECTIONSTYLE
350
EE5
  3
DIMADEC
350
2F
  3
DIMASSOC
350
F4D
  3
INDEXCTL
350
F4C
  3
LAYEREVAL
350
F3D
  3
LAYERNOTIFY
350
F3E
  3
LIGHTINGUNITS
350
F3C
  3
LOFTANG1
350
F4E
  3
LOFTANG2
350
F4F
  3
LONGITUDE
350
F50
  3
MSLTSCALE
350
F3B
  3
SORTENTS
350
F4B
  3
XCLIPFRAME
350
F51
  0
DICTIONARY
  5
F5A
102
{ACAD_REACTORS
330
C
102
}
330
C
100
AcDbDictionary
281
     1
  3
AcDsRecords
350
F5C
  3
AcDsSchemas
350
F5B
1001
ACAD
1070
     2
  0
XRECORD
  5
F54
102
{ACAD_REACTORS
330
C
102
}
330
C
100
AcDbXrecord
280
     1
  1
DWGPROPS COOKIE
  2

  3

  4

  6

  7

  8
jmilewski
  9

300
=
301
=
302
=
303
=
304
=
305
=
306
=
307
=
308
=
309
=
 40
0.2046696643518518
 41
2447600.588331482
 42
2457155.487380556
  1

 90
        0
  0
DICTIONARY
  5
E92
102
{ACAD_REACTORS
330
E91
102
}
330
E91
100
AcDbDictionary
281
     1
  0
XRECORD
  5
E85
102
{ACAD_REACTORS
330
E84
102
}
330
E84
100
AcDbXrecord
280
     1
290
     1
  0
XRECORD
  5
E87
102
{ACAD_REACTORS
330
E86
102
}
330
E86
100
AcDbXrecord
280
     1
290
     1
  0
XRECORD
  5
E89
102
{ACAD_REACTORS
330
E88
102
}
330
E88
100
AcDbXrecord
280
     1
290
     1
  0
XRECORD
  5
E8B
102
{ACAD_REACTORS
330
E8A
102
}
330
E8A
100
AcDbXrecord
280
     1
290
     1
  0
XRECORD
  5
E8D
102
{ACAD_REACTORS
330
E8C
102
}
330
E8C
100
AcDbXrecord
280
     1
290
     1
  0
ACDBDETAILVIEWSTYLE
  5
E74
102
{ACAD_XDICTIONARY
360
F42
102
}
102
{ACAD_REACTORS
330
E73
102
}
330
E73
100
AcDbModelDocViewStyle
 70
     0
  3
Imperial24
290
     0
100
AcDbDetailViewStyle
 70
     0
 71
     0
 90
        3
 71
     1
340
F
 40
0.24
340
0
 40
0.24
300

 40
0.36
280
     3
 71
     2
340
13
 90
       25
 71
     3
340
F
 40
0.24
 90
        1
 40
0.75
 90
        1
300
%<\AcVar ViewType \f "%tc1">% %<\AcVar ViewDetailId>%\PSCALE %<\AcVar ViewScale \f "%sn">%
 71
     4
340
13
 90
       25
340
13
 90
       25
280
     0
  0
LAYOUT
  5
E78
102
{ACAD_XDICTIONARY
360
F96
102
}
102
{ACAD_REACTORS
330
E75
102
}
330
E75
100
AcDbPlotSettings
  1

  2
TOSHIBA e-STUDIO351c PS3
  4

  6

 40
0.0
 41
0.0
 42
0.0
 43
0.0
 44
0.0
 45
0.0
 46
0.0
 47
0.0
 48
0.0
 49
0.0
140
0.0
141
0.0
142
1.0
143
1.0
 70
   688
 72
     0
 73
     0
 74
     5
  7
monochrome.ctb
 75
    16
147
1.0
148
0.0
149
0.0
100
AcDbLayout
  1
Layout1
 70
     0
 71
     1
 10
0.0
 20
0.0
 11
12.0
 21
9.0
 12
0.0
 22
0.0
 32
0.0
 14
1.000000000000000E+20
 24
1.000000000000000E+20
 34
1.000000000000000E+20
 15
-1.000000000000000E+20
 25
-1.000000000000000E+20
 35
-1.000000000000000E+20
146
0.0
 13
0.0
 23
0.0
 33
0.0
 16
1.0
 26
0.0
 36
0.0
 17
0.0
 27
1.0
 37
0.0
 76
     0
330
14
  0
LAYOUT
  5
E77
102
{ACAD_XDICTIONARY
360
EE0
102
}
102
{ACAD_REACTORS
330
E75
102
}
330
E75
100
AcDbPlotSettings
  1

  2
TOSHIBA e-STUDIO351c PS3
  4

  6

 40
0.0
 41
0.0
 42
0.0
 43
0.0
 44
0.0
 45
0.0
 46
0.0
 47
0.0
 48
0.0
 49
0.0
140
0.0
141
0.0
142
1.0
143
1.0
 70
  1712
 72
     0
 73
     0
 74
     0
  7
monochrome.ctb
 75
     0
147
1.0
148
0.0
149
0.0
100
AcDbLayout
  1
Model
 70
     1
 71
     0
 10
0.0
 20
0.0
 11
12.0
 21
9.0
 12
0.0
 22
0.0
 32
0.0
 14
0.0
 24
0.0
 34
0.0
 15
0.0
 25
0.0
 35
0.0
146
0.0
 13
0.0
 23
0.0
 33
0.0
 16
1.0
 26
0.0
 36
0.0
 17
0.0
 27
1.0
 37
0.0
 76
     0
330
17
331
E24
  0
MATERIAL
  5
E31
102
{ACAD_XDICTIONARY
360
E32
102
}
102
{ACAD_REACTORS
330
E28
102
}
330
E28
100
AcDbMaterial
  1
ByBlock
 72
     0
 43
0.0208333333333333
 43
0.0
 43
0.0
 43
0.0
 43
0.0
 43
0.0208333333333333
 43
0.0
 43
0.0
 43
0.0
 43
0.0
 43
1.0
 43
0.0
 43
0.0
 43
0.0
 43
0.0
 43
1.0
 77
     0
 47
0.0208333333333333
 47
0.0
 47
0.0
 47
0.0
 47
0.0
 47
0.0208333333333333
 47
0.0
 47
0.0
 47
0.0
 47
0.0
 47
1.0
 47
0.0
 47
0.0
 47
0.0
 47
0.0
 47
1.0
171
     0
 49
0.0208333333333333
 49
0.0
 49
0.0
 49
0.0
 49
0.0
 49
0.0208333333333333
 49
0.0
 49
0.0
 49
0.0
 49
0.0
 49
1.0
 49
0.0
 49
0.0
 49
0.0
 49
0.0
 49
1.0
175
     0
142
0.0208333333333333
142
0.0
142
0.0
142
0.0
142
0.0
142
0.0208333333333333
142
0.0
142
0.0
142
0.0
142
0.0
142
1.0
142
0.0
142
0.0
142
0.0
142
0.0
142
1.0
179
     0
144
0.0208333333333333
144
0.0
144
0.0
144
0.0
144
0.0
144
0.0208333333333333
144
0.0
144
0.0
144
0.0
144
0.0
144
1.0
144
0.0
144
0.0
144
0.0
144
0.0
144
1.0
147
0.0208333333333333
147
0.0
147
0.0
147
0.0
147
0.0
147
0.0208333333333333
147
0.0
147
0.0
147
0.0
147
0.0
147
1.0
147
0.0
147
0.0
147
0.0
147
0.0
147
1.0
  0
MATERIAL
  5
E29
102
{ACAD_XDICTIONARY
360
E2A
102
}
102
{ACAD_REACTORS
330
E28
102
}
330
E28
100
AcDbMaterial
  1
ByLayer
 72
     0
 43
0.0208333333333333
 43
0.0
 43
0.0
 43
0.0
 43
0.0
 43
0.0208333333333333
 43
0.0
 43
0.0
 43
0.0
 43
0.0
 43
1.0
 43
0.0
 43
0.0
 43
0.0
 43
0.0
 43
1.0
 77
     0
 47
0.0208333333333333
 47
0.0
 47
0.0
 47
0.0
 47
0.0
 47
0.0208333333333333
 47
0.0
 47
0.0
 47
0.0
 47
0.0
 47
1.0
 47
0.0
 47
0.0
 47
0.0
 47
0.0
 47
1.0
171
     0
 49
0.0208333333333333
 49
0.0
 49
0.0
 49
0.0
 49
0.0
 49
0.0208333333333333
 49
0.0
 49
0.0
 49
0.0
 49
0.0
 49
1.0
 49
0.0
 49
0.0
 49
0.0
 49
0.0
 49
1.0
175
     0
142
0.0208333333333333
142
0.0
142
0.0
142
0.0
142
0.0
142
0.0208333333333333
142
0.0
142
0.0
142
0.0
142
0.0
142
1.0
142
0.0
142
0.0
142
0.0
142
0.0
142
1.0
179
     0
144
0.0208333333333333
144
0.0
144
0.0
144
0.0
144
0.0
144
0.0208333333333333
144
0.0
144
0.0
144
0.0
144
0.0
144
1.0
144
0.0
144
0.0
144
0.0
144
0.0
144
1.0
147
0.0208333333333333
147
0.0
147
0.0
147
0.0
147
0.0
147
0.0208333333333333
147
0.0
147
0.0
147
0.0
147
0.0
147
1.0
147
0.0
147
0.0
147
0.0
147
0.0
147
1.0
  0
MATERIAL
  5
E39
102
{ACAD_XDICTIONARY
360
E3A
102
}
102
{ACAD_REACTORS
330
E28
102
}
330
E28
100
AcDbMaterial
  1
Global
 72
     0
 43
0.0208333333333333
 43
0.0
 43
0.0
 43
0.0
 43
0.0
 43
0.0208333333333333
 43
0.0
 43
0.0
 43
0.0
 43
0.0
 43
1.0
 43
0.0
 43
0.0
 43
0.0
 43
0.0
 43
1.0
 77
     0
 47
0.0208333333333333
 47
0.0
 47
0.0
 47
0.0
 47
0.0
 47
0.0208333333333333
 47
0.0
 47
0.0
 47
0.0
 47
0.0
 47
1.0
 47
0.0
 47
0.0
 47
0.0
 47
0.0
 47
1.0
171
     0
 49
0.0208333333333333
 49
0.0
 49
0.0
 49
0.0
 49
0.0
 49
0.0208333333333333
 49
0.0
 49
0.0
 49
0.0
 49
0.0
 49
1.0
 49
0.0
 49
0.0
 49
0.0
 49
0.0
 49
1.0
175
     0
142
0.0208333333333333
142
0.0
142
0.0
142
0.0
142
0.0
142
0.0208333333333333
142
0.0
142
0.0
142
0.0
142
0.0
142
1.0
142
0.0
142
0.0
142
0.0
142
0.0
142
1.0
179
     0
144
0.0208333333333333
144
0.0
144
0.0
144
0.0
144
0.0
144
0.0208333333333333
144
0.0
144
0.0
144
0.0
144
0.0
144
1.0
144
0.0
144
0.0
144
0.0
144
0.0
144
1.0
147
0.0208333333333333
147
0.0
147
0.0
147
0.0
147
0.0
147
0.0208333333333333
147
0.0
147
0.0
147
0.0
147
0.0
147
1.0
147
0.0
147
0.0
147
0.0
147
0.0
147
1.0
  0
MLEADERSTYLE
  5
E70
102
{ACAD_XDICTIONARY
360
F91
102
}
102
{ACAD_REACTORS
330
E6F
102
}
330
E6F
100
AcDbMLeaderStyle
170
     2
171
     1
172
     0
 90
        2
 40
0.0
 41
0.0
173
     1
 91
-1056964608
340
11
 92
       -2
290
     1
 42
0.09
291
     1
 43
0.36
  3
Standard
 44
0.18
300

342
F
174
     1
178
     6
175
     1
176
     0
 93
-1056964608
 45
0.18
292
     0
297
     0
 46
0.18
 94
-1056964608
 47
1.0
 49
1.0
140
1.0
293
     1
141
0.0
294
     1
177
     0
142
1.0
295
     0
296
     0
143
0.125
1001
ACAD_MLEADERVER
1070
     2
  0
MLINESTYLE
  5
1B
102
{ACAD_REACTORS
330
1A
102
}
330
1A
100
AcDbMlineStyle
  2
STANDARD
 70
     0
  3

 62
   256
 51
90.0
 52
90.0
 71
     2
 49
0.5
 62
   256
  6
BYLAYER
 49
-0.5
 62
   256
  6
BYLAYER
  0
ACDBPLACEHOLDER
  5
E27
102
{ACAD_REACTORS
330
E26
102
}
330
E26
  0
SCALE
  5
E5E
102
{ACAD_REACTORS
330
E5D
102
}
330
E5D
100
AcDbScale
 70
     0
300
1:1
140
1.0
141
1.0
290
     1
  0
SCALE
  5
E5F
102
{ACAD_REACTORS
330
E5D
102
}
330
E5D
100
AcDbScale
 70
     0
300
1/128" = 1'-0"
140
0.0078125
141
12.0
290
     0
  0
SCALE
  5
E60
102
{ACAD_REACTORS
330
E5D
102
}
330
E5D
100
AcDbScale
 70
     0
300
1/64" = 1'-0"
140
0.015625
141
12.0
290
     0
  0
SCALE
  5
E61
102
{ACAD_REACTORS
330
E5D
102
}
330
E5D
100
AcDbScale
 70
     0
300
1/32" = 1'-0"
140
0.03125
141
12.0
290
     0
  0
SCALE
  5
E62
102
{ACAD_REACTORS
330
E5D
102
}
330
E5D
100
AcDbScale
 70
     0
300
1/16" = 1'-0"
140
0.0625
141
12.0
290
     0
  0
SCALE
  5
E63
102
{ACAD_REACTORS
330
E5D
102
}
330
E5D
100
AcDbScale
 70
     0
300
3/32" = 1'-0"
140
0.09375
141
12.0
290
     0
  0
SCALE
  5
E64
102
{ACAD_REACTORS
330
E5D
102
}
330
E5D
100
AcDbScale
 70
     0
300
1/8" = 1'-0"
140
0.125
141
12.0
290
     0
  0
SCALE
  5
E65
102
{ACAD_REACTORS
330
E5D
102
}
330
E5D
100
AcDbScale
 70
     0
300
3/16" = 1'-0"
140
0.1875
141
12.0
290
     0
  0
SCALE
  5
E66
102
{ACAD_REACTORS
330
E5D
102
}
330
E5D
100
AcDbScale
 70
     0
300
1/4" = 1'-0"
140
0.25
141
12.0
290
     0
  0
SCALE
  5
E67
102
{ACAD_REACTORS
330
E5D
102
}
330
E5D
100
AcDbScale
 70
     0
300
3/8" = 1'-0"
140
0.375
141
12.0
290
     0
  0
SCALE
  5
E68
102
{ACAD_REACTORS
330
E5D
102
}
330
E5D
100
AcDbScale
 70
     0
300
1/2" = 1'-0"
140
0.5
141
12.0
290
     0
  0
SCALE
  5
E69
102
{ACAD_REACTORS
330
E5D
102
}
330
E5D
100
AcDbScale
 70
     0
300
3/4" = 1'-0"
140
0.75
141
12.0
290
     0
  0
SCALE
  5
E6A
102
{ACAD_REACTORS
330
E5D
102
}
330
E5D
100
AcDbScale
 70
     0
300
1" = 1'-0"
140
1.0
141
12.0
290
     0
  0
SCALE
  5
E6B
102
{ACAD_REACTORS
330
E5D
102
}
330
E5D
100
AcDbScale
 70
     0
300
1-1/2" = 1'-0"
140
1.5
141
12.0
290
     0
  0
SCALE
  5
E6C
102
{ACAD_REACTORS
330
E5D
102
}
330
E5D
100
AcDbScale
 70
     0
300
3" = 1'-0"
140
3.0
141
12.0
290
     0
  0
SCALE
  5
E6D
102
{ACAD_REACTORS
330
E5D
102
}
330
E5D
100
AcDbScale
 70
     0
300
6" = 1'-0"
140
6.0
141
12.0
290
     0
  0
SCALE
  5
E6E
102
{ACAD_REACTORS
330
E5D
102
}
330
E5D
100
AcDbScale
 70
     0
300
1'-0" = 1'-0"
140
12.0
141
12.0
290
     0
  0
ACDBSECTIONVIEWSTYLE
  5
E72
102
{ACAD_XDICTIONARY
360
F40
102
}
102
{ACAD_REACTORS
330
E71
102
}
330
E71
100
AcDbModelDocViewStyle
 70
     0
  3
Imperial24
290
     0
100
AcDbSectionViewStyle
 70
     0
 71
     0
 90
       78
 71
     1
340
F
 40
0.24
340
0
340
0
 40
0.24
300
I, O, Q, S, X, Z
 40
0.48
 90
        3
 40
0.18
 90
        1
 71
     2
340
13
 90
       25
340
13
 90
       50
 40
0.24
 40
0.0
 40
0.24
 71
     3
340
F
 40
0.24
 90
        1
 40
0.75
 90
        1
300
%<\AcVar ViewType \f "%tc1">% %<\AcVar ViewSectionStartId>%-%<\AcVar ViewSectionEndId>%\PSCALE %<\AcVar ViewScale \f "%sn">%
 71
     4
300
ANSI31
 40
1.0
 90
        0
290
     0
290
     0
 90
        6
 40
0.0
 40
1.570796326794896
 40
0.2617993877991494
 40
1.308996938995747
 40
-0.2617993877991494
 40
1.832595714594045
  0
TABLESTYLE
  5
E5C
102
{ACAD_XDICTIONARY
360
E98
102
}
102
{ACAD_REACTORS
330
E5B
102
}
330
E5B
100
AcDbTableStyle
  3
Standard
 70
     0
 71
     0
 40
0.06
 41
0.06
280
     0
281
     0
  7
STANDARD
140
0.18
170
     2
 62
     0
 63
     7
283
     0
274
    -2
284
     1
 64
     0
275
    -2
285
     1
 65
     0
276
    -2
286
     1
 66
     0
277
    -2
287
     1
 67
     0
278
    -2
288
     1
 68
     0
279
    -2
289
     1
 69
     0
  7
STANDARD
140
0.25
170
     5
 62
     0
 63
     7
283
     0
274
    -2
284
     1
 64
     0
275
    -2
285
     1
 65
     0
276
    -2
286
     1
 66
     0
277
    -2
287
     1
 67
     0
278
    -2
288
     1
 68
     0
279
    -2
289
     1
 69
     0
  7
STANDARD
140
0.18
170
     5
 62
     0
 63
     7
283
     0
274
    -2
284
     1
 64
     0
275
    -2
285
     1
 65
     0
276
    -2
286
     1
 66
     0
277
    -2
287
     1
 67
     0
278
    -2
288
     1
 68
     0
279
    -2
289
     1
 69
     0
  0
VISUALSTYLE
  5
E47
102
{ACAD_XDICTIONARY
360
F6A
102
}
102
{ACAD_REACTORS
330
E41
102
}
330
E41
100
AcDbVisualStyle
  2
2dWireframe
 70
     4
 71
     0
 72
     2
 73
     0
 90
        0
 40
-0.6
 41
-30.0
 62
     5
 63
     7
 74
     1
 91
        4
 64
     7
 65
   257
 75
     1
175
     1
 42
1.0
 92
        0
 66
   257
 43
1.0
 76
     1
 77
     6
 78
     2
 67
     7
 79
     5
170
     0
171
     0
290
     0
174
     0
 93
        1
 44
0.0
173
     0
291
     0
 45
0.0
1001
ACAD
1000
AcDbSavedByObjectVersion
1070
     0
  0
VISUALSTYLE
  5
E46
102
{ACAD_XDICTIONARY
360
F68
102
}
102
{ACAD_REACTORS
330
E41
102
}
330
E41
100
AcDbVisualStyle
  2
Basic
 70
     7
 71
     1
 72
     0
 73
     1
 90
        0
 40
-0.6
 41
-30.0
 62
     5
 63
     7
 74
     0
 91
        4
 64
     7
 65
   257
 75
     1
175
     1
 42
1.0
 92
        8
 66
     7
 43
1.0
 76
     1
 77
     6
 78
     2
 67
     7
 79
     5
170
     0
171
     0
290
     0
174
     0
 93
        1
 44
0.0
173
     0
291
     1
 45
0.0
1001
ACAD
1000
AcDbSavedByObjectVersion
1070
     0
  0
VISUALSTYLE
  5
E4D
102
{ACAD_XDICTIONARY
360
F76
102
}
102
{ACAD_REACTORS
330
E41
102
}
330
E41
100
AcDbVisualStyle
  2
Brighten
 70
    12
 71
     2
 72
     2
 73
     0
 90
        0
 40
-0.6
 41
-30.0
 62
     5
 63
     7
 74
     1
 91
        4
 64
     7
 65
   257
 75
     1
175
     1
 42
1.0
 92
        8
 66
     7
 43
1.0
 76
     1
 77
     6
 78
     2
 67
     7
 79
     5
170
     0
171
     0
290
     0
174
     0
 93
        1
 44
50.0
173
     0
291
     1
 45
0.0
1001
ACAD
1000
AcDbSavedByObjectVersion
1070
     0
  0
VISUALSTYLE
  5
E51
102
{ACAD_XDICTIONARY
360
F7E
102
}
102
{ACAD_REACTORS
330
E41
102
}
330
E41
100
AcDbVisualStyle
  2
ColorChange
 70
    16
 71
     2
 72
     2
 73
     3
 90
        0
 40
-0.6
 41
-30.0
 62
     5
 63
     8
 74
     1
 91
        4
 64
     7
 65
   257
 75
     1
175
     1
 42
1.0
 92
        8
 66
     8
 43
1.0
 76
     1
 77
     6
 78
     2
 67
     7
 79
     5
170
     0
171
     0
290
     0
174
     0
 93
        1
 44
0.0
173
     0
291
     1
 45
0.0
1001
ACAD
1000
AcDbSavedByObjectVersion
1070
     0
  0
VISUALSTYLE
  5
E4A
102
{ACAD_XDICTIONARY
360
F70
102
}
102
{ACAD_REACTORS
330
E41
102
}
330
E41
100
AcDbVisualStyle
  2
Conceptual
 70
     9
 71
     3
 72
     2
 73
     0
 90
        0
 40
-0.6
 41
-30.0
 62
     5
 63
     7
 74
     2
 91
        2
 64
     7
 65
   257
 75
     1
175
     1
 42
179.0
 92
        8
 66
     7
 43
1.0
 76
     1
 77
     6
 78
     2
 67
     7
 79
     3
170
     0
171
     0
290
     0
174
     0
 93
        1
 44
0.0
173
     0
291
     0
 45
0.0
1001
ACAD
1000
AcDbSavedByObjectVersion
1070
     0
  0
VISUALSTYLE
  5
E4C
102
{ACAD_XDICTIONARY
360
F74
102
}
102
{ACAD_REACTORS
330
E41
102
}
330
E41
100
AcDbVisualStyle
  2
Dim
 70
    11
 71
     2
 72
     2
 73
     0
 90
        0
 40
-0.6
 41
-30.0
 62
     5
 63
     7
 74
     1
 91
        4
 64
     7
 65
   257
 75
     1
175
     1
 42
1.0
 92
        8
 66
     7
 43
1.0
 76
     1
 77
     6
 78
     2
 67
     7
 79
     5
170
     0
171
     0
290
     0
174
     0
 93
        1
 44
-50.0
173
     0
291
     1
 45
0.0
1001
ACAD
1000
AcDbSavedByObjectVersion
1070
     0
  0
VISUALSTYLE
  5
E59
102
{ACAD_XDICTIONARY
360
F8E
102
}
102
{ACAD_REACTORS
330
E41
102
}
330
E41
100
AcDbVisualStyle
  2
EdgeColorOff
 70
    22
 71
     2
 72
     2
 73
     0
 90
        0
 40
-0.6
 41
-30.0
 62
     5
 63
     7
 74
     1
 91
        4
 64
     7
 65
   257
 75
     1
175
     1
 42
1.0
 92
        8
 66
     7
 43
1.0
 76
     1
 77
     6
 78
     2
 67
     7
 79
     5
170
     0
171
     0
290
     0
174
     0
 93
        1
 44
0.0
173
     0
291
     1
 45
0.0
1001
ACAD
1000
AcDbSavedByObjectVersion
1070
     0
  0
VISUALSTYLE
  5
E50
102
{ACAD_XDICTIONARY
360
F7C
102
}
102
{ACAD_REACTORS
330
E41
102
}
330
E41
100
AcDbVisualStyle
  2
Facepattern
 70
    15
 71
     2
 72
     2
 73
     0
 90
        0
 40
-0.6
 41
-30.0
 62
     5
 63
     7
 74
     1
 91
        4
 64
     7
 65
   257
 75
     1
175
     1
 42
1.0
 92
        8
 66
     7
 43
1.0
 76
     1
 77
     6
 78
     2
 67
     7
 79
     5
170
     0
171
     0
290
     0
174
     0
 93
        1
 44
0.0
173
     0
291
     1
 45
0.0
1001
ACAD
1000
AcDbSavedByObjectVersion
1070
     0
  0
VISUALSTYLE
  5
E42
102
{ACAD_XDICTIONARY
360
F60
102
}
102
{ACAD_REACTORS
330
E41
102
}
330
E41
100
AcDbVisualStyle
  2
Flat
 70
     0
 71
     2
 72
     1
 73
     1
 90
        2
 40
-0.6
 41
30.0
 62
     5
 63
     7
 74
     0
 91
        0
 64
     7
 65
   257
 75
     1
175
     1
 42
1.0
 92
        8
 66
     7
 43
1.0
 76
     1
 77
     6
 78
     2
 67
     7
 79
     5
170
     0
171
     0
290
     0
174
     0
 93
       13
 44
0.0
173
     0
291
     1
 45
0.0
1001
ACAD
1000
AcDbSavedByObjectVersion
1070
     0
  0
VISUALSTYLE
  5
E43
102
{ACAD_XDICTIONARY
360
F62
102
}
102
{ACAD_REACTORS
330
E41
102
}
330
E41
100
AcDbVisualStyle
  2
FlatWithEdges
 70
     1
 71
     2
 72
     1
 73
     1
 90
        2
 40
-0.6
 41
30.0
 62
     5
 63
     7
 74
     1
 91
        0
 64
     7
 65
   257
 75
     1
175
     1
 42
1.0
 92
        0
 66
   257
 43
1.0
 76
     1
 77
     6
 78
     2
 67
     7
 79
     5
170
     0
171
     0
290
     0
174
     0
 93
       13
 44
0.0
173
     0
291
     1
 45
0.0
1001
ACAD
1000
AcDbSavedByObjectVersion
1070
     0
  0
VISUALSTYLE
  5
E44
102
{ACAD_XDICTIONARY
360
F64
102
}
102
{ACAD_REACTORS
330
E41
102
}
330
E41
100
AcDbVisualStyle
  2
Gouraud
 70
     2
 71
     2
 72
     2
 73
     1
 90
        2
 40
-0.6
 41
30.0
 62
     5
 63
     7
 74
     0
 91
        0
 64
     7
 65
   257
 75
     1
175
     1
 42
1.0
 92
        0
 66
     7
 43
1.0
 76
     1
 77
     6
 78
     2
 67
     7
 79
     5
170
     0
171
     0
290
     0
174
     0
 93
       13
 44
0.0
173
     0
291
     1
 45
0.0
1001
ACAD
1000
AcDbSavedByObjectVersion
1070
     0
  0
VISUALSTYLE
  5
E45
102
{ACAD_XDICTIONARY
360
F66
102
}
102
{ACAD_REACTORS
330
E41
102
}
330
E41
100
AcDbVisualStyle
  2
GouraudWithEdges
 70
     3
 71
     2
 72
     2
 73
     1
 90
        2
 40
-0.6
 41
30.0
 62
     5
 63
     7
 74
     1
 91
        0
 64
     7
 65
   257
 75
     1
175
     1
 42
1.0
 92
        0
 66
   257
 43
1.0
 76
     1
 77
     6
 78
     2
 67
     7
 79
     5
170
     0
171
     0
290
     0
174
     0
 93
       13
 44
0.0
173
     0
291
     1
 45
0.0
1001
ACAD
1000
AcDbSavedByObjectVersion
1070
     0
  0
VISUALSTYLE
  5
E49
102
{ACAD_XDICTIONARY
360
F6E
102
}
102
{ACAD_REACTORS
330
E41
102
}
330
E41
100
AcDbVisualStyle
  2
Hidden
 70
     6
 71
     1
 72
     2
 73
     2
 90
        0
 40
-0.6
 41
-30.0
 62
     5
 63
     7
 74
     2
 91
        2
 64
     7
 65
   257
 75
     2
175
     1
 42
40.0
 92
        0
 66
   257
 43
1.0
 76
     1
 77
     6
 78
     2
 67
     7
 79
     3
170
     0
171
     0
290
     0
174
     0
 93
        1
 44
0.0
173
     0
291
     0
 45
0.0
1001
ACAD
1000
AcDbSavedByObjectVersion
1070
     0
  0
VISUALSTYLE
  5
E57
102
{ACAD_XDICTIONARY
360
F8A
102
}
102
{ACAD_REACTORS
330
E41
102
}
330
E41
100
AcDbVisualStyle
  2
JitterOff
 70
    20
 71
     2
 72
     2
 73
     0
 90
        0
 40
-0.6
 41
-30.0
 62
     5
 63
     7
 74
     1
 91
        4
 64
     7
 65
   257
 75
     1
175
     1
 42
1.0
 92
       10
 66
     7
 43
1.0
 76
     1
 77
     6
 78
     2
 67
     7
 79
     5
170
     0
171
     0
290
     0
174
     0
 93
        1
 44
0.0
173
     0
291
     1
 45
0.0
1001
ACAD
1000
AcDbSavedByObjectVersion
1070
     0
  0
VISUALSTYLE
  5
E4F
102
{ACAD_XDICTIONARY
360
F7A
102
}
102
{ACAD_REACTORS
330
E41
102
}
330
E41
100
AcDbVisualStyle
  2
Linepattern
 70
    14
 71
     2
 72
     2
 73
     0
 90
        0
 40
-0.6
 41
-30.0
 62
     5
 63
     7
 74
     1
 91
        4
 64
     7
 65
   257
 75
     7
175
     7
 42
1.0
 92
        8
 66
     7
 43
1.0
 76
     1
 77
     6
 78
     2
 67
     7
 79
     5
170
     0
171
     0
290
     0
174
     0
 93
        1
 44
0.0
173
     0
291
     1
 45
0.0
1001
ACAD
1000
AcDbSavedByObjectVersion
1070
     0
  0
VISUALSTYLE
  5
E58
102
{ACAD_XDICTIONARY
360
F8C
102
}
102
{ACAD_REACTORS
330
E41
102
}
330
E41
100
AcDbVisualStyle
  2
OverhangOff
 70
    21
 71
     2
 72
     2
 73
     0
 90
        0
 40
-0.6
 41
-30.0
 62
     5
 63
     7
 74
     1
 91
        4
 64
     7
 65
   257
 75
     1
175
     1
 42
1.0
 92
        9
 66
     7
 43
1.0
 76
     1
 77
     6
 78
     2
 67
     7
 79
     5
170
     0
171
     0
290
     0
174
     0
 93
        1
 44
0.0
173
     0
291
     1
 45
0.0
1001
ACAD
1000
AcDbSavedByObjectVersion
1070
     0
  0
VISUALSTYLE
  5
E4B
102
{ACAD_XDICTIONARY
360
F72
102
}
102
{ACAD_REACTORS
330
E41
102
}
330
E41
100
AcDbVisualStyle
  2
Realistic
 70
     8
 71
     2
 72
     2
 73
     0
 90
        2
 40
-0.6
 41
30.0
 62
     5
 63
     7
 74
     0
 91
        0
 64
     7
 65
   257
 75
     1
175
     1
 42
1.0
 92
        8
 66
   257
 43
1.0
 76
     1
 77
     6
 78
     2
 67
     7
 79
     3
170
     0
171
     0
290
     0
174
     0
 93
       13
 44
0.0
173
     0
291
     0
 45
0.0
1001
ACAD
1000
AcDbSavedByObjectVersion
1070
     0
  0
VISUALSTYLE
  5
E56
102
{ACAD_XDICTIONARY
360
F88
102
}
102
{ACAD_REACTORS
330
E41
102
}
330
E41
100
AcDbVisualStyle
  2
Shaded
 70
    27
 71
     2
 72
     2
 73
     1
 90
        2
 40
-0.6
 41
30.0
 62
     5
 63
     7
 74
     0
 91
        4
 64
     7
 65
   257
 75
     1
175
     1
 42
1.0
 92
        8
 66
   257
 43
1.0
 76
     1
 77
     6
 78
     2
 67
     8
 79
     3
170
     0
171
     0
290
     0
174
     0
 93
        5
 44
0.0
173
     0
291
     0
 45
0.0
1001
ACAD
1000
AcDbSavedByObjectVersion
1070
     0
  0
VISUALSTYLE
  5
E55
102
{ACAD_XDICTIONARY
360
F86
102
}
102
{ACAD_REACTORS
330
E41
102
}
330
E41
100
AcDbVisualStyle
  2
Shaded with edges
 70
    26
 71
     2
 72
     2
 73
     1
 90
        2
 40
-0.6
 41
30.0
 62
     5
 63
     7
 74
     1
 91
       10
 64
     7
 65
   257
 75
     2
175
     1
 42
1.0
 92
        8
 66
   257
 43
1.0
 76
     1
 77
     6
 78
     2
 67
     7
 79
     3
170
     0
171
     0
290
     0
174
     0
 93
        5
 44
0.0
173
     0
291
     0
 45
0.0
1001
ACAD
1000
AcDbSavedByObjectVersion
1070
     0
  0
VISUALSTYLE
  5
E52
102
{ACAD_XDICTIONARY
360
F80
102
}
102
{ACAD_REACTORS
330
E41
102
}
330
E41
100
AcDbVisualStyle
  2
Shades of Gray
 70
    23
 71
     2
 72
     2
 73
     3
 90
        0
 40
-0.6
 41
-30.0
 62
     5
 63
     7
 74
     2
 91
        2
 64
     7
 65
     7
 75
     1
175
     1
 42
40.0
 92
        8
 66
     7
 43
1.0
 76
     1
 77
     6
 78
     2
 67
     7
 79
     3
170
     0
171
     0
290
     0
174
     0
 93
        1
 44
0.0
173
     0
291
     0
 45
0.0
1001
ACAD
1000
AcDbSavedByObjectVersion
1070
     0
  0
VISUALSTYLE
  5
E53
102
{ACAD_XDICTIONARY
360
F82
102
}
102
{ACAD_REACTORS
330
E41
102
}
330
E41
100
AcDbVisualStyle
  2
Sketchy
 70
    24
 71
     1
 72
     2
 73
     2
 90
        0
 40
-0.6
 41
-30.0
 62
     5
 63
     7
 74
     2
 91
        2
 64
     7
 65
     7
 75
     1
175
     1
 42
40.0
 92
       11
 66
     7
 43
1.0
 76
     1
 77
     6
 78
     2
 67
     7
 79
     6
170
     0
171
     0
290
     0
174
     0
 93
        1
 44
0.0
173
     0
291
     0
 45
0.0
1001
ACAD
1000
AcDbSavedByObjectVersion
1070
     0
  0
VISUALSTYLE
  5
E4E
102
{ACAD_XDICTIONARY
360
F78
102
}
102
{ACAD_REACTORS
330
E41
102
}
330
E41
100
AcDbVisualStyle
  2
Thicken
 70
    13
 71
     2
 72
     2
 73
     0
 90
        0
 40
-0.6
 41
-30.0
 62
     5
 63
     7
 74
     1
 91
        4
 64
     7
 65
   257
 75
     1
175
     1
 42
1.0
 92
       12
 66
     7
 43
1.0
 76
     1
 77
     6
 78
     2
 67
     7
 79
     5
170
     0
171
     0
290
     0
174
     0
 93
        1
 44
0.0
173
     0
291
     1
 45
0.0
1001
ACAD
1000
AcDbSavedByObjectVersion
1070
     0
  0
VISUALSTYLE
  5
E48
102
{ACAD_XDICTIONARY
360
F6C
102
}
102
{ACAD_REACTORS
330
E41
102
}
330
E41
100
AcDbVisualStyle
  2
Wireframe
 70
     5
 71
     0
 72
     2
 73
     0
 90
        0
 40
-0.6
 41
-30.0
 62
     5
 63
     7
 74
     1
 91
        4
 64
     7
 65
   257
 75
     1
175
     1
 42
1.0
 92
        0
 66
   257
 43
1.0
 76
     1
 77
     6
 78
     2
 67
     7
 79
     3
170
     0
171
     0
290
     0
174
     0
 93
        1
 44
0.0
173
     0
291
     0
 45
0.0
1001
ACAD
1000
AcDbSavedByObjectVersion
1070
     0
  0
VISUALSTYLE
  5
E54
102
{ACAD_XDICTIONARY
360
F84
102
}
102
{ACAD_REACTORS
330
E41
102
}
330
E41
100
AcDbVisualStyle
  2
X-Ray
 70
    25
 71
     2
 72
     2
 73
     1
 90
        1
 40
0.5
 41
-30.0
 62
     5
 63
     7
 74
     1
 91
        0
 64
     7
 65
   257
 75
     1
175
     1
 42
1.0
 92
        8
 66
     7
 43
1.0
 76
     1
 77
     6
 78
     2
 67
     7
 79
     3
170
     0
171
     0
290
     0
174
     0
 93
       13
 44
0.0
173
     0
291
     0
 45
0.0
1001
ACAD
1000
AcDbSavedByObjectVersion
1070
     0
  0
DICTIONARYVAR
  5
EE6
102
{ACAD_REACTORS
330
2E
102
}
330
2E
100
DictionaryVariables
280
     0
  1
1:1
  0
DICTIONARYVAR
  5
EE3
102
{ACAD_REACTORS
330
2E
102
}
330
2E
100
DictionaryVariables
280
     0
  1
STANDARD
  0
DICTIONARYVAR
  5
EE2
102
{ACAD_REACTORS
330
2E
102
}
330
2E
100
DictionaryVariables
280
     0
  1
STANDARD
  0
DICTIONARYVAR
  5
EE4
102
{ACAD_REACTORS
330
2E
102
}
330
2E
100
DictionaryVariables
280
     0
  1
Imperial24
  0
DICTIONARYVAR
  5
EE5
102
{ACAD_REACTORS
330
2E
102
}
330
2E
100
DictionaryVariables
280
     0
  1
Imperial24
  0
DICTIONARYVAR
  5
2F
102
{ACAD_REACTORS
330
2E
102
}
330
2E
100
DictionaryVariables
280
     0
  1
2
  0
DICTIONARYVAR
  5
F4D
102
{ACAD_REACTORS
330
2E
102
}
330
2E
100
DictionaryVariables
280
     0
  1
1
  0
DICTIONARYVAR
  5
F4C
102
{ACAD_REACTORS
330
2E
102
}
330
2E
100
DictionaryVariables
280
     0
  1
0
  0
DICTIONARYVAR
  5
F3D
102
{ACAD_REACTORS
330
2E
102
}
330
2E
100
DictionaryVariables
280
     0
  1
1
  0
DICTIONARYVAR
  5
F3E
102
{ACAD_REACTORS
330
2E
102
}
330
2E
100
DictionaryVariables
280
     0
  1
15
  0
DICTIONARYVAR
  5
F3C
102
{ACAD_REACTORS
330
2E
102
}
330
2E
100
DictionaryVariables
280
     0
  1
0
  0
DICTIONARYVAR
  5
F4E
102
{ACAD_REACTORS
330
2E
102
}
330
2E
100
DictionaryVariables
280
     0
  1
1.570796
  0
DICTIONARYVAR
  5
F4F
102
{ACAD_REACTORS
330
2E
102
}
330
2E
100
DictionaryVariables
280
     0
  1
1.570796
  0
DICTIONARYVAR
  5
F50
102
{ACAD_REACTORS
330
2E
102
}
330
2E
100
DictionaryVariables
280
     0
  1
-122.394000
  0
DICTIONARYVAR
  5
F3B
102
{ACAD_REACTORS
330
2E
102
}
330
2E
100
DictionaryVariables
280
     0
  1
0
  0
DICTIONARYVAR
  5
F4B
102
{ACAD_REACTORS
330
2E
102
}
330
2E
100
DictionaryVariables
280
     0
  1
127
  0
DICTIONARYVAR
  5
F51
102
{ACAD_REACTORS
330
2E
102
}
330
2E
100
DictionaryVariables
280
     0
  1
2
  0
DICTIONARY
  5
F5C
102
{ACAD_REACTORS
330
F5A
102
}
330
F5A
100
AcDbDictionary
281
     1
  0
DICTIONARY
  5
F5B
102
{ACAD_REACTORS
330
F5A
102
}
330
F5A
100
AcDbDictionary
281
     1
  3
8796088082128
350
F55
  3
8796088082144
350
F56
  3
8796088082160
350
F57
  3
8796088082176
350
F58
  3
8796088082192
350
F59
  0
DICTIONARY
  5
F42
330
E74
100
AcDbDictionary
280
     1
281
     1
  3
ACAD_XREC_ROUNDTRIP
360
F94
  0
DICTIONARY
  5
F96
330
E78
100
AcDbDictionary
280
     1
281
     1
  3
ACAD_XREC_ROUNDTRIP
360
F97
  0
DICTIONARY
  5
EE0
330
E77
100
AcDbDictionary
280
     1
281
     1
  3
ACAD_XREC_ROUNDTRIP
360
F95
  0
DICTIONARY
  5
E32
330
E31
100
AcDbDictionary
280
     1
281
     1
  3
ACAD_XREC_ROUNDTRIP
360
F5E
  3
BUMPTILE
360
E34
  3
DIFFUSETILE
360
E33
  3
OPACITYTILE
360
E37
  3
REFLECTIONTILE
360
E36
  3
REFRACTIONTILE
360
E38
  3
SPECULARTILE
360
E35
  0
DICTIONARY
  5
E2A
330
E29
100
AcDbDictionary
280
     1
281
     1
  3
ACAD_XREC_ROUNDTRIP
360
F5D
  3
BUMPTILE
360
E2C
  3
DIFFUSETILE
360
E2B
  3
OPACITYTILE
360
E2F
  3
REFLECTIONTILE
360
E2E
  3
REFRACTIONTILE
360
E30
  3
SPECULARTILE
360
E2D
  0
DICTIONARY
  5
E3A
330
E39
100
AcDbDictionary
280
     1
281
     1
  3
ACAD_XREC_ROUNDTRIP
360
F5F
  3
BUMPTILE
360
E3C
  3
DIFFUSETILE
360
E3B
  3
OPACITYTILE
360
E3F
  3
REFLECTIONTILE
360
E3E
  3
REFRACTIONTILE
360
E40
  3
SPECULARTILE
360
E3D
  0
DICTIONARY
  5
F91
330
E70
100
AcDbDictionary
280
     1
281
     1
  3
ACAD_XREC_ROUNDTRIP
360
F92
  0
DICTIONARY
  5
F40
330
E72
100
AcDbDictionary
280
     1
281
     1
  3
ACAD_XREC_ROUNDTRIP
360
F93
  0
DICTIONARY
  5
E98
330
E5C
100
AcDbDictionary
280
     1
281
     1
  3
ACAD_ROUNDTRIP_2008_TABLESTYLE_CELLSTYLEMAP
360
F52
  3
ACAD_XREC_ROUNDTRIP
360
F90
  0
DICTIONARY
  5
F6A
330
E47
100
AcDbDictionary
280
     1
281
     1
  3
ACAD_XREC_ROUNDTRIP
360
F6B
  0
DICTIONARY
  5
F68
330
E46
100
AcDbDictionary
280
     1
281
     1
  3
ACAD_XREC_ROUNDTRIP
360
F69
  0
DICTIONARY
  5
F76
330
E4D
100
AcDbDictionary
280
     1
281
     1
  3
ACAD_XREC_ROUNDTRIP
360
F77
  0
DICTIONARY
  5
F7E
330
E51
100
AcDbDictionary
280
     1
281
     1
  3
ACAD_XREC_ROUNDTRIP
360
F7F
  0
DICTIONARY
  5
F70
330
E4A
100
AcDbDictionary
280
     1
281
     1
  3
ACAD_XREC_ROUNDTRIP
360
F71
  0
DICTIONARY
  5
F74
330
E4C
100
AcDbDictionary
280
     1
281
     1
  3
ACAD_XREC_ROUNDTRIP
360
F75
  0
DICTIONARY
  5
F8E
330
E59
100
AcDbDictionary
280
     1
281
     1
  3
ACAD_XREC_ROUNDTRIP
360
F8F
  0
DICTIONARY
  5
F7C
330
E50
100
AcDbDictionary
280
     1
281
     1
  3
ACAD_XREC_ROUNDTRIP
360
F7D
  0
DICTIONARY
  5
F60
330
E42
100
AcDbDictionary
280
     1
281
     1
  3
ACAD_XREC_ROUNDTRIP
360
F61
  0
DICTIONARY
  5
F62
330
E43
100
AcDbDictionary
280
     1
281
     1
  3
ACAD_XREC_ROUNDTRIP
360
F63
  0
DICTIONARY
  5
F64
330
E44
100
AcDbDictionary
280
     1
281
     1
  3
ACAD_XREC_ROUNDTRIP
360
F65
  0
DICTIONARY
  5
F66
330
E45
100
AcDbDictionary
280
     1
281
     1
  3
ACAD_XREC_ROUNDTRIP
360
F67
  0
DICTIONARY
  5
F6E
330
E49
100
AcDbDictionary
280
     1
281
     1
  3
ACAD_XREC_ROUNDTRIP
360
F6F
  0
DICTIONARY
  5
F8A
330
E57
100
AcDbDictionary
280
     1
281
     1
  3
ACAD_XREC_ROUNDTRIP
360
F8B
  0
DICTIONARY
  5
F7A
330
E4F
100
AcDbDictionary
280
     1
281
     1
  3
ACAD_XREC_ROUNDTRIP
360
F7B
  0
DICTIONARY
  5
F8C
330
E58
100
AcDbDictionary
280
     1
281
     1
  3
ACAD_XREC_ROUNDTRIP
360
F8D
  0
DICTIONARY
  5
F72
330
E4B
100
AcDbDictionary
280
     1
281
     1
  3
ACAD_XREC_ROUNDTRIP
360
F73
  0
DICTIONARY
  5
F88
330
E56
100
AcDbDictionary
280
     1
281
     1
  3
ACAD_XREC_ROUNDTRIP
360
F89
  0
DICTIONARY
  5
F86
330
E55
100
AcDbDictionary
280
     1
281
     1
  3
ACAD_XREC_ROUNDTRIP
360
F87
  0
DICTIONARY
  5
F80
330
E52
100
AcDbDictionary
280
     1
281
     1
  3
ACAD_XREC_ROUNDTRIP
360
F81
  0
DICTIONARY
  5
F82
330
E53
100
AcDbDictionary
280
     1
281
     1
  3
ACAD_XREC_ROUNDTRIP
360
F83
  0
DICTIONARY
  5
F78
330
E4E
100
AcDbDictionary
280
     1
281
     1
  3
ACAD_XREC_ROUNDTRIP
360
F79
  0
DICTIONARY
  5
F6C
330
E48
100
AcDbDictionary
280
     1
281
     1
  3
ACAD_XREC_ROUNDTRIP
360
F6D
  0
DICTIONARY
  5
F84
330
E54
100
AcDbDictionary
280
     1
281
     1
  3
ACAD_XREC_ROUNDTRIP
360
F85
  0
XRECORD
  5
F55
102
{ACAD_REACTORS
330
F5B
102
}
330
F5B
100
AcDbXrecord
280
     1
  1
AcDb_Thumbnail_Schema
102
{ATTRRECORD
341
F56
  2
AcDbDs::TreatedAsObjectData
280
     1
291
     1
102
ATTRRECORD}
102
{ATTRRECORD
341
F57
  2
AcDbDs::Legacy
280
     1
291
     1
102
ATTRRECORD}
  2
AcDbDs::ID
280
    10
 91
        8
102
{ATTRRECORD
341
F58
  2
AcDs:Indexable
280
     1
291
     1
102
ATTRRECORD}
102
{ATTRRECORD
341
F59
  2
AcDbDs::HandleAttribute
280
     7
282
     1
102
ATTRRECORD}
  2
Thumbnail_Data
280
    15
 91
        0
  0
XRECORD
  5
F56
102
{ACAD_REACTORS
330
F5B
102
}
330
F5B
100
AcDbXrecord
280
     1
  1
AcDbDs::TreatedAsObjectDataSchema
  2
AcDbDs::TreatedAsObjectData
280
     1
 91
        0
  0
XRECORD
  5
F57
102
{ACAD_REACTORS
330
F5B
102
}
330
F5B
100
AcDbXrecord
280
     1
  1
AcDbDs::LegacySchema
  2
AcDbDs::Legacy
280
     1
 91
        0
  0
XRECORD
  5
F58
102
{ACAD_REACTORS
330
F5B
102
}
330
F5B
100
AcDbXrecord
280
     1
  1
AcDbDs::IndexedPropertySchema
  2
AcDs:Indexable
280
     1
 91
        0
  0
XRECORD
  5
F59
102
{ACAD_REACTORS
330
F5B
102
}
330
F5B
100
AcDbXrecord
280
     1
  1
AcDbDs::HandleAttributeSchema
  2
AcDbDs::HandleAttribute
280
     7
 91
        1
284
     1
  0
XRECORD
  5
F94
102
{ACAD_REACTORS
330
F42
102
}
330
F42
100
AcDbXrecord
280
     1
102
DISPLAYNAME
  1
Imperial24
102
FLAGS
 90
        0
  0
XRECORD
  5
F97
102
{ACAD_REACTORS
330
F96
102
}
330
F96
100
AcDbXrecord
280
     1
102
SHADEPLOT
 70
     0
102
SHADEPLOTRESLEVEL
 70
     2
102
SHADEPLOTCUSTOMDPI
 70
   300
  0
XRECORD
  5
F95
102
{ACAD_REACTORS
330
EE0
102
}
330
EE0
100
AcDbXrecord
280
     1
102
SHADEPLOT
 70
     0
102
SHADEPLOTRESLEVEL
 70
     2
102
SHADEPLOTCUSTOMDPI
 70
   300
  0
XRECORD
  5
F5E
102
{ACAD_REACTORS
330
E32
102
}
330
E32
100
AcDbXrecord
280
     1
102
MATERIAL
148
0.0
149
0.0
149
0.0
 93
        0
 94
      127
282
     0
 72
     0
 77
     0
171
     0
175
     0
179
     0
273
     0
  0
XRECORD
  5
E34
102
{ACAD_REACTORS
330
E32
102
}
330
E32
100
AcDbXrecord
280
     1
270
     1
271
     1
  0
XRECORD
  5
E33
102
{ACAD_REACTORS
330
E32
102
}
330
E32
100
AcDbXrecord
280
     1
270
     1
271
     1
  0
XRECORD
  5
E37
102
{ACAD_REACTORS
330
E32
102
}
330
E32
100
AcDbXrecord
280
     1
270
     1
271
     1
  0
XRECORD
  5
E36
102
{ACAD_REACTORS
330
E32
102
}
330
E32
100
AcDbXrecord
280
     1
270
     1
271
     1
  0
XRECORD
  5
E38
102
{ACAD_REACTORS
330
E32
102
}
330
E32
100
AcDbXrecord
280
     1
270
     1
271
     1
  0
XRECORD
  5
E35
102
{ACAD_REACTORS
330
E32
102
}
330
E32
100
AcDbXrecord
280
     1
270
     1
271
     1
  0
XRECORD
  5
F5D
102
{ACAD_REACTORS
330
E2A
102
}
330
E2A
100
AcDbXrecord
280
     1
102
MATERIAL
148
0.0
149
0.0
149
0.0
 93
        0
 94
      127
282
     0
 72
     0
 77
     0
171
     0
175
     0
179
     0
273
     0
  0
XRECORD
  5
E2C
102
{ACAD_REACTORS
330
E2A
102
}
330
E2A
100
AcDbXrecord
280
     1
270
     1
271
     1
  0
XRECORD
  5
E2B
102
{ACAD_REACTORS
330
E2A
102
}
330
E2A
100
AcDbXrecord
280
     1
270
     1
271
     1
  0
XRECORD
  5
E2F
102
{ACAD_REACTORS
330
E2A
102
}
330
E2A
100
AcDbXrecord
280
     1
270
     1
271
     1
  0
XRECORD
  5
E2E
102
{ACAD_REACTORS
330
E2A
102
}
330
E2A
100
AcDbXrecord
280
     1
270
     1
271
     1
  0
XRECORD
  5
E30
102
{ACAD_REACTORS
330
E2A
102
}
330
E2A
100
AcDbXrecord
280
     1
270
     1
271
     1
  0
XRECORD
  5
E2D
102
{ACAD_REACTORS
330
E2A
102
}
330
E2A
100
AcDbXrecord
280
     1
270
     1
271
     1
  0
XRECORD
  5
F5F
102
{ACAD_REACTORS
330
E3A
102
}
330
E3A
100
AcDbXrecord
280
     1
102
MATERIAL
148
0.0
149
0.0
149
0.0
 93
        0
 94
      127
282
     0
 72
     0
 77
     0
171
     0
175
     0
179
     0
273
     0
  0
XRECORD
  5
E3C
102
{ACAD_REACTORS
330
E3A
102
}
330
E3A
100
AcDbXrecord
280
     1
270
     1
271
     1
  0
XRECORD
  5
E3B
102
{ACAD_REACTORS
330
E3A
102
}
330
E3A
100
AcDbXrecord
280
     1
270
     1
271
     1
  0
XRECORD
  5
E3F
102
{ACAD_REACTORS
330
E3A
102
}
330
E3A
100
AcDbXrecord
280
     1
270
     1
271
     1
  0
XRECORD
  5
E3E
102
{ACAD_REACTORS
330
E3A
102
}
330
E3A
100
AcDbXrecord
280
     1
270
     1
271
     1
  0
XRECORD
  5
E40
102
{ACAD_REACTORS
330
E3A
102
}
330
E3A
100
AcDbXrecord
280
     1
270
     1
271
     1
  0
XRECORD
  5
E3D
102
{ACAD_REACTORS
330
E3A
102
}
330
E3A
100
AcDbXrecord
280
     1
270
     1
271
     1
  0
XRECORD
  5
F92
102
{ACAD_REACTORS
330
F91
102
}
330
F91
100
AcDbXrecord
280
     1
102
ACAD_ROUNDTRIP_2012_MLEADER_STYLE
298
     1
  0
XRECORD
  5
F93
102
{ACAD_REACTORS
330
F40
102
}
330
F40
100
AcDbXrecord
280
     1
102
DISPLAYNAME
  1
Imperial24
102
FLAGS
 90
        0
  0
CELLSTYLEMAP
  5
F52
102
{ACAD_REACTORS
330
E98
102
}
330
E98
100
AcDbCellStyleMap
 90
        3
300
CELLSTYLE
  1
TABLEFORMAT_BEGIN
 90
        5
170
     1
 91
        0
 92
    32768
 62
   257
 93
        1
300
CONTENTFORMAT
  1
CONTENTFORMAT_BEGIN
 90
        0
 91
        0
 92
      512
 93
        0
300

 40
0.0
140
1.0
 94
        5
 62
     0
340
F
144
0.25
309
CONTENTFORMAT_END
171
     1
301
MARGIN
  1
CELLMARGIN_BEGIN
 40
0.06
 40
0.06
 40
0.06
 40
0.06
 40
0.18
 40
0.18
309
CELLMARGIN_END
 94
        6
 95
        1
302
GRIDFORMAT
  1
GRIDFORMAT_BEGIN
 90
        0
 91
        1
 62
     0
 92
       -2
340
0
 93
        0
 40
0.045
309
GRIDFORMAT_END
 95
        2
302
GRIDFORMAT
  1
GRIDFORMAT_BEGIN
 90
        0
 91
        1
 62
     0
 92
       -2
340
0
 93
        0
 40
0.045
309
GRIDFORMAT_END
 95
        4
302
GRIDFORMAT
  1
GRIDFORMAT_BEGIN
 90
        0
 91
        1
 62
     0
 92
       -2
340
0
 93
        0
 40
0.045
309
GRIDFORMAT_END
 95
        8
302
GRIDFORMAT
  1
GRIDFORMAT_BEGIN
 90
        0
 91
        1
 62
     0
 92
       -2
340
0
 93
        0
 40
0.045
309
GRIDFORMAT_END
 95
       16
302
GRIDFORMAT
  1
GRIDFORMAT_BEGIN
 90
        0
 91
        1
 62
     0
 92
       -2
340
0
 93
        0
 40
0.045
309
GRIDFORMAT_END
 95
       32
302
GRIDFORMAT
  1
GRIDFORMAT_BEGIN
 90
        0
 91
        1
 62
     0
 92
       -2
340
0
 93
        0
 40
0.045
309
GRIDFORMAT_END
309
TABLEFORMAT_END
  1
CELLSTYLE_BEGIN
 90
        1
 91
        1
300
_TITLE
309
CELLSTYLE_END
300
CELLSTYLE
  1
TABLEFORMAT_BEGIN
 90
        5
170
     1
 91
        0
 92
        0
 62
   257
 93
        1
300
CONTENTFORMAT
  1
CONTENTFORMAT_BEGIN
 90
        0
 91
        0
 92
      512
 93
        0
300

 40
0.0
140
1.0
 94
        5
 62
     0
340
F
144
0.18
309
CONTENTFORMAT_END
171
     1
301
MARGIN
  1
CELLMARGIN_BEGIN
 40
0.06
 40
0.06
 40
0.06
 40
0.06
 40
0.18
 40
0.18
309
CELLMARGIN_END
 94
        6
 95
        1
302
GRIDFORMAT
  1
GRIDFORMAT_BEGIN
 90
        0
 91
        1
 62
     0
 92
       -2
340
0
 93
        0
 40
0.045
309
GRIDFORMAT_END
 95
        2
302
GRIDFORMAT
  1
GRIDFORMAT_BEGIN
 90
        0
 91
        1
 62
     0
 92
       -2
340
0
 93
        0
 40
0.045
309
GRIDFORMAT_END
 95
        4
302
GRIDFORMAT
  1
GRIDFORMAT_BEGIN
 90
        0
 91
        1
 62
     0
 92
       -2
340
0
 93
        0
 40
0.045
309
GRIDFORMAT_END
 95
        8
302
GRIDFORMAT
  1
GRIDFORMAT_BEGIN
 90
        0
 91
        1
 62
     0
 92
       -2
340
0
 93
        0
 40
0.045
309
GRIDFORMAT_END
 95
       16
302
GRIDFORMAT
  1
GRIDFORMAT_BEGIN
 90
        0
 91
        1
 62
     0
 92
       -2
340
0
 93
        0
 40
0.045
309
GRIDFORMAT_END
 95
       32
302
GRIDFORMAT
  1
GRIDFORMAT_BEGIN
 90
        0
 91
        1
 62
     0
 92
       -2
340
0
 93
        0
 40
0.045
309
GRIDFORMAT_END
309
TABLEFORMAT_END
  1
CELLSTYLE_BEGIN
 90
        2
 91
        1
300
_HEADER
309
CELLSTYLE_END
300
CELLSTYLE
  1
TABLEFORMAT_BEGIN
 90
        5
170
     1
 91
        0
 92
        0
 62
   257
 93
        1
300
CONTENTFORMAT
  1
CONTENTFORMAT_BEGIN
 90
        0
 91
        0
 92
      512
 93
        0
300

 40
0.0
140
1.0
 94
        2
 62
     0
340
F
144
0.18
309
CONTENTFORMAT_END
171
     1
301
MARGIN
  1
CELLMARGIN_BEGIN
 40
0.06
 40
0.06
 40
0.06
 40
0.06
 40
0.18
 40
0.18
309
CELLMARGIN_END
 94
        6
 95
        1
302
GRIDFORMAT
  1
GRIDFORMAT_BEGIN
 90
        0
 91
        1
 62
     0
 92
       -2
340
0
 93
        0
 40
0.045
309
GRIDFORMAT_END
 95
        2
302
GRIDFORMAT
  1
GRIDFORMAT_BEGIN
 90
        0
 91
        1
 62
     0
 92
       -2
340
0
 93
        0
 40
0.045
309
GRIDFORMAT_END
 95
        4
302
GRIDFORMAT
  1
GRIDFORMAT_BEGIN
 90
        0
 91
        1
 62
     0
 92
       -2
340
0
 93
        0
 40
0.045
309
GRIDFORMAT_END
 95
        8
302
GRIDFORMAT
  1
GRIDFORMAT_BEGIN
 90
        0
 91
        1
 62
     0
 92
       -2
340
0
 93
        0
 40
0.045
309
GRIDFORMAT_END
 95
       16
302
GRIDFORMAT
  1
GRIDFORMAT_BEGIN
 90
        0
 91
        1
 62
     0
 92
       -2
340
0
 93
        0
 40
0.045
309
GRIDFORMAT_END
 95
       32
302
GRIDFORMAT
  1
GRIDFORMAT_BEGIN
 90
        0
 91
        1
 62
     0
 92
       -2
340
0
 93
        0
 40
0.045
309
GRIDFORMAT_END
309
TABLEFORMAT_END
  1
CELLSTYLE_BEGIN
 90
        3
 91
        2
300
_DATA
309
CELLSTYLE_END
  0
XRECORD
  5
F90
102
{ACAD_REACTORS
330
E98
102
}
330
E98
100
AcDbXrecord
280
     1
102
ACAD_ROUNDTRIP_PRE2007_TABLESTYLE
 90
      512
 91
        0
  1

 92
      512
 93
        0
  2

 94
      512
 95
        0
  3

  0
XRECORD
  5
F6B
102
{ACAD_REACTORS
330
F6A
102
}
330
F6A
100
AcDbXrecord
280
     1
102
RTVSPost2010Prop28
280
     1
102
RTVSPost2010PropOp28
 70
     1
102
RTVSPost2010Prop29
280
     1
102
RTVSPost2010PropOp29
 70
     1
102
RTVSPost2010Prop30
280
     0
102
RTVSPost2010PropOp30
 70
     1
102
RTVSPost2010Prop31
280
     0
102
RTVSPost2010PropOp31
 70
     1
102
RTVSPost2010Prop32
280
     0
102
RTVSPost2010PropOp32
 70
     1
102
RTVSPost2010Prop33
280
     0
102
RTVSPost2010PropOp33
 70
     1
102
RTVSPost2010Prop34
280
     0
102
RTVSPost2010PropOp34
 70
     1
102
RTVSPost2010Prop35
280
     0
102
RTVSPost2010PropOp35
 70
     1
102
RTVSPost2010Prop36
280
     0
102
RTVSPost2010PropOp36
 70
     1
102
RTVSPost2010Prop37
 90
       50
102
RTVSPost2010PropOp37
 70
     1
102
RTVSPost2010Prop38
140
0.0
102
RTVSPost2010PropOp38
 70
     1
102
RTVSPost2010Prop39
140
1.0
102
RTVSPost2010PropOp39
 70
     1
102
RTVSPost2010Prop40
 90
        0
102
RTVSPost2010PropOp40
 70
     1
102
RTVSPost2010Prop41ColorIndex
 90
       18
102
RTVSPost2010Prop41ColorRGB
 90
-16777216
102
RTVSPost2010PropOp41
 70
     1
102
RTVSPost2010Prop42
 90
       50
102
RTVSPost2010PropOp42
 70
     1
102
RTVSPost2010Prop43
 90
        3
102
RTVSPost2010PropOp43
 70
     1
102
RTVSPost2010Prop44ColorIndex
 90
        5
102
RTVSPost2010Prop44ColorRGB
 90
      255
102
RTVSPost2010PropOp44
 70
     1
102
RTVSPost2010Prop45
280
     0
102
RTVSPost2010PropOp45
 70
     1
102
RTVSPost2010Prop46
 90
       50
102
RTVSPost2010PropOp46
 70
     1
102
RTVSPost2010Prop47
 90
       50
102
RTVSPost2010PropOp47
 70
     1
102
RTVSPost2010Prop48
 90
       50
102
RTVSPost2010PropOp48
 70
     1
102
RTVSPost2010Prop49
280
     0
102
RTVSPost2010PropOp49
 70
     1
102
RTVSPost2010Prop50
 90
       50
102
RTVSPost2010PropOp50
 70
     1
102
RTVSPost2010Prop51ColorIndex
 90
      256
102
RTVSPost2010Prop51ColorRGB
 90
-16777216
102
RTVSPost2010PropOp51
 70
     0
102
RTVSPost2010Prop52
140
1.0
102
RTVSPost2010PropOp52
 70
     0
102
RTVSPost2010Prop53
 90
        2
102
RTVSPost2010PropOp53
 70
     1
102
RTVSPost2010Prop54
  1
strokes_ogs.tif
102
RTVSPost2010PropOp54
 70
     1
102
RTVSPost2010Prop55
280
     0
102
RTVSPost2010PropOp55
 70
     1
102
RTVSPost2010Prop56
140
1.0
102
RTVSPost2010PropOp56
 70
     1
102
RTVSPost2010Prop57
140
1.0
102
RTVSPost2010PropOp57
 70
     1
102
RTVSPropertyOp0
 70
     1
102
RTVSPropertyOp1
 70
     1
102
RTVSPropertyOp2
 70
     1
102
RTVSPropertyOp3
 70
     1
102
RTVSPropertyOp4
 70
     1
102
RTVSPropertyOp5
 70
     1
102
RTVSPropertyOp6
 70
     1
102
RTVSPropertyOp7
 70
     1
102
RTVSPropertyOp8
 70
     1
102
RTVSPropertyOp9
 70
     1
102
RTVSPropertyOp10
 70
     1
102
RTVSPropertyOp11
 70
     1
102
RTVSPropertyOp12
 70
     1
102
RTVSPropertyOp13
 70
     1
102
RTVSPropertyOp14
 70
     1
102
RTVSPropertyOp15
 70
     1
102
RTVSPropertyOp16
 70
     1
102
RTVSPropertyOp17
 70
     1
102
RTVSPropertyOp18
 70
     1
102
RTVSPropertyOp19
 70
     1
102
RTVSPropertyOp20
 70
     1
102
RTVSPropertyOp21
 70
     1
102
RTVSPropertyOp22
 70
     1
102
RTVSPropertyOp23
 70
     1
102
RTVSPropertyOp24
 70
     1
102
RTVSPropertyOp25
 70
     1
102
RTVSPropertyOp26
 70
     1
102
RTVSPropertyOp27
 70
     1
102
RTVSPropertyOp28
 70
     1
102
RTVSPropertyOp29
 70
     1
102
RTVSPropertyOp30
 70
     1
102
RTVSPropertyOp31
 70
     1
102
RTVSPropertyOp32
 70
     1
102
RTVSPropertyOp33
 70
     1
102
RTVSPropertyOp34
 70
     1
102
RTVSPropertyOp35
 70
     1
102
RTVSPropertyOp36
 70
     1
102
RTVSPropertyOp37
 70
     1
102
RTVSPropertyOp38
 70
     1
102
RTVSPropertyOp39
 70
     1
102
RTVSPropertyOp40
 70
     1
102
RTVSPropertyOp41
 70
     1
102
RTVSPropertyOp42
 70
     1
102
RTVSPropertyOp43
 70
     1
102
RTVSPropertyOp44
 70
     1
102
RTVSPropertyOp45
 70
     1
102
RTVSPropertyOp46
 70
     1
102
RTVSPropertyOp47
 70
     1
102
RTVSPropertyOp48
 70
     1
102
RTVSPropertyOp49
 70
     1
102
RTVSPropertyOp50
 70
     1
102
RTVSPropertyOp51
 70
     0
102
RTVSPropertyOp52
 70
     0
102
RTVSPropertyOp53
 70
     1
102
RTVSPropertyOp54
 70
     1
102
RTVSPropertyOp55
 70
     1
102
RTVSPropertyOp56
 70
     1
102
RTVSPropertyOp57
 70
     1
102
RTVSPropertyOp58
 70
     1
102
RTVSPropertyOp59
 70
     1
102
RTVSPropertyOp60
 70
     1
102
RTVSPropertyOp61
 70
     1
102
RTVSPropertyOp62
 70
     1
  0
XRECORD
  5
F69
102
{ACAD_REACTORS
330
F68
102
}
330
F68
100
AcDbXrecord
280
     1
102
RTVSPost2010Prop28
280
     0
102
RTVSPost2010PropOp28
 70
     1
102
RTVSPost2010Prop29
280
     1
102
RTVSPost2010PropOp29
 70
     1
102
RTVSPost2010Prop30
280
     1
102
RTVSPost2010PropOp30
 70
     1
102
RTVSPost2010Prop31
280
     0
102
RTVSPost2010PropOp31
 70
     1
102
RTVSPost2010Prop32
280
     0
102
RTVSPost2010PropOp32
 70
     1
102
RTVSPost2010Prop33
280
     0
102
RTVSPost2010PropOp33
 70
     1
102
RTVSPost2010Prop34
280
     0
102
RTVSPost2010PropOp34
 70
     1
102
RTVSPost2010Prop35
280
     0
102
RTVSPost2010PropOp35
 70
     1
102
RTVSPost2010Prop36
280
     0
102
RTVSPost2010PropOp36
 70
     1
102
RTVSPost2010Prop37
 90
       50
102
RTVSPost2010PropOp37
 70
     1
102
RTVSPost2010Prop38
140
0.0
102
RTVSPost2010PropOp38
 70
     1
102
RTVSPost2010Prop39
140
1.0
102
RTVSPost2010PropOp39
 70
     1
102
RTVSPost2010Prop40
 90
        0
102
RTVSPost2010PropOp40
 70
     1
102
RTVSPost2010Prop41ColorIndex
 90
       18
102
RTVSPost2010Prop41ColorRGB
 90
-16777216
102
RTVSPost2010PropOp41
 70
     1
102
RTVSPost2010Prop42
 90
       50
102
RTVSPost2010PropOp42
 70
     1
102
RTVSPost2010Prop43
 90
        3
102
RTVSPost2010PropOp43
 70
     1
102
RTVSPost2010Prop44ColorIndex
 90
        5
102
RTVSPost2010Prop44ColorRGB
 90
      255
102
RTVSPost2010PropOp44
 70
     1
102
RTVSPost2010Prop45
280
     0
102
RTVSPost2010PropOp45
 70
     1
102
RTVSPost2010Prop46
 90
       50
102
RTVSPost2010PropOp46
 70
     1
102
RTVSPost2010Prop47
 90
       50
102
RTVSPost2010PropOp47
 70
     1
102
RTVSPost2010Prop48
 90
       50
102
RTVSPost2010PropOp48
 70
     1
102
RTVSPost2010Prop49
280
     0
102
RTVSPost2010PropOp49
 70
     1
102
RTVSPost2010Prop50
 90
       50
102
RTVSPost2010PropOp50
 70
     1
102
RTVSPost2010Prop51ColorIndex
 90
      256
102
RTVSPost2010Prop51ColorRGB
 90
-16777216
102
RTVSPost2010PropOp51
 70
     0
102
RTVSPost2010Prop52
140
1.0
102
RTVSPost2010PropOp52
 70
     0
102
RTVSPost2010Prop53
 90
        2
102
RTVSPost2010PropOp53
 70
     1
102
RTVSPost2010Prop54
  1
strokes_ogs.tif
102
RTVSPost2010PropOp54
 70
     1
102
RTVSPost2010Prop55
280
     0
102
RTVSPost2010PropOp55
 70
     1
102
RTVSPost2010Prop56
140
1.0
102
RTVSPost2010PropOp56
 70
     1
102
RTVSPost2010Prop57
140
1.0
102
RTVSPost2010PropOp57
 70
     1
102
RTVSPropertyOp0
 70
     1
102
RTVSPropertyOp1
 70
     1
102
RTVSPropertyOp2
 70
     1
102
RTVSPropertyOp3
 70
     1
102
RTVSPropertyOp4
 70
     1
102
RTVSPropertyOp5
 70
     1
102
RTVSPropertyOp6
 70
     1
102
RTVSPropertyOp7
 70
     1
102
RTVSPropertyOp8
 70
     1
102
RTVSPropertyOp9
 70
     1
102
RTVSPropertyOp10
 70
     1
102
RTVSPropertyOp11
 70
     1
102
RTVSPropertyOp12
 70
     1
102
RTVSPropertyOp13
 70
     1
102
RTVSPropertyOp14
 70
     1
102
RTVSPropertyOp15
 70
     1
102
RTVSPropertyOp16
 70
     1
102
RTVSPropertyOp17
 70
     1
102
RTVSPropertyOp18
 70
     1
102
RTVSPropertyOp19
 70
     1
102
RTVSPropertyOp20
 70
     1
102
RTVSPropertyOp21
 70
     1
102
RTVSPropertyOp22
 70
     1
102
RTVSPropertyOp23
 70
     1
102
RTVSPropertyOp24
 70
     1
102
RTVSPropertyOp25
 70
     1
102
RTVSPropertyOp26
 70
     1
102
RTVSPropertyOp27
 70
     1
102
RTVSPropertyOp28
 70
     1
102
RTVSPropertyOp29
 70
     1
102
RTVSPropertyOp30
 70
     1
102
RTVSPropertyOp31
 70
     1
102
RTVSPropertyOp32
 70
     1
102
RTVSPropertyOp33
 70
     1
102
RTVSPropertyOp34
 70
     1
102
RTVSPropertyOp35
 70
     1
102
RTVSPropertyOp36
 70
     1
102
RTVSPropertyOp37
 70
     1
102
RTVSPropertyOp38
 70
     1
102
RTVSPropertyOp39
 70
     1
102
RTVSPropertyOp40
 70
     1
102
RTVSPropertyOp41
 70
     1
102
RTVSPropertyOp42
 70
     1
102
RTVSPropertyOp43
 70
     1
102
RTVSPropertyOp44
 70
     1
102
RTVSPropertyOp45
 70
     1
102
RTVSPropertyOp46
 70
     1
102
RTVSPropertyOp47
 70
     1
102
RTVSPropertyOp48
 70
     1
102
RTVSPropertyOp49
 70
     1
102
RTVSPropertyOp50
 70
     1
102
RTVSPropertyOp51
 70
     0
102
RTVSPropertyOp52
 70
     0
102
RTVSPropertyOp53
 70
     1
102
RTVSPropertyOp54
 70
     1
102
RTVSPropertyOp55
 70
     1
102
RTVSPropertyOp56
 70
     1
102
RTVSPropertyOp57
 70
     1
102
RTVSPropertyOp58
 70
     1
102
RTVSPropertyOp59
 70
     1
102
RTVSPropertyOp60
 70
     1
102
RTVSPropertyOp61
 70
     1
102
RTVSPropertyOp62
 70
     1
  0
XRECORD
  5
F77
102
{ACAD_REACTORS
330
F76
102
}
330
F76
100
AcDbXrecord
280
     1
102
RTVSPost2010Prop28
280
     0
102
RTVSPost2010PropOp28
 70
     1
102
RTVSPost2010Prop29
280
     1
102
RTVSPost2010PropOp29
 70
     1
102
RTVSPost2010Prop30
280
     1
102
RTVSPost2010PropOp30
 70
     1
102
RTVSPost2010Prop31
280
     0
102
RTVSPost2010PropOp31
 70
     1
102
RTVSPost2010Prop32
280
     0
102
RTVSPost2010PropOp32
 70
     1
102
RTVSPost2010Prop33
280
     0
102
RTVSPost2010PropOp33
 70
     1
102
RTVSPost2010Prop34
280
     0
102
RTVSPost2010PropOp34
 70
     1
102
RTVSPost2010Prop35
280
     0
102
RTVSPost2010PropOp35
 70
     1
102
RTVSPost2010Prop36
280
     0
102
RTVSPost2010PropOp36
 70
     1
102
RTVSPost2010Prop37
 90
       50
102
RTVSPost2010PropOp37
 70
     1
102
RTVSPost2010Prop38
140
0.0
102
RTVSPost2010PropOp38
 70
     1
102
RTVSPost2010Prop39
140
1.0
102
RTVSPost2010PropOp39
 70
     1
102
RTVSPost2010Prop40
 90
        0
102
RTVSPost2010PropOp40
 70
     1
102
RTVSPost2010Prop41ColorIndex
 90
       18
102
RTVSPost2010Prop41ColorRGB
 90
-16777216
102
RTVSPost2010PropOp41
 70
     1
102
RTVSPost2010Prop42
 90
       50
102
RTVSPost2010PropOp42
 70
     1
102
RTVSPost2010Prop43
 90
        3
102
RTVSPost2010PropOp43
 70
     1
102
RTVSPost2010Prop44ColorIndex
 90
        5
102
RTVSPost2010Prop44ColorRGB
 90
      255
102
RTVSPost2010PropOp44
 70
     1
102
RTVSPost2010Prop45
280
     0
102
RTVSPost2010PropOp45
 70
     1
102
RTVSPost2010Prop46
 90
       50
102
RTVSPost2010PropOp46
 70
     1
102
RTVSPost2010Prop47
 90
       50
102
RTVSPost2010PropOp47
 70
     1
102
RTVSPost2010Prop48
 90
       50
102
RTVSPost2010PropOp48
 70
     1
102
RTVSPost2010Prop49
280
     0
102
RTVSPost2010PropOp49
 70
     1
102
RTVSPost2010Prop50
 90
       50
102
RTVSPost2010PropOp50
 70
     1
102
RTVSPost2010Prop51ColorIndex
 90
      256
102
RTVSPost2010Prop51ColorRGB
 90
-16777216
102
RTVSPost2010PropOp51
 70
     0
102
RTVSPost2010Prop52
140
1.0
102
RTVSPost2010PropOp52
 70
     0
102
RTVSPost2010Prop53
 90
        2
102
RTVSPost2010PropOp53
 70
     1
102
RTVSPost2010Prop54
  1
strokes_ogs.tif
102
RTVSPost2010PropOp54
 70
     1
102
RTVSPost2010Prop55
280
     0
102
RTVSPost2010PropOp55
 70
     1
102
RTVSPost2010Prop56
140
1.0
102
RTVSPost2010PropOp56
 70
     1
102
RTVSPost2010Prop57
140
1.0
102
RTVSPost2010PropOp57
 70
     1
102
RTVSPropertyOp0
 70
     1
102
RTVSPropertyOp1
 70
     1
102
RTVSPropertyOp2
 70
     1
102
RTVSPropertyOp3
 70
     1
102
RTVSPropertyOp4
 70
     1
102
RTVSPropertyOp5
 70
     1
102
RTVSPropertyOp6
 70
     1
102
RTVSPropertyOp7
 70
     1
102
RTVSPropertyOp8
 70
     1
102
RTVSPropertyOp9
 70
     1
102
RTVSPropertyOp10
 70
     1
102
RTVSPropertyOp11
 70
     1
102
RTVSPropertyOp12
 70
     1
102
RTVSPropertyOp13
 70
     1
102
RTVSPropertyOp14
 70
     1
102
RTVSPropertyOp15
 70
     1
102
RTVSPropertyOp16
 70
     1
102
RTVSPropertyOp17
 70
     1
102
RTVSPropertyOp18
 70
     1
102
RTVSPropertyOp19
 70
     1
102
RTVSPropertyOp20
 70
     1
102
RTVSPropertyOp21
 70
     1
102
RTVSPropertyOp22
 70
     1
102
RTVSPropertyOp23
 70
     1
102
RTVSPropertyOp24
 70
     1
102
RTVSPropertyOp25
 70
     1
102
RTVSPropertyOp26
 70
     1
102
RTVSPropertyOp27
 70
     1
102
RTVSPropertyOp28
 70
     1
102
RTVSPropertyOp29
 70
     1
102
RTVSPropertyOp30
 70
     1
102
RTVSPropertyOp31
 70
     1
102
RTVSPropertyOp32
 70
     1
102
RTVSPropertyOp33
 70
     1
102
RTVSPropertyOp34
 70
     1
102
RTVSPropertyOp35
 70
     1
102
RTVSPropertyOp36
 70
     1
102
RTVSPropertyOp37
 70
     1
102
RTVSPropertyOp38
 70
     1
102
RTVSPropertyOp39
 70
     1
102
RTVSPropertyOp40
 70
     1
102
RTVSPropertyOp41
 70
     1
102
RTVSPropertyOp42
 70
     1
102
RTVSPropertyOp43
 70
     1
102
RTVSPropertyOp44
 70
     1
102
RTVSPropertyOp45
 70
     1
102
RTVSPropertyOp46
 70
     1
102
RTVSPropertyOp47
 70
     1
102
RTVSPropertyOp48
 70
     1
102
RTVSPropertyOp49
 70
     1
102
RTVSPropertyOp50
 70
     1
102
RTVSPropertyOp51
 70
     0
102
RTVSPropertyOp52
 70
     0
102
RTVSPropertyOp53
 70
     1
102
RTVSPropertyOp54
 70
     1
102
RTVSPropertyOp55
 70
     1
102
RTVSPropertyOp56
 70
     1
102
RTVSPropertyOp57
 70
     1
102
RTVSPropertyOp58
 70
     1
102
RTVSPropertyOp59
 70
     1
102
RTVSPropertyOp60
 70
     1
102
RTVSPropertyOp61
 70
     1
102
RTVSPropertyOp62
 70
     1
  0
XRECORD
  5
F7F
102
{ACAD_REACTORS
330
F7E
102
}
330
F7E
100
AcDbXrecord
280
     1
102
RTVSPost2010Prop28
280
     0
102
RTVSPost2010PropOp28
 70
     1
102
RTVSPost2010Prop29
280
     1
102
RTVSPost2010PropOp29
 70
     1
102
RTVSPost2010Prop30
280
     1
102
RTVSPost2010PropOp30
 70
     1
102
RTVSPost2010Prop31
280
     0
102
RTVSPost2010PropOp31
 70
     1
102
RTVSPost2010Prop32
280
     0
102
RTVSPost2010PropOp32
 70
     1
102
RTVSPost2010Prop33
280
     0
102
RTVSPost2010PropOp33
 70
     1
102
RTVSPost2010Prop34
280
     0
102
RTVSPost2010PropOp34
 70
     1
102
RTVSPost2010Prop35
280
     0
102
RTVSPost2010PropOp35
 70
     1
102
RTVSPost2010Prop36
280
     0
102
RTVSPost2010PropOp36
 70
     1
102
RTVSPost2010Prop37
 90
       50
102
RTVSPost2010PropOp37
 70
     1
102
RTVSPost2010Prop38
140
0.0
102
RTVSPost2010PropOp38
 70
     1
102
RTVSPost2010Prop39
140
1.0
102
RTVSPost2010PropOp39
 70
     1
102
RTVSPost2010Prop40
 90
        0
102
RTVSPost2010PropOp40
 70
     1
102
RTVSPost2010Prop41ColorIndex
 90
       18
102
RTVSPost2010Prop41ColorRGB
 90
-16777216
102
RTVSPost2010PropOp41
 70
     1
102
RTVSPost2010Prop42
 90
       50
102
RTVSPost2010PropOp42
 70
     1
102
RTVSPost2010Prop43
 90
        3
102
RTVSPost2010PropOp43
 70
     1
102
RTVSPost2010Prop44ColorIndex
 90
        5
102
RTVSPost2010Prop44ColorRGB
 90
      255
102
RTVSPost2010PropOp44
 70
     1
102
RTVSPost2010Prop45
280
     0
102
RTVSPost2010PropOp45
 70
     1
102
RTVSPost2010Prop46
 90
       50
102
RTVSPost2010PropOp46
 70
     1
102
RTVSPost2010Prop47
 90
       50
102
RTVSPost2010PropOp47
 70
     1
102
RTVSPost2010Prop48
 90
       50
102
RTVSPost2010PropOp48
 70
     1
102
RTVSPost2010Prop49
280
     0
102
RTVSPost2010PropOp49
 70
     1
102
RTVSPost2010Prop50
 90
       50
102
RTVSPost2010PropOp50
 70
     1
102
RTVSPost2010Prop51ColorIndex
 90
      256
102
RTVSPost2010Prop51ColorRGB
 90
-16777216
102
RTVSPost2010PropOp51
 70
     0
102
RTVSPost2010Prop52
140
1.0
102
RTVSPost2010PropOp52
 70
     0
102
RTVSPost2010Prop53
 90
        2
102
RTVSPost2010PropOp53
 70
     1
102
RTVSPost2010Prop54
  1
strokes_ogs.tif
102
RTVSPost2010PropOp54
 70
     1
102
RTVSPost2010Prop55
280
     0
102
RTVSPost2010PropOp55
 70
     1
102
RTVSPost2010Prop56
140
1.0
102
RTVSPost2010PropOp56
 70
     1
102
RTVSPost2010Prop57
140
1.0
102
RTVSPost2010PropOp57
 70
     1
102
RTVSPropertyOp0
 70
     1
102
RTVSPropertyOp1
 70
     1
102
RTVSPropertyOp2
 70
     1
102
RTVSPropertyOp3
 70
     1
102
RTVSPropertyOp4
 70
     1
102
RTVSPropertyOp5
 70
     1
102
RTVSPropertyOp6
 70
     1
102
RTVSPropertyOp7
 70
     1
102
RTVSPropertyOp8
 70
     1
102
RTVSPropertyOp9
 70
     1
102
RTVSPropertyOp10
 70
     1
102
RTVSPropertyOp11
 70
     1
102
RTVSPropertyOp12
 70
     1
102
RTVSPropertyOp13
 70
     1
102
RTVSPropertyOp14
 70
     1
102
RTVSPropertyOp15
 70
     1
102
RTVSPropertyOp16
 70
     1
102
RTVSPropertyOp17
 70
     1
102
RTVSPropertyOp18
 70
     1
102
RTVSPropertyOp19
 70
     1
102
RTVSPropertyOp20
 70
     1
102
RTVSPropertyOp21
 70
     1
102
RTVSPropertyOp22
 70
     1
102
RTVSPropertyOp23
 70
     1
102
RTVSPropertyOp24
 70
     1
102
RTVSPropertyOp25
 70
     1
102
RTVSPropertyOp26
 70
     1
102
RTVSPropertyOp27
 70
     1
102
RTVSPropertyOp28
 70
     1
102
RTVSPropertyOp29
 70
     1
102
RTVSPropertyOp30
 70
     1
102
RTVSPropertyOp31
 70
     1
102
RTVSPropertyOp32
 70
     1
102
RTVSPropertyOp33
 70
     1
102
RTVSPropertyOp34
 70
     1
102
RTVSPropertyOp35
 70
     1
102
RTVSPropertyOp36
 70
     1
102
RTVSPropertyOp37
 70
     1
102
RTVSPropertyOp38
 70
     1
102
RTVSPropertyOp39
 70
     1
102
RTVSPropertyOp40
 70
     1
102
RTVSPropertyOp41
 70
     1
102
RTVSPropertyOp42
 70
     1
102
RTVSPropertyOp43
 70
     1
102
RTVSPropertyOp44
 70
     1
102
RTVSPropertyOp45
 70
     1
102
RTVSPropertyOp46
 70
     1
102
RTVSPropertyOp47
 70
     1
102
RTVSPropertyOp48
 70
     1
102
RTVSPropertyOp49
 70
     1
102
RTVSPropertyOp50
 70
     1
102
RTVSPropertyOp51
 70
     0
102
RTVSPropertyOp52
 70
     0
102
RTVSPropertyOp53
 70
     1
102
RTVSPropertyOp54
 70
     1
102
RTVSPropertyOp55
 70
     1
102
RTVSPropertyOp56
 70
     1
102
RTVSPropertyOp57
 70
     1
102
RTVSPropertyOp58
 70
     1
102
RTVSPropertyOp59
 70
     1
102
RTVSPropertyOp60
 70
     1
102
RTVSPropertyOp61
 70
     1
102
RTVSPropertyOp62
 70
     1
  0
XRECORD
  5
F71
102
{ACAD_REACTORS
330
F70
102
}
330
F70
100
AcDbXrecord
280
     1
102
RTVSPost2010Prop28
280
     0
102
RTVSPost2010PropOp28
 70
     1
102
RTVSPost2010Prop29
280
     1
102
RTVSPost2010PropOp29
 70
     1
102
RTVSPost2010Prop30
280
     1
102
RTVSPost2010PropOp30
 70
     1
102
RTVSPost2010Prop31
280
     0
102
RTVSPost2010PropOp31
 70
     1
102
RTVSPost2010Prop32
280
     0
102
RTVSPost2010PropOp32
 70
     1
102
RTVSPost2010Prop33
280
     0
102
RTVSPost2010PropOp33
 70
     1
102
RTVSPost2010Prop34
280
     0
102
RTVSPost2010PropOp34
 70
     1
102
RTVSPost2010Prop35
280
     0
102
RTVSPost2010PropOp35
 70
     1
102
RTVSPost2010Prop36
280
     0
102
RTVSPost2010PropOp36
 70
     1
102
RTVSPost2010Prop37
 90
       50
102
RTVSPost2010PropOp37
 70
     1
102
RTVSPost2010Prop38
140
0.0
102
RTVSPost2010PropOp38
 70
     1
102
RTVSPost2010Prop39
140
1.0
102
RTVSPost2010PropOp39
 70
     1
102
RTVSPost2010Prop40
 90
        0
102
RTVSPost2010PropOp40
 70
     1
102
RTVSPost2010Prop41ColorIndex
 90
       18
102
RTVSPost2010Prop41ColorRGB
 90
-16777216
102
RTVSPost2010PropOp41
 70
     1
102
RTVSPost2010Prop42
 90
       50
102
RTVSPost2010PropOp42
 70
     1
102
RTVSPost2010Prop43
 90
        3
102
RTVSPost2010PropOp43
 70
     1
102
RTVSPost2010Prop44ColorIndex
 90
        5
102
RTVSPost2010Prop44ColorRGB
 90
      255
102
RTVSPost2010PropOp44
 70
     1
102
RTVSPost2010Prop45
280
     0
102
RTVSPost2010PropOp45
 70
     1
102
RTVSPost2010Prop46
 90
       50
102
RTVSPost2010PropOp46
 70
     1
102
RTVSPost2010Prop47
 90
       50
102
RTVSPost2010PropOp47
 70
     1
102
RTVSPost2010Prop48
 90
       50
102
RTVSPost2010PropOp48
 70
     1
102
RTVSPost2010Prop49
280
     0
102
RTVSPost2010PropOp49
 70
     1
102
RTVSPost2010Prop50
 90
       50
102
RTVSPost2010PropOp50
 70
     1
102
RTVSPost2010Prop51ColorIndex
 90
      256
102
RTVSPost2010Prop51ColorRGB
 90
-16777216
102
RTVSPost2010PropOp51
 70
     0
102
RTVSPost2010Prop52
140
1.0
102
RTVSPost2010PropOp52
 70
     0
102
RTVSPost2010Prop53
 90
        2
102
RTVSPost2010PropOp53
 70
     1
102
RTVSPost2010Prop54
  1
strokes_ogs.tif
102
RTVSPost2010PropOp54
 70
     1
102
RTVSPost2010Prop55
280
     0
102
RTVSPost2010PropOp55
 70
     1
102
RTVSPost2010Prop56
140
1.0
102
RTVSPost2010PropOp56
 70
     1
102
RTVSPost2010Prop57
140
1.0
102
RTVSPost2010PropOp57
 70
     1
102
RTVSPropertyOp0
 70
     1
102
RTVSPropertyOp1
 70
     1
102
RTVSPropertyOp2
 70
     1
102
RTVSPropertyOp3
 70
     1
102
RTVSPropertyOp4
 70
     1
102
RTVSPropertyOp5
 70
     1
102
RTVSPropertyOp6
 70
     1
102
RTVSPropertyOp7
 70
     1
102
RTVSPropertyOp8
 70
     1
102
RTVSPropertyOp9
 70
     1
102
RTVSPropertyOp10
 70
     1
102
RTVSPropertyOp11
 70
     1
102
RTVSPropertyOp12
 70
     1
102
RTVSPropertyOp13
 70
     1
102
RTVSPropertyOp14
 70
     1
102
RTVSPropertyOp15
 70
     1
102
RTVSPropertyOp16
 70
     1
102
RTVSPropertyOp17
 70
     1
102
RTVSPropertyOp18
 70
     1
102
RTVSPropertyOp19
 70
     1
102
RTVSPropertyOp20
 70
     1
102
RTVSPropertyOp21
 70
     1
102
RTVSPropertyOp22
 70
     1
102
RTVSPropertyOp23
 70
     1
102
RTVSPropertyOp24
 70
     1
102
RTVSPropertyOp25
 70
     1
102
RTVSPropertyOp26
 70
     1
102
RTVSPropertyOp27
 70
     1
102
RTVSPropertyOp28
 70
     1
102
RTVSPropertyOp29
 70
     1
102
RTVSPropertyOp30
 70
     1
102
RTVSPropertyOp31
 70
     1
102
RTVSPropertyOp32
 70
     1
102
RTVSPropertyOp33
 70
     1
102
RTVSPropertyOp34
 70
     1
102
RTVSPropertyOp35
 70
     1
102
RTVSPropertyOp36
 70
     1
102
RTVSPropertyOp37
 70
     1
102
RTVSPropertyOp38
 70
     1
102
RTVSPropertyOp39
 70
     1
102
RTVSPropertyOp40
 70
     1
102
RTVSPropertyOp41
 70
     1
102
RTVSPropertyOp42
 70
     1
102
RTVSPropertyOp43
 70
     1
102
RTVSPropertyOp44
 70
     1
102
RTVSPropertyOp45
 70
     1
102
RTVSPropertyOp46
 70
     1
102
RTVSPropertyOp47
 70
     1
102
RTVSPropertyOp48
 70
     1
102
RTVSPropertyOp49
 70
     1
102
RTVSPropertyOp50
 70
     1
102
RTVSPropertyOp51
 70
     0
102
RTVSPropertyOp52
 70
     0
102
RTVSPropertyOp53
 70
     1
102
RTVSPropertyOp54
 70
     1
102
RTVSPropertyOp55
 70
     1
102
RTVSPropertyOp56
 70
     1
102
RTVSPropertyOp57
 70
     1
102
RTVSPropertyOp58
 70
     1
102
RTVSPropertyOp59
 70
     1
102
RTVSPropertyOp60
 70
     1
102
RTVSPropertyOp61
 70
     1
102
RTVSPropertyOp62
 70
     1
  0
XRECORD
  5
F75
102
{ACAD_REACTORS
330
F74
102
}
330
F74
100
AcDbXrecord
280
     1
102
RTVSPost2010Prop28
280
     0
102
RTVSPost2010PropOp28
 70
     1
102
RTVSPost2010Prop29
280
     1
102
RTVSPost2010PropOp29
 70
     1
102
RTVSPost2010Prop30
280
     1
102
RTVSPost2010PropOp30
 70
     1
102
RTVSPost2010Prop31
280
     0
102
RTVSPost2010PropOp31
 70
     1
102
RTVSPost2010Prop32
280
     0
102
RTVSPost2010PropOp32
 70
     1
102
RTVSPost2010Prop33
280
     0
102
RTVSPost2010PropOp33
 70
     1
102
RTVSPost2010Prop34
280
     0
102
RTVSPost2010PropOp34
 70
     1
102
RTVSPost2010Prop35
280
     0
102
RTVSPost2010PropOp35
 70
     1
102
RTVSPost2010Prop36
280
     0
102
RTVSPost2010PropOp36
 70
     1
102
RTVSPost2010Prop37
 90
       50
102
RTVSPost2010PropOp37
 70
     1
102
RTVSPost2010Prop38
140
0.0
102
RTVSPost2010PropOp38
 70
     1
102
RTVSPost2010Prop39
140
1.0
102
RTVSPost2010PropOp39
 70
     1
102
RTVSPost2010Prop40
 90
        0
102
RTVSPost2010PropOp40
 70
     1
102
RTVSPost2010Prop41ColorIndex
 90
       18
102
RTVSPost2010Prop41ColorRGB
 90
-16777216
102
RTVSPost2010PropOp41
 70
     1
102
RTVSPost2010Prop42
 90
       50
102
RTVSPost2010PropOp42
 70
     1
102
RTVSPost2010Prop43
 90
        3
102
RTVSPost2010PropOp43
 70
     1
102
RTVSPost2010Prop44ColorIndex
 90
        5
102
RTVSPost2010Prop44ColorRGB
 90
      255
102
RTVSPost2010PropOp44
 70
     1
102
RTVSPost2010Prop45
280
     0
102
RTVSPost2010PropOp45
 70
     1
102
RTVSPost2010Prop46
 90
       50
102
RTVSPost2010PropOp46
 70
     1
102
RTVSPost2010Prop47
 90
       50
102
RTVSPost2010PropOp47
 70
     1
102
RTVSPost2010Prop48
 90
       50
102
RTVSPost2010PropOp48
 70
     1
102
RTVSPost2010Prop49
280
     0
102
RTVSPost2010PropOp49
 70
     1
102
RTVSPost2010Prop50
 90
       50
102
RTVSPost2010PropOp50
 70
     1
102
RTVSPost2010Prop51ColorIndex
 90
      256
102
RTVSPost2010Prop51ColorRGB
 90
-16777216
102
RTVSPost2010PropOp51
 70
     0
102
RTVSPost2010Prop52
140
1.0
102
RTVSPost2010PropOp52
 70
     0
102
RTVSPost2010Prop53
 90
        2
102
RTVSPost2010PropOp53
 70
     1
102
RTVSPost2010Prop54
  1
strokes_ogs.tif
102
RTVSPost2010PropOp54
 70
     1
102
RTVSPost2010Prop55
280
     0
102
RTVSPost2010PropOp55
 70
     1
102
RTVSPost2010Prop56
140
1.0
102
RTVSPost2010PropOp56
 70
     1
102
RTVSPost2010Prop57
140
1.0
102
RTVSPost2010PropOp57
 70
     1
102
RTVSPropertyOp0
 70
     1
102
RTVSPropertyOp1
 70
     1
102
RTVSPropertyOp2
 70
     1
102
RTVSPropertyOp3
 70
     1
102
RTVSPropertyOp4
 70
     1
102
RTVSPropertyOp5
 70
     1
102
RTVSPropertyOp6
 70
     1
102
RTVSPropertyOp7
 70
     1
102
RTVSPropertyOp8
 70
     1
102
RTVSPropertyOp9
 70
     1
102
RTVSPropertyOp10
 70
     1
102
RTVSPropertyOp11
 70
     1
102
RTVSPropertyOp12
 70
     1
102
RTVSPropertyOp13
 70
     1
102
RTVSPropertyOp14
 70
     1
102
RTVSPropertyOp15
 70
     1
102
RTVSPropertyOp16
 70
     1
102
RTVSPropertyOp17
 70
     1
102
RTVSPropertyOp18
 70
     1
102
RTVSPropertyOp19
 70
     1
102
RTVSPropertyOp20
 70
     1
102
RTVSPropertyOp21
 70
     1
102
RTVSPropertyOp22
 70
     1
102
RTVSPropertyOp23
 70
     1
102
RTVSPropertyOp24
 70
     1
102
RTVSPropertyOp25
 70
     1
102
RTVSPropertyOp26
 70
     1
102
RTVSPropertyOp27
 70
     1
102
RTVSPropertyOp28
 70
     1
102
RTVSPropertyOp29
 70
     1
102
RTVSPropertyOp30
 70
     1
102
RTVSPropertyOp31
 70
     1
102
RTVSPropertyOp32
 70
     1
102
RTVSPropertyOp33
 70
     1
102
RTVSPropertyOp34
 70
     1
102
RTVSPropertyOp35
 70
     1
102
RTVSPropertyOp36
 70
     1
102
RTVSPropertyOp37
 70
     1
102
RTVSPropertyOp38
 70
     1
102
RTVSPropertyOp39
 70
     1
102
RTVSPropertyOp40
 70
     1
102
RTVSPropertyOp41
 70
     1
102
RTVSPropertyOp42
 70
     1
102
RTVSPropertyOp43
 70
     1
102
RTVSPropertyOp44
 70
     1
102
RTVSPropertyOp45
 70
     1
102
RTVSPropertyOp46
 70
     1
102
RTVSPropertyOp47
 70
     1
102
RTVSPropertyOp48
 70
     1
102
RTVSPropertyOp49
 70
     1
102
RTVSPropertyOp50
 70
     1
102
RTVSPropertyOp51
 70
     0
102
RTVSPropertyOp52
 70
     0
102
RTVSPropertyOp53
 70
     1
102
RTVSPropertyOp54
 70
     1
102
RTVSPropertyOp55
 70
     1
102
RTVSPropertyOp56
 70
     1
102
RTVSPropertyOp57
 70
     1
102
RTVSPropertyOp58
 70
     1
102
RTVSPropertyOp59
 70
     1
102
RTVSPropertyOp60
 70
     1
102
RTVSPropertyOp61
 70
     1
102
RTVSPropertyOp62
 70
     1
  0
XRECORD
  5
F8F
102
{ACAD_REACTORS
330
F8E
102
}
330
F8E
100
AcDbXrecord
280
     1
102
RTVSPost2010Prop28
280
     0
102
RTVSPost2010PropOp28
 70
     0
102
RTVSPost2010Prop29
280
     1
102
RTVSPost2010PropOp29
 70
     0
102
RTVSPost2010Prop30
280
     1
102
RTVSPost2010PropOp30
 70
     0
102
RTVSPost2010Prop31
280
     0
102
RTVSPost2010PropOp31
 70
     0
102
RTVSPost2010Prop32
280
     0
102
RTVSPost2010PropOp32
 70
     0
102
RTVSPost2010Prop33
280
     0
102
RTVSPost2010PropOp33
 70
     0
102
RTVSPost2010Prop34
280
     0
102
RTVSPost2010PropOp34
 70
     0
102
RTVSPost2010Prop35
280
     0
102
RTVSPost2010PropOp35
 70
     0
102
RTVSPost2010Prop36
280
     0
102
RTVSPost2010PropOp36
 70
     0
102
RTVSPost2010Prop37
 90
       50
102
RTVSPost2010PropOp37
 70
     0
102
RTVSPost2010Prop38
140
0.0
102
RTVSPost2010PropOp38
 70
     0
102
RTVSPost2010Prop39
140
1.0
102
RTVSPost2010PropOp39
 70
     0
102
RTVSPost2010Prop40
 90
        0
102
RTVSPost2010PropOp40
 70
     0
102
RTVSPost2010Prop41ColorIndex
 90
       18
102
RTVSPost2010Prop41ColorRGB
 90
-16777216
102
RTVSPost2010PropOp41
 70
     0
102
RTVSPost2010Prop42
 90
       50
102
RTVSPost2010PropOp42
 70
     0
102
RTVSPost2010Prop43
 90
        3
102
RTVSPost2010PropOp43
 70
     0
102
RTVSPost2010Prop44ColorIndex
 90
        5
102
RTVSPost2010Prop44ColorRGB
 90
      255
102
RTVSPost2010PropOp44
 70
     0
102
RTVSPost2010Prop45
280
     0
102
RTVSPost2010PropOp45
 70
     0
102
RTVSPost2010Prop46
 90
       50
102
RTVSPost2010PropOp46
 70
     0
102
RTVSPost2010Prop47
 90
       50
102
RTVSPost2010PropOp47
 70
     0
102
RTVSPost2010Prop48
 90
       50
102
RTVSPost2010PropOp48
 70
     0
102
RTVSPost2010Prop49
280
     0
102
RTVSPost2010PropOp49
 70
     0
102
RTVSPost2010Prop50
 90
       50
102
RTVSPost2010PropOp50
 70
     0
102
RTVSPost2010Prop51ColorIndex
 90
      256
102
RTVSPost2010Prop51ColorRGB
 90
-16777216
102
RTVSPost2010PropOp51
 70
     0
102
RTVSPost2010Prop52
140
1.0
102
RTVSPost2010PropOp52
 70
     0
102
RTVSPost2010Prop53
 90
        2
102
RTVSPost2010PropOp53
 70
     0
102
RTVSPost2010Prop54
  1
strokes_ogs.tif
102
RTVSPost2010PropOp54
 70
     0
102
RTVSPost2010Prop55
280
     0
102
RTVSPost2010PropOp55
 70
     0
102
RTVSPost2010Prop56
140
1.0
102
RTVSPost2010PropOp56
 70
     0
102
RTVSPost2010Prop57
140
1.0
102
RTVSPost2010PropOp57
 70
     0
102
RTVSPropertyOp0
 70
     0
102
RTVSPropertyOp1
 70
     0
102
RTVSPropertyOp2
 70
     0
102
RTVSPropertyOp3
 70
     0
102
RTVSPropertyOp4
 70
     0
102
RTVSPropertyOp5
 70
     0
102
RTVSPropertyOp6
 70
     0
102
RTVSPropertyOp7
 70
     0
102
RTVSPropertyOp8
 70
     0
102
RTVSPropertyOp9
 70
     0
102
RTVSPropertyOp10
 70
     0
102
RTVSPropertyOp11
 70
     0
102
RTVSPropertyOp12
 70
     0
102
RTVSPropertyOp13
 70
     0
102
RTVSPropertyOp14
 70
     2
102
RTVSPropertyOp15
 70
     0
102
RTVSPropertyOp16
 70
     0
102
RTVSPropertyOp17
 70
     0
102
RTVSPropertyOp18
 70
     0
102
RTVSPropertyOp19
 70
     0
102
RTVSPropertyOp20
 70
     0
102
RTVSPropertyOp21
 70
     0
102
RTVSPropertyOp22
 70
     0
102
RTVSPropertyOp23
 70
     0
102
RTVSPropertyOp24
 70
     0
102
RTVSPropertyOp25
 70
     0
102
RTVSPropertyOp26
 70
     0
102
RTVSPropertyOp27
 70
     0
102
RTVSPropertyOp28
 70
     0
102
RTVSPropertyOp29
 70
     0
102
RTVSPropertyOp30
 70
     0
102
RTVSPropertyOp31
 70
     0
102
RTVSPropertyOp32
 70
     0
102
RTVSPropertyOp33
 70
     0
102
RTVSPropertyOp34
 70
     0
102
RTVSPropertyOp35
 70
     0
102
RTVSPropertyOp36
 70
     0
102
RTVSPropertyOp37
 70
     0
102
RTVSPropertyOp38
 70
     0
102
RTVSPropertyOp39
 70
     0
102
RTVSPropertyOp40
 70
     0
102
RTVSPropertyOp41
 70
     0
102
RTVSPropertyOp42
 70
     0
102
RTVSPropertyOp43
 70
     0
102
RTVSPropertyOp44
 70
     0
102
RTVSPropertyOp45
 70
     0
102
RTVSPropertyOp46
 70
     0
102
RTVSPropertyOp47
 70
     0
102
RTVSPropertyOp48
 70
     0
102
RTVSPropertyOp49
 70
     0
102
RTVSPropertyOp50
 70
     0
102
RTVSPropertyOp51
 70
     0
102
RTVSPropertyOp52
 70
     0
102
RTVSPropertyOp53
 70
     0
102
RTVSPropertyOp54
 70
     0
102
RTVSPropertyOp55
 70
     0
102
RTVSPropertyOp56
 70
     0
102
RTVSPropertyOp57
 70
     0
102
RTVSPropertyOp58
 70
     1
102
RTVSPropertyOp59
 70
     1
102
RTVSPropertyOp60
 70
     1
102
RTVSPropertyOp61
 70
     1
102
RTVSPropertyOp62
 70
     1
  0
XRECORD
  5
F7D
102
{ACAD_REACTORS
330
F7C
102
}
330
F7C
100
AcDbXrecord
280
     1
102
RTVSPost2010Prop28
280
     0
102
RTVSPost2010PropOp28
 70
     1
102
RTVSPost2010Prop29
280
     1
102
RTVSPost2010PropOp29
 70
     1
102
RTVSPost2010Prop30
280
     1
102
RTVSPost2010PropOp30
 70
     1
102
RTVSPost2010Prop31
280
     0
102
RTVSPost2010PropOp31
 70
     1
102
RTVSPost2010Prop32
280
     0
102
RTVSPost2010PropOp32
 70
     1
102
RTVSPost2010Prop33
280
     0
102
RTVSPost2010PropOp33
 70
     1
102
RTVSPost2010Prop34
280
     0
102
RTVSPost2010PropOp34
 70
     1
102
RTVSPost2010Prop35
280
     0
102
RTVSPost2010PropOp35
 70
     1
102
RTVSPost2010Prop36
280
     0
102
RTVSPost2010PropOp36
 70
     1
102
RTVSPost2010Prop37
 90
       50
102
RTVSPost2010PropOp37
 70
     1
102
RTVSPost2010Prop38
140
0.0
102
RTVSPost2010PropOp38
 70
     1
102
RTVSPost2010Prop39
140
1.0
102
RTVSPost2010PropOp39
 70
     1
102
RTVSPost2010Prop40
 90
        0
102
RTVSPost2010PropOp40
 70
     1
102
RTVSPost2010Prop41ColorIndex
 90
       18
102
RTVSPost2010Prop41ColorRGB
 90
-16777216
102
RTVSPost2010PropOp41
 70
     1
102
RTVSPost2010Prop42
 90
       50
102
RTVSPost2010PropOp42
 70
     1
102
RTVSPost2010Prop43
 90
        3
102
RTVSPost2010PropOp43
 70
     1
102
RTVSPost2010Prop44ColorIndex
 90
        5
102
RTVSPost2010Prop44ColorRGB
 90
      255
102
RTVSPost2010PropOp44
 70
     1
102
RTVSPost2010Prop45
280
     0
102
RTVSPost2010PropOp45
 70
     1
102
RTVSPost2010Prop46
 90
       50
102
RTVSPost2010PropOp46
 70
     1
102
RTVSPost2010Prop47
 90
       50
102
RTVSPost2010PropOp47
 70
     1
102
RTVSPost2010Prop48
 90
       50
102
RTVSPost2010PropOp48
 70
     1
102
RTVSPost2010Prop49
280
     0
102
RTVSPost2010PropOp49
 70
     1
102
RTVSPost2010Prop50
 90
       50
102
RTVSPost2010PropOp50
 70
     1
102
RTVSPost2010Prop51ColorIndex
 90
      256
102
RTVSPost2010Prop51ColorRGB
 90
-16777216
102
RTVSPost2010PropOp51
 70
     0
102
RTVSPost2010Prop52
140
1.0
102
RTVSPost2010PropOp52
 70
     0
102
RTVSPost2010Prop53
 90
        2
102
RTVSPost2010PropOp53
 70
     1
102
RTVSPost2010Prop54
  1
strokes_ogs.tif
102
RTVSPost2010PropOp54
 70
     1
102
RTVSPost2010Prop55
280
     0
102
RTVSPost2010PropOp55
 70
     1
102
RTVSPost2010Prop56
140
1.0
102
RTVSPost2010PropOp56
 70
     1
102
RTVSPost2010Prop57
140
1.0
102
RTVSPost2010PropOp57
 70
     1
102
RTVSPropertyOp0
 70
     1
102
RTVSPropertyOp1
 70
     1
102
RTVSPropertyOp2
 70
     1
102
RTVSPropertyOp3
 70
     1
102
RTVSPropertyOp4
 70
     1
102
RTVSPropertyOp5
 70
     1
102
RTVSPropertyOp6
 70
     1
102
RTVSPropertyOp7
 70
     1
102
RTVSPropertyOp8
 70
     1
102
RTVSPropertyOp9
 70
     1
102
RTVSPropertyOp10
 70
     1
102
RTVSPropertyOp11
 70
     1
102
RTVSPropertyOp12
 70
     1
102
RTVSPropertyOp13
 70
     1
102
RTVSPropertyOp14
 70
     1
102
RTVSPropertyOp15
 70
     1
102
RTVSPropertyOp16
 70
     1
102
RTVSPropertyOp17
 70
     1
102
RTVSPropertyOp18
 70
     1
102
RTVSPropertyOp19
 70
     1
102
RTVSPropertyOp20
 70
     1
102
RTVSPropertyOp21
 70
     1
102
RTVSPropertyOp22
 70
     1
102
RTVSPropertyOp23
 70
     1
102
RTVSPropertyOp24
 70
     1
102
RTVSPropertyOp25
 70
     1
102
RTVSPropertyOp26
 70
     1
102
RTVSPropertyOp27
 70
     1
102
RTVSPropertyOp28
 70
     1
102
RTVSPropertyOp29
 70
     1
102
RTVSPropertyOp30
 70
     1
102
RTVSPropertyOp31
 70
     1
102
RTVSPropertyOp32
 70
     1
102
RTVSPropertyOp33
 70
     1
102
RTVSPropertyOp34
 70
     1
102
RTVSPropertyOp35
 70
     1
102
RTVSPropertyOp36
 70
     1
102
RTVSPropertyOp37
 70
     1
102
RTVSPropertyOp38
 70
     1
102
RTVSPropertyOp39
 70
     1
102
RTVSPropertyOp40
 70
     1
102
RTVSPropertyOp41
 70
     1
102
RTVSPropertyOp42
 70
     1
102
RTVSPropertyOp43
 70
     1
102
RTVSPropertyOp44
 70
     1
102
RTVSPropertyOp45
 70
     1
102
RTVSPropertyOp46
 70
     1
102
RTVSPropertyOp47
 70
     1
102
RTVSPropertyOp48
 70
     1
102
RTVSPropertyOp49
 70
     1
102
RTVSPropertyOp50
 70
     1
102
RTVSPropertyOp51
 70
     0
102
RTVSPropertyOp52
 70
     0
102
RTVSPropertyOp53
 70
     1
102
RTVSPropertyOp54
 70
     1
102
RTVSPropertyOp55
 70
     1
102
RTVSPropertyOp56
 70
     1
102
RTVSPropertyOp57
 70
     1
102
RTVSPropertyOp58
 70
     1
102
RTVSPropertyOp59
 70
     1
102
RTVSPropertyOp60
 70
     1
102
RTVSPropertyOp61
 70
     1
102
RTVSPropertyOp62
 70
     1
  0
XRECORD
  5
F61
102
{ACAD_REACTORS
330
F60
102
}
330
F60
100
AcDbXrecord
280
     1
102
RTVSPost2010Prop28
280
     0
102
RTVSPost2010PropOp28
 70
     1
102
RTVSPost2010Prop29
280
     1
102
RTVSPost2010PropOp29
 70
     1
102
RTVSPost2010Prop30
280
     1
102
RTVSPost2010PropOp30
 70
     1
102
RTVSPost2010Prop31
280
     0
102
RTVSPost2010PropOp31
 70
     1
102
RTVSPost2010Prop32
280
     0
102
RTVSPost2010PropOp32
 70
     1
102
RTVSPost2010Prop33
280
     0
102
RTVSPost2010PropOp33
 70
     1
102
RTVSPost2010Prop34
280
     0
102
RTVSPost2010PropOp34
 70
     1
102
RTVSPost2010Prop35
280
     0
102
RTVSPost2010PropOp35
 70
     1
102
RTVSPost2010Prop36
280
     0
102
RTVSPost2010PropOp36
 70
     1
102
RTVSPost2010Prop37
 90
       50
102
RTVSPost2010PropOp37
 70
     1
102
RTVSPost2010Prop38
140
0.0
102
RTVSPost2010PropOp38
 70
     1
102
RTVSPost2010Prop39
140
1.0
102
RTVSPost2010PropOp39
 70
     1
102
RTVSPost2010Prop40
 90
        0
102
RTVSPost2010PropOp40
 70
     1
102
RTVSPost2010Prop41ColorIndex
 90
       18
102
RTVSPost2010Prop41ColorRGB
 90
-16777216
102
RTVSPost2010PropOp41
 70
     1
102
RTVSPost2010Prop42
 90
       50
102
RTVSPost2010PropOp42
 70
     1
102
RTVSPost2010Prop43
 90
        3
102
RTVSPost2010PropOp43
 70
     1
102
RTVSPost2010Prop44ColorIndex
 90
        5
102
RTVSPost2010Prop44ColorRGB
 90
      255
102
RTVSPost2010PropOp44
 70
     1
102
RTVSPost2010Prop45
280
     0
102
RTVSPost2010PropOp45
 70
     1
102
RTVSPost2010Prop46
 90
       50
102
RTVSPost2010PropOp46
 70
     1
102
RTVSPost2010Prop47
 90
       50
102
RTVSPost2010PropOp47
 70
     1
102
RTVSPost2010Prop48
 90
       50
102
RTVSPost2010PropOp48
 70
     1
102
RTVSPost2010Prop49
280
     0
102
RTVSPost2010PropOp49
 70
     1
102
RTVSPost2010Prop50
 90
       50
102
RTVSPost2010PropOp50
 70
     1
102
RTVSPost2010Prop51ColorIndex
 90
      256
102
RTVSPost2010Prop51ColorRGB
 90
-16777216
102
RTVSPost2010PropOp51
 70
     0
102
RTVSPost2010Prop52
140
1.0
102
RTVSPost2010PropOp52
 70
     0
102
RTVSPost2010Prop53
 90
        2
102
RTVSPost2010PropOp53
 70
     1
102
RTVSPost2010Prop54
  1
strokes_ogs.tif
102
RTVSPost2010PropOp54
 70
     1
102
RTVSPost2010Prop55
280
     0
102
RTVSPost2010PropOp55
 70
     1
102
RTVSPost2010Prop56
140
1.0
102
RTVSPost2010PropOp56
 70
     1
102
RTVSPost2010Prop57
140
1.0
102
RTVSPost2010PropOp57
 70
     1
102
RTVSPropertyOp0
 70
     1
102
RTVSPropertyOp1
 70
     1
102
RTVSPropertyOp2
 70
     1
102
RTVSPropertyOp3
 70
     1
102
RTVSPropertyOp4
 70
     1
102
RTVSPropertyOp5
 70
     1
102
RTVSPropertyOp6
 70
     1
102
RTVSPropertyOp7
 70
     1
102
RTVSPropertyOp8
 70
     1
102
RTVSPropertyOp9
 70
     1
102
RTVSPropertyOp10
 70
     1
102
RTVSPropertyOp11
 70
     1
102
RTVSPropertyOp12
 70
     1
102
RTVSPropertyOp13
 70
     1
102
RTVSPropertyOp14
 70
     1
102
RTVSPropertyOp15
 70
     1
102
RTVSPropertyOp16
 70
     1
102
RTVSPropertyOp17
 70
     1
102
RTVSPropertyOp18
 70
     1
102
RTVSPropertyOp19
 70
     1
102
RTVSPropertyOp20
 70
     1
102
RTVSPropertyOp21
 70
     1
102
RTVSPropertyOp22
 70
     1
102
RTVSPropertyOp23
 70
     1
102
RTVSPropertyOp24
 70
     1
102
RTVSPropertyOp25
 70
     1
102
RTVSPropertyOp26
 70
     1
102
RTVSPropertyOp27
 70
     1
102
RTVSPropertyOp28
 70
     1
102
RTVSPropertyOp29
 70
     1
102
RTVSPropertyOp30
 70
     1
102
RTVSPropertyOp31
 70
     1
102
RTVSPropertyOp32
 70
     1
102
RTVSPropertyOp33
 70
     1
102
RTVSPropertyOp34
 70
     1
102
RTVSPropertyOp35
 70
     1
102
RTVSPropertyOp36
 70
     1
102
RTVSPropertyOp37
 70
     1
102
RTVSPropertyOp38
 70
     1
102
RTVSPropertyOp39
 70
     1
102
RTVSPropertyOp40
 70
     1
102
RTVSPropertyOp41
 70
     1
102
RTVSPropertyOp42
 70
     1
102
RTVSPropertyOp43
 70
     1
102
RTVSPropertyOp44
 70
     1
102
RTVSPropertyOp45
 70
     1
102
RTVSPropertyOp46
 70
     1
102
RTVSPropertyOp47
 70
     1
102
RTVSPropertyOp48
 70
     1
102
RTVSPropertyOp49
 70
     1
102
RTVSPropertyOp50
 70
     1
102
RTVSPropertyOp51
 70
     0
102
RTVSPropertyOp52
 70
     0
102
RTVSPropertyOp53
 70
     1
102
RTVSPropertyOp54
 70
     1
102
RTVSPropertyOp55
 70
     1
102
RTVSPropertyOp56
 70
     1
102
RTVSPropertyOp57
 70
     1
102
RTVSPropertyOp58
 70
     1
102
RTVSPropertyOp59
 70
     1
102
RTVSPropertyOp60
 70
     1
102
RTVSPropertyOp61
 70
     1
102
RTVSPropertyOp62
 70
     1
  0
XRECORD
  5
F63
102
{ACAD_REACTORS
330
F62
102
}
330
F62
100
AcDbXrecord
280
     1
102
RTVSPost2010Prop28
280
     0
102
RTVSPost2010PropOp28
 70
     1
102
RTVSPost2010Prop29
280
     1
102
RTVSPost2010PropOp29
 70
     1
102
RTVSPost2010Prop30
280
     1
102
RTVSPost2010PropOp30
 70
     1
102
RTVSPost2010Prop31
280
     0
102
RTVSPost2010PropOp31
 70
     1
102
RTVSPost2010Prop32
280
     0
102
RTVSPost2010PropOp32
 70
     1
102
RTVSPost2010Prop33
280
     0
102
RTVSPost2010PropOp33
 70
     1
102
RTVSPost2010Prop34
280
     0
102
RTVSPost2010PropOp34
 70
     1
102
RTVSPost2010Prop35
280
     0
102
RTVSPost2010PropOp35
 70
     1
102
RTVSPost2010Prop36
280
     0
102
RTVSPost2010PropOp36
 70
     1
102
RTVSPost2010Prop37
 90
       50
102
RTVSPost2010PropOp37
 70
     1
102
RTVSPost2010Prop38
140
0.0
102
RTVSPost2010PropOp38
 70
     1
102
RTVSPost2010Prop39
140
1.0
102
RTVSPost2010PropOp39
 70
     1
102
RTVSPost2010Prop40
 90
        0
102
RTVSPost2010PropOp40
 70
     1
102
RTVSPost2010Prop41ColorIndex
 90
       18
102
RTVSPost2010Prop41ColorRGB
 90
-16777216
102
RTVSPost2010PropOp41
 70
     1
102
RTVSPost2010Prop42
 90
       50
102
RTVSPost2010PropOp42
 70
     1
102
RTVSPost2010Prop43
 90
        3
102
RTVSPost2010PropOp43
 70
     1
102
RTVSPost2010Prop44ColorIndex
 90
        5
102
RTVSPost2010Prop44ColorRGB
 90
      255
102
RTVSPost2010PropOp44
 70
     1
102
RTVSPost2010Prop45
280
     0
102
RTVSPost2010PropOp45
 70
     1
102
RTVSPost2010Prop46
 90
       50
102
RTVSPost2010PropOp46
 70
     1
102
RTVSPost2010Prop47
 90
       50
102
RTVSPost2010PropOp47
 70
     1
102
RTVSPost2010Prop48
 90
       50
102
RTVSPost2010PropOp48
 70
     1
102
RTVSPost2010Prop49
280
     0
102
RTVSPost2010PropOp49
 70
     1
102
RTVSPost2010Prop50
 90
       50
102
RTVSPost2010PropOp50
 70
     1
102
RTVSPost2010Prop51ColorIndex
 90
      256
102
RTVSPost2010Prop51ColorRGB
 90
-16777216
102
RTVSPost2010PropOp51
 70
     0
102
RTVSPost2010Prop52
140
1.0
102
RTVSPost2010PropOp52
 70
     0
102
RTVSPost2010Prop53
 90
        2
102
RTVSPost2010PropOp53
 70
     1
102
RTVSPost2010Prop54
  1
strokes_ogs.tif
102
RTVSPost2010PropOp54
 70
     1
102
RTVSPost2010Prop55
280
     0
102
RTVSPost2010PropOp55
 70
     1
102
RTVSPost2010Prop56
140
1.0
102
RTVSPost2010PropOp56
 70
     1
102
RTVSPost2010Prop57
140
1.0
102
RTVSPost2010PropOp57
 70
     1
102
RTVSPropertyOp0
 70
     1
102
RTVSPropertyOp1
 70
     1
102
RTVSPropertyOp2
 70
     1
102
RTVSPropertyOp3
 70
     1
102
RTVSPropertyOp4
 70
     1
102
RTVSPropertyOp5
 70
     1
102
RTVSPropertyOp6
 70
     1
102
RTVSPropertyOp7
 70
     1
102
RTVSPropertyOp8
 70
     1
102
RTVSPropertyOp9
 70
     1
102
RTVSPropertyOp10
 70
     1
102
RTVSPropertyOp11
 70
     1
102
RTVSPropertyOp12
 70
     1
102
RTVSPropertyOp13
 70
     1
102
RTVSPropertyOp14
 70
     1
102
RTVSPropertyOp15
 70
     1
102
RTVSPropertyOp16
 70
     1
102
RTVSPropertyOp17
 70
     1
102
RTVSPropertyOp18
 70
     1
102
RTVSPropertyOp19
 70
     1
102
RTVSPropertyOp20
 70
     1
102
RTVSPropertyOp21
 70
     1
102
RTVSPropertyOp22
 70
     1
102
RTVSPropertyOp23
 70
     1
102
RTVSPropertyOp24
 70
     1
102
RTVSPropertyOp25
 70
     1
102
RTVSPropertyOp26
 70
     1
102
RTVSPropertyOp27
 70
     1
102
RTVSPropertyOp28
 70
     1
102
RTVSPropertyOp29
 70
     1
102
RTVSPropertyOp30
 70
     1
102
RTVSPropertyOp31
 70
     1
102
RTVSPropertyOp32
 70
     1
102
RTVSPropertyOp33
 70
     1
102
RTVSPropertyOp34
 70
     1
102
RTVSPropertyOp35
 70
     1
102
RTVSPropertyOp36
 70
     1
102
RTVSPropertyOp37
 70
     1
102
RTVSPropertyOp38
 70
     1
102
RTVSPropertyOp39
 70
     1
102
RTVSPropertyOp40
 70
     1
102
RTVSPropertyOp41
 70
     1
102
RTVSPropertyOp42
 70
     1
102
RTVSPropertyOp43
 70
     1
102
RTVSPropertyOp44
 70
     1
102
RTVSPropertyOp45
 70
     1
102
RTVSPropertyOp46
 70
     1
102
RTVSPropertyOp47
 70
     1
102
RTVSPropertyOp48
 70
     1
102
RTVSPropertyOp49
 70
     1
102
RTVSPropertyOp50
 70
     1
102
RTVSPropertyOp51
 70
     0
102
RTVSPropertyOp52
 70
     0
102
RTVSPropertyOp53
 70
     1
102
RTVSPropertyOp54
 70
     1
102
RTVSPropertyOp55
 70
     1
102
RTVSPropertyOp56
 70
     1
102
RTVSPropertyOp57
 70
     1
102
RTVSPropertyOp58
 70
     1
102
RTVSPropertyOp59
 70
     1
102
RTVSPropertyOp60
 70
     1
102
RTVSPropertyOp61
 70
     1
102
RTVSPropertyOp62
 70
     1
  0
XRECORD
  5
F65
102
{ACAD_REACTORS
330
F64
102
}
330
F64
100
AcDbXrecord
280
     1
102
RTVSPost2010Prop28
280
     0
102
RTVSPost2010PropOp28
 70
     1
102
RTVSPost2010Prop29
280
     1
102
RTVSPost2010PropOp29
 70
     1
102
RTVSPost2010Prop30
280
     1
102
RTVSPost2010PropOp30
 70
     1
102
RTVSPost2010Prop31
280
     0
102
RTVSPost2010PropOp31
 70
     1
102
RTVSPost2010Prop32
280
     0
102
RTVSPost2010PropOp32
 70
     1
102
RTVSPost2010Prop33
280
     0
102
RTVSPost2010PropOp33
 70
     1
102
RTVSPost2010Prop34
280
     0
102
RTVSPost2010PropOp34
 70
     1
102
RTVSPost2010Prop35
280
     0
102
RTVSPost2010PropOp35
 70
     1
102
RTVSPost2010Prop36
280
     0
102
RTVSPost2010PropOp36
 70
     1
102
RTVSPost2010Prop37
 90
       50
102
RTVSPost2010PropOp37
 70
     1
102
RTVSPost2010Prop38
140
0.0
102
RTVSPost2010PropOp38
 70
     1
102
RTVSPost2010Prop39
140
1.0
102
RTVSPost2010PropOp39
 70
     1
102
RTVSPost2010Prop40
 90
        0
102
RTVSPost2010PropOp40
 70
     1
102
RTVSPost2010Prop41ColorIndex
 90
       18
102
RTVSPost2010Prop41ColorRGB
 90
-16777216
102
RTVSPost2010PropOp41
 70
     1
102
RTVSPost2010Prop42
 90
       50
102
RTVSPost2010PropOp42
 70
     1
102
RTVSPost2010Prop43
 90
        3
102
RTVSPost2010PropOp43
 70
     1
102
RTVSPost2010Prop44ColorIndex
 90
        5
102
RTVSPost2010Prop44ColorRGB
 90
      255
102
RTVSPost2010PropOp44
 70
     1
102
RTVSPost2010Prop45
280
     0
102
RTVSPost2010PropOp45
 70
     1
102
RTVSPost2010Prop46
 90
       50
102
RTVSPost2010PropOp46
 70
     1
102
RTVSPost2010Prop47
 90
       50
102
RTVSPost2010PropOp47
 70
     1
102
RTVSPost2010Prop48
 90
       50
102
RTVSPost2010PropOp48
 70
     1
102
RTVSPost2010Prop49
280
     0
102
RTVSPost2010PropOp49
 70
     1
102
RTVSPost2010Prop50
 90
       50
102
RTVSPost2010PropOp50
 70
     1
102
RTVSPost2010Prop51ColorIndex
 90
      256
102
RTVSPost2010Prop51ColorRGB
 90
-16777216
102
RTVSPost2010PropOp51
 70
     0
102
RTVSPost2010Prop52
140
1.0
102
RTVSPost2010PropOp52
 70
     0
102
RTVSPost2010Prop53
 90
        2
102
RTVSPost2010PropOp53
 70
     1
102
RTVSPost2010Prop54
  1
strokes_ogs.tif
102
RTVSPost2010PropOp54
 70
     1
102
RTVSPost2010Prop55
280
     0
102
RTVSPost2010PropOp55
 70
     1
102
RTVSPost2010Prop56
140
1.0
102
RTVSPost2010PropOp56
 70
     1
102
RTVSPost2010Prop57
140
1.0
102
RTVSPost2010PropOp57
 70
     1
102
RTVSPropertyOp0
 70
     1
102
RTVSPropertyOp1
 70
     1
102
RTVSPropertyOp2
 70
     1
102
RTVSPropertyOp3
 70
     1
102
RTVSPropertyOp4
 70
     1
102
RTVSPropertyOp5
 70
     1
102
RTVSPropertyOp6
 70
     1
102
RTVSPropertyOp7
 70
     1
102
RTVSPropertyOp8
 70
     1
102
RTVSPropertyOp9
 70
     1
102
RTVSPropertyOp10
 70
     1
102
RTVSPropertyOp11
 70
     1
102
RTVSPropertyOp12
 70
     1
102
RTVSPropertyOp13
 70
     1
102
RTVSPropertyOp14
 70
     1
102
RTVSPropertyOp15
 70
     1
102
RTVSPropertyOp16
 70
     1
102
RTVSPropertyOp17
 70
     1
102
RTVSPropertyOp18
 70
     1
102
RTVSPropertyOp19
 70
     1
102
RTVSPropertyOp20
 70
     1
102
RTVSPropertyOp21
 70
     1
102
RTVSPropertyOp22
 70
     1
102
RTVSPropertyOp23
 70
     1
102
RTVSPropertyOp24
 70
     1
102
RTVSPropertyOp25
 70
     1
102
RTVSPropertyOp26
 70
     1
102
RTVSPropertyOp27
 70
     1
102
RTVSPropertyOp28
 70
     1
102
RTVSPropertyOp29
 70
     1
102
RTVSPropertyOp30
 70
     1
102
RTVSPropertyOp31
 70
     1
102
RTVSPropertyOp32
 70
     1
102
RTVSPropertyOp33
 70
     1
102
RTVSPropertyOp34
 70
     1
102
RTVSPropertyOp35
 70
     1
102
RTVSPropertyOp36
 70
     1
102
RTVSPropertyOp37
 70
     1
102
RTVSPropertyOp38
 70
     1
102
RTVSPropertyOp39
 70
     1
102
RTVSPropertyOp40
 70
     1
102
RTVSPropertyOp41
 70
     1
102
RTVSPropertyOp42
 70
     1
102
RTVSPropertyOp43
 70
     1
102
RTVSPropertyOp44
 70
     1
102
RTVSPropertyOp45
 70
     1
102
RTVSPropertyOp46
 70
     1
102
RTVSPropertyOp47
 70
     1
102
RTVSPropertyOp48
 70
     1
102
RTVSPropertyOp49
 70
     1
102
RTVSPropertyOp50
 70
     1
102
RTVSPropertyOp51
 70
     0
102
RTVSPropertyOp52
 70
     0
102
RTVSPropertyOp53
 70
     1
102
RTVSPropertyOp54
 70
     1
102
RTVSPropertyOp55
 70
     1
102
RTVSPropertyOp56
 70
     1
102
RTVSPropertyOp57
 70
     1
102
RTVSPropertyOp58
 70
     1
102
RTVSPropertyOp59
 70
     1
102
RTVSPropertyOp60
 70
     1
102
RTVSPropertyOp61
 70
     1
102
RTVSPropertyOp62
 70
     1
  0
XRECORD
  5
F67
102
{ACAD_REACTORS
330
F66
102
}
330
F66
100
AcDbXrecord
280
     1
102
RTVSPost2010Prop28
280
     0
102
RTVSPost2010PropOp28
 70
     1
102
RTVSPost2010Prop29
280
     1
102
RTVSPost2010PropOp29
 70
     1
102
RTVSPost2010Prop30
280
     1
102
RTVSPost2010PropOp30
 70
     1
102
RTVSPost2010Prop31
280
     0
102
RTVSPost2010PropOp31
 70
     1
102
RTVSPost2010Prop32
280
     0
102
RTVSPost2010PropOp32
 70
     1
102
RTVSPost2010Prop33
280
     0
102
RTVSPost2010PropOp33
 70
     1
102
RTVSPost2010Prop34
280
     0
102
RTVSPost2010PropOp34
 70
     1
102
RTVSPost2010Prop35
280
     0
102
RTVSPost2010PropOp35
 70
     1
102
RTVSPost2010Prop36
280
     0
102
RTVSPost2010PropOp36
 70
     1
102
RTVSPost2010Prop37
 90
       50
102
RTVSPost2010PropOp37
 70
     1
102
RTVSPost2010Prop38
140
0.0
102
RTVSPost2010PropOp38
 70
     1
102
RTVSPost2010Prop39
140
1.0
102
RTVSPost2010PropOp39
 70
     1
102
RTVSPost2010Prop40
 90
        0
102
RTVSPost2010PropOp40
 70
     1
102
RTVSPost2010Prop41ColorIndex
 90
       18
102
RTVSPost2010Prop41ColorRGB
 90
-16777216
102
RTVSPost2010PropOp41
 70
     1
102
RTVSPost2010Prop42
 90
       50
102
RTVSPost2010PropOp42
 70
     1
102
RTVSPost2010Prop43
 90
        3
102
RTVSPost2010PropOp43
 70
     1
102
RTVSPost2010Prop44ColorIndex
 90
        5
102
RTVSPost2010Prop44ColorRGB
 90
      255
102
RTVSPost2010PropOp44
 70
     1
102
RTVSPost2010Prop45
280
     0
102
RTVSPost2010PropOp45
 70
     1
102
RTVSPost2010Prop46
 90
       50
102
RTVSPost2010PropOp46
 70
     1
102
RTVSPost2010Prop47
 90
       50
102
RTVSPost2010PropOp47
 70
     1
102
RTVSPost2010Prop48
 90
       50
102
RTVSPost2010PropOp48
 70
     1
102
RTVSPost2010Prop49
280
     0
102
RTVSPost2010PropOp49
 70
     1
102
RTVSPost2010Prop50
 90
       50
102
RTVSPost2010PropOp50
 70
     1
102
RTVSPost2010Prop51ColorIndex
 90
      256
102
RTVSPost2010Prop51ColorRGB
 90
-16777216
102
RTVSPost2010PropOp51
 70
     0
102
RTVSPost2010Prop52
140
1.0
102
RTVSPost2010PropOp52
 70
     0
102
RTVSPost2010Prop53
 90
        2
102
RTVSPost2010PropOp53
 70
     1
102
RTVSPost2010Prop54
  1
strokes_ogs.tif
102
RTVSPost2010PropOp54
 70
     1
102
RTVSPost2010Prop55
280
     0
102
RTVSPost2010PropOp55
 70
     1
102
RTVSPost2010Prop56
140
1.0
102
RTVSPost2010PropOp56
 70
     1
102
RTVSPost2010Prop57
140
1.0
102
RTVSPost2010PropOp57
 70
     1
102
RTVSPropertyOp0
 70
     1
102
RTVSPropertyOp1
 70
     1
102
RTVSPropertyOp2
 70
     1
102
RTVSPropertyOp3
 70
     1
102
RTVSPropertyOp4
 70
     1
102
RTVSPropertyOp5
 70
     1
102
RTVSPropertyOp6
 70
     1
102
RTVSPropertyOp7
 70
     1
102
RTVSPropertyOp8
 70
     1
102
RTVSPropertyOp9
 70
     1
102
RTVSPropertyOp10
 70
     1
102
RTVSPropertyOp11
 70
     1
102
RTVSPropertyOp12
 70
     1
102
RTVSPropertyOp13
 70
     1
102
RTVSPropertyOp14
 70
     1
102
RTVSPropertyOp15
 70
     1
102
RTVSPropertyOp16
 70
     1
102
RTVSPropertyOp17
 70
     1
102
RTVSPropertyOp18
 70
     1
102
RTVSPropertyOp19
 70
     1
102
RTVSPropertyOp20
 70
     1
102
RTVSPropertyOp21
 70
     1
102
RTVSPropertyOp22
 70
     1
102
RTVSPropertyOp23
 70
     1
102
RTVSPropertyOp24
 70
     1
102
RTVSPropertyOp25
 70
     1
102
RTVSPropertyOp26
 70
     1
102
RTVSPropertyOp27
 70
     1
102
RTVSPropertyOp28
 70
     1
102
RTVSPropertyOp29
 70
     1
102
RTVSPropertyOp30
 70
     1
102
RTVSPropertyOp31
 70
     1
102
RTVSPropertyOp32
 70
     1
102
RTVSPropertyOp33
 70
     1
102
RTVSPropertyOp34
 70
     1
102
RTVSPropertyOp35
 70
     1
102
RTVSPropertyOp36
 70
     1
102
RTVSPropertyOp37
 70
     1
102
RTVSPropertyOp38
 70
     1
102
RTVSPropertyOp39
 70
     1
102
RTVSPropertyOp40
 70
     1
102
RTVSPropertyOp41
 70
     1
102
RTVSPropertyOp42
 70
     1
102
RTVSPropertyOp43
 70
     1
102
RTVSPropertyOp44
 70
     1
102
RTVSPropertyOp45
 70
     1
102
RTVSPropertyOp46
 70
     1
102
RTVSPropertyOp47
 70
     1
102
RTVSPropertyOp48
 70
     1
102
RTVSPropertyOp49
 70
     1
102
RTVSPropertyOp50
 70
     1
102
RTVSPropertyOp51
 70
     0
102
RTVSPropertyOp52
 70
     0
102
RTVSPropertyOp53
 70
     1
102
RTVSPropertyOp54
 70
     1
102
RTVSPropertyOp55
 70
     1
102
RTVSPropertyOp56
 70
     1
102
RTVSPropertyOp57
 70
     1
102
RTVSPropertyOp58
 70
     1
102
RTVSPropertyOp59
 70
     1
102
RTVSPropertyOp60
 70
     1
102
RTVSPropertyOp61
 70
     1
102
RTVSPropertyOp62
 70
     1
  0
XRECORD
  5
F6F
102
{ACAD_REACTORS
330
F6E
102
}
330
F6E
100
AcDbXrecord
280
     1
102
RTVSPost2010Prop28
280
     0
102
RTVSPost2010PropOp28
 70
     1
102
RTVSPost2010Prop29
280
     1
102
RTVSPost2010PropOp29
 70
     1
102
RTVSPost2010Prop30
280
     1
102
RTVSPost2010PropOp30
 70
     1
102
RTVSPost2010Prop31
280
     0
102
RTVSPost2010PropOp31
 70
     1
102
RTVSPost2010Prop32
280
     0
102
RTVSPost2010PropOp32
 70
     1
102
RTVSPost2010Prop33
280
     0
102
RTVSPost2010PropOp33
 70
     1
102
RTVSPost2010Prop34
280
     0
102
RTVSPost2010PropOp34
 70
     1
102
RTVSPost2010Prop35
280
     0
102
RTVSPost2010PropOp35
 70
     1
102
RTVSPost2010Prop36
280
     0
102
RTVSPost2010PropOp36
 70
     1
102
RTVSPost2010Prop37
 90
       50
102
RTVSPost2010PropOp37
 70
     1
102
RTVSPost2010Prop38
140
0.0
102
RTVSPost2010PropOp38
 70
     1
102
RTVSPost2010Prop39
140
1.0
102
RTVSPost2010PropOp39
 70
     1
102
RTVSPost2010Prop40
 90
        0
102
RTVSPost2010PropOp40
 70
     1
102
RTVSPost2010Prop41ColorIndex
 90
       18
102
RTVSPost2010Prop41ColorRGB
 90
-16777216
102
RTVSPost2010PropOp41
 70
     1
102
RTVSPost2010Prop42
 90
       50
102
RTVSPost2010PropOp42
 70
     1
102
RTVSPost2010Prop43
 90
        3
102
RTVSPost2010PropOp43
 70
     1
102
RTVSPost2010Prop44ColorIndex
 90
        5
102
RTVSPost2010Prop44ColorRGB
 90
      255
102
RTVSPost2010PropOp44
 70
     1
102
RTVSPost2010Prop45
280
     0
102
RTVSPost2010PropOp45
 70
     1
102
RTVSPost2010Prop46
 90
       50
102
RTVSPost2010PropOp46
 70
     1
102
RTVSPost2010Prop47
 90
       50
102
RTVSPost2010PropOp47
 70
     1
102
RTVSPost2010Prop48
 90
       50
102
RTVSPost2010PropOp48
 70
     1
102
RTVSPost2010Prop49
280
     0
102
RTVSPost2010PropOp49
 70
     1
102
RTVSPost2010Prop50
 90
       50
102
RTVSPost2010PropOp50
 70
     1
102
RTVSPost2010Prop51ColorIndex
 90
      256
102
RTVSPost2010Prop51ColorRGB
 90
-16777216
102
RTVSPost2010PropOp51
 70
     0
102
RTVSPost2010Prop52
140
1.0
102
RTVSPost2010PropOp52
 70
     0
102
RTVSPost2010Prop53
 90
        2
102
RTVSPost2010PropOp53
 70
     1
102
RTVSPost2010Prop54
  1
strokes_ogs.tif
102
RTVSPost2010PropOp54
 70
     1
102
RTVSPost2010Prop55
280
     0
102
RTVSPost2010PropOp55
 70
     1
102
RTVSPost2010Prop56
140
1.0
102
RTVSPost2010PropOp56
 70
     1
102
RTVSPost2010Prop57
140
1.0
102
RTVSPost2010PropOp57
 70
     1
102
RTVSPropertyOp0
 70
     1
102
RTVSPropertyOp1
 70
     1
102
RTVSPropertyOp2
 70
     1
102
RTVSPropertyOp3
 70
     1
102
RTVSPropertyOp4
 70
     1
102
RTVSPropertyOp5
 70
     1
102
RTVSPropertyOp6
 70
     1
102
RTVSPropertyOp7
 70
     1
102
RTVSPropertyOp8
 70
     1
102
RTVSPropertyOp9
 70
     1
102
RTVSPropertyOp10
 70
     1
102
RTVSPropertyOp11
 70
     1
102
RTVSPropertyOp12
 70
     1
102
RTVSPropertyOp13
 70
     1
102
RTVSPropertyOp14
 70
     1
102
RTVSPropertyOp15
 70
     1
102
RTVSPropertyOp16
 70
     1
102
RTVSPropertyOp17
 70
     1
102
RTVSPropertyOp18
 70
     1
102
RTVSPropertyOp19
 70
     1
102
RTVSPropertyOp20
 70
     1
102
RTVSPropertyOp21
 70
     1
102
RTVSPropertyOp22
 70
     1
102
RTVSPropertyOp23
 70
     1
102
RTVSPropertyOp24
 70
     1
102
RTVSPropertyOp25
 70
     1
102
RTVSPropertyOp26
 70
     1
102
RTVSPropertyOp27
 70
     1
102
RTVSPropertyOp28
 70
     1
102
RTVSPropertyOp29
 70
     1
102
RTVSPropertyOp30
 70
     1
102
RTVSPropertyOp31
 70
     1
102
RTVSPropertyOp32
 70
     1
102
RTVSPropertyOp33
 70
     1
102
RTVSPropertyOp34
 70
     1
102
RTVSPropertyOp35
 70
     1
102
RTVSPropertyOp36
 70
     1
102
RTVSPropertyOp37
 70
     1
102
RTVSPropertyOp38
 70
     1
102
RTVSPropertyOp39
 70
     1
102
RTVSPropertyOp40
 70
     1
102
RTVSPropertyOp41
 70
     1
102
RTVSPropertyOp42
 70
     1
102
RTVSPropertyOp43
 70
     1
102
RTVSPropertyOp44
 70
     1
102
RTVSPropertyOp45
 70
     1
102
RTVSPropertyOp46
 70
     1
102
RTVSPropertyOp47
 70
     1
102
RTVSPropertyOp48
 70
     1
102
RTVSPropertyOp49
 70
     1
102
RTVSPropertyOp50
 70
     1
102
RTVSPropertyOp51
 70
     0
102
RTVSPropertyOp52
 70
     0
102
RTVSPropertyOp53
 70
     1
102
RTVSPropertyOp54
 70
     1
102
RTVSPropertyOp55
 70
     1
102
RTVSPropertyOp56
 70
     1
102
RTVSPropertyOp57
 70
     1
102
RTVSPropertyOp58
 70
     1
102
RTVSPropertyOp59
 70
     1
102
RTVSPropertyOp60
 70
     1
102
RTVSPropertyOp61
 70
     1
102
RTVSPropertyOp62
 70
     1
  0
XRECORD
  5
F8B
102
{ACAD_REACTORS
330
F8A
102
}
330
F8A
100
AcDbXrecord
280
     1
102
RTVSPost2010Prop28
280
     0
102
RTVSPost2010PropOp28
 70
     0
102
RTVSPost2010Prop29
280
     1
102
RTVSPost2010PropOp29
 70
     0
102
RTVSPost2010Prop30
280
     1
102
RTVSPost2010PropOp30
 70
     0
102
RTVSPost2010Prop31
280
     0
102
RTVSPost2010PropOp31
 70
     0
102
RTVSPost2010Prop32
280
     0
102
RTVSPost2010PropOp32
 70
     0
102
RTVSPost2010Prop33
280
     0
102
RTVSPost2010PropOp33
 70
     0
102
RTVSPost2010Prop34
280
     0
102
RTVSPost2010PropOp34
 70
     0
102
RTVSPost2010Prop35
280
     0
102
RTVSPost2010PropOp35
 70
     0
102
RTVSPost2010Prop36
280
     0
102
RTVSPost2010PropOp36
 70
     0
102
RTVSPost2010Prop37
 90
       50
102
RTVSPost2010PropOp37
 70
     0
102
RTVSPost2010Prop38
140
0.0
102
RTVSPost2010PropOp38
 70
     0
102
RTVSPost2010Prop39
140
1.0
102
RTVSPost2010PropOp39
 70
     0
102
RTVSPost2010Prop40
 90
        0
102
RTVSPost2010PropOp40
 70
     0
102
RTVSPost2010Prop41ColorIndex
 90
       18
102
RTVSPost2010Prop41ColorRGB
 90
-16777216
102
RTVSPost2010PropOp41
 70
     0
102
RTVSPost2010Prop42
 90
       50
102
RTVSPost2010PropOp42
 70
     0
102
RTVSPost2010Prop43
 90
        3
102
RTVSPost2010PropOp43
 70
     0
102
RTVSPost2010Prop44ColorIndex
 90
        5
102
RTVSPost2010Prop44ColorRGB
 90
      255
102
RTVSPost2010PropOp44
 70
     0
102
RTVSPost2010Prop45
280
     0
102
RTVSPost2010PropOp45
 70
     0
102
RTVSPost2010Prop46
 90
       50
102
RTVSPost2010PropOp46
 70
     0
102
RTVSPost2010Prop47
 90
       50
102
RTVSPost2010PropOp47
 70
     0
102
RTVSPost2010Prop48
 90
       50
102
RTVSPost2010PropOp48
 70
     0
102
RTVSPost2010Prop49
280
     0
102
RTVSPost2010PropOp49
 70
     0
102
RTVSPost2010Prop50
 90
       50
102
RTVSPost2010PropOp50
 70
     0
102
RTVSPost2010Prop51ColorIndex
 90
      256
102
RTVSPost2010Prop51ColorRGB
 90
-16777216
102
RTVSPost2010PropOp51
 70
     0
102
RTVSPost2010Prop52
140
1.0
102
RTVSPost2010PropOp52
 70
     0
102
RTVSPost2010Prop53
 90
        2
102
RTVSPost2010PropOp53
 70
     0
102
RTVSPost2010Prop54
  1
strokes_ogs.tif
102
RTVSPost2010PropOp54
 70
     0
102
RTVSPost2010Prop55
280
     0
102
RTVSPost2010PropOp55
 70
     0
102
RTVSPost2010Prop56
140
1.0
102
RTVSPost2010PropOp56
 70
     0
102
RTVSPost2010Prop57
140
1.0
102
RTVSPost2010PropOp57
 70
     0
102
RTVSPropertyOp0
 70
     0
102
RTVSPropertyOp1
 70
     0
102
RTVSPropertyOp2
 70
     0
102
RTVSPropertyOp3
 70
     0
102
RTVSPropertyOp4
 70
     0
102
RTVSPropertyOp5
 70
     0
102
RTVSPropertyOp6
 70
     0
102
RTVSPropertyOp7
 70
     0
102
RTVSPropertyOp8
 70
     0
102
RTVSPropertyOp9
 70
     0
102
RTVSPropertyOp10
 70
     0
102
RTVSPropertyOp11
 70
     0
102
RTVSPropertyOp12
 70
     0
102
RTVSPropertyOp13
 70
     0
102
RTVSPropertyOp14
 70
     2
102
RTVSPropertyOp15
 70
     0
102
RTVSPropertyOp16
 70
     0
102
RTVSPropertyOp17
 70
     0
102
RTVSPropertyOp18
 70
     0
102
RTVSPropertyOp19
 70
     0
102
RTVSPropertyOp20
 70
     0
102
RTVSPropertyOp21
 70
     0
102
RTVSPropertyOp22
 70
     0
102
RTVSPropertyOp23
 70
     0
102
RTVSPropertyOp24
 70
     0
102
RTVSPropertyOp25
 70
     0
102
RTVSPropertyOp26
 70
     0
102
RTVSPropertyOp27
 70
     0
102
RTVSPropertyOp28
 70
     0
102
RTVSPropertyOp29
 70
     0
102
RTVSPropertyOp30
 70
     0
102
RTVSPropertyOp31
 70
     0
102
RTVSPropertyOp32
 70
     0
102
RTVSPropertyOp33
 70
     0
102
RTVSPropertyOp34
 70
     0
102
RTVSPropertyOp35
 70
     0
102
RTVSPropertyOp36
 70
     0
102
RTVSPropertyOp37
 70
     0
102
RTVSPropertyOp38
 70
     0
102
RTVSPropertyOp39
 70
     0
102
RTVSPropertyOp40
 70
     0
102
RTVSPropertyOp41
 70
     0
102
RTVSPropertyOp42
 70
     0
102
RTVSPropertyOp43
 70
     0
102
RTVSPropertyOp44
 70
     0
102
RTVSPropertyOp45
 70
     0
102
RTVSPropertyOp46
 70
     0
102
RTVSPropertyOp47
 70
     0
102
RTVSPropertyOp48
 70
     0
102
RTVSPropertyOp49
 70
     0
102
RTVSPropertyOp50
 70
     0
102
RTVSPropertyOp51
 70
     0
102
RTVSPropertyOp52
 70
     0
102
RTVSPropertyOp53
 70
     0
102
RTVSPropertyOp54
 70
     0
102
RTVSPropertyOp55
 70
     0
102
RTVSPropertyOp56
 70
     0
102
RTVSPropertyOp57
 70
     0
102
RTVSPropertyOp58
 70
     1
102
RTVSPropertyOp59
 70
     1
102
RTVSPropertyOp60
 70
     1
102
RTVSPropertyOp61
 70
     1
102
RTVSPropertyOp62
 70
     1
  0
XRECORD
  5
F7B
102
{ACAD_REACTORS
330
F7A
102
}
330
F7A
100
AcDbXrecord
280
     1
102
RTVSPost2010Prop28
280
     0
102
RTVSPost2010PropOp28
 70
     1
102
RTVSPost2010Prop29
280
     1
102
RTVSPost2010PropOp29
 70
     1
102
RTVSPost2010Prop30
280
     1
102
RTVSPost2010PropOp30
 70
     1
102
RTVSPost2010Prop31
280
     0
102
RTVSPost2010PropOp31
 70
     1
102
RTVSPost2010Prop32
280
     0
102
RTVSPost2010PropOp32
 70
     1
102
RTVSPost2010Prop33
280
     0
102
RTVSPost2010PropOp33
 70
     1
102
RTVSPost2010Prop34
280
     0
102
RTVSPost2010PropOp34
 70
     1
102
RTVSPost2010Prop35
280
     0
102
RTVSPost2010PropOp35
 70
     1
102
RTVSPost2010Prop36
280
     0
102
RTVSPost2010PropOp36
 70
     1
102
RTVSPost2010Prop37
 90
       50
102
RTVSPost2010PropOp37
 70
     1
102
RTVSPost2010Prop38
140
0.0
102
RTVSPost2010PropOp38
 70
     1
102
RTVSPost2010Prop39
140
1.0
102
RTVSPost2010PropOp39
 70
     1
102
RTVSPost2010Prop40
 90
        0
102
RTVSPost2010PropOp40
 70
     1
102
RTVSPost2010Prop41ColorIndex
 90
       18
102
RTVSPost2010Prop41ColorRGB
 90
-16777216
102
RTVSPost2010PropOp41
 70
     1
102
RTVSPost2010Prop42
 90
       50
102
RTVSPost2010PropOp42
 70
     1
102
RTVSPost2010Prop43
 90
        3
102
RTVSPost2010PropOp43
 70
     1
102
RTVSPost2010Prop44ColorIndex
 90
        5
102
RTVSPost2010Prop44ColorRGB
 90
      255
102
RTVSPost2010PropOp44
 70
     1
102
RTVSPost2010Prop45
280
     0
102
RTVSPost2010PropOp45
 70
     1
102
RTVSPost2010Prop46
 90
       50
102
RTVSPost2010PropOp46
 70
     1
102
RTVSPost2010Prop47
 90
       50
102
RTVSPost2010PropOp47
 70
     1
102
RTVSPost2010Prop48
 90
       50
102
RTVSPost2010PropOp48
 70
     1
102
RTVSPost2010Prop49
280
     0
102
RTVSPost2010PropOp49
 70
     1
102
RTVSPost2010Prop50
 90
       50
102
RTVSPost2010PropOp50
 70
     1
102
RTVSPost2010Prop51ColorIndex
 90
      256
102
RTVSPost2010Prop51ColorRGB
 90
-16777216
102
RTVSPost2010PropOp51
 70
     0
102
RTVSPost2010Prop52
140
1.0
102
RTVSPost2010PropOp52
 70
     0
102
RTVSPost2010Prop53
 90
        2
102
RTVSPost2010PropOp53
 70
     1
102
RTVSPost2010Prop54
  1
strokes_ogs.tif
102
RTVSPost2010PropOp54
 70
     1
102
RTVSPost2010Prop55
280
     0
102
RTVSPost2010PropOp55
 70
     1
102
RTVSPost2010Prop56
140
1.0
102
RTVSPost2010PropOp56
 70
     1
102
RTVSPost2010Prop57
140
1.0
102
RTVSPost2010PropOp57
 70
     1
102
RTVSPropertyOp0
 70
     1
102
RTVSPropertyOp1
 70
     1
102
RTVSPropertyOp2
 70
     1
102
RTVSPropertyOp3
 70
     1
102
RTVSPropertyOp4
 70
     1
102
RTVSPropertyOp5
 70
     1
102
RTVSPropertyOp6
 70
     1
102
RTVSPropertyOp7
 70
     1
102
RTVSPropertyOp8
 70
     1
102
RTVSPropertyOp9
 70
     1
102
RTVSPropertyOp10
 70
     1
102
RTVSPropertyOp11
 70
     1
102
RTVSPropertyOp12
 70
     1
102
RTVSPropertyOp13
 70
     1
102
RTVSPropertyOp14
 70
     1
102
RTVSPropertyOp15
 70
     1
102
RTVSPropertyOp16
 70
     1
102
RTVSPropertyOp17
 70
     1
102
RTVSPropertyOp18
 70
     1
102
RTVSPropertyOp19
 70
     1
102
RTVSPropertyOp20
 70
     1
102
RTVSPropertyOp21
 70
     1
102
RTVSPropertyOp22
 70
     1
102
RTVSPropertyOp23
 70
     1
102
RTVSPropertyOp24
 70
     1
102
RTVSPropertyOp25
 70
     1
102
RTVSPropertyOp26
 70
     1
102
RTVSPropertyOp27
 70
     1
102
RTVSPropertyOp28
 70
     1
102
RTVSPropertyOp29
 70
     1
102
RTVSPropertyOp30
 70
     1
102
RTVSPropertyOp31
 70
     1
102
RTVSPropertyOp32
 70
     1
102
RTVSPropertyOp33
 70
     1
102
RTVSPropertyOp34
 70
     1
102
RTVSPropertyOp35
 70
     1
102
RTVSPropertyOp36
 70
     1
102
RTVSPropertyOp37
 70
     1
102
RTVSPropertyOp38
 70
     1
102
RTVSPropertyOp39
 70
     1
102
RTVSPropertyOp40
 70
     1
102
RTVSPropertyOp41
 70
     1
102
RTVSPropertyOp42
 70
     1
102
RTVSPropertyOp43
 70
     1
102
RTVSPropertyOp44
 70
     1
102
RTVSPropertyOp45
 70
     1
102
RTVSPropertyOp46
 70
     1
102
RTVSPropertyOp47
 70
     1
102
RTVSPropertyOp48
 70
     1
102
RTVSPropertyOp49
 70
     1
102
RTVSPropertyOp50
 70
     1
102
RTVSPropertyOp51
 70
     0
102
RTVSPropertyOp52
 70
     0
102
RTVSPropertyOp53
 70
     1
102
RTVSPropertyOp54
 70
     1
102
RTVSPropertyOp55
 70
     1
102
RTVSPropertyOp56
 70
     1
102
RTVSPropertyOp57
 70
     1
102
RTVSPropertyOp58
 70
     1
102
RTVSPropertyOp59
 70
     1
102
RTVSPropertyOp60
 70
     1
102
RTVSPropertyOp61
 70
     1
102
RTVSPropertyOp62
 70
     1
  0
XRECORD
  5
F8D
102
{ACAD_REACTORS
330
F8C
102
}
330
F8C
100
AcDbXrecord
280
     1
102
RTVSPost2010Prop28
280
     0
102
RTVSPost2010PropOp28
 70
     0
102
RTVSPost2010Prop29
280
     1
102
RTVSPost2010PropOp29
 70
     0
102
RTVSPost2010Prop30
280
     1
102
RTVSPost2010PropOp30
 70
     0
102
RTVSPost2010Prop31
280
     0
102
RTVSPost2010PropOp31
 70
     0
102
RTVSPost2010Prop32
280
     0
102
RTVSPost2010PropOp32
 70
     0
102
RTVSPost2010Prop33
280
     0
102
RTVSPost2010PropOp33
 70
     0
102
RTVSPost2010Prop34
280
     0
102
RTVSPost2010PropOp34
 70
     0
102
RTVSPost2010Prop35
280
     0
102
RTVSPost2010PropOp35
 70
     0
102
RTVSPost2010Prop36
280
     0
102
RTVSPost2010PropOp36
 70
     0
102
RTVSPost2010Prop37
 90
       50
102
RTVSPost2010PropOp37
 70
     0
102
RTVSPost2010Prop38
140
0.0
102
RTVSPost2010PropOp38
 70
     0
102
RTVSPost2010Prop39
140
1.0
102
RTVSPost2010PropOp39
 70
     0
102
RTVSPost2010Prop40
 90
        0
102
RTVSPost2010PropOp40
 70
     0
102
RTVSPost2010Prop41ColorIndex
 90
       18
102
RTVSPost2010Prop41ColorRGB
 90
-16777216
102
RTVSPost2010PropOp41
 70
     0
102
RTVSPost2010Prop42
 90
       50
102
RTVSPost2010PropOp42
 70
     0
102
RTVSPost2010Prop43
 90
        3
102
RTVSPost2010PropOp43
 70
     0
102
RTVSPost2010Prop44ColorIndex
 90
        5
102
RTVSPost2010Prop44ColorRGB
 90
      255
102
RTVSPost2010PropOp44
 70
     0
102
RTVSPost2010Prop45
280
     0
102
RTVSPost2010PropOp45
 70
     0
102
RTVSPost2010Prop46
 90
       50
102
RTVSPost2010PropOp46
 70
     0
102
RTVSPost2010Prop47
 90
       50
102
RTVSPost2010PropOp47
 70
     0
102
RTVSPost2010Prop48
 90
       50
102
RTVSPost2010PropOp48
 70
     0
102
RTVSPost2010Prop49
280
     0
102
RTVSPost2010PropOp49
 70
     0
102
RTVSPost2010Prop50
 90
       50
102
RTVSPost2010PropOp50
 70
     0
102
RTVSPost2010Prop51ColorIndex
 90
      256
102
RTVSPost2010Prop51ColorRGB
 90
-16777216
102
RTVSPost2010PropOp51
 70
     0
102
RTVSPost2010Prop52
140
1.0
102
RTVSPost2010PropOp52
 70
     0
102
RTVSPost2010Prop53
 90
        2
102
RTVSPost2010PropOp53
 70
     0
102
RTVSPost2010Prop54
  1
strokes_ogs.tif
102
RTVSPost2010PropOp54
 70
     0
102
RTVSPost2010Prop55
280
     0
102
RTVSPost2010PropOp55
 70
     0
102
RTVSPost2010Prop56
140
1.0
102
RTVSPost2010PropOp56
 70
     0
102
RTVSPost2010Prop57
140
1.0
102
RTVSPost2010PropOp57
 70
     0
102
RTVSPropertyOp0
 70
     0
102
RTVSPropertyOp1
 70
     0
102
RTVSPropertyOp2
 70
     0
102
RTVSPropertyOp3
 70
     0
102
RTVSPropertyOp4
 70
     0
102
RTVSPropertyOp5
 70
     0
102
RTVSPropertyOp6
 70
     0
102
RTVSPropertyOp7
 70
     0
102
RTVSPropertyOp8
 70
     0
102
RTVSPropertyOp9
 70
     0
102
RTVSPropertyOp10
 70
     0
102
RTVSPropertyOp11
 70
     0
102
RTVSPropertyOp12
 70
     0
102
RTVSPropertyOp13
 70
     0
102
RTVSPropertyOp14
 70
     2
102
RTVSPropertyOp15
 70
     0
102
RTVSPropertyOp16
 70
     0
102
RTVSPropertyOp17
 70
     0
102
RTVSPropertyOp18
 70
     0
102
RTVSPropertyOp19
 70
     0
102
RTVSPropertyOp20
 70
     0
102
RTVSPropertyOp21
 70
     0
102
RTVSPropertyOp22
 70
     0
102
RTVSPropertyOp23
 70
     0
102
RTVSPropertyOp24
 70
     0
102
RTVSPropertyOp25
 70
     0
102
RTVSPropertyOp26
 70
     0
102
RTVSPropertyOp27
 70
     0
102
RTVSPropertyOp28
 70
     0
102
RTVSPropertyOp29
 70
     0
102
RTVSPropertyOp30
 70
     0
102
RTVSPropertyOp31
 70
     0
102
RTVSPropertyOp32
 70
     0
102
RTVSPropertyOp33
 70
     0
102
RTVSPropertyOp34
 70
     0
102
RTVSPropertyOp35
 70
     0
102
RTVSPropertyOp36
 70
     0
102
RTVSPropertyOp37
 70
     0
102
RTVSPropertyOp38
 70
     0
102
RTVSPropertyOp39
 70
     0
102
RTVSPropertyOp40
 70
     0
102
RTVSPropertyOp41
 70
     0
102
RTVSPropertyOp42
 70
     0
102
RTVSPropertyOp43
 70
     0
102
RTVSPropertyOp44
 70
     0
102
RTVSPropertyOp45
 70
     0
102
RTVSPropertyOp46
 70
     0
102
RTVSPropertyOp47
 70
     0
102
RTVSPropertyOp48
 70
     0
102
RTVSPropertyOp49
 70
     0
102
RTVSPropertyOp50
 70
     0
102
RTVSPropertyOp51
 70
     0
102
RTVSPropertyOp52
 70
     0
102
RTVSPropertyOp53
 70
     0
102
RTVSPropertyOp54
 70
     0
102
RTVSPropertyOp55
 70
     0
102
RTVSPropertyOp56
 70
     0
102
RTVSPropertyOp57
 70
     0
102
RTVSPropertyOp58
 70
     1
102
RTVSPropertyOp59
 70
     1
102
RTVSPropertyOp60
 70
     1
102
RTVSPropertyOp61
 70
     1
102
RTVSPropertyOp62
 70
     1
  0
XRECORD
  5
F73
102
{ACAD_REACTORS
330
F72
102
}
330
F72
100
AcDbXrecord
280
     1
102
RTVSPost2010Prop28
280
     0
102
RTVSPost2010PropOp28
 70
     1
102
RTVSPost2010Prop29
280
     1
102
RTVSPost2010PropOp29
 70
     1
102
RTVSPost2010Prop30
280
     1
102
RTVSPost2010PropOp30
 70
     1
102
RTVSPost2010Prop31
280
     0
102
RTVSPost2010PropOp31
 70
     1
102
RTVSPost2010Prop32
280
     0
102
RTVSPost2010PropOp32
 70
     1
102
RTVSPost2010Prop33
280
     0
102
RTVSPost2010PropOp33
 70
     1
102
RTVSPost2010Prop34
280
     0
102
RTVSPost2010PropOp34
 70
     1
102
RTVSPost2010Prop35
280
     0
102
RTVSPost2010PropOp35
 70
     1
102
RTVSPost2010Prop36
280
     0
102
RTVSPost2010PropOp36
 70
     1
102
RTVSPost2010Prop37
 90
       50
102
RTVSPost2010PropOp37
 70
     1
102
RTVSPost2010Prop38
140
0.0
102
RTVSPost2010PropOp38
 70
     1
102
RTVSPost2010Prop39
140
1.0
102
RTVSPost2010PropOp39
 70
     1
102
RTVSPost2010Prop40
 90
        0
102
RTVSPost2010PropOp40
 70
     1
102
RTVSPost2010Prop41ColorIndex
 90
       18
102
RTVSPost2010Prop41ColorRGB
 90
-16777216
102
RTVSPost2010PropOp41
 70
     1
102
RTVSPost2010Prop42
 90
       50
102
RTVSPost2010PropOp42
 70
     1
102
RTVSPost2010Prop43
 90
        3
102
RTVSPost2010PropOp43
 70
     1
102
RTVSPost2010Prop44ColorIndex
 90
        5
102
RTVSPost2010Prop44ColorRGB
 90
      255
102
RTVSPost2010PropOp44
 70
     1
102
RTVSPost2010Prop45
280
     0
102
RTVSPost2010PropOp45
 70
     1
102
RTVSPost2010Prop46
 90
       50
102
RTVSPost2010PropOp46
 70
     1
102
RTVSPost2010Prop47
 90
       50
102
RTVSPost2010PropOp47
 70
     1
102
RTVSPost2010Prop48
 90
       50
102
RTVSPost2010PropOp48
 70
     1
102
RTVSPost2010Prop49
280
     0
102
RTVSPost2010PropOp49
 70
     1
102
RTVSPost2010Prop50
 90
       50
102
RTVSPost2010PropOp50
 70
     1
102
RTVSPost2010Prop51ColorIndex
 90
      256
102
RTVSPost2010Prop51ColorRGB
 90
-16777216
102
RTVSPost2010PropOp51
 70
     0
102
RTVSPost2010Prop52
140
1.0
102
RTVSPost2010PropOp52
 70
     0
102
RTVSPost2010Prop53
 90
        2
102
RTVSPost2010PropOp53
 70
     1
102
RTVSPost2010Prop54
  1
strokes_ogs.tif
102
RTVSPost2010PropOp54
 70
     1
102
RTVSPost2010Prop55
280
     0
102
RTVSPost2010PropOp55
 70
     1
102
RTVSPost2010Prop56
140
1.0
102
RTVSPost2010PropOp56
 70
     1
102
RTVSPost2010Prop57
140
1.0
102
RTVSPost2010PropOp57
 70
     1
102
RTVSPropertyOp0
 70
     1
102
RTVSPropertyOp1
 70
     1
102
RTVSPropertyOp2
 70
     1
102
RTVSPropertyOp3
 70
     1
102
RTVSPropertyOp4
 70
     1
102
RTVSPropertyOp5
 70
     1
102
RTVSPropertyOp6
 70
     1
102
RTVSPropertyOp7
 70
     1
102
RTVSPropertyOp8
 70
     1
102
RTVSPropertyOp9
 70
     1
102
RTVSPropertyOp10
 70
     1
102
RTVSPropertyOp11
 70
     1
102
RTVSPropertyOp12
 70
     1
102
RTVSPropertyOp13
 70
     1
102
RTVSPropertyOp14
 70
     1
102
RTVSPropertyOp15
 70
     1
102
RTVSPropertyOp16
 70
     1
102
RTVSPropertyOp17
 70
     1
102
RTVSPropertyOp18
 70
     1
102
RTVSPropertyOp19
 70
     1
102
RTVSPropertyOp20
 70
     1
102
RTVSPropertyOp21
 70
     1
102
RTVSPropertyOp22
 70
     1
102
RTVSPropertyOp23
 70
     1
102
RTVSPropertyOp24
 70
     1
102
RTVSPropertyOp25
 70
     1
102
RTVSPropertyOp26
 70
     1
102
RTVSPropertyOp27
 70
     1
102
RTVSPropertyOp28
 70
     1
102
RTVSPropertyOp29
 70
     1
102
RTVSPropertyOp30
 70
     1
102
RTVSPropertyOp31
 70
     1
102
RTVSPropertyOp32
 70
     1
102
RTVSPropertyOp33
 70
     1
102
RTVSPropertyOp34
 70
     1
102
RTVSPropertyOp35
 70
     1
102
RTVSPropertyOp36
 70
     1
102
RTVSPropertyOp37
 70
     1
102
RTVSPropertyOp38
 70
     1
102
RTVSPropertyOp39
 70
     1
102
RTVSPropertyOp40
 70
     1
102
RTVSPropertyOp41
 70
     1
102
RTVSPropertyOp42
 70
     1
102
RTVSPropertyOp43
 70
     1
102
RTVSPropertyOp44
 70
     1
102
RTVSPropertyOp45
 70
     1
102
RTVSPropertyOp46
 70
     1
102
RTVSPropertyOp47
 70
     1
102
RTVSPropertyOp48
 70
     1
102
RTVSPropertyOp49
 70
     1
102
RTVSPropertyOp50
 70
     1
102
RTVSPropertyOp51
 70
     0
102
RTVSPropertyOp52
 70
     0
102
RTVSPropertyOp53
 70
     1
102
RTVSPropertyOp54
 70
     1
102
RTVSPropertyOp55
 70
     1
102
RTVSPropertyOp56
 70
     1
102
RTVSPropertyOp57
 70
     1
102
RTVSPropertyOp58
 70
     1
102
RTVSPropertyOp59
 70
     1
102
RTVSPropertyOp60
 70
     1
102
RTVSPropertyOp61
 70
     1
102
RTVSPropertyOp62
 70
     1
  0
XRECORD
  5
F89
102
{ACAD_REACTORS
330
F88
102
}
330
F88
100
AcDbXrecord
280
     1
102
RTVSPost2010Prop28
280
     0
102
RTVSPost2010PropOp28
 70
     1
102
RTVSPost2010Prop29
280
     1
102
RTVSPost2010PropOp29
 70
     1
102
RTVSPost2010Prop30
280
     1
102
RTVSPost2010PropOp30
 70
     1
102
RTVSPost2010Prop31
280
     0
102
RTVSPost2010PropOp31
 70
     1
102
RTVSPost2010Prop32
280
     0
102
RTVSPost2010PropOp32
 70
     1
102
RTVSPost2010Prop33
280
     0
102
RTVSPost2010PropOp33
 70
     1
102
RTVSPost2010Prop34
280
     0
102
RTVSPost2010PropOp34
 70
     1
102
RTVSPost2010Prop35
280
     0
102
RTVSPost2010PropOp35
 70
     1
102
RTVSPost2010Prop36
280
     0
102
RTVSPost2010PropOp36
 70
     1
102
RTVSPost2010Prop37
 90
       50
102
RTVSPost2010PropOp37
 70
     1
102
RTVSPost2010Prop38
140
0.0
102
RTVSPost2010PropOp38
 70
     1
102
RTVSPost2010Prop39
140
1.0
102
RTVSPost2010PropOp39
 70
     1
102
RTVSPost2010Prop40
 90
        0
102
RTVSPost2010PropOp40
 70
     1
102
RTVSPost2010Prop41ColorIndex
 90
       18
102
RTVSPost2010Prop41ColorRGB
 90
-16777216
102
RTVSPost2010PropOp41
 70
     1
102
RTVSPost2010Prop42
 90
       50
102
RTVSPost2010PropOp42
 70
     1
102
RTVSPost2010Prop43
 90
        3
102
RTVSPost2010PropOp43
 70
     1
102
RTVSPost2010Prop44ColorIndex
 90
        5
102
RTVSPost2010Prop44ColorRGB
 90
      255
102
RTVSPost2010PropOp44
 70
     1
102
RTVSPost2010Prop45
280
     0
102
RTVSPost2010PropOp45
 70
     1
102
RTVSPost2010Prop46
 90
       50
102
RTVSPost2010PropOp46
 70
     1
102
RTVSPost2010Prop47
 90
       50
102
RTVSPost2010PropOp47
 70
     1
102
RTVSPost2010Prop48
 90
       50
102
RTVSPost2010PropOp48
 70
     1
102
RTVSPost2010Prop49
280
     0
102
RTVSPost2010PropOp49
 70
     1
102
RTVSPost2010Prop50
 90
       50
102
RTVSPost2010PropOp50
 70
     1
102
RTVSPost2010Prop51ColorIndex
 90
      256
102
RTVSPost2010Prop51ColorRGB
 90
-16777216
102
RTVSPost2010PropOp51
 70
     0
102
RTVSPost2010Prop52
140
1.0
102
RTVSPost2010PropOp52
 70
     0
102
RTVSPost2010Prop53
 90
        2
102
RTVSPost2010PropOp53
 70
     1
102
RTVSPost2010Prop54
  1
strokes_ogs.tif
102
RTVSPost2010PropOp54
 70
     1
102
RTVSPost2010Prop55
280
     0
102
RTVSPost2010PropOp55
 70
     1
102
RTVSPost2010Prop56
140
1.0
102
RTVSPost2010PropOp56
 70
     1
102
RTVSPost2010Prop57
140
1.0
102
RTVSPost2010PropOp57
 70
     1
102
RTVSPropertyOp0
 70
     1
102
RTVSPropertyOp1
 70
     1
102
RTVSPropertyOp2
 70
     1
102
RTVSPropertyOp3
 70
     1
102
RTVSPropertyOp4
 70
     1
102
RTVSPropertyOp5
 70
     1
102
RTVSPropertyOp6
 70
     1
102
RTVSPropertyOp7
 70
     1
102
RTVSPropertyOp8
 70
     1
102
RTVSPropertyOp9
 70
     1
102
RTVSPropertyOp10
 70
     1
102
RTVSPropertyOp11
 70
     1
102
RTVSPropertyOp12
 70
     1
102
RTVSPropertyOp13
 70
     1
102
RTVSPropertyOp14
 70
     1
102
RTVSPropertyOp15
 70
     1
102
RTVSPropertyOp16
 70
     1
102
RTVSPropertyOp17
 70
     1
102
RTVSPropertyOp18
 70
     1
102
RTVSPropertyOp19
 70
     1
102
RTVSPropertyOp20
 70
     1
102
RTVSPropertyOp21
 70
     1
102
RTVSPropertyOp22
 70
     1
102
RTVSPropertyOp23
 70
     1
102
RTVSPropertyOp24
 70
     1
102
RTVSPropertyOp25
 70
     1
102
RTVSPropertyOp26
 70
     1
102
RTVSPropertyOp27
 70
     1
102
RTVSPropertyOp28
 70
     1
102
RTVSPropertyOp29
 70
     1
102
RTVSPropertyOp30
 70
     1
102
RTVSPropertyOp31
 70
     1
102
RTVSPropertyOp32
 70
     1
102
RTVSPropertyOp33
 70
     1
102
RTVSPropertyOp34
 70
     1
102
RTVSPropertyOp35
 70
     1
102
RTVSPropertyOp36
 70
     1
102
RTVSPropertyOp37
 70
     1
102
RTVSPropertyOp38
 70
     1
102
RTVSPropertyOp39
 70
     1
102
RTVSPropertyOp40
 70
     1
102
RTVSPropertyOp41
 70
     1
102
RTVSPropertyOp42
 70
     1
102
RTVSPropertyOp43
 70
     1
102
RTVSPropertyOp44
 70
     1
102
RTVSPropertyOp45
 70
     1
102
RTVSPropertyOp46
 70
     1
102
RTVSPropertyOp47
 70
     1
102
RTVSPropertyOp48
 70
     1
102
RTVSPropertyOp49
 70
     1
102
RTVSPropertyOp50
 70
     1
102
RTVSPropertyOp51
 70
     0
102
RTVSPropertyOp52
 70
     0
102
RTVSPropertyOp53
 70
     1
102
RTVSPropertyOp54
 70
     1
102
RTVSPropertyOp55
 70
     1
102
RTVSPropertyOp56
 70
     1
102
RTVSPropertyOp57
 70
     1
102
RTVSPropertyOp58
 70
     1
102
RTVSPropertyOp59
 70
     1
102
RTVSPropertyOp60
 70
     1
102
RTVSPropertyOp61
 70
     1
102
RTVSPropertyOp62
 70
     1
  0
XRECORD
  5
F87
102
{ACAD_REACTORS
330
F86
102
}
330
F86
100
AcDbXrecord
280
     1
102
RTVSPost2010Prop28
280
     0
102
RTVSPost2010PropOp28
 70
     1
102
RTVSPost2010Prop29
280
     1
102
RTVSPost2010PropOp29
 70
     1
102
RTVSPost2010Prop30
280
     1
102
RTVSPost2010PropOp30
 70
     1
102
RTVSPost2010Prop31
280
     0
102
RTVSPost2010PropOp31
 70
     1
102
RTVSPost2010Prop32
280
     0
102
RTVSPost2010PropOp32
 70
     1
102
RTVSPost2010Prop33
280
     0
102
RTVSPost2010PropOp33
 70
     1
102
RTVSPost2010Prop34
280
     0
102
RTVSPost2010PropOp34
 70
     1
102
RTVSPost2010Prop35
280
     0
102
RTVSPost2010PropOp35
 70
     1
102
RTVSPost2010Prop36
280
     0
102
RTVSPost2010PropOp36
 70
     1
102
RTVSPost2010Prop37
 90
       50
102
RTVSPost2010PropOp37
 70
     1
102
RTVSPost2010Prop38
140
0.0
102
RTVSPost2010PropOp38
 70
     1
102
RTVSPost2010Prop39
140
1.0
102
RTVSPost2010PropOp39
 70
     1
102
RTVSPost2010Prop40
 90
        0
102
RTVSPost2010PropOp40
 70
     1
102
RTVSPost2010Prop41ColorIndex
 90
       18
102
RTVSPost2010Prop41ColorRGB
 90
-16777216
102
RTVSPost2010PropOp41
 70
     1
102
RTVSPost2010Prop42
 90
       50
102
RTVSPost2010PropOp42
 70
     1
102
RTVSPost2010Prop43
 90
        3
102
RTVSPost2010PropOp43
 70
     1
102
RTVSPost2010Prop44ColorIndex
 90
        5
102
RTVSPost2010Prop44ColorRGB
 90
      255
102
RTVSPost2010PropOp44
 70
     1
102
RTVSPost2010Prop45
280
     0
102
RTVSPost2010PropOp45
 70
     1
102
RTVSPost2010Prop46
 90
       50
102
RTVSPost2010PropOp46
 70
     1
102
RTVSPost2010Prop47
 90
       50
102
RTVSPost2010PropOp47
 70
     1
102
RTVSPost2010Prop48
 90
       50
102
RTVSPost2010PropOp48
 70
     1
102
RTVSPost2010Prop49
280
     0
102
RTVSPost2010PropOp49
 70
     1
102
RTVSPost2010Prop50
 90
       50
102
RTVSPost2010PropOp50
 70
     1
102
RTVSPost2010Prop51ColorIndex
 90
      256
102
RTVSPost2010Prop51ColorRGB
 90
-16777216
102
RTVSPost2010PropOp51
 70
     0
102
RTVSPost2010Prop52
140
1.0
102
RTVSPost2010PropOp52
 70
     0
102
RTVSPost2010Prop53
 90
        2
102
RTVSPost2010PropOp53
 70
     1
102
RTVSPost2010Prop54
  1
strokes_ogs.tif
102
RTVSPost2010PropOp54
 70
     1
102
RTVSPost2010Prop55
280
     0
102
RTVSPost2010PropOp55
 70
     1
102
RTVSPost2010Prop56
140
1.0
102
RTVSPost2010PropOp56
 70
     1
102
RTVSPost2010Prop57
140
1.0
102
RTVSPost2010PropOp57
 70
     1
102
RTVSPropertyOp0
 70
     1
102
RTVSPropertyOp1
 70
     1
102
RTVSPropertyOp2
 70
     1
102
RTVSPropertyOp3
 70
     1
102
RTVSPropertyOp4
 70
     1
102
RTVSPropertyOp5
 70
     1
102
RTVSPropertyOp6
 70
     1
102
RTVSPropertyOp7
 70
     1
102
RTVSPropertyOp8
 70
     1
102
RTVSPropertyOp9
 70
     1
102
RTVSPropertyOp10
 70
     1
102
RTVSPropertyOp11
 70
     1
102
RTVSPropertyOp12
 70
     1
102
RTVSPropertyOp13
 70
     1
102
RTVSPropertyOp14
 70
     1
102
RTVSPropertyOp15
 70
     1
102
RTVSPropertyOp16
 70
     1
102
RTVSPropertyOp17
 70
     1
102
RTVSPropertyOp18
 70
     1
102
RTVSPropertyOp19
 70
     1
102
RTVSPropertyOp20
 70
     1
102
RTVSPropertyOp21
 70
     1
102
RTVSPropertyOp22
 70
     1
102
RTVSPropertyOp23
 70
     1
102
RTVSPropertyOp24
 70
     1
102
RTVSPropertyOp25
 70
     1
102
RTVSPropertyOp26
 70
     1
102
RTVSPropertyOp27
 70
     1
102
RTVSPropertyOp28
 70
     1
102
RTVSPropertyOp29
 70
     1
102
RTVSPropertyOp30
 70
     1
102
RTVSPropertyOp31
 70
     1
102
RTVSPropertyOp32
 70
     1
102
RTVSPropertyOp33
 70
     1
102
RTVSPropertyOp34
 70
     1
102
RTVSPropertyOp35
 70
     1
102
RTVSPropertyOp36
 70
     1
102
RTVSPropertyOp37
 70
     1
102
RTVSPropertyOp38
 70
     1
102
RTVSPropertyOp39
 70
     1
102
RTVSPropertyOp40
 70
     1
102
RTVSPropertyOp41
 70
     1
102
RTVSPropertyOp42
 70
     1
102
RTVSPropertyOp43
 70
     1
102
RTVSPropertyOp44
 70
     1
102
RTVSPropertyOp45
 70
     1
102
RTVSPropertyOp46
 70
     1
102
RTVSPropertyOp47
 70
     1
102
RTVSPropertyOp48
 70
     1
102
RTVSPropertyOp49
 70
     1
102
RTVSPropertyOp50
 70
     1
102
RTVSPropertyOp51
 70
     0
102
RTVSPropertyOp52
 70
     0
102
RTVSPropertyOp53
 70
     1
102
RTVSPropertyOp54
 70
     1
102
RTVSPropertyOp55
 70
     1
102
RTVSPropertyOp56
 70
     1
102
RTVSPropertyOp57
 70
     1
102
RTVSPropertyOp58
 70
     1
102
RTVSPropertyOp59
 70
     1
102
RTVSPropertyOp60
 70
     1
102
RTVSPropertyOp61
 70
     1
102
RTVSPropertyOp62
 70
     1
  0
XRECORD
  5
F81
102
{ACAD_REACTORS
330
F80
102
}
330
F80
100
AcDbXrecord
280
     1
102
RTVSPost2010Prop28
280
     0
102
RTVSPost2010PropOp28
 70
     1
102
RTVSPost2010Prop29
280
     1
102
RTVSPost2010PropOp29
 70
     1
102
RTVSPost2010Prop30
280
     1
102
RTVSPost2010PropOp30
 70
     1
102
RTVSPost2010Prop31
280
     0
102
RTVSPost2010PropOp31
 70
     1
102
RTVSPost2010Prop32
280
     0
102
RTVSPost2010PropOp32
 70
     1
102
RTVSPost2010Prop33
280
     0
102
RTVSPost2010PropOp33
 70
     1
102
RTVSPost2010Prop34
280
     0
102
RTVSPost2010PropOp34
 70
     1
102
RTVSPost2010Prop35
280
     0
102
RTVSPost2010PropOp35
 70
     1
102
RTVSPost2010Prop36
280
     0
102
RTVSPost2010PropOp36
 70
     1
102
RTVSPost2010Prop37
 90
       50
102
RTVSPost2010PropOp37
 70
     1
102
RTVSPost2010Prop38
140
0.0
102
RTVSPost2010PropOp38
 70
     1
102
RTVSPost2010Prop39
140
1.0
102
RTVSPost2010PropOp39
 70
     1
102
RTVSPost2010Prop40
 90
        0
102
RTVSPost2010PropOp40
 70
     1
102
RTVSPost2010Prop41ColorIndex
 90
       18
102
RTVSPost2010Prop41ColorRGB
 90
-16777216
102
RTVSPost2010PropOp41
 70
     1
102
RTVSPost2010Prop42
 90
       50
102
RTVSPost2010PropOp42
 70
     1
102
RTVSPost2010Prop43
 90
        3
102
RTVSPost2010PropOp43
 70
     1
102
RTVSPost2010Prop44ColorIndex
 90
        5
102
RTVSPost2010Prop44ColorRGB
 90
      255
102
RTVSPost2010PropOp44
 70
     1
102
RTVSPost2010Prop45
280
     0
102
RTVSPost2010PropOp45
 70
     1
102
RTVSPost2010Prop46
 90
       50
102
RTVSPost2010PropOp46
 70
     1
102
RTVSPost2010Prop47
 90
       50
102
RTVSPost2010PropOp47
 70
     1
102
RTVSPost2010Prop48
 90
       50
102
RTVSPost2010PropOp48
 70
     1
102
RTVSPost2010Prop49
280
     0
102
RTVSPost2010PropOp49
 70
     1
102
RTVSPost2010Prop50
 90
       50
102
RTVSPost2010PropOp50
 70
     1
102
RTVSPost2010Prop51ColorIndex
 90
      256
102
RTVSPost2010Prop51ColorRGB
 90
-16777216
102
RTVSPost2010PropOp51
 70
     0
102
RTVSPost2010Prop52
140
1.0
102
RTVSPost2010PropOp52
 70
     0
102
RTVSPost2010Prop53
 90
        2
102
RTVSPost2010PropOp53
 70
     1
102
RTVSPost2010Prop54
  1
strokes_ogs.tif
102
RTVSPost2010PropOp54
 70
     1
102
RTVSPost2010Prop55
280
     0
102
RTVSPost2010PropOp55
 70
     1
102
RTVSPost2010Prop56
140
1.0
102
RTVSPost2010PropOp56
 70
     1
102
RTVSPost2010Prop57
140
1.0
102
RTVSPost2010PropOp57
 70
     1
102
RTVSPropertyOp0
 70
     1
102
RTVSPropertyOp1
 70
     1
102
RTVSPropertyOp2
 70
     1
102
RTVSPropertyOp3
 70
     1
102
RTVSPropertyOp4
 70
     1
102
RTVSPropertyOp5
 70
     1
102
RTVSPropertyOp6
 70
     1
102
RTVSPropertyOp7
 70
     1
102
RTVSPropertyOp8
 70
     1
102
RTVSPropertyOp9
 70
     1
102
RTVSPropertyOp10
 70
     1
102
RTVSPropertyOp11
 70
     1
102
RTVSPropertyOp12
 70
     1
102
RTVSPropertyOp13
 70
     1
102
RTVSPropertyOp14
 70
     1
102
RTVSPropertyOp15
 70
     1
102
RTVSPropertyOp16
 70
     1
102
RTVSPropertyOp17
 70
     1
102
RTVSPropertyOp18
 70
     1
102
RTVSPropertyOp19
 70
     1
102
RTVSPropertyOp20
 70
     1
102
RTVSPropertyOp21
 70
     1
102
RTVSPropertyOp22
 70
     1
102
RTVSPropertyOp23
 70
     1
102
RTVSPropertyOp24
 70
     1
102
RTVSPropertyOp25
 70
     1
102
RTVSPropertyOp26
 70
     1
102
RTVSPropertyOp27
 70
     1
102
RTVSPropertyOp28
 70
     1
102
RTVSPropertyOp29
 70
     1
102
RTVSPropertyOp30
 70
     1
102
RTVSPropertyOp31
 70
     1
102
RTVSPropertyOp32
 70
     1
102
RTVSPropertyOp33
 70
     1
102
RTVSPropertyOp34
 70
     1
102
RTVSPropertyOp35
 70
     1
102
RTVSPropertyOp36
 70
     1
102
RTVSPropertyOp37
 70
     1
102
RTVSPropertyOp38
 70
     1
102
RTVSPropertyOp39
 70
     1
102
RTVSPropertyOp40
 70
     1
102
RTVSPropertyOp41
 70
     1
102
RTVSPropertyOp42
 70
     1
102
RTVSPropertyOp43
 70
     1
102
RTVSPropertyOp44
 70
     1
102
RTVSPropertyOp45
 70
     1
102
RTVSPropertyOp46
 70
     1
102
RTVSPropertyOp47
 70
     1
102
RTVSPropertyOp48
 70
     1
102
RTVSPropertyOp49
 70
     1
102
RTVSPropertyOp50
 70
     1
102
RTVSPropertyOp51
 70
     0
102
RTVSPropertyOp52
 70
     0
102
RTVSPropertyOp53
 70
     1
102
RTVSPropertyOp54
 70
     1
102
RTVSPropertyOp55
 70
     1
102
RTVSPropertyOp56
 70
     1
102
RTVSPropertyOp57
 70
     1
102
RTVSPropertyOp58
 70
     1
102
RTVSPropertyOp59
 70
     1
102
RTVSPropertyOp60
 70
     1
102
RTVSPropertyOp61
 70
     1
102
RTVSPropertyOp62
 70
     1
  0
XRECORD
  5
F83
102
{ACAD_REACTORS
330
F82
102
}
330
F82
100
AcDbXrecord
280
     1
102
RTVSPost2010Prop28
280
     0
102
RTVSPost2010PropOp28
 70
     1
102
RTVSPost2010Prop29
280
     1
102
RTVSPost2010PropOp29
 70
     1
102
RTVSPost2010Prop30
280
     1
102
RTVSPost2010PropOp30
 70
     1
102
RTVSPost2010Prop31
280
     0
102
RTVSPost2010PropOp31
 70
     1
102
RTVSPost2010Prop32
280
     0
102
RTVSPost2010PropOp32
 70
     1
102
RTVSPost2010Prop33
280
     0
102
RTVSPost2010PropOp33
 70
     1
102
RTVSPost2010Prop34
280
     0
102
RTVSPost2010PropOp34
 70
     1
102
RTVSPost2010Prop35
280
     0
102
RTVSPost2010PropOp35
 70
     1
102
RTVSPost2010Prop36
280
     0
102
RTVSPost2010PropOp36
 70
     1
102
RTVSPost2010Prop37
 90
       50
102
RTVSPost2010PropOp37
 70
     1
102
RTVSPost2010Prop38
140
0.0
102
RTVSPost2010PropOp38
 70
     1
102
RTVSPost2010Prop39
140
1.0
102
RTVSPost2010PropOp39
 70
     1
102
RTVSPost2010Prop40
 90
        0
102
RTVSPost2010PropOp40
 70
     1
102
RTVSPost2010Prop41ColorIndex
 90
       18
102
RTVSPost2010Prop41ColorRGB
 90
-16777216
102
RTVSPost2010PropOp41
 70
     1
102
RTVSPost2010Prop42
 90
       50
102
RTVSPost2010PropOp42
 70
     1
102
RTVSPost2010Prop43
 90
        3
102
RTVSPost2010PropOp43
 70
     1
102
RTVSPost2010Prop44ColorIndex
 90
        5
102
RTVSPost2010Prop44ColorRGB
 90
      255
102
RTVSPost2010PropOp44
 70
     1
102
RTVSPost2010Prop45
280
     0
102
RTVSPost2010PropOp45
 70
     1
102
RTVSPost2010Prop46
 90
       50
102
RTVSPost2010PropOp46
 70
     1
102
RTVSPost2010Prop47
 90
       50
102
RTVSPost2010PropOp47
 70
     1
102
RTVSPost2010Prop48
 90
       50
102
RTVSPost2010PropOp48
 70
     1
102
RTVSPost2010Prop49
280
     0
102
RTVSPost2010PropOp49
 70
     1
102
RTVSPost2010Prop50
 90
       50
102
RTVSPost2010PropOp50
 70
     1
102
RTVSPost2010Prop51ColorIndex
 90
      256
102
RTVSPost2010Prop51ColorRGB
 90
-16777216
102
RTVSPost2010PropOp51
 70
     0
102
RTVSPost2010Prop52
140
1.0
102
RTVSPost2010PropOp52
 70
     0
102
RTVSPost2010Prop53
 90
        2
102
RTVSPost2010PropOp53
 70
     1
102
RTVSPost2010Prop54
  1
strokes_ogs.tif
102
RTVSPost2010PropOp54
 70
     1
102
RTVSPost2010Prop55
280
     0
102
RTVSPost2010PropOp55
 70
     1
102
RTVSPost2010Prop56
140
1.0
102
RTVSPost2010PropOp56
 70
     1
102
RTVSPost2010Prop57
140
1.0
102
RTVSPost2010PropOp57
 70
     1
102
RTVSPropertyOp0
 70
     1
102
RTVSPropertyOp1
 70
     1
102
RTVSPropertyOp2
 70
     1
102
RTVSPropertyOp3
 70
     1
102
RTVSPropertyOp4
 70
     1
102
RTVSPropertyOp5
 70
     1
102
RTVSPropertyOp6
 70
     1
102
RTVSPropertyOp7
 70
     1
102
RTVSPropertyOp8
 70
     1
102
RTVSPropertyOp9
 70
     1
102
RTVSPropertyOp10
 70
     1
102
RTVSPropertyOp11
 70
     1
102
RTVSPropertyOp12
 70
     1
102
RTVSPropertyOp13
 70
     1
102
RTVSPropertyOp14
 70
     1
102
RTVSPropertyOp15
 70
     1
102
RTVSPropertyOp16
 70
     1
102
RTVSPropertyOp17
 70
     1
102
RTVSPropertyOp18
 70
     1
102
RTVSPropertyOp19
 70
     1
102
RTVSPropertyOp20
 70
     1
102
RTVSPropertyOp21
 70
     1
102
RTVSPropertyOp22
 70
     1
102
RTVSPropertyOp23
 70
     1
102
RTVSPropertyOp24
 70
     1
102
RTVSPropertyOp25
 70
     1
102
RTVSPropertyOp26
 70
     1
102
RTVSPropertyOp27
 70
     1
102
RTVSPropertyOp28
 70
     1
102
RTVSPropertyOp29
 70
     1
102
RTVSPropertyOp30
 70
     1
102
RTVSPropertyOp31
 70
     1
102
RTVSPropertyOp32
 70
     1
102
RTVSPropertyOp33
 70
     1
102
RTVSPropertyOp34
 70
     1
102
RTVSPropertyOp35
 70
     1
102
RTVSPropertyOp36
 70
     1
102
RTVSPropertyOp37
 70
     1
102
RTVSPropertyOp38
 70
     1
102
RTVSPropertyOp39
 70
     1
102
RTVSPropertyOp40
 70
     1
102
RTVSPropertyOp41
 70
     1
102
RTVSPropertyOp42
 70
     1
102
RTVSPropertyOp43
 70
     1
102
RTVSPropertyOp44
 70
     1
102
RTVSPropertyOp45
 70
     1
102
RTVSPropertyOp46
 70
     1
102
RTVSPropertyOp47
 70
     1
102
RTVSPropertyOp48
 70
     1
102
RTVSPropertyOp49
 70
     1
102
RTVSPropertyOp50
 70
     1
102
RTVSPropertyOp51
 70
     0
102
RTVSPropertyOp52
 70
     0
102
RTVSPropertyOp53
 70
     1
102
RTVSPropertyOp54
 70
     1
102
RTVSPropertyOp55
 70
     1
102
RTVSPropertyOp56
 70
     1
102
RTVSPropertyOp57
 70
     1
102
RTVSPropertyOp58
 70
     1
102
RTVSPropertyOp59
 70
     1
102
RTVSPropertyOp60
 70
     1
102
RTVSPropertyOp61
 70
     1
102
RTVSPropertyOp62
 70
     1
  0
XRECORD
  5
F79
102
{ACAD_REACTORS
330
F78
102
}
330
F78
100
AcDbXrecord
280
     1
102
RTVSPost2010Prop28
280
     0
102
RTVSPost2010PropOp28
 70
     1
102
RTVSPost2010Prop29
280
     1
102
RTVSPost2010PropOp29
 70
     1
102
RTVSPost2010Prop30
280
     1
102
RTVSPost2010PropOp30
 70
     1
102
RTVSPost2010Prop31
280
     0
102
RTVSPost2010PropOp31
 70
     1
102
RTVSPost2010Prop32
280
     0
102
RTVSPost2010PropOp32
 70
     1
102
RTVSPost2010Prop33
280
     0
102
RTVSPost2010PropOp33
 70
     1
102
RTVSPost2010Prop34
280
     0
102
RTVSPost2010PropOp34
 70
     1
102
RTVSPost2010Prop35
280
     0
102
RTVSPost2010PropOp35
 70
     1
102
RTVSPost2010Prop36
280
     0
102
RTVSPost2010PropOp36
 70
     1
102
RTVSPost2010Prop37
 90
       50
102
RTVSPost2010PropOp37
 70
     1
102
RTVSPost2010Prop38
140
0.0
102
RTVSPost2010PropOp38
 70
     1
102
RTVSPost2010Prop39
140
1.0
102
RTVSPost2010PropOp39
 70
     1
102
RTVSPost2010Prop40
 90
        0
102
RTVSPost2010PropOp40
 70
     1
102
RTVSPost2010Prop41ColorIndex
 90
       18
102
RTVSPost2010Prop41ColorRGB
 90
-16777216
102
RTVSPost2010PropOp41
 70
     1
102
RTVSPost2010Prop42
 90
       50
102
RTVSPost2010PropOp42
 70
     1
102
RTVSPost2010Prop43
 90
        3
102
RTVSPost2010PropOp43
 70
     1
102
RTVSPost2010Prop44ColorIndex
 90
        5
102
RTVSPost2010Prop44ColorRGB
 90
      255
102
RTVSPost2010PropOp44
 70
     1
102
RTVSPost2010Prop45
280
     0
102
RTVSPost2010PropOp45
 70
     1
102
RTVSPost2010Prop46
 90
       50
102
RTVSPost2010PropOp46
 70
     1
102
RTVSPost2010Prop47
 90
       50
102
RTVSPost2010PropOp47
 70
     1
102
RTVSPost2010Prop48
 90
       50
102
RTVSPost2010PropOp48
 70
     1
102
RTVSPost2010Prop49
280
     0
102
RTVSPost2010PropOp49
 70
     1
102
RTVSPost2010Prop50
 90
       50
102
RTVSPost2010PropOp50
 70
     1
102
RTVSPost2010Prop51ColorIndex
 90
      256
102
RTVSPost2010Prop51ColorRGB
 90
-16777216
102
RTVSPost2010PropOp51
 70
     0
102
RTVSPost2010Prop52
140
1.0
102
RTVSPost2010PropOp52
 70
     0
102
RTVSPost2010Prop53
 90
        2
102
RTVSPost2010PropOp53
 70
     1
102
RTVSPost2010Prop54
  1
strokes_ogs.tif
102
RTVSPost2010PropOp54
 70
     1
102
RTVSPost2010Prop55
280
     0
102
RTVSPost2010PropOp55
 70
     1
102
RTVSPost2010Prop56
140
1.0
102
RTVSPost2010PropOp56
 70
     1
102
RTVSPost2010Prop57
140
1.0
102
RTVSPost2010PropOp57
 70
     1
102
RTVSPropertyOp0
 70
     1
102
RTVSPropertyOp1
 70
     1
102
RTVSPropertyOp2
 70
     1
102
RTVSPropertyOp3
 70
     1
102
RTVSPropertyOp4
 70
     1
102
RTVSPropertyOp5
 70
     1
102
RTVSPropertyOp6
 70
     1
102
RTVSPropertyOp7
 70
     1
102
RTVSPropertyOp8
 70
     1
102
RTVSPropertyOp9
 70
     1
102
RTVSPropertyOp10
 70
     1
102
RTVSPropertyOp11
 70
     1
102
RTVSPropertyOp12
 70
     1
102
RTVSPropertyOp13
 70
     1
102
RTVSPropertyOp14
 70
     1
102
RTVSPropertyOp15
 70
     1
102
RTVSPropertyOp16
 70
     1
102
RTVSPropertyOp17
 70
     1
102
RTVSPropertyOp18
 70
     1
102
RTVSPropertyOp19
 70
     1
102
RTVSPropertyOp20
 70
     1
102
RTVSPropertyOp21
 70
     1
102
RTVSPropertyOp22
 70
     1
102
RTVSPropertyOp23
 70
     1
102
RTVSPropertyOp24
 70
     1
102
RTVSPropertyOp25
 70
     1
102
RTVSPropertyOp26
 70
     1
102
RTVSPropertyOp27
 70
     1
102
RTVSPropertyOp28
 70
     1
102
RTVSPropertyOp29
 70
     1
102
RTVSPropertyOp30
 70
     1
102
RTVSPropertyOp31
 70
     1
102
RTVSPropertyOp32
 70
     1
102
RTVSPropertyOp33
 70
     1
102
RTVSPropertyOp34
 70
     1
102
RTVSPropertyOp35
 70
     1
102
RTVSPropertyOp36
 70
     1
102
RTVSPropertyOp37
 70
     1
102
RTVSPropertyOp38
 70
     1
102
RTVSPropertyOp39
 70
     1
102
RTVSPropertyOp40
 70
     1
102
RTVSPropertyOp41
 70
     1
102
RTVSPropertyOp42
 70
     1
102
RTVSPropertyOp43
 70
     1
102
RTVSPropertyOp44
 70
     1
102
RTVSPropertyOp45
 70
     1
102
RTVSPropertyOp46
 70
     1
102
RTVSPropertyOp47
 70
     1
102
RTVSPropertyOp48
 70
     1
102
RTVSPropertyOp49
 70
     1
102
RTVSPropertyOp50
 70
     1
102
RTVSPropertyOp51
 70
     0
102
RTVSPropertyOp52
 70
     0
102
RTVSPropertyOp53
 70
     1
102
RTVSPropertyOp54
 70
     1
102
RTVSPropertyOp55
 70
     1
102
RTVSPropertyOp56
 70
     1
102
RTVSPropertyOp57
 70
     1
102
RTVSPropertyOp58
 70
     1
102
RTVSPropertyOp59
 70
     1
102
RTVSPropertyOp60
 70
     1
102
RTVSPropertyOp61
 70
     1
102
RTVSPropertyOp62
 70
     1
  0
XRECORD
  5
F6D
102
{ACAD_REACTORS
330
F6C
102
}
330
F6C
100
AcDbXrecord
280
     1
102
RTVSPost2010Prop28
280
     0
102
RTVSPost2010PropOp28
 70
     1
102
RTVSPost2010Prop29
280
     1
102
RTVSPost2010PropOp29
 70
     1
102
RTVSPost2010Prop30
280
     1
102
RTVSPost2010PropOp30
 70
     1
102
RTVSPost2010Prop31
280
     0
102
RTVSPost2010PropOp31
 70
     1
102
RTVSPost2010Prop32
280
     0
102
RTVSPost2010PropOp32
 70
     1
102
RTVSPost2010Prop33
280
     0
102
RTVSPost2010PropOp33
 70
     1
102
RTVSPost2010Prop34
280
     0
102
RTVSPost2010PropOp34
 70
     1
102
RTVSPost2010Prop35
280
     0
102
RTVSPost2010PropOp35
 70
     1
102
RTVSPost2010Prop36
280
     0
102
RTVSPost2010PropOp36
 70
     1
102
RTVSPost2010Prop37
 90
       50
102
RTVSPost2010PropOp37
 70
     1
102
RTVSPost2010Prop38
140
0.0
102
RTVSPost2010PropOp38
 70
     1
102
RTVSPost2010Prop39
140
1.0
102
RTVSPost2010PropOp39
 70
     1
102
RTVSPost2010Prop40
 90
        0
102
RTVSPost2010PropOp40
 70
     1
102
RTVSPost2010Prop41ColorIndex
 90
       18
102
RTVSPost2010Prop41ColorRGB
 90
-16777216
102
RTVSPost2010PropOp41
 70
     1
102
RTVSPost2010Prop42
 90
       50
102
RTVSPost2010PropOp42
 70
     1
102
RTVSPost2010Prop43
 90
        3
102
RTVSPost2010PropOp43
 70
     1
102
RTVSPost2010Prop44ColorIndex
 90
        5
102
RTVSPost2010Prop44ColorRGB
 90
      255
102
RTVSPost2010PropOp44
 70
     1
102
RTVSPost2010Prop45
280
     0
102
RTVSPost2010PropOp45
 70
     1
102
RTVSPost2010Prop46
 90
       50
102
RTVSPost2010PropOp46
 70
     1
102
RTVSPost2010Prop47
 90
       50
102
RTVSPost2010PropOp47
 70
     1
102
RTVSPost2010Prop48
 90
       50
102
RTVSPost2010PropOp48
 70
     1
102
RTVSPost2010Prop49
280
     0
102
RTVSPost2010PropOp49
 70
     1
102
RTVSPost2010Prop50
 90
       50
102
RTVSPost2010PropOp50
 70
     1
102
RTVSPost2010Prop51ColorIndex
 90
      256
102
RTVSPost2010Prop51ColorRGB
 90
-16777216
102
RTVSPost2010PropOp51
 70
     0
102
RTVSPost2010Prop52
140
1.0
102
RTVSPost2010PropOp52
 70
     0
102
RTVSPost2010Prop53
 90
        2
102
RTVSPost2010PropOp53
 70
     1
102
RTVSPost2010Prop54
  1
strokes_ogs.tif
102
RTVSPost2010PropOp54
 70
     1
102
RTVSPost2010Prop55
280
     0
102
RTVSPost2010PropOp55
 70
     1
102
RTVSPost2010Prop56
140
1.0
102
RTVSPost2010PropOp56
 70
     1
102
RTVSPost2010Prop57
140
1.0
102
RTVSPost2010PropOp57
 70
     1
102
RTVSPropertyOp0
 70
     1
102
RTVSPropertyOp1
 70
     1
102
RTVSPropertyOp2
 70
     1
102
RTVSPropertyOp3
 70
     1
102
RTVSPropertyOp4
 70
     1
102
RTVSPropertyOp5
 70
     1
102
RTVSPropertyOp6
 70
     1
102
RTVSPropertyOp7
 70
     1
102
RTVSPropertyOp8
 70
     1
102
RTVSPropertyOp9
 70
     1
102
RTVSPropertyOp10
 70
     1
102
RTVSPropertyOp11
 70
     1
102
RTVSPropertyOp12
 70
     1
102
RTVSPropertyOp13
 70
     1
102
RTVSPropertyOp14
 70
     1
102
RTVSPropertyOp15
 70
     1
102
RTVSPropertyOp16
 70
     1
102
RTVSPropertyOp17
 70
     1
102
RTVSPropertyOp18
 70
     1
102
RTVSPropertyOp19
 70
     1
102
RTVSPropertyOp20
 70
     1
102
RTVSPropertyOp21
 70
     1
102
RTVSPropertyOp22
 70
     1
102
RTVSPropertyOp23
 70
     1
102
RTVSPropertyOp24
 70
     1
102
RTVSPropertyOp25
 70
     1
102
RTVSPropertyOp26
 70
     1
102
RTVSPropertyOp27
 70
     1
102
RTVSPropertyOp28
 70
     1
102
RTVSPropertyOp29
 70
     1
102
RTVSPropertyOp30
 70
     1
102
RTVSPropertyOp31
 70
     1
102
RTVSPropertyOp32
 70
     1
102
RTVSPropertyOp33
 70
     1
102
RTVSPropertyOp34
 70
     1
102
RTVSPropertyOp35
 70
     1
102
RTVSPropertyOp36
 70
     1
102
RTVSPropertyOp37
 70
     1
102
RTVSPropertyOp38
 70
     1
102
RTVSPropertyOp39
 70
     1
102
RTVSPropertyOp40
 70
     1
102
RTVSPropertyOp41
 70
     1
102
RTVSPropertyOp42
 70
     1
102
RTVSPropertyOp43
 70
     1
102
RTVSPropertyOp44
 70
     1
102
RTVSPropertyOp45
 70
     1
102
RTVSPropertyOp46
 70
     1
102
RTVSPropertyOp47
 70
     1
102
RTVSPropertyOp48
 70
     1
102
RTVSPropertyOp49
 70
     1
102
RTVSPropertyOp50
 70
     1
102
RTVSPropertyOp51
 70
     0
102
RTVSPropertyOp52
 70
     0
102
RTVSPropertyOp53
 70
     1
102
RTVSPropertyOp54
 70
     1
102
RTVSPropertyOp55
 70
     1
102
RTVSPropertyOp56
 70
     1
102
RTVSPropertyOp57
 70
     1
102
RTVSPropertyOp58
 70
     1
102
RTVSPropertyOp59
 70
     1
102
RTVSPropertyOp60
 70
     1
102
RTVSPropertyOp61
 70
     1
102
RTVSPropertyOp62
 70
     1
  0
XRECORD
  5
F85
102
{ACAD_REACTORS
330
F84
102
}
330
F84
100
AcDbXrecord
280
     1
102
RTVSPost2010Prop28
280
     0
102
RTVSPost2010PropOp28
 70
     1
102
RTVSPost2010Prop29
280
     1
102
RTVSPost2010PropOp29
 70
     1
102
RTVSPost2010Prop30
280
     1
102
RTVSPost2010PropOp30
 70
     1
102
RTVSPost2010Prop31
280
     0
102
RTVSPost2010PropOp31
 70
     1
102
RTVSPost2010Prop32
280
     0
102
RTVSPost2010PropOp32
 70
     1
102
RTVSPost2010Prop33
280
     0
102
RTVSPost2010PropOp33
 70
     1
102
RTVSPost2010Prop34
280
     0
102
RTVSPost2010PropOp34
 70
     1
102
RTVSPost2010Prop35
280
     0
102
RTVSPost2010PropOp35
 70
     1
102
RTVSPost2010Prop36
280
     0
102
RTVSPost2010PropOp36
 70
     1
102
RTVSPost2010Prop37
 90
       50
102
RTVSPost2010PropOp37
 70
     1
102
RTVSPost2010Prop38
140
0.0
102
RTVSPost2010PropOp38
 70
     1
102
RTVSPost2010Prop39
140
1.0
102
RTVSPost2010PropOp39
 70
     1
102
RTVSPost2010Prop40
 90
        0
102
RTVSPost2010PropOp40
 70
     1
102
RTVSPost2010Prop41ColorIndex
 90
       18
102
RTVSPost2010Prop41ColorRGB
 90
-16777216
102
RTVSPost2010PropOp41
 70
     1
102
RTVSPost2010Prop42
 90
       50
102
RTVSPost2010PropOp42
 70
     1
102
RTVSPost2010Prop43
 90
        3
102
RTVSPost2010PropOp43
 70
     1
102
RTVSPost2010Prop44ColorIndex
 90
        5
102
RTVSPost2010Prop44ColorRGB
 90
      255
102
RTVSPost2010PropOp44
 70
     1
102
RTVSPost2010Prop45
280
     0
102
RTVSPost2010PropOp45
 70
     1
102
RTVSPost2010Prop46
 90
       50
102
RTVSPost2010PropOp46
 70
     1
102
RTVSPost2010Prop47
 90
       50
102
RTVSPost2010PropOp47
 70
     1
102
RTVSPost2010Prop48
 90
       50
102
RTVSPost2010PropOp48
 70
     1
102
RTVSPost2010Prop49
280
     0
102
RTVSPost2010PropOp49
 70
     1
102
RTVSPost2010Prop50
 90
       50
102
RTVSPost2010PropOp50
 70
     1
102
RTVSPost2010Prop51ColorIndex
 90
      256
102
RTVSPost2010Prop51ColorRGB
 90
-16777216
102
RTVSPost2010PropOp51
 70
     0
102
RTVSPost2010Prop52
140
1.0
102
RTVSPost2010PropOp52
 70
     0
102
RTVSPost2010Prop53
 90
        2
102
RTVSPost2010PropOp53
 70
     1
102
RTVSPost2010Prop54
  1
strokes_ogs.tif
102
RTVSPost2010PropOp54
 70
     1
102
RTVSPost2010Prop55
280
     0
102
RTVSPost2010PropOp55
 70
     1
102
RTVSPost2010Prop56
140
1.0
102
RTVSPost2010PropOp56
 70
     1
102
RTVSPost2010Prop57
140
1.0
102
RTVSPost2010PropOp57
 70
     1
102
RTVSPropertyOp0
 70
     1
102
RTVSPropertyOp1
 70
     1
102
RTVSPropertyOp2
 70
     1
102
RTVSPropertyOp3
 70
     1
102
RTVSPropertyOp4
 70
     1
102
RTVSPropertyOp5
 70
     1
102
RTVSPropertyOp6
 70
     1
102
RTVSPropertyOp7
 70
     1
102
RTVSPropertyOp8
 70
     1
102
RTVSPropertyOp9
 70
     1
102
RTVSPropertyOp10
 70
     1
102
RTVSPropertyOp11
 70
     1
102
RTVSPropertyOp12
 70
     1
102
RTVSPropertyOp13
 70
     1
102
RTVSPropertyOp14
 70
     1
102
RTVSPropertyOp15
 70
     1
102
RTVSPropertyOp16
 70
     1
102
RTVSPropertyOp17
 70
     1
102
RTVSPropertyOp18
 70
     1
102
RTVSPropertyOp19
 70
     1
102
RTVSPropertyOp20
 70
     1
102
RTVSPropertyOp21
 70
     1
102
RTVSPropertyOp22
 70
     1
102
RTVSPropertyOp23
 70
     1
102
RTVSPropertyOp24
 70
     1
102
RTVSPropertyOp25
 70
     1
102
RTVSPropertyOp26
 70
     1
102
RTVSPropertyOp27
 70
     1
102
RTVSPropertyOp28
 70
     1
102
RTVSPropertyOp29
 70
     1
102
RTVSPropertyOp30
 70
     1
102
RTVSPropertyOp31
 70
     1
102
RTVSPropertyOp32
 70
     1
102
RTVSPropertyOp33
 70
     1
102
RTVSPropertyOp34
 70
     1
102
RTVSPropertyOp35
 70
     1
102
RTVSPropertyOp36
 70
     1
102
RTVSPropertyOp37
 70
     1
102
RTVSPropertyOp38
 70
     1
102
RTVSPropertyOp39
 70
     1
102
RTVSPropertyOp40
 70
     1
102
RTVSPropertyOp41
 70
     1
102
RTVSPropertyOp42
 70
     1
102
RTVSPropertyOp43
 70
     1
102
RTVSPropertyOp44
 70
     1
102
RTVSPropertyOp45
 70
     1
102
RTVSPropertyOp46
 70
     1
102
RTVSPropertyOp47
 70
     1
102
RTVSPropertyOp48
 70
     1
102
RTVSPropertyOp49
 70
     1
102
RTVSPropertyOp50
 70
     1
102
RTVSPropertyOp51
 70
     0
102
RTVSPropertyOp52
 70
     0
102
RTVSPropertyOp53
 70
     1
102
RTVSPropertyOp54
 70
     1
102
RTVSPropertyOp55
 70
     1
102
RTVSPropertyOp56
 70
     1
102
RTVSPropertyOp57
 70
     1
102
RTVSPropertyOp58
 70
     1
102
RTVSPropertyOp59
 70
     1
102
RTVSPropertyOp60
 70
     1
102
RTVSPropertyOp61
 70
     1
102
RTVSPropertyOp62
 70
     1
  0
ENDSEC
  0
EOF
