  0
SECTION
  2
HEADER
  9
$ACADVER
  1
AC1015
  9
$ACADMAINTVER
 70
    20
  9
$DWGCODEPAGE
  3
ANSI_1252
  9
$INSBASE
 10
0.0
 20
0.0
 30
0.0
  9
$EXTMIN
 10
-17.0
 20
0.0
 30
0.0
  9
$EXTMAX
 10
0.0
 20
11.0
 30
0.0
  9
$LIMMIN
 10
0.0
 20
0.0
  9
$LIMMAX
 10
12.0
 20
9.0
  9
$ORTHOMODE
 70
     0
  9
$REGENMODE
 70
     1
  9
$FILLMODE
 70
     1
  9
$QTEXTMODE
 70
     0
  9
$MIRRTEXT
 70
     1
  9
$LTSCALE
 40
0.25
  9
$ATTMODE
 70
     1
  9
$TEXTSIZE
 40
0.078
  9
$TRACEWID
 40
0.05
  9
$TEXTSTYLE
  7
SIMPLEX
  9
$CLAYER
  8
3
  9
$CELTYPE
  6
BYLAYER
  9
$CECOLOR
 62
   256
  9
$CELTSCALE
 40
1.0
  9
$DISPSILH
 70
     0
  9
$DIMSCALE
 40
1.0
  9
$DIMASZ
 40
0.125
  9
$DIMEXO
 40
0.0625
  9
$DIMDLI
 40
0.38
  9
$DIMRND
 40
0.0
  9
$DIMDLE
 40
0.0
  9
$DIMEXE
 40
0.0625
  9
$DIMTP
 40
0.0
  9
$DIMTM
 40
0.0
  9
$DIMTXT
 40
0.125
  9
$DIMCEN
 40
-0.125
  9
$DIMTSZ
 40
0.0
  9
$DIMTOL
 70
     0
  9
$DIMLIM
 70
     0
  9
$DIMTIH
 70
     0
  9
$DIMTOH
 70
     0
  9
$DIMSE1
 70
     0
  9
$DIMSE2
 70
     0
  9
$DIMTAD
 70
     0
  9
$DIMZIN
 70
     4
  9
$DIMBLK
  1

  9
$DIMASO
 70
     1
  9
$DIMSHO
 70
     0
  9
$DIMPOST
  1

  9
$DIMAPOST
  1

  9
$DIMALT
 70
     0
  9
$DIMALTD
 70
     2
  9
$DIMALTF
 40
25.4
  9
$DIMLFAC
 40
1.0
  9
$DIMTOFL
 70
     0
  9
$DIMTVP
 40
0.0
  9
$DIMTIX
 70
     0
  9
$DIMSOXD
 70
     0
  9
$DIMSAH
 70
     0
  9
$DIMBLK1
  1

  9
$DIMBLK2
  1

  9
$DIMSTYLE
  2
STANDARD
  9
$DIMCLRD
 70
     0
  9
$DIMCLRE
 70
     0
  9
$DIMCLRT
 70
     0
  9
$DIMTFAC
 40
1.0
  9
$DIMGAP
 40
0.09
  9
$DIMJUST
 70
     0
  9
$DIMSD1
 70
     0
  9
$DIMSD2
 70
     0
  9
$DIMTOLJ
 70
     1
  9
$DIMTZIN
 70
     4
  9
$DIMALTZ
 70
     4
  9
$DIMALTTZ
 70
     4
  9
$DIMUPT
 70
     0
  9
$DIMDEC
 70
     3
  9
$DIMTDEC
 70
     3
  9
$DIMALTU
 70
     2
  9
$DIMALTTD
 70
     2
  9
$DIMTXSTY
  7
SIMPLEX
  9
$DIMAUNIT
 70
     0
  9
$DIMADEC
 70
     0
  9
$DIMALTRND
 40
0.0
  9
$DIMAZIN
 70
     0
  9
$DIMDSEP
 70
    46
  9
$DIMATFIT
 70
     3
  9
$DIMFRAC
 70
     0
  9
$DIMLDRBLK
  1

  9
$DIMLUNIT
 70
     2
  9
$DIMLWD
 70
    -2
  9
$DIMLWE
 70
    -2
  9
$DIMTMOVE
 70
     2
  9
$LUNITS
 70
     2
  9
$LUPREC
 70
     3
  9
$SKETCHINC
 40
0.1
  9
$FILLETRAD
 40
0.125
  9
$AUNITS
 70
     0
  9
$AUPREC
 70
     2
  9
$MENU
  1
ACAD
  9
$ELEVATION
 40
0.0
  9
$PELEVATION
 40
0.0
  9
$THICKNESS
 40
0.0
  9
$LIMCHECK
 70
     0
  9
$CHAMFERA
 40
0.0
  9
$CHAMFERB
 40
0.0
  9
$CHAMFERC
 40
0.0
  9
$CHAMFERD
 40
0.0
  9
$SKPOLY
 70
     0
  9
$TDCREATE
 40
2449051.580961806
  9
$TDUCREATE
 40
2449051.747628473
  9
$TDUPDATE
 40
2457155.525216759
  9
$TDUUPDATE
 40
2457155.691883426
  9
$TDINDWG
 40
0.3533452546
  9
$TDUSRTIMER
 40
0.3533452431
  9
$USRTIMER
 70
     1
  9
$ANGBASE
 50
0.0
  9
$ANGDIR
 70
     0
  9
$PDMODE
 70
     0
  9
$PDSIZE
 40
0.0
  9
$PLINEWID
 40
0.0
  9
$SPLFRAME
 70
     0
  9
$SPLINETYPE
 70
     6
  9
$SPLINESEGS
 70
     8
  9
$HANDSEED
  5
20A0
  9
$SURFTAB1
 70
     6
  9
$SURFTAB2
 70
     6
  9
$SURFTYPE
 70
     6
  9
$SURFU
 70
     6
  9
$SURFV
 70
     6
  9
$UCSBASE
  2

  9
$UCSNAME
  2

  9
$UCSORG
 10
0.0
 20
0.0
 30
0.0
  9
$UCSXDIR
 10
1.0
 20
0.0
 30
0.0
  9
$UCSYDIR
 10
0.0
 20
1.0
 30
0.0
  9
$UCSORTHOREF
  2

  9
$UCSORTHOVIEW
 70
     0
  9
$UCSORGTOP
 10
0.0
 20
0.0
 30
0.0
  9
$UCSORGBOTTOM
 10
0.0
 20
0.0
 30
0.0
  9
$UCSORGLEFT
 10
0.0
 20
0.0
 30
0.0
  9
$UCSORGRIGHT
 10
0.0
 20
0.0
 30
0.0
  9
$UCSORGFRONT
 10
0.0
 20
0.0
 30
0.0
  9
$UCSORGBACK
 10
0.0
 20
0.0
 30
0.0
  9
$PUCSBASE
  2

  9
$PUCSNAME
  2

  9
$PUCSORG
 10
0.0
 20
0.0
 30
0.0
  9
$PUCSXDIR
 10
1.0
 20
0.0
 30
0.0
  9
$PUCSYDIR
 10
0.0
 20
1.0
 30
0.0
  9
$PUCSORTHOREF
  2

  9
$PUCSORTHOVIEW
 70
     0
  9
$PUCSORGTOP
 10
0.0
 20
0.0
 30
0.0
  9
$PUCSORGBOTTOM
 10
0.0
 20
0.0
 30
0.0
  9
$PUCSORGLEFT
 10
0.0
 20
0.0
 30
0.0
  9
$PUCSORGRIGHT
 10
0.0
 20
0.0
 30
0.0
  9
$PUCSORGFRONT
 10
0.0
 20
0.0
 30
0.0
  9
$PUCSORGBACK
 10
0.0
 20
0.0
 30
0.0
  9
$USERI1
 70
     0
  9
$USERI2
 70
     0
  9
$USERI3
 70
     0
  9
$USERI4
 70
     0
  9
$USERI5
 70
     0
  9
$USERR1
 40
0.0
  9
$USERR2
 40
0.0
  9
$USERR3
 40
0.0
  9
$USERR4
 40
0.0
  9
$USERR5
 40
0.0
  9
$WORLDVIEW
 70
     1
  9
$SHADEDGE
 70
     3
  9
$SHADEDIF
 70
    70
  9
$TILEMODE
 70
     1
  9
$MAXACTVP
 70
    16
  9
$PINSBASE
 10
0.0
 20
0.0
 30
0.0
  9
$PLIMCHECK
 70
     0
  9
$PEXTMIN
 10
1.000000000000000E+20
 20
1.000000000000000E+20
 30
1.000000000000000E+20
  9
$PEXTMAX
 10
-1.000000000000000E+20
 20
-1.000000000000000E+20
 30
-1.000000000000000E+20
  9
$PLIMMIN
 10
0.0
 20
0.0
  9
$PLIMMAX
 10
12.0
 20
9.0
  9
$UNITMODE
 70
     0
  9
$VISRETAIN
 70
     0
  9
$PLINEGEN
 70
     0
  9
$PSLTSCALE
 70
     0
  9
$TREEDEPTH
 70
  3020
  9
$CMLSTYLE
  2
STANDARD
  9
$CMLJUST
 70
     0
  9
$CMLSCALE
 40
1.0
  9
$PROXYGRAPHICS
 70
     1
  9
$MEASUREMENT
 70
     0
  9
$CELWEIGHT
370
    -1
  9
$ENDCAPS
280
     0
  9
$JOINSTYLE
280
     0
  9
$LWDISPLAY
290
     0
  9
$INSUNITS
 70
     0
  9
$HYPERLINKBASE
  1

  9
$STYLESHEET
  1
1500BLACK.CTB
  9
$XEDIT
290
     1
  9
$CEPSNTYPE
380
     0
  9
$PSTYLEMODE
290
     1
  9
$FINGERPRINTGUID
  2
{C9C24810-2959-46A2-B529-0A6A70F80B1A}
  9
$VERSIONGUID
  2
{71FC1C9C-786D-470B-A0B5-F1EC26E05D32}
  9
$EXTNAMES
290
     1
  9
$PSVPSCALE
 40
0.0
  9
$OLESTARTUP
290
     0
  0
ENDSEC
  0
SECTION
  2
CLASSES
  0
CLASS
  1
DICTIONARYVAR
  2
AcDbDictionaryVar
  3
ObjectDBX Classes
 90
        0
280
     0
281
     0
  0
CLASS
  1
ACDBDICTIONARYWDFLT
  2
AcDbDictionaryWithDefault
  3
ObjectDBX Classes
 90
        0
280
     0
281
     0
  0
CLASS
  1
MATERIAL
  2
AcDbMaterial
  3
ObjectDBX Classes
 90
     1153
280
     0
281
     0
  0
CLASS
  1
VISUALSTYLE
  2
AcDbVisualStyle
  3
ObjectDBX Classes
 90
     4095
280
     0
281
     0
  0
CLASS
  1
TABLESTYLE
  2
AcDbTableStyle
  3
ObjectDBX Classes
 90
     4095
280
     0
281
     0
  0
CLASS
  1
SCALE
  2
AcDbScale
  3
ObjectDBX Classes
 90
     1153
280
     0
281
     0
  0
CLASS
  1
MLEADERSTYLE
  2
AcDbMLeaderStyle
  3
ACDB_MLEADERSTYLE_CLASS
 90
     4095
280
     0
281
     0
  0
CLASS
  1
ACDBSECTIONVIEWSTYLE
  2
AcDbSectionViewStyle
  3
ObjectDBX Classes
 90
     1025
280
     0
281
     0
  0
CLASS
  1
ACDBDETAILVIEWSTYLE
  2
AcDbDetailViewStyle
  3
ObjectDBX Classes
 90
     1025
280
     0
281
     0
  0
CLASS
  1
CELLSTYLEMAP
  2
AcDbCellStyleMap
  3
ObjectDBX Classes
 90
     1152
280
     0
281
     0
  0
CLASS
  1
ACDBPLACEHOLDER
  2
AcDbPlaceHolder
  3
ObjectDBX Classes
 90
        0
280
     0
281
     0
  0
CLASS
  1
LAYOUT
  2
AcDbLayout
  3
ObjectDBX Classes
 90
        0
280
     0
281
     0
  0
ENDSEC
  0
SECTION
  2
TABLES
  0
TABLE
  2
VPORT
  5
8
330
0
100
AcDbSymbolTable
 70
     1
  0
VPORT
  5
1F71
330
8
100
AcDbSymbolTableRecord
100
AcDbViewportTableRecord
  2
*Active
 70
     0
 10
0.0
 20
0.0
 11
1.0
 21
1.0
 12
-6.387330260935577
 22
5.691817934283575
 13
0.0
 23
0.0
 14
1.0
 24
1.0
 15
0.0
 25
0.0
 16
0.0
 26
0.0
 36
1.0
 17
0.0
 27
0.0
 37
0.0
 40
18.37242707834027
 41
2.080545229244113
 42
50.0
 43
0.0
 44
0.0
 50
0.0
 51
0.0
 71
     0
 72
   250
 73
     1
 74
     0
 75
     0
 76
     0
 77
     0
 78
     0
281
     0
 65
     1
110
0.0
120
0.0
130
0.0
111
1.0
121
0.0
131
0.0
112
0.0
122
1.0
132
0.0
 79
     0
146
0.0
1001
ACAD_NAV_VCDISPLAY
1070
     3
  0
ENDTAB
  0
TABLE
  2
LTYPE
  5
5
330
0
100
AcDbSymbolTable
 70
     3
  0
LTYPE
  5
11
330
5
100
AcDbSymbolTableRecord
100
AcDbLinetypeTableRecord
  2
BYBLOCK
 70
     0
  3

 72
    65
 73
     0
 40
0.0
  0
LTYPE
  5
12
330
5
100
AcDbSymbolTableRecord
100
AcDbLinetypeTableRecord
  2
BYLAYER
 70
     0
  3

 72
    65
 73
     0
 40
0.0
  0
LTYPE
  5
13
330
5
100
AcDbSymbolTableRecord
100
AcDbLinetypeTableRecord
  2
CONTINUOUS
 70
     0
  3
Solid line
 72
    65
 73
     0
 40
0.0
  0
LTYPE
  5
1F
330
5
100
AcDbSymbolTableRecord
100
AcDbLinetypeTableRecord
  2
CENTER
 70
     0
  3
____ _ ____ _ ____ _ ____ _ ____ _ ____ _ ____ 
 72
    65
 73
     4
 40
2.0
 49
1.25
 74
     0
 49
-0.25
 74
     0
 49
0.25
 74
     0
 49
-0.25
 74
     0
  0
LTYPE
  5
20
330
5
100
AcDbSymbolTableRecord
100
AcDbLinetypeTableRecord
  2
HIDDEN
 70
     0
  3
__ __ __ __ __ __ __ __ __ __ __ __ __ __ __ __
 72
    65
 73
     2
 40
0.375
 49
0.25
 74
     0
 49
-0.125
 74
     0
  0
ENDTAB
  0
TABLE
  2
LAYER
  5
2
102
{ACAD_XDICTIONARY
360
1FE5
102
}
330
0
100
AcDbSymbolTable
 70
     5
  0
LAYER
  5
E
102
{ACAD_XDICTIONARY
360
1FDA
102
}
330
2
100
AcDbSymbolTableRecord
100
AcDbLayerTableRecord
  2
0
 70
     0
 62
     7
  6
CONTINUOUS
370
    -3
390
B14
  0
LAYER
  5
23
102
{ACAD_XDICTIONARY
360
1FDC
102
}
330
2
100
AcDbSymbolTableRecord
100
AcDbLayerTableRecord
  2
2
 70
     0
 62
     2
  6
CONTINUOUS
370
    -3
390
B14
  0
LAYER
  5
24
102
{ACAD_XDICTIONARY
360
1FDE
102
}
330
2
100
AcDbSymbolTableRecord
100
AcDbLayerTableRecord
  2
3
 70
     0
 62
     3
  6
CONTINUOUS
370
    -3
390
B14
  0
LAYER
  5
25
102
{ACAD_XDICTIONARY
360
1FE0
102
}
330
2
100
AcDbSymbolTableRecord
100
AcDbLayerTableRecord
  2
4
 70
     0
 62
     4
  6
CONTINUOUS
370
    -3
390
B14
  0
LAYER
  5
C29
330
2
100
AcDbSymbolTableRecord
100
AcDbLayerTableRecord
  2
Defpoints
 70
     0
 62
     7
  6
CONTINUOUS
290
     0
370
    -3
390
B14
  0
ENDTAB
  0
TABLE
  2
STYLE
  5
3
330
0
100
AcDbSymbolTable
 70
     4
  0
STYLE
  5
F
330
3
100
AcDbSymbolTableRecord
100
AcDbTextStyleTableRecord
  2
STANDARD
 70
     0
 40
0.0
 41
1.0
 50
0.0
 71
     0
 42
0.2
  3
txt
  4

  0
STYLE
  5
1C
330
3
100
AcDbSymbolTableRecord
100
AcDbTextStyleTableRecord
  2
SIMPLEX
 70
     0
 40
0.0
 41
1.0
 50
0.0
 71
     0
 42
0.078
  3
SIMPLEX.shx
  4

  0
STYLE
  5
1E
330
3
100
AcDbSymbolTableRecord
100
AcDbTextStyleTableRecord
  2
T
 70
     0
 40
0.0
 41
1.0
 50
0.0
 71
     0
 42
1.0
  3
ROMI____.PFB
  4

  0
STYLE
  5
D97
330
3
100
AcDbSymbolTableRecord
100
AcDbTextStyleTableRecord
  2
MED
 70
     0
 40
0.125
 41
1.0
 50
0.0
 71
     0
 42
0.078
  3
ROMANS
  4

  0
ENDTAB
  0
TABLE
  2
VIEW
  5
6
330
0
100
AcDbSymbolTable
 70
     0
  0
ENDTAB
  0
TABLE
  2
UCS
  5
7
330
0
100
AcDbSymbolTable
 70
     0
  0
ENDTAB
  0
TABLE
  2
APPID
  5
9
330
0
100
AcDbSymbolTable
 70
     4
  0
APPID
  5
10
330
9
100
AcDbSymbolTableRecord
100
AcDbRegAppTableRecord
  2
ACAD
 70
     0
  0
APPID
  5
1FD3
330
9
100
AcDbSymbolTableRecord
100
AcDbRegAppTableRecord
  2
ACAD_EXEMPT_FROM_CAD_STANDARDS
 70
     0
  0
APPID
  5
1FEB
330
9
100
AcDbSymbolTableRecord
100
AcDbRegAppTableRecord
  2
ACAD_NAV_VCDISPLAY
 70
     0
  0
APPID
  5
209B
330
9
100
AcDbSymbolTableRecord
100
AcDbRegAppTableRecord
  2
ACAD_MLEADERVER
 70
     0
  0
ENDTAB
  0
TABLE
  2
DIMSTYLE
  5
A
330
0
100
AcDbSymbolTable
 70
     1
100
AcDbDimStyleTable
 71
     1
340
B05
  0
DIMSTYLE
105
B05
102
{ACAD_REACTORS
330
CB2
330
CDC
330
132D
330
132A
330
136E
330
1FC5
102
}
330
A
100
AcDbSymbolTableRecord
100
AcDbDimStyleTableRecord
  2
STANDARD
 70
     0
340
F
  0
ENDTAB
  0
TABLE
  2
BLOCK_RECORD
  5
1
330
0
100
AcDbSymbolTable
 70
    17
  0
BLOCK_RECORD
  5
17
330
1
100
AcDbSymbolTableRecord
100
AcDbBlockTableRecord
  2
*MODEL_SPACE
340
B17
  0
BLOCK_RECORD
  5
14
330
1
100
AcDbSymbolTableRecord
100
AcDbBlockTableRecord
  2
*PAPER_SPACE
340
B18
  0
BLOCK_RECORD
  5
C6C
330
1
100
AcDbSymbolTableRecord
100
AcDbBlockTableRecord
  2
*D0
340
0
  0
BLOCK_RECORD
  5
C7A
330
1
100
AcDbSymbolTableRecord
100
AcDbBlockTableRecord
  2
*D1
340
0
  0
BLOCK_RECORD
  5
C88
330
1
100
AcDbSymbolTableRecord
100
AcDbBlockTableRecord
  2
*D2
340
0
  0
BLOCK_RECORD
  5
C96
330
1
100
AcDbSymbolTableRecord
100
AcDbBlockTableRecord
  2
*D3
340
0
  0
BLOCK_RECORD
  5
CA4
330
1
100
AcDbSymbolTableRecord
100
AcDbBlockTableRecord
  2
*D4
340
0
  0
BLOCK_RECORD
  5
CB3
330
1
100
AcDbSymbolTableRecord
100
AcDbBlockTableRecord
  2
*D5
340
0
  0
BLOCK_RECORD
  5
CC1
330
1
100
AcDbSymbolTableRecord
100
AcDbBlockTableRecord
  2
*D6
340
0
  0
BLOCK_RECORD
  5
CCF
330
1
100
AcDbSymbolTableRecord
100
AcDbBlockTableRecord
  2
*D7
340
0
  0
BLOCK_RECORD
  5
CDD
330
1
100
AcDbSymbolTableRecord
100
AcDbBlockTableRecord
  2
*D8
340
0
  0
BLOCK_RECORD
  5
CEB
330
1
100
AcDbSymbolTableRecord
100
AcDbBlockTableRecord
  2
*D9
340
0
  0
BLOCK_RECORD
  5
1332
330
1
100
AcDbSymbolTableRecord
100
AcDbBlockTableRecord
  2
*D10
340
0
  0
BLOCK_RECORD
  5
133F
330
1
100
AcDbSymbolTableRecord
100
AcDbBlockTableRecord
  2
*D11
340
0
  0
BLOCK_RECORD
  5
1361
330
1
100
AcDbSymbolTableRecord
100
AcDbBlockTableRecord
  2
*D12
340
0
  0
BLOCK_RECORD
  5
136F
330
1
100
AcDbSymbolTableRecord
100
AcDbBlockTableRecord
  2
*D13
340
0
  0
BLOCK_RECORD
  5
137D
330
1
100
AcDbSymbolTableRecord
100
AcDbBlockTableRecord
  2
*D14
340
0
  0
BLOCK_RECORD
  5
1476
330
1
100
AcDbSymbolTableRecord
100
AcDbBlockTableRecord
  2
*D15
340
0
  0
BLOCK_RECORD
  5
1FC6
330
1
100
AcDbSymbolTableRecord
100
AcDbBlockTableRecord
  2
*D16
340
0
  0
ENDTAB
  0
ENDSEC
  0
SECTION
  2
BLOCKS
  0
BLOCK
  5
29
330
17
100
AcDbEntity
  8
0
100
AcDbBlockBegin
  2
*MODEL_SPACE
 70
     0
 10
0.0
 20
0.0
 30
0.0
  3
*MODEL_SPACE
  1

  0
ENDBLK
  5
2A
330
17
100
AcDbEntity
  8
0
100
AcDbBlockEnd
  0
BLOCK
  5
27
330
14
100
AcDbEntity
 67
     1
  8
0
100
AcDbBlockBegin
  2
*PAPER_SPACE
 70
     0
 10
0.0
 20
0.0
 30
0.0
  3
*PAPER_SPACE
  1

  0
ENDBLK
  5
28
330
14
100
AcDbEntity
 67
     1
  8
0
100
AcDbBlockEnd
  0
BLOCK
  5
C77
330
C6C
100
AcDbEntity
  8
0
100
AcDbBlockBegin
  2
*D0
 70
     1
 10
0.0
 20
0.0
 30
0.0
  3
*D0
  1

  0
LINE
  5
117B
330
C6C
100
AcDbEntity
  8
3
 62
     0
370
    -2
100
AcDbLine
 10
-12.88416610978986
 20
3.626678140260676
 30
0.0
 11
-12.88416610978986
 21
3.242021681754186
 31
0.0
  0
LINE
  5
117C
330
C6C
100
AcDbEntity
  8
3
 62
     0
370
    -2
100
AcDbLine
 10
-11.88416610978986
 20
3.62667814026068
 30
0.0
 11
-11.88416610978986
 21
3.242021681754186
 31
0.0
  0
LINE
  5
117D
330
C6C
100
AcDbEntity
  8
3
 62
     0
370
    -2
100
AcDbLine
 10
-13.00916610978986
 20
3.304521681754186
 30
0.0
 11
-13.13416610978986
 21
3.304521681754186
 31
0.0
  0
LINE
  5
117E
330
C6C
100
AcDbEntity
  8
3
 62
     0
370
    -2
100
AcDbLine
 10
-11.75916610978986
 20
3.304521681754186
 30
0.0
 11
-11.63416610978986
 21
3.304521681754186
 31
0.0
  0
SOLID
  5
117F
330
C6C
100
AcDbEntity
  8
3
 62
     0
100
AcDbTrace
 10
-13.00916610978986
 20
3.325355015087519
 30
0.0
 11
-13.00916610978986
 21
3.283688348420853
 31
0.0
 12
-12.88416610978986
 22
3.304521681754186
 32
0.0
 13
-12.88416610978986
 23
3.304521681754186
 33
0.0
  0
SOLID
  5
1180
330
C6C
100
AcDbEntity
  8
3
 62
     0
100
AcDbTrace
 10
-11.75916610978986
 20
3.325355015087519
 30
0.0
 11
-11.75916610978986
 21
3.283688348420853
 31
0.0
 12
-11.88416610978986
 22
3.304521681754186
 32
0.0
 13
-11.88416610978986
 23
3.304521681754186
 33
0.0
  0
MTEXT
  5
1181
330
C6C
100
AcDbEntity
  8
3
 62
     0
100
AcDbMText
 10
-12.38416610978986
 20
3.304521681754186
 30
0.0
 40
0.125
 41
0.0
 71
     5
 72
     1
  1
\A1;1.000
  7
SIMPLEX
 73
     1
 44
1.0
1001
ACAD
1000
MTEXTBEGIN
1070
    73
1070
     1
1070
    44
1040
1.0
1070
    74
1070
     0
1000
MTEXTEND
  0
POINT
  5
1182
330
C6C
100
AcDbEntity
  8
Defpoints
 62
     0
100
AcDbPoint
 10
-12.88416610978986
 20
3.689178140260676
 30
0.0
  0
POINT
  5
1183
330
C6C
100
AcDbEntity
  8
Defpoints
 62
     0
100
AcDbPoint
 10
-11.88416610978986
 20
3.68917814026068
 30
0.0
  0
POINT
  5
1184
330
C6C
100
AcDbEntity
  8
Defpoints
 62
     0
100
AcDbPoint
 10
-11.88416610978986
 20
3.304521681754186
 30
0.0
  0
ENDBLK
  5
C78
330
C6C
100
AcDbEntity
  8
0
100
AcDbBlockEnd
  0
BLOCK
  5
C85
330
C7A
100
AcDbEntity
  8
0
100
AcDbBlockBegin
  2
*D1
 70
     1
 10
0.0
 20
0.0
 30
0.0
  3
*D1
  1

  0
LINE
  5
1132
330
C7A
100
AcDbEntity
  8
3
 62
     0
370
    -2
100
AcDbLine
 10
-13.20105877171201
 20
3.702384960940076
 30
0.0
 11
-13.90642110879691
 21
3.702384960940076
 31
0.0
  0
LINE
  5
1133
330
C7A
100
AcDbEntity
  8
3
 62
     0
370
    -2
100
AcDbLine
 10
-13.19955326186595
 20
4.064178140260676
 30
0.0
 11
-13.90642110879691
 21
4.064178140260676
 31
0.0
  0
LINE
  5
1134
330
C7A
100
AcDbEntity
  8
3
 62
     0
370
    -2
100
AcDbLine
 10
-13.84392110879691
 20
3.577384960940076
 30
0.0
 11
-13.84392110879691
 21
3.452384960940076
 31
0.0
  0
LINE
  5
1135
330
C7A
100
AcDbEntity
  8
3
 62
     0
370
    -2
100
AcDbLine
 10
-13.84392110879691
 20
4.189178140260676
 30
0.0
 11
-13.84392110879691
 21
4.314178140260676
 31
0.0
  0
MTEXT
  5
1136
330
C7A
100
AcDbEntity
  8
3
 62
     0
100
AcDbMText
 10
-14.10392110879691
 20
3.883281550600374
 30
0.0
 40
0.125
 41
0.0
 71
     5
 72
     1
  1
\A1;.362
  7
SIMPLEX
 11
0.0000000000000001
 21
1.0
 31
0.0
 73
     1
 44
1.0
1001
ACAD
1000
MTEXTBEGIN
1070
    73
1070
     1
1070
    44
1040
1.0
1070
    74
1070
     0
1000
MTEXTEND
  0
SOLID
  5
1137
330
C7A
100
AcDbEntity
  8
3
 62
     0
100
AcDbTrace
 10
-13.86475444213025
 20
3.577384960940076
 30
0.0
 11
-13.82308777546358
 21
3.577384960940076
 31
0.0
 12
-13.84392110879691
 22
3.702384960940076
 32
0.0
 13
-13.84392110879691
 23
3.702384960940076
 33
0.0
  0
SOLID
  5
1138
330
C7A
100
AcDbEntity
  8
3
 62
     0
100
AcDbTrace
 10
-13.86475444213024
 20
4.189178140260676
 30
0.0
 11
-13.82308777546358
 21
4.189178140260676
 31
0.0
 12
-13.84392110879691
 22
4.064178140260676
 32
0.0
 13
-13.84392110879691
 23
4.064178140260676
 33
0.0
  0
POINT
  5
1139
330
C7A
100
AcDbEntity
  8
Defpoints
 62
     0
100
AcDbPoint
 10
-13.13855877171201
 20
3.702384960940076
 30
0.0
  0
POINT
  5
113A
330
C7A
100
AcDbEntity
  8
Defpoints
 62
     0
100
AcDbPoint
 10
-13.13705326186594
 20
4.064178140260676
 30
0.0
  0
POINT
  5
113B
330
C7A
100
AcDbEntity
  8
Defpoints
 62
     0
100
AcDbPoint
 10
-13.84392110879691
 20
4.064178140260676
 30
0.0
  0
ENDBLK
  5
C86
330
C7A
100
AcDbEntity
  8
0
100
AcDbBlockEnd
  0
BLOCK
  5
C93
330
C88
100
AcDbEntity
  8
0
100
AcDbBlockBegin
  2
*D2
 70
     1
 10
0.0
 20
0.0
 30
0.0
  3
*D2
  1

  0
LINE
  5
1185
330
C88
100
AcDbEntity
  8
3
 62
     0
370
    -2
100
AcDbLine
 10
-13.28201021451371
 20
4.305349289008139
 30
0.0
 11
-13.28201021451371
 21
7.575642178938556
 31
0.0
  0
LINE
  5
1186
330
C88
100
AcDbEntity
  8
3
 62
     0
370
    -2
100
AcDbLine
 10
-12.10861404050216
 20
7.258131367557096
 30
0.0
 11
-12.10861404050216
 21
7.575642178938556
 31
0.0
  0
LINE
  5
1187
330
C88
100
AcDbEntity
  8
3
 62
     0
370
    -2
100
AcDbLine
 10
-13.15701021451371
 20
7.513142178938556
 30
0.0
 11
-13.01150260369841
 21
7.513142178938556
 31
0.0
  0
LINE
  5
1188
330
C88
100
AcDbEntity
  8
3
 62
     0
370
    -2
100
AcDbLine
 10
-12.23361404050216
 20
7.513142178938556
 30
0.0
 11
-12.37912165131746
 21
7.513142178938556
 31
0.0
  0
SOLID
  5
1189
330
C88
100
AcDbEntity
  8
3
 62
     0
100
AcDbTrace
 10
-13.15701021451371
 20
7.533975512271887
 30
0.0
 11
-13.15701021451371
 21
7.492308845605223
 31
0.0
 12
-13.28201021451371
 22
7.513142178938556
 32
0.0
 13
-13.28201021451371
 23
7.513142178938556
 33
0.0
  0
SOLID
  5
118A
330
C88
100
AcDbEntity
  8
3
 62
     0
100
AcDbTrace
 10
-12.23361404050216
 20
7.533975512271887
 30
0.0
 11
-12.23361404050216
 21
7.492308845605223
 31
0.0
 12
-12.10861404050216
 22
7.513142178938556
 32
0.0
 13
-12.10861404050216
 23
7.513142178938556
 33
0.0
  0
MTEXT
  5
118B
330
C88
100
AcDbEntity
  8
3
 62
     0
100
AcDbMText
 10
-12.69531212750794
 20
7.513142178938556
 30
0.0
 40
0.125
 41
0.0
 71
     5
 72
     1
  1
\A1;1.173
  7
SIMPLEX
 73
     1
 44
1.0
1001
ACAD
1000
MTEXTBEGIN
1070
    73
1070
     1
1070
    44
1040
1.0
1070
    74
1070
     0
1000
MTEXTEND
  0
POINT
  5
118C
330
C88
100
AcDbEntity
  8
Defpoints
 62
     0
100
AcDbPoint
 10
-13.28201021451371
 20
4.242849289008139
 30
0.0
  0
POINT
  5
118D
330
C88
100
AcDbEntity
  8
Defpoints
 62
     0
100
AcDbPoint
 10
-12.10861404050216
 20
7.195631367557096
 30
0.0
  0
POINT
  5
118E
330
C88
100
AcDbEntity
  8
Defpoints
 62
     0
100
AcDbPoint
 10
-12.10861404050216
 20
7.513142178938556
 30
0.0
  0
ENDBLK
  5
C94
330
C88
100
AcDbEntity
  8
0
100
AcDbBlockEnd
  0
BLOCK
  5
CA1
330
C96
100
AcDbEntity
  8
0
100
AcDbBlockBegin
  2
*D3
 70
     1
 10
0.0
 20
0.0
 30
0.0
  3
*D3
  1

  0
LINE
  5
118F
330
C96
100
AcDbEntity
  8
3
 62
     0
370
    -2
100
AcDbLine
 10
-13.28201021451371
 20
4.305349289008139
 30
0.0
 11
-13.28201021451371
 21
7.955642178938556
 31
0.0
  0
LINE
  5
1190
330
C96
100
AcDbEntity
  8
3
 62
     0
370
    -2
100
AcDbLine
 10
-10.68537425363254
 20
6.594463755548902
 30
0.0
 11
-10.68537425363254
 21
7.955642178938556
 31
0.0
  0
LINE
  5
1191
330
C96
100
AcDbEntity
  8
3
 62
     0
370
    -2
100
AcDbLine
 10
-13.15701021451371
 20
7.893142178938556
 30
0.0
 11
-12.32369223407312
 21
7.893142178938556
 31
0.0
  0
LINE
  5
1192
330
C96
100
AcDbEntity
  8
3
 62
     0
370
    -2
100
AcDbLine
 10
-10.81037425363254
 20
7.893142178938556
 30
0.0
 11
-11.64369223407312
 21
7.893142178938556
 31
0.0
  0
SOLID
  5
1193
330
C96
100
AcDbEntity
  8
3
 62
     0
100
AcDbTrace
 10
-13.15701021451371
 20
7.913975512271888
 30
0.0
 11
-13.15701021451371
 21
7.872308845605223
 31
0.0
 12
-13.28201021451371
 22
7.893142178938556
 32
0.0
 13
-13.28201021451371
 23
7.893142178938556
 33
0.0
  0
SOLID
  5
1194
330
C96
100
AcDbEntity
  8
3
 62
     0
100
AcDbTrace
 10
-10.81037425363254
 20
7.913975512271888
 30
0.0
 11
-10.81037425363254
 21
7.872308845605223
 31
0.0
 12
-10.68537425363254
 22
7.893142178938556
 32
0.0
 13
-10.68537425363254
 23
7.893142178938556
 33
0.0
  0
MTEXT
  5
1195
330
C96
100
AcDbEntity
  8
3
 62
     0
100
AcDbMText
 10
-11.98369223407312
 20
7.893142178938556
 30
0.0
 40
0.125
 41
0.0
 71
     5
 72
     1
  1
\A1;2.597
  7
SIMPLEX
 73
     1
 44
1.0
1001
ACAD
1000
MTEXTBEGIN
1070
    73
1070
     1
1070
    44
1040
1.0
1070
    74
1070
     0
1000
MTEXTEND
  0
POINT
  5
1196
330
C96
100
AcDbEntity
  8
Defpoints
 62
     0
100
AcDbPoint
 10
-13.28201021451371
 20
4.242849289008139
 30
0.0
  0
POINT
  5
1197
330
C96
100
AcDbEntity
  8
Defpoints
 62
     0
100
AcDbPoint
 10
-10.68537425363254
 20
6.531963755548902
 30
0.0
  0
POINT
  5
1198
330
C96
100
AcDbEntity
  8
Defpoints
 62
     0
100
AcDbPoint
 10
-10.68537425363254
 20
7.893142178938556
 30
0.0
  0
ENDBLK
  5
CA2
330
C96
100
AcDbEntity
  8
0
100
AcDbBlockEnd
  0
BLOCK
  5
CAF
330
CA4
100
AcDbEntity
  8
0
100
AcDbBlockBegin
  2
*D4
 70
     1
 10
0.0
 20
0.0
 30
0.0
  3
*D4
  1

  0
LINE
  5
1199
330
CA4
100
AcDbEntity
  8
3
 62
     0
370
    -2
100
AcDbLine
 10
-13.28201021451371
 20
4.305349289008139
 30
0.0
 11
-13.28201021451371
 21
8.335642178938556
 31
0.0
  0
LINE
  5
119A
330
CA4
100
AcDbEntity
  8
3
 62
     0
370
    -2
100
AcDbLine
 10
-10.56208882441361
 20
6.615096325488347
 30
0.0
 11
-10.56208882441361
 21
8.335642178938556
 31
0.0
  0
LINE
  5
119B
330
CA4
100
AcDbEntity
  8
3
 62
     0
370
    -2
100
AcDbLine
 10
-13.15701021451371
 20
8.273142178938556
 30
0.0
 11
-12.26204951946366
 21
8.273142178938556
 31
0.0
  0
LINE
  5
119C
330
CA4
100
AcDbEntity
  8
3
 62
     0
370
    -2
100
AcDbLine
 10
-10.68708882441361
 20
8.273142178938556
 30
0.0
 11
-11.58204951946366
 21
8.273142178938556
 31
0.0
  0
SOLID
  5
119D
330
CA4
100
AcDbEntity
  8
3
 62
     0
100
AcDbTrace
 10
-13.15701021451371
 20
8.293975512271888
 30
0.0
 11
-13.15701021451371
 21
8.252308845605222
 31
0.0
 12
-13.28201021451371
 22
8.273142178938556
 32
0.0
 13
-13.28201021451371
 23
8.273142178938556
 33
0.0
  0
SOLID
  5
119E
330
CA4
100
AcDbEntity
  8
3
 62
     0
100
AcDbTrace
 10
-10.68708882441361
 20
8.293975512271888
 30
0.0
 11
-10.68708882441361
 21
8.252308845605222
 31
0.0
 12
-10.56208882441361
 22
8.273142178938556
 32
0.0
 13
-10.56208882441361
 23
8.273142178938556
 33
0.0
  0
MTEXT
  5
119F
330
CA4
100
AcDbEntity
  8
3
 62
     0
100
AcDbMText
 10
-11.92204951946366
 20
8.273142178938556
 30
0.0
 40
0.125
 41
0.0
 71
     5
 72
     1
  1
\A1;2.720
  7
SIMPLEX
 73
     1
 44
1.0
1001
ACAD
1000
MTEXTBEGIN
1070
    73
1070
     1
1070
    44
1040
1.0
1070
    74
1070
     0
1000
MTEXTEND
  0
POINT
  5
11A0
330
CA4
100
AcDbEntity
  8
Defpoints
 62
     0
100
AcDbPoint
 10
-13.28201021451371
 20
4.242849289008139
 30
0.0
  0
POINT
  5
11A1
330
CA4
100
AcDbEntity
  8
Defpoints
 62
     0
100
AcDbPoint
 10
-10.56208882441361
 20
6.552596325488347
 30
0.0
  0
POINT
  5
11A2
330
CA4
100
AcDbEntity
  8
Defpoints
 62
     0
100
AcDbPoint
 10
-10.56208882441361
 20
8.273142178938556
 30
0.0
  0
ENDBLK
  5
CB0
330
CA4
100
AcDbEntity
  8
0
100
AcDbBlockEnd
  0
BLOCK
  5
CBE
330
CB3
100
AcDbEntity
  8
0
100
AcDbBlockBegin
  2
*D5
 70
     1
 10
0.0
 20
0.0
 30
0.0
  3
*D5
  1

  0
LINE
  5
113C
330
CB3
100
AcDbEntity
  8
3
 62
     0
370
    -2
100
AcDbLine
 10
-13.28201021451371
 20
4.180349289008141
 30
0.0
 11
-13.28201021451371
 21
2.835622428574542
 31
0.0
  0
LINE
  5
113D
330
CB3
100
AcDbEntity
  8
3
 62
     0
370
    -2
100
AcDbLine
 10
-11.53201021451371
 20
4.180349289008141
 30
0.0
 11
-11.53201021451371
 21
2.835622428574542
 31
0.0
  0
LINE
  5
113E
330
CB3
100
AcDbEntity
  8
3
 62
     0
370
    -2
100
AcDbLine
 10
-13.15701021451371
 20
2.898122428574542
 30
0.0
 11
-12.73510545260895
 21
2.898122428574542
 31
0.0
  0
LINE
  5
113F
330
CB3
100
AcDbEntity
  8
3
 62
     0
370
    -2
100
AcDbLine
 10
-11.65701021451371
 20
2.898122428574542
 30
0.0
 11
-12.07891497641847
 21
2.898122428574542
 31
0.0
  0
SOLID
  5
1140
330
CB3
100
AcDbEntity
  8
3
 62
     0
100
AcDbTrace
 10
-13.15701021451371
 20
2.918955761907876
 30
0.0
 11
-13.15701021451371
 21
2.877289095241209
 31
0.0
 12
-13.28201021451371
 22
2.898122428574542
 32
0.0
 13
-13.28201021451371
 23
2.898122428574542
 33
0.0
  0
SOLID
  5
1141
330
CB3
100
AcDbEntity
  8
3
 62
     0
100
AcDbTrace
 10
-11.65701021451371
 20
2.918955761907876
 30
0.0
 11
-11.65701021451371
 21
2.877289095241209
 31
0.0
 12
-11.53201021451371
 22
2.898122428574542
 32
0.0
 13
-11.53201021451371
 23
2.898122428574542
 33
0.0
  0
MTEXT
  5
1142
330
CB3
100
AcDbEntity
  8
3
 62
     0
100
AcDbMText
 10
-12.40701021451371
 20
2.898122428574542
 30
0.0
 40
0.125
 41
0.0
 71
     5
 72
     1
  1
\A1;1.750
  7
SIMPLEX
 73
     1
 44
1.0
1001
ACAD
1000
MTEXTBEGIN
1070
    73
1070
     1
1070
    44
1040
1.0
1070
    74
1070
     0
1000
MTEXTEND
  0
POINT
  5
1143
330
CB3
100
AcDbEntity
  8
Defpoints
 62
     0
100
AcDbPoint
 10
-13.28201021451371
 20
4.242849289008141
 30
0.0
  0
POINT
  5
1144
330
CB3
100
AcDbEntity
  8
Defpoints
 62
     0
100
AcDbPoint
 10
-11.53201021451371
 20
4.242849289008141
 30
0.0
  0
POINT
  5
1145
330
CB3
100
AcDbEntity
  8
Defpoints
 62
     0
100
AcDbPoint
 10
-11.53201021451371
 20
2.898122428574542
 30
0.0
  0
ENDBLK
  5
CBF
330
CB3
100
AcDbEntity
  8
0
100
AcDbBlockEnd
  0
BLOCK
  5
CCC
330
CC1
100
AcDbEntity
  8
0
100
AcDbBlockBegin
  2
*D6
 70
     1
 10
0.0
 20
0.0
 30
0.0
  3
*D6
  1

  0
LINE
  5
1146
330
CC1
100
AcDbEntity
  8
3
 62
     0
370
    -2
100
AcDbLine
 10
-13.26355877171201
 20
3.702384960940076
 30
0.0
 11
-14.54605169720075
 21
3.702384960940076
 31
0.0
  0
LINE
  5
1147
330
CC1
100
AcDbEntity
  8
3
 62
     0
370
    -2
100
AcDbLine
 10
-10.74787425363254
 20
6.531963755548902
 30
0.0
 11
-14.54605169720075
 21
6.531963755548902
 31
0.0
  0
LINE
  5
1148
330
CC1
100
AcDbEntity
  8
3
 62
     0
370
    -2
100
AcDbLine
 10
-14.48355169720075
 20
3.827384960940076
 30
0.0
 11
-14.48355169720075
 21
4.777174358244489
 31
0.0
  0
LINE
  5
1149
330
CC1
100
AcDbEntity
  8
3
 62
     0
370
    -2
100
AcDbLine
 10
-14.48355169720075
 20
6.406963755548902
 30
0.0
 11
-14.48355169720075
 21
5.45717435824449
 31
0.0
  0
SOLID
  5
114A
330
CC1
100
AcDbEntity
  8
3
 62
     0
100
AcDbTrace
 10
-14.50438503053409
 20
3.827384960940076
 30
0.0
 11
-14.46271836386742
 21
3.827384960940076
 31
0.0
 12
-14.48355169720075
 22
3.702384960940076
 32
0.0
 13
-14.48355169720075
 23
3.702384960940076
 33
0.0
  0
SOLID
  5
114B
330
CC1
100
AcDbEntity
  8
3
 62
     0
100
AcDbTrace
 10
-14.50438503053409
 20
6.406963755548902
 30
0.0
 11
-14.46271836386742
 21
6.406963755548902
 31
0.0
 12
-14.48355169720075
 22
6.531963755548902
 32
0.0
 13
-14.48355169720075
 23
6.531963755548902
 33
0.0
  0
MTEXT
  5
114C
330
CC1
100
AcDbEntity
  8
3
 62
     0
100
AcDbMText
 10
-14.48355169720075
 20
5.117174358244486
 30
0.0
 40
0.125
 41
0.0
 71
     5
 72
     1
  1
\A1;2.830
  7
SIMPLEX
 11
0.0000000000000001
 21
1.0
 31
0.0
 73
     1
 44
1.0
1001
ACAD
1000
MTEXTBEGIN
1070
    73
1070
     1
1070
    44
1040
1.0
1070
    74
1070
     0
1000
MTEXTEND
  0
POINT
  5
114D
330
CC1
100
AcDbEntity
  8
Defpoints
 62
     0
100
AcDbPoint
 10
-13.20105877171201
 20
3.702384960940076
 30
0.0
  0
POINT
  5
114E
330
CC1
100
AcDbEntity
  8
Defpoints
 62
     0
100
AcDbPoint
 10
-10.68537425363254
 20
6.531963755548902
 30
0.0
  0
POINT
  5
114F
330
CC1
100
AcDbEntity
  8
Defpoints
 62
     0
100
AcDbPoint
 10
-14.48355169720075
 20
6.531963755548902
 30
0.0
  0
ENDBLK
  5
CCD
330
CC1
100
AcDbEntity
  8
0
100
AcDbBlockEnd
  0
BLOCK
  5
CDA
330
CCF
100
AcDbEntity
  8
0
100
AcDbBlockBegin
  2
*D7
 70
     1
 10
0.0
 20
0.0
 30
0.0
  3
*D7
  1

  0
LINE
  5
1150
330
CCF
100
AcDbEntity
  8
3
 62
     0
370
    -2
100
AcDbLine
 10
-13.26355877171201
 20
3.702384960940076
 30
0.0
 11
-14.92605169720075
 21
3.702384960940076
 31
0.0
  0
LINE
  5
1151
330
CCF
100
AcDbEntity
  8
3
 62
     0
370
    -2
100
AcDbLine
 10
-12.17111404050216
 20
7.195631367557096
 30
0.0
 11
-14.92605169720075
 21
7.195631367557097
 31
0.0
  0
LINE
  5
1152
330
CCF
100
AcDbEntity
  8
3
 62
     0
370
    -2
100
AcDbLine
 10
-14.86355169720075
 20
3.827384960940076
 30
0.0
 11
-14.86355169720075
 21
5.109008164248586
 31
0.0
  0
LINE
  5
1153
330
CCF
100
AcDbEntity
  8
3
 62
     0
370
    -2
100
AcDbLine
 10
-14.86355169720075
 20
7.070631367557097
 30
0.0
 11
-14.86355169720075
 21
5.789008164248587
 31
0.0
  0
SOLID
  5
1154
330
CCF
100
AcDbEntity
  8
3
 62
     0
100
AcDbTrace
 10
-14.88438503053409
 20
3.827384960940076
 30
0.0
 11
-14.84271836386742
 21
3.827384960940076
 31
0.0
 12
-14.86355169720075
 22
3.702384960940076
 32
0.0
 13
-14.86355169720075
 23
3.702384960940076
 33
0.0
  0
SOLID
  5
1155
330
CCF
100
AcDbEntity
  8
3
 62
     0
100
AcDbTrace
 10
-14.88438503053409
 20
7.070631367557097
 30
0.0
 11
-14.84271836386742
 21
7.070631367557097
 31
0.0
 12
-14.86355169720075
 22
7.195631367557097
 32
0.0
 13
-14.86355169720075
 23
7.195631367557097
 33
0.0
  0
MTEXT
  5
1156
330
CCF
100
AcDbEntity
  8
3
 62
     0
100
AcDbMText
 10
-14.86355169720075
 20
5.449008164248584
 30
0.0
 40
0.125
 41
0.0
 71
     5
 72
     1
  1
\A1;3.493
  7
SIMPLEX
 11
0.0000000000000001
 21
1.0
 31
0.0
 73
     1
 44
1.0
1001
ACAD
1000
MTEXTBEGIN
1070
    73
1070
     1
1070
    44
1040
1.0
1070
    74
1070
     0
1000
MTEXTEND
  0
POINT
  5
1157
330
CCF
100
AcDbEntity
  8
Defpoints
 62
     0
100
AcDbPoint
 10
-13.20105877171201
 20
3.702384960940076
 30
0.0
  0
POINT
  5
1158
330
CCF
100
AcDbEntity
  8
Defpoints
 62
     0
100
AcDbPoint
 10
-12.10861404050216
 20
7.195631367557096
 30
0.0
  0
POINT
  5
1159
330
CCF
100
AcDbEntity
  8
Defpoints
 62
     0
100
AcDbPoint
 10
-14.86355169720075
 20
7.195631367557097
 30
0.0
  0
ENDBLK
  5
CDB
330
CCF
100
AcDbEntity
  8
0
100
AcDbBlockEnd
  0
BLOCK
  5
CE8
330
CDD
100
AcDbEntity
  8
0
100
AcDbBlockBegin
  2
*D8
 70
     1
 10
0.0
 20
0.0
 30
0.0
  3
*D8
  1

  0
LINE
  5
115A
330
CDD
100
AcDbEntity
  8
3
 62
     0
370
    -2
100
AcDbLine
 10
-13.26355877171201
 20
3.702384960940076
 30
0.0
 11
-15.30605169720075
 21
3.702384960940076
 31
0.0
  0
LINE
  5
115B
330
CDD
100
AcDbEntity
  8
3
 62
     0
370
    -2
100
AcDbLine
 10
-12.17111404050216
 20
7.320631367557096
 30
0.0
 11
-15.30605169720075
 21
7.320631367557097
 31
0.0
  0
LINE
  5
115C
330
CDD
100
AcDbEntity
  8
3
 62
     0
370
    -2
100
AcDbLine
 10
-15.24355169720075
 20
3.827384960940076
 30
0.0
 11
-15.24355169720075
 21
5.183412926153348
 31
0.0
  0
LINE
  5
115D
330
CDD
100
AcDbEntity
  8
3
 62
     0
370
    -2
100
AcDbLine
 10
-15.24355169720075
 20
7.195631367557097
 30
0.0
 11
-15.24355169720075
 21
5.839603402343825
 31
0.0
  0
SOLID
  5
115E
330
CDD
100
AcDbEntity
  8
3
 62
     0
100
AcDbTrace
 10
-15.26438503053409
 20
3.827384960940076
 30
0.0
 11
-15.22271836386742
 21
3.827384960940076
 31
0.0
 12
-15.24355169720075
 22
3.702384960940076
 32
0.0
 13
-15.24355169720075
 23
3.702384960940076
 33
0.0
  0
SOLID
  5
115F
330
CDD
100
AcDbEntity
  8
3
 62
     0
100
AcDbTrace
 10
-15.26438503053409
 20
7.195631367557097
 30
0.0
 11
-15.22271836386742
 21
7.195631367557097
 31
0.0
 12
-15.24355169720075
 22
7.320631367557097
 32
0.0
 13
-15.24355169720075
 23
7.320631367557097
 33
0.0
  0
MTEXT
  5
1160
330
CDD
100
AcDbEntity
  8
3
 62
     0
100
AcDbMText
 10
-15.24355169720075
 20
5.511508164248584
 30
0.0
 40
0.125
 41
0.0
 71
     5
 72
     1
  1
\A1;3.618
  7
SIMPLEX
 11
0.0000000000000001
 21
1.0
 31
0.0
 73
     1
 44
1.0
1001
ACAD
1000
MTEXTBEGIN
1070
    73
1070
     1
1070
    44
1040
1.0
1070
    74
1070
     0
1000
MTEXTEND
  0
POINT
  5
1161
330
CDD
100
AcDbEntity
  8
Defpoints
 62
     0
100
AcDbPoint
 10
-13.20105877171201
 20
3.702384960940076
 30
0.0
  0
POINT
  5
1162
330
CDD
100
AcDbEntity
  8
Defpoints
 62
     0
100
AcDbPoint
 10
-12.10861404050216
 20
7.320631367557096
 30
0.0
  0
POINT
  5
1163
330
CDD
100
AcDbEntity
  8
Defpoints
 62
     0
100
AcDbPoint
 10
-15.24355169720075
 20
7.320631367557097
 30
0.0
  0
ENDBLK
  5
CE9
330
CDD
100
AcDbEntity
  8
0
100
AcDbBlockEnd
  0
BLOCK
  5
CF8
330
CEB
100
AcDbEntity
  8
0
100
AcDbBlockBegin
  2
*D9
 70
     1
 10
0.0
 20
0.0
 30
0.0
  3
*D9
  1

  0
LINE
  5
1164
330
CEB
100
AcDbEntity
  8
3
 62
     0
370
    -2
100
AcDbLine
 10
-10.57590273422516
 20
6.618838587569688
 30
0.0
 11
-10.01484089972998
 21
6.357211157446092
 31
0.0
  0
LINE
  5
1165
330
CEB
100
AcDbEntity
  8
3
 62
     0
370
    -2
100
AcDbLine
 10
-11.56727344786771
 20
3.702384960940073
 30
0.0
 11
-10.60340169774002
 21
3.702384960940074
 31
0.0
  0
ARC
  5
1166
330
CEB
100
AcDbEntity
  8
3
 62
     0
370
    -2
100
AcDbCircle
 10
-4.321547748572756
 20
3.702384960940073
 30
0.0
 40
6.344353949167269
100
AcDbArc
 50
156.1288916639475
 51
165.5041782768034
  0
ARC
  5
1167
330
CEB
100
AcDbEntity
  8
3
 62
     0
370
    -2
100
AcDbCircle
 10
-4.321547748572756
 20
3.702384960940073
 30
0.0
 40
6.344353949167269
100
AcDbArc
 50
169.4958217231965
 51
178.8711083360524
  0
SOLID
  5
1168
330
CEB
100
AcDbEntity
  8
3
 62
     0
100
AcDbTrace
 10
-10.14216105140611
 20
6.278439520278745
 30
0.0
 11
-10.10422658729026
 21
6.261203292635943
 31
0.0
 12
-10.07148513641977
 22
6.383624798804887
 32
0.0
 13
-10.07148513641977
 23
6.383624798804887
 33
0.0
  0
SOLID
  5
1169
330
CEB
100
AcDbEntity
  8
3
 62
     0
100
AcDbTrace
 10
-10.64383796548602
 20
3.827173660335498
 30
0.0
 11
-10.68550261027665
 21
3.827584130288395
 31
0.0
 12
-10.66590169774002
 22
3.702384960940073
 32
0.0
 13
-10.66590169774002
 23
3.702384960940073
 33
0.0
  0
MTEXT
  5
116A
330
CEB
100
AcDbEntity
  8
3
 62
     0
100
AcDbMText
 10
-10.51551517690034
 20
5.075554480384516
 30
0.0
 40
0.125
 41
0.0
 71
     5
 72
     1
  1
\A1;25°
  7
SIMPLEX
 11
0.2164396139381036
 21
0.9762960071199332
 31
0.0
 73
     1
 44
1.0
1001
ACAD
1000
MTEXTBEGIN
1070
    73
1070
     1
1070
    44
1040
1.0
1070
    74
1070
     0
1000
MTEXTEND
  0
POINT
  5
116B
330
CEB
100
AcDbEntity
  8
Defpoints
 62
     0
100
AcDbPoint
 10
-10.39937229429235
 20
5.521966183024619
 30
0.0
  0
POINT
  5
116C
330
CEB
100
AcDbEntity
  8
Defpoints
 62
     0
100
AcDbPoint
 10
-12.05578675778457
 20
7.308919840936676
 30
0.0
  0
POINT
  5
116D
330
CEB
100
AcDbEntity
  8
Defpoints
 62
     0
100
AcDbPoint
 10
-11.62977344786771
 20
3.702384960940073
 30
0.0
  0
POINT
  5
116E
330
CEB
100
AcDbEntity
  8
Defpoints
 62
     0
100
AcDbPoint
 10
-13.13855877171201
 20
3.702384960940073
 30
0.0
  0
POINT
  5
116F
330
CEB
100
AcDbEntity
  8
Defpoints
 62
     0
100
AcDbPoint
 10
-10.63254697091495
 20
6.645252228928483
 30
0.0
  0
ENDBLK
  5
CF9
330
CEB
100
AcDbEntity
  8
0
100
AcDbBlockEnd
  0
BLOCK
  5
133D
330
1332
100
AcDbEntity
  8
0
100
AcDbBlockBegin
  2
*D10
 70
     1
 10
0.0
 20
0.0
 30
0.0
  3
*D10
  1

  0
LINE
  5
14AD
330
1332
100
AcDbEntity
  8
3
 62
     0
370
    -2
100
AcDbLine
 10
-1.906935546261508
 20
6.788212015607478
 30
0.0
 11
-2.17027485675854
 21
6.788212015607481
 31
0.0
  0
LINE
  5
14AE
330
1332
100
AcDbEntity
  8
3
 62
     0
370
    -2
100
AcDbLine
 10
-1.906935546261509
 20
7.71711452081359
 30
0.0
 11
-2.170274856758539
 21
7.71711452081359
 31
0.0
  0
LINE
  5
14AF
330
1332
100
AcDbEntity
  8
3
 62
     0
370
    -2
100
AcDbLine
 10
-2.10777485675854
 20
6.913212015607481
 30
0.0
 11
-2.107774856758539
 21
7.031710887258152
 31
0.0
  0
LINE
  5
14B0
330
1332
100
AcDbEntity
  8
3
 62
     0
370
    -2
100
AcDbLine
 10
-2.107774856758539
 20
7.59211452081359
 30
0.0
 11
-2.107774856758539
 21
7.473615649162915
 31
0.0
  0
SOLID
  5
14B1
330
1332
100
AcDbEntity
  8
3
 62
     0
100
AcDbTrace
 10
-2.128608190091873
 20
6.913212015607481
 30
0.0
 11
-2.086941523425205
 21
6.913212015607481
 31
0.0
 12
-2.10777485675854
 22
6.788212015607481
 32
0.0
 13
-2.10777485675854
 23
6.788212015607481
 33
0.0
  0
SOLID
  5
14B2
330
1332
100
AcDbEntity
  8
3
 62
     0
100
AcDbTrace
 10
-2.128608190091873
 20
7.59211452081359
 30
0.0
 11
-2.086941523425205
 21
7.59211452081359
 31
0.0
 12
-2.107774856758539
 22
7.71711452081359
 32
0.0
 13
-2.107774856758539
 23
7.71711452081359
 33
0.0
  0
MTEXT
  5
14B3
330
1332
100
AcDbEntity
  8
3
 62
     0
100
AcDbMText
 10
-2.107774856758541
 20
7.252663268210533
 30
0.0
 40
0.125
 41
0.0
 71
     5
 72
     1
  1
\A1;.93
  7
SIMPLEX
 11
0.0000000000000001
 21
1.0
 31
0.0
 73
     1
 44
1.0
1001
ACAD
1000
MTEXTBEGIN
1070
    73
1070
     1
1070
    44
1040
1.0
1070
    74
1070
     0
1000
MTEXTEND
  0
POINT
  5
14B4
330
1332
100
AcDbEntity
  8
Defpoints
 62
     0
100
AcDbPoint
 10
-1.844435546261508
 20
6.788212015607478
 30
0.0
  0
POINT
  5
14B5
330
1332
100
AcDbEntity
  8
Defpoints
 62
     0
100
AcDbPoint
 10
-1.844435546261509
 20
7.71711452081359
 30
0.0
  0
POINT
  5
14B6
330
1332
100
AcDbEntity
  8
Defpoints
 62
     0
100
AcDbPoint
 10
-2.107774856758539
 20
7.71711452081359
 30
0.0
  0
ENDBLK
  5
133E
330
1332
100
AcDbEntity
  8
0
100
AcDbBlockEnd
  0
BLOCK
  5
134A
330
133F
100
AcDbEntity
  8
0
100
AcDbBlockBegin
  2
*D11
 70
     1
 10
0.0
 20
0.0
 30
0.0
  3
*D11
  1

  0
LINE
  5
14B7
330
133F
100
AcDbEntity
  8
3
 62
     0
370
    -2
100
AcDbLine
 10
-1.844435546261508
 20
6.725712015607478
 30
0.0
 11
-1.844435546261508
 21
6.508258761559821
 31
0.0
  0
LINE
  5
14B8
330
133F
100
AcDbEntity
  8
3
 62
     0
370
    -2
100
AcDbLine
 10
-1.781935546261508
 20
6.725712015607478
 30
0.0
 11
-1.781935546261508
 21
6.508258761559821
 31
0.0
  0
LINE
  5
14B9
330
133F
100
AcDbEntity
  8
3
 62
     0
370
    -2
100
AcDbLine
 10
-1.969435546261508
 20
6.570758761559821
 30
0.0
 11
-2.094435546261508
 21
6.570758761559821
 31
0.0
  0
LINE
  5
14BA
330
133F
100
AcDbEntity
  8
3
 62
     0
370
    -2
100
AcDbLine
 10
-1.656935546261508
 20
6.570758761559821
 30
0.0
 11
-1.531935546261508
 21
6.570758761559821
 31
0.0
  0
MTEXT
  5
14BB
330
133F
100
AcDbEntity
  8
3
 62
     0
100
AcDbMText
 10
-1.314814582257284
 20
6.580107689342672
 30
0.0
 40
0.125
 41
0.0
 71
     5
 72
     1
  1
\A1;.063
  7
SIMPLEX
 73
     1
 44
1.0
1001
ACAD
1000
MTEXTBEGIN
1070
    73
1070
     1
1070
    44
1040
1.0
1070
    74
1070
     0
1000
MTEXTEND
  0
SOLID
  5
14BC
330
133F
100
AcDbEntity
  8
3
 62
     0
100
AcDbTrace
 10
-1.969435546261508
 20
6.591592094893154
 30
0.0
 11
-1.969435546261508
 21
6.549925428226488
 31
0.0
 12
-1.844435546261508
 22
6.570758761559821
 32
0.0
 13
-1.844435546261508
 23
6.570758761559821
 33
0.0
  0
SOLID
  5
14BD
330
133F
100
AcDbEntity
  8
3
 62
     0
100
AcDbTrace
 10
-1.656935546261508
 20
6.591592094893154
 30
0.0
 11
-1.656935546261508
 21
6.549925428226488
 31
0.0
 12
-1.781935546261508
 22
6.570758761559821
 32
0.0
 13
-1.781935546261508
 23
6.570758761559821
 33
0.0
  0
POINT
  5
14BE
330
133F
100
AcDbEntity
  8
Defpoints
 62
     0
100
AcDbPoint
 10
-1.844435546261508
 20
6.788212015607478
 30
0.0
  0
POINT
  5
14BF
330
133F
100
AcDbEntity
  8
Defpoints
 62
     0
100
AcDbPoint
 10
-1.781935546261508
 20
6.788212015607478
 30
0.0
  0
POINT
  5
14C0
330
133F
100
AcDbEntity
  8
Defpoints
 62
     0
100
AcDbPoint
 10
-1.781935546261508
 20
6.570758761559821
 30
0.0
  0
ENDBLK
  5
134B
330
133F
100
AcDbEntity
  8
0
100
AcDbBlockEnd
  0
BLOCK
  5
136C
330
1361
100
AcDbEntity
  8
0
100
AcDbBlockBegin
  2
*D12
 70
     1
 10
0.0
 20
0.0
 30
0.0
  3
*D12
  1

  0
LINE
  5
1499
330
1361
100
AcDbEntity
  8
3
 62
     0
370
    -2
100
AcDbLine
 10
-5.547618469711025
 20
6.717114520813589
 30
0.0
 11
-5.547618469711025
 21
6.442908329374704
 31
0.0
  0
LINE
  5
149A
330
1361
100
AcDbEntity
  8
3
 62
     0
370
    -2
100
AcDbLine
 10
-3.045316590278162
 20
6.71711452081359
 30
0.0
 11
-3.045316590278162
 21
6.442908329374704
 31
0.0
  0
LINE
  5
149B
330
1361
100
AcDbEntity
  8
3
 62
     0
370
    -2
100
AcDbLine
 10
-5.422618469711025
 20
6.505408329374704
 30
0.0
 11
-4.636467529994592
 21
6.505408329374704
 31
0.0
  0
LINE
  5
149C
330
1361
100
AcDbEntity
  8
3
 62
     0
370
    -2
100
AcDbLine
 10
-3.170316590278162
 20
6.505408329374704
 30
0.0
 11
-3.956467529994593
 21
6.505408329374704
 31
0.0
  0
SOLID
  5
149D
330
1361
100
AcDbEntity
  8
3
 62
     0
100
AcDbTrace
 10
-5.422618469711025
 20
6.526241662708036
 30
0.0
 11
-5.422618469711025
 21
6.48457499604137
 31
0.0
 12
-5.547618469711025
 22
6.505408329374704
 32
0.0
 13
-5.547618469711025
 23
6.505408329374704
 33
0.0
  0
SOLID
  5
149E
330
1361
100
AcDbEntity
  8
3
 62
     0
100
AcDbTrace
 10
-3.170316590278162
 20
6.526241662708036
 30
0.0
 11
-3.170316590278162
 21
6.48457499604137
 31
0.0
 12
-3.045316590278162
 22
6.505408329374704
 32
0.0
 13
-3.045316590278162
 23
6.505408329374704
 33
0.0
  0
MTEXT
  5
149F
330
1361
100
AcDbEntity
  8
3
 62
     0
100
AcDbMText
 10
-4.296467529994592
 20
6.505408329374704
 30
0.0
 40
0.125
 41
0.0
 71
     5
 72
     1
  1
\A1;2.502
  7
SIMPLEX
 73
     1
 44
1.0
1001
ACAD
1000
MTEXTBEGIN
1070
    73
1070
     1
1070
    44
1040
1.0
1070
    74
1070
     0
1000
MTEXTEND
  0
POINT
  5
14A0
330
1361
100
AcDbEntity
  8
Defpoints
 62
     0
100
AcDbPoint
 10
-5.547618469711025
 20
6.779614520813589
 30
0.0
  0
POINT
  5
14A1
330
1361
100
AcDbEntity
  8
Defpoints
 62
     0
100
AcDbPoint
 10
-3.045316590278162
 20
6.77961452081359
 30
0.0
  0
POINT
  5
14A2
330
1361
100
AcDbEntity
  8
Defpoints
 62
     0
100
AcDbPoint
 10
-3.045316590278162
 20
6.505408329374704
 30
0.0
  0
ENDBLK
  5
136D
330
1361
100
AcDbEntity
  8
0
100
AcDbBlockEnd
  0
BLOCK
  5
137A
330
136F
100
AcDbEntity
  8
0
100
AcDbBlockBegin
  2
*D13
 70
     1
 10
0.0
 20
0.0
 30
0.0
  3
*D13
  1

  0
LINE
  5
148F
330
136F
100
AcDbEntity
  8
3
 62
     0
370
    -2
100
AcDbLine
 10
-5.547618469711025
 20
6.717114520813589
 30
0.0
 11
-5.547618469711025
 21
6.062908329374704
 31
0.0
  0
LINE
  5
1490
330
136F
100
AcDbEntity
  8
3
 62
     0
370
    -2
100
AcDbLine
 10
-2.912530366454179
 20
6.922420897108559
 30
0.0
 11
-2.912530366454179
 21
6.062908329374704
 31
0.0
  0
LINE
  5
1491
330
136F
100
AcDbEntity
  8
3
 62
     0
370
    -2
100
AcDbLine
 10
-5.422618469711025
 20
6.125408329374704
 30
0.0
 11
-4.570074418082604
 21
6.125408329374704
 31
0.0
  0
LINE
  5
1492
330
136F
100
AcDbEntity
  8
3
 62
     0
370
    -2
100
AcDbLine
 10
-3.037530366454179
 20
6.125408329374704
 30
0.0
 11
-3.890074418082603
 21
6.125408329374704
 31
0.0
  0
SOLID
  5
1493
330
136F
100
AcDbEntity
  8
3
 62
     0
100
AcDbTrace
 10
-5.422618469711025
 20
6.146241662708036
 30
0.0
 11
-5.422618469711025
 21
6.10457499604137
 31
0.0
 12
-5.547618469711025
 22
6.125408329374704
 32
0.0
 13
-5.547618469711025
 23
6.125408329374704
 33
0.0
  0
SOLID
  5
1494
330
136F
100
AcDbEntity
  8
3
 62
     0
100
AcDbTrace
 10
-3.037530366454179
 20
6.146241662708036
 30
0.0
 11
-3.037530366454179
 21
6.10457499604137
 31
0.0
 12
-2.912530366454179
 22
6.125408329374704
 32
0.0
 13
-2.912530366454179
 23
6.125408329374704
 33
0.0
  0
MTEXT
  5
1495
330
136F
100
AcDbEntity
  8
3
 62
     0
100
AcDbMText
 10
-4.230074418082603
 20
6.125408329374704
 30
0.0
 40
0.125
 41
0.0
 71
     5
 72
     1
  1
\A1;2.635
  7
SIMPLEX
 73
     1
 44
1.0
1001
ACAD
1000
MTEXTBEGIN
1070
    73
1070
     1
1070
    44
1040
1.0
1070
    74
1070
     0
1000
MTEXTEND
  0
POINT
  5
1496
330
136F
100
AcDbEntity
  8
Defpoints
 62
     0
100
AcDbPoint
 10
-5.547618469711025
 20
6.779614520813589
 30
0.0
  0
POINT
  5
1497
330
136F
100
AcDbEntity
  8
Defpoints
 62
     0
100
AcDbPoint
 10
-2.912530366454179
 20
6.984920897108559
 30
0.0
  0
POINT
  5
1498
330
136F
100
AcDbEntity
  8
Defpoints
 62
     0
100
AcDbPoint
 10
-2.912530366454179
 20
6.125408329374704
 30
0.0
  0
ENDBLK
  5
137B
330
136F
100
AcDbEntity
  8
0
100
AcDbBlockEnd
  0
BLOCK
  5
1388
330
137D
100
AcDbEntity
  8
0
100
AcDbBlockBegin
  2
*D14
 70
     1
 10
0.0
 20
0.0
 30
0.0
  3
*D14
  1

  0
ARC
  5
14A3
330
137D
100
AcDbEntity
  8
3
 62
     0
370
    -2
100
AcDbCircle
 10
-2.714268303469806
 20
6.779614520813588
 30
0.0
 40
1.120965841995015
100
AcDbArc
 50
140.3924234604684
 51
145.6320520111567
  0
ARC
  5
14A4
330
137D
100
AcDbEntity
  8
3
 62
     0
370
    -2
100
AcDbCircle
 10
-2.714268303469806
 20
6.779614520813588
 30
0.0
 40
1.120965841995015
100
AcDbArc
 50
168.3679479888431
 51
173.6075765395315
  0
SOLID
  5
14A5
330
137D
100
AcDbEntity
  8
3
 62
     0
100
AcDbTrace
 10
-3.593177938442484
 20
7.508415286132337
 30
0.0
 11
-3.562607732619643
 21
7.48010321049207
 31
0.0
 12
-3.492956608610263
 22
7.585969865780731
 32
0.0
 13
-3.492956608610263
 23
7.585969865780731
 33
0.0
  0
SOLID
  5
14A6
330
137D
100
AcDbEntity
  8
3
 62
     0
100
AcDbTrace
 10
-3.807463783091951
 20
6.903258504700623
 30
0.0
 11
-3.849065635291683
 21
6.905581650124958
 31
0.0
 12
-3.835234145464823
 22
6.77961452081359
 32
0.0
 13
-3.835234145464823
 23
6.77961452081359
 33
0.0
  0
MTEXT
  5
14A7
330
137D
100
AcDbEntity
  8
3
 62
     0
100
AcDbMText
 10
-3.746122801580622
 20
7.21761076925423
 30
0.0
 40
0.125
 41
0.0
 71
     5
 72
     1
  1
\A1;46°
  7
SIMPLEX
 11
0.3907311284892737
 21
0.9205048534524403
 31
0.0
 73
     1
 44
1.0
1001
ACAD
1000
MTEXTBEGIN
1070
    73
1070
     1
1070
    44
1040
1.0
1070
    74
1070
     0
1000
MTEXTEND
  0
POINT
  5
14A8
330
137D
100
AcDbEntity
  8
Defpoints
 62
     0
100
AcDbPoint
 10
-3.678466117281629
 20
7.351354841903587
 30
0.0
  0
POINT
  5
14A9
330
137D
100
AcDbEntity
  8
Defpoints
 62
     0
100
AcDbPoint
 10
-3.045316590278161
 20
6.779614520813588
 30
0.0
  0
POINT
  5
14AA
330
137D
100
AcDbEntity
  8
Defpoints
 62
     0
100
AcDbPoint
 10
-3.619601529851441
 20
7.717114520813589
 30
0.0
  0
POINT
  5
14AB
330
137D
100
AcDbEntity
  8
Defpoints
 62
     0
100
AcDbPoint
 10
-2.912530366454178
 20
6.984920897108559
 30
0.0
  0
POINT
  5
14AC
330
137D
100
AcDbEntity
  8
Defpoints
 62
     0
100
AcDbPoint
 10
-5.547618469711021
 20
6.77961452081359
 30
0.0
  0
ENDBLK
  5
1389
330
137D
100
AcDbEntity
  8
0
100
AcDbBlockEnd
  0
BLOCK
  5
1482
330
1476
100
AcDbEntity
  8
0
100
AcDbBlockBegin
  2
*D15
 70
     1
 10
0.0
 20
0.0
 30
0.0
  3
*D15
  1

  0
LINE
  5
1484
330
1476
100
AcDbEntity
  8
3
 62
     0
370
    -2
100
AcDbLine
 10
-7.930812526328612
 20
3.702384960940078
 30
0.0
 11
-10.06716329611057
 21
3.702384960940086
 31
0.0
  0
ARC
  5
1485
330
1476
100
AcDbEntity
  8
3
 62
     0
370
    -2
100
AcDbCircle
 10
-7.868312526328612
 20
3.702384960940078
 30
0.0
 40
2.136350769781961
100
AcDbArc
 50
74.35291122151579
 51
118.277949532334
  0
ARC
  5
1486
330
1476
100
AcDbEntity
  8
3
 62
     0
370
    -2
100
AcDbCircle
 10
-7.868312526328612
 20
3.702384960940078
 30
0.0
 40
2.136350769781961
100
AcDbArc
 50
132.7220504676657
 51
176.647088778484
  0
SOLID
  5
1487
330
1476
100
AcDbEntity
  8
3
 62
     0
100
AcDbTrace
 10
-7.285911080831807
 20
5.779453498511568
 30
0.0
 11
-7.298318046917549
 21
5.739676893532532
 31
0.0
 12
-7.172784748937567
 22
5.722344297764822
 32
0.0
 13
-7.172784748937567
 23
5.722344297764822
 33
0.0
  0
SOLID
  5
1488
330
1476
100
AcDbEntity
  8
3
 62
     0
100
AcDbTrace
 10
-9.980181943226037
 20
3.826721967252447
 30
0.0
 11
-10.02183077515894
 21
3.827940946225142
 31
0.0
 12
-10.00466329611057
 22
3.702384960940085
 32
0.0
 13
-10.00466329611057
 23
3.702384960940085
 33
0.0
  0
MTEXT
  5
1489
330
1476
100
AcDbEntity
  8
3
 62
     0
100
AcDbMText
 10
-9.108897732776334
 20
5.441621275272043
 30
0.0
 40
0.125
 41
0.0
 71
     5
 72
     1
  1
\A1;109°
  7
SIMPLEX
 11
0.8141155183563206
 21
0.580702955710938
 31
0.0
 73
     1
 44
1.0
1001
ACAD
1000
MTEXTBEGIN
1070
    73
1070
     1
1070
    44
1040
1.0
1070
    74
1070
     0
1000
MTEXTEND
  0
POINT
  5
148A
330
1476
100
AcDbEntity
  8
Defpoints
 62
     0
100
AcDbPoint
 10
-8.504796111566525
 20
5.741718983916862
 30
0.0
  0
POINT
  5
148B
330
1476
100
AcDbEntity
  8
Defpoints
 62
     0
100
AcDbPoint
 10
-7.345324963779486
 20
3.702384960940078
 30
0.0
  0
POINT
  5
148C
330
1476
100
AcDbEntity
  8
Defpoints
 62
     0
100
AcDbPoint
 10
-6.678251227694683
 20
7.158573929533737
 30
0.0
  0
POINT
  5
148D
330
1476
100
AcDbEntity
  8
Defpoints
 62
     0
100
AcDbPoint
 10
-7.492921032476315
 20
4.792601020772887
 30
0.0
  0
POINT
  5
148E
330
1476
100
AcDbEntity
  8
Defpoints
 62
     0
100
AcDbPoint
 10
-5.836539639935186
 20
3.702384960940073
 30
0.0
  0
ENDBLK
  5
1483
330
1476
100
AcDbEntity
  8
0
100
AcDbBlockEnd
  0
BLOCK
  5
1FC7
330
1FC6
100
AcDbEntity
  8
0
100
AcDbBlockBegin
  2
*D16
 70
     1
 10
0.0
 20
0.0
 30
0.0
  3
*D16
  1

  0
LINE
  5
1FC9
330
1FC6
100
AcDbEntity
  8
3
 62
     0
370
    -2
100
AcDbLine
 10
-5.693088197133477
 20
4.305349289008137
 30
0.0
 11
-5.693088197133477
 21
8.044888690379742
 31
0.0
  0
LINE
  5
1FCA
330
1FC6
100
AcDbEntity
  8
3
 62
     0
370
    -2
100
AcDbLine
 10
-8.414724158014657
 20
6.594463755548902
 30
0.0
 11
-8.414724158014657
 21
8.044888690379742
 31
0.0
  0
LINE
  5
1FCB
330
1FC6
100
AcDbEntity
  8
3
 62
     0
370
    -2
100
AcDbLine
 10
-5.818088197133477
 20
7.982388690379742
 30
0.0
 11
-6.713906177574067
 21
7.982388690379742
 31
0.0
  0
LINE
  5
1FCC
330
1FC6
100
AcDbEntity
  8
3
 62
     0
370
    -2
100
AcDbLine
 10
-8.289724158014657
 20
7.982388690379742
 30
0.0
 11
-7.393906177574066
 21
7.982388690379742
 31
0.0
  0
SOLID
  5
1FCD
330
1FC6
100
AcDbEntity
  8
3
 62
     0
100
AcDbTrace
 10
-5.818088197133477
 20
8.003222023713076
 30
0.0
 11
-5.818088197133477
 21
7.961555357046409
 31
0.0
 12
-5.693088197133477
 22
7.982388690379742
 32
0.0
 13
-5.693088197133477
 23
7.982388690379742
 33
0.0
  0
SOLID
  5
1FCE
330
1FC6
100
AcDbEntity
  8
3
 62
     0
100
AcDbTrace
 10
-8.289724158014657
 20
8.003222023713076
 30
0.0
 11
-8.289724158014657
 21
7.961555357046409
 31
0.0
 12
-8.414724158014657
 22
7.982388690379742
 32
0.0
 13
-8.414724158014657
 23
7.982388690379742
 33
0.0
  0
MTEXT
  5
1FCF
330
1FC6
100
AcDbEntity
  8
3
 62
     0
100
AcDbMText
 10
-7.053906177574067
 20
7.982388690379742
 30
0.0
 40
0.125
 41
0.0
 71
     5
 72
     1
  1
\A1;2.722
  7
SIMPLEX
 73
     1
 44
1.0
1001
ACAD
1000
MTEXTBEGIN
1070
    73
1070
     1
1070
    44
1040
1.0
1070
    74
1070
     0
1000
MTEXTEND
  0
POINT
  5
1FD0
330
1FC6
100
AcDbEntity
  8
Defpoints
 62
     0
100
AcDbPoint
 10
-5.693088197133477
 20
4.242849289008137
 30
0.0
  0
POINT
  5
1FD1
330
1FC6
100
AcDbEntity
  8
Defpoints
 62
     0
100
AcDbPoint
 10
-8.414724158014657
 20
6.531963755548902
 30
0.0
  0
POINT
  5
1FD2
330
1FC6
100
AcDbEntity
  8
Defpoints
 62
     0
100
AcDbPoint
 10
-8.414724158014657
 20
7.982388690379742
 30
0.0
  0
ENDBLK
  5
1FC8
330
1FC6
100
AcDbEntity
  8
0
100
AcDbBlockEnd
  0
ENDSEC
  0
SECTION
  2
ENTITIES
  0
LINE
  5
C19
330
17
100
AcDbEntity
  8
3
100
AcDbLine
 10
-12.88416610978986
 20
4.677500692402853
 30
0.0
 11
-12.88416610978986
 21
3.689178140260676
 31
0.0
  0
LINE
  5
C1F
330
17
100
AcDbEntity
  8
3
100
AcDbLine
 10
-11.88416610978986
 20
4.677500692402853
 30
0.0
 11
-11.88416610978986
 21
3.68917814026068
 31
0.0
  0
LINE
  5
C20
330
17
100
AcDbEntity
  8
3
100
AcDbLine
 10
-11.63127895771377
 20
4.064178140260676
 30
0.0
 11
-13.13705326186594
 21
4.064178140260676
 31
0.0
  0
CIRCLE
  5
C22
330
17
100
AcDbEntity
  8
4
100
AcDbCircle
 10
-11.88416610978986
 20
4.064178140260678
 30
0.0
 40
0.0985
  0
LINE
  5
C23
330
17
100
AcDbEntity
  8
3
100
AcDbLine
 10
-12.38416610978986
 20
4.677500692402853
 30
0.0
 11
-12.38416610978986
 21
3.689178140260676
 31
0.0
  0
CIRCLE
  5
C24
330
17
100
AcDbEntity
  8
4
100
AcDbCircle
 10
-12.88416610978986
 20
4.064178140260678
 30
0.0
 40
0.0985
  0
CIRCLE
  5
C63
330
17
100
AcDbEntity
  8
4
100
AcDbCircle
 10
-6.090932301857335
 20
4.064178140260678
 30
0.0
 40
0.0985
  0
CIRCLE
  5
C67
330
17
100
AcDbEntity
  8
4
100
AcDbCircle
 10
-7.090932301857335
 20
4.064178140260678
 30
0.0
 40
0.0985
  0
DIMENSION
  5
CB2
330
17
100
AcDbEntity
  8
3
100
AcDbDimension
  2
*D5
 10
-11.53201021451371
 20
2.898122428574542
 30
0.0
 11
-12.40701021451371
 21
2.898122428574542
 31
0.0
 70
    32
 71
     5
 42
1.749999999999998
  3
STANDARD
100
AcDbAlignedDimension
 13
-13.28201021451371
 23
4.242849289008141
 33
0.0
 14
-11.53201021451371
 24
4.242849289008141
 34
0.0
100
AcDbRotatedDimension
1001
ACAD
1000
DSTYLE
1002
{
1070
    41
1040
0.125
1070
    44
1040
0.0625
1070
    73
1070
     0
1070
    74
1070
     0
1070
    78
1070
     4
1070
   140
1040
0.125
1070
   141
1040
-0.125
1070
   271
1070
     3
1070
   272
1070
     3
1070
   279
1070
     2
1070
   284
1070
     4
1070
   285
1070
     4
1070
   286
1070
     4
1070
   340
1005
1C
1002
}
  0
DIMENSION
  5
CDC
330
17
100
AcDbEntity
  8
3
100
AcDbDimension
  2
*D8
 10
-15.24355169720075
 20
7.320631367557097
 30
0.0
 11
-15.24355169720075
 21
5.511508164248584
 31
0.0
 70
    32
 71
     5
 42
3.618246406617019
  3
STANDARD
100
AcDbAlignedDimension
 13
-13.20105877171201
 23
3.702384960940076
 33
0.0
 14
-12.10861404050216
 24
7.320631367557096
 34
0.0
 50
90.0
100
AcDbRotatedDimension
1001
ACAD
1000
DSTYLE
1002
{
1070
    41
1040
0.125
1070
    44
1040
0.0625
1070
    73
1070
     0
1070
    74
1070
     0
1070
    78
1070
     4
1070
   140
1040
0.125
1070
   141
1040
-0.125
1070
   271
1070
     3
1070
   272
1070
     3
1070
   279
1070
     2
1070
   284
1070
     4
1070
   285
1070
     4
1070
   286
1070
     4
1070
   340
1005
1C
1002
}
  0
LINE
  5
CFA
330
17
100
AcDbEntity
  8
3
100
AcDbLine
 10
-7.215932301857335
 20
4.064178140260678
 30
0.0
 11
-6.965932301857335
 21
4.064178140260678
 31
0.0
  0
LINE
  5
CFB
330
17
100
AcDbEntity
  8
3
100
AcDbLine
 10
-7.090932301857335
 20
3.939178140260678
 30
0.0
 11
-7.090932301857335
 21
4.189178140260678
 31
0.0
  0
LINE
  5
CFC
330
17
100
AcDbEntity
  8
3
100
AcDbLine
 10
-6.215932301857335
 20
4.064178140260678
 30
0.0
 11
-5.965932301857335
 21
4.064178140260678
 31
0.0
  0
LINE
  5
CFD
330
17
100
AcDbEntity
  8
3
100
AcDbLine
 10
-6.090932301857335
 20
3.939178140260678
 30
0.0
 11
-6.090932301857335
 21
4.189178140260678
 31
0.0
  0
LWPOLYLINE
  5
D0F
102
{ACAD_REACTORS
330
1989
102
}
330
17
100
AcDbEntity
  8
4
100
AcDbPolyline
 90
        8
 70
     1
 43
0.0
 10
-5.711864443649329
 20
3.818379660773841
 42
0.1952365020508125
 10
-6.770946426508047
 20
7.276238446244638
 42
0.3387005411206702
 10
-6.919311653862621
 20
7.308919840936677
 10
-8.342551440732242
 20
6.645252228928483
 42
0.5261170668562515
 10
-8.376558816206751
 20
6.442048561412081
 42
-0.2377729554582046
 10
-7.469255118126752
 20
3.843704177939134
 42
0.453102476547979
 10
-7.345324963779486
 20
3.702384960940073
 10
-5.836539639935184
 20
3.702384960940076
 42
0.3932488030777969
  0
LWPOLYLINE
  5
D11
330
17
100
AcDbEntity
  8
4
100
AcDbPolyline
 90
        8
 70
     1
 43
0.0
 10
-13.26323396799786
 20
3.818379660773846
 42
0.3932488030777969
 10
-13.13855877171201
 20
3.702384960940073
 10
-11.62977344786771
 20
3.702384960940076
 42
0.453102476547979
 10
-11.50584329352044
 20
3.843704177939132
 42
-0.2377729554582048
 10
-10.59853959544044
 20
6.442048561412081
 42
0.5261170668562515
 10
-10.63254697091495
 20
6.645252228928483
 10
-12.05578675778457
 20
7.308919840936677
 42
0.3387005411206702
 10
-12.20415198513915
 20
7.276238446244637
 42
0.1952365020508126
  0
LINE
  5
E2B
330
17
100
AcDbEntity
  8
4
100
AcDbLine
 10
0.0
 20
0.0
 30
0.0
 11
-17.0
 21
0.0000000000000018
 31
0.0
  0
LINE
  5
E2C
330
17
100
AcDbEntity
  8
4
100
AcDbLine
 10
-0.0000000000000036
 20
11.0
 30
0.0
 11
-17.0
 21
11.0
 31
0.0
  0
LINE
  5
E2D
330
17
100
AcDbEntity
  8
4
100
AcDbLine
 10
-0.8500000000000047
 20
0.8
 30
0.0
 11
-16.15
 21
0.8000000000000014
 31
0.0
  0
LINE
  5
E2E
330
17
100
AcDbEntity
  8
4
100
AcDbLine
 10
-0.8500000000000047
 20
10.2
 30
0.0
 11
-16.15
 21
10.2
 31
0.0
  0
LINE
  5
E2F
330
17
100
AcDbEntity
  8
4
100
AcDbLine
 10
-17.0
 20
0.0000000000000018
 30
0.0
 11
-17.0
 21
11.0
 31
0.0
  0
LINE
  5
E30
330
17
100
AcDbEntity
  8
4
100
AcDbLine
 10
-16.15
 20
0.8000000000000014
 30
0.0
 11
-16.15
 21
10.2
 31
0.0
  0
TEXT
  5
E31
330
17
100
AcDbEntity
  8
2
100
AcDbText
 10
-16.11318078811653
 20
1.582466231967059
 30
0.0
 40
0.078
  1
5
  7
SIMPLEX
 72
     1
 11
-16.08718078811653
 21
1.582466231967059
 31
0.0
100
AcDbText
  0
LINE
  5
E32
330
17
100
AcDbEntity
  8
3
100
AcDbLine
 10
-16.03765029158694
 20
2.629889485051323
 30
0.0
 11
-16.15
 21
2.629889485051323
 31
0.0
  0
TEXT
  5
E33
330
17
100
AcDbEntity
  8
2
100
AcDbText
 10
-16.11503793097367
 20
3.431604163001542
 30
0.0
 40
0.078
  1
4
  7
SIMPLEX
 72
     1
 11
-16.08718078811653
 21
3.431604163001542
 31
0.0
100
AcDbText
  0
LINE
  5
E34
330
17
100
AcDbEntity
  8
3
100
AcDbLine
 10
-16.03765029158694
 20
4.459778970102643
 30
0.0
 11
-16.15
 21
4.459778970102643
 31
0.0
  0
TEXT
  5
E35
330
17
100
AcDbEntity
  8
2
100
AcDbText
 10
-16.11318078811653
 20
5.280742094036027
 30
0.0
 40
0.078
  1
3
  7
SIMPLEX
 72
     1
 11
-16.08718078811653
 21
5.280742094036027
 31
0.0
100
AcDbText
  0
LINE
  5
E36
330
17
100
AcDbEntity
  8
3
100
AcDbLine
 10
-16.03765029158694
 20
6.289668455153964
 30
0.0
 11
-16.15
 21
6.289668455153964
 31
0.0
  0
TEXT
  5
E37
330
17
100
AcDbEntity
  8
2
100
AcDbText
 10
-16.11318078811653
 20
7.129880025070507
 30
0.0
 40
0.078
  1
2
  7
SIMPLEX
 72
     1
 11
-16.08718078811653
 21
7.129880025070507
 31
0.0
100
AcDbText
  0
LINE
  5
E38
330
17
100
AcDbEntity
  8
3
100
AcDbLine
 10
-16.03765029158694
 20
8.119557940205284
 30
0.0
 11
-16.15
 21
8.119557940205284
 31
0.0
  0
TEXT
  5
E39
330
17
100
AcDbEntity
  8
2
100
AcDbText
 10
-16.09646650240224
 20
8.81091450782913
 30
0.0
 40
0.078
  1
1
  7
SIMPLEX
 72
     1
 11
-16.08718078811653
 21
8.81091450782913
 31
0.0
100
AcDbText
  0
TEXT
  5
E3A
330
17
100
AcDbEntity
  8
2
100
AcDbText
 10
-14.9441873572999
 20
10.08952497318785
 30
0.0
 40
0.078
  1
A
  7
SIMPLEX
 72
     1
 11
-14.91447307158562
 21
10.08952497318785
 31
0.0
100
AcDbText
  0
LINE
  5
E3B
330
17
100
AcDbEntity
  8
3
100
AcDbLine
 10
-13.75135110707452
 20
10.0624474252566
 30
0.0
 11
-13.75135110707452
 21
10.2
 31
0.0
  0
TEXT
  5
E3C
330
17
100
AcDbEntity
  8
2
100
AcDbText
 10
-12.67107651986148
 20
10.08952497318785
 30
0.0
 40
0.078
  1
B
  7
SIMPLEX
 72
     1
 11
-12.64507651986148
 21
10.08952497318785
 31
0.0
100
AcDbText
  0
LINE
  5
E3D
330
17
100
AcDbEntity
  8
3
100
AcDbLine
 10
-11.61346490273209
 20
10.0624474252566
 30
0.0
 11
-11.61346490273208
 21
10.2
 31
0.0
  0
TEXT
  5
E3E
330
17
100
AcDbEntity
  8
2
100
AcDbText
 10
-10.51560607651172
 20
10.08952497318785
 30
0.0
 40
0.078
  1
C
  7
SIMPLEX
 72
     1
 11
-10.48774893365458
 21
10.08952497318785
 31
0.0
100
AcDbText
  0
LINE
  5
E3F
330
17
100
AcDbEntity
  8
3
100
AcDbLine
 10
-9.45090073804968
 20
10.0624474252566
 30
0.0
 11
-9.45090073804968
 21
10.2
 31
0.0
  0
LINE
  5
E40
330
17
100
AcDbEntity
  8
4
100
AcDbLine
 10
-0.0000000000000036
 20
0.0000000000000036
 30
0.0
 11
-0.0000000000000036
 21
11.0
 31
0.0
  0
LINE
  5
E41
330
17
100
AcDbEntity
  8
4
100
AcDbLine
 10
-0.8500000000000047
 20
0.8000000000000023
 30
0.0
 11
-0.8500000000000047
 21
10.2
 31
0.0
  0
LWPOLYLINE
  5
E42
330
17
100
AcDbEntity
  8
4
  6
Continuous
100
AcDbPolyline
 90
      133
 70
     0
 43
0.0
 10
-3.12890105053523
 20
1.731976584213923
 10
-3.159707177721287
 20
1.731976584213923
 10
-3.157537732144781
 20
1.729662508932372
 10
-3.155657545978544
 20
1.72734843365078
 10
-3.154211248927527
 20
1.725034358369188
 10
-3.152909581581646
 20
1.722864912792685
 10
-3.15189717364593
 20
1.720695467216224
 10
-3.15117402512045
 20
1.71852602163972
 10
-3.150595506300049
 20
1.716211946358169
 10
-3.150450876594959
 20
1.713897871076579
 10
-3.150450876594959
 20
1.634930052092523
 10
-3.153054211286728
 20
1.635219311502743
 10
-3.155802175683627
 20
1.635653200618054
 10
-3.158405510375397
 20
1.636087089733321
 10
-3.161153474772262
 20
1.636665608553719
 10
-3.163756809464028
 20
1.637388757079246
 10
-3.166504773860931
 20
1.638111905604735
 10
-3.169108108552745
 20
1.638979683835311
 10
-3.171711443244515
 20
1.639847462065886
 10
-3.174170148231194
 20
1.640859870001594
 10
-3.176773482922964
 20
1.642016907642388
 10
-3.179087558204556
 20
1.643173945283186
 10
-3.181546263191236
 20
1.644475612629071
 10
-3.183860338472829
 20
1.645921909680045
 10
-3.186174413754422
 20
1.647368206731061
 10
-3.188343859330881
 20
1.649103763192254
 10
-3.190368675202253
 20
1.650839319653406
 10
-3.194129047534821
 20
1.654599691986014
 10
-3.197455530752118
 20
1.658793953433889
 10
-3.200348124854066
 20
1.663277474291944
 10
-3.202951459545881
 20
1.668194884265304
 10
-3.204976275417251
 20
1.673112294238666
 10
-3.206711831878446
 20
1.678463593327339
 10
-3.207868869519241
 20
1.683814892415965
 10
-3.208592018044728
 20
1.689310821209725
 10
-3.209025907159997
 20
1.694806750003486
 10
-3.209025907159997
 20
1.700447308502378
 10
-3.208447388339638
 20
1.705943237296138
 10
-3.207579610109021
 20
1.711439166089897
 10
-3.206277942763136
 20
1.716935094883658
 10
-3.204397756596853
 20
1.722141764267198
 10
-3.202228311020391
 20
1.727203803945691
 10
-3.199624976328625
 20
1.731976584213923
 10
-3.239108885820608
 20
1.731976584213923
 10
-3.242001479922556
 20
1.722720283087595
 10
-3.244026295793971
 20
1.713753241371448
 10
-3.245038703729675
 20
1.704786199655343
 10
-3.245183333434765
 20
1.696253047054503
 10
-3.244604814614368
 20
1.687864524158753
 10
-3.243013887858261
 20
1.679909890378311
 10
-3.240699812576671
 20
1.67224451600809
 10
-3.237662588769633
 20
1.664868401048005
 10
-3.233757586731978
 20
1.65807080490836
 10
-3.229274065873886
 20
1.651562468178935
 10
-3.224067396490343
 20
1.645632650269865
 10
-3.21828220828636
 20
1.640136721476106
 10
-3.211773871556939
 20
1.635363941207833
 10
-3.204687016007073
 20
1.631025050054868
 10
-3.197166271341941
 20
1.627409307427391
 10
-3.189067007856372
 20
1.624372083620313
 10
-3.186752932574776
 20
1.623648935094825
 10
-3.184294227588096
 20
1.623070416274428
 10
-3.181835522601416
 20
1.622491897454032
 10
-3.179232187909647
 20
1.621913378633633
 10
-3.176773482922964
 20
1.621479489518323
 10
-3.174170148231194
 20
1.621190230108146
 10
-3.171711443244515
 20
1.620756340992836
 10
-3.169108108552745
 20
1.620611711287747
 10
-3.166649403566061
 20
1.620322451877568
 10
-3.164190698579381
 20
1.620177822172438
 10
-3.161731993592701
 20
1.620033192467349
 10
-3.159417918311106
 20
1.620033192467349
 10
-3.157103843029517
 20
1.620033192467349
 10
-3.154934397453011
 20
1.620033192467349
 10
-3.152764951876508
 20
1.620177822172438
 10
-3.150740136005178
 20
1.620322451877568
 10
-3.150740136005178
 20
1.604991703137043
 10
-3.166504773860931
 20
1.596169291126026
 10
-3.169686627373098
 20
1.595446142600539
 10
-3.172868480885313
 20
1.595012253485229
 10
-3.176050334397476
 20
1.595012253485229
 10
-3.178942928499466
 20
1.595446142600539
 10
-3.181980152306508
 20
1.596024661420935
 10
-3.184728116703403
 20
1.5970370693566
 10
-3.187331451395176
 20
1.598338736702529
 10
-3.189934786086986
 20
1.599785033753504
 10
-3.192393491073669
 20
1.601520590214698
 10
-3.194707566355261
 20
1.60340077638098
 10
-3.196877011931721
 20
1.605570221957441
 10
-3.198901827803093
 20
1.607739667533943
 10
-3.200782013969419
 20
1.610198372520625
 10
-3.202517570430568
 20
1.612657077507306
 10
-3.204108497186633
 20
1.615115782493987
 10
-3.205410164532516
 20
1.617719117185755
 10
-3.233179067911538
 20
1.604847073431954
 10
-3.231877400565653
 20
1.602388368445274
 10
-3.230286473809591
 20
1.59992966345859
 10
-3.22869554705349
 20
1.597326328766821
 10
-3.226959990592294
 20
1.594867623780141
 10
-3.224935174720922
 20
1.592408918793459
 10
-3.222910358849548
 20
1.589950213806779
 10
-3.220596283567957
 20
1.587780768230276
 10
-3.21828220828636
 20
1.585466692948684
 10
-3.215823503299683
 20
1.58344187707731
 10
-3.213075538902824
 20
1.581561690911029
 10
-3.210182944800791
 20
1.579970764154924
 10
-3.207290350698843
 20
1.578379837398862
 10
-3.204108497186633
 20
1.577222799758065
 10
-3.200926643674509
 20
1.576210391822358
 10
-3.197455530752118
 20
1.575487243296871
 10
-3.193839788124644
 20
1.575197983886693
 10
-3.192682750483846
 20
1.575197983886693
 10
-3.191525712843048
 20
1.57534261359178
 10
-3.190224045497167
 20
1.575487243296871
 10
-3.188922378151278
 20
1.575631873001958
 10
-3.187765340510483
 20
1.57592113241218
 10
-3.186463673164602
 20
1.576355021527489
 10
-3.185306635523803
 20
1.576788910642756
 10
-3.184149597883006
 20
1.577222799758065
 10
-3.121524935575187
 20
1.61410337455828
 10
-3.120078638524173
 20
1.615260412199075
 10
-3.119066230588503
 20
1.61685133895518
 10
-3.118632341473154
 20
1.618731525121464
 10
-3.118487711768064
 20
1.620756340992836
 10
-3.118487711768064
 20
1.717658243409146
 10
-3.118776971178283
 20
1.720984726626401
 10
-3.119355489998681
 20
1.724021950433479
 10
-3.120367897934393
 20
1.726480655420161
 10
-3.121669565280273
 20
1.728505471291576
 10
-3.123260492036336
 20
1.72995176834255
 10
-3.125140678202664
 20
1.731108805983344
 10
-3.127020864368901
 20
1.731687324803744
 10
-3.12890105053523
 20
1.731976584213923
  0
TEXT
  5
E43
330
17
100
AcDbEntity
  8
3
100
AcDbText
 10
-4.109226713344752
 20
1.172721701144442
 30
0.0
 40
0.0581453098711065
  1
DWG/PART NO/032041
  7
SIMPLEX
 72
     1
 11
-3.610838343020982
 21
1.172721701144442
 31
0.0
100
AcDbText
  0
TEXT
  5
E44
330
17
100
AcDbEntity
  8
3
100
AcDbText
 10
-4.822925663115831
 20
1.311149142688047
 30
0.0
 40
0.0781522982138528
  1
WURLITZER SWELL SHOE CONTACT & FRICTION BLOCK, SHORT STROKE
 41
0.9
  7
SIMPLEX
 72
     1
 11
-2.913776663891713
 21
1.311149142688047
 31
0.0
100
AcDbText
  0
LINE
  5
E45
330
17
100
AcDbEntity
  8
0
100
AcDbLine
 10
-4.978092582724563
 20
1.506851047390889
 30
0.0
 11
-0.8500000000000014
 21
1.506851047390889
 31
0.0
  0
LINE
  5
E46
330
17
100
AcDbEntity
  8
0
100
AcDbLine
 10
-4.978092582724563
 20
1.268913789283077
 30
0.0
 11
-0.8500000000000014
 21
1.268913789283077
 31
0.0
  0
LINE
  5
E47
330
17
100
AcDbEntity
  8
0
100
AcDbLine
 10
-4.978092582724522
 20
1.134922461148745
 30
0.0
 11
-2.251515304746098
 21
1.134922461148745
 31
0.0
  0
LINE
  5
E48
330
17
100
AcDbEntity
  8
0
100
AcDbLine
 10
-5.994072459504663
 20
1.816000699999956
 30
0.0
 11
-0.8500000000000047
 21
1.816000699999956
 31
0.0
  0
LINE
  5
E4A
330
17
100
AcDbEntity
  8
0
100
AcDbLine
 10
-5.994072459504663
 20
1.581522982138519
 30
0.0
 11
-4.978092582724522
 21
1.581522982138519
 31
0.0
  0
LINE
  5
E4B
330
17
100
AcDbEntity
  8
0
100
AcDbLine
 10
-5.994072459504663
 20
1.698751429459289
 30
0.0
 11
-4.978092582724522
 21
1.698751429459289
 31
0.0
  0
TEXT
  5
E4C
330
17
100
AcDbEntity
  8
3
100
AcDbText
 10
-5.963501810407906
 20
1.617010761484773
 30
0.0
 40
0.0495371109926942
  1
DIMENSIONS ARE IN INCHES
 41
0.9163641132346455
  7
SIMPLEX
 72
     5
 11
-5.010227163880351
 21
1.617010761484773
 31
0.0
100
AcDbText
  0
TEXT
  5
E4D
330
17
100
AcDbEntity
  8
3
100
AcDbText
 10
-5.963501810407906
 20
1.737244711247942
 30
0.0
 40
0.0495371109926942
  1
UNLESS OTHERWISE SPECIFIED
 41
0.8436671689696847
  7
SIMPLEX
 72
     5
 11
-5.010227163880351
 21
1.737244711247942
 31
0.0
100
AcDbText
  0
LINE
  5
E4E
330
17
100
AcDbEntity
  8
0
100
AcDbLine
 10
-5.994072459504663
 20
0.9407304289564748
 30
0.0
 11
-4.978092582724522
 21
0.9407304289564748
 31
0.0
  0
TEXT
  5
E4F
330
17
100
AcDbEntity
  8
3
100
AcDbText
 10
-5.845675975280994
 20
1.073557224116981
 30
0.0
 40
0.0618196890168171
  1
ANGLES %%P 1/2%%D
  7
SIMPLEX
 72
     1
 11
-5.482117327967808
 21
1.073557224116981
 31
0.0
100
AcDbText
  0
TEXT
  5
E50
330
17
100
AcDbEntity
  8
3
100
AcDbText
 10
-5.935461714091133
 20
1.17953383386011
 30
0.0
 40
0.0618196890168171
  1
FRACTIONS %%P 1/32
  7
SIMPLEX
 72
     1
 11
-5.482117327967808
 21
1.17953383386011
 31
0.0
100
AcDbText
  0
LINE
  5
E52
330
17
100
AcDbEntity
  8
4
100
AcDbLine
 10
-5.994072459504663
 20
1.816000699999956
 30
0.0
 11
-5.994072459504663
 21
0.7999999999999572
 31
0.0
  0
LWPOLYLINE
  5
E53
330
17
100
AcDbEntity
  8
4
  6
Continuous
100
AcDbPolyline
 90
       61
 70
     0
 43
0.0
 10
-4.549038479040333
 20
1.66400062281743
 10
-4.5448442175925
 20
1.66428988222765
 10
-4.540794585849712
 20
1.664868401048049
 10
-4.537178843222282
 20
1.665736179278623
 10
-4.53385236000498
 20
1.666893216919421
 10
-4.530959765902988
 20
1.668339513970392
 10
-4.528211801506087
 20
1.669930440726498
 10
-4.525753096519409
 20
1.671810626892781
 10
-4.523583650942946
 20
1.673980072469244
 10
-4.521703464776666
 20
1.676294147750834
 10
-4.520112538020605
 20
1.678752852737515
 10
-4.518810870674673
 20
1.681356187429285
 10
-4.517798462739007
 20
1.684248781531275
 10
-4.516930684508394
 20
1.687141375633266
 10
-4.516352165688036
 20
1.690178599440345
 10
-4.516062906277773
 20
1.693360452952513
 10
-4.515918276572683
 20
1.696686936169811
 10
-4.516062906277773
 20
1.699724159976891
 10
-4.516641425098214
 20
1.702761383783971
 10
-4.517364573623698
 20
1.705653977885918
 10
-4.518521611264495
 20
1.708546571987908
 10
-4.51982327861038
 20
1.711294536384766
 10
-4.52141420536649
 20
1.713897871076579
 10
-4.523294391532726
 20
1.716356576063261
 10
-4.525319207404141
 20
1.718670651344853
 10
-4.527633282685733
 20
1.720695467216224
 10
-4.530091987672412
 20
1.722575653382508
 10
-4.532550692659096
 20
1.724166580138613
 10
-4.535298657055957
 20
1.725612877189584
 10
-4.538191251157943
 20
1.726769914830383
 10
-4.541083845259933
 20
1.727493063355869
 10
-4.544121069066973
 20
1.728071582176267
 10
-4.547158292874093
 20
1.728216211881355
 10
-4.648399086443364
 20
1.728216211881355
 10
-4.646952789392353
 20
1.727059174240561
 10
-4.645651122046461
 20
1.725902136599764
 10
-4.644349454700537
 20
1.724600469253879
 10
-4.64319241705974
 20
1.723443431613082
 10
-4.642035379418988
 20
1.722286393972288
 10
-4.64087834177819
 20
1.720840096921313
 10
-4.639865933842528
 20
1.719393799870339
 10
-4.638853525906821
 20
1.717658243409146
 10
-4.637407228855844
 20
1.714476389896979
 10
-4.63625019121505
 20
1.71071601756441
 10
-4.635527042689516
 20
1.707100274936935
 10
-4.63523778327934
 20
1.704207680834945
 10
-4.635093153574255
 20
1.574185575950986
 10
-4.600237394645365
 20
1.604702443726865
 10
-4.600237394645365
 20
1.665013030753136
 10
-4.584906645904926
 20
1.665157660458225
 10
-4.532695322364186
 20
1.578669096809039
 10
-4.487715484078396
 20
1.578379837398862
 10
-4.490463448475298
 20
1.579970764154924
 10
-4.493211412872156
 20
1.581850950321249
 10
-4.495814747563971
 20
1.583731136487533
 10
-4.498418082255741
 20
1.585900582063994
 10
-4.500876787242417
 20
1.587925397935364
 10
-4.503190862524011
 20
1.590239473216955
 10
-4.505504937805606
 20
1.592553548498549
 10
-4.507819013087196
 20
1.595012253485229
 10
-4.549038479040333
 20
1.66400062281743
  0
TEXT
  5
E54
330
17
100
AcDbEntity
  8
3
100
AcDbText
 10
-4.944725071804722
 20
1.048988710554689
 30
0.0
 40
0.0390761491069264
  1
MAT'L DESCRIPTION:
  7
SIMPLEX
100
AcDbText
  0
LINE
  5
E56
330
17
100
AcDbEntity
  8
0
100
AcDbLine
 10
-4.978092582724522
 20
0.7999999999999572
 30
0.0
 11
-4.978092582724522
 21
1.815979876780058
 31
0.0
  0
TEXT
  5
E57
330
17
100
AcDbEntity
  8
3
100
AcDbText
 10
-4.938493983440753
 20
1.186077063341498
 30
0.0
 40
0.0390761491069264
  1
FILE PATH:
  7
SIMPLEX
100
AcDbText
  0
TEXT
  5
E58
330
17
100
AcDbEntity
  8
3
100
AcDbText
 10
-5.817709925487672
 20
0.9675806143738503
 30
0.0
 40
0.0618196890168171
  1
HOLES %%P .005
  7
SIMPLEX
 72
     1
 11
-5.482117327967808
 21
0.9675806143738503
 31
0.0
100
AcDbText
  0
TEXT
  5
E59
330
17
100
AcDbEntity
  8
3
100
AcDbText
 10
-5.727049110551731
 20
0.8780150085737695
 30
0.0
 40
0.0420373885314357
  1
DO NOT SCALE
  7
SIMPLEX
 72
     1
 11
-5.490839022613188
 21
0.8780150085737695
 31
0.0
100
AcDbText
  0
TEXT
  5
E5A
330
17
100
AcDbEntity
  8
3
100
AcDbText
 10
-5.76308115786439
 20
0.8181221239476908
 30
0.0
 40
0.0420373885314357
  1
READ ALL NOTES
  7
SIMPLEX
 72
     1
 11
-5.490839022613188
 21
0.8181221239476908
 31
0.0
100
AcDbText
  0
TEXT
  5
E5C
330
17
100
AcDbEntity
  8
3
100
AcDbText
 10
-5.769137312688744
 20
1.487547199255824
 30
0.0
 40
0.0618196890168171
  1
TOLERANCES
  7
SIMPLEX
 72
     1
 11
-5.482117327967808
 21
1.487547199255824
 31
0.0
100
AcDbText
  0
TEXT
  5
E5D
330
17
100
AcDbEntity
  8
3
100
AcDbText
 10
-5.738227468180336
 20
1.39148705334633
 30
0.0
 40
0.0618196890168171
  1
.XX %%P .010
  7
SIMPLEX
 72
     1
 11
-5.482117327967808
 21
1.39148705334633
 31
0.0
100
AcDbText
  0
TEXT
  5
E5E
330
17
100
AcDbEntity
  8
3
100
AcDbText
 10
-5.810350438699956
 20
1.285510443603198
 30
0.0
 40
0.0618196890168171
  1
.XXX %%P .005 
  7
SIMPLEX
 72
     1
 11
-5.482117327967808
 21
1.285510443603198
 31
0.0
100
AcDbText
  0
LWPOLYLINE
  5
E60
330
17
100
AcDbEntity
  8
4
  6
Continuous
100
AcDbPolyline
 90
       59
 70
     0
 43
0.0
 10
-4.748896730555389
 20
1.687719894453663
 10
-4.734144500635307
 20
1.699001011451361
 10
-4.73183042535371
 20
1.698856381746273
 10
-4.729660979777211
 20
1.698567122336095
 10
-4.727491534200743
 20
1.697988603515696
 10
-4.725466718329374
 20
1.6974100846953
 10
-4.723297272752873
 20
1.696542306464681
 10
-4.721272456881457
 20
1.695529898529015
 10
-4.719392270715217
 20
1.69437286088822
 10
-4.717512084548893
 20
1.693071193542335
 10
-4.715776528087739
 20
1.691769526196408
 10
-4.714040971626545
 20
1.690323229145433
 10
-4.712305415165348
 20
1.68887693209446
 10
-4.710714488409287
 20
1.687286005338354
 10
-4.709268191358273
 20
1.685695078582291
 10
-4.707821894307254
 20
1.684104151826186
 10
-4.706520226961373
 20
1.682657854775214
 10
-4.705363189320618
 20
1.681066928019109
 10
-4.701313557577832
 20
1.674703220994772
 10
-4.698131704065661
 20
1.668050254560215
 10
-4.69581762878407
 20
1.66096339901035
 10
-4.694226702027967
 20
1.653731913755396
 10
-4.6932142940923
 20
1.646355798795354
 10
-4.692780404976993
 20
1.638835054130221
 10
-4.692491145566815
 20
1.631314309465089
 10
-4.692635775271906
 20
1.623793564799917
 10
-4.69292503468208
 20
1.619888562762261
 10
-4.693648183207613
 20
1.616128190429694
 10
-4.694805220848408
 20
1.612512447802217
 10
-4.696251517899383
 20
1.609041334879828
 10
-4.697987074360574
 20
1.605714851662573
 10
-4.700156519937035
 20
1.60253299815036
 10
-4.702470595218628
 20
1.599640404048414
 10
-4.705073929910398
 20
1.596892439651514
 10
-4.707966524012388
 20
1.594433734664831
 10
-4.71085911811438
 20
1.59211965938324
 10
-4.714040971626545
 20
1.590094843511868
 10
-4.717222825138716
 20
1.588214657345584
 10
-4.720404678650924
 20
1.586623730589478
 10
-4.723731161868136
 20
1.585466692948684
 10
-4.727057645085436
 20
1.584454285013019
 10
-4.730239498597645
 20
1.583731136487533
 10
-4.732119684763889
 20
1.583875766192621
 10
-4.733999870930212
 20
1.584020395897709
 10
-4.73588005709645
 20
1.584454285013019
 10
-4.737615613557689
 20
1.585032803833416
 10
-4.739351170018841
 20
1.585755952358904
 10
-4.740942096774946
 20
1.586623730589478
 10
-4.742533023531051
 20
1.587780768230276
 10
-4.743834690876936
 20
1.58893780587107
 10
-4.745280987927912
 20
1.590384102922089
 10
-4.746293395863619
 20
1.591975029678151
 10
-4.747161174094195
 20
1.593710586139344
 10
-4.747884322619681
 20
1.595590772305629
 10
-4.748318211734993
 20
1.597470958471911
 10
-4.748607471145212
 20
1.599495774343284
 10
-4.748896730555389
 20
1.601520590214698
 10
-4.748896730555389
 20
1.603545406086069
 10
-4.748896730555389
 20
1.687719894453663
  0
LWPOLYLINE
  5
E61
330
17
100
AcDbEntity
  8
4
  6
Continuous
100
AcDbPolyline
 90
       83
 70
     0
 43
0.0
 10
-4.690177070285222
 20
1.712596203730694
 10
-4.692491145566815
 20
1.714765649307155
 10
-4.694805220848408
 20
1.716935094883658
 10
-4.697119296129957
 20
1.718959910755031
 10
-4.699578001116637
 20
1.720840096921313
 10
-4.702181335808449
 20
1.722431023677418
 10
-4.705073929910398
 20
1.723877320728393
 10
-4.708255783422606
 20
1.725178988074277
 10
-4.711871526050084
 20
1.726046766304895
 10
-4.779268968626175
 20
1.68873230238937
 10
-4.779558228036353
 20
1.592553548498549
 10
-4.779413598331269
 20
1.590962621742487
 10
-4.779124338921092
 20
1.58922706528129
 10
-4.778545820100648
 20
1.587780768230276
 10
-4.777822671575203
 20
1.5863344711793
 10
-4.776954893344586
 20
1.585032803833416
 10
-4.775942485408879
 20
1.583731136487533
 10
-4.77478544776808
 20
1.582718728551824
 10
-4.7734837804222
 20
1.581706320616118
 10
-4.771314334845692
 20
1.580404653270233
 10
-4.769000259564148
 20
1.579247615629436
 10
-4.766686184282555
 20
1.578235207693771
 10
-4.764227479295874
 20
1.577367429463154
 10
-4.761768774309191
 20
1.576788910642756
 10
-4.759310069322512
 20
1.576210391822358
 10
-4.756706734630738
 20
1.575776502707091
 10
-4.754103399938927
 20
1.57534261359178
 10
-4.75150006524716
 20
1.575197983886693
 10
-4.748896730555389
 20
1.575053354181561
 10
-4.746293395863619
 20
1.575053354181561
 10
-4.74354543146676
 20
1.575197983886693
 10
-4.740942096774946
 20
1.57534261359178
 10
-4.738338762083134
 20
1.575631873001958
 10
-4.735735427391363
 20
1.57592113241218
 10
-4.733132092699597
 20
1.576355021527489
 10
-4.730094868892518
 20
1.576788910642756
 10
-4.727057645085436
 20
1.577512059168243
 10
-4.72416505098349
 20
1.578235207693771
 10
-4.721272456881457
 20
1.579102985924348
 10
-4.718379862779509
 20
1.580115393860054
 10
-4.715487268677563
 20
1.581272431500851
 10
-4.712739304280621
 20
1.582574098846736
 10
-4.709991339883756
 20
1.583875766192621
 10
-4.707388005191989
 20
1.585322063243595
 10
-4.70464004079513
 20
1.586912989999699
 10
-4.702181335808449
 20
1.588648546460894
 10
-4.699578001116637
 20
1.590384102922089
 10
-4.697119296129957
 20
1.592264289088371
 10
-4.694805220848408
 20
1.594144475254654
 10
-4.692491145566815
 20
1.596169291126026
 10
-4.690177070285222
 20
1.598194106997399
 10
-4.686561327657744
 20
1.601954479329964
 10
-4.683234844440447
 20
1.60585948136766
 10
-4.680052990928277
 20
1.609909113110404
 10
-4.677305026531374
 20
1.61424800426341
 10
-4.674701691839604
 20
1.618876154826554
 10
-4.672387616558014
 20
1.623504305389738
 10
-4.670507430391776
 20
1.62827708565801
 10
-4.668771873930533
 20
1.633194495631371
 10
-4.667470206584655
 20
1.638111905604735
 10
-4.666457798648988
 20
1.643318574988273
 10
-4.665734650123503
 20
1.648380614666725
 10
-4.66530076100819
 20
1.653587284050308
 10
-4.665156131303106
 20
1.658649323728758
 10
-4.665445390713323
 20
1.66385599311234
 10
-4.666023909533682
 20
1.66906266249588
 10
-4.666891687764297
 20
1.674124702174372
 10
-4.667614836289782
 20
1.676872666571234
 10
-4.668337984815273
 20
1.679620630968132
 10
-4.669205763045886
 20
1.682368595364994
 10
-4.670218170981551
 20
1.684971930056764
 10
-4.671375208622349
 20
1.687575264748575
 10
-4.672676875968234
 20
1.690178599440345
 10
-4.673978543314163
 20
1.692637304427026
 10
-4.675424840365137
 20
1.695096009413706
 10
-4.677015767121201
 20
1.697554714400388
 10
-4.678751323582392
 20
1.69986878968198
 10
-4.680486880043587
 20
1.702182864963574
 10
-4.68222243650478
 20
1.704352310540033
 10
-4.684102622671066
 20
1.706521756116536
 10
-4.686127438542438
 20
1.708546571987908
 10
-4.688152254413811
 20
1.71057138785928
 10
-4.690177070285222
 20
1.712596203730694
  0
LWPOLYLINE
  5
E62
330
17
100
AcDbEntity
  8
4
  6
Continuous
100
AcDbPolyline
 90
       21
 70
     0
 43
0.0
 10
-4.87692607795916
 20
1.771701683024874
 10
-4.87692607795916
 20
1.601872722709719
 10
-4.870287022837363
 20
1.536015666992772
 10
-4.862403144880254
 20
1.601872722709719
 10
-4.862403144880254
 20
1.771405296635502
 10
-4.862580976713847
 20
1.7738356650283
 10
-4.863055194936851
 20
1.775969647031728
 10
-4.863766522271339
 20
1.77774796536793
 10
-4.864655681439423
 20
1.779229897314756
 10
-4.865781949719028
 20
1.78035616559436
 10
-4.867026772554371
 20
1.78118604748455
 10
-4.86833087266757
 20
1.781660265707555
 10
-4.869634972780761
 20
1.781838097541146
 10
-4.870998350171848
 20
1.781719542985405
 10
-4.872302450285046
 20
1.781245324762441
 10
-4.873547273120389
 20
1.780415442872209
 10
-4.874673541399953
 20
1.779348451870498
 10
-4.875562700568075
 20
1.777925797201561
 10
-4.876274027902521
 20
1.776147478865359
 10
-4.876748246125528
 20
1.774072774139784
 10
-4.87692607795916
 20
1.771701683024874
  0
LWPOLYLINE
  5
E63
330
17
100
AcDbEntity
  8
4
  6
Continuous
100
AcDbPolyline
 90
       21
 70
     0
 43
0.0
 10
-4.901587736449832
 20
1.74742597861269
 10
-4.901587736449832
 20
1.601931999987611
 10
-4.89429663127148
 20
1.536015666992772
 10
-4.886768416981594
 20
1.601635613598238
 10
-4.886768416981594
 20
1.747959474113548
 10
-4.886946248815226
 20
1.750330565228455
 10
-4.887420467038193
 20
1.75234599267614
 10
-4.888131794372686
 20
1.75406503373445
 10
-4.889080230818652
 20
1.755487688403429
 10
-4.890206499098261
 20
1.756495402127251
 10
-4.891451321933561
 20
1.75726600673959
 10
-4.892814699324648
 20
1.757680947684705
 10
-4.894178076715736
 20
1.757799502240446
 10
-4.895541454106822
 20
1.757562393128965
 10
-4.896904831497913
 20
1.757028897628109
 10
-4.898149654333212
 20
1.756199015737875
 10
-4.899275922612815
 20
1.755072747458314
 10
-4.900224359058745
 20
1.753590815511484
 10
-4.900935686393277
 20
1.751871774453134
 10
-4.901409904616239
 20
1.7497970697276
 10
-4.901587736449832
 20
1.74742597861269
  0
LWPOLYLINE
  5
E64
330
17
100
AcDbEntity
  8
4
  6
Continuous
100
AcDbPolyline
 90
       21
 70
     0
 43
0.0
 10
-4.852916469525045
 20
1.757605381194099
 10
-4.852916469525045
 20
1.601872722709719
 10
-4.846277414403285
 20
1.536015666992772
 10
-4.838393536446137
 20
1.601872722709719
 10
-4.838393536446137
 20
1.757308994804723
 10
-4.838571368279771
 20
1.759739363197524
 10
-4.839045586502777
 20
1.761873345200949
 10
-4.839756913837226
 20
1.763651663537151
 10
-4.840646073005347
 20
1.765133595483979
 10
-4.841772341284912
 20
1.766259863763585
 10
-4.843017164120253
 20
1.767089745653815
 10
-4.844321264233453
 20
1.767563963876779
 10
-4.845625364346644
 20
1.767741795710413
 10
-4.846988741737731
 20
1.767623241154671
 10
-4.848292841850931
 20
1.767149022931663
 10
-4.849537664686272
 20
1.766319141041434
 10
-4.850663932965836
 20
1.76525215003972
 10
-4.851553092133957
 20
1.763829495370783
 10
-4.852264419468446
 20
1.762051177034581
 10
-4.852738637691454
 20
1.759976472309046
 10
-4.852916469525045
 20
1.757605381194099
  0
TEXT
  5
E65
330
17
100
AcDbEntity
  8
3
100
AcDbText
 10
-4.936394331473323
 20
1.425218385710798
 30
0.0
 40
0.0390761491069264
  1
NAME:
  7
SIMPLEX
100
AcDbText
  0
LWPOLYLINE
  5
E66
330
17
100
AcDbEntity
  8
4
  6
Continuous
100
AcDbPolyline
 90
       18
 70
     0
 43
0.0
 10
-4.849893328353495
 20
1.605251527548491
 10
-4.849952605631389
 20
1.607800450497033
 10
-4.849952605631389
 20
1.610586482557055
 10
-4.849952605631389
 20
1.613609623728603
 10
-4.849715496519904
 20
1.616869874011591
 10
-4.849300555574789
 20
1.620307956128254
 10
-4.848529950962412
 20
1.623983147356358
 10
-4.847344405404996
 20
1.627836170418136
 10
-4.845625364346644
 20
1.631867025313505
 10
-4.844202709677713
 20
1.628073279529617
 10
-4.843076441398146
 20
1.624338811023625
 10
-4.84224655950792
 20
1.62072289707337
 10
-4.841653786729168
 20
1.617225537678858
 10
-4.841298123061902
 20
1.613846732840085
 10
-4.841179568506202
 20
1.610764314390688
 10
-4.841179568506202
 20
1.607859727774924
 10
-4.841298123061902
 20
1.605251527548491
 10
-4.849893328353495
 20
1.605251527548491
  0
LWPOLYLINE
  5
E67
330
17
100
AcDbEntity
  8
4
  6
Continuous
100
AcDbPolyline
 90
       18
 70
     0
 43
0.0
 10
-4.841416677617683
 20
1.60175416815398
 10
-4.841475954895535
 20
1.600805731708008
 10
-4.841594509451276
 20
1.599857295262036
 10
-4.841890895840652
 20
1.599027413371805
 10
-4.84224655950792
 20
1.598256808759465
 10
-4.842839332286621
 20
1.59754548142502
 10
-4.843550659621108
 20
1.597011985924121
 10
-4.844380541511345
 20
1.596656322256897
 10
-4.845447532513055
 20
1.596478490423264
 10
-4.846455246236877
 20
1.596537767701156
 10
-4.847403682682847
 20
1.596834154090529
 10
-4.848115010017338
 20
1.597367649591386
 10
-4.848707782796085
 20
1.598078976925874
 10
-4.849182001019047
 20
1.598908858816064
 10
-4.849537664686272
 20
1.599798017984186
 10
-4.849774773797796
 20
1.600746454430159
 10
-4.849834051075646
 20
1.60175416815398
 10
-4.841416677617683
 20
1.60175416815398
  0
LWPOLYLINE
  5
E68
330
17
100
AcDbEntity
  8
4
  6
Continuous
100
AcDbPolyline
 90
       18
 70
     0
 43
0.0
 10
-4.865426286051802
 20
1.60175416815398
 10
-4.865485563329652
 20
1.600805731708008
 10
-4.865604117885393
 20
1.599857295262036
 10
-4.865900504274768
 20
1.599027413371805
 10
-4.866256167942033
 20
1.598256808759465
 10
-4.866848940720737
 20
1.59754548142502
 10
-4.867560268055224
 20
1.597011985924121
 10
-4.868390149945462
 20
1.596656322256897
 10
-4.869457140947171
 20
1.596478490423264
 10
-4.870464854670994
 20
1.596537767701156
 10
-4.871413291116964
 20
1.596834154090529
 10
-4.872124618451451
 20
1.597367649591386
 10
-4.872717391230157
 20
1.598078976925874
 10
-4.873191609453164
 20
1.598908858816064
 10
-4.873547273120389
 20
1.599798017984186
 10
-4.873784382231875
 20
1.600746454430159
 10
-4.873843659509719
 20
1.60175416815398
 10
-4.865426286051802
 20
1.60175416815398
  0
LWPOLYLINE
  5
E69
330
17
100
AcDbEntity
  8
4
  6
Continuous
100
AcDbPolyline
 90
       18
 70
     0
 43
0.0
 10
-4.873902936787612
 20
1.605251527548491
 10
-4.873962214065507
 20
1.607800450497033
 10
-4.873962214065507
 20
1.610586482557055
 10
-4.873962214065507
 20
1.613609623728603
 10
-4.873725104954021
 20
1.616869874011591
 10
-4.873310164008863
 20
1.620307956128254
 10
-4.872539559396528
 20
1.623983147356358
 10
-4.87135401383907
 20
1.627836170418136
 10
-4.869634972780761
 20
1.631867025313505
 10
-4.86821231811178
 20
1.628073279529617
 10
-4.867086049832219
 20
1.624338811023625
 10
-4.866256167942033
 20
1.62072289707337
 10
-4.865663395163281
 20
1.617225537678858
 10
-4.865307731496016
 20
1.613846732840085
 10
-4.865189176940276
 20
1.610764314390688
 10
-4.865189176940276
 20
1.607859727774924
 10
-4.865307731496016
 20
1.605251527548491
 10
-4.873902936787612
 20
1.605251527548491
  0
LWPOLYLINE
  5
E6A
330
17
100
AcDbEntity
  8
4
  6
Continuous
100
AcDbPolyline
 90
       18
 70
     0
 43
0.0
 10
-4.899098090779183
 20
1.60501441843701
 10
-4.899157368057032
 20
1.608452500553631
 10
-4.89892025894555
 20
1.612009137226034
 10
-4.898505318000482
 20
1.615565773898397
 10
-4.897912545221731
 20
1.619063133292909
 10
-4.897141940609389
 20
1.62238266085379
 10
-4.896252781441268
 20
1.625346524747445
 10
-4.895245067717445
 20
1.627954724973878
 10
-4.894118799437843
 20
1.629970152421561
 10
-4.893170362991912
 20
1.628014002251726
 10
-4.892221926545896
 20
1.625524356581078
 10
-4.891332767377818
 20
1.62250121540953
 10
-4.89056216276548
 20
1.619122410570801
 10
-4.889910112708881
 20
1.615565773898397
 10
-4.889435894485878
 20
1.611949859948141
 10
-4.889198785374393
 20
1.608393223275781
 10
-4.889198785374393
 20
1.60501441843701
 10
-4.899098090779183
 20
1.60501441843701
  0
LWPOLYLINE
  5
E6B
330
17
100
AcDbEntity
  8
4
  6
Continuous
100
AcDbPolyline
 90
       18
 70
     0
 43
0.0
 10
-4.889317339930133
 20
1.60175416815398
 10
-4.889317339930133
 20
1.600805731708008
 10
-4.889435894485878
 20
1.599857295262036
 10
-4.889732280875249
 20
1.598968136093954
 10
-4.890206499098261
 20
1.598078976925874
 10
-4.890799271876963
 20
1.597308372313493
 10
-4.891629153767193
 20
1.596715599534788
 10
-4.892577590213163
 20
1.596300658589673
 10
-4.893763135770618
 20
1.596182104033933
 10
-4.894948681328074
 20
1.596359935867524
 10
-4.895956395051896
 20
1.596715599534788
 10
-4.896845554220018
 20
1.597249095035645
 10
-4.897616158832356
 20
1.598019699647982
 10
-4.898149654333212
 20
1.598849581538214
 10
-4.898623872556174
 20
1.599738740706294
 10
-4.898860981667701
 20
1.600746454430159
 10
-4.898979536223443
 20
1.60175416815398
 10
-4.889317339930133
 20
1.60175416815398
  0
LINE
  5
E6C
330
17
100
AcDbEntity
  8
0
100
AcDbLine
 10
-4.869781982014572
 20
1.781825314129533
 30
0.0
 11
-4.869781982014572
 21
1.781825314129533
 31
0.0
  0
LWPOLYLINE
  5
E6E
330
17
100
AcDbEntity
  8
4
  6
Continuous
100
AcDbPolyline
 90
       21
 70
     0
 43
0.0
 10
-4.549616997860773
 20
1.696686936169811
 10
-4.550050886976045
 20
1.692203415311716
 10
-4.551352554321925
 20
1.68800915386384
 10
-4.553377370193341
 20
1.684393411236366
 10
-4.556125334590197
 20
1.681211557724195
 10
-4.559451817807494
 20
1.678608223032426
 10
-4.563212190140063
 20
1.676728036866142
 10
-4.567406451587896
 20
1.675570999225349
 10
-4.571745342740906
 20
1.675137110110038
 10
-4.600815913465811
 20
1.675137110110038
 10
-4.600815913465811
 20
1.712306944320473
 10
-4.603708507567755
 20
1.719393799870339
 10
-4.571166823920509
 20
1.719393799870339
 10
-4.56682793276754
 20
1.718959910755031
 10
-4.562633671319665
 20
1.717658243409146
 10
-4.559017928692191
 20
1.715633427537773
 10
-4.555836075180021
 20
1.712885463140871
 10
-4.553232740488255
 20
1.709414350218483
 10
-4.551352554321925
 20
1.705653977885918
 10
-4.550050886976045
 20
1.701315086732953
 10
-4.549616997860773
 20
1.696686936169811
  0
TEXT
  5
E6F
330
17
100
AcDbEntity
  8
3
100
AcDbText
 10
-3.957945799804266
 20
0.8915767529290166
 30
0.0
 40
0.078
  1
MATERIAL: 
  7
SIMPLEX
 72
     1
 11
-3.614374371232838
 21
0.8915767529290166
 31
0.0
100
AcDbText
  0
LWPOLYLINE
  5
E70
330
17
100
AcDbEntity
  8
4
  6
Continuous
100
AcDbPolyline
 90
      213
 70
     0
 43
0.0
 10
-3.82993564242923
 20
1.723009542497814
 10
-3.833262125646448
 20
1.724311209843699
 10
-3.836588608863745
 20
1.725468247484498
 10
-3.839915092081046
 20
1.726480655420161
 10
-3.84338620500339
 20
1.72734843365078
 10
-3.846857317925778
 20
1.727926952471178
 10
-3.850328430848122
 20
1.728505471291576
 10
-3.853799543770513
 20
1.728939360406843
 10
-3.8572706566929
 20
1.729228619817063
 10
-3.860886399320378
 20
1.729373249522153
 10
-3.864357512242765
 20
1.729373249522153
 10
-3.867973254870243
 20
1.729228619817063
 10
-3.871444367792586
 20
1.728939360406843
 10
-3.875060110420065
 20
1.728505471291576
 10
-3.878531223342451
 20
1.728071582176267
 10
-3.882002336264799
 20
1.72734843365078
 10
-3.885473449187188
 20
1.726625285125249
 10
-3.891547896801345
 20
1.724745098958967
 10
-3.897477714710412
 20
1.721997134562109
 10
-3.903118273209262
 20
1.718815281049939
 10
-3.908614202003021
 20
1.714910279012243
 10
-3.913676241681471
 20
1.71057138785928
 10
-3.918449021949747
 20
1.705653977885918
 10
-3.922643283397622
 20
1.700447308502378
 10
-3.926403655730189
 20
1.694951379708618
 10
-3.929440879537267
 20
1.689166191504638
 10
-3.931754954818859
 20
1.683091743890478
 10
-3.933490511280055
 20
1.677017296276321
 10
-3.934213659805538
 20
1.670798218957074
 10
-3.934069030100451
 20
1.664579141637829
 10
-3.933056622164745
 20
1.65836006431858
 10
-3.931031806293328
 20
1.652285616704423
 10
-3.927849952781208
 20
1.646500428500441
 10
-3.927126804255673
 20
1.645632650269865
 10
-3.9262590260251
 20
1.644909501744379
 10
-3.925391247794522
 20
1.64433098292398
 10
-3.924378839858817
 20
1.643752464103583
 10
-3.923366431923109
 20
1.643463204693363
 10
-3.922354023987401
 20
1.643318574988273
 10
-3.921196986346607
 20
1.643318574988273
 10
-3.920039948705808
 20
1.643607834398495
 10
-3.878965112457763
 20
1.651417838473804
 10
-3.876651037176169
 20
1.651851727589114
 10
-3.874336961894581
 20
1.652140986999332
 10
-3.871878256907898
 20
1.6525748761146
 10
-3.869564181626305
 20
1.652719505819731
 10
-3.867105476639626
 20
1.653008765229909
 10
-3.864791401358033
 20
1.653153394934999
 10
-3.86247732607644
 20
1.653153394934999
 10
-3.860018621089761
 20
1.653153394934999
 10
-3.857704545808168
 20
1.653008765229909
 10
-3.855390470526618
 20
1.65286413552482
 10
-3.853076395245025
 20
1.6525748761146
 10
-3.850762319963474
 20
1.652140986999332
 10
-3.848592874386973
 20
1.651562468178935
 10
-3.84627879910538
 20
1.650983949358538
 10
-3.844109353528875
 20
1.650116171127917
 10
-3.841939907952419
 20
1.649248392897344
 10
-3.837022497979051
 20
1.646211169090264
 10
-3.833406755351577
 20
1.641872277937301
 10
-3.830948050364894
 20
1.636810238258806
 10
-3.829501753313881
 20
1.631025050054868
 10
-3.82935712360879
 20
1.62495060244071
 10
-3.830369531544498
 20
1.618731525121464
 10
-3.832394347415871
 20
1.612946336917484
 10
-3.835431571222951
 20
1.607595037828857
 10
-3.83760101679945
 20
1.605136332842174
 10
-3.839770462375954
 20
1.602677627855493
 10
-3.842373797067724
 20
1.600652811984079
 10
-3.844977131759498
 20
1.598772625817795
 10
-3.847725096156352
 20
1.5970370693566
 10
-3.850762319963474
 20
1.595590772305629
 10
-3.853799543770513
 20
1.594578364369922
 10
-3.856981397282718
 20
1.593710586139344
 10
-3.860741769615287
 20
1.593276697024036
 10
-3.864502141947856
 20
1.593276697024036
 10
-3.86811788457533
 20
1.593565956434256
 10
-3.871878256907898
 20
1.594433734664831
 10
-3.875349369830285
 20
1.595446142600539
 10
-3.878965112457763
 20
1.596892439651514
 10
-3.88229159567502
 20
1.598627996112708
 10
-3.885618078892274
 20
1.600652811984079
 10
-3.888799932404488
 20
1.60296688726567
 10
-3.891837156211522
 20
1.60542559225235
 10
-3.894729750313557
 20
1.608173556649254
 10
-3.897477714710412
 20
1.6110661507512
 10
-3.899936419697098
 20
1.61410337455828
 10
-3.902395124683778
 20
1.617285228070491
 10
-3.904564570260279
 20
1.620611711287747
 10
-3.906444756426522
 20
1.623938194505003
 10
-3.93985421830439
 20
1.60875207546965
 10
-3.938118661843198
 20
1.604413184316688
 10
-3.935949216266734
 20
1.600218922868813
 10
-3.933056622164745
 20
1.596458550536203
 10
-3.929730138947448
 20
1.592842807908768
 10
-3.925969766614879
 20
1.589516324691469
 10
-3.921775505167046
 20
1.586479100884391
 10
-3.917291984308953
 20
1.583731136487533
 10
-3.912519204040676
 20
1.581272431500851
 10
-3.907457164362227
 20
1.579247615629436
 10
-3.902250494978687
 20
1.577512059168243
 10
-3.896754566184884
 20
1.576065762117269
 10
-3.891403267096253
 20
1.575197983886693
 10
-3.885907338302498
 20
1.574474835361206
 10
-3.880411409508738
 20
1.574330205656074
 10
-3.875060110420065
 20
1.574619465066295
 10
-3.869708811331395
 20
1.575197983886693
 10
-3.865659179588654
 20
1.576065762117269
 10
-3.861754177550995
 20
1.577222799758065
 10
-3.857849175513293
 20
1.57852446710395
 10
-3.854088803180689
 20
1.580115393860054
 10
-3.850473060553254
 20
1.581995580026338
 10
-3.846857317925778
 20
1.584165025602799
 10
-3.84353083470852
 20
1.5863344711793
 10
-3.840204351491223
 20
1.58893780587107
 10
-3.837167127684146
 20
1.59154114056284
 10
-3.834129903877061
 20
1.594433734664831
 10
-3.831381939480205
 20
1.597470958471911
 10
-3.828778604788436
 20
1.600797441689212
 10
-3.826464529506838
 20
1.604123924906468
 10
-3.824295083930341
 20
1.607595037828857
 10
-3.822414897764057
 20
1.611210780456332
 10
-3.820679341302863
 20
1.614971152788899
 10
-3.819088414546796
 20
1.619165414236774
 10
-3.817931376906002
 20
1.623359675684649
 10
-3.817063598675389
 20
1.62755393713248
 10
-3.816340450149898
 20
1.632037457990576
 10
-3.816051190739678
 20
1.636376349143541
 10
-3.816051190739678
 20
1.640715240296504
 10
-3.816340450149898
 20
1.645054131449469
 10
-3.817063598675389
 20
1.649393022602431
 10
-3.817931376906002
 20
1.653153394934999
 10
-3.819088414546796
 20
1.656769137562475
 10
-3.820534711597773
 20
1.660240250484863
 10
-3.822270268058924
 20
1.663711363407251
 10
-3.824439713635431
 20
1.666748587214331
 10
-3.826898418622111
 20
1.669641181316277
 10
-3.829791012724101
 20
1.67224451600809
 10
-3.832828236531181
 20
1.674413961584551
 10
-3.834129903877061
 20
1.675281739815129
 10
-3.835576200928038
 20
1.676149518045745
 10
-3.837022497979051
 20
1.676872666571234
 10
-3.838468795030069
 20
1.67759581509672
 10
-3.839915092081046
 20
1.678318963622248
 10
-3.841506018837108
 20
1.678897482442604
 10
-3.84295231588808
 20
1.679331371557913
 10
-3.844543242644185
 20
1.679765260673224
 10
-3.84613416940029
 20
1.680199149788531
 10
-3.847725096156352
 20
1.680633038903798
 10
-3.849316022912461
 20
1.680922298314017
 10
-3.850906949668566
 20
1.681211557724195
 10
-3.852497876424628
 20
1.681500817134416
 10
-3.854088803180689
 20
1.681645446839505
 10
-3.855824359641927
 20
1.681934706249683
 10
-3.857415286397991
 20
1.682079335954816
 10
-3.859006213154053
 20
1.682079335954816
 10
-3.860597139910201
 20
1.682079335954816
 10
-3.862188066666263
 20
1.682223965659902
 10
-3.863778993422328
 20
1.682223965659902
 10
-3.86536992017843
 20
1.682223965659902
 10
-3.866960846934535
 20
1.682368595364994
 10
-3.86869640339573
 20
1.682368595364994
 10
-3.870431959856921
 20
1.682368595364994
 10
-3.872167516318075
 20
1.682368595364994
 10
-3.873903072779269
 20
1.682223965659902
 10
-3.875927888650643
 20
1.682079335954816
 10
-3.877808074816968
 20
1.681934706249683
 10
-3.879832890688341
 20
1.681790076544595
 10
-3.882002336264799
 20
1.681500817134416
 10
-3.884171781841303
 20
1.681066928019109
 10
-3.886485857122895
 20
1.680633038903798
 10
-3.919606059590544
 20
1.674558591289641
 10
-3.920473837821158
 20
1.67759581509672
 10
-3.920907726936426
 20
1.68048840919871
 10
-3.920763097231343
 20
1.683525633005787
 10
-3.920329208116033
 20
1.686418227107778
 10
-3.919316800180368
 20
1.689310821209725
 10
-3.918159762539569
 20
1.692058785606628
 10
-3.916424206078373
 20
1.694806750003486
 10
-3.914544019912092
 20
1.697265454990168
 10
-3.91237457433559
 20
1.699579530271761
 10
-3.909915869348906
 20
1.701893605553352
 10
-3.907312534657136
 20
1.703773791719636
 10
-3.90441994055515
 20
1.705509348180828
 10
-3.90138271674807
 20
1.706955645231803
 10
-3.89834549294099
 20
1.70825731257773
 10
-3.895163639428821
 20
1.709125090808304
 10
-3.891837156211522
 20
1.709703609628705
 10
-3.888944562109575
 20
1.709848239333793
 10
-3.885907338302498
 20
1.709848239333793
 10
-3.883014744200508
 20
1.709558979923616
 10
-3.880122150098556
 20
1.709125090808304
 10
-3.877229555996524
 20
1.708546571987908
 10
-3.874336961894581
 20
1.707678793757334
 10
-3.87158899749772
 20
1.706666385821625
 10
-3.868841033100821
 20
1.705509348180828
 10
-3.866093068703917
 20
1.704207680834945
 10
-3.863345104307056
 20
1.702761383783928
 10
-3.860741769615287
 20
1.701315086732953
 10
-3.858138434923517
 20
1.699579530271761
 10
-3.855679729936838
 20
1.697843973810565
 10
-3.853221024950157
 20
1.696108417349415
 10
-3.850762319963474
 20
1.69422823118313
 10
-3.848448244681883
 20
1.692348045016805
 10
-3.810989151061227
 20
1.709992869038881
 10
-3.813013966932643
 20
1.712017684910295
 10
-3.815183412509102
 20
1.714042500781668
 10
-3.817352858085563
 20
1.715922686947949
 10
-3.819811563072246
 20
1.717513613704054
 10
-3.822270268058924
 20
1.719104540460119
 10
-3.824728973045607
 20
1.720550837511136
 10
-3.827332307737417
 20
1.721852504857021
 10
-3.82993564242923
 20
1.723009542497814
  0
LWPOLYLINE
  5
E71
330
17
100
AcDbEntity
  8
4
  6
Continuous
100
AcDbPolyline
 90
        5
 70
     0
 43
0.0
 10
-4.243770187830193
 20
1.654455062280884
 10
-4.286146691424209
 20
1.681500817134416
 10
-4.286146691424209
 20
1.655033581101281
 10
-4.243625558125106
 20
1.632182087695665
 10
-4.243770187830193
 20
1.654455062280884
  0
LWPOLYLINE
  5
E72
330
17
100
AcDbEntity
  8
4
  6
Continuous
100
AcDbPolyline
 90
      114
 70
     0
 43
0.0
 10
-4.197922571313873
 20
1.578379837398862
 10
-4.199513498069936
 20
1.579681504744746
 10
-4.201104424826045
 20
1.581561690911029
 10
-4.202695351582145
 20
1.584165025602799
 10
-4.204286278338209
 20
1.587346879115008
 10
-4.205732575389183
 20
1.591107251447574
 10
-4.206889613029978
 20
1.595735402010715
 10
-4.207757391260596
 20
1.601086701099389
 10
-4.208335910080953
 20
1.607161148713545
 10
-4.208335910080953
 20
1.70290601348906
 10
-4.20848053978604
 20
1.705509348180828
 10
-4.209059058606483
 20
1.70825731257773
 10
-4.210071466542189
 20
1.71100527697459
 10
-4.211517763593163
 20
1.71360861166636
 10
-4.213397949759443
 20
1.716211946358169
 10
-4.215712025041038
 20
1.718815281049939
 10
-4.218315359732808
 20
1.721273986036623
 10
-4.221352583539886
 20
1.723732691023303
 10
-4.224679066757185
 20
1.725902136599764
 10
-4.228439439089753
 20
1.727926952471178
 10
-4.232633700537583
 20
1.729662508932372
 10
-4.236972591690594
 20
1.731253435688435
 10
-4.241890001663954
 20
1.732410473329232
 10
-4.246952041342407
 20
1.733422881264938
 10
-4.252447970136163
 20
1.734001400085336
 10
-4.258233158340103
 20
1.734290659495514
 10
-4.264452235659348
 20
1.734001400085336
 10
-4.270526683273508
 20
1.733133621854717
 10
-4.276456501182575
 20
1.731398065393524
 10
-4.282097059681465
 20
1.729228619817063
 10
-4.287448358770094
 20
1.726336025715073
 10
-4.292655028153634
 20
1.723009542497814
 10
-4.297427808421907
 20
1.719104540460119
 10
-4.301911329280006
 20
1.714765649307155
 10
-4.305960961022743
 20
1.709992869038881
 10
-4.309721333355311
 20
1.70493082936043
 10
-4.312903186867521
 20
1.699579530271761
 10
-4.315506521559291
 20
1.693938971772911
 10
-4.317675967135798
 20
1.68800915386384
 10
-4.319266893891859
 20
1.681934706249683
 10
-4.320279301827568
 20
1.675715628930436
 10
-4.320568561237744
 20
1.6693519219061
 10
-4.320568561237744
 20
1.598772625817795
 10
-4.320857820647964
 20
1.594289104959744
 10
-4.321870228583629
 20
1.590528732627178
 10
-4.323171895929515
 20
1.587346879115008
 10
-4.324907452390752
 20
1.584743544423196
 10
-4.326643008851903
 20
1.582718728551824
 10
-4.328378565313098
 20
1.580983172090631
 10
-4.330114121774292
 20
1.579681504744746
 10
-4.331415789120174
 20
1.57852446710395
 10
-4.300754291639208
 20
1.57852446710395
 10
-4.296704659896466
 20
1.579102985924348
 10
-4.293233546974075
 20
1.580549282975321
 10
-4.290196323166956
 20
1.582718728551824
 10
-4.287592988475186
 20
1.585611322653814
 10
-4.285423542898725
 20
1.588793176165984
 10
-4.283832616142618
 20
1.592264289088371
 10
-4.282820208206913
 20
1.595880031715848
 10
-4.282241689386558
 20
1.599495774343284
 10
-4.281952429976382
 20
1.604702443726865
 10
-4.282675578501822
 20
1.610053742815535
 10
-4.283687986437531
 20
1.615260412199075
 10
-4.284989653783416
 20
1.620322451877568
 10
-4.286725210244608
 20
1.62755393713248
 10
-4.288316137000716
 20
1.634785422387436
 10
-4.289762434051683
 20
1.642016907642388
 10
-4.29120873110266
 20
1.649248392897344
 10
-4.292510398448547
 20
1.656479878152298
 10
-4.293522806384252
 20
1.66385599311234
 10
-4.294390584614872
 20
1.671087478367295
 10
-4.294969103435227
 20
1.678463593327339
 10
-4.295113733140314
 20
1.684538040941495
 10
-4.294679844025051
 20
1.690757118260743
 10
-4.293667436089346
 20
1.6968315658749
 10
-4.292076509333281
 20
1.702761383783971
 10
-4.289762434051683
 20
1.70825731257773
 10
-4.286725210244608
 20
1.713319352256181
 10
-4.282964837912042
 20
1.717658243409146
 10
-4.278192057643772
 20
1.721273986036623
 10
-4.275444093246868
 20
1.722720283087595
 10
-4.27255149914492
 20
1.723732691023303
 10
-4.269514275337839
 20
1.724455839548791
 10
-4.266477051530762
 20
1.724889728664098
 10
-4.263295198018552
 20
1.724889728664098
 10
-4.260113344506424
 20
1.724455839548791
 10
-4.257076120699306
 20
1.723732691023303
 10
-4.254038896892268
 20
1.722720283087595
 10
-4.251290932495365
 20
1.721273986036623
 10
-4.248687597803558
 20
1.719538429575428
 10
-4.246228892816914
 20
1.717368983998925
 10
-4.244204076945543
 20
1.714910279012243
 10
-4.242468520484307
 20
1.712162314615386
 10
-4.241022223433336
 20
1.708980461103216
 10
-4.240009815497629
 20
1.705509348180828
 10
-4.239575926382361
 20
1.701748975848263
 10
-4.239575926382361
 20
1.599061885228015
 10
-4.23943129667727
 20
1.596603180241334
 10
-4.238997407561964
 20
1.594433734664831
 10
-4.238274259036476
 20
1.592264289088371
 10
-4.237406480805859
 20
1.590239473216955
 10
-4.236249443165061
 20
1.588503916755764
 10
-4.234947775819176
 20
1.586768360294611
 10
-4.233501478768204
 20
1.585177433538506
 10
-4.231765922307008
 20
1.583731136487533
 10
-4.22988573614073
 20
1.582574098846736
 10
-4.228005549974444
 20
1.581417061205939
 10
-4.225980734103071
 20
1.580549282975321
 10
-4.223811288526569
 20
1.579826134449834
 10
-4.221641842950062
 20
1.579102985924348
 10
-4.219327767668469
 20
1.578669096809039
 10
-4.217158322092011
 20
1.57852446710395
 10
-4.214844246810461
 20
1.578379837398862
 10
-4.197922571313873
 20
1.578379837398862
  0
LWPOLYLINE
  5
E73
330
17
100
AcDbEntity
  8
4
  6
Continuous
100
AcDbPolyline
 90
      271
 70
     0
 43
0.0
 10
-4.371120971461134
 20
1.670508959546895
 10
-4.373145787332506
 20
1.671665997187693
 10
-4.375170603203923
 20
1.672678405123359
 10
-4.377340048780381
 20
1.673546183353975
 10
-4.379364864651755
 20
1.674413961584551
 10
-4.381534310228256
 20
1.675281739815129
 10
-4.383703755804758
 20
1.675860258635526
 10
-4.385873201381221
 20
1.676583407161055
 10
-4.388042646957681
 20
1.677161925981453
 10
-4.390356722239271
 20
1.67759581509672
 10
-4.392526167815777
 20
1.67788507450694
 10
-4.394984872802456
 20
1.678174333917119
 10
-4.397298948084048
 20
1.678463593327339
 10
-4.399757653070729
 20
1.678608223032426
 10
-4.402216358057414
 20
1.678608223032426
 10
-4.404675063044094
 20
1.678608223032426
 10
-4.407278397735865
 20
1.678463593327339
 10
-4.441411008139218
 20
1.648091355256546
 10
-4.438807673447449
 20
1.648669874076946
 10
-4.436204338755678
 20
1.649248392897344
 10
-4.43360100406387
 20
1.64982691171774
 10
-4.430997669372053
 20
1.65026080083305
 10
-4.428394334680284
 20
1.650694689948316
 10
-4.425790999988513
 20
1.650983949358538
 10
-4.423187665296744
 20
1.651273208768715
 10
-4.420439700899886
 20
1.651417838473804
 10
-4.417836366208116
 20
1.651562468178935
 10
-4.415233031516303
 20
1.651562468178935
 10
-4.412629696824487
 20
1.651562468178935
 10
-4.410026362132721
 20
1.651417838473804
 10
-4.407423027440952
 20
1.651128579063625
 10
-4.404819692749181
 20
1.650694689948316
 10
-4.402216358057414
 20
1.65026080083305
 10
-4.399613023365644
 20
1.649682282012653
 10
-4.397877466904403
 20
1.649103763192254
 10
-4.395997280738163
 20
1.648669874076946
 10
-4.394261724276971
 20
1.647946725551458
 10
-4.392526167815777
 20
1.647368206731061
 10
-4.390790611354582
 20
1.646645058205573
 10
-4.38905505489339
 20
1.645921909680045
 10
-4.387464128137331
 20
1.645054131449469
 10
-4.385728571676088
 20
1.644186353218894
 10
-4.384137644920026
 20
1.643173945283186
 10
-4.382691347869052
 20
1.642161537347478
 10
-4.38124505081808
 20
1.641149129411813
 10
-4.379798753767064
 20
1.639992091771019
 10
-4.378497086421177
 20
1.638690424425134
 10
-4.377195419075294
 20
1.637388757079246
 10
-4.376038381434497
 20
1.63594246002823
 10
-4.374881343793703
 20
1.634496162977256
 10
-4.373145787332506
 20
1.631892828285445
 10
-4.371699490281535
 20
1.629000234183496
 10
-4.370687082345823
 20
1.626107640081506
 10
-4.36996393382034
 20
1.62292578656934
 10
-4.36953004470503
 20
1.619888562762261
 10
-4.369674674410116
 20
1.616706709250093
 10
-4.370397822935646
 20
1.613669485443014
 10
-4.37155486057644
 20
1.610776891341024
 10
-4.373290417037598
 20
1.608173556649254
 10
-4.375315232909009
 20
1.60600411107275
 10
-4.377629308190601
 20
1.604123924906468
 10
-4.380377272587463
 20
1.60253299815036
 10
-4.383269866689405
 20
1.601231330804475
 10
-4.386162460791438
 20
1.600218922868813
 10
-4.389344314303566
 20
1.599351144638194
 10
-4.392381538110686
 20
1.598772625817795
 10
-4.393827835161657
 20
1.598627996112708
 10
-4.395418761917723
 20
1.598338736702529
 10
-4.396865058968741
 20
1.598194106997399
 10
-4.398455985724846
 20
1.598194106997399
 10
-4.40004691248091
 20
1.598049477292309
 10
-4.401493209531881
 20
1.598049477292309
 10
-4.403084136288028
 20
1.598049477292309
 10
-4.404675063044094
 20
1.598049477292309
 10
-4.406121360095066
 20
1.598049477292309
 10
-4.407712286851128
 20
1.598194106997399
 10
-4.409303213607277
 20
1.598194106997399
 10
-4.410894140363338
 20
1.598483366407618
 10
-4.412340437414318
 20
1.598627996112708
 10
-4.413931364170418
 20
1.598917255522928
 10
-4.415377661221436
 20
1.599206514933105
 10
-4.4169685879775
 20
1.599495774343284
 10
-4.418704144438648
 20
1.59992966345859
 10
-4.420439700899886
 20
1.6003635525739
 10
-4.422030627655948
 20
1.600942071394299
 10
-4.423766184117144
 20
1.601520590214698
 10
-4.42535711087325
 20
1.602243738740184
 10
-4.426948037629311
 20
1.60296688726567
 10
-4.428538964385417
 20
1.603834665496289
 10
-4.430129891141521
 20
1.604702443726865
 10
-4.431576188192496
 20
1.605570221957441
 10
-4.433167114948559
 20
1.606582629893149
 10
-4.434613411999574
 20
1.607595037828857
 10
-4.436059709050591
 20
1.60860744576452
 10
-4.437506006101568
 20
1.609619853700228
 10
-4.438807673447449
 20
1.610776891341024
 10
-4.440253970498421
 20
1.611933928981819
 10
-4.441555637844308
 20
1.613090966622614
 10
-4.443725083420811
 20
1.615260412199075
 10
-4.445749899292183
 20
1.617574487480669
 10
-4.447774715163556
 20
1.619888562762261
 10
-4.449799531034968
 20
1.622202638043853
 10
-4.451679717201209
 20
1.624516713325403
 10
-4.453415273662447
 20
1.626975418312084
 10
-4.45529545982869
 20
1.629578753003895
 10
-4.456886386584834
 20
1.632037457990576
 10
-4.458477313340896
 20
1.634640792682345
 10
-4.459923610391874
 20
1.637388757079246
 10
-4.461225277737757
 20
1.639992091771019
 10
-4.462526945083641
 20
1.642740056167876
 10
-4.463683982724441
 20
1.645632650269865
 10
-4.464551760955052
 20
1.648380614666725
 10
-4.465419539185631
 20
1.651417838473804
 10
-4.466142687711116
 20
1.654310432575795
 10
-4.467155095646822
 20
1.66096339901035
 10
-4.467588984762094
 20
1.667905624855085
 10
-4.467155095646822
 20
1.67484785069986
 10
-4.465998058006028
 20
1.681500817134416
 10
-4.463973242134656
 20
1.687864524158753
 10
-4.460936018327578
 20
1.693649712362733
 10
-4.457031016289923
 20
1.698856381746273
 10
-4.452113606316562
 20
1.703050643194148
 10
-4.450378049855326
 20
1.704063051129855
 10
-4.448642493394173
 20
1.70493082936043
 10
-4.446762307227849
 20
1.705798607591006
 10
-4.445026750766697
 20
1.706521756116536
 10
-4.443146564600367
 20
1.707100274936935
 10
-4.441121748729044
 20
1.707678793757334
 10
-4.439241562562716
 20
1.708112682872599
 10
-4.437216746691343
 20
1.70840194228282
 10
-4.435336560525065
 20
1.708691201692996
 10
-4.433311744653646
 20
1.708835831398086
 10
-4.43128692878232
 20
1.708835831398086
 10
-4.429262112910905
 20
1.708835831398086
 10
-4.427237297039488
 20
1.708835831398086
 10
-4.425212481168159
 20
1.708691201692996
 10
-4.423332295001833
 20
1.70840194228282
 10
-4.421307479130462
 20
1.708112682872599
 10
-4.418704144438648
 20
1.707678793757334
 10
-4.416100809746878
 20
1.707100274936935
 10
-4.413497475055108
 20
1.706521756116536
 10
-4.411038770068428
 20
1.705653977885918
 10
-4.40858006508175
 20
1.704786199655343
 10
-4.406121360095066
 20
1.703773791719636
 10
-4.403662655108386
 20
1.702761383783971
 10
-4.401203950121708
 20
1.701604346143175
 10
-4.398889874840115
 20
1.700302678797246
 10
-4.396720429263608
 20
1.699001011451361
 10
-4.394406353982058
 20
1.6974100846953
 10
-4.3922369084056
 20
1.695963787644283
 10
-4.390067462829096
 20
1.69422823118313
 10
-4.388042646957681
 20
1.692637304427026
 10
-4.386017831086313
 20
1.690757118260743
 10
-4.384137644920026
 20
1.68887693209446
 10
-4.357381149476712
 20
1.703339902604326
 10
-4.35911670593795
 20
1.706521756116536
 10
-4.36114152180928
 20
1.709414350218483
 10
-4.363455597090871
 20
1.712162314615386
 10
-4.366058931782641
 20
1.714621019602065
 10
-4.368806896179542
 20
1.716935094883658
 10
-4.371844119986626
 20
1.718959910755031
 10
-4.374881343793703
 20
1.720840096921313
 10
-4.37806319730587
 20
1.722575653382508
 10
-4.380521902292549
 20
1.723732691023303
 10
-4.383125236984318
 20
1.724889728664098
 10
-4.385583941971002
 20
1.725902136599764
 10
-4.388187276662772
 20
1.726769914830383
 10
-4.390935241059714
 20
1.727637693060958
 10
-4.393538575751484
 20
1.728216211881355
 10
-4.396286540148345
 20
1.728794730701754
 10
-4.399034504545202
 20
1.729228619817063
 10
-4.401782468942105
 20
1.72951787922724
 10
-4.404530433339004
 20
1.729662508932372
 10
-4.407423027440952
 20
1.729807138637459
 10
-4.410170991837811
 20
1.729807138637459
 10
-4.412918956234753
 20
1.729662508932372
 10
-4.415666920631615
 20
1.729373249522153
 10
-4.418414885028473
 20
1.728939360406843
 10
-4.421162849425375
 20
1.728360841586446
 10
-4.423766184117144
 20
1.727782322766048
 10
-4.426224889103824
 20
1.726914544535471
 10
-4.428828223795632
 20
1.726046766304895
 10
-4.43128692878232
 20
1.725178988074277
 10
-4.43360100406387
 20
1.724021950433479
 10
-4.436059709050591
 20
1.722864912792685
 10
-4.438373784332141
 20
1.7215632454468
 10
-4.440687859613691
 20
1.720261578100916
 10
-4.443001934895285
 20
1.718815281049939
 10
-4.445171380471786
 20
1.717368983998925
 10
-4.447340826048286
 20
1.715778057242864
 10
-4.449510271624752
 20
1.714187130486756
 10
-4.451679717201209
 20
1.712451574025563
 10
-4.453704533072624
 20
1.71071601756441
 10
-4.45587397864913
 20
1.708980461103216
 10
-4.457898794520499
 20
1.707244904642023
 10
-4.460791388622488
 20
1.704641569950253
 10
-4.463539353019348
 20
1.70203823525844
 10
-4.466287317416205
 20
1.699290270861581
 10
-4.46889065210802
 20
1.696397676759591
 10
-4.471493986799791
 20
1.693505082657601
 10
-4.473952691786471
 20
1.690612488555653
 10
-4.476266767068064
 20
1.687575264748575
 10
-4.478580842349613
 20
1.684393411236366
 10
-4.48060565822103
 20
1.681211557724195
 10
-4.482630474092441
 20
1.67788507450694
 10
-4.484510660258681
 20
1.674558591289641
 10
-4.486101587014829
 20
1.671087478367295
 10
-4.487547884065808
 20
1.667616365444906
 10
-4.488849551411687
 20
1.66400062281743
 10
-4.490006589052483
 20
1.660384880189954
 10
-4.490874367283058
 20
1.656624507857385
 10
-4.491742145513636
 20
1.651562468178935
 10
-4.492176034628947
 20
1.646355798795354
 10
-4.492320664334076
 20
1.641293759116901
 10
-4.492176034628947
 20
1.636087089733321
 10
-4.491597515808545
 20
1.631025050054868
 10
-4.490585107872838
 20
1.625963010376418
 10
-4.489283440526953
 20
1.620900970697968
 10
-4.487547884065808
 20
1.616128190429694
 10
-4.486390846425005
 20
1.61352485573788
 10
-4.485089179079121
 20
1.61092152104611
 10
-4.48378751173324
 20
1.60846281605943
 10
-4.482196584977088
 20
1.606148740777839
 10
-4.48060565822103
 20
1.603834665496289
 10
-4.478870101759873
 20
1.601520590214698
 10
-4.476989915593551
 20
1.599351144638194
 10
-4.475109729427266
 20
1.597326328766821
 10
-4.473084913555893
 20
1.595301512895451
 10
-4.470915467979394
 20
1.593421326729168
 10
-4.468746022402888
 20
1.59154114056284
 10
-4.466576576826471
 20
1.589805584101691
 10
-4.46426250154488
 20
1.588214657345584
 10
-4.4618037965582
 20
1.586768360294611
 10
-4.459345091571516
 20
1.585322063243595
 10
-4.456886386584834
 20
1.584020395897709
 10
-4.451101198380853
 20
1.581561690911029
 10
-4.445171380471786
 20
1.579536875039658
 10
-4.439096932857625
 20
1.578090577988641
 10
-4.432877855538379
 20
1.576933540347886
 10
-4.42665877821913
 20
1.576355021527489
 10
-4.420439700899886
 20
1.576065762117269
 10
-4.414220623580638
 20
1.576355021527489
 10
-4.407856916556261
 20
1.577078170052977
 10
-4.401782468942105
 20
1.578235207693771
 10
-4.395852651033076
 20
1.579826134449834
 10
-4.389922833124006
 20
1.581995580026338
 10
-4.384282274625113
 20
1.584454285013019
 10
-4.378930975536491
 20
1.587491508820099
 10
-4.373868935858038
 20
1.590962621742487
 10
-4.369096155589764
 20
1.594867623780141
 10
-4.36461263473167
 20
1.599206514933105
 10
-4.361286151514367
 20
1.603111516970759
 10
-4.358248927707331
 20
1.607305778418636
 10
-4.355500963310475
 20
1.61150003986651
 10
-4.353186888028883
 20
1.616128190429694
 10
-4.351162072157467
 20
1.620756340992836
 10
-4.349571145401404
 20
1.625529121261108
 10
-4.348558737465693
 20
1.63044653123447
 10
-4.347835588940166
 20
1.635508570912921
 10
-4.347690959235079
 20
1.639558202655709
 10
-4.347980218645296
 20
1.643463204693363
 10
-4.348703367170788
 20
1.647368206731061
 10
-4.350005034516668
 20
1.651273208768715
 10
-4.351740590977865
 20
1.654455062280884
 10
-4.353765406849237
 20
1.657347656382873
 10
-4.356224111835917
 20
1.660095620779774
 10
-4.35882744652773
 20
1.662554325766456
 10
-4.361720040629722
 20
1.664723771342917
 10
-4.364757264436754
 20
1.666893216919421
 10
-4.367939117948966
 20
1.668773403085704
 10
-4.371120971461134
 20
1.670508959546895
  0
LWPOLYLINE
  5
E74
330
17
100
AcDbEntity
  8
4
  6
Continuous
 62
     4
100
AcDbPolyline
 90
       96
 70
     0
 43
0.0
 10
-4.041967818629127
 20
1.57852446710395
 10
-4.044281893910716
 20
1.579970764154924
 10
-4.046740598897399
 20
1.581706320616118
 10
-4.049343933589169
 20
1.583875766192621
 10
-4.051658008870758
 20
1.5863344711793
 10
-4.053827454447265
 20
1.589082435576161
 10
-4.055563010908417
 20
1.592408918793459
 10
-4.056720048549211
 20
1.596024661420935
 10
-4.057153937664561
 20
1.600218922868813
 10
-4.057153937664561
 20
1.696108417349415
 10
-4.057443197074738
 20
1.700158049092158
 10
-4.05802171589514
 20
1.703918421424723
 10
-4.059178753535892
 20
1.7075341640522
 10
-4.060625050586907
 20
1.710860647269501
 10
-4.062360607048102
 20
1.714187130486756
 10
-4.064530052624607
 20
1.717079724588749
 10
-4.066988757611286
 20
1.719827688985605
 10
-4.069736722008143
 20
1.722431023677418
 10
-4.072629316110091
 20
1.724745098958967
 10
-4.075811169622305
 20
1.726769914830383
 10
-4.079137652839604
 20
1.728505471291576
 10
-4.082464136056819
 20
1.730096398047639
 10
-4.086079878684294
 20
1.731253435688435
 10
-4.089695621311771
 20
1.732121213919053
 10
-4.093455993644339
 20
1.732844362444541
 10
-4.097216365976946
 20
1.733133621854717
 10
-4.099819700668759
 20
1.733133621854717
 10
-4.10242303536053
 20
1.733133621854717
 10
-4.104881740347209
 20
1.732844362444541
 10
-4.107485075038982
 20
1.732555103034321
 10
-4.109943780025658
 20
1.732121213919053
 10
-4.112547114717428
 20
1.731398065393524
 10
-4.115005819704109
 20
1.730674916868038
 10
-4.117464524690794
 20
1.72995176834255
 10
-4.119923229677475
 20
1.728939360406843
 10
-4.122237304959067
 20
1.727926952471178
 10
-4.124551380240657
 20
1.726769914830383
 10
-4.126865455522248
 20
1.725612877189584
 10
-4.129179530803845
 20
1.724166580138613
 10
-4.131348976380261
 20
1.722864912792685
 10
-4.133518421956761
 20
1.721418615741709
 10
-4.135543237828176
 20
1.719827688985605
 10
-4.136411016058755
 20
1.721852504857021
 10
-4.137568053699548
 20
1.724021950433479
 10
-4.139158980455658
 20
1.726046766304895
 10
-4.140894536916809
 20
1.727926952471178
 10
-4.14263009337804
 20
1.72951787922724
 10
-4.144365649839193
 20
1.730819546573125
 10
-4.145956576595255
 20
1.731687324803744
 10
-4.147113614236054
 20
1.731976584213923
 10
-4.182547891985294
 20
1.731976584213923
 10
-4.180378446408833
 20
1.72995176834255
 10
-4.177919741422154
 20
1.727637693060958
 10
-4.17517177702525
 20
1.724889728664098
 10
-4.172568442333481
 20
1.721707875151931
 10
-4.170109737346797
 20
1.718092132524455
 10
-4.16822955118052
 20
1.714331760191845
 10
-4.166783254129502
 20
1.710137498744013
 10
-4.166349365014233
 20
1.705798607591006
 10
-4.166349365014233
 20
1.578669096809039
 10
-4.133807681366937
 20
1.604991703137043
 10
-4.133807681366937
 20
1.696976195579991
 10
-4.133663051661851
 20
1.699290270861581
 10
-4.133229162546584
 20
1.701459716438043
 10
-4.132361384315967
 20
1.703484532309456
 10
-4.131348976380261
 20
1.705509348180828
 10
-4.130191938739506
 20
1.7075341640522
 10
-4.128745641688488
 20
1.709269720513395
 10
-4.12701008522734
 20
1.71100527697459
 10
-4.125274528766142
 20
1.712596203730694
 10
-4.123249712894774
 20
1.713897871076579
 10
-4.121224897023356
 20
1.715054908717376
 10
-4.119055451446853
 20
1.716211946358169
 10
-4.116886005870393
 20
1.716935094883658
 10
-4.114571930588843
 20
1.717658243409146
 10
-4.112257855307252
 20
1.717947502819323
 10
-4.110088409730748
 20
1.718236762229543
 10
-4.107774334449156
 20
1.718092132524455
 10
-4.104158591821678
 20
1.717513613704054
 10
-4.100687478899291
 20
1.716356576063261
 10
-4.097360995682033
 20
1.714765649307155
 10
-4.094468401580048
 20
1.712596203730694
 10
-4.092009696593365
 20
1.709992869038881
 10
-4.090129510427124
 20
1.706955645231803
 10
-4.088972472786326
 20
1.703339902604326
 10
-4.088538583670973
 20
1.699290270861581
 10
-4.088538583670973
 20
1.596603180241334
 10
-4.08810469455571
 20
1.592842807908768
 10
-4.086947656914912
 20
1.589371694986381
 10
-4.08521210045372
 20
1.5863344711793
 10
-4.082753395467082
 20
1.583731136487533
 10
-4.079860801365049
 20
1.581561690911029
 10
-4.076534318147788
 20
1.579826134449834
 10
-4.072918575520311
 20
1.578813726514169
 10
-4.06901357348266
 20
1.57852446710395
 10
-4.041967818629127
 20
1.57852446710395
  0
LWPOLYLINE
  5
E78
330
17
100
AcDbEntity
  8
4
  6
Continuous
100
AcDbPolyline
 90
       73
 70
     0
 43
0.0
 10
-3.303188277450946
 20
1.616995968660269
 10
-3.300729572464265
 20
1.615549671609295
 10
-3.298704756592851
 20
1.613669485443014
 10
-3.296969200131701
 20
1.61135541016142
 10
-3.295667532785813
 20
1.60875207546965
 10
-3.294944384260283
 20
1.60585948136766
 10
-3.294799754555196
 20
1.60296688726567
 10
-3.295233643670464
 20
1.600218922868813
 10
-3.296390681311258
 20
1.597470958471911
 10
-3.297692348657143
 20
1.595880031715848
 10
-3.298994016003073
 20
1.594433734664831
 10
-3.300584942759176
 20
1.593132067318948
 10
-3.302320499220328
 20
1.591975029678151
 10
-3.304200685386653
 20
1.591107251447574
 10
-3.306225501257982
 20
1.590384102922089
 10
-3.308394946834488
 20
1.589950213806779
 10
-3.310564392410988
 20
1.589805584101691
 10
-3.363354234772089
 20
1.589805584101691
 10
-3.334862182867623
 20
1.61395874485319
 10
-3.333126626406386
 20
1.615549671609295
 10
-3.331824959060497
 20
1.617140598365359
 10
-3.330667921419744
 20
1.618586895416376
 10
-3.329944772894258
 20
1.620033192467349
 10
-3.329366254073821
 20
1.621479489518323
 10
-3.32907699466364
 20
1.623070416274428
 10
-3.328787735253462
 20
1.624516713325403
 10
-3.328787735253462
 20
1.626107640081506
 10
-3.328787735253462
 20
1.721997134562109
 10
-3.32907699466364
 20
1.724021950433479
 10
-3.32965551348404
 20
1.726046766304895
 10
-3.330667921419744
 20
1.727637693060958
 10
-3.331969588765629
 20
1.729083990111974
 10
-3.333560515521734
 20
1.730241027752728
 10
-3.335296071982888
 20
1.731108805983344
 10
-3.337320887854303
 20
1.731687324803744
 10
-3.339345703725673
 20
1.731831954508832
 10
-3.37058572002704
 20
1.731831954508832
 10
-3.368416274450538
 20
1.729662508932372
 10
-3.366536088284298
 20
1.727637693060958
 10
-3.364945161528194
 20
1.725323617779364
 10
-3.363643494182265
 20
1.723009542497814
 10
-3.362486456541509
 20
1.720406207806003
 10
-3.361763308016023
 20
1.717658243409146
 10
-3.361329418900716
 20
1.714476389896979
 10
-3.361184789195582
 20
1.710860647269501
 10
-3.361184789195582
 20
1.610776891341024
 10
-3.386928876703233
 20
1.579536875039658
 10
-3.289593085171655
 20
1.579536875039658
 10
-3.28800215841555
 20
1.579681504744746
 10
-3.286266601954356
 20
1.579826134449834
 10
-3.284675675198292
 20
1.580115393860054
 10
-3.282940118737058
 20
1.580693912680454
 10
-3.281204562275906
 20
1.581272431500851
 10
-3.279613635519801
 20
1.581995580026338
 10
-3.278022708763693
 20
1.582718728551824
 10
-3.276431782007633
 20
1.583586506782401
 10
-3.274840855251568
 20
1.584598914718108
 10
-3.273394558200553
 20
1.585611322653814
 10
-3.271948261149538
 20
1.586768360294611
 10
-3.270501964098566
 20
1.587925397935364
 10
-3.269344926457768
 20
1.589082435576161
 10
-3.268043259111883
 20
1.590384102922089
 10
-3.267030851176175
 20
1.591685770267974
 10
-3.266018443240511
 20
1.592987437613859
 10
-3.263704367958921
 20
1.597615588176999
 10
-3.262258070907904
 20
1.602822257560583
 10
-3.261534922382455
 20
1.60860744576452
 10
-3.261679552087549
 20
1.614537263673589
 10
-3.262691960023254
 20
1.620177822172438
 10
-3.264427516484405
 20
1.625384491556021
 10
-3.266886221471086
 20
1.629723382708983
 10
-3.270212704688389
 20
1.63304986592624
 10
-3.303188277450946
 20
1.616995968660269
  0
LWPOLYLINE
  5
E79
330
17
100
AcDbEntity
  8
4
  6
Continuous
100
AcDbPolyline
 90
       46
 70
     0
 43
0.0
 10
-3.572360632189638
 20
1.731976584213923
 10
-3.650894562058343
 20
1.731976584213923
 10
-3.649159005597187
 20
1.729662508932372
 10
-3.647568078841124
 20
1.727059174240561
 10
-3.645977152084981
 20
1.724455839548791
 10
-3.644675484739091
 20
1.721707875151931
 10
-3.64366307680343
 20
1.718815281049939
 10
-3.642795298572853
 20
1.715922686947949
 10
-3.642216779752415
 20
1.713174722551094
 10
-3.642072150047321
 20
1.710282128449104
 10
-3.642072150047321
 20
1.576788910642756
 10
-3.606927131708259
 20
1.610487631930803
 10
-3.606927131708259
 20
1.670364329841765
 10
-3.559777847846056
 20
1.670364329841765
 10
-3.556595994333842
 20
1.670508959546895
 10
-3.553558770526808
 20
1.670653589251985
 10
-3.550521546719688
 20
1.671087478367295
 10
-3.547628952617742
 20
1.671665997187693
 10
-3.544736358515747
 20
1.672533775418268
 10
-3.541988394118848
 20
1.673690813059065
 10
-3.539385059427078
 20
1.67499248040495
 10
-3.537070984145486
 20
1.676583407161055
 10
-3.534756908863893
 20
1.678463593327339
 10
-3.532876722697653
 20
1.680777668608931
 10
-3.531141166236416
 20
1.683236373595568
 10
-3.529694869185441
 20
1.686128967697558
 10
-3.528682461249732
 20
1.689455450914858
 10
-3.527814683019158
 20
1.693071193542335
 10
-3.527380793903851
 20
1.697120825285078
 10
-3.527380793903851
 20
1.701604346143175
 10
-3.527814683019158
 20
1.706377126411406
 10
-3.528682461249732
 20
1.71057138785928
 10
-3.530128758300751
 20
1.714331760191845
 10
-3.531864314761946
 20
1.717658243409146
 10
-3.534178390043535
 20
1.720550837511136
 10
-3.536637095030219
 20
1.723009542497814
 10
-3.539529689132165
 20
1.725178988074277
 10
-3.542711542644376
 20
1.726914544535471
 10
-3.546038025861633
 20
1.728360841586446
 10
-3.549653768489111
 20
1.72951787922724
 10
-3.553269511116588
 20
1.730385657457859
 10
-3.557029883449153
 20
1.730964176278257
 10
-3.560934885486851
 20
1.731542695098656
 10
-3.564839887524506
 20
1.731831954508832
 10
-3.568600259857069
 20
1.731976584213923
 10
-3.572360632189638
 20
1.731976584213923
  0
LWPOLYLINE
  5
E7A
330
17
100
AcDbEntity
  8
4
  6
Continuous
100
AcDbPolyline
 90
      104
 70
     0
 43
0.0
 10
-3.716872422724384
 20
1.731831954508832
 10
-3.712822790981643
 20
1.727493063355869
 10
-3.711087234520448
 20
1.725034358369188
 10
-3.709640937469475
 20
1.722575653382508
 10
-3.708339270123548
 20
1.720261578100916
 10
-3.707326862187883
 20
1.718092132524455
 10
-3.706459083957308
 20
1.715778057242864
 10
-3.705880565136865
 20
1.71346398196127
 10
-3.705591305726688
 20
1.711149906679678
 10
-3.705446676021598
 20
1.708691201692996
 10
-3.705446676021598
 20
1.596313920831114
 10
-3.709062418649078
 20
1.596747809946424
 10
-3.712678161276553
 20
1.597470958471911
 10
-3.716149274198944
 20
1.598338736702529
 10
-3.719620387121285
 20
1.599495774343284
 10
-3.722946870338546
 20
1.600942071394299
 10
-3.726273353555843
 20
1.602388368445274
 10
-3.729599836773138
 20
1.604123924906468
 10
-3.73263706058018
 20
1.60600411107275
 10
-3.735674284387299
 20
1.608173556649254
 10
-3.738566878489251
 20
1.610343002225714
 10
-3.741314842886103
 20
1.612801707212396
 10
-3.743918177577921
 20
1.615405041904165
 10
-3.746521512269691
 20
1.618008376595978
 10
-3.748835587551279
 20
1.620900970697925
 10
-3.751005033127742
 20
1.623938194505003
 10
-3.753029848999154
 20
1.626975418312084
 10
-3.756211702511321
 20
1.632760606516064
 10
-3.758815037203095
 20
1.638835054130221
 10
-3.760839853074468
 20
1.645198761154556
 10
-3.762141520420349
 20
1.651707097884024
 10
-3.76272003924079
 20
1.65836006431858
 10
-3.762430779830569
 20
1.664868401048005
 10
-3.761129112484688
 20
1.671521367482561
 10
-3.758959666908225
 20
1.67788507450694
 10
-3.75780262926743
 20
1.680633038903798
 10
-3.756500961921544
 20
1.683236373595568
 10
-3.755054664870526
 20
1.68583970828738
 10
-3.753608367819512
 20
1.688298413274061
 10
-3.752017441063451
 20
1.690901747965831
 10
-3.750281884602254
 20
1.693360452952513
 10
-3.748546328141059
 20
1.695674528234103
 10
-3.746810771679911
 20
1.698133233220785
 10
-3.744930585513582
 20
1.700447308502378
 10
-3.743050399347346
 20
1.702616754078838
 10
-3.741025583475926
 20
1.70493082936043
 10
-3.739000767604558
 20
1.707100274936935
 10
-3.736975951733184
 20
1.709269720513395
 10
-3.734806506156683
 20
1.711294536384766
 10
-3.732781690285263
 20
1.713319352256181
 10
-3.730612244708808
 20
1.715344168127553
 10
-3.728876688247613
 20
1.717368983998925
 10
-3.727719650606815
 20
1.719683059280516
 10
-3.726996502081334
 20
1.721997134562109
 10
-3.726996502081334
 20
1.724455839548791
 10
-3.727285761491549
 20
1.726625285125249
 10
-3.728153539722129
 20
1.728794730701754
 10
-3.72916594765779
 20
1.730530287162948
 10
-3.730612244708808
 20
1.731831954508832
 10
-3.78238967913424
 20
1.731831954508832
 10
-3.779930974147556
 20
1.72951787922724
 10
-3.777183009750703
 20
1.726625285125249
 10
-3.774579675058888
 20
1.723154172202906
 10
-3.772410229482428
 20
1.719393799870339
 10
-3.770819302726323
 20
1.715199538422464
 10
-3.770096154200832
 20
1.710860647269501
 10
-3.770674673021189
 20
1.706521756116536
 10
-3.772699488892604
 20
1.70232749466866
 10
-3.788608756453488
 20
1.674558591289641
 10
-3.792513758491142
 20
1.66645932780411
 10
-3.794972463477821
 20
1.657926175203271
 10
-3.796129501118616
 20
1.649103763192254
 10
-3.795984871413533
 20
1.640136721476106
 10
-3.794538574362555
 20
1.631169679759959
 10
-3.791645980260568
 20
1.622636527159118
 10
-3.787596348517779
 20
1.614537263673589
 10
-3.782245049429149
 20
1.607305778418636
 10
-3.77964171473738
 20
1.604413184316688
 10
-3.776893750340477
 20
1.601665219919785
 10
-3.77400115623849
 20
1.598917255522884
 10
-3.770963932431409
 20
1.596313920831114
 10
-3.767926708624333
 20
1.593999845549524
 10
-3.764600225407032
 20
1.591685770267974
 10
-3.761273742189818
 20
1.589516324691469
 10
-3.75780262926743
 20
1.587636138525186
 10
-3.754331516345043
 20
1.585755952358904
 10
-3.750715773717566
 20
1.584165025602799
 10
-3.747100031090087
 20
1.582863358256914
 10
-3.743339658757519
 20
1.581706320616118
 10
-3.739579286424955
 20
1.580693912680454
 10
-3.735674284387299
 20
1.580115393860054
 10
-3.73191391205469
 20
1.579681504744746
 10
-3.728008910016991
 20
1.579536875039658
 10
-3.672615732964125
 20
1.579536875039658
 10
-3.672615732964125
 20
1.710137498744013
 10
-3.672471103259038
 20
1.713030092845959
 10
-3.672326473553955
 20
1.715922686947949
 10
-3.671892584438641
 20
1.718670651344811
 10
-3.67131406561824
 20
1.7215632454468
 10
-3.670446287387626
 20
1.724311209843699
 10
-3.669433879451961
 20
1.726914544535471
 10
-3.668276841811162
 20
1.729373249522153
 10
-3.666975174465278
 20
1.731831954508832
 10
-3.716872422724384
 20
1.731831954508832
  0
LWPOLYLINE
  5
E7B
330
17
100
AcDbEntity
  8
4
  6
Continuous
100
AcDbPolyline
 90
       46
 70
     0
 43
0.0
 10
-3.432343117225045
 20
1.731542695098656
 10
-3.510877047093746
 20
1.731542695098656
 10
-3.509141490632592
 20
1.729228619817063
 10
-3.507405934171397
 20
1.726625285125249
 10
-3.505959637120383
 20
1.724021950433479
 10
-3.504657969774498
 20
1.721273986036623
 10
-3.503500932133703
 20
1.718381391934631
 10
-3.502633153903171
 20
1.715488797832641
 10
-3.502054635082728
 20
1.712740833435782
 10
-3.501910005377645
 20
1.709848239333793
 10
-3.501910005377645
 20
1.576355021527489
 10
-3.466909616743705
 20
1.610053742815535
 10
-3.466909616743705
 20
1.669930440726498
 10
-3.419760332881462
 20
1.669930440726498
 10
-3.416723109074336
 20
1.670075070431589
 10
-3.413541255562214
 20
1.670219700136676
 10
-3.410648661460181
 20
1.670653589251985
 10
-3.407611437653145
 20
1.671232108072383
 10
-3.404863473256283
 20
1.672099886302959
 10
-3.402115508859384
 20
1.673256923943756
 10
-3.399512174167571
 20
1.674558591289641
 10
-3.397053469180892
 20
1.676149518045745
 10
-3.394884023604428
 20
1.678029704212027
 10
-3.393003837438151
 20
1.68034377949362
 10
-3.391268280976955
 20
1.682802484480301
 10
-3.389821983925936
 20
1.685695078582291
 10
-3.388809575990272
 20
1.68902156179955
 10
-3.387941797759693
 20
1.692637304427026
 10
-3.387507908644386
 20
1.696686936169811
 10
-3.387507908644386
 20
1.701170457027865
 10
-3.387941797759693
 20
1.705943237296138
 10
-3.388809575990272
 20
1.710282128449104
 10
-3.390255873041287
 20
1.714042500781668
 10
-3.391991429502438
 20
1.717368983998925
 10
-3.394305504784031
 20
1.720261578100916
 10
-3.396764209770708
 20
1.722720283087595
 10
-3.399656803872701
 20
1.724745098958967
 10
-3.402694027679781
 20
1.726480655420161
 10
-3.406165140602169
 20
1.727926952471178
 10
-3.409636253524513
 20
1.729083990111974
 10
-3.413251996151994
 20
1.72995176834255
 10
-3.417012368484558
 20
1.730530287162948
 10
-3.420917370522257
 20
1.731108805983344
 10
-3.424822372559912
 20
1.731398065393524
 10
-3.428582744892476
 20
1.731542695098656
 10
-3.432343117225045
 20
1.731542695098656
  0
LWPOLYLINE
  5
E7C
330
17
100
AcDbEntity
  8
4
  6
Continuous
100
AcDbPolyline
 90
       21
 70
     0
 43
0.0
 10
-3.613290838732638
 20
1.724021950433479
 10
-3.577856560983398
 20
1.724021950433479
 10
-3.573373040125343
 20
1.723588061318214
 10
-3.569034148972381
 20
1.722286393972288
 10
-3.565273776639773
 20
1.720261578100916
 10
-3.561802663717428
 20
1.717513613704054
 10
-3.559054699320526
 20
1.714187130486756
 10
-3.556885253744062
 20
1.710426758154189
 10
-3.555583586398134
 20
1.706232496706315
 10
-3.555149697282871
 20
1.701604346143175
 10
-3.555438956693048
 20
1.697843973810565
 10
-3.556306734923666
 20
1.694083601477999
 10
-3.557608402269553
 20
1.690612488555653
 10
-3.559488588435832
 20
1.687575264748575
 10
-3.561947293422516
 20
1.684971930056764
 10
-3.564839887524506
 20
1.68294711418539
 10
-3.568166370741805
 20
1.681645446839505
 10
-3.572071372779461
 20
1.681211557724195
 10
-3.606637872298083
 20
1.681211557724195
 10
-3.606637872298083
 20
1.716356576063261
 10
-3.613290838732638
 20
1.724021950433479
  0
LWPOLYLINE
  5
E7D
330
17
100
AcDbEntity
  8
4
  6
Continuous
100
AcDbPolyline
 90
       21
 70
     0
 43
0.0
 10
-3.473273323768044
 20
1.723732691023303
 10
-3.437839046018801
 20
1.723732691023303
 10
-3.433210895455661
 20
1.723298801907994
 10
-3.429016634007783
 20
1.721997134562109
 10
-3.425111631970086
 20
1.719972318690737
 10
-3.421640519047702
 20
1.717224354293834
 10
-3.418892554650841
 20
1.713897871076579
 10
-3.416723109074336
 20
1.709992869038881
 10
-3.415421441728453
 20
1.705798607591006
 10
-3.414987552613189
 20
1.701170457027865
 10
-3.415276812023368
 20
1.6974100846953
 10
-3.416144590253984
 20
1.693649712362733
 10
-3.417590887304956
 20
1.690323229145433
 10
-3.419471073471238
 20
1.687141375633266
 10
-3.421929778457921
 20
1.684538040941495
 10
-3.424822372559912
 20
1.68251322507008
 10
-3.428148855777208
 20
1.681211557724195
 10
-3.432053857814863
 20
1.680777668608931
 10
-3.466620357333489
 20
1.680777668608931
 10
-3.466620357333489
 20
1.715922686947949
 10
-3.473273323768044
 20
1.723732691023303
  0
TEXT
  5
E7E
330
17
100
AcDbEntity
  8
3
100
AcDbText
 10
-2.21441017994704
 20
1.015588455926575
 30
0.0
 40
0.0390761491069264
  1
PART/DWG. NO.
  7
SIMPLEX
100
AcDbText
  0
TEXT
  5
E7F
330
17
100
AcDbEntity
  8
3
100
AcDbText
 10
-1.912602704218468
 20
0.8589523399345067
 30
0.0
 40
0.0875305739995151
  1
320.41
  7
SIMPLEX
 72
     1
 11
-1.714616882076708
 21
0.8589523399345067
 31
0.0
100
AcDbText
  0
LINE
  5
E80
330
17
100
AcDbEntity
  8
0
100
AcDbLine
 10
-2.251515304746098
 20
1.088837136489872
 30
0.0
 11
-0.8500000000000014
 21
1.088837136489872
 31
0.0
  0
LWPOLYLINE
  5
E81
330
17
100
AcDbEntity
  8
4
  6
Continuous
100
AcDbPolyline
 90
       88
 70
     0
 43
0.0
 10
-1.875722445467501
 20
1.729373249522153
 10
-1.970454902307259
 20
1.729373249522153
 10
-1.96785156761549
 20
1.72734843365078
 10
-1.96524823292372
 20
1.725034358369188
 10
-1.96293415764213
 20
1.722431023677418
 10
-1.960764712065666
 20
1.719827688985605
 10
-1.959029155604471
 20
1.716790465178526
 10
-1.95772748825859
 20
1.713753241371448
 10
-1.956859710027972
 20
1.710282128449104
 10
-1.956425820912705
 20
1.706811015526713
 10
-1.956425820912705
 20
1.606293370482972
 10
-1.980868241074428
 20
1.579536875039658
 10
-1.893656528899754
 20
1.579536875039658
 10
-1.891920972438562
 20
1.579536875039658
 10
-1.890185415977405
 20
1.579826134449834
 10
-1.88844985951617
 20
1.579970764154924
 10
-1.886858932760109
 20
1.580404653270233
 10
-1.885123376298913
 20
1.58083854238554
 10
-1.883387819837721
 20
1.581417061205939
 10
-1.881796893081656
 20
1.581995580026338
 10
-1.880061336620464
 20
1.582863358256914
 10
-1.878470409864354
 20
1.583586506782401
 10
-1.876879483108296
 20
1.584454285013019
 10
-1.875433186057279
 20
1.585466692948684
 10
-1.87398688900626
 20
1.586479100884391
 10
-1.872540591955288
 20
1.587636138525186
 10
-1.871094294904312
 20
1.588793176165984
 10
-1.869937257263519
 20
1.589950213806779
 10
-1.868635589917636
 20
1.591251881152664
 10
-1.865164476995245
 20
1.595590772305629
 10
-1.862416512598386
 20
1.600652811984079
 10
-1.86039169672697
 20
1.60600411107275
 10
-1.859234659086176
 20
1.61150003986651
 10
-1.859090029381089
 20
1.617140598365359
 10
-1.859957807611706
 20
1.62234726774894
 10
-1.862127253188208
 20
1.627264677722303
 10
-1.865453736405424
 20
1.631603568875268
 10
-1.896983012117011
 20
1.618008376595978
 10
-1.895392085360946
 20
1.615694301314387
 10
-1.894090418015061
 20
1.613090966622614
 10
-1.893078010079355
 20
1.610487631930803
 10
-1.892354861553864
 20
1.607739667533943
 10
-1.891920972438562
 20
1.604991703137043
 10
-1.891920972438562
 20
1.602243738740184
 10
-1.892354861553864
 20
1.599495774343284
 10
-1.893222639784443
 20
1.596892439651514
 10
-1.894379677425238
 20
1.595012253485229
 10
-1.895681344771123
 20
1.593276697024036
 10
-1.897416901232315
 20
1.591685770267974
 10
-1.89915245769351
 20
1.590528732627178
 10
-1.901177273564925
 20
1.589516324691469
 10
-1.903202089436256
 20
1.588648546460894
 10
-1.905371535012761
 20
1.588214657345584
 10
-1.907540980589264
 20
1.588070027640496
 10
-1.956859710027972
 20
1.588070027640496
 10
-1.924173396675634
 20
1.621913378633633
 10
-1.924173396675634
 20
1.654888951396191
 10
-1.885701895119311
 20
1.654888951396191
 10
-1.885701895119311
 20
1.66645932780411
 10
-1.923594877855235
 20
1.66645932780411
 10
-1.923594877855235
 20
1.710426758154189
 10
-1.930392473994878
 20
1.720984726626401
 10
-1.90855338852497
 20
1.720984726626401
 10
-1.903635978551609
 20
1.720695467216224
 10
-1.899586346808781
 20
1.719538429575428
 10
-1.896404493296656
 20
1.717658243409146
 10
-1.894090418015061
 20
1.715054908717376
 10
-1.892788750669176
 20
1.712017684910295
 10
-1.892354861553864
 20
1.708546571987908
 10
-1.892933380374265
 20
1.704641569950253
 10
-1.894524307130331
 20
1.700736567912555
 10
-1.860680956137191
 20
1.690467858850523
 10
-1.8583668808556
 20
1.692926563837203
 10
-1.856631324394406
 20
1.695674528234103
 10
-1.855329657048521
 20
1.698711752041183
 10
-1.854606508523033
 20
1.701748975848263
 10
-1.854317249112816
 20
1.70493082936043
 10
-1.854606508523033
 20
1.708257312577688
 10
-1.85518502734343
 20
1.711439166089897
 10
-1.856197435279138
 20
1.714621019602065
 10
-1.857499102625027
 20
1.717513613704054
 10
-1.859234659086176
 20
1.720406207806003
 10
-1.861259474957588
 20
1.722864912792685
 10
-1.86371817994427
 20
1.725034358369188
 10
-1.866321514636041
 20
1.726914544535471
 10
-1.869214108738034
 20
1.728216211881355
 10
-1.872395962250198
 20
1.729083990111974
 10
-1.875722445467501
 20
1.729373249522153
  0
LINE
  5
E82
330
17
100
AcDbEntity
  8
0
100
AcDbLine
 10
-2.251515304746098
 20
0.7999999999999572
 30
0.0
 11
-2.251515304746098
 21
1.268913789283077
 31
0.0
  0
TEXT
  5
E83
330
17
100
AcDbEntity
  8
3
100
AcDbText
 10
-1.929092813798103
 20
1.14069934460157
 30
0.0
 40
0.0781522982138528
  1
1
  7
SIMPLEX
100
AcDbText
  0
TEXT
  5
E84
330
17
100
AcDbEntity
  8
3
100
AcDbText
 10
-2.194260010838745
 20
1.162083521424067
 30
0.0
 40
0.038763539914071
  1
SHEET
  7
SIMPLEX
100
AcDbText
  0
LWPOLYLINE
  5
E85
330
17
100
AcDbEntity
  8
4
  6
Continuous
100
AcDbPolyline
 90
      138
 70
     0
 43
0.0
 10
-2.566202717681147
 20
1.72951787922724
 10
-2.563165493874069
 20
1.72734843365078
 10
-2.56070678888739
 20
1.724889728664098
 10
-2.558681973016017
 20
1.722141764267198
 10
-2.557235675965042
 20
1.719249170165207
 10
-2.556078638324243
 20
1.716211946358128
 10
-2.555355489798714
 20
1.713030092845959
 10
-2.554921600683449
 20
1.709558979923616
 10
-2.554776970978358
 20
1.705943237296138
 10
-2.554776970978358
 20
1.597326328766821
 10
-2.557380305670128
 20
1.597326328766821
 10
-2.559983640361901
 20
1.597470958471911
 10
-2.562586975053672
 20
1.59776021788213
 10
-2.565045680040352
 20
1.598194106997399
 10
-2.567649014732122
 20
1.598772625817795
 10
-2.570107719718801
 20
1.599495774343284
 10
-2.572566424705484
 20
1.6003635525739
 10
-2.574880499987076
 20
1.601231330804475
 10
-2.577339204973756
 20
1.602388368445274
 10
-2.579653280255345
 20
1.603545406086069
 10
-2.581822725831851
 20
1.604847073431954
 10
-2.583992171408314
 20
1.606293370482972
 10
-2.586161616984814
 20
1.607884297239034
 10
-2.588331062561279
 20
1.609475223995139
 10
-2.590355878432688
 20
1.611210780456332
 10
-2.592236064598931
 20
1.612946336917484
 10
-2.595562547816228
 20
1.616272820134784
 10
-2.598599771623308
 20
1.619888562762261
 10
-2.601347736020207
 20
1.623648935094825
 10
-2.603806441006891
 20
1.627698566837611
 10
-2.605975886583355
 20
1.631892828285445
 10
-2.607711443044549
 20
1.636087089733321
 10
-2.609157740095521
 20
1.640570610591415
 10
-2.61017014803123
 20
1.645054131449469
 10
-2.610748666851626
 20
1.649248392897344
 10
-2.611182555966934
 20
1.653442654345217
 10
-2.611182555966934
 20
1.657781545498183
 10
-2.610893296556755
 20
1.661975806946059
 10
-2.610314777736316
 20
1.666170068393934
 10
-2.609446999505741
 20
1.670364329841765
 10
-2.608145332159813
 20
1.674413961584551
 10
-2.606409775698661
 20
1.678318963622248
 10
-2.605108108352776
 20
1.680777668608931
 10
-2.603806441006891
 20
1.683236373595568
 10
-2.602504773661005
 20
1.68555044887716
 10
-2.601058476609992
 20
1.687864524158753
 10
-2.599756809264103
 20
1.690178599440345
 10
-2.598310512213088
 20
1.692348045016805
 10
-2.596719585457027
 20
1.694517490593308
 10
-2.595128658700963
 20
1.696542306464681
 10
-2.593537731944817
 20
1.698711752041183
 10
-2.591946805188753
 20
1.700736567912555
 10
-2.590211248727602
 20
1.702761383783928
 10
-2.588475692266364
 20
1.704786199655343
 10
-2.586595506100124
 20
1.706666385821625
 10
-2.584715319933799
 20
1.708691201692996
 10
-2.582835133767559
 20
1.71057138785928
 10
-2.580810317896144
 20
1.712596203730694
 10
-2.579074761434951
 20
1.714621019602065
 10
-2.577917723794196
 20
1.716790465178526
 10
-2.57719457526867
 20
1.718959910755031
 10
-2.57704994556358
 20
1.721129356331533
 10
-2.57719457526867
 20
1.723298801907994
 10
-2.577628464383934
 20
1.725468247484498
 10
-2.578351612909465
 20
1.727493063355869
 10
-2.579364020845171
 20
1.72951787922724
 10
-2.631286084975651
 20
1.72951787922724
 10
-2.630129047334853
 20
1.728505471291576
 10
-2.628972009694056
 20
1.727493063355869
 10
-2.627814972053304
 20
1.726480655420161
 10
-2.626657934412505
 20
1.725323617779364
 10
-2.625645526476844
 20
1.724166580138613
 10
-2.624633118541136
 20
1.722864912792685
 10
-2.623765340310519
 20
1.7215632454468
 10
-2.62289756207994
 20
1.720261578100916
 10
-2.621162005618749
 20
1.716356576063261
 10
-2.620294227388129
 20
1.712162314615386
 10
-2.620294227388129
 20
1.707823423462419
 10
-2.620872746208569
 20
1.703484532309456
 10
-2.622029783849363
 20
1.698856381746273
 10
-2.623909970015605
 20
1.69437286088822
 10
-2.626079415592109
 20
1.690178599440345
 10
-2.628538120578792
 20
1.686128967697558
 10
-2.631141455270558
 20
1.682079335954816
 10
-2.63388941966746
 20
1.678174333917119
 10
-2.636637384064364
 20
1.674124702174372
 10
-2.639096089051044
 20
1.670075070431589
 10
-2.641120904922373
 20
1.6660254386888
 10
-2.642856461383611
 20
1.661975806946059
 10
-2.644158128729497
 20
1.657636915793093
 10
-2.6451705366652
 20
1.653298024640089
 10
-2.645749055485559
 20
1.648959133487124
 10
-2.646038314895736
 20
1.644475612629071
 10
-2.646038314895736
 20
1.639992091771019
 10
-2.645604425780469
 20
1.635508570912921
 10
-2.64502590696007
 20
1.632615976810973
 10
-2.644447388139673
 20
1.629723382708983
 10
-2.643579609909052
 20
1.626830788606993
 10
-2.642567201973388
 20
1.624082824210136
 10
-2.641410164332594
 20
1.621334859813233
 10
-2.640108496986711
 20
1.618731525121464
 10
-2.638806829640824
 20
1.615983560724563
 10
-2.637215902884719
 20
1.61352485573788
 10
-2.635624976128655
 20
1.6110661507512
 10
-2.63388941966746
 20
1.60860744576452
 10
-2.632009233501179
 20
1.606293370482972
 10
-2.629984417629763
 20
1.603979295201379
 10
-2.627959601758393
 20
1.601809849624874
 10
-2.625934785887024
 20
1.599640404048414
 10
-2.623765340310519
 20
1.597615588176999
 10
-2.621451265028926
 20
1.595735402010715
 10
-2.61884793033716
 20
1.593710586139344
 10
-2.615955336235209
 20
1.591830399973061
 10
-2.613062742133173
 20
1.590094843511868
 10
-2.610025518326139
 20
1.588503916755764
 10
-2.606843664813929
 20
1.587057619704788
 10
-2.603661811301805
 20
1.585755952358904
 10
-2.600335328084501
 20
1.584454285013019
 10
-2.597008844867203
 20
1.58344187707731
 10
-2.59368236164995
 20
1.582574098846736
 10
-2.590355878432688
 20
1.581706320616118
 10
-2.586884765510305
 20
1.580983172090631
 10
-2.583413652587914
 20
1.580549282975321
 10
-2.58008716937066
 20
1.580115393860054
 10
-2.576616056448269
 20
1.579826134449834
 10
-2.57328957323101
 20
1.579536875039658
 10
-2.569963090013714
 20
1.579536875039658
 10
-2.521512138805579
 20
1.579536875039658
 10
-2.521512138805579
 20
1.711294536384766
 10
-2.521512138805579
 20
1.71360861166636
 10
-2.521512138805579
 20
1.715922686947949
 10
-2.521222879395359
 20
1.718381391934631
 10
-2.520788990280095
 20
1.720840096921313
 10
-2.519921212049474
 20
1.723154172202906
 10
-2.51876417440868
 20
1.725323617779364
 10
-2.51702861794753
 20
1.727493063355869
 10
-2.514714542665937
 20
1.72951787922724
 10
-2.566202717681147
 20
1.72951787922724
  0
LWPOLYLINE
  5
E87
330
17
100
AcDbEntity
  8
4
  6
Continuous
100
AcDbPolyline
 90
       21
 70
     0
 43
0.0
 10
-2.978031665946986
 20
1.729228619817063
 10
-3.016213908093131
 20
1.729228619817063
 10
-3.014333721926806
 20
1.727926952471178
 10
-3.012453535760562
 20
1.726191396009983
 10
-3.010573349594238
 20
1.724455839548791
 10
-3.008982422838171
 20
1.722431023677418
 10
-3.007536125787162
 20
1.720406207806003
 10
-3.006379088146406
 20
1.718092132524455
 10
-3.005655939620876
 20
1.715778057242864
 10
-3.005366680210694
 20
1.713319352256181
 10
-3.005366680210694
 20
1.580115393860054
 10
-2.969353883641015
 20
1.580115393860054
 10
-2.969353883641015
 20
1.720550837511136
 10
-2.969498513346145
 20
1.722575653382508
 10
-2.969932402461451
 20
1.724311209843699
 10
-2.970800180692033
 20
1.725757506894676
 10
-2.971812588627694
 20
1.727059174240561
 10
-2.973114255973623
 20
1.727926952471178
 10
-2.974560553024595
 20
1.728650100996665
 10
-2.976151479780703
 20
1.729083990111974
 10
-2.978031665946986
 20
1.729228619817063
  0
LWPOLYLINE
  5
E88
330
17
100
AcDbEntity
  8
4
  6
Continuous
100
AcDbPolyline
 90
       96
 70
     0
 43
0.0
 10
-2.817818171484019
 20
1.579536875039658
 10
-2.820132246765613
 20
1.581127801795719
 10
-2.822446322047206
 20
1.582718728551824
 10
-2.824471137918578
 20
1.584598914718108
 10
-2.82620669437977
 20
1.586479100884391
 10
-2.827652991430741
 20
1.588648546460894
 10
-2.82881002907154
 20
1.591107251447574
 10
-2.829533177597028
 20
1.593710586139344
 10
-2.829822437007247
 20
1.596458550536203
 10
-2.829822437007247
 20
1.690323229145433
 10
-2.829822437007247
 20
1.69422823118313
 10
-2.830111696417468
 20
1.698133233220785
 10
-2.830690215237821
 20
1.70232749466866
 10
-2.83184725287862
 20
1.706377126411406
 10
-2.833582809339811
 20
1.71057138785928
 10
-2.836330773736714
 20
1.714476389896979
 10
-2.839946516364193
 20
1.718381391934631
 10
-2.844863926337551
 20
1.722141764267198
 10
-2.847901150144586
 20
1.724021950433479
 10
-2.851083003656799
 20
1.725612877189584
 10
-2.854264857168966
 20
1.726914544535471
 10
-2.857735970091312
 20
1.728071582176267
 10
-2.861207083013701
 20
1.728794730701754
 10
-2.864678195936093
 20
1.729228619817063
 10
-2.868149308858476
 20
1.72951787922724
 10
-2.871765051485953
 20
1.72951787922724
 10
-2.875236164408298
 20
1.729228619817063
 10
-2.878707277330689
 20
1.728794730701754
 10
-2.882033760547948
 20
1.728216211881355
 10
-2.885360243765243
 20
1.72734843365078
 10
-2.888397467572282
 20
1.726336025715073
 10
-2.891434691379404
 20
1.725034358369188
 10
-2.894327285481348
 20
1.723732691023303
 10
-2.896930620173118
 20
1.722141764267198
 10
-2.898376917224132
 20
1.721418615741709
 10
-2.899678584570024
 20
1.720695467216224
 10
-2.90112488162104
 20
1.719972318690737
 10
-2.902426548966924
 20
1.719104540460119
 10
-2.903728216312805
 20
1.718092132524455
 10
-2.905174513363781
 20
1.717079724588749
 10
-2.906476180709667
 20
1.715778057242864
 10
-2.908067107465772
 20
1.714476389896979
 10
-2.908790255991263
 20
1.717224354293834
 10
-2.909947293632058
 20
1.719683059280516
 10
-2.911248960977938
 20
1.721852504857021
 10
-2.912839887734001
 20
1.723877320728393
 10
-2.914575444195238
 20
1.725612877189584
 10
-2.916455630361483
 20
1.727059174240561
 10
-2.918335816527806
 20
1.728360841586446
 10
-2.920360632399179
 20
1.729373249522153
 10
-2.953480834866826
 20
1.729373249522153
 10
-2.950443611059746
 20
1.727203803945648
 10
-2.947840276367975
 20
1.724745098958967
 10
-2.945670830791473
 20
1.722141764267198
 10
-2.943790644625233
 20
1.719104540460119
 10
-2.942344347574215
 20
1.715922686947949
 10
-2.941331939638551
 20
1.712306944320473
 10
-2.940608791113023
 20
1.708546571987908
 10
-2.940464161407938
 20
1.704352310540033
 10
-2.940464161407938
 20
1.57592113241218
 10
-2.906765440119843
 20
1.601954479329964
 10
-2.906765440119843
 20
1.690901747965831
 10
-2.906186921299493
 20
1.695674528234103
 10
-2.904740624248518
 20
1.69986878968198
 10
-2.902571178672011
 20
1.703484532309456
 10
-2.899678584570024
 20
1.706521756116536
 10
-2.896352101352767
 20
1.708980461103216
 10
-2.892736358725287
 20
1.71071601756441
 10
-2.888831356687634
 20
1.711873055205165
 10
-2.884926354649933
 20
1.712306944320473
 10
-2.882612279368345
 20
1.712306944320473
 10
-2.880298204086794
 20
1.712017684910295
 10
-2.878128758510288
 20
1.711583795794986
 10
-2.875959312933789
 20
1.71100527697459
 10
-2.873934497062417
 20
1.710282128449104
 10
-2.871909681191045
 20
1.709269720513395
 10
-2.87002949502472
 20
1.708257312577688
 10
-2.868293938563571
 20
1.706955645231803
 10
-2.866558382102371
 20
1.705653977885918
 10
-2.865112085051356
 20
1.704207680834945
 10
-2.863955047410558
 20
1.702472124373751
 10
-2.862798009769806
 20
1.700881197617644
 10
-2.861930231539228
 20
1.699001011451361
 10
-2.861351712718793
 20
1.697120825285078
 10
-2.860917823603525
 20
1.695096009413706
 10
-2.860773193898435
 20
1.692926563837203
 10
-2.860773193898435
 20
1.593710586139344
 10
-2.860628564193348
 20
1.591396510857754
 10
-2.860339304783127
 20
1.58893780587107
 10
-2.859616156257636
 20
1.586623730589478
 10
-2.858603748321931
 20
1.584309655307931
 10
-2.857012821565866
 20
1.582429469141646
 10
-2.854988005694454
 20
1.58083854238554
 10
-2.852240041297593
 20
1.579826134449834
 10
-2.848768928375207
 20
1.579536875039658
 10
-2.817818171484019
 20
1.579536875039658
  0
LWPOLYLINE
  5
E89
330
17
100
AcDbEntity
  8
4
  6
Continuous
100
AcDbPolyline
 90
       34
 70
     0
 43
0.0
 10
-2.754088996579461
 20
1.717947502819323
 10
-2.748448438080654
 20
1.717368983998925
 10
-2.742952509286851
 20
1.716211946358128
 10
-2.737745839903308
 20
1.714187130486756
 10
-2.732683800224862
 20
1.711439166089897
 10
-2.728055649661675
 20
1.708257312577688
 10
-2.723572128803581
 20
1.704352310540033
 10
-2.719522497060836
 20
1.70001341938707
 10
-2.71576212472827
 20
1.695240639118796
 10
-2.71229101180588
 20
1.689889340030123
 10
-2.709398417703932
 20
1.684393411236366
 10
-2.706795083012162
 20
1.678463593327339
 10
-2.70462563743566
 20
1.67238914571318
 10
-2.702890080974469
 20
1.6660254386888
 10
-2.701733043333671
 20
1.659517101959376
 10
-2.700865265103097
 20
1.653008765229909
 10
-2.700720635398005
 20
1.646355798795354
 10
-2.70115452451327
 20
1.640281351181196
 10
-2.702311562154068
 20
1.634496162977256
 10
-2.704047118615264
 20
1.628855604478365
 10
-2.706361193896813
 20
1.623648935094825
 10
-2.709253787998799
 20
1.618586895416376
 10
-2.712580271216062
 20
1.61395874485319
 10
-2.716340643548671
 20
1.609764483405315
 10
-2.720245645586365
 20
1.60585948136766
 10
-2.724439907034199
 20
1.602243738740184
 10
-2.728778798187164
 20
1.599061885228015
 10
-2.733262319045212
 20
1.596313920831114
 10
-2.73760121019822
 20
1.593999845549524
 10
-2.742084731056273
 20
1.592264289088371
 10
-2.746278992504151
 20
1.590817992037355
 10
-2.750328624246892
 20
1.589950213806779
 10
-2.754088996579461
 20
1.589516324691469
 10
-2.754088996579461
 20
1.717947502819323
  0
LWPOLYLINE
  5
E8A
330
17
100
AcDbEntity
  8
4
  6
Continuous
100
AcDbPolyline
 90
       44
 70
     0
 43
0.0
 10
-2.737745839903308
 20
1.72995176834255
 10
-2.801816799262148
 20
1.72995176834255
 10
-2.799791983390774
 20
1.728794730701754
 10
-2.797477908109186
 20
1.727203803945648
 10
-2.79530846253268
 20
1.724889728664098
 10
-2.793139016956175
 20
1.722286393972288
 10
-2.791258830789939
 20
1.719249170165207
 10
-2.789667904033833
 20
1.715778057242864
 10
-2.788800125803254
 20
1.712162314615386
 10
-2.788366236687901
 20
1.708257312577688
 10
-2.788366236687901
 20
1.579536875039658
 10
-2.740349174595081
 20
1.579536875039658
 10
-2.73224991110955
 20
1.579970764154924
 10
-2.724439907034199
 20
1.581127801795719
 10
-2.716919162369066
 20
1.583007987962004
 10
-2.709832306819205
 20
1.585611322653814
 10
-2.703179340384688
 20
1.58893780587107
 10
-2.696815633360309
 20
1.592987437613859
 10
-2.691030445156375
 20
1.597470958471911
 10
-2.685679146067655
 20
1.602677627855493
 10
-2.680906365799425
 20
1.60831818635434
 10
-2.676567474646461
 20
1.614537263673589
 10
-2.672807102313896
 20
1.621190230108146
 10
-2.669769878506777
 20
1.62827708565801
 10
-2.667311173520094
 20
1.635797830323143
 10
-2.665430987353853
 20
1.643607834398495
 10
-2.664418579418145
 20
1.651851727589114
 10
-2.663984690302835
 20
1.660384880189954
 10
-2.664273949713058
 20
1.667616365444906
 10
-2.665430987353853
 20
1.674558591289641
 10
-2.667311173520094
 20
1.681211557724195
 10
-2.66991450821191
 20
1.687575264748575
 10
-2.673096361724076
 20
1.693794342067824
 10
-2.676856734056642
 20
1.69943490056667
 10
-2.681195625209649
 20
1.704786199655343
 10
-2.686113035183009
 20
1.709703609628705
 10
-2.691319704566552
 20
1.714187130486756
 10
-2.697104892770531
 20
1.718236762229543
 10
-2.703179340384688
 20
1.721707875151931
 10
-2.70968767711411
 20
1.724600469253879
 10
-2.716340643548671
 20
1.726914544535471
 10
-2.723282869393401
 20
1.728650100996665
 10
-2.730514354648359
 20
1.729662508932372
 10
-2.737745839903308
 20
1.72995176834255
  0
LWPOLYLINE
  5
E8B
330
17
100
AcDbEntity
  8
4
  6
Continuous
100
AcDbPolyline
 90
       61
 70
     0
 43
0.0
 10
-2.110491417795689
 20
1.665157660458225
 10
-2.106297156347774
 20
1.665446919868402
 10
-2.102247524605028
 20
1.6660254386888
 10
-2.098631781977551
 20
1.666893216919421
 10
-2.095305298760298
 20
1.668050254560215
 10
-2.092412704658303
 20
1.669496551611191
 10
-2.089664740261446
 20
1.671087478367295
 10
-2.087206035274768
 20
1.672967664533579
 10
-2.085036589698261
 20
1.675137110110038
 10
-2.083156403531936
 20
1.67745118539163
 10
-2.081565476775875
 20
1.679909890378311
 10
-2.080263809429985
 20
1.68251322507008
 10
-2.079251401494282
 20
1.685405819172071
 10
-2.078383623263706
 20
1.688298413274061
 10
-2.077805104443307
 20
1.691335637081141
 10
-2.077515845033133
 20
1.694517490593308
 10
-2.077371215328003
 20
1.697843973810565
 10
-2.077515845033133
 20
1.700881197617644
 10
-2.078094363853483
 20
1.703918421424723
 10
-2.078817512379018
 20
1.706811015526713
 10
-2.079974550019808
 20
1.709703609628705
 10
-2.081276217365696
 20
1.712451574025563
 10
-2.08301177382685
 20
1.715054908717376
 10
-2.084747330288085
 20
1.717513613704054
 10
-2.086916775864548
 20
1.719827688985605
 10
-2.089086221441006
 20
1.721852504857021
 10
-2.091544926427689
 20
1.723732691023303
 10
-2.094148261119456
 20
1.725323617779364
 10
-2.096896225516359
 20
1.726769914830383
 10
-2.099644189913258
 20
1.727926952471178
 10
-2.102536784015206
 20
1.728650100996665
 10
-2.105574007822332
 20
1.729228619817063
 10
-2.108611231629363
 20
1.729373249522153
 10
-2.209996654903728
 20
1.729373249522153
 10
-2.208550357852753
 20
1.728216211881355
 10
-2.207248690506869
 20
1.727059174240561
 10
-2.205947023160983
 20
1.725757506894676
 10
-2.204789985520186
 20
1.724600469253879
 10
-2.203632947879388
 20
1.723443431613082
 10
-2.202475910238596
 20
1.721997134562109
 10
-2.201463502302889
 20
1.720550837511136
 10
-2.200451094367223
 20
1.718815281049939
 10
-2.199004797316209
 20
1.715633427537773
 10
-2.19784775967541
 20
1.711873055205165
 10
-2.197124611149965
 20
1.708257312577688
 10
-2.196835351739745
 20
1.70536471847574
 10
-2.196690722034617
 20
1.57534261359178
 10
-2.161834963105814
 20
1.60585948136766
 10
-2.161834963105814
 20
1.666170068393934
 10
-2.146504214365285
 20
1.666314698099021
 10
-2.094292890824589
 20
1.579826134449834
 10
-2.049313052538844
 20
1.579536875039658
 10
-2.052061016935701
 20
1.581127801795719
 10
-2.054808981332563
 20
1.583007987962004
 10
-2.057412316024332
 20
1.584888174128329
 10
-2.059871021011011
 20
1.587057619704788
 10
-2.062329725997691
 20
1.589082435576161
 10
-2.064643801279284
 20
1.591396510857754
 10
-2.066957876560877
 20
1.593710586139344
 10
-2.069271951842469
 20
1.596169291126026
 10
-2.110491417795689
 20
1.665157660458225
  0
LWPOLYLINE
  5
E8C
330
17
100
AcDbEntity
  8
4
  6
Continuous
100
AcDbPolyline
 90
      205
 70
     0
 43
0.0
 10
-2.373543658514563
 20
1.712451574025563
 10
-2.377448660552218
 20
1.716501205768349
 10
-2.381642922000095
 20
1.720261578100916
 10
-2.386415702268369
 20
1.723443431613082
 10
-2.391477741946818
 20
1.726191396009983
 10
-2.396829041035488
 20
1.728505471291576
 10
-2.402324969829248
 20
1.730385657457859
 10
-2.408254787738274
 20
1.731831954508832
 10
-2.414184605647341
 20
1.732844362444541
 10
-2.420114423556416
 20
1.733422881264938
 10
-2.42618887117057
 20
1.733567510970028
 10
-2.432407948489816
 20
1.733133621854717
 10
-2.438337766398888
 20
1.732410473329232
 10
-2.444267584307957
 20
1.731108805983344
 10
-2.450052772511894
 20
1.729373249522153
 10
-2.455548701305652
 20
1.727059174240561
 10
-2.460900000394281
 20
1.724455839548791
 10
-2.464949632137113
 20
1.721997134562109
 10
-2.468710004469676
 20
1.719393799870339
 10
-2.472325747097154
 20
1.716356576063261
 10
-2.475652230314413
 20
1.713174722551094
 10
-2.478834083826579
 20
1.709703609628705
 10
-2.481726677928524
 20
1.706087867001226
 10
-2.484330012620339
 20
1.702182864963574
 10
-2.486788717607022
 20
1.698133233220785
 10
-2.488813533478396
 20
1.694083601477999
 10
-2.490693719644716
 20
1.689744710325035
 10
-2.492140016695691
 20
1.685261189466983
 10
-2.49329705433649
 20
1.680777668608931
 10
-2.494164832567065
 20
1.676294147750834
 10
-2.494598721682371
 20
1.671665997187693
 10
-2.494887981092548
 20
1.666893216919421
 10
-2.494598721682371
 20
1.662265066356235
 10
-2.494454091977285
 20
1.659950991074643
 10
-2.494164832567065
 20
1.657492286087961
 10
-2.493875573156845
 20
1.655178210806414
 10
-2.49329705433649
 20
1.65286413552482
 10
-2.492573905810957
 20
1.650694689948316
 10
-2.491416868170162
 20
1.648669874076946
 10
-2.489970571119187
 20
1.64707894732084
 10
-2.488090384952904
 20
1.645921909680045
 10
-2.48722260672233
 20
1.645488020564779
 10
-2.486354828491712
 20
1.645198761154556
 10
-2.485342420556004
 20
1.645054131449469
 10
-2.484474642325473
 20
1.645054131449469
 10
-2.483462234389761
 20
1.645198761154556
 10
-2.482449826454056
 20
1.645198761154556
 10
-2.481437418518345
 20
1.645488020564779
 10
-2.480135751172464
 20
1.645632650269865
 10
-2.437180728758093
 20
1.653153394934999
 10
-2.435300542591765
 20
1.653442654345217
 10
-2.433275726720435
 20
1.653731913755396
 10
-2.431395540554109
 20
1.653876543460485
 10
-2.429370724682736
 20
1.654021173165616
 10
-2.427490538516457
 20
1.654021173165616
 10
-2.425465722645042
 20
1.654021173165616
 10
-2.423585536478799
 20
1.654021173165616
 10
-2.421560720607388
 20
1.653876543460485
 10
-2.419680534441145
 20
1.653731913755396
 10
-2.417655718569728
 20
1.653442654345217
 10
-2.415775532403451
 20
1.653153394934999
 10
-2.413895346237164
 20
1.652719505819731
 10
-2.411870530365749
 20
1.652285616704423
 10
-2.40999034419947
 20
1.651707097884024
 10
-2.408254787738274
 20
1.651128579063625
 10
-2.406374601572036
 20
1.650405430538139
 10
-2.402035710419028
 20
1.648091355256546
 10
-2.398564597496636
 20
1.644909501744379
 10
-2.395816633099784
 20
1.641149129411813
 10
-2.394081076638626
 20
1.636954867963939
 10
-2.393068668702919
 20
1.632326717400753
 10
-2.3927794092927
 20
1.62755393713248
 10
-2.393357928113096
 20
1.622781156864252
 10
-2.394804225164071
 20
1.618153006301066
 10
-2.396250522215048
 20
1.615115782493987
 10
-2.397841448971194
 20
1.612223188391998
 10
-2.399866264842524
 20
1.609619853700228
 10
-2.402035710419028
 20
1.607161148713545
 10
-2.404494415405706
 20
1.604847073431954
 10
-2.407097750097477
 20
1.602822257560583
 10
-2.409845714494379
 20
1.601086701099389
 10
-2.41273830859637
 20
1.599495774343284
 10
-2.415775532403451
 20
1.598194106997399
 10
-2.418957385915618
 20
1.597181699061733
 10
-2.422139239427785
 20
1.596458550536203
 10
-2.425321092939951
 20
1.596169291126026
 10
-2.428647576157252
 20
1.596024661420935
 10
-2.431974059374553
 20
1.596313920831114
 10
-2.435155912886678
 20
1.596892439651514
 10
-2.438337766398888
 20
1.59776021788213
 10
-2.440941101090654
 20
1.598772625817795
 10
-2.443399806077336
 20
1.59992966345859
 10
-2.44571388135893
 20
1.601086701099389
 10
-2.448027956640525
 20
1.60253299815036
 10
-2.450342031922073
 20
1.603979295201379
 10
-2.452511477498575
 20
1.605714851662573
 10
-2.454680923075034
 20
1.607305778418636
 10
-2.45670573894645
 20
1.609185964584918
 10
-2.458585925112734
 20
1.6110661507512
 10
-2.460610740984104
 20
1.613090966622614
 10
-2.4623462974453
 20
1.615115782493987
 10
-2.464081853906491
 20
1.617140598365359
 10
-2.465817410367641
 20
1.61931004394186
 10
-2.46740833712375
 20
1.621624119223453
 10
-2.468999263879855
 20
1.623793564799917
 10
-2.47044556093083
 20
1.626107640081506
 10
-2.504722801039278
 20
1.609185964584918
 10
-2.501974836642414
 20
1.604702443726865
 10
-2.498792983130204
 20
1.600652811984079
 10
-2.495321870207863
 20
1.596747809946424
 10
-2.491561497875295
 20
1.593132067318948
 10
-2.487511866132506
 20
1.589950213806779
 10
-2.483172974979541
 20
1.587057619704788
 10
-2.478689454121492
 20
1.584454285013019
 10
-2.473916673853216
 20
1.582284839436516
 10
-2.468999263879855
 20
1.580404653270233
 10
-2.464081853906491
 20
1.578813726514169
 10
-2.458875184522955
 20
1.577656688873374
 10
-2.453668515139372
 20
1.576788910642756
 10
-2.44846184575579
 20
1.576355021527489
 10
-2.443255176372249
 20
1.576355021527489
 10
-2.438048506988667
 20
1.576788910642756
 10
-2.432841837605128
 20
1.577512059168243
 10
-2.427635168221545
 20
1.578813726514169
 10
-2.422573128543095
 20
1.580404653270233
 10
-2.417800348274822
 20
1.582429469141646
 10
-2.413027568006548
 20
1.585032803833416
 10
-2.408544047148494
 20
1.587780768230276
 10
-2.404349785700616
 20
1.590962621742443
 10
-2.400300153957878
 20
1.594433734664831
 10
-2.396539781625264
 20
1.598338736702529
 10
-2.393213298408014
 20
1.602388368445274
 10
-2.390031444895799
 20
1.606582629893149
 10
-2.387283480498943
 20
1.611210780456332
 10
-2.384969405217351
 20
1.615983560724563
 10
-2.382944589345977
 20
1.620756340992836
 10
-2.381353662589873
 20
1.625818380671329
 10
-2.380196624949078
 20
1.631025050054868
 10
-2.379618106128724
 20
1.636376349143541
 10
-2.379473476423629
 20
1.640425980886285
 10
-2.379618106128724
 20
1.644475612629071
 10
-2.380051995243988
 20
1.648380614666725
 10
-2.380775143769517
 20
1.65243024640951
 10
-2.381932181410273
 20
1.656190618742079
 10
-2.383233848756198
 20
1.659950991074643
 10
-2.384969405217351
 20
1.66356673370212
 10
-2.387138850793849
 20
1.667037846624508
 10
-2.388874407255002
 20
1.6693519219061
 10
-2.390754593421331
 20
1.671376737777474
 10
-2.3927794092927
 20
1.673256923943756
 10
-2.395093484574291
 20
1.67499248040495
 10
-2.397407559855841
 20
1.676583407161055
 10
-2.399866264842524
 20
1.67788507450694
 10
-2.402469599534337
 20
1.679186741852825
 10
-2.405217563931238
 20
1.680199149788531
 10
-2.407965528328098
 20
1.681211557724195
 10
-2.410713492724954
 20
1.681934706249683
 10
-2.413606086826944
 20
1.682657854775214
 10
-2.416354051223847
 20
1.683236373595568
 10
-2.419246645325794
 20
1.683670262710879
 10
-2.422139239427785
 20
1.683959522121099
 10
-2.425031833529772
 20
1.684248781531275
 10
-2.427779797926635
 20
1.684393411236366
 10
-2.42951535438783
 20
1.684538040941495
 10
-2.431395540554109
 20
1.684538040941495
 10
-2.433131097015305
 20
1.684393411236366
 10
-2.434866653476496
 20
1.684393411236366
 10
-2.436602209937691
 20
1.684248781531275
 10
-2.438482396103978
 20
1.684104151826186
 10
-2.440217952565126
 20
1.683814892415965
 10
-2.441953509026361
 20
1.683670262710879
 10
-2.443689065487518
 20
1.6833810033007
 10
-2.445424621948751
 20
1.683091743890478
 10
-2.447304808114991
 20
1.682802484480301
 10
-2.449040364576188
 20
1.68251322507008
 10
-2.450775921037378
 20
1.682223965659902
 10
-2.452511477498575
 20
1.681934706249683
 10
-2.454391663664857
 20
1.681645446839505
 10
-2.456127220126048
 20
1.681356187429285
 10
-2.481871307633656
 20
1.675137110110038
 10
-2.482449826454056
 20
1.67759581509672
 10
-2.482160567043879
 20
1.681356187429285
 10
-2.481148159108171
 20
1.68598433799247
 10
-2.479557232352068
 20
1.691191007376051
 10
-2.477243157070518
 20
1.696397676759591
 10
-2.47435056296848
 20
1.701315086732953
 10
-2.471024079751226
 20
1.70536471847574
 10
-2.467119077713571
 20
1.70840194228282
 10
-2.463647964791185
 20
1.709992869038881
 10
-2.46003222216375
 20
1.711149906679678
 10
-2.456271849831142
 20
1.712017684910295
 10
-2.452366847793442
 20
1.712451574025563
 10
-2.44846184575579
 20
1.712596203730694
 10
-2.444412214013044
 20
1.712451574025563
 10
-2.440507211975389
 20
1.711873055205165
 10
-2.436602209937691
 20
1.71100527697459
 10
-2.432697207899995
 20
1.709848239333793
 10
-2.429081465272517
 20
1.70840194228282
 10
-2.425465722645042
 20
1.706811015526713
 10
-2.422139239427785
 20
1.70493082936043
 10
-2.419102015620705
 20
1.702761383783928
 10
-2.416354051223847
 20
1.700302678797246
 10
-2.413895346237164
 20
1.697699344105476
 10
-2.411725900660663
 20
1.694951379708618
 10
-2.373543658514563
 20
1.712451574025563
  0
LWPOLYLINE
  5
E8D
330
17
100
AcDbEntity
  8
4
  6
Continuous
100
AcDbPolyline
 90
      133
 70
     0
 43
0.0
 10
-2.340588619804885
 20
1.722575653382508
 10
-2.343047324791561
 20
1.719972318690737
 10
-2.345361400073159
 20
1.716935094883658
 10
-2.347386215944528
 20
1.713753241371448
 10
-2.34955566152099
 20
1.710426758154189
 10
-2.351725107097493
 20
1.707244904642023
 10
-2.354039182379085
 20
1.704063051129855
 10
-2.356353257660678
 20
1.701170457027865
 10
-2.359101222057538
 20
1.698711752041183
 10
-2.360113629993247
 20
1.697988603515696
 10
-2.361126037928951
 20
1.697265454990168
 10
-2.362138445864657
 20
1.696542306464681
 10
-2.363150853800323
 20
1.695819157939193
 10
-2.364163261735988
 20
1.695096009413706
 10
-2.365320299376783
 20
1.69437286088822
 10
-2.366477337017578
 20
1.693649712362733
 10
-2.367923634068595
 20
1.692926563837203
 10
-2.315423051117633
 20
1.692926563837203
 10
-2.317737126399226
 20
1.69104637767092
 10
-2.319906571975731
 20
1.689166191504638
 10
-2.321931387847143
 20
1.687286005338354
 10
-2.32395620371847
 20
1.685261189466983
 10
-2.325836389884798
 20
1.683091743890478
 10
-2.327716576051081
 20
1.680922298314017
 10
-2.329452132512275
 20
1.678752852737515
 10
-2.331043059268341
 20
1.676438777455923
 10
-2.332778615729576
 20
1.673980072469244
 10
-2.334224912780548
 20
1.671376737777474
 10
-2.33567120983152
 20
1.668628773380613
 10
-2.337117506882496
 20
1.665880808983714
 10
-2.338563803933466
 20
1.662843585176632
 10
-2.339865471279398
 20
1.659806361369555
 10
-2.341167138625284
 20
1.656479878152298
 10
-2.342324176266081
 20
1.653008765229909
 10
-2.34434899213745
 20
1.645343390859645
 10
-2.345506029778249
 20
1.637678016489425
 10
-2.345650659483331
 20
1.629868012414073
 10
-2.34492751095789
 20
1.62205800833872
 10
-2.34333658420174
 20
1.614537263673589
 10
-2.340733249509973
 20
1.607161148713545
 10
-2.337406766292673
 20
1.600218922868813
 10
-2.333067875139753
 20
1.593855215844434
 10
-2.330898429563247
 20
1.591251881152664
 10
-2.328439724576568
 20
1.588793176165984
 10
-2.325691760179708
 20
1.5863344711793
 10
-2.322654536372589
 20
1.584165025602799
 10
-2.319617312565553
 20
1.581995580026338
 10
-2.31629082934825
 20
1.579970764154924
 10
-2.312819716425863
 20
1.578235207693771
 10
-2.309203973798386
 20
1.576644280937665
 10
-2.305588231170911
 20
1.575197983886693
 10
-2.301827858838343
 20
1.573896316540809
 10
-2.298212116210869
 20
1.572883908605101
 10
-2.2944517438783
 20
1.572160760079613
 10
-2.290691371545733
 20
1.571582241259216
 10
-2.287075628918258
 20
1.571437611554084
 10
-2.28345988629078
 20
1.571437611554084
 10
-2.279988773368437
 20
1.571726870964304
 10
-2.27564988221547
 20
1.572450019489791
 10
-2.271310991062462
 20
1.57331779772041
 10
-2.267116729614634
 20
1.574474835361206
 10
-2.263067097871889
 20
1.57592113241218
 10
-2.259017466129058
 20
1.577512059168243
 10
-2.255257093796493
 20
1.579392245334526
 10
-2.251496721463928
 20
1.581561690911029
 10
-2.248170238246671
 20
1.584020395897709
 10
-2.244843755029414
 20
1.586768360294611
 10
-2.241951160927381
 20
1.589660954396558
 10
-2.239203196530521
 20
1.592842807908768
 10
-2.23674449154384
 20
1.596313920831114
 10
-2.234575045967338
 20
1.600074293163681
 10
-2.232839489506186
 20
1.603979295201379
 10
-2.231393192455215
 20
1.60831818635434
 10
-2.230236154814416
 20
1.612801707212396
 10
-2.23341800832654
 20
1.610053742815535
 10
-2.23674449154384
 20
1.607595037828857
 10
-2.240360234171318
 20
1.605280962547264
 10
-2.243975976798793
 20
1.60340077638098
 10
-2.24773634913136
 20
1.601665219919785
 10
-2.251641351169015
 20
1.600218922868813
 10
-2.2556909829118
 20
1.599061885228015
 10
-2.259740614654588
 20
1.598194106997399
 10
-2.263790246397333
 20
1.597615588176999
 10
-2.267984507845208
 20
1.597470958471911
 10
-2.272034139587994
 20
1.597470958471911
 10
-2.276083771330736
 20
1.59790484758722
 10
-2.280133403073524
 20
1.598627996112708
 10
-2.284038405111224
 20
1.599785033753504
 10
-2.287943407148875
 20
1.601231330804475
 10
-2.291703779481443
 20
1.60296688726567
 10
-2.295319522108917
 20
1.605280962547264
 10
-2.298646005326219
 20
1.607739667533943
 10
-2.301683229133252
 20
1.610632261635934
 10
-2.304575823235243
 20
1.613669485443014
 10
-2.307034528221926
 20
1.617140598365359
 10
-2.309348603503519
 20
1.620611711287747
 10
-2.3112287896698
 20
1.624372083620313
 10
-2.312964346130995
 20
1.62827708565801
 10
-2.31441064318201
 20
1.632326717400753
 10
-2.315423051117633
 20
1.636376349143541
 10
-2.31629082934825
 20
1.640570610591415
 10
-2.316869348168689
 20
1.644909501744379
 10
-2.31715860757887
 20
1.649103763192254
 10
-2.31715860757887
 20
1.653442654345217
 10
-2.316869348168689
 20
1.657781545498183
 10
-2.31629082934825
 20
1.661975806946059
 10
-2.314699902592188
 20
1.666893216919421
 10
-2.312964346130995
 20
1.671232108072383
 10
-2.311084159964713
 20
1.675281739815129
 10
-2.308914714388208
 20
1.679042112147735
 10
-2.306600639106615
 20
1.682657854775214
 10
-2.303852674709759
 20
1.68598433799247
 10
-2.300670821197544
 20
1.689455450914858
 10
-2.29705507857007
 20
1.692781934132115
 10
-2.269575434601314
 20
1.692781934132115
 10
-2.267984507845208
 20
1.692781934132115
 10
-2.266104321678923
 20
1.693071193542335
 10
-2.264079505807554
 20
1.693360452952513
 10
-2.262054689936181
 20
1.693938971772911
 10
-2.26002987406477
 20
1.694517490593308
 10
-2.258294317603612
 20
1.695385268823885
 10
-2.256703390847465
 20
1.696253047054503
 10
-2.255546353206713
 20
1.6974100846953
 10
-2.229223746878708
 20
1.72951787922724
 10
-2.324100833423603
 20
1.72951787922724
 10
-2.326848797820503
 20
1.729373249522153
 10
-2.329162873102098
 20
1.729228619817063
 10
-2.331332318678558
 20
1.728794730701754
 10
-2.33321250484484
 20
1.728071582176267
 10
-2.335092691011122
 20
1.727203803945648
 10
-2.336828247472318
 20
1.726046766304895
 10
-2.338708433638601
 20
1.724455839548791
 10
-2.340588619804885
 20
1.722575653382508
  0
LWPOLYLINE
  5
E8E
330
17
100
AcDbEntity
  8
4
  6
Continuous
100
AcDbPolyline
 90
       21
 70
     0
 43
0.0
 10
-2.044746473160113
 20
1.72951787922724
 10
-2.041998508763255
 20
1.728071582176267
 10
-2.039684433481664
 20
1.726336025715073
 10
-2.037659617610291
 20
1.724311209843699
 10
-2.036213320559275
 20
1.721997134562109
 10
-2.035056282918477
 20
1.719393799870339
 10
-2.034188504687904
 20
1.716645835473438
 10
-2.033754615572592
 20
1.71360861166636
 10
-2.033609985867506
 20
1.710426758154189
 10
-2.033609985867506
 20
1.579536875039658
 10
-1.998031078413172
 20
1.579536875039658
 10
-1.998031078413172
 20
1.710860647269501
 10
-1.99788644870809
 20
1.713897871076579
 10
-1.997163300182555
 20
1.716501205768349
 10
-1.996295521951982
 20
1.719104540460119
 10
-1.99484922490101
 20
1.721418615741709
 10
-1.9932582981449
 20
1.723588061318214
 10
-1.991233482273528
 20
1.725757506894676
 10
-1.989064036697071
 20
1.727637693060958
 10
-1.986460702005255
 20
1.72951787922724
 10
-2.044746473160113
 20
1.72951787922724
  0
LWPOLYLINE
  5
E8F
330
17
100
AcDbEntity
  8
4
  6
Continuous
100
AcDbPolyline
 90
       21
 70
     0
 43
0.0
 10
-2.111214566321133
 20
1.697843973810565
 10
-2.111648455436486
 20
1.693360452952513
 10
-2.112950122782371
 20
1.689166191504638
 10
-2.114974938653745
 20
1.68555044887716
 10
-2.117722903050648
 20
1.682368595364994
 10
-2.121049386267859
 20
1.679765260673224
 10
-2.124809758600465
 20
1.67788507450694
 10
-2.128859390343253
 20
1.676728036866142
 10
-2.133198281496176
 20
1.676294147750834
 10
-2.162268852221081
 20
1.676294147750834
 10
-2.162268852221081
 20
1.71346398196127
 10
-2.1653060760282
 20
1.720550837511136
 10
-2.132764392380909
 20
1.720550837511136
 10
-2.128280871522814
 20
1.720116948395824
 10
-2.124231239780069
 20
1.718815281049939
 10
-2.120615497152595
 20
1.716790465178526
 10
-2.117433643640381
 20
1.714042500781668
 10
-2.114830308948612
 20
1.71057138785928
 10
-2.112950122782371
 20
1.706811015526713
 10
-2.111648455436486
 20
1.702472124373751
 10
-2.111214566321133
 20
1.697843973810565
  0
TEXT
  5
E90
330
17
100
AcDbEntity
  8
3
100
AcDbText
 10
-1.624573913904774
 20
1.14069934460157
 30
0.0
 40
0.0781522982138528
  1
1
  7
SIMPLEX
100
AcDbText
  0
LINE
  5
E91
330
17
100
AcDbEntity
  8
0
100
AcDbLine
 10
-1.524996345786884
 20
1.088837136489872
 30
0.0
 11
-1.524996345786884
 21
1.268913789283077
 31
0.0
  0
TEXT
  5
E92
330
17
100
AcDbEntity
  8
3
100
AcDbText
 10
-1.792975828118971
 20
1.161751422157343
 30
0.0
 40
0.038763539914071
  1
OF
  7
SIMPLEX
100
AcDbText
  0
TEXT
  5
E93
330
17
100
AcDbEntity
  8
3
100
AcDbText
 10
-1.420055903101721
 20
1.15613944390253
 30
0.0
 40
0.0390761491069264
  1
SCALE:
  7
SIMPLEX
100
AcDbText
  0
LINE
  5
E94
330
17
100
AcDbEntity
  8
0
100
AcDbLine
 10
-1.185245208591637
 20
0.8
 30
0.0
 11
-1.185245208591637
 21
1.088837136489872
 31
0.0
  0
TEXT
  5
E95
330
17
100
AcDbEntity
  8
3
100
AcDbText
 10
-1.046312564374474
 20
0.8589523399345067
 30
0.0
 40
0.0875305739995151
  1
A
  7
SIMPLEX
 72
     1
 11
-1.012967583803231
 21
0.8589523399345067
 31
0.0
100
AcDbText
  0
TEXT
  5
E96
330
17
100
AcDbEntity
  8
3
100
AcDbText
 10
-1.067062047994538
 20
1.015346836363334
 30
0.0
 40
0.0390761491069264
  1
REV.
  7
SIMPLEX
100
AcDbText
  0
TEXT
  5
E97
330
17
100
AcDbEntity
  8
3
100
AcDbText
 10
-1.118090304992136
 20
1.148242052218146
 30
0.0
 40
0.0535812156554175
  1
1=1
  7
SIMPLEX
 72
     1
 11
-1.058130373187263
 21
1.148242052218146
 31
0.0
100
AcDbText
  0
TEXT
  5
E98
330
17
100
AcDbEntity
  8
4
100
AcDbText
 10
-1.639213080861209
 20
1.577369927989768
 30
0.0
 40
0.094
  1
inc., erie, pa.
  7
T
100
AcDbText
  0
LWPOLYLINE
  5
E99
330
17
100
AcDbEntity
  8
4
  6
Continuous
 62
     4
100
AcDbPolyline
 90
      205
 70
     0
 43
0.0
 10
-1.71142022063035
 20
1.711439166089897
 10
-1.715325222668005
 20
1.715488797832641
 10
-1.719519484115924
 20
1.719104540460119
 10
-1.724292264384153
 20
1.722286393972288
 10
-1.729354304062649
 20
1.725178988074277
 10
-1.734705603151275
 20
1.727493063355869
 10
-1.740201531945078
 20
1.729373249522153
 10
-1.745986720149015
 20
1.730819546573125
 10
-1.751916538058043
 20
1.731831954508832
 10
-1.7579909856722
 20
1.732265843624142
 10
-1.76406543328636
 20
1.732410473329232
 10
-1.770139880900515
 20
1.732121213919053
 10
-1.776214328514676
 20
1.731253435688435
 10
-1.782144146423745
 20
1.72995176834255
 10
-1.787929334627725
 20
1.728216211881355
 10
-1.793425263421443
 20
1.726046766304895
 10
-1.798776562510155
 20
1.723443431613082
 10
-1.8028261942529
 20
1.720984726626401
 10
-1.806586566585461
 20
1.718236762229543
 10
-1.810202309212943
 20
1.715344168127553
 10
-1.813528792430239
 20
1.712162314615386
 10
-1.816710645942364
 20
1.708691201692996
 10
-1.8196032400444
 20
1.70493082936043
 10
-1.822351204441256
 20
1.701170457027865
 10
-1.824665279722849
 20
1.697120825285078
 10
-1.82683472529931
 20
1.692926563837203
 10
-1.828714911465596
 20
1.688587672684239
 10
-1.830161208516566
 20
1.684248781531275
 10
-1.831318246157366
 20
1.679765260673224
 10
-1.832186024387985
 20
1.675137110110038
 10
-1.832764543208383
 20
1.670508959546895
 10
-1.832909172913469
 20
1.665880808983714
 10
-1.832619913503246
 20
1.661252658420571
 10
-1.832475283798164
 20
1.658793953433889
 10
-1.832186024387985
 20
1.656479878152298
 10
-1.831896764977805
 20
1.654021173165616
 10
-1.831318246157366
 20
1.651707097884024
 10
-1.830450467926791
 20
1.649537652307521
 10
-1.829438059991121
 20
1.647512836436149
 10
-1.827847133235021
 20
1.645921909680045
 10
-1.825966947068734
 20
1.64476487203929
 10
-1.825099168838118
 20
1.64433098292398
 10
-1.824231390607543
 20
1.64404172351376
 10
-1.823218982671831
 20
1.64404172351376
 10
-1.822351204441256
 20
1.64404172351376
 10
-1.821338796505553
 20
1.64404172351376
 10
-1.820326388569846
 20
1.644186353218894
 10
-1.819169350929048
 20
1.644475612629071
 10
-1.817867683583165
 20
1.644620242334158
 10
-1.774912661168791
 20
1.652140986999332
 10
-1.773032475002504
 20
1.65243024640951
 10
-1.771007659131135
 20
1.6525748761146
 10
-1.76912747296481
 20
1.65286413552482
 10
-1.76710265709348
 20
1.65286413552482
 10
-1.765222470927156
 20
1.653008765229909
 10
-1.763197655055783
 20
1.653008765229909
 10
-1.761317468889497
 20
1.65286413552482
 10
-1.759292653018085
 20
1.652719505819731
 10
-1.757412466851846
 20
1.6525748761146
 10
-1.75538765098043
 20
1.652285616704423
 10
-1.753507464814148
 20
1.651996357294201
 10
-1.751627278647865
 20
1.651562468178935
 10
-1.74974709248158
 20
1.651128579063625
 10
-1.747866906315301
 20
1.650694689948316
 10
-1.745986720149015
 20
1.650116171127917
 10
-1.74425116368782
 20
1.649393022602431
 10
-1.739912272534815
 20
1.64707894732084
 10
-1.73629652990738
 20
1.643897093808671
 10
-1.733693195215568
 20
1.640136721476106
 10
-1.731813009049329
 20
1.635797830323143
 10
-1.730800601113616
 20
1.631314309465089
 10
-1.730655971408531
 20
1.626541529196815
 10
-1.731234490228889
 20
1.621768748928543
 10
-1.732680787279903
 20
1.616995968660269
 10
-1.73412708433092
 20
1.61395874485319
 10
-1.735718011086984
 20
1.6110661507512
 10
-1.737742826958394
 20
1.60846281605943
 10
-1.739912272534815
 20
1.60600411107275
 10
-1.742226347816405
 20
1.603690035791159
 10
-1.744829682508217
 20
1.601665219919785
 10
-1.747722276610208
 20
1.59992966345859
 10
-1.750614870712158
 20
1.598338736702529
 10
-1.753652094519239
 20
1.5970370693566
 10
-1.756689318326315
 20
1.596169291126026
 10
-1.760015801543616
 20
1.595446142600539
 10
-1.763197655055783
 20
1.595012253485229
 10
-1.766379508567951
 20
1.594867623780141
 10
-1.76970599178525
 20
1.595156883190319
 10
-1.772887845297418
 20
1.595735402010715
 10
-1.776069698809589
 20
1.596747809946424
 10
-1.778673033501359
 20
1.59776021788213
 10
-1.781131738488034
 20
1.598917255522884
 10
-1.783590443474718
 20
1.600074293163681
 10
-1.78590451875631
 20
1.601520590214698
 10
-1.788218594037902
 20
1.60296688726567
 10
-1.790388039614401
 20
1.604557814021775
 10
-1.792412855485735
 20
1.606293370482972
 10
-1.79458230106224
 20
1.608173556649254
 10
-1.796462487228565
 20
1.610053742815535
 10
-1.798342673394801
 20
1.611933928981819
 10
-1.800222859561131
 20
1.61395874485319
 10
-1.80195841602228
 20
1.616128190429694
 10
-1.803693972483518
 20
1.618297636006157
 10
-1.80528489923958
 20
1.620467081582659
 10
-1.806875825995639
 20
1.622636527159118
 10
-1.808322123046656
 20
1.62495060244071
 10
-1.842743992860191
 20
1.608173556649254
 10
-1.839996028463334
 20
1.603690035791159
 10
-1.836814174951165
 20
1.599495774343284
 10
-1.833343062028781
 20
1.595590772305629
 10
-1.829582689696213
 20
1.59211965938324
 10
-1.825533057953425
 20
1.588793176165984
 10
-1.821194166800458
 20
1.585900582063994
 10
-1.816566016237278
 20
1.583297247372223
 10
-1.811937865674138
 20
1.581127801795719
 10
-1.807020455700732
 20
1.579247615629436
 10
-1.80195841602228
 20
1.577656688873374
 10
-1.796751746638739
 20
1.576499651232579
 10
-1.791545077255199
 20
1.575776502707091
 10
-1.78633840787162
 20
1.57534261359178
 10
-1.781131738488034
 20
1.57534261359178
 10
-1.775925069104494
 20
1.575631873001958
 10
-1.770718399720959
 20
1.576499651232579
 10
-1.765511730337333
 20
1.577656688873374
 10
-1.760449690658879
 20
1.579392245334526
 10
-1.755676910390608
 20
1.581417061205939
 10
-1.750904130122378
 20
1.583875766192621
 10
-1.746420609264325
 20
1.586768360294611
 10
-1.742081718111317
 20
1.589950213806779
 10
-1.738176716073667
 20
1.593421326729123
 10
-1.734416343741099
 20
1.597181699061733
 10
-1.73094523081871
 20
1.601231330804475
 10
-1.72790800701163
 20
1.605570221957441
 10
-1.725160042614727
 20
1.610053742815535
 10
-1.72270133762809
 20
1.614826523083809
 10
-1.720821151461809
 20
1.61974393305717
 10
-1.719230224705704
 20
1.624805972735621
 10
-1.718073187064906
 20
1.630012642119161
 10
-1.717494668244507
 20
1.635219311502743
 10
-1.71720540883433
 20
1.63926894324553
 10
-1.717350038539421
 20
1.643318574988273
 10
-1.717783927654686
 20
1.647368206731061
 10
-1.718507076180215
 20
1.651273208768715
 10
-1.71966411382101
 20
1.655178210806414
 10
-1.721110410871985
 20
1.658938583138977
 10
-1.722845967333178
 20
1.662554325766456
 10
-1.72501541290964
 20
1.6660254386888
 10
-1.726750969370879
 20
1.668194884265304
 10
-1.728631155537119
 20
1.670364329841765
 10
-1.730655971408531
 20
1.67224451600809
 10
-1.732825416984989
 20
1.673835442764153
 10
-1.735284121971715
 20
1.675426369520257
 10
-1.737742826958394
 20
1.676872666571234
 10
-1.740346161650164
 20
1.678029704212027
 10
-1.742949496341938
 20
1.679186741852825
 10
-1.745697460738796
 20
1.6800545200834
 10
-1.748445425135698
 20
1.680922298314017
 10
-1.751338019237685
 20
1.681645446839505
 10
-1.754230613339635
 20
1.682223965659902
 10
-1.757123207441625
 20
1.682657854775214
 10
-1.760015801543616
 20
1.68294711418539
 10
-1.762908395645563
 20
1.683236373595568
 10
-1.765656360042463
 20
1.6833810033007
 10
-1.767391916503658
 20
1.6833810033007
 10
-1.76927210266994
 20
1.6833810033007
 10
-1.771007659131135
 20
1.6833810033007
 10
-1.772743215592284
 20
1.683236373595568
 10
-1.77447877205352
 20
1.683091743890478
 10
-1.776214328514676
 20
1.68294711418539
 10
-1.777949884975868
 20
1.682802484480301
 10
-1.779685441437063
 20
1.68251322507008
 10
-1.781565627603344
 20
1.682223965659902
 10
-1.783301184064541
 20
1.681934706249683
 10
-1.785036740525733
 20
1.681645446839505
 10
-1.786772296986928
 20
1.681500817134416
 10
-1.78850785344808
 20
1.681211557724195
 10
-1.790243409909275
 20
1.680922298314017
 10
-1.792123596075554
 20
1.680633038903798
 10
-1.79385915253675
 20
1.68034377949362
 10
-1.81974786974949
 20
1.673980072469244
 10
-1.820181758864754
 20
1.676438777455923
 10
-1.819892499454578
 20
1.680199149788531
 10
-1.819024721223956
 20
1.684827300351673
 10
-1.817289164762808
 20
1.690033969735255
 10
-1.815119719186306
 20
1.695240639118796
 10
-1.812227125084315
 20
1.700158049092158
 10
-1.808756012161968
 20
1.704207680834945
 10
-1.80485101012427
 20
1.707244904642023
 10
-1.801379897201924
 20
1.708835831398086
 10
-1.797764154574448
 20
1.710137498744013
 10
-1.794003782241883
 20
1.710860647269501
 10
-1.790098780204181
 20
1.711439166089897
 10
-1.786193778166484
 20
1.711583795794986
 10
-1.782144146423745
 20
1.711294536384766
 10
-1.778239144386088
 20
1.710860647269501
 10
-1.774334142348394
 20
1.709992869038881
 10
-1.770429140310735
 20
1.708835831398086
 10
-1.76681339768326
 20
1.707389534347111
 10
-1.763342284760913
 20
1.705653977885918
 10
-1.760015801543616
 20
1.703773791719636
 10
-1.756978577736538
 20
1.701604346143175
 10
-1.754085983634548
 20
1.699145641156493
 10
-1.751627278647865
 20
1.696542306464681
 10
-1.749602462776454
 20
1.693794342067824
 10
-1.71142022063035
 20
1.711439166089897
  0
TEXT
  5
E9E
330
17
100
AcDbEntity
  8
2
100
AcDbText
 10
-8.384438588827002
 20
10.08952497318785
 30
0.0
 40
0.078
  1
D
  7
SIMPLEX
 72
     1
 11
-8.358438588827002
 21
10.08952497318785
 31
0.0
100
AcDbText
  0
LINE
  5
E9F
330
17
100
AcDbEntity
  8
3
100
AcDbLine
 10
-7.300675553537264
 20
10.0624474252566
 30
0.0
 11
-7.30067555353726
 21
10.2
 31
0.0
  0
TEXT
  5
EA0
330
17
100
AcDbEntity
  8
2
100
AcDbText
 10
-6.197236618383652
 20
10.08952497318785
 30
0.0
 40
0.078
  1
E
  7
SIMPLEX
 72
     1
 11
-6.173093761240795
 21
10.08952497318785
 31
0.0
100
AcDbText
  0
LINE
  5
EA8
330
17
100
AcDbEntity
  8
3
100
AcDbLine
 10
-5.15045036902484
 20
10.0624474252566
 30
0.0
 11
-5.15045036902484
 21
10.2
 31
0.0
  0
TEXT
  5
EAA
330
17
100
AcDbEntity
  8
2
100
AcDbText
 10
-4.095943514935375
 20
10.08952497318785
 30
0.0
 40
0.078
  1
F
  7
SIMPLEX
 72
     1
 11
-4.071800657792517
 21
10.08952497318785
 31
0.0
100
AcDbText
  0
LINE
  5
EAF
330
17
100
AcDbEntity
  8
3
100
AcDbLine
 10
-3.000225184512423
 20
10.0624474252566
 30
0.0
 11
-3.000225184512423
 21
10.2
 31
0.0
  0
TEXT
  5
EB0
330
17
100
AcDbEntity
  8
2
100
AcDbText
 10
-1.970347455822077
 20
10.08952497318785
 30
0.0
 40
0.078
  1
G
  7
SIMPLEX
 72
     1
 11
-1.942490312964934
 21
10.08952497318785
 31
0.0
100
AcDbText
  0
LINE
  5
131E
330
17
100
AcDbEntity
  8
0
100
AcDbLine
 10
-3.619601529851441
 20
7.71711452081359
 30
0.0
 11
-4.523833858345716
 21
7.71711452081359
 31
0.0
  0
LINE
  5
131F
330
17
100
AcDbEntity
  8
0
100
AcDbLine
 10
-3.619601529851441
 20
7.71711452081359
 30
0.0
 11
-2.912530366454179
 21
6.984920897108559
 31
0.0
  0
CIRCLE
  5
1320
330
17
100
AcDbEntity
  8
0
100
AcDbCircle
 10
-3.672660881877642
 20
7.59211452081359
 30
0.0
 40
0.02325
  0
CIRCLE
  5
1321
330
17
100
AcDbEntity
  8
0
100
AcDbCircle
 10
-3.112823554948866
 20
6.904614520813589
 30
0.0
 40
0.02325
  0
LINE
  5
1322
330
17
100
AcDbEntity
  8
0
100
AcDbLine
 10
-3.045316590278162
 20
6.77961452081359
 30
0.0
 11
-2.912530366454179
 21
6.984920897108559
 31
0.0
  0
LINE
  5
1323
330
17
100
AcDbEntity
  8
0
100
AcDbLine
 10
-3.045316590278162
 20
6.77961452081359
 30
0.0
 11
-5.547618469711021
 21
6.77961452081359
 31
0.0
  0
CIRCLE
  5
1324
330
17
100
AcDbEntity
  8
0
100
AcDbCircle
 10
-5.128926266747646
 20
6.90461452081359
 30
0.0
 40
0.02325
  0
ARC
  5
1325
330
17
100
AcDbEntity
  8
0
100
AcDbCircle
 10
-7.046562393655404
 20
9.444271921206116
 30
0.0
 40
3.057324311975493
100
AcDbArc
 50
299.3589644660323
 51
325.6029515596889
  0
CIRCLE
  5
1326
330
17
100
AcDbEntity
  8
0
100
AcDbCircle
 10
-4.458763910241076
 20
7.592114520813589
 30
0.0
 40
0.02325
  0
LINE
  5
1328
330
17
100
AcDbEntity
  8
0
  6
HIDDEN
100
AcDbLine
 10
-3.037555337487853
 20
6.791614520813587
 30
0.0
 11
-5.526483229684263
 21
6.79161452081359
 31
0.0
  0
DIMENSION
  5
132A
330
17
100
AcDbEntity
  8
3
100
AcDbDimension
  2
*D11
 10
-1.781935546261508
 20
6.570758761559821
 30
0.0
 11
-1.314814582257284
 21
6.580107689342672
 31
0.0
 70
   160
 71
     5
 42
0.0625
  3
STANDARD
100
AcDbAlignedDimension
 13
-1.844435546261508
 23
6.788212015607478
 33
0.0
 14
-1.781935546261508
 24
6.788212015607478
 34
0.0
100
AcDbRotatedDimension
1001
ACAD
1000
DSTYLE
1002
{
1070
    41
1040
0.125
1070
    44
1040
0.0625
1070
    73
1070
     0
1070
    74
1070
     0
1070
    78
1070
     4
1070
   140
1040
0.125
1070
   141
1040
-0.125
1070
   271
1070
     3
1070
   272
1070
     3
1070
   279
1070
     2
1070
   284
1070
     4
1070
   285
1070
     4
1070
   286
1070
     4
1070
   340
1005
1C
1002
}
  0
LINE
  5
132B
330
17
100
AcDbEntity
  8
0
100
AcDbLine
 10
-1.844435546261508
 20
6.788212015607478
 30
0.0
 11
-1.844435546261509
 21
7.71711452081359
 31
0.0
  0
LINE
  5
132C
330
17
100
AcDbEntity
  8
0
100
AcDbLine
 10
-1.829435546261508
 20
6.803212015607478
 30
0.0
 11
-1.829435546261508
 21
7.71711452081359
 31
0.0
  0
DIMENSION
  5
132D
330
17
100
AcDbEntity
  8
3
100
AcDbDimension
  2
*D10
 10
-2.107774856758539
 20
7.71711452081359
 30
0.0
 11
-2.107774856758541
 21
7.252663268210533
 31
0.0
 70
    32
  1
.93
 71
     5
 42
0.9289025052061106
  3
STANDARD
100
AcDbAlignedDimension
 13
-1.844435546261508
 23
6.788212015607478
 33
0.0
 14
-1.844435546261509
 24
7.71711452081359
 34
0.0
 50
90.0
100
AcDbRotatedDimension
1001
ACAD
1000
DSTYLE
1002
{
1070
    41
1040
0.125
1070
    44
1040
0.0625
1070
    73
1070
     0
1070
    74
1070
     0
1070
    78
1070
     4
1070
   140
1040
0.125
1070
   141
1040
-0.125
1070
   271
1070
     3
1070
   272
1070
     3
1070
   279
1070
     2
1070
   284
1070
     4
1070
   285
1070
     4
1070
   286
1070
     4
1070
   340
1005
1C
1002
}
  0
LINE
  5
132E
330
17
100
AcDbEntity
  8
0
100
AcDbLine
 10
-1.844435546261508
 20
6.788212015607478
 30
0.0
 11
-1.781935546261508
 21
6.788212015607478
 31
0.0
  0
LINE
  5
132F
330
17
100
AcDbEntity
  8
0
100
AcDbLine
 10
-1.781935546261508
 20
6.788212015607478
 30
0.0
 11
-1.781935546261508
 21
6.80321201560748
 31
0.0
  0
LINE
  5
1330
330
17
100
AcDbEntity
  8
0
100
AcDbLine
 10
-1.781935546261508
 20
6.80321201560748
 30
0.0
 11
-1.829435546261508
 21
6.803212015607478
 31
0.0
  0
LINE
  5
1331
330
17
100
AcDbEntity
  8
0
100
AcDbLine
 10
-1.844435546261509
 20
7.71711452081359
 30
0.0
 11
-1.829435546261508
 21
7.71711452081359
 31
0.0
  0
DIMENSION
  5
136E
330
17
100
AcDbEntity
  8
3
100
AcDbDimension
  2
*D13
 10
-2.912530366454179
 20
6.125408329374704
 30
0.0
 11
-4.230074418082603
 21
6.125408329374704
 31
0.0
 70
    32
 71
     5
 42
2.635088103256845
  3
STANDARD
100
AcDbAlignedDimension
 13
-5.547618469711025
 23
6.779614520813589
 33
0.0
 14
-2.912530366454179
 24
6.984920897108559
 34
0.0
100
AcDbRotatedDimension
1001
ACAD
1000
DSTYLE
1002
{
1070
    41
1040
0.125
1070
    44
1040
0.0625
1070
    73
1070
     0
1070
    74
1070
     0
1070
    78
1070
     4
1070
   140
1040
0.125
1070
   141
1040
-0.125
1070
   271
1070
     3
1070
   272
1070
     3
1070
   279
1070
     2
1070
   284
1070
     4
1070
   285
1070
     4
1070
   286
1070
     4
1070
   340
1005
1C
1002
}
  0
LINE
  5
1475
102
{ACAD_REACTORS
330
1989
102
}
330
17
100
AcDbEntity
  8
4
100
AcDbLine
 10
-6.678251227694683
 20
7.158573929533737
 30
0.0
 11
-7.492921032476315
 21
4.792601020772887
 31
0.0
  0
LINE
  5
14E5
330
17
100
AcDbEntity
  8
3
  6
HIDDEN
 48
2.0
100
AcDbLine
 10
-12.29684718395251
 20
7.158573929533737
 30
0.0
 11
-11.48217737917088
 21
4.792601020772887
 31
0.0
  0
HATCH
  5
1989
330
17
100
AcDbEntity
  8
0
100
AcDbHatch
 10
0.0
 20
0.0
 30
0.0
210
0.0
220
0.0
230
1.0
  2
ANSI31
 70
     0
 71
     1
 91
        1
 92
        7
 72
     1
 73
     1
 93
        6
 10
-8.342551440732242
 20
6.645252228928483
 42
0.5261170668562439
 10
-8.376558816206751
 20
6.442048561412085
 42
-0.1567725398839827
 10
-7.492921032476313
 20
4.792601020772893
 42
0.0
 10
-6.678251227694683
 20
7.158573929533737
 42
0.0077902000659837
 10
-6.770946426508076
 20
7.276238446244676
 42
0.3387005411205683
 10
-6.919311653862621
 20
7.308919840936677
 42
0.0
 97
        2
330
D0F
330
1475
 75
     0
 76
     1
 52
0.0
 41
1.0
 77
     0
 78
     1
 53
45.0
 43
0.0
 44
0.0
 45
-0.0883883476483184
 46
0.0883883476483185
 79
     0
 47
0.0124040093390834
 98
        1
 10
-7.315539366628718
 20
6.737764844354611
  0
DIMENSION
  5
1FC5
330
17
100
AcDbEntity
  8
3
100
AcDbDimension
  2
*D16
 10
-8.414724158014657
 20
7.982388690379742
 30
0.0
 11
-7.053906177574067
 21
7.982388690379742
 31
0.0
 70
    32
 71
     5
 42
2.721635960881178
  3
STANDARD
100
AcDbAlignedDimension
 13
-5.693088197133477
 23
4.242849289008137
 33
0.0
 14
-8.414724158014657
 24
6.531963755548902
 34
0.0
100
AcDbRotatedDimension
1001
ACAD
1000
DSTYLE
1002
{
1070
    41
1040
0.125
1070
    44
1040
0.0625
1070
    73
1070
     0
1070
    74
1070
     0
1070
    78
1070
     4
1070
   140
1040
0.125
1070
   141
1040
-0.125
1070
   271
1070
     3
1070
   272
1070
     3
1070
   279
1070
     2
1070
   284
1070
     4
1070
   285
1070
     4
1070
   286
1070
     4
1070
   340
1005
1C
1002
}
  0
ENDSEC
  0
SECTION
  2
OBJECTS
  0
DICTIONARY
  5
C
330
0
100
AcDbDictionary
281
     1
  3
ACAD_CIP_PREVIOUS_PRODUCT_INFO
350
1FC4
  3
ACAD_COLOR
350
1FA5
  3
ACAD_DETAILVIEWSTYLE
350
1FBE
  3
ACAD_GROUP
350
D
  3
ACAD_LAYOUT
350
B15
  3
ACAD_MATERIAL
350
1F73
  3
ACAD_MLEADERSTYLE
350
1FBA
  3
ACAD_MLINESTYLE
350
1A
  3
ACAD_PLOTSETTINGS
350
B16
  3
ACAD_PLOTSTYLENAME
350
B13
  3
ACAD_SCALELIST
350
1FA8
  3
ACAD_SECTIONVIEWSTYLE
350
1FBC
  3
ACAD_TABLESTYLE
350
1FA6
  3
ACAD_VISUALSTYLE
350
1F8C
  3
AcadDim
350
F2A
  3
ACDB_RECOMPOSE_DATA
350
2059
  3
ACDBVARIABLEDICTIONARY
350
2B
  3
AcDsDecomposeData
350
2060
  3
DWGPROPS
350
205A
  0
DICTIONARY
  5
1FE5
330
2
100
AcDbDictionary
280
     1
281
     1
  3
ACAD_LAYERSTATES
360
1FE6
  0
DICTIONARY
  5
1FDA
330
E
100
AcDbDictionary
280
     1
281
     1
  3
ADSK_XREC_LAYER_RECONCILED
360
1FDB
  0
DICTIONARY
  5
1FDC
330
23
100
AcDbDictionary
280
     1
281
     1
  3
ADSK_XREC_LAYER_RECONCILED
360
1FDD
  0
DICTIONARY
  5
1FDE
330
24
100
AcDbDictionary
280
     1
281
     1
  3
ADSK_XREC_LAYER_RECONCILED
360
1FDF
  0
DICTIONARY
  5
1FE0
330
25
100
AcDbDictionary
280
     1
281
     1
  3
ADSK_XREC_LAYER_RECONCILED
360
1FE1
  0
XRECORD
  5
1FC4
102
{ACAD_REACTORS
330
C
102
}
330
C
100
AcDbXrecord
280
     1
300
AMECH_PP
300
2015
300
PDSU_F_S
  0
DICTIONARY
  5
1FA5
102
{ACAD_REACTORS
330
C
102
}
330
C
100
AcDbDictionary
281
     1
  0
DICTIONARY
  5
1FBE
102
{ACAD_REACTORS
330
C
102
}
330
C
100
AcDbDictionary
281
     1
  3
Imperial24
350
1FBF
  0
DICTIONARY
  5
D
102
{ACAD_REACTORS
330
C
102
}
330
C
100
AcDbDictionary
281
     1
  0
DICTIONARY
  5
B15
102
{ACAD_REACTORS
330
C
102
}
330
C
100
AcDbDictionary
281
     1
  3
Layout1
350
B18
  3
Model
350
B17
  0
DICTIONARY
  5
1F73
102
{ACAD_REACTORS
330
C
102
}
330
C
100
AcDbDictionary
281
     1
  3
ByBlock
350
1F7C
  3
ByLayer
350
1F74
  3
Global
350
1F84
  0
DICTIONARY
  5
1FBA
102
{ACAD_REACTORS
330
C
102
}
330
C
100
AcDbDictionary
281
     1
  3
Standard
350
1FBB
  0
DICTIONARY
  5
1A
102
{ACAD_REACTORS
330
C
102
}
330
C
100
AcDbDictionary
281
     1
  3
STANDARD
350
1B
  0
DICTIONARY
  5
B16
102
{ACAD_REACTORS
330
C
102
}
330
C
100
AcDbDictionary
281
     1
  0
ACDBDICTIONARYWDFLT
  5
B13
102
{ACAD_REACTORS
330
C
102
}
330
C
100
AcDbDictionary
281
     1
  3
Normal
350
B14
100
AcDbDictionaryWithDefault
340
B14
  0
DICTIONARY
  5
1FA8
102
{ACAD_REACTORS
330
C
102
}
330
C
100
AcDbDictionary
281
     1
  3
A0
350
1FA9
  3
A1
350
1FAA
  3
A2
350
1FAB
  3
A3
350
1FAC
  3
A4
350
1FAD
  3
A5
350
1FAE
  3
A6
350
1FAF
  3
A7
350
1FB0
  3
A8
350
1FB1
  3
A9
350
1FB2
  3
B0
350
1FB3
  3
B1
350
1FB4
  3
B2
350
1FB5
  3
B3
350
1FB6
  3
B4
350
1FB7
  3
B5
350
1FB8
  3
B6
350
1FB9
  0
DICTIONARY
  5
1FBC
102
{ACAD_REACTORS
330
C
102
}
330
C
100
AcDbDictionary
281
     1
  3
Imperial24
350
1FBD
  0
DICTIONARY
  5
1FA6
102
{ACAD_REACTORS
330
C
102
}
330
C
100
AcDbDictionary
281
     1
  3
Standard
350
1FA7
  0
DICTIONARY
  5
1F8C
102
{ACAD_REACTORS
330
C
102
}
330
C
100
AcDbDictionary
281
     1
  3
2dWireframe
350
1F92
  3
Basic
350
1F91
  3
Brighten
350
1F98
  3
ColorChange
350
1F9C
  3
Conceptual
350
1F95
  3
Dim
350
1F97
  3
EdgeColorOff
350
1FA4
  3
Facepattern
350
1F9B
  3
Flat
350
1F8D
  3
FlatWithEdges
350
1F8E
  3
Gouraud
350
1F8F
  3
GouraudWithEdges
350
1F90
  3
Hidden
350
1F94
  3
JitterOff
350
1FA2
  3
Linepattern
350
1F9A
  3
OverhangOff
350
1FA3
  3
Realistic
350
1F96
  3
Shaded
350
1FA1
  3
Shaded with edges
350
1FA0
  3
Shades of Gray
350
1F9D
  3
Sketchy
350
1F9E
  3
Thicken
350
1F99
  3
Wireframe
350
1F93
  3
X-Ray
350
1F9F
  0
XRECORD
  5
F2A
102
{ACAD_REACTORS
330
C
102
}
330
C
100
AcDbXrecord
280
     1
 90
   990106
  3

 60
     0
 61
     0
 62
     1
 63
     3
 64
     0
 65
     0
 66
     0
 67
     3
 68
     1
 69
     0
 70
     0
 71
     0
 72
     0
 40
0.0
170
     0
340
198B
  0
XRECORD
  5
2059
102
{ACAD_REACTORS
330
C
102
}
330
C
100
AcDbXrecord
280
     1
 90
        1
330
1FA7
  0
DICTIONARY
  5
2B
102
{ACAD_REACTORS
330
C
102
}
330
C
100
AcDbDictionary
281
     1
  3
CANNOSCALE
350
2041
  3
CMLEADERSTYLE
350
203D
  3
CTABLESTYLE
350
203C
  3
CVIEWDETAILSTYLE
350
203E
  3
CVIEWSECTIONSTYLE
350
203F
  3
DIMADEC
350
2C
  3
DIMASSOC
350
B69
  3
INDEXCTL
350
2053
  3
LAYEREVAL
350
2043
  3
LAYERNOTIFY
350
2044
  3
LIGHTINGUNITS
350
2042
  3
LOFTANG1
350
2054
  3
LOFTANG2
350
2055
  3
LONGITUDE
350
2056
  3
MSLTSCALE
350
2040
  3
SORTENTS
350
2052
  3
XCLIPFRAME
350
2057
  0
DICTIONARY
  5
2060
102
{ACAD_REACTORS
330
C
102
}
330
C
100
AcDbDictionary
281
     1
  3
AcDsRecords
350
2062
  3
AcDsSchemas
350
2061
1001
ACAD
1070
     2
  0
XRECORD
  5
205A
102
{ACAD_REACTORS
330
C
102
}
330
C
100
AcDbXrecord
280
     1
  1
DWGPROPS COOKIE
  2

  3

  4

  6

  7

  8
jmilewski
  9

300
=
301
=
302
=
303
=
304
=
305
=
306
=
307
=
308
=
309
=
 40
0.3533439236111111
 41
2449051.580961806
 42
2457155.525216759
  1

 90
        0
  0
DICTIONARY
  5
1FE6
102
{ACAD_REACTORS
330
1FE5
102
}
330
1FE5
100
AcDbDictionary
281
     1
  0
XRECORD
  5
1FDB
102
{ACAD_REACTORS
330
1FDA
102
}
330
1FDA
100
AcDbXrecord
280
     1
290
     1
  0
XRECORD
  5
1FDD
102
{ACAD_REACTORS
330
1FDC
102
}
330
1FDC
100
AcDbXrecord
280
     1
290
     1
  0
XRECORD
  5
1FDF
102
{ACAD_REACTORS
330
1FDE
102
}
330
1FDE
100
AcDbXrecord
280
     1
290
     1
  0
XRECORD
  5
1FE1
102
{ACAD_REACTORS
330
1FE0
102
}
330
1FE0
100
AcDbXrecord
280
     1
290
     1
  0
ACDBDETAILVIEWSTYLE
  5
1FBF
102
{ACAD_XDICTIONARY
360
2049
102
}
102
{ACAD_REACTORS
330
1FBE
102
}
330
1FBE
100
AcDbModelDocViewStyle
 70
     0
  3
Imperial24
290
     0
100
AcDbDetailViewStyle
 70
     0
 71
     0
 90
        3
 71
     1
340
F
 40
0.24
340
0
 40
0.24
300

 40
0.36
280
     3
 71
     2
340
13
 90
       25
 71
     3
340
F
 40
0.24
 90
        1
 40
0.75
 90
        1
300
%<\AcVar ViewType \f "%tc1">% %<\AcVar ViewDetailId>%\PSCALE %<\AcVar ViewScale \f "%sn">%
 71
     4
340
13
 90
       25
340
13
 90
       25
280
     0
  0
LAYOUT
  5
B18
102
{ACAD_XDICTIONARY
360
2065
102
}
102
{ACAD_REACTORS
330
B15
102
}
330
B15
100
AcDbPlotSettings
  1

  2
EPSON Stylus Photo 1200
  4

  6

 40
0.0
 41
0.0
 42
0.0
 43
0.0
 44
0.0
 45
0.0
 46
0.0
 47
0.0
 48
0.0
 49
0.0
140
0.0
141
0.0
142
1.0
143
1.0
 70
   688
 72
     0
 73
     0
 74
     5
  7
1500BLACK.ctb
 75
    16
147
1.0
148
0.0
149
0.0
100
AcDbLayout
  1
Layout1
 70
     0
 71
     1
 10
0.0
 20
0.0
 11
12.0
 21
9.0
 12
0.0
 22
0.0
 32
0.0
 14
1.000000000000000E+20
 24
1.000000000000000E+20
 34
1.000000000000000E+20
 15
-1.000000000000000E+20
 25
-1.000000000000000E+20
 35
-1.000000000000000E+20
146
0.0
 13
0.0
 23
0.0
 33
0.0
 16
1.0
 26
0.0
 36
0.0
 17
0.0
 27
1.0
 37
0.0
 76
     0
330
14
  0
LAYOUT
  5
B17
102
{ACAD_XDICTIONARY
360
2063
102
}
102
{ACAD_REACTORS
330
B15
102
}
330
B15
100
AcDbPlotSettings
  1

  2
EPSON Stylus Photo 1200
  4
Letter
  6

 40
3.757083177566528
 41
3.757076978683471
 42
3.757080078125
 43
3.757080078125
 44
215.8999938964844
 45
279.3999938964844
 46
0.0
 47
0.0
 48
0.0
 49
0.0
140
0.0
141
0.0
142
1.0
143
1.0
 70
 11952
 72
     0
 73
     1
 74
     0
  7

 75
     0
147
1.0
148
110.66014897551
149
-58.67447091769373
100
AcDbLayout
  1
Model
 70
     1
 71
     0
 10
0.0
 20
0.0
 11
12.0
 21
9.0
 12
0.0
 22
0.0
 32
0.0
 14
0.0
 24
0.0
 34
0.0
 15
0.0
 25
0.0
 35
0.0
146
0.0
 13
0.0
 23
0.0
 33
0.0
 16
1.0
 26
0.0
 36
0.0
 17
0.0
 27
1.0
 37
0.0
 76
     0
330
17
331
1F71
  0
MATERIAL
  5
1F7C
102
{ACAD_XDICTIONARY
360
1F7D
102
}
102
{ACAD_REACTORS
330
1F73
102
}
330
1F73
100
AcDbMaterial
  1
ByBlock
 72
     0
 43
0.0208333333333333
 43
0.0
 43
0.0
 43
0.0
 43
0.0
 43
0.0208333333333333
 43
0.0
 43
0.0
 43
0.0
 43
0.0
 43
1.0
 43
0.0
 43
0.0
 43
0.0
 43
0.0
 43
1.0
 77
     0
 47
0.0208333333333333
 47
0.0
 47
0.0
 47
0.0
 47
0.0
 47
0.0208333333333333
 47
0.0
 47
0.0
 47
0.0
 47
0.0
 47
1.0
 47
0.0
 47
0.0
 47
0.0
 47
0.0
 47
1.0
171
     0
 49
0.0208333333333333
 49
0.0
 49
0.0
 49
0.0
 49
0.0
 49
0.0208333333333333
 49
0.0
 49
0.0
 49
0.0
 49
0.0
 49
1.0
 49
0.0
 49
0.0
 49
0.0
 49
0.0
 49
1.0
175
     0
142
0.0208333333333333
142
0.0
142
0.0
142
0.0
142
0.0
142
0.0208333333333333
142
0.0
142
0.0
142
0.0
142
0.0
142
1.0
142
0.0
142
0.0
142
0.0
142
0.0
142
1.0
179
     0
144
0.0208333333333333
144
0.0
144
0.0
144
0.0
144
0.0
144
0.0208333333333333
144
0.0
144
0.0
144
0.0
144
0.0
144
1.0
144
0.0
144
0.0
144
0.0
144
0.0
144
1.0
147
0.0208333333333333
147
0.0
147
0.0
147
0.0
147
0.0
147
0.0208333333333333
147
0.0
147
0.0
147
0.0
147
0.0
147
1.0
147
0.0
147
0.0
147
0.0
147
0.0
147
1.0
  0
MATERIAL
  5
1F74
102
{ACAD_XDICTIONARY
360
1F75
102
}
102
{ACAD_REACTORS
330
1F73
102
}
330
1F73
100
AcDbMaterial
  1
ByLayer
 72
     0
 43
0.0208333333333333
 43
0.0
 43
0.0
 43
0.0
 43
0.0
 43
0.0208333333333333
 43
0.0
 43
0.0
 43
0.0
 43
0.0
 43
1.0
 43
0.0
 43
0.0
 43
0.0
 43
0.0
 43
1.0
 77
     0
 47
0.0208333333333333
 47
0.0
 47
0.0
 47
0.0
 47
0.0
 47
0.0208333333333333
 47
0.0
 47
0.0
 47
0.0
 47
0.0
 47
1.0
 47
0.0
 47
0.0
 47
0.0
 47
0.0
 47
1.0
171
     0
 49
0.0208333333333333
 49
0.0
 49
0.0
 49
0.0
 49
0.0
 49
0.0208333333333333
 49
0.0
 49
0.0
 49
0.0
 49
0.0
 49
1.0
 49
0.0
 49
0.0
 49
0.0
 49
0.0
 49
1.0
175
     0
142
0.0208333333333333
142
0.0
142
0.0
142
0.0
142
0.0
142
0.0208333333333333
142
0.0
142
0.0
142
0.0
142
0.0
142
1.0
142
0.0
142
0.0
142
0.0
142
0.0
142
1.0
179
     0
144
0.0208333333333333
144
0.0
144
0.0
144
0.0
144
0.0
144
0.0208333333333333
144
0.0
144
0.0
144
0.0
144
0.0
144
1.0
144
0.0
144
0.0
144
0.0
144
0.0
144
1.0
147
0.0208333333333333
147
0.0
147
0.0
147
0.0
147
0.0
147
0.0208333333333333
147
0.0
147
0.0
147
0.0
147
0.0
147
1.0
147
0.0
147
0.0
147
0.0
147
0.0
147
1.0
  0
MATERIAL
  5
1F84
102
{ACAD_XDICTIONARY
360
1F85
102
}
102
{ACAD_REACTORS
330
1F73
102
}
330
1F73
100
AcDbMaterial
  1
Global
 72
     0
 43
0.0208333333333333
 43
0.0
 43
0.0
 43
0.0
 43
0.0
 43
0.0208333333333333
 43
0.0
 43
0.0
 43
0.0
 43
0.0
 43
1.0
 43
0.0
 43
0.0
 43
0.0
 43
0.0
 43
1.0
 77
     0
 47
0.0208333333333333
 47
0.0
 47
0.0
 47
0.0
 47
0.0
 47
0.0208333333333333
 47
0.0
 47
0.0
 47
0.0
 47
0.0
 47
1.0
 47
0.0
 47
0.0
 47
0.0
 47
0.0
 47
1.0
171
     0
 49
0.0208333333333333
 49
0.0
 49
0.0
 49
0.0
 49
0.0
 49
0.0208333333333333
 49
0.0
 49
0.0
 49
0.0
 49
0.0
 49
1.0
 49
0.0
 49
0.0
 49
0.0
 49
0.0
 49
1.0
175
     0
142
0.0208333333333333
142
0.0
142
0.0
142
0.0
142
0.0
142
0.0208333333333333
142
0.0
142
0.0
142
0.0
142
0.0
142
1.0
142
0.0
142
0.0
142
0.0
142
0.0
142
1.0
179
     0
144
0.0208333333333333
144
0.0
144
0.0
144
0.0
144
0.0
144
0.0208333333333333
144
0.0
144
0.0
144
0.0
144
0.0
144
1.0
144
0.0
144
0.0
144
0.0
144
0.0
144
1.0
147
0.0208333333333333
147
0.0
147
0.0
147
0.0
147
0.0
147
0.0208333333333333
147
0.0
147
0.0
147
0.0
147
0.0
147
1.0
147
0.0
147
0.0
147
0.0
147
0.0
147
1.0
  0
MLEADERSTYLE
  5
1FBB
102
{ACAD_XDICTIONARY
360
209C
102
}
102
{ACAD_REACTORS
330
1FBA
102
}
330
1FBA
100
AcDbMLeaderStyle
170
     2
171
     1
172
     0
 90
        2
 40
0.0
 41
0.0
173
     1
 91
-1056964608
340
11
 92
       -2
290
     1
 42
0.09
291
     1
 43
0.36
  3
Standard
 44
0.18
300

342
F
174
     1
178
     6
175
     1
176
     0
 93
-1056964608
 45
0.18
292
     0
297
     0
 46
0.18
 94
-1056964608
 47
1.0
 49
1.0
140
1.0
293
     1
141
0.0
294
     1
177
     0
142
1.0
295
     0
296
     0
143
0.125
1001
ACAD_MLEADERVER
1070
     2
  0
MLINESTYLE
  5
1B
102
{ACAD_REACTORS
330
1A
102
}
330
1A
100
AcDbMlineStyle
  2
STANDARD
 70
     0
  3

 62
   256
 51
90.0
 52
90.0
 71
     2
 49
0.5
 62
   256
  6
BYLAYER
 49
-0.5
 62
   256
  6
BYLAYER
  0
ACDBPLACEHOLDER
  5
B14
102
{ACAD_REACTORS
330
B13
102
}
330
B13
  0
SCALE
  5
1FA9
102
{ACAD_REACTORS
330
1FA8
102
}
330
1FA8
100
AcDbScale
 70
     0
300
1:1
140
1.0
141
1.0
290
     1
  0
SCALE
  5
1FAA
102
{ACAD_REACTORS
330
1FA8
102
}
330
1FA8
100
AcDbScale
 70
     0
300
1/128" = 1'-0"
140
0.0078125
141
12.0
290
     0
  0
SCALE
  5
1FAB
102
{ACAD_REACTORS
330
1FA8
102
}
330
1FA8
100
AcDbScale
 70
     0
300
1/64" = 1'-0"
140
0.015625
141
12.0
290
     0
  0
SCALE
  5
1FAC
102
{ACAD_REACTORS
330
1FA8
102
}
330
1FA8
100
AcDbScale
 70
     0
300
1/32" = 1'-0"
140
0.03125
141
12.0
290
     0
  0
SCALE
  5
1FAD
102
{ACAD_REACTORS
330
1FA8
102
}
330
1FA8
100
AcDbScale
 70
     0
300
1/16" = 1'-0"
140
0.0625
141
12.0
290
     0
  0
SCALE
  5
1FAE
102
{ACAD_REACTORS
330
1FA8
102
}
330
1FA8
100
AcDbScale
 70
     0
300
3/32" = 1'-0"
140
0.09375
141
12.0
290
     0
  0
SCALE
  5
1FAF
102
{ACAD_REACTORS
330
1FA8
102
}
330
1FA8
100
AcDbScale
 70
     0
300
1/8" = 1'-0"
140
0.125
141
12.0
290
     0
  0
SCALE
  5
1FB0
102
{ACAD_REACTORS
330
1FA8
102
}
330
1FA8
100
AcDbScale
 70
     0
300
3/16" = 1'-0"
140
0.1875
141
12.0
290
     0
  0
SCALE
  5
1FB1
102
{ACAD_REACTORS
330
1FA8
102
}
330
1FA8
100
AcDbScale
 70
     0
300
1/4" = 1'-0"
140
0.25
141
12.0
290
     0
  0
SCALE
  5
1FB2
102
{ACAD_REACTORS
330
1FA8
102
}
330
1FA8
100
AcDbScale
 70
     0
300
3/8" = 1'-0"
140
0.375
141
12.0
290
     0
  0
SCALE
  5
1FB3
102
{ACAD_REACTORS
330
1FA8
102
}
330
1FA8
100
AcDbScale
 70
     0
300
1/2" = 1'-0"
140
0.5
141
12.0
290
     0
  0
SCALE
  5
1FB4
102
{ACAD_REACTORS
330
1FA8
102
}
330
1FA8
100
AcDbScale
 70
     0
300
3/4" = 1'-0"
140
0.75
141
12.0
290
     0
  0
SCALE
  5
1FB5
102
{ACAD_REACTORS
330
1FA8
102
}
330
1FA8
100
AcDbScale
 70
     0
300
1" = 1'-0"
140
1.0
141
12.0
290
     0
  0
SCALE
  5
1FB6
102
{ACAD_REACTORS
330
1FA8
102
}
330
1FA8
100
AcDbScale
 70
     0
300
1-1/2" = 1'-0"
140
1.5
141
12.0
290
     0
  0
SCALE
  5
1FB7
102
{ACAD_REACTORS
330
1FA8
102
}
330
1FA8
100
AcDbScale
 70
     0
300
3" = 1'-0"
140
3.0
141
12.0
290
     0
  0
SCALE
  5
1FB8
102
{ACAD_REACTORS
330
1FA8
102
}
330
1FA8
100
AcDbScale
 70
     0
300
6" = 1'-0"
140
6.0
141
12.0
290
     0
  0
SCALE
  5
1FB9
102
{ACAD_REACTORS
330
1FA8
102
}
330
1FA8
100
AcDbScale
 70
     0
300
1'-0" = 1'-0"
140
12.0
141
12.0
290
     0
  0
ACDBSECTIONVIEWSTYLE
  5
1FBD
102
{ACAD_XDICTIONARY
360
2047
102
}
102
{ACAD_REACTORS
330
1FBC
102
}
330
1FBC
100
AcDbModelDocViewStyle
 70
     0
  3
Imperial24
290
     0
100
AcDbSectionViewStyle
 70
     0
 71
     0
 90
       78
 71
     1
340
F
 40
0.24
340
0
340
0
 40
0.24
300
I, O, Q, S, X, Z
 40
0.48
 90
        3
 40
0.18
 90
        1
 71
     2
340
13
 90
       25
340
13
 90
       50
 40
0.24
 40
0.0
 40
0.24
 71
     3
340
F
 40
0.24
 90
        1
 40
0.75
 90
        1
300
%<\AcVar ViewType \f "%tc1">% %<\AcVar ViewSectionStartId>%-%<\AcVar ViewSectionEndId>%\PSCALE %<\AcVar ViewScale \f "%sn">%
 71
     4
300
ANSI31
 40
1.0
 90
        0
290
     0
290
     0
 90
        6
 40
0.0
 40
1.570796326794896
 40
0.2617993877991494
 40
1.308996938995747
 40
-0.2617993877991494
 40
1.832595714594045
  0
TABLESTYLE
  5
1FA7
102
{ACAD_XDICTIONARY
360
2045
102
}
102
{ACAD_REACTORS
330
1FA6
102
}
330
1FA6
100
AcDbTableStyle
  3
Standard
 70
     0
 71
     0
 40
0.06
 41
0.06
280
     0
281
     0
  7
STANDARD
140
0.18
170
     2
 62
     0
 63
     7
283
     0
274
    -2
284
     1
 64
     0
275
    -2
285
     1
 65
     0
276
    -2
286
     1
 66
     0
277
    -2
287
     1
 67
     0
278
    -2
288
     1
 68
     0
279
    -2
289
     1
 69
     0
  7
STANDARD
140
0.25
170
     5
 62
     0
 63
     7
283
     0
274
    -2
284
     1
 64
     0
275
    -2
285
     1
 65
     0
276
    -2
286
     1
 66
     0
277
    -2
287
     1
 67
     0
278
    -2
288
     1
 68
     0
279
    -2
289
     1
 69
     0
  7
STANDARD
140
0.18
170
     5
 62
     0
 63
     7
283
     0
274
    -2
284
     1
 64
     0
275
    -2
285
     1
 65
     0
276
    -2
286
     1
 66
     0
277
    -2
287
     1
 67
     0
278
    -2
288
     1
 68
     0
279
    -2
289
     1
 69
     0
  0
VISUALSTYLE
  5
1F92
102
{ACAD_XDICTIONARY
360
2074
102
}
102
{ACAD_REACTORS
330
1F8C
102
}
330
1F8C
100
AcDbVisualStyle
  2
2dWireframe
 70
     4
 71
     0
 72
     2
 73
     0
 90
        0
 40
-0.6
 41
-30.0
 62
     5
 63
     7
 74
     1
 91
        4
 64
     7
 65
   257
 75
     1
175
     1
 42
1.0
 92
        0
 66
   257
 43
1.0
 76
     1
 77
     6
 78
     2
 67
     7
 79
     5
170
     0
171
     0
290
     0
174
     0
 93
        1
 44
0.0
173
     0
291
     0
 45
0.0
1001
ACAD
1000
AcDbSavedByObjectVersion
1070
     0
  0
VISUALSTYLE
  5
1F91
102
{ACAD_XDICTIONARY
360
2072
102
}
102
{ACAD_REACTORS
330
1F8C
102
}
330
1F8C
100
AcDbVisualStyle
  2
Basic
 70
     7
 71
     1
 72
     0
 73
     1
 90
        0
 40
-0.6
 41
-30.0
 62
     5
 63
     7
 74
     0
 91
        4
 64
     7
 65
   257
 75
     1
175
     1
 42
1.0
 92
        8
 66
     7
 43
1.0
 76
     1
 77
     6
 78
     2
 67
     7
 79
     5
170
     0
171
     0
290
     0
174
     0
 93
        1
 44
0.0
173
     0
291
     1
 45
0.0
1001
ACAD
1000
AcDbSavedByObjectVersion
1070
     0
  0
VISUALSTYLE
  5
1F98
102
{ACAD_XDICTIONARY
360
2080
102
}
102
{ACAD_REACTORS
330
1F8C
102
}
330
1F8C
100
AcDbVisualStyle
  2
Brighten
 70
    12
 71
     2
 72
     2
 73
     0
 90
        0
 40
-0.6
 41
-30.0
 62
     5
 63
     7
 74
     1
 91
        4
 64
     7
 65
   257
 75
     1
175
     1
 42
1.0
 92
        8
 66
     7
 43
1.0
 76
     1
 77
     6
 78
     2
 67
     7
 79
     5
170
     0
171
     0
290
     0
174
     0
 93
        1
 44
50.0
173
     0
291
     1
 45
0.0
1001
ACAD
1000
AcDbSavedByObjectVersion
1070
     0
  0
VISUALSTYLE
  5
1F9C
102
{ACAD_XDICTIONARY
360
2088
102
}
102
{ACAD_REACTORS
330
1F8C
102
}
330
1F8C
100
AcDbVisualStyle
  2
ColorChange
 70
    16
 71
     2
 72
     2
 73
     3
 90
        0
 40
-0.6
 41
-30.0
 62
     5
 63
     8
 74
     1
 91
        4
 64
     7
 65
   257
 75
     1
175
     1
 42
1.0
 92
        8
 66
     8
 43
1.0
 76
     1
 77
     6
 78
     2
 67
     7
 79
     5
170
     0
171
     0
290
     0
174
     0
 93
        1
 44
0.0
173
     0
291
     1
 45
0.0
1001
ACAD
1000
AcDbSavedByObjectVersion
1070
     0
  0
VISUALSTYLE
  5
1F95
102
{ACAD_XDICTIONARY
360
207A
102
}
102
{ACAD_REACTORS
330
1F8C
102
}
330
1F8C
100
AcDbVisualStyle
  2
Conceptual
 70
     9
 71
     3
 72
     2
 73
     0
 90
        0
 40
-0.6
 41
-30.0
 62
     5
 63
     7
 74
     2
 91
        2
 64
     7
 65
   257
 75
     1
175
     1
 42
179.0
 92
        8
 66
     7
 43
1.0
 76
     1
 77
     6
 78
     2
 67
     7
 79
     3
170
     0
171
     0
290
     0
174
     0
 93
        1
 44
0.0
173
     0
291
     0
 45
0.0
1001
ACAD
1000
AcDbSavedByObjectVersion
1070
     0
  0
VISUALSTYLE
  5
1F97
102
{ACAD_XDICTIONARY
360
207E
102
}
102
{ACAD_REACTORS
330
1F8C
102
}
330
1F8C
100
AcDbVisualStyle
  2
Dim
 70
    11
 71
     2
 72
     2
 73
     0
 90
        0
 40
-0.6
 41
-30.0
 62
     5
 63
     7
 74
     1
 91
        4
 64
     7
 65
   257
 75
     1
175
     1
 42
1.0
 92
        8
 66
     7
 43
1.0
 76
     1
 77
     6
 78
     2
 67
     7
 79
     5
170
     0
171
     0
290
     0
174
     0
 93
        1
 44
-50.0
173
     0
291
     1
 45
0.0
1001
ACAD
1000
AcDbSavedByObjectVersion
1070
     0
  0
VISUALSTYLE
  5
1FA4
102
{ACAD_XDICTIONARY
360
2098
102
}
102
{ACAD_REACTORS
330
1F8C
102
}
330
1F8C
100
AcDbVisualStyle
  2
EdgeColorOff
 70
    22
 71
     2
 72
     2
 73
     0
 90
        0
 40
-0.6
 41
-30.0
 62
     5
 63
     7
 74
     1
 91
        4
 64
     7
 65
   257
 75
     1
175
     1
 42
1.0
 92
        8
 66
     7
 43
1.0
 76
     1
 77
     6
 78
     2
 67
     7
 79
     5
170
     0
171
     0
290
     0
174
     0
 93
        1
 44
0.0
173
     0
291
     1
 45
0.0
1001
ACAD
1000
AcDbSavedByObjectVersion
1070
     0
  0
VISUALSTYLE
  5
1F9B
102
{ACAD_XDICTIONARY
360
2086
102
}
102
{ACAD_REACTORS
330
1F8C
102
}
330
1F8C
100
AcDbVisualStyle
  2
Facepattern
 70
    15
 71
     2
 72
     2
 73
     0
 90
        0
 40
-0.6
 41
-30.0
 62
     5
 63
     7
 74
     1
 91
        4
 64
     7
 65
   257
 75
     1
175
     1
 42
1.0
 92
        8
 66
     7
 43
1.0
 76
     1
 77
     6
 78
     2
 67
     7
 79
     5
170
     0
171
     0
290
     0
174
     0
 93
        1
 44
0.0
173
     0
291
     1
 45
0.0
1001
ACAD
1000
AcDbSavedByObjectVersion
1070
     0
  0
VISUALSTYLE
  5
1F8D
102
{ACAD_XDICTIONARY
360
206A
102
}
102
{ACAD_REACTORS
330
1F8C
102
}
330
1F8C
100
AcDbVisualStyle
  2
Flat
 70
     0
 71
     2
 72
     1
 73
     1
 90
        2
 40
-0.6
 41
30.0
 62
     5
 63
     7
 74
     0
 91
        0
 64
     7
 65
   257
 75
     1
175
     1
 42
1.0
 92
        8
 66
     7
 43
1.0
 76
     1
 77
     6
 78
     2
 67
     7
 79
     5
170
     0
171
     0
290
     0
174
     0
 93
       13
 44
0.0
173
     0
291
     1
 45
0.0
1001
ACAD
1000
AcDbSavedByObjectVersion
1070
     0
  0
VISUALSTYLE
  5
1F8E
102
{ACAD_XDICTIONARY
360
206C
102
}
102
{ACAD_REACTORS
330
1F8C
102
}
330
1F8C
100
AcDbVisualStyle
  2
FlatWithEdges
 70
     1
 71
     2
 72
     1
 73
     1
 90
        2
 40
-0.6
 41
30.0
 62
     5
 63
     7
 74
     1
 91
        0
 64
     7
 65
   257
 75
     1
175
     1
 42
1.0
 92
        0
 66
   257
 43
1.0
 76
     1
 77
     6
 78
     2
 67
     7
 79
     5
170
     0
171
     0
290
     0
174
     0
 93
       13
 44
0.0
173
     0
291
     1
 45
0.0
1001
ACAD
1000
AcDbSavedByObjectVersion
1070
     0
  0
VISUALSTYLE
  5
1F8F
102
{ACAD_XDICTIONARY
360
206E
102
}
102
{ACAD_REACTORS
330
1F8C
102
}
330
1F8C
100
AcDbVisualStyle
  2
Gouraud
 70
     2
 71
     2
 72
     2
 73
     1
 90
        2
 40
-0.6
 41
30.0
 62
     5
 63
     7
 74
     0
 91
        0
 64
     7
 65
   257
 75
     1
175
     1
 42
1.0
 92
        0
 66
     7
 43
1.0
 76
     1
 77
     6
 78
     2
 67
     7
 79
     5
170
     0
171
     0
290
     0
174
     0
 93
       13
 44
0.0
173
     0
291
     1
 45
0.0
1001
ACAD
1000
AcDbSavedByObjectVersion
1070
     0
  0
VISUALSTYLE
  5
1F90
102
{ACAD_XDICTIONARY
360
2070
102
}
102
{ACAD_REACTORS
330
1F8C
102
}
330
1F8C
100
AcDbVisualStyle
  2
GouraudWithEdges
 70
     3
 71
     2
 72
     2
 73
     1
 90
        2
 40
-0.6
 41
30.0
 62
     5
 63
     7
 74
     1
 91
        0
 64
     7
 65
   257
 75
     1
175
     1
 42
1.0
 92
        0
 66
   257
 43
1.0
 76
     1
 77
     6
 78
     2
 67
     7
 79
     5
170
     0
171
     0
290
     0
174
     0
 93
       13
 44
0.0
173
     0
291
     1
 45
0.0
1001
ACAD
1000
AcDbSavedByObjectVersion
1070
     0
  0
VISUALSTYLE
  5
1F94
102
{ACAD_XDICTIONARY
360
2078
102
}
102
{ACAD_REACTORS
330
1F8C
102
}
330
1F8C
100
AcDbVisualStyle
  2
Hidden
 70
     6
 71
     1
 72
     2
 73
     2
 90
        0
 40
-0.6
 41
-30.0
 62
     5
 63
     7
 74
     2
 91
        2
 64
     7
 65
   257
 75
     2
175
     1
 42
40.0
 92
        0
 66
   257
 43
1.0
 76
     1
 77
     6
 78
     2
 67
     7
 79
     3
170
     0
171
     0
290
     0
174
     0
 93
        1
 44
0.0
173
     0
291
     0
 45
0.0
1001
ACAD
1000
AcDbSavedByObjectVersion
1070
     0
  0
VISUALSTYLE
  5
1FA2
102
{ACAD_XDICTIONARY
360
2094
102
}
102
{ACAD_REACTORS
330
1F8C
102
}
330
1F8C
100
AcDbVisualStyle
  2
JitterOff
 70
    20
 71
     2
 72
     2
 73
     0
 90
        0
 40
-0.6
 41
-30.0
 62
     5
 63
     7
 74
     1
 91
        4
 64
     7
 65
   257
 75
     1
175
     1
 42
1.0
 92
       10
 66
     7
 43
1.0
 76
     1
 77
     6
 78
     2
 67
     7
 79
     5
170
     0
171
     0
290
     0
174
     0
 93
        1
 44
0.0
173
     0
291
     1
 45
0.0
1001
ACAD
1000
AcDbSavedByObjectVersion
1070
     0
  0
VISUALSTYLE
  5
1F9A
102
{ACAD_XDICTIONARY
360
2084
102
}
102
{ACAD_REACTORS
330
1F8C
102
}
330
1F8C
100
AcDbVisualStyle
  2
Linepattern
 70
    14
 71
     2
 72
     2
 73
     0
 90
        0
 40
-0.6
 41
-30.0
 62
     5
 63
     7
 74
     1
 91
        4
 64
     7
 65
   257
 75
     7
175
     7
 42
1.0
 92
        8
 66
     7
 43
1.0
 76
     1
 77
     6
 78
     2
 67
     7
 79
     5
170
     0
171
     0
290
     0
174
     0
 93
        1
 44
0.0
173
     0
291
     1
 45
0.0
1001
ACAD
1000
AcDbSavedByObjectVersion
1070
     0
  0
VISUALSTYLE
  5
1FA3
102
{ACAD_XDICTIONARY
360
2096
102
}
102
{ACAD_REACTORS
330
1F8C
102
}
330
1F8C
100
AcDbVisualStyle
  2
OverhangOff
 70
    21
 71
     2
 72
     2
 73
     0
 90
        0
 40
-0.6
 41
-30.0
 62
     5
 63
     7
 74
     1
 91
        4
 64
     7
 65
   257
 75
     1
175
     1
 42
1.0
 92
        9
 66
     7
 43
1.0
 76
     1
 77
     6
 78
     2
 67
     7
 79
     5
170
     0
171
     0
290
     0
174
     0
 93
        1
 44
0.0
173
     0
291
     1
 45
0.0
1001
ACAD
1000
AcDbSavedByObjectVersion
1070
     0
  0
VISUALSTYLE
  5
1F96
102
{ACAD_XDICTIONARY
360
207C
102
}
102
{ACAD_REACTORS
330
1F8C
102
}
330
1F8C
100
AcDbVisualStyle
  2
Realistic
 70
     8
 71
     2
 72
     3
 73
     0
 90
        2
 40
-0.6
 41
30.0
 62
     5
 63
     7
 74
     0
 91
        0
 64
     7
 65
   257
 75
     1
175
     1
 42
1.0
 92
        8
 66
   257
 43
1.0
 76
     1
 77
     6
 78
     2
 67
     7
 79
     3
170
     0
171
     0
290
     0
174
     0
 93
       13
 44
0.0
173
     0
291
     0
 45
0.0
1001
ACAD
1000
AcDbSavedByObjectVersion
1070
     0
  0
VISUALSTYLE
  5
1FA1
102
{ACAD_XDICTIONARY
360
2092
102
}
102
{ACAD_REACTORS
330
1F8C
102
}
330
1F8C
100
AcDbVisualStyle
  2
Shaded
 70
    27
 71
     2
 72
     2
 73
     1
 90
        2
 40
-0.6
 41
30.0
 62
     5
 63
     7
 74
     0
 91
        4
 64
     7
 65
   257
 75
     1
175
     1
 42
1.0
 92
        8
 66
   257
 43
1.0
 76
     1
 77
     6
 78
     2
 67
     8
 79
     3
170
     0
171
     0
290
     0
174
     0
 93
        5
 44
0.0
173
     0
291
     0
 45
0.0
1001
ACAD
1000
AcDbSavedByObjectVersion
1070
     0
  0
VISUALSTYLE
  5
1FA0
102
{ACAD_XDICTIONARY
360
2090
102
}
102
{ACAD_REACTORS
330
1F8C
102
}
330
1F8C
100
AcDbVisualStyle
  2
Shaded with edges
 70
    26
 71
     2
 72
     2
 73
     1
 90
        2
 40
-0.6
 41
30.0
 62
     5
 63
     7
 74
     1
 91
       10
 64
     7
 65
   257
 75
     2
175
     1
 42
1.0
 92
        8
 66
   257
 43
1.0
 76
     1
 77
     6
 78
     2
 67
     7
 79
     3
170
     0
171
     0
290
     0
174
     0
 93
        5
 44
0.0
173
     0
291
     0
 45
0.0
1001
ACAD
1000
AcDbSavedByObjectVersion
1070
     0
  0
VISUALSTYLE
  5
1F9D
102
{ACAD_XDICTIONARY
360
208A
102
}
102
{ACAD_REACTORS
330
1F8C
102
}
330
1F8C
100
AcDbVisualStyle
  2
Shades of Gray
 70
    23
 71
     2
 72
     2
 73
     3
 90
        0
 40
-0.6
 41
-30.0
 62
     5
 63
     7
 74
     2
 91
        2
 64
     7
 65
     7
 75
     1
175
     1
 42
40.0
 92
        8
 66
     7
 43
1.0
 76
     1
 77
     6
 78
     2
 67
     7
 79
     3
170
     0
171
     0
290
     0
174
     0
 93
        1
 44
0.0
173
     0
291
     0
 45
0.0
1001
ACAD
1000
AcDbSavedByObjectVersion
1070
     0
  0
VISUALSTYLE
  5
1F9E
102
{ACAD_XDICTIONARY
360
208C
102
}
102
{ACAD_REACTORS
330
1F8C
102
}
330
1F8C
100
AcDbVisualStyle
  2
Sketchy
 70
    24
 71
     1
 72
     2
 73
     2
 90
        0
 40
-0.6
 41
-30.0
 62
     5
 63
     7
 74
     2
 91
        2
 64
     7
 65
     7
 75
     1
175
     1
 42
40.0
 92
       11
 66
     7
 43
1.0
 76
     1
 77
     6
 78
     2
 67
     7
 79
     6
170
     0
171
     0
290
     0
174
     0
 93
        1
 44
0.0
173
     0
291
     0
 45
0.0
1001
ACAD
1000
AcDbSavedByObjectVersion
1070
     0
  0
VISUALSTYLE
  5
1F99
102
{ACAD_XDICTIONARY
360
2082
102
}
102
{ACAD_REACTORS
330
1F8C
102
}
330
1F8C
100
AcDbVisualStyle
  2
Thicken
 70
    13
 71
     2
 72
     2
 73
     0
 90
        0
 40
-0.6
 41
-30.0
 62
     5
 63
     7
 74
     1
 91
        4
 64
     7
 65
   257
 75
     1
175
     1
 42
1.0
 92
       12
 66
     7
 43
1.0
 76
     1
 77
     6
 78
     2
 67
     7
 79
     5
170
     0
171
     0
290
     0
174
     0
 93
        1
 44
0.0
173
     0
291
     1
 45
0.0
1001
ACAD
1000
AcDbSavedByObjectVersion
1070
     0
  0
VISUALSTYLE
  5
1F93
102
{ACAD_XDICTIONARY
360
2076
102
}
102
{ACAD_REACTORS
330
1F8C
102
}
330
1F8C
100
AcDbVisualStyle
  2
Wireframe
 70
     5
 71
     0
 72
     2
 73
     0
 90
        0
 40
-0.6
 41
-30.0
 62
     5
 63
     7
 74
     1
 91
        4
 64
     7
 65
   257
 75
     1
175
     1
 42
1.0
 92
        0
 66
   257
 43
1.0
 76
     1
 77
     6
 78
     2
 67
     7
 79
     3
170
     0
171
     0
290
     0
174
     0
 93
        1
 44
0.0
173
     0
291
     0
 45
0.0
1001
ACAD
1000
AcDbSavedByObjectVersion
1070
     0
  0
VISUALSTYLE
  5
1F9F
102
{ACAD_XDICTIONARY
360
208E
102
}
102
{ACAD_REACTORS
330
1F8C
102
}
330
1F8C
100
AcDbVisualStyle
  2
X-Ray
 70
    25
 71
     2
 72
     2
 73
     1
 90
        1
 40
0.5
 41
-30.0
 62
     5
 63
     7
 74
     1
 91
        0
 64
     7
 65
   257
 75
     1
175
     1
 42
1.0
 92
        8
 66
     7
 43
1.0
 76
     1
 77
     6
 78
     2
 67
     7
 79
     3
170
     0
171
     0
290
     0
174
     0
 93
       13
 44
0.0
173
     0
291
     0
 45
0.0
1001
ACAD
1000
AcDbSavedByObjectVersion
1070
     0
  0
DICTIONARYVAR
  5
2041
102
{ACAD_REACTORS
330
2B
102
}
330
2B
100
DictionaryVariables
280
     0
  1
1:1
  0
DICTIONARYVAR
  5
203D
102
{ACAD_REACTORS
330
2B
102
}
330
2B
100
DictionaryVariables
280
     0
  1
STANDARD
  0
DICTIONARYVAR
  5
203C
102
{ACAD_REACTORS
330
2B
102
}
330
2B
100
DictionaryVariables
280
     0
  1
STANDARD
  0
DICTIONARYVAR
  5
203E
102
{ACAD_REACTORS
330
2B
102
}
330
2B
100
DictionaryVariables
280
     0
  1
Imperial24
  0
DICTIONARYVAR
  5
203F
102
{ACAD_REACTORS
330
2B
102
}
330
2B
100
DictionaryVariables
280
     0
  1
Imperial24
  0
DICTIONARYVAR
  5
2C
102
{ACAD_REACTORS
330
2B
102
}
330
2B
100
DictionaryVariables
280
     0
  1
2
  0
DICTIONARYVAR
  5
B69
102
{ACAD_REACTORS
330
2B
102
}
330
2B
100
DictionaryVariables
280
     0
  1
1
  0
DICTIONARYVAR
  5
2053
102
{ACAD_REACTORS
330
2B
102
}
330
2B
100
DictionaryVariables
280
     0
  1
0
  0
DICTIONARYVAR
  5
2043
102
{ACAD_REACTORS
330
2B
102
}
330
2B
100
DictionaryVariables
280
     0
  1
1
  0
DICTIONARYVAR
  5
2044
102
{ACAD_REACTORS
330
2B
102
}
330
2B
100
DictionaryVariables
280
     0
  1
15
  0
DICTIONARYVAR
  5
2042
102
{ACAD_REACTORS
330
2B
102
}
330
2B
100
DictionaryVariables
280
     0
  1
0
  0
DICTIONARYVAR
  5
2054
102
{ACAD_REACTORS
330
2B
102
}
330
2B
100
DictionaryVariables
280
     0
  1
1.570796
  0
DICTIONARYVAR
  5
2055
102
{ACAD_REACTORS
330
2B
102
}
330
2B
100
DictionaryVariables
280
     0
  1
1.570796
  0
DICTIONARYVAR
  5
2056
102
{ACAD_REACTORS
330
2B
102
}
330
2B
100
DictionaryVariables
280
     0
  1
-122.394000
  0
DICTIONARYVAR
  5
2040
102
{ACAD_REACTORS
330
2B
102
}
330
2B
100
DictionaryVariables
280
     0
  1
0
  0
DICTIONARYVAR
  5
2052
102
{ACAD_REACTORS
330
2B
102
}
330
2B
100
DictionaryVariables
280
     0
  1
127
  0
DICTIONARYVAR
  5
2057
102
{ACAD_REACTORS
330
2B
102
}
330
2B
100
DictionaryVariables
280
     0
  1
2
  0
DICTIONARY
  5
2062
102
{ACAD_REACTORS
330
2060
102
}
330
2060
100
AcDbDictionary
281
     1
  0
DICTIONARY
  5
2061
102
{ACAD_REACTORS
330
2060
102
}
330
2060
100
AcDbDictionary
281
     1
  3
8796088103216
350
205B
  3
8796088103232
350
205C
  3
8796088103248
350
205D
  3
8796088103264
350
205E
  3
8796088103280
350
205F
  0
DICTIONARY
  5
2049
330
1FBF
100
AcDbDictionary
280
     1
281
     1
  3
ACAD_XREC_ROUNDTRIP
360
209F
  0
DICTIONARY
  5
2065
330
B18
100
AcDbDictionary
280
     1
281
     1
  3
ACAD_XREC_ROUNDTRIP
360
2066
  0
DICTIONARY
  5
2063
330
B17
100
AcDbDictionary
280
     1
281
     1
  3
ACAD_XREC_ROUNDTRIP
360
2064
  0
DICTIONARY
  5
1F7D
330
1F7C
100
AcDbDictionary
280
     1
281
     1
  3
ACAD_XREC_ROUNDTRIP
360
2068
  3
BUMPTILE
360
1F7F
  3
DIFFUSETILE
360
1F7E
  3
OPACITYTILE
360
1F82
  3
REFLECTIONTILE
360
1F81
  3
REFRACTIONTILE
360
1F83
  3
SPECULARTILE
360
1F80
  0
DICTIONARY
  5
1F75
330
1F74
100
AcDbDictionary
280
     1
281
     1
  3
ACAD_XREC_ROUNDTRIP
360
2067
  3
BUMPTILE
360
1F77
  3
DIFFUSETILE
360
1F76
  3
OPACITYTILE
360
1F7A
  3
REFLECTIONTILE
360
1F79
  3
REFRACTIONTILE
360
1F7B
  3
SPECULARTILE
360
1F78
  0
DICTIONARY
  5
1F85
330
1F84
100
AcDbDictionary
280
     1
281
     1
  3
ACAD_XREC_ROUNDTRIP
360
2069
  3
BUMPTILE
360
1F87
  3
DIFFUSETILE
360
1F86
  3
OPACITYTILE
360
1F8A
  3
REFLECTIONTILE
360
1F89
  3
REFRACTIONTILE
360
1F8B
  3
SPECULARTILE
360
1F88
  0
DICTIONARY
  5
209C
330
1FBB
100
AcDbDictionary
280
     1
281
     1
  3
ACAD_XREC_ROUNDTRIP
360
209D
  0
DICTIONARY
  5
2047
330
1FBD
100
AcDbDictionary
280
     1
281
     1
  3
ACAD_XREC_ROUNDTRIP
360
209E
  0
DICTIONARY
  5
2045
330
1FA7
100
AcDbDictionary
280
     1
281
     1
  3
ACAD_ROUNDTRIP_2008_TABLESTYLE_CELLSTYLEMAP
360
2058
  3
ACAD_XREC_ROUNDTRIP
360
209A
  0
DICTIONARY
  5
2074
330
1F92
100
AcDbDictionary
280
     1
281
     1
  3
ACAD_XREC_ROUNDTRIP
360
2075
  0
DICTIONARY
  5
2072
330
1F91
100
AcDbDictionary
280
     1
281
     1
  3
ACAD_XREC_ROUNDTRIP
360
2073
  0
DICTIONARY
  5
2080
330
1F98
100
AcDbDictionary
280
     1
281
     1
  3
ACAD_XREC_ROUNDTRIP
360
2081
  0
DICTIONARY
  5
2088
330
1F9C
100
AcDbDictionary
280
     1
281
     1
  3
ACAD_XREC_ROUNDTRIP
360
2089
  0
DICTIONARY
  5
207A
330
1F95
100
AcDbDictionary
280
     1
281
     1
  3
ACAD_XREC_ROUNDTRIP
360
207B
  0
DICTIONARY
  5
207E
330
1F97
100
AcDbDictionary
280
     1
281
     1
  3
ACAD_XREC_ROUNDTRIP
360
207F
  0
DICTIONARY
  5
2098
330
1FA4
100
AcDbDictionary
280
     1
281
     1
  3
ACAD_XREC_ROUNDTRIP
360
2099
  0
DICTIONARY
  5
2086
330
1F9B
100
AcDbDictionary
280
     1
281
     1
  3
ACAD_XREC_ROUNDTRIP
360
2087
  0
DICTIONARY
  5
206A
330
1F8D
100
AcDbDictionary
280
     1
281
     1
  3
ACAD_XREC_ROUNDTRIP
360
206B
  0
DICTIONARY
  5
206C
330
1F8E
100
AcDbDictionary
280
     1
281
     1
  3
ACAD_XREC_ROUNDTRIP
360
206D
  0
DICTIONARY
  5
206E
330
1F8F
100
AcDbDictionary
280
     1
281
     1
  3
ACAD_XREC_ROUNDTRIP
360
206F
  0
DICTIONARY
  5
2070
330
1F90
100
AcDbDictionary
280
     1
281
     1
  3
ACAD_XREC_ROUNDTRIP
360
2071
  0
DICTIONARY
  5
2078
330
1F94
100
AcDbDictionary
280
     1
281
     1
  3
ACAD_XREC_ROUNDTRIP
360
2079
  0
DICTIONARY
  5
2094
330
1FA2
100
AcDbDictionary
280
     1
281
     1
  3
ACAD_XREC_ROUNDTRIP
360
2095
  0
DICTIONARY
  5
2084
330
1F9A
100
AcDbDictionary
280
     1
281
     1
  3
ACAD_XREC_ROUNDTRIP
360
2085
  0
DICTIONARY
  5
2096
330
1FA3
100
AcDbDictionary
280
     1
281
     1
  3
ACAD_XREC_ROUNDTRIP
360
2097
  0
DICTIONARY
  5
207C
330
1F96
100
AcDbDictionary
280
     1
281
     1
  3
ACAD_XREC_ROUNDTRIP
360
207D
  0
DICTIONARY
  5
2092
330
1FA1
100
AcDbDictionary
280
     1
281
     1
  3
ACAD_XREC_ROUNDTRIP
360
2093
  0
DICTIONARY
  5
2090
330
1FA0
100
AcDbDictionary
280
     1
281
     1
  3
ACAD_XREC_ROUNDTRIP
360
2091
  0
DICTIONARY
  5
208A
330
1F9D
100
AcDbDictionary
280
     1
281
     1
  3
ACAD_XREC_ROUNDTRIP
360
208B
  0
DICTIONARY
  5
208C
330
1F9E
100
AcDbDictionary
280
     1
281
     1
  3
ACAD_XREC_ROUNDTRIP
360
208D
  0
DICTIONARY
  5
2082
330
1F99
100
AcDbDictionary
280
     1
281
     1
  3
ACAD_XREC_ROUNDTRIP
360
2083
  0
DICTIONARY
  5
2076
330
1F93
100
AcDbDictionary
280
     1
281
     1
  3
ACAD_XREC_ROUNDTRIP
360
2077
  0
DICTIONARY
  5
208E
330
1F9F
100
AcDbDictionary
280
     1
281
     1
  3
ACAD_XREC_ROUNDTRIP
360
208F
  0
XRECORD
  5
205B
102
{ACAD_REACTORS
330
2061
102
}
330
2061
100
AcDbXrecord
280
     1
  1
AcDb_Thumbnail_Schema
102
{ATTRRECORD
341
205C
  2
AcDbDs::TreatedAsObjectData
280
     1
291
     1
102
ATTRRECORD}
102
{ATTRRECORD
341
205D
  2
AcDbDs::Legacy
280
     1
291
     1
102
ATTRRECORD}
  2
AcDbDs::ID
280
    10
 91
        8
102
{ATTRRECORD
341
205E
  2
AcDs:Indexable
280
     1
291
     1
102
ATTRRECORD}
102
{ATTRRECORD
341
205F
  2
AcDbDs::HandleAttribute
280
     7
282
     1
102
ATTRRECORD}
  2
Thumbnail_Data
280
    15
 91
        0
  0
XRECORD
  5
205C
102
{ACAD_REACTORS
330
2061
102
}
330
2061
100
AcDbXrecord
280
     1
  1
AcDbDs::TreatedAsObjectDataSchema
  2
AcDbDs::TreatedAsObjectData
280
     1
 91
        0
  0
XRECORD
  5
205D
102
{ACAD_REACTORS
330
2061
102
}
330
2061
100
AcDbXrecord
280
     1
  1
AcDbDs::LegacySchema
  2
AcDbDs::Legacy
280
     1
 91
        0
  0
XRECORD
  5
205E
102
{ACAD_REACTORS
330
2061
102
}
330
2061
100
AcDbXrecord
280
     1
  1
AcDbDs::IndexedPropertySchema
  2
AcDs:Indexable
280
     1
 91
        0
  0
XRECORD
  5
205F
102
{ACAD_REACTORS
330
2061
102
}
330
2061
100
AcDbXrecord
280
     1
  1
AcDbDs::HandleAttributeSchema
  2
AcDbDs::HandleAttribute
280
     7
 91
        1
284
     1
  0
XRECORD
  5
209F
102
{ACAD_REACTORS
330
2049
102
}
330
2049
100
AcDbXrecord
280
     1
102
DISPLAYNAME
  1
Imperial24
102
FLAGS
 90
        0
  0
XRECORD
  5
2066
102
{ACAD_REACTORS
330
2065
102
}
330
2065
100
AcDbXrecord
280
     1
102
SHADEPLOT
 70
     0
102
SHADEPLOTRESLEVEL
 70
     2
102
SHADEPLOTCUSTOMDPI
 70
   300
  0
XRECORD
  5
2064
102
{ACAD_REACTORS
330
2063
102
}
330
2063
100
AcDbXrecord
280
     1
102
SHADEPLOT
 70
     0
102
SHADEPLOTRESLEVEL
 70
     2
102
SHADEPLOTCUSTOMDPI
 70
   300
  0
XRECORD
  5
2068
102
{ACAD_REACTORS
330
1F7D
102
}
330
1F7D
100
AcDbXrecord
280
     1
102
MATERIAL
148
0.0
149
0.0
149
0.0
 93
        0
 94
      127
282
     0
 72
     0
 77
     0
171
     0
175
     0
179
     0
273
     0
  0
XRECORD
  5
1F7F
102
{ACAD_REACTORS
330
1F7D
102
}
330
1F7D
100
AcDbXrecord
280
     1
270
     1
271
     1
  0
XRECORD
  5
1F7E
102
{ACAD_REACTORS
330
1F7D
102
}
330
1F7D
100
AcDbXrecord
280
     1
270
     1
271
     1
  0
XRECORD
  5
1F82
102
{ACAD_REACTORS
330
1F7D
102
}
330
1F7D
100
AcDbXrecord
280
     1
270
     1
271
     1
  0
XRECORD
  5
1F81
102
{ACAD_REACTORS
330
1F7D
102
}
330
1F7D
100
AcDbXrecord
280
     1
270
     1
271
     1
  0
XRECORD
  5
1F83
102
{ACAD_REACTORS
330
1F7D
102
}
330
1F7D
100
AcDbXrecord
280
     1
270
     1
271
     1
  0
XRECORD
  5
1F80
102
{ACAD_REACTORS
330
1F7D
102
}
330
1F7D
100
AcDbXrecord
280
     1
270
     1
271
     1
  0
XRECORD
  5
2067
102
{ACAD_REACTORS
330
1F75
102
}
330
1F75
100
AcDbXrecord
280
     1
102
MATERIAL
148
0.0
149
0.0
149
0.0
 93
        0
 94
      127
282
     0
 72
     0
 77
     0
171
     0
175
     0
179
     0
273
     0
  0
XRECORD
  5
1F77
102
{ACAD_REACTORS
330
1F75
102
}
330
1F75
100
AcDbXrecord
280
     1
270
     1
271
     1
  0
XRECORD
  5
1F76
102
{ACAD_REACTORS
330
1F75
102
}
330
1F75
100
AcDbXrecord
280
     1
270
     1
271
     1
  0
XRECORD
  5
1F7A
102
{ACAD_REACTORS
330
1F75
102
}
330
1F75
100
AcDbXrecord
280
     1
270
     1
271
     1
  0
XRECORD
  5
1F79
102
{ACAD_REACTORS
330
1F75
102
}
330
1F75
100
AcDbXrecord
280
     1
270
     1
271
     1
  0
XRECORD
  5
1F7B
102
{ACAD_REACTORS
330
1F75
102
}
330
1F75
100
AcDbXrecord
280
     1
270
     1
271
     1
  0
XRECORD
  5
1F78
102
{ACAD_REACTORS
330
1F75
102
}
330
1F75
100
AcDbXrecord
280
     1
270
     1
271
     1
  0
XRECORD
  5
2069
102
{ACAD_REACTORS
330
1F85
102
}
330
1F85
100
AcDbXrecord
280
     1
102
MATERIAL
148
0.0
149
0.0
149
0.0
 93
        0
 94
      127
282
     0
 72
     0
 77
     0
171
     0
175
     0
179
     0
273
     0
  0
XRECORD
  5
1F87
102
{ACAD_REACTORS
330
1F85
102
}
330
1F85
100
AcDbXrecord
280
     1
270
     1
271
     1
  0
XRECORD
  5
1F86
102
{ACAD_REACTORS
330
1F85
102
}
330
1F85
100
AcDbXrecord
280
     1
270
     1
271
     1
  0
XRECORD
  5
1F8A
102
{ACAD_REACTORS
330
1F85
102
}
330
1F85
100
AcDbXrecord
280
     1
270
     1
271
     1
  0
XRECORD
  5
1F89
102
{ACAD_REACTORS
330
1F85
102
}
330
1F85
100
AcDbXrecord
280
     1
270
     1
271
     1
  0
XRECORD
  5
1F8B
102
{ACAD_REACTORS
330
1F85
102
}
330
1F85
100
AcDbXrecord
280
     1
270
     1
271
     1
  0
XRECORD
  5
1F88
102
{ACAD_REACTORS
330
1F85
102
}
330
1F85
100
AcDbXrecord
280
     1
270
     1
271
     1
  0
XRECORD
  5
209D
102
{ACAD_REACTORS
330
209C
102
}
330
209C
100
AcDbXrecord
280
     1
102
ACAD_ROUNDTRIP_2012_MLEADER_STYLE
298
     1
  0
XRECORD
  5
209E
102
{ACAD_REACTORS
330
2047
102
}
330
2047
100
AcDbXrecord
280
     1
102
DISPLAYNAME
  1
Imperial24
102
FLAGS
 90
        0
  0
CELLSTYLEMAP
  5
2058
102
{ACAD_REACTORS
330
2045
102
}
330
2045
100
AcDbCellStyleMap
 90
        3
300
CELLSTYLE
  1
TABLEFORMAT_BEGIN
 90
        5
170
     1
 91
        0
 92
    32768
 62
   257
 93
        1
300
CONTENTFORMAT
  1
CONTENTFORMAT_BEGIN
 90
        0
 91
        0
 92
      512
 93
        0
300

 40
0.0
140
1.0
 94
        5
 62
     0
340
F
144
0.25
309
CONTENTFORMAT_END
171
     1
301
MARGIN
  1
CELLMARGIN_BEGIN
 40
0.06
 40
0.06
 40
0.06
 40
0.06
 40
0.18
 40
0.18
309
CELLMARGIN_END
 94
        6
 95
        1
302
GRIDFORMAT
  1
GRIDFORMAT_BEGIN
 90
        0
 91
        1
 62
     0
 92
       -2
340
0
 93
        0
 40
0.045
309
GRIDFORMAT_END
 95
        2
302
GRIDFORMAT
  1
GRIDFORMAT_BEGIN
 90
        0
 91
        1
 62
     0
 92
       -2
340
0
 93
        0
 40
0.045
309
GRIDFORMAT_END
 95
        4
302
GRIDFORMAT
  1
GRIDFORMAT_BEGIN
 90
        0
 91
        1
 62
     0
 92
       -2
340
0
 93
        0
 40
0.045
309
GRIDFORMAT_END
 95
        8
302
GRIDFORMAT
  1
GRIDFORMAT_BEGIN
 90
        0
 91
        1
 62
     0
 92
       -2
340
0
 93
        0
 40
0.045
309
GRIDFORMAT_END
 95
       16
302
GRIDFORMAT
  1
GRIDFORMAT_BEGIN
 90
        0
 91
        1
 62
     0
 92
       -2
340
0
 93
        0
 40
0.045
309
GRIDFORMAT_END
 95
       32
302
GRIDFORMAT
  1
GRIDFORMAT_BEGIN
 90
        0
 91
        1
 62
     0
 92
       -2
340
0
 93
        0
 40
0.045
309
GRIDFORMAT_END
309
TABLEFORMAT_END
  1
CELLSTYLE_BEGIN
 90
        1
 91
        1
300
_TITLE
309
CELLSTYLE_END
300
CELLSTYLE
  1
TABLEFORMAT_BEGIN
 90
        5
170
     1
 91
        0
 92
        0
 62
   257
 93
        1
300
CONTENTFORMAT
  1
CONTENTFORMAT_BEGIN
 90
        0
 91
        0
 92
      512
 93
        0
300

 40
0.0
140
1.0
 94
        5
 62
     0
340
F
144
0.18
309
CONTENTFORMAT_END
171
     1
301
MARGIN
  1
CELLMARGIN_BEGIN
 40
0.06
 40
0.06
 40
0.06
 40
0.06
 40
0.18
 40
0.18
309
CELLMARGIN_END
 94
        6
 95
        1
302
GRIDFORMAT
  1
GRIDFORMAT_BEGIN
 90
        0
 91
        1
 62
     0
 92
       -2
340
0
 93
        0
 40
0.045
309
GRIDFORMAT_END
 95
        2
302
GRIDFORMAT
  1
GRIDFORMAT_BEGIN
 90
        0
 91
        1
 62
     0
 92
       -2
340
0
 93
        0
 40
0.045
309
GRIDFORMAT_END
 95
        4
302
GRIDFORMAT
  1
GRIDFORMAT_BEGIN
 90
        0
 91
        1
 62
     0
 92
       -2
340
0
 93
        0
 40
0.045
309
GRIDFORMAT_END
 95
        8
302
GRIDFORMAT
  1
GRIDFORMAT_BEGIN
 90
        0
 91
        1
 62
     0
 92
       -2
340
0
 93
        0
 40
0.045
309
GRIDFORMAT_END
 95
       16
302
GRIDFORMAT
  1
GRIDFORMAT_BEGIN
 90
        0
 91
        1
 62
     0
 92
       -2
340
0
 93
        0
 40
0.045
309
GRIDFORMAT_END
 95
       32
302
GRIDFORMAT
  1
GRIDFORMAT_BEGIN
 90
        0
 91
        1
 62
     0
 92
       -2
340
0
 93
        0
 40
0.045
309
GRIDFORMAT_END
309
TABLEFORMAT_END
  1
CELLSTYLE_BEGIN
 90
        2
 91
        1
300
_HEADER
309
CELLSTYLE_END
300
CELLSTYLE
  1
TABLEFORMAT_BEGIN
 90
        5
170
     1
 91
        0
 92
        0
 62
   257
 93
        1
300
CONTENTFORMAT
  1
CONTENTFORMAT_BEGIN
 90
        0
 91
        0
 92
      512
 93
        0
300

 40
0.0
140
1.0
 94
        2
 62
     0
340
F
144
0.18
309
CONTENTFORMAT_END
171
     1
301
MARGIN
  1
CELLMARGIN_BEGIN
 40
0.06
 40
0.06
 40
0.06
 40
0.06
 40
0.18
 40
0.18
309
CELLMARGIN_END
 94
        6
 95
        1
302
GRIDFORMAT
  1
GRIDFORMAT_BEGIN
 90
        0
 91
        1
 62
     0
 92
       -2
340
0
 93
        0
 40
0.045
309
GRIDFORMAT_END
 95
        2
302
GRIDFORMAT
  1
GRIDFORMAT_BEGIN
 90
        0
 91
        1
 62
     0
 92
       -2
340
0
 93
        0
 40
0.045
309
GRIDFORMAT_END
 95
        4
302
GRIDFORMAT
  1
GRIDFORMAT_BEGIN
 90
        0
 91
        1
 62
     0
 92
       -2
340
0
 93
        0
 40
0.045
309
GRIDFORMAT_END
 95
        8
302
GRIDFORMAT
  1
GRIDFORMAT_BEGIN
 90
        0
 91
        1
 62
     0
 92
       -2
340
0
 93
        0
 40
0.045
309
GRIDFORMAT_END
 95
       16
302
GRIDFORMAT
  1
GRIDFORMAT_BEGIN
 90
        0
 91
        1
 62
     0
 92
       -2
340
0
 93
        0
 40
0.045
309
GRIDFORMAT_END
 95
       32
302
GRIDFORMAT
  1
GRIDFORMAT_BEGIN
 90
        0
 91
        1
 62
     0
 92
       -2
340
0
 93
        0
 40
0.045
309
GRIDFORMAT_END
309
TABLEFORMAT_END
  1
CELLSTYLE_BEGIN
 90
        3
 91
        2
300
_DATA
309
CELLSTYLE_END
  0
XRECORD
  5
209A
102
{ACAD_REACTORS
330
2045
102
}
330
2045
100
AcDbXrecord
280
     1
102
ACAD_ROUNDTRIP_PRE2007_TABLESTYLE
 90
      512
 91
        0
  1

 92
      512
 93
        0
  2

 94
      512
 95
        0
  3

  0
XRECORD
  5
2075
102
{ACAD_REACTORS
330
2074
102
}
330
2074
100
AcDbXrecord
280
     1
102
RTVSPost2010Prop28
280
     1
102
RTVSPost2010PropOp28
 70
     1
102
RTVSPost2010Prop29
280
     1
102
RTVSPost2010PropOp29
 70
     1
102
RTVSPost2010Prop30
280
     0
102
RTVSPost2010PropOp30
 70
     1
102
RTVSPost2010Prop31
280
     0
102
RTVSPost2010PropOp31
 70
     1
102
RTVSPost2010Prop32
280
     0
102
RTVSPost2010PropOp32
 70
     1
102
RTVSPost2010Prop33
280
     0
102
RTVSPost2010PropOp33
 70
     1
102
RTVSPost2010Prop34
280
     0
102
RTVSPost2010PropOp34
 70
     1
102
RTVSPost2010Prop35
280
     0
102
RTVSPost2010PropOp35
 70
     1
102
RTVSPost2010Prop36
280
     0
102
RTVSPost2010PropOp36
 70
     1
102
RTVSPost2010Prop37
 90
       50
102
RTVSPost2010PropOp37
 70
     1
102
RTVSPost2010Prop38
140
0.0
102
RTVSPost2010PropOp38
 70
     1
102
RTVSPost2010Prop39
140
1.0
102
RTVSPost2010PropOp39
 70
     1
102
RTVSPost2010Prop40
 90
        0
102
RTVSPost2010PropOp40
 70
     1
102
RTVSPost2010Prop41ColorIndex
 90
       18
102
RTVSPost2010Prop41ColorRGB
 90
-16777216
102
RTVSPost2010PropOp41
 70
     1
102
RTVSPost2010Prop42
 90
       50
102
RTVSPost2010PropOp42
 70
     1
102
RTVSPost2010Prop43
 90
        3
102
RTVSPost2010PropOp43
 70
     1
102
RTVSPost2010Prop44ColorIndex
 90
        5
102
RTVSPost2010Prop44ColorRGB
 90
      255
102
RTVSPost2010PropOp44
 70
     1
102
RTVSPost2010Prop45
280
     0
102
RTVSPost2010PropOp45
 70
     1
102
RTVSPost2010Prop46
 90
       50
102
RTVSPost2010PropOp46
 70
     1
102
RTVSPost2010Prop47
 90
       50
102
RTVSPost2010PropOp47
 70
     1
102
RTVSPost2010Prop48
 90
       50
102
RTVSPost2010PropOp48
 70
     1
102
RTVSPost2010Prop49
280
     0
102
RTVSPost2010PropOp49
 70
     1
102
RTVSPost2010Prop50
 90
       50
102
RTVSPost2010PropOp50
 70
     1
102
RTVSPost2010Prop51ColorIndex
 90
      256
102
RTVSPost2010Prop51ColorRGB
 90
-16777216
102
RTVSPost2010PropOp51
 70
     0
102
RTVSPost2010Prop52
140
1.0
102
RTVSPost2010PropOp52
 70
     0
102
RTVSPost2010Prop53
 90
        2
102
RTVSPost2010PropOp53
 70
     1
102
RTVSPost2010Prop54
  1
strokes_ogs.tif
102
RTVSPost2010PropOp54
 70
     1
102
RTVSPost2010Prop55
280
     0
102
RTVSPost2010PropOp55
 70
     1
102
RTVSPost2010Prop56
140
1.0
102
RTVSPost2010PropOp56
 70
     1
102
RTVSPost2010Prop57
140
1.0
102
RTVSPost2010PropOp57
 70
     1
102
RTVSPropertyOp0
 70
     1
102
RTVSPropertyOp1
 70
     1
102
RTVSPropertyOp2
 70
     1
102
RTVSPropertyOp3
 70
     1
102
RTVSPropertyOp4
 70
     1
102
RTVSPropertyOp5
 70
     1
102
RTVSPropertyOp6
 70
     1
102
RTVSPropertyOp7
 70
     1
102
RTVSPropertyOp8
 70
     1
102
RTVSPropertyOp9
 70
     1
102
RTVSPropertyOp10
 70
     1
102
RTVSPropertyOp11
 70
     1
102
RTVSPropertyOp12
 70
     1
102
RTVSPropertyOp13
 70
     1
102
RTVSPropertyOp14
 70
     1
102
RTVSPropertyOp15
 70
     1
102
RTVSPropertyOp16
 70
     1
102
RTVSPropertyOp17
 70
     1
102
RTVSPropertyOp18
 70
     1
102
RTVSPropertyOp19
 70
     1
102
RTVSPropertyOp20
 70
     1
102
RTVSPropertyOp21
 70
     1
102
RTVSPropertyOp22
 70
     1
102
RTVSPropertyOp23
 70
     1
102
RTVSPropertyOp24
 70
     1
102
RTVSPropertyOp25
 70
     1
102
RTVSPropertyOp26
 70
     1
102
RTVSPropertyOp27
 70
     1
102
RTVSPropertyOp28
 70
     1
102
RTVSPropertyOp29
 70
     1
102
RTVSPropertyOp30
 70
     1
102
RTVSPropertyOp31
 70
     1
102
RTVSPropertyOp32
 70
     1
102
RTVSPropertyOp33
 70
     1
102
RTVSPropertyOp34
 70
     1
102
RTVSPropertyOp35
 70
     1
102
RTVSPropertyOp36
 70
     1
102
RTVSPropertyOp37
 70
     1
102
RTVSPropertyOp38
 70
     1
102
RTVSPropertyOp39
 70
     1
102
RTVSPropertyOp40
 70
     1
102
RTVSPropertyOp41
 70
     1
102
RTVSPropertyOp42
 70
     1
102
RTVSPropertyOp43
 70
     1
102
RTVSPropertyOp44
 70
     1
102
RTVSPropertyOp45
 70
     1
102
RTVSPropertyOp46
 70
     1
102
RTVSPropertyOp47
 70
     1
102
RTVSPropertyOp48
 70
     1
102
RTVSPropertyOp49
 70
     1
102
RTVSPropertyOp50
 70
     1
102
RTVSPropertyOp51
 70
     0
102
RTVSPropertyOp52
 70
     0
102
RTVSPropertyOp53
 70
     1
102
RTVSPropertyOp54
 70
     1
102
RTVSPropertyOp55
 70
     1
102
RTVSPropertyOp56
 70
     1
102
RTVSPropertyOp57
 70
     1
102
RTVSPropertyOp58
 70
     1
102
RTVSPropertyOp59
 70
     1
102
RTVSPropertyOp60
 70
     1
102
RTVSPropertyOp61
 70
     1
102
RTVSPropertyOp62
 70
     1
  0
XRECORD
  5
2073
102
{ACAD_REACTORS
330
2072
102
}
330
2072
100
AcDbXrecord
280
     1
102
RTVSPost2010Prop28
280
     0
102
RTVSPost2010PropOp28
 70
     1
102
RTVSPost2010Prop29
280
     1
102
RTVSPost2010PropOp29
 70
     1
102
RTVSPost2010Prop30
280
     1
102
RTVSPost2010PropOp30
 70
     1
102
RTVSPost2010Prop31
280
     0
102
RTVSPost2010PropOp31
 70
     1
102
RTVSPost2010Prop32
280
     0
102
RTVSPost2010PropOp32
 70
     1
102
RTVSPost2010Prop33
280
     0
102
RTVSPost2010PropOp33
 70
     1
102
RTVSPost2010Prop34
280
     0
102
RTVSPost2010PropOp34
 70
     1
102
RTVSPost2010Prop35
280
     0
102
RTVSPost2010PropOp35
 70
     1
102
RTVSPost2010Prop36
280
     0
102
RTVSPost2010PropOp36
 70
     1
102
RTVSPost2010Prop37
 90
       50
102
RTVSPost2010PropOp37
 70
     1
102
RTVSPost2010Prop38
140
0.0
102
RTVSPost2010PropOp38
 70
     1
102
RTVSPost2010Prop39
140
1.0
102
RTVSPost2010PropOp39
 70
     1
102
RTVSPost2010Prop40
 90
        0
102
RTVSPost2010PropOp40
 70
     1
102
RTVSPost2010Prop41ColorIndex
 90
       18
102
RTVSPost2010Prop41ColorRGB
 90
-16777216
102
RTVSPost2010PropOp41
 70
     1
102
RTVSPost2010Prop42
 90
       50
102
RTVSPost2010PropOp42
 70
     1
102
RTVSPost2010Prop43
 90
        3
102
RTVSPost2010PropOp43
 70
     1
102
RTVSPost2010Prop44ColorIndex
 90
        5
102
RTVSPost2010Prop44ColorRGB
 90
      255
102
RTVSPost2010PropOp44
 70
     1
102
RTVSPost2010Prop45
280
     0
102
RTVSPost2010PropOp45
 70
     1
102
RTVSPost2010Prop46
 90
       50
102
RTVSPost2010PropOp46
 70
     1
102
RTVSPost2010Prop47
 90
       50
102
RTVSPost2010PropOp47
 70
     1
102
RTVSPost2010Prop48
 90
       50
102
RTVSPost2010PropOp48
 70
     1
102
RTVSPost2010Prop49
280
     0
102
RTVSPost2010PropOp49
 70
     1
102
RTVSPost2010Prop50
 90
       50
102
RTVSPost2010PropOp50
 70
     1
102
RTVSPost2010Prop51ColorIndex
 90
      256
102
RTVSPost2010Prop51ColorRGB
 90
-16777216
102
RTVSPost2010PropOp51
 70
     0
102
RTVSPost2010Prop52
140
1.0
102
RTVSPost2010PropOp52
 70
     0
102
RTVSPost2010Prop53
 90
        2
102
RTVSPost2010PropOp53
 70
     1
102
RTVSPost2010Prop54
  1
strokes_ogs.tif
102
RTVSPost2010PropOp54
 70
     1
102
RTVSPost2010Prop55
280
     0
102
RTVSPost2010PropOp55
 70
     1
102
RTVSPost2010Prop56
140
1.0
102
RTVSPost2010PropOp56
 70
     1
102
RTVSPost2010Prop57
140
1.0
102
RTVSPost2010PropOp57
 70
     1
102
RTVSPropertyOp0
 70
     1
102
RTVSPropertyOp1
 70
     1
102
RTVSPropertyOp2
 70
     1
102
RTVSPropertyOp3
 70
     1
102
RTVSPropertyOp4
 70
     1
102
RTVSPropertyOp5
 70
     1
102
RTVSPropertyOp6
 70
     1
102
RTVSPropertyOp7
 70
     1
102
RTVSPropertyOp8
 70
     1
102
RTVSPropertyOp9
 70
     1
102
RTVSPropertyOp10
 70
     1
102
RTVSPropertyOp11
 70
     1
102
RTVSPropertyOp12
 70
     1
102
RTVSPropertyOp13
 70
     1
102
RTVSPropertyOp14
 70
     1
102
RTVSPropertyOp15
 70
     1
102
RTVSPropertyOp16
 70
     1
102
RTVSPropertyOp17
 70
     1
102
RTVSPropertyOp18
 70
     1
102
RTVSPropertyOp19
 70
     1
102
RTVSPropertyOp20
 70
     1
102
RTVSPropertyOp21
 70
     1
102
RTVSPropertyOp22
 70
     1
102
RTVSPropertyOp23
 70
     1
102
RTVSPropertyOp24
 70
     1
102
RTVSPropertyOp25
 70
     1
102
RTVSPropertyOp26
 70
     1
102
RTVSPropertyOp27
 70
     1
102
RTVSPropertyOp28
 70
     1
102
RTVSPropertyOp29
 70
     1
102
RTVSPropertyOp30
 70
     1
102
RTVSPropertyOp31
 70
     1
102
RTVSPropertyOp32
 70
     1
102
RTVSPropertyOp33
 70
     1
102
RTVSPropertyOp34
 70
     1
102
RTVSPropertyOp35
 70
     1
102
RTVSPropertyOp36
 70
     1
102
RTVSPropertyOp37
 70
     1
102
RTVSPropertyOp38
 70
     1
102
RTVSPropertyOp39
 70
     1
102
RTVSPropertyOp40
 70
     1
102
RTVSPropertyOp41
 70
     1
102
RTVSPropertyOp42
 70
     1
102
RTVSPropertyOp43
 70
     1
102
RTVSPropertyOp44
 70
     1
102
RTVSPropertyOp45
 70
     1
102
RTVSPropertyOp46
 70
     1
102
RTVSPropertyOp47
 70
     1
102
RTVSPropertyOp48
 70
     1
102
RTVSPropertyOp49
 70
     1
102
RTVSPropertyOp50
 70
     1
102
RTVSPropertyOp51
 70
     0
102
RTVSPropertyOp52
 70
     0
102
RTVSPropertyOp53
 70
     1
102
RTVSPropertyOp54
 70
     1
102
RTVSPropertyOp55
 70
     1
102
RTVSPropertyOp56
 70
     1
102
RTVSPropertyOp57
 70
     1
102
RTVSPropertyOp58
 70
     1
102
RTVSPropertyOp59
 70
     1
102
RTVSPropertyOp60
 70
     1
102
RTVSPropertyOp61
 70
     1
102
RTVSPropertyOp62
 70
     1
  0
XRECORD
  5
2081
102
{ACAD_REACTORS
330
2080
102
}
330
2080
100
AcDbXrecord
280
     1
102
RTVSPost2010Prop28
280
     0
102
RTVSPost2010PropOp28
 70
     1
102
RTVSPost2010Prop29
280
     1
102
RTVSPost2010PropOp29
 70
     1
102
RTVSPost2010Prop30
280
     1
102
RTVSPost2010PropOp30
 70
     1
102
RTVSPost2010Prop31
280
     0
102
RTVSPost2010PropOp31
 70
     1
102
RTVSPost2010Prop32
280
     0
102
RTVSPost2010PropOp32
 70
     1
102
RTVSPost2010Prop33
280
     0
102
RTVSPost2010PropOp33
 70
     1
102
RTVSPost2010Prop34
280
     0
102
RTVSPost2010PropOp34
 70
     1
102
RTVSPost2010Prop35
280
     0
102
RTVSPost2010PropOp35
 70
     1
102
RTVSPost2010Prop36
280
     0
102
RTVSPost2010PropOp36
 70
     1
102
RTVSPost2010Prop37
 90
       50
102
RTVSPost2010PropOp37
 70
     1
102
RTVSPost2010Prop38
140
0.0
102
RTVSPost2010PropOp38
 70
     1
102
RTVSPost2010Prop39
140
1.0
102
RTVSPost2010PropOp39
 70
     1
102
RTVSPost2010Prop40
 90
        0
102
RTVSPost2010PropOp40
 70
     1
102
RTVSPost2010Prop41ColorIndex
 90
       18
102
RTVSPost2010Prop41ColorRGB
 90
-16777216
102
RTVSPost2010PropOp41
 70
     1
102
RTVSPost2010Prop42
 90
       50
102
RTVSPost2010PropOp42
 70
     1
102
RTVSPost2010Prop43
 90
        3
102
RTVSPost2010PropOp43
 70
     1
102
RTVSPost2010Prop44ColorIndex
 90
        5
102
RTVSPost2010Prop44ColorRGB
 90
      255
102
RTVSPost2010PropOp44
 70
     1
102
RTVSPost2010Prop45
280
     0
102
RTVSPost2010PropOp45
 70
     1
102
RTVSPost2010Prop46
 90
       50
102
RTVSPost2010PropOp46
 70
     1
102
RTVSPost2010Prop47
 90
       50
102
RTVSPost2010PropOp47
 70
     1
102
RTVSPost2010Prop48
 90
       50
102
RTVSPost2010PropOp48
 70
     1
102
RTVSPost2010Prop49
280
     0
102
RTVSPost2010PropOp49
 70
     1
102
RTVSPost2010Prop50
 90
       50
102
RTVSPost2010PropOp50
 70
     1
102
RTVSPost2010Prop51ColorIndex
 90
      256
102
RTVSPost2010Prop51ColorRGB
 90
-16777216
102
RTVSPost2010PropOp51
 70
     0
102
RTVSPost2010Prop52
140
1.0
102
RTVSPost2010PropOp52
 70
     0
102
RTVSPost2010Prop53
 90
        2
102
RTVSPost2010PropOp53
 70
     1
102
RTVSPost2010Prop54
  1
strokes_ogs.tif
102
RTVSPost2010PropOp54
 70
     1
102
RTVSPost2010Prop55
280
     0
102
RTVSPost2010PropOp55
 70
     1
102
RTVSPost2010Prop56
140
1.0
102
RTVSPost2010PropOp56
 70
     1
102
RTVSPost2010Prop57
140
1.0
102
RTVSPost2010PropOp57
 70
     1
102
RTVSPropertyOp0
 70
     1
102
RTVSPropertyOp1
 70
     1
102
RTVSPropertyOp2
 70
     1
102
RTVSPropertyOp3
 70
     1
102
RTVSPropertyOp4
 70
     1
102
RTVSPropertyOp5
 70
     1
102
RTVSPropertyOp6
 70
     1
102
RTVSPropertyOp7
 70
     1
102
RTVSPropertyOp8
 70
     1
102
RTVSPropertyOp9
 70
     1
102
RTVSPropertyOp10
 70
     1
102
RTVSPropertyOp11
 70
     1
102
RTVSPropertyOp12
 70
     1
102
RTVSPropertyOp13
 70
     1
102
RTVSPropertyOp14
 70
     1
102
RTVSPropertyOp15
 70
     1
102
RTVSPropertyOp16
 70
     1
102
RTVSPropertyOp17
 70
     1
102
RTVSPropertyOp18
 70
     1
102
RTVSPropertyOp19
 70
     1
102
RTVSPropertyOp20
 70
     1
102
RTVSPropertyOp21
 70
     1
102
RTVSPropertyOp22
 70
     1
102
RTVSPropertyOp23
 70
     1
102
RTVSPropertyOp24
 70
     1
102
RTVSPropertyOp25
 70
     1
102
RTVSPropertyOp26
 70
     1
102
RTVSPropertyOp27
 70
     1
102
RTVSPropertyOp28
 70
     1
102
RTVSPropertyOp29
 70
     1
102
RTVSPropertyOp30
 70
     1
102
RTVSPropertyOp31
 70
     1
102
RTVSPropertyOp32
 70
     1
102
RTVSPropertyOp33
 70
     1
102
RTVSPropertyOp34
 70
     1
102
RTVSPropertyOp35
 70
     1
102
RTVSPropertyOp36
 70
     1
102
RTVSPropertyOp37
 70
     1
102
RTVSPropertyOp38
 70
     1
102
RTVSPropertyOp39
 70
     1
102
RTVSPropertyOp40
 70
     1
102
RTVSPropertyOp41
 70
     1
102
RTVSPropertyOp42
 70
     1
102
RTVSPropertyOp43
 70
     1
102
RTVSPropertyOp44
 70
     1
102
RTVSPropertyOp45
 70
     1
102
RTVSPropertyOp46
 70
     1
102
RTVSPropertyOp47
 70
     1
102
RTVSPropertyOp48
 70
     1
102
RTVSPropertyOp49
 70
     1
102
RTVSPropertyOp50
 70
     1
102
RTVSPropertyOp51
 70
     0
102
RTVSPropertyOp52
 70
     0
102
RTVSPropertyOp53
 70
     1
102
RTVSPropertyOp54
 70
     1
102
RTVSPropertyOp55
 70
     1
102
RTVSPropertyOp56
 70
     1
102
RTVSPropertyOp57
 70
     1
102
RTVSPropertyOp58
 70
     1
102
RTVSPropertyOp59
 70
     1
102
RTVSPropertyOp60
 70
     1
102
RTVSPropertyOp61
 70
     1
102
RTVSPropertyOp62
 70
     1
  0
XRECORD
  5
2089
102
{ACAD_REACTORS
330
2088
102
}
330
2088
100
AcDbXrecord
280
     1
102
RTVSPost2010Prop28
280
     0
102
RTVSPost2010PropOp28
 70
     1
102
RTVSPost2010Prop29
280
     1
102
RTVSPost2010PropOp29
 70
     1
102
RTVSPost2010Prop30
280
     1
102
RTVSPost2010PropOp30
 70
     1
102
RTVSPost2010Prop31
280
     0
102
RTVSPost2010PropOp31
 70
     1
102
RTVSPost2010Prop32
280
     0
102
RTVSPost2010PropOp32
 70
     1
102
RTVSPost2010Prop33
280
     0
102
RTVSPost2010PropOp33
 70
     1
102
RTVSPost2010Prop34
280
     0
102
RTVSPost2010PropOp34
 70
     1
102
RTVSPost2010Prop35
280
     0
102
RTVSPost2010PropOp35
 70
     1
102
RTVSPost2010Prop36
280
     0
102
RTVSPost2010PropOp36
 70
     1
102
RTVSPost2010Prop37
 90
       50
102
RTVSPost2010PropOp37
 70
     1
102
RTVSPost2010Prop38
140
0.0
102
RTVSPost2010PropOp38
 70
     1
102
RTVSPost2010Prop39
140
1.0
102
RTVSPost2010PropOp39
 70
     1
102
RTVSPost2010Prop40
 90
        0
102
RTVSPost2010PropOp40
 70
     1
102
RTVSPost2010Prop41ColorIndex
 90
       18
102
RTVSPost2010Prop41ColorRGB
 90
-16777216
102
RTVSPost2010PropOp41
 70
     1
102
RTVSPost2010Prop42
 90
       50
102
RTVSPost2010PropOp42
 70
     1
102
RTVSPost2010Prop43
 90
        3
102
RTVSPost2010PropOp43
 70
     1
102
RTVSPost2010Prop44ColorIndex
 90
        5
102
RTVSPost2010Prop44ColorRGB
 90
      255
102
RTVSPost2010PropOp44
 70
     1
102
RTVSPost2010Prop45
280
     0
102
RTVSPost2010PropOp45
 70
     1
102
RTVSPost2010Prop46
 90
       50
102
RTVSPost2010PropOp46
 70
     1
102
RTVSPost2010Prop47
 90
       50
102
RTVSPost2010PropOp47
 70
     1
102
RTVSPost2010Prop48
 90
       50
102
RTVSPost2010PropOp48
 70
     1
102
RTVSPost2010Prop49
280
     0
102
RTVSPost2010PropOp49
 70
     1
102
RTVSPost2010Prop50
 90
       50
102
RTVSPost2010PropOp50
 70
     1
102
RTVSPost2010Prop51ColorIndex
 90
      256
102
RTVSPost2010Prop51ColorRGB
 90
-16777216
102
RTVSPost2010PropOp51
 70
     0
102
RTVSPost2010Prop52
140
1.0
102
RTVSPost2010PropOp52
 70
     0
102
RTVSPost2010Prop53
 90
        2
102
RTVSPost2010PropOp53
 70
     1
102
RTVSPost2010Prop54
  1
strokes_ogs.tif
102
RTVSPost2010PropOp54
 70
     1
102
RTVSPost2010Prop55
280
     0
102
RTVSPost2010PropOp55
 70
     1
102
RTVSPost2010Prop56
140
1.0
102
RTVSPost2010PropOp56
 70
     1
102
RTVSPost2010Prop57
140
1.0
102
RTVSPost2010PropOp57
 70
     1
102
RTVSPropertyOp0
 70
     1
102
RTVSPropertyOp1
 70
     1
102
RTVSPropertyOp2
 70
     1
102
RTVSPropertyOp3
 70
     1
102
RTVSPropertyOp4
 70
     1
102
RTVSPropertyOp5
 70
     1
102
RTVSPropertyOp6
 70
     1
102
RTVSPropertyOp7
 70
     1
102
RTVSPropertyOp8
 70
     1
102
RTVSPropertyOp9
 70
     1
102
RTVSPropertyOp10
 70
     1
102
RTVSPropertyOp11
 70
     1
102
RTVSPropertyOp12
 70
     1
102
RTVSPropertyOp13
 70
     1
102
RTVSPropertyOp14
 70
     1
102
RTVSPropertyOp15
 70
     1
102
RTVSPropertyOp16
 70
     1
102
RTVSPropertyOp17
 70
     1
102
RTVSPropertyOp18
 70
     1
102
RTVSPropertyOp19
 70
     1
102
RTVSPropertyOp20
 70
     1
102
RTVSPropertyOp21
 70
     1
102
RTVSPropertyOp22
 70
     1
102
RTVSPropertyOp23
 70
     1
102
RTVSPropertyOp24
 70
     1
102
RTVSPropertyOp25
 70
     1
102
RTVSPropertyOp26
 70
     1
102
RTVSPropertyOp27
 70
     1
102
RTVSPropertyOp28
 70
     1
102
RTVSPropertyOp29
 70
     1
102
RTVSPropertyOp30
 70
     1
102
RTVSPropertyOp31
 70
     1
102
RTVSPropertyOp32
 70
     1
102
RTVSPropertyOp33
 70
     1
102
RTVSPropertyOp34
 70
     1
102
RTVSPropertyOp35
 70
     1
102
RTVSPropertyOp36
 70
     1
102
RTVSPropertyOp37
 70
     1
102
RTVSPropertyOp38
 70
     1
102
RTVSPropertyOp39
 70
     1
102
RTVSPropertyOp40
 70
     1
102
RTVSPropertyOp41
 70
     1
102
RTVSPropertyOp42
 70
     1
102
RTVSPropertyOp43
 70
     1
102
RTVSPropertyOp44
 70
     1
102
RTVSPropertyOp45
 70
     1
102
RTVSPropertyOp46
 70
     1
102
RTVSPropertyOp47
 70
     1
102
RTVSPropertyOp48
 70
     1
102
RTVSPropertyOp49
 70
     1
102
RTVSPropertyOp50
 70
     1
102
RTVSPropertyOp51
 70
     0
102
RTVSPropertyOp52
 70
     0
102
RTVSPropertyOp53
 70
     1
102
RTVSPropertyOp54
 70
     1
102
RTVSPropertyOp55
 70
     1
102
RTVSPropertyOp56
 70
     1
102
RTVSPropertyOp57
 70
     1
102
RTVSPropertyOp58
 70
     1
102
RTVSPropertyOp59
 70
     1
102
RTVSPropertyOp60
 70
     1
102
RTVSPropertyOp61
 70
     1
102
RTVSPropertyOp62
 70
     1
  0
XRECORD
  5
207B
102
{ACAD_REACTORS
330
207A
102
}
330
207A
100
AcDbXrecord
280
     1
102
RTVSPost2010Prop28
280
     0
102
RTVSPost2010PropOp28
 70
     1
102
RTVSPost2010Prop29
280
     1
102
RTVSPost2010PropOp29
 70
     1
102
RTVSPost2010Prop30
280
     1
102
RTVSPost2010PropOp30
 70
     1
102
RTVSPost2010Prop31
280
     0
102
RTVSPost2010PropOp31
 70
     1
102
RTVSPost2010Prop32
280
     0
102
RTVSPost2010PropOp32
 70
     1
102
RTVSPost2010Prop33
280
     0
102
RTVSPost2010PropOp33
 70
     1
102
RTVSPost2010Prop34
280
     0
102
RTVSPost2010PropOp34
 70
     1
102
RTVSPost2010Prop35
280
     0
102
RTVSPost2010PropOp35
 70
     1
102
RTVSPost2010Prop36
280
     0
102
RTVSPost2010PropOp36
 70
     1
102
RTVSPost2010Prop37
 90
       50
102
RTVSPost2010PropOp37
 70
     1
102
RTVSPost2010Prop38
140
0.0
102
RTVSPost2010PropOp38
 70
     1
102
RTVSPost2010Prop39
140
1.0
102
RTVSPost2010PropOp39
 70
     1
102
RTVSPost2010Prop40
 90
        0
102
RTVSPost2010PropOp40
 70
     1
102
RTVSPost2010Prop41ColorIndex
 90
       18
102
RTVSPost2010Prop41ColorRGB
 90
-16777216
102
RTVSPost2010PropOp41
 70
     1
102
RTVSPost2010Prop42
 90
       50
102
RTVSPost2010PropOp42
 70
     1
102
RTVSPost2010Prop43
 90
        3
102
RTVSPost2010PropOp43
 70
     1
102
RTVSPost2010Prop44ColorIndex
 90
        5
102
RTVSPost2010Prop44ColorRGB
 90
      255
102
RTVSPost2010PropOp44
 70
     1
102
RTVSPost2010Prop45
280
     0
102
RTVSPost2010PropOp45
 70
     1
102
RTVSPost2010Prop46
 90
       50
102
RTVSPost2010PropOp46
 70
     1
102
RTVSPost2010Prop47
 90
       50
102
RTVSPost2010PropOp47
 70
     1
102
RTVSPost2010Prop48
 90
       50
102
RTVSPost2010PropOp48
 70
     1
102
RTVSPost2010Prop49
280
     0
102
RTVSPost2010PropOp49
 70
     1
102
RTVSPost2010Prop50
 90
       50
102
RTVSPost2010PropOp50
 70
     1
102
RTVSPost2010Prop51ColorIndex
 90
      256
102
RTVSPost2010Prop51ColorRGB
 90
-16777216
102
RTVSPost2010PropOp51
 70
     0
102
RTVSPost2010Prop52
140
1.0
102
RTVSPost2010PropOp52
 70
     0
102
RTVSPost2010Prop53
 90
        2
102
RTVSPost2010PropOp53
 70
     1
102
RTVSPost2010Prop54
  1
strokes_ogs.tif
102
RTVSPost2010PropOp54
 70
     1
102
RTVSPost2010Prop55
280
     0
102
RTVSPost2010PropOp55
 70
     1
102
RTVSPost2010Prop56
140
1.0
102
RTVSPost2010PropOp56
 70
     1
102
RTVSPost2010Prop57
140
1.0
102
RTVSPost2010PropOp57
 70
     1
102
RTVSPropertyOp0
 70
     1
102
RTVSPropertyOp1
 70
     1
102
RTVSPropertyOp2
 70
     1
102
RTVSPropertyOp3
 70
     1
102
RTVSPropertyOp4
 70
     1
102
RTVSPropertyOp5
 70
     1
102
RTVSPropertyOp6
 70
     1
102
RTVSPropertyOp7
 70
     1
102
RTVSPropertyOp8
 70
     1
102
RTVSPropertyOp9
 70
     1
102
RTVSPropertyOp10
 70
     1
102
RTVSPropertyOp11
 70
     1
102
RTVSPropertyOp12
 70
     1
102
RTVSPropertyOp13
 70
     1
102
RTVSPropertyOp14
 70
     1
102
RTVSPropertyOp15
 70
     1
102
RTVSPropertyOp16
 70
     1
102
RTVSPropertyOp17
 70
     1
102
RTVSPropertyOp18
 70
     1
102
RTVSPropertyOp19
 70
     1
102
RTVSPropertyOp20
 70
     1
102
RTVSPropertyOp21
 70
     1
102
RTVSPropertyOp22
 70
     1
102
RTVSPropertyOp23
 70
     1
102
RTVSPropertyOp24
 70
     1
102
RTVSPropertyOp25
 70
     1
102
RTVSPropertyOp26
 70
     1
102
RTVSPropertyOp27
 70
     1
102
RTVSPropertyOp28
 70
     1
102
RTVSPropertyOp29
 70
     1
102
RTVSPropertyOp30
 70
     1
102
RTVSPropertyOp31
 70
     1
102
RTVSPropertyOp32
 70
     1
102
RTVSPropertyOp33
 70
     1
102
RTVSPropertyOp34
 70
     1
102
RTVSPropertyOp35
 70
     1
102
RTVSPropertyOp36
 70
     1
102
RTVSPropertyOp37
 70
     1
102
RTVSPropertyOp38
 70
     1
102
RTVSPropertyOp39
 70
     1
102
RTVSPropertyOp40
 70
     1
102
RTVSPropertyOp41
 70
     1
102
RTVSPropertyOp42
 70
     1
102
RTVSPropertyOp43
 70
     1
102
RTVSPropertyOp44
 70
     1
102
RTVSPropertyOp45
 70
     1
102
RTVSPropertyOp46
 70
     1
102
RTVSPropertyOp47
 70
     1
102
RTVSPropertyOp48
 70
     1
102
RTVSPropertyOp49
 70
     1
102
RTVSPropertyOp50
 70
     1
102
RTVSPropertyOp51
 70
     0
102
RTVSPropertyOp52
 70
     0
102
RTVSPropertyOp53
 70
     1
102
RTVSPropertyOp54
 70
     1
102
RTVSPropertyOp55
 70
     1
102
RTVSPropertyOp56
 70
     1
102
RTVSPropertyOp57
 70
     1
102
RTVSPropertyOp58
 70
     1
102
RTVSPropertyOp59
 70
     1
102
RTVSPropertyOp60
 70
     1
102
RTVSPropertyOp61
 70
     1
102
RTVSPropertyOp62
 70
     1
  0
XRECORD
  5
207F
102
{ACAD_REACTORS
330
207E
102
}
330
207E
100
AcDbXrecord
280
     1
102
RTVSPost2010Prop28
280
     0
102
RTVSPost2010PropOp28
 70
     1
102
RTVSPost2010Prop29
280
     1
102
RTVSPost2010PropOp29
 70
     1
102
RTVSPost2010Prop30
280
     1
102
RTVSPost2010PropOp30
 70
     1
102
RTVSPost2010Prop31
280
     0
102
RTVSPost2010PropOp31
 70
     1
102
RTVSPost2010Prop32
280
     0
102
RTVSPost2010PropOp32
 70
     1
102
RTVSPost2010Prop33
280
     0
102
RTVSPost2010PropOp33
 70
     1
102
RTVSPost2010Prop34
280
     0
102
RTVSPost2010PropOp34
 70
     1
102
RTVSPost2010Prop35
280
     0
102
RTVSPost2010PropOp35
 70
     1
102
RTVSPost2010Prop36
280
     0
102
RTVSPost2010PropOp36
 70
     1
102
RTVSPost2010Prop37
 90
       50
102
RTVSPost2010PropOp37
 70
     1
102
RTVSPost2010Prop38
140
0.0
102
RTVSPost2010PropOp38
 70
     1
102
RTVSPost2010Prop39
140
1.0
102
RTVSPost2010PropOp39
 70
     1
102
RTVSPost2010Prop40
 90
        0
102
RTVSPost2010PropOp40
 70
     1
102
RTVSPost2010Prop41ColorIndex
 90
       18
102
RTVSPost2010Prop41ColorRGB
 90
-16777216
102
RTVSPost2010PropOp41
 70
     1
102
RTVSPost2010Prop42
 90
       50
102
RTVSPost2010PropOp42
 70
     1
102
RTVSPost2010Prop43
 90
        3
102
RTVSPost2010PropOp43
 70
     1
102
RTVSPost2010Prop44ColorIndex
 90
        5
102
RTVSPost2010Prop44ColorRGB
 90
      255
102
RTVSPost2010PropOp44
 70
     1
102
RTVSPost2010Prop45
280
     0
102
RTVSPost2010PropOp45
 70
     1
102
RTVSPost2010Prop46
 90
       50
102
RTVSPost2010PropOp46
 70
     1
102
RTVSPost2010Prop47
 90
       50
102
RTVSPost2010PropOp47
 70
     1
102
RTVSPost2010Prop48
 90
       50
102
RTVSPost2010PropOp48
 70
     1
102
RTVSPost2010Prop49
280
     0
102
RTVSPost2010PropOp49
 70
     1
102
RTVSPost2010Prop50
 90
       50
102
RTVSPost2010PropOp50
 70
     1
102
RTVSPost2010Prop51ColorIndex
 90
      256
102
RTVSPost2010Prop51ColorRGB
 90
-16777216
102
RTVSPost2010PropOp51
 70
     0
102
RTVSPost2010Prop52
140
1.0
102
RTVSPost2010PropOp52
 70
     0
102
RTVSPost2010Prop53
 90
        2
102
RTVSPost2010PropOp53
 70
     1
102
RTVSPost2010Prop54
  1
strokes_ogs.tif
102
RTVSPost2010PropOp54
 70
     1
102
RTVSPost2010Prop55
280
     0
102
RTVSPost2010PropOp55
 70
     1
102
RTVSPost2010Prop56
140
1.0
102
RTVSPost2010PropOp56
 70
     1
102
RTVSPost2010Prop57
140
1.0
102
RTVSPost2010PropOp57
 70
     1
102
RTVSPropertyOp0
 70
     1
102
RTVSPropertyOp1
 70
     1
102
RTVSPropertyOp2
 70
     1
102
RTVSPropertyOp3
 70
     1
102
RTVSPropertyOp4
 70
     1
102
RTVSPropertyOp5
 70
     1
102
RTVSPropertyOp6
 70
     1
102
RTVSPropertyOp7
 70
     1
102
RTVSPropertyOp8
 70
     1
102
RTVSPropertyOp9
 70
     1
102
RTVSPropertyOp10
 70
     1
102
RTVSPropertyOp11
 70
     1
102
RTVSPropertyOp12
 70
     1
102
RTVSPropertyOp13
 70
     1
102
RTVSPropertyOp14
 70
     1
102
RTVSPropertyOp15
 70
     1
102
RTVSPropertyOp16
 70
     1
102
RTVSPropertyOp17
 70
     1
102
RTVSPropertyOp18
 70
     1
102
RTVSPropertyOp19
 70
     1
102
RTVSPropertyOp20
 70
     1
102
RTVSPropertyOp21
 70
     1
102
RTVSPropertyOp22
 70
     1
102
RTVSPropertyOp23
 70
     1
102
RTVSPropertyOp24
 70
     1
102
RTVSPropertyOp25
 70
     1
102
RTVSPropertyOp26
 70
     1
102
RTVSPropertyOp27
 70
     1
102
RTVSPropertyOp28
 70
     1
102
RTVSPropertyOp29
 70
     1
102
RTVSPropertyOp30
 70
     1
102
RTVSPropertyOp31
 70
     1
102
RTVSPropertyOp32
 70
     1
102
RTVSPropertyOp33
 70
     1
102
RTVSPropertyOp34
 70
     1
102
RTVSPropertyOp35
 70
     1
102
RTVSPropertyOp36
 70
     1
102
RTVSPropertyOp37
 70
     1
102
RTVSPropertyOp38
 70
     1
102
RTVSPropertyOp39
 70
     1
102
RTVSPropertyOp40
 70
     1
102
RTVSPropertyOp41
 70
     1
102
RTVSPropertyOp42
 70
     1
102
RTVSPropertyOp43
 70
     1
102
RTVSPropertyOp44
 70
     1
102
RTVSPropertyOp45
 70
     1
102
RTVSPropertyOp46
 70
     1
102
RTVSPropertyOp47
 70
     1
102
RTVSPropertyOp48
 70
     1
102
RTVSPropertyOp49
 70
     1
102
RTVSPropertyOp50
 70
     1
102
RTVSPropertyOp51
 70
     0
102
RTVSPropertyOp52
 70
     0
102
RTVSPropertyOp53
 70
     1
102
RTVSPropertyOp54
 70
     1
102
RTVSPropertyOp55
 70
     1
102
RTVSPropertyOp56
 70
     1
102
RTVSPropertyOp57
 70
     1
102
RTVSPropertyOp58
 70
     1
102
RTVSPropertyOp59
 70
     1
102
RTVSPropertyOp60
 70
     1
102
RTVSPropertyOp61
 70
     1
102
RTVSPropertyOp62
 70
     1
  0
XRECORD
  5
2099
102
{ACAD_REACTORS
330
2098
102
}
330
2098
100
AcDbXrecord
280
     1
102
RTVSPost2010Prop28
280
     0
102
RTVSPost2010PropOp28
 70
     0
102
RTVSPost2010Prop29
280
     1
102
RTVSPost2010PropOp29
 70
     0
102
RTVSPost2010Prop30
280
     1
102
RTVSPost2010PropOp30
 70
     0
102
RTVSPost2010Prop31
280
     0
102
RTVSPost2010PropOp31
 70
     0
102
RTVSPost2010Prop32
280
     0
102
RTVSPost2010PropOp32
 70
     0
102
RTVSPost2010Prop33
280
     0
102
RTVSPost2010PropOp33
 70
     0
102
RTVSPost2010Prop34
280
     0
102
RTVSPost2010PropOp34
 70
     0
102
RTVSPost2010Prop35
280
     0
102
RTVSPost2010PropOp35
 70
     0
102
RTVSPost2010Prop36
280
     0
102
RTVSPost2010PropOp36
 70
     0
102
RTVSPost2010Prop37
 90
       50
102
RTVSPost2010PropOp37
 70
     0
102
RTVSPost2010Prop38
140
0.0
102
RTVSPost2010PropOp38
 70
     0
102
RTVSPost2010Prop39
140
1.0
102
RTVSPost2010PropOp39
 70
     0
102
RTVSPost2010Prop40
 90
        0
102
RTVSPost2010PropOp40
 70
     0
102
RTVSPost2010Prop41ColorIndex
 90
       18
102
RTVSPost2010Prop41ColorRGB
 90
-16777216
102
RTVSPost2010PropOp41
 70
     0
102
RTVSPost2010Prop42
 90
       50
102
RTVSPost2010PropOp42
 70
     0
102
RTVSPost2010Prop43
 90
        3
102
RTVSPost2010PropOp43
 70
     0
102
RTVSPost2010Prop44ColorIndex
 90
        5
102
RTVSPost2010Prop44ColorRGB
 90
      255
102
RTVSPost2010PropOp44
 70
     0
102
RTVSPost2010Prop45
280
     0
102
RTVSPost2010PropOp45
 70
     0
102
RTVSPost2010Prop46
 90
       50
102
RTVSPost2010PropOp46
 70
     0
102
RTVSPost2010Prop47
 90
       50
102
RTVSPost2010PropOp47
 70
     0
102
RTVSPost2010Prop48
 90
       50
102
RTVSPost2010PropOp48
 70
     0
102
RTVSPost2010Prop49
280
     0
102
RTVSPost2010PropOp49
 70
     0
102
RTVSPost2010Prop50
 90
       50
102
RTVSPost2010PropOp50
 70
     0
102
RTVSPost2010Prop51ColorIndex
 90
      256
102
RTVSPost2010Prop51ColorRGB
 90
-16777216
102
RTVSPost2010PropOp51
 70
     0
102
RTVSPost2010Prop52
140
1.0
102
RTVSPost2010PropOp52
 70
     0
102
RTVSPost2010Prop53
 90
        2
102
RTVSPost2010PropOp53
 70
     0
102
RTVSPost2010Prop54
  1
strokes_ogs.tif
102
RTVSPost2010PropOp54
 70
     0
102
RTVSPost2010Prop55
280
     0
102
RTVSPost2010PropOp55
 70
     0
102
RTVSPost2010Prop56
140
1.0
102
RTVSPost2010PropOp56
 70
     0
102
RTVSPost2010Prop57
140
1.0
102
RTVSPost2010PropOp57
 70
     0
102
RTVSPropertyOp0
 70
     0
102
RTVSPropertyOp1
 70
     0
102
RTVSPropertyOp2
 70
     0
102
RTVSPropertyOp3
 70
     0
102
RTVSPropertyOp4
 70
     0
102
RTVSPropertyOp5
 70
     0
102
RTVSPropertyOp6
 70
     0
102
RTVSPropertyOp7
 70
     0
102
RTVSPropertyOp8
 70
     0
102
RTVSPropertyOp9
 70
     0
102
RTVSPropertyOp10
 70
     0
102
RTVSPropertyOp11
 70
     0
102
RTVSPropertyOp12
 70
     0
102
RTVSPropertyOp13
 70
     0
102
RTVSPropertyOp14
 70
     2
102
RTVSPropertyOp15
 70
     0
102
RTVSPropertyOp16
 70
     0
102
RTVSPropertyOp17
 70
     0
102
RTVSPropertyOp18
 70
     0
102
RTVSPropertyOp19
 70
     0
102
RTVSPropertyOp20
 70
     0
102
RTVSPropertyOp21
 70
     0
102
RTVSPropertyOp22
 70
     0
102
RTVSPropertyOp23
 70
     0
102
RTVSPropertyOp24
 70
     0
102
RTVSPropertyOp25
 70
     0
102
RTVSPropertyOp26
 70
     0
102
RTVSPropertyOp27
 70
     0
102
RTVSPropertyOp28
 70
     0
102
RTVSPropertyOp29
 70
     0
102
RTVSPropertyOp30
 70
     0
102
RTVSPropertyOp31
 70
     0
102
RTVSPropertyOp32
 70
     0
102
RTVSPropertyOp33
 70
     0
102
RTVSPropertyOp34
 70
     0
102
RTVSPropertyOp35
 70
     0
102
RTVSPropertyOp36
 70
     0
102
RTVSPropertyOp37
 70
     0
102
RTVSPropertyOp38
 70
     0
102
RTVSPropertyOp39
 70
     0
102
RTVSPropertyOp40
 70
     0
102
RTVSPropertyOp41
 70
     0
102
RTVSPropertyOp42
 70
     0
102
RTVSPropertyOp43
 70
     0
102
RTVSPropertyOp44
 70
     0
102
RTVSPropertyOp45
 70
     0
102
RTVSPropertyOp46
 70
     0
102
RTVSPropertyOp47
 70
     0
102
RTVSPropertyOp48
 70
     0
102
RTVSPropertyOp49
 70
     0
102
RTVSPropertyOp50
 70
     0
102
RTVSPropertyOp51
 70
     0
102
RTVSPropertyOp52
 70
     0
102
RTVSPropertyOp53
 70
     0
102
RTVSPropertyOp54
 70
     0
102
RTVSPropertyOp55
 70
     0
102
RTVSPropertyOp56
 70
     0
102
RTVSPropertyOp57
 70
     0
102
RTVSPropertyOp58
 70
     1
102
RTVSPropertyOp59
 70
     1
102
RTVSPropertyOp60
 70
     1
102
RTVSPropertyOp61
 70
     1
102
RTVSPropertyOp62
 70
     1
  0
XRECORD
  5
2087
102
{ACAD_REACTORS
330
2086
102
}
330
2086
100
AcDbXrecord
280
     1
102
RTVSPost2010Prop28
280
     0
102
RTVSPost2010PropOp28
 70
     1
102
RTVSPost2010Prop29
280
     1
102
RTVSPost2010PropOp29
 70
     1
102
RTVSPost2010Prop30
280
     1
102
RTVSPost2010PropOp30
 70
     1
102
RTVSPost2010Prop31
280
     0
102
RTVSPost2010PropOp31
 70
     1
102
RTVSPost2010Prop32
280
     0
102
RTVSPost2010PropOp32
 70
     1
102
RTVSPost2010Prop33
280
     0
102
RTVSPost2010PropOp33
 70
     1
102
RTVSPost2010Prop34
280
     0
102
RTVSPost2010PropOp34
 70
     1
102
RTVSPost2010Prop35
280
     0
102
RTVSPost2010PropOp35
 70
     1
102
RTVSPost2010Prop36
280
     0
102
RTVSPost2010PropOp36
 70
     1
102
RTVSPost2010Prop37
 90
       50
102
RTVSPost2010PropOp37
 70
     1
102
RTVSPost2010Prop38
140
0.0
102
RTVSPost2010PropOp38
 70
     1
102
RTVSPost2010Prop39
140
1.0
102
RTVSPost2010PropOp39
 70
     1
102
RTVSPost2010Prop40
 90
        0
102
RTVSPost2010PropOp40
 70
     1
102
RTVSPost2010Prop41ColorIndex
 90
       18
102
RTVSPost2010Prop41ColorRGB
 90
-16777216
102
RTVSPost2010PropOp41
 70
     1
102
RTVSPost2010Prop42
 90
       50
102
RTVSPost2010PropOp42
 70
     1
102
RTVSPost2010Prop43
 90
        3
102
RTVSPost2010PropOp43
 70
     1
102
RTVSPost2010Prop44ColorIndex
 90
        5
102
RTVSPost2010Prop44ColorRGB
 90
      255
102
RTVSPost2010PropOp44
 70
     1
102
RTVSPost2010Prop45
280
     0
102
RTVSPost2010PropOp45
 70
     1
102
RTVSPost2010Prop46
 90
       50
102
RTVSPost2010PropOp46
 70
     1
102
RTVSPost2010Prop47
 90
       50
102
RTVSPost2010PropOp47
 70
     1
102
RTVSPost2010Prop48
 90
       50
102
RTVSPost2010PropOp48
 70
     1
102
RTVSPost2010Prop49
280
     0
102
RTVSPost2010PropOp49
 70
     1
102
RTVSPost2010Prop50
 90
       50
102
RTVSPost2010PropOp50
 70
     1
102
RTVSPost2010Prop51ColorIndex
 90
      256
102
RTVSPost2010Prop51ColorRGB
 90
-16777216
102
RTVSPost2010PropOp51
 70
     0
102
RTVSPost2010Prop52
140
1.0
102
RTVSPost2010PropOp52
 70
     0
102
RTVSPost2010Prop53
 90
        2
102
RTVSPost2010PropOp53
 70
     1
102
RTVSPost2010Prop54
  1
strokes_ogs.tif
102
RTVSPost2010PropOp54
 70
     1
102
RTVSPost2010Prop55
280
     0
102
RTVSPost2010PropOp55
 70
     1
102
RTVSPost2010Prop56
140
1.0
102
RTVSPost2010PropOp56
 70
     1
102
RTVSPost2010Prop57
140
1.0
102
RTVSPost2010PropOp57
 70
     1
102
RTVSPropertyOp0
 70
     1
102
RTVSPropertyOp1
 70
     1
102
RTVSPropertyOp2
 70
     1
102
RTVSPropertyOp3
 70
     1
102
RTVSPropertyOp4
 70
     1
102
RTVSPropertyOp5
 70
     1
102
RTVSPropertyOp6
 70
     1
102
RTVSPropertyOp7
 70
     1
102
RTVSPropertyOp8
 70
     1
102
RTVSPropertyOp9
 70
     1
102
RTVSPropertyOp10
 70
     1
102
RTVSPropertyOp11
 70
     1
102
RTVSPropertyOp12
 70
     1
102
RTVSPropertyOp13
 70
     1
102
RTVSPropertyOp14
 70
     1
102
RTVSPropertyOp15
 70
     1
102
RTVSPropertyOp16
 70
     1
102
RTVSPropertyOp17
 70
     1
102
RTVSPropertyOp18
 70
     1
102
RTVSPropertyOp19
 70
     1
102
RTVSPropertyOp20
 70
     1
102
RTVSPropertyOp21
 70
     1
102
RTVSPropertyOp22
 70
     1
102
RTVSPropertyOp23
 70
     1
102
RTVSPropertyOp24
 70
     1
102
RTVSPropertyOp25
 70
     1
102
RTVSPropertyOp26
 70
     1
102
RTVSPropertyOp27
 70
     1
102
RTVSPropertyOp28
 70
     1
102
RTVSPropertyOp29
 70
     1
102
RTVSPropertyOp30
 70
     1
102
RTVSPropertyOp31
 70
     1
102
RTVSPropertyOp32
 70
     1
102
RTVSPropertyOp33
 70
     1
102
RTVSPropertyOp34
 70
     1
102
RTVSPropertyOp35
 70
     1
102
RTVSPropertyOp36
 70
     1
102
RTVSPropertyOp37
 70
     1
102
RTVSPropertyOp38
 70
     1
102
RTVSPropertyOp39
 70
     1
102
RTVSPropertyOp40
 70
     1
102
RTVSPropertyOp41
 70
     1
102
RTVSPropertyOp42
 70
     1
102
RTVSPropertyOp43
 70
     1
102
RTVSPropertyOp44
 70
     1
102
RTVSPropertyOp45
 70
     1
102
RTVSPropertyOp46
 70
     1
102
RTVSPropertyOp47
 70
     1
102
RTVSPropertyOp48
 70
     1
102
RTVSPropertyOp49
 70
     1
102
RTVSPropertyOp50
 70
     1
102
RTVSPropertyOp51
 70
     0
102
RTVSPropertyOp52
 70
     0
102
RTVSPropertyOp53
 70
     1
102
RTVSPropertyOp54
 70
     1
102
RTVSPropertyOp55
 70
     1
102
RTVSPropertyOp56
 70
     1
102
RTVSPropertyOp57
 70
     1
102
RTVSPropertyOp58
 70
     1
102
RTVSPropertyOp59
 70
     1
102
RTVSPropertyOp60
 70
     1
102
RTVSPropertyOp61
 70
     1
102
RTVSPropertyOp62
 70
     1
  0
XRECORD
  5
206B
102
{ACAD_REACTORS
330
206A
102
}
330
206A
100
AcDbXrecord
280
     1
102
RTVSPost2010Prop28
280
     0
102
RTVSPost2010PropOp28
 70
     1
102
RTVSPost2010Prop29
280
     1
102
RTVSPost2010PropOp29
 70
     1
102
RTVSPost2010Prop30
280
     1
102
RTVSPost2010PropOp30
 70
     1
102
RTVSPost2010Prop31
280
     0
102
RTVSPost2010PropOp31
 70
     1
102
RTVSPost2010Prop32
280
     0
102
RTVSPost2010PropOp32
 70
     1
102
RTVSPost2010Prop33
280
     0
102
RTVSPost2010PropOp33
 70
     1
102
RTVSPost2010Prop34
280
     0
102
RTVSPost2010PropOp34
 70
     1
102
RTVSPost2010Prop35
280
     0
102
RTVSPost2010PropOp35
 70
     1
102
RTVSPost2010Prop36
280
     0
102
RTVSPost2010PropOp36
 70
     1
102
RTVSPost2010Prop37
 90
       50
102
RTVSPost2010PropOp37
 70
     1
102
RTVSPost2010Prop38
140
0.0
102
RTVSPost2010PropOp38
 70
     1
102
RTVSPost2010Prop39
140
1.0
102
RTVSPost2010PropOp39
 70
     1
102
RTVSPost2010Prop40
 90
        0
102
RTVSPost2010PropOp40
 70
     1
102
RTVSPost2010Prop41ColorIndex
 90
       18
102
RTVSPost2010Prop41ColorRGB
 90
-16777216
102
RTVSPost2010PropOp41
 70
     1
102
RTVSPost2010Prop42
 90
       50
102
RTVSPost2010PropOp42
 70
     1
102
RTVSPost2010Prop43
 90
        3
102
RTVSPost2010PropOp43
 70
     1
102
RTVSPost2010Prop44ColorIndex
 90
        5
102
RTVSPost2010Prop44ColorRGB
 90
      255
102
RTVSPost2010PropOp44
 70
     1
102
RTVSPost2010Prop45
280
     0
102
RTVSPost2010PropOp45
 70
     1
102
RTVSPost2010Prop46
 90
       50
102
RTVSPost2010PropOp46
 70
     1
102
RTVSPost2010Prop47
 90
       50
102
RTVSPost2010PropOp47
 70
     1
102
RTVSPost2010Prop48
 90
       50
102
RTVSPost2010PropOp48
 70
     1
102
RTVSPost2010Prop49
280
     0
102
RTVSPost2010PropOp49
 70
     1
102
RTVSPost2010Prop50
 90
       50
102
RTVSPost2010PropOp50
 70
     1
102
RTVSPost2010Prop51ColorIndex
 90
      256
102
RTVSPost2010Prop51ColorRGB
 90
-16777216
102
RTVSPost2010PropOp51
 70
     0
102
RTVSPost2010Prop52
140
1.0
102
RTVSPost2010PropOp52
 70
     0
102
RTVSPost2010Prop53
 90
        2
102
RTVSPost2010PropOp53
 70
     1
102
RTVSPost2010Prop54
  1
strokes_ogs.tif
102
RTVSPost2010PropOp54
 70
     1
102
RTVSPost2010Prop55
280
     0
102
RTVSPost2010PropOp55
 70
     1
102
RTVSPost2010Prop56
140
1.0
102
RTVSPost2010PropOp56
 70
     1
102
RTVSPost2010Prop57
140
1.0
102
RTVSPost2010PropOp57
 70
     1
102
RTVSPropertyOp0
 70
     1
102
RTVSPropertyOp1
 70
     1
102
RTVSPropertyOp2
 70
     1
102
RTVSPropertyOp3
 70
     1
102
RTVSPropertyOp4
 70
     1
102
RTVSPropertyOp5
 70
     1
102
RTVSPropertyOp6
 70
     1
102
RTVSPropertyOp7
 70
     1
102
RTVSPropertyOp8
 70
     1
102
RTVSPropertyOp9
 70
     1
102
RTVSPropertyOp10
 70
     1
102
RTVSPropertyOp11
 70
     1
102
RTVSPropertyOp12
 70
     1
102
RTVSPropertyOp13
 70
     1
102
RTVSPropertyOp14
 70
     1
102
RTVSPropertyOp15
 70
     1
102
RTVSPropertyOp16
 70
     1
102
RTVSPropertyOp17
 70
     1
102
RTVSPropertyOp18
 70
     1
102
RTVSPropertyOp19
 70
     1
102
RTVSPropertyOp20
 70
     1
102
RTVSPropertyOp21
 70
     1
102
RTVSPropertyOp22
 70
     1
102
RTVSPropertyOp23
 70
     1
102
RTVSPropertyOp24
 70
     1
102
RTVSPropertyOp25
 70
     1
102
RTVSPropertyOp26
 70
     1
102
RTVSPropertyOp27
 70
     1
102
RTVSPropertyOp28
 70
     1
102
RTVSPropertyOp29
 70
     1
102
RTVSPropertyOp30
 70
     1
102
RTVSPropertyOp31
 70
     1
102
RTVSPropertyOp32
 70
     1
102
RTVSPropertyOp33
 70
     1
102
RTVSPropertyOp34
 70
     1
102
RTVSPropertyOp35
 70
     1
102
RTVSPropertyOp36
 70
     1
102
RTVSPropertyOp37
 70
     1
102
RTVSPropertyOp38
 70
     1
102
RTVSPropertyOp39
 70
     1
102
RTVSPropertyOp40
 70
     1
102
RTVSPropertyOp41
 70
     1
102
RTVSPropertyOp42
 70
     1
102
RTVSPropertyOp43
 70
     1
102
RTVSPropertyOp44
 70
     1
102
RTVSPropertyOp45
 70
     1
102
RTVSPropertyOp46
 70
     1
102
RTVSPropertyOp47
 70
     1
102
RTVSPropertyOp48
 70
     1
102
RTVSPropertyOp49
 70
     1
102
RTVSPropertyOp50
 70
     1
102
RTVSPropertyOp51
 70
     0
102
RTVSPropertyOp52
 70
     0
102
RTVSPropertyOp53
 70
     1
102
RTVSPropertyOp54
 70
     1
102
RTVSPropertyOp55
 70
     1
102
RTVSPropertyOp56
 70
     1
102
RTVSPropertyOp57
 70
     1
102
RTVSPropertyOp58
 70
     1
102
RTVSPropertyOp59
 70
     1
102
RTVSPropertyOp60
 70
     1
102
RTVSPropertyOp61
 70
     1
102
RTVSPropertyOp62
 70
     1
  0
XRECORD
  5
206D
102
{ACAD_REACTORS
330
206C
102
}
330
206C
100
AcDbXrecord
280
     1
102
RTVSPost2010Prop28
280
     0
102
RTVSPost2010PropOp28
 70
     1
102
RTVSPost2010Prop29
280
     1
102
RTVSPost2010PropOp29
 70
     1
102
RTVSPost2010Prop30
280
     1
102
RTVSPost2010PropOp30
 70
     1
102
RTVSPost2010Prop31
280
     0
102
RTVSPost2010PropOp31
 70
     1
102
RTVSPost2010Prop32
280
     0
102
RTVSPost2010PropOp32
 70
     1
102
RTVSPost2010Prop33
280
     0
102
RTVSPost2010PropOp33
 70
     1
102
RTVSPost2010Prop34
280
     0
102
RTVSPost2010PropOp34
 70
     1
102
RTVSPost2010Prop35
280
     0
102
RTVSPost2010PropOp35
 70
     1
102
RTVSPost2010Prop36
280
     0
102
RTVSPost2010PropOp36
 70
     1
102
RTVSPost2010Prop37
 90
       50
102
RTVSPost2010PropOp37
 70
     1
102
RTVSPost2010Prop38
140
0.0
102
RTVSPost2010PropOp38
 70
     1
102
RTVSPost2010Prop39
140
1.0
102
RTVSPost2010PropOp39
 70
     1
102
RTVSPost2010Prop40
 90
        0
102
RTVSPost2010PropOp40
 70
     1
102
RTVSPost2010Prop41ColorIndex
 90
       18
102
RTVSPost2010Prop41ColorRGB
 90
-16777216
102
RTVSPost2010PropOp41
 70
     1
102
RTVSPost2010Prop42
 90
       50
102
RTVSPost2010PropOp42
 70
     1
102
RTVSPost2010Prop43
 90
        3
102
RTVSPost2010PropOp43
 70
     1
102
RTVSPost2010Prop44ColorIndex
 90
        5
102
RTVSPost2010Prop44ColorRGB
 90
      255
102
RTVSPost2010PropOp44
 70
     1
102
RTVSPost2010Prop45
280
     0
102
RTVSPost2010PropOp45
 70
     1
102
RTVSPost2010Prop46
 90
       50
102
RTVSPost2010PropOp46
 70
     1
102
RTVSPost2010Prop47
 90
       50
102
RTVSPost2010PropOp47
 70
     1
102
RTVSPost2010Prop48
 90
       50
102
RTVSPost2010PropOp48
 70
     1
102
RTVSPost2010Prop49
280
     0
102
RTVSPost2010PropOp49
 70
     1
102
RTVSPost2010Prop50
 90
       50
102
RTVSPost2010PropOp50
 70
     1
102
RTVSPost2010Prop51ColorIndex
 90
      256
102
RTVSPost2010Prop51ColorRGB
 90
-16777216
102
RTVSPost2010PropOp51
 70
     0
102
RTVSPost2010Prop52
140
1.0
102
RTVSPost2010PropOp52
 70
     0
102
RTVSPost2010Prop53
 90
        2
102
RTVSPost2010PropOp53
 70
     1
102
RTVSPost2010Prop54
  1
strokes_ogs.tif
102
RTVSPost2010PropOp54
 70
     1
102
RTVSPost2010Prop55
280
     0
102
RTVSPost2010PropOp55
 70
     1
102
RTVSPost2010Prop56
140
1.0
102
RTVSPost2010PropOp56
 70
     1
102
RTVSPost2010Prop57
140
1.0
102
RTVSPost2010PropOp57
 70
     1
102
RTVSPropertyOp0
 70
     1
102
RTVSPropertyOp1
 70
     1
102
RTVSPropertyOp2
 70
     1
102
RTVSPropertyOp3
 70
     1
102
RTVSPropertyOp4
 70
     1
102
RTVSPropertyOp5
 70
     1
102
RTVSPropertyOp6
 70
     1
102
RTVSPropertyOp7
 70
     1
102
RTVSPropertyOp8
 70
     1
102
RTVSPropertyOp9
 70
     1
102
RTVSPropertyOp10
 70
     1
102
RTVSPropertyOp11
 70
     1
102
RTVSPropertyOp12
 70
     1
102
RTVSPropertyOp13
 70
     1
102
RTVSPropertyOp14
 70
     1
102
RTVSPropertyOp15
 70
     1
102
RTVSPropertyOp16
 70
     1
102
RTVSPropertyOp17
 70
     1
102
RTVSPropertyOp18
 70
     1
102
RTVSPropertyOp19
 70
     1
102
RTVSPropertyOp20
 70
     1
102
RTVSPropertyOp21
 70
     1
102
RTVSPropertyOp22
 70
     1
102
RTVSPropertyOp23
 70
     1
102
RTVSPropertyOp24
 70
     1
102
RTVSPropertyOp25
 70
     1
102
RTVSPropertyOp26
 70
     1
102
RTVSPropertyOp27
 70
     1
102
RTVSPropertyOp28
 70
     1
102
RTVSPropertyOp29
 70
     1
102
RTVSPropertyOp30
 70
     1
102
RTVSPropertyOp31
 70
     1
102
RTVSPropertyOp32
 70
     1
102
RTVSPropertyOp33
 70
     1
102
RTVSPropertyOp34
 70
     1
102
RTVSPropertyOp35
 70
     1
102
RTVSPropertyOp36
 70
     1
102
RTVSPropertyOp37
 70
     1
102
RTVSPropertyOp38
 70
     1
102
RTVSPropertyOp39
 70
     1
102
RTVSPropertyOp40
 70
     1
102
RTVSPropertyOp41
 70
     1
102
RTVSPropertyOp42
 70
     1
102
RTVSPropertyOp43
 70
     1
102
RTVSPropertyOp44
 70
     1
102
RTVSPropertyOp45
 70
     1
102
RTVSPropertyOp46
 70
     1
102
RTVSPropertyOp47
 70
     1
102
RTVSPropertyOp48
 70
     1
102
RTVSPropertyOp49
 70
     1
102
RTVSPropertyOp50
 70
     1
102
RTVSPropertyOp51
 70
     0
102
RTVSPropertyOp52
 70
     0
102
RTVSPropertyOp53
 70
     1
102
RTVSPropertyOp54
 70
     1
102
RTVSPropertyOp55
 70
     1
102
RTVSPropertyOp56
 70
     1
102
RTVSPropertyOp57
 70
     1
102
RTVSPropertyOp58
 70
     1
102
RTVSPropertyOp59
 70
     1
102
RTVSPropertyOp60
 70
     1
102
RTVSPropertyOp61
 70
     1
102
RTVSPropertyOp62
 70
     1
  0
XRECORD
  5
206F
102
{ACAD_REACTORS
330
206E
102
}
330
206E
100
AcDbXrecord
280
     1
102
RTVSPost2010Prop28
280
     0
102
RTVSPost2010PropOp28
 70
     1
102
RTVSPost2010Prop29
280
     1
102
RTVSPost2010PropOp29
 70
     1
102
RTVSPost2010Prop30
280
     1
102
RTVSPost2010PropOp30
 70
     1
102
RTVSPost2010Prop31
280
     0
102
RTVSPost2010PropOp31
 70
     1
102
RTVSPost2010Prop32
280
     0
102
RTVSPost2010PropOp32
 70
     1
102
RTVSPost2010Prop33
280
     0
102
RTVSPost2010PropOp33
 70
     1
102
RTVSPost2010Prop34
280
     0
102
RTVSPost2010PropOp34
 70
     1
102
RTVSPost2010Prop35
280
     0
102
RTVSPost2010PropOp35
 70
     1
102
RTVSPost2010Prop36
280
     0
102
RTVSPost2010PropOp36
 70
     1
102
RTVSPost2010Prop37
 90
       50
102
RTVSPost2010PropOp37
 70
     1
102
RTVSPost2010Prop38
140
0.0
102
RTVSPost2010PropOp38
 70
     1
102
RTVSPost2010Prop39
140
1.0
102
RTVSPost2010PropOp39
 70
     1
102
RTVSPost2010Prop40
 90
        0
102
RTVSPost2010PropOp40
 70
     1
102
RTVSPost2010Prop41ColorIndex
 90
       18
102
RTVSPost2010Prop41ColorRGB
 90
-16777216
102
RTVSPost2010PropOp41
 70
     1
102
RTVSPost2010Prop42
 90
       50
102
RTVSPost2010PropOp42
 70
     1
102
RTVSPost2010Prop43
 90
        3
102
RTVSPost2010PropOp43
 70
     1
102
RTVSPost2010Prop44ColorIndex
 90
        5
102
RTVSPost2010Prop44ColorRGB
 90
      255
102
RTVSPost2010PropOp44
 70
     1
102
RTVSPost2010Prop45
280
     0
102
RTVSPost2010PropOp45
 70
     1
102
RTVSPost2010Prop46
 90
       50
102
RTVSPost2010PropOp46
 70
     1
102
RTVSPost2010Prop47
 90
       50
102
RTVSPost2010PropOp47
 70
     1
102
RTVSPost2010Prop48
 90
       50
102
RTVSPost2010PropOp48
 70
     1
102
RTVSPost2010Prop49
280
     0
102
RTVSPost2010PropOp49
 70
     1
102
RTVSPost2010Prop50
 90
       50
102
RTVSPost2010PropOp50
 70
     1
102
RTVSPost2010Prop51ColorIndex
 90
      256
102
RTVSPost2010Prop51ColorRGB
 90
-16777216
102
RTVSPost2010PropOp51
 70
     0
102
RTVSPost2010Prop52
140
1.0
102
RTVSPost2010PropOp52
 70
     0
102
RTVSPost2010Prop53
 90
        2
102
RTVSPost2010PropOp53
 70
     1
102
RTVSPost2010Prop54
  1
strokes_ogs.tif
102
RTVSPost2010PropOp54
 70
     1
102
RTVSPost2010Prop55
280
     0
102
RTVSPost2010PropOp55
 70
     1
102
RTVSPost2010Prop56
140
1.0
102
RTVSPost2010PropOp56
 70
     1
102
RTVSPost2010Prop57
140
1.0
102
RTVSPost2010PropOp57
 70
     1
102
RTVSPropertyOp0
 70
     1
102
RTVSPropertyOp1
 70
     1
102
RTVSPropertyOp2
 70
     1
102
RTVSPropertyOp3
 70
     1
102
RTVSPropertyOp4
 70
     1
102
RTVSPropertyOp5
 70
     1
102
RTVSPropertyOp6
 70
     1
102
RTVSPropertyOp7
 70
     1
102
RTVSPropertyOp8
 70
     1
102
RTVSPropertyOp9
 70
     1
102
RTVSPropertyOp10
 70
     1
102
RTVSPropertyOp11
 70
     1
102
RTVSPropertyOp12
 70
     1
102
RTVSPropertyOp13
 70
     1
102
RTVSPropertyOp14
 70
     1
102
RTVSPropertyOp15
 70
     1
102
RTVSPropertyOp16
 70
     1
102
RTVSPropertyOp17
 70
     1
102
RTVSPropertyOp18
 70
     1
102
RTVSPropertyOp19
 70
     1
102
RTVSPropertyOp20
 70
     1
102
RTVSPropertyOp21
 70
     1
102
RTVSPropertyOp22
 70
     1
102
RTVSPropertyOp23
 70
     1
102
RTVSPropertyOp24
 70
     1
102
RTVSPropertyOp25
 70
     1
102
RTVSPropertyOp26
 70
     1
102
RTVSPropertyOp27
 70
     1
102
RTVSPropertyOp28
 70
     1
102
RTVSPropertyOp29
 70
     1
102
RTVSPropertyOp30
 70
     1
102
RTVSPropertyOp31
 70
     1
102
RTVSPropertyOp32
 70
     1
102
RTVSPropertyOp33
 70
     1
102
RTVSPropertyOp34
 70
     1
102
RTVSPropertyOp35
 70
     1
102
RTVSPropertyOp36
 70
     1
102
RTVSPropertyOp37
 70
     1
102
RTVSPropertyOp38
 70
     1
102
RTVSPropertyOp39
 70
     1
102
RTVSPropertyOp40
 70
     1
102
RTVSPropertyOp41
 70
     1
102
RTVSPropertyOp42
 70
     1
102
RTVSPropertyOp43
 70
     1
102
RTVSPropertyOp44
 70
     1
102
RTVSPropertyOp45
 70
     1
102
RTVSPropertyOp46
 70
     1
102
RTVSPropertyOp47
 70
     1
102
RTVSPropertyOp48
 70
     1
102
RTVSPropertyOp49
 70
     1
102
RTVSPropertyOp50
 70
     1
102
RTVSPropertyOp51
 70
     0
102
RTVSPropertyOp52
 70
     0
102
RTVSPropertyOp53
 70
     1
102
RTVSPropertyOp54
 70
     1
102
RTVSPropertyOp55
 70
     1
102
RTVSPropertyOp56
 70
     1
102
RTVSPropertyOp57
 70
     1
102
RTVSPropertyOp58
 70
     1
102
RTVSPropertyOp59
 70
     1
102
RTVSPropertyOp60
 70
     1
102
RTVSPropertyOp61
 70
     1
102
RTVSPropertyOp62
 70
     1
  0
XRECORD
  5
2071
102
{ACAD_REACTORS
330
2070
102
}
330
2070
100
AcDbXrecord
280
     1
102
RTVSPost2010Prop28
280
     0
102
RTVSPost2010PropOp28
 70
     1
102
RTVSPost2010Prop29
280
     1
102
RTVSPost2010PropOp29
 70
     1
102
RTVSPost2010Prop30
280
     1
102
RTVSPost2010PropOp30
 70
     1
102
RTVSPost2010Prop31
280
     0
102
RTVSPost2010PropOp31
 70
     1
102
RTVSPost2010Prop32
280
     0
102
RTVSPost2010PropOp32
 70
     1
102
RTVSPost2010Prop33
280
     0
102
RTVSPost2010PropOp33
 70
     1
102
RTVSPost2010Prop34
280
     0
102
RTVSPost2010PropOp34
 70
     1
102
RTVSPost2010Prop35
280
     0
102
RTVSPost2010PropOp35
 70
     1
102
RTVSPost2010Prop36
280
     0
102
RTVSPost2010PropOp36
 70
     1
102
RTVSPost2010Prop37
 90
       50
102
RTVSPost2010PropOp37
 70
     1
102
RTVSPost2010Prop38
140
0.0
102
RTVSPost2010PropOp38
 70
     1
102
RTVSPost2010Prop39
140
1.0
102
RTVSPost2010PropOp39
 70
     1
102
RTVSPost2010Prop40
 90
        0
102
RTVSPost2010PropOp40
 70
     1
102
RTVSPost2010Prop41ColorIndex
 90
       18
102
RTVSPost2010Prop41ColorRGB
 90
-16777216
102
RTVSPost2010PropOp41
 70
     1
102
RTVSPost2010Prop42
 90
       50
102
RTVSPost2010PropOp42
 70
     1
102
RTVSPost2010Prop43
 90
        3
102
RTVSPost2010PropOp43
 70
     1
102
RTVSPost2010Prop44ColorIndex
 90
        5
102
RTVSPost2010Prop44ColorRGB
 90
      255
102
RTVSPost2010PropOp44
 70
     1
102
RTVSPost2010Prop45
280
     0
102
RTVSPost2010PropOp45
 70
     1
102
RTVSPost2010Prop46
 90
       50
102
RTVSPost2010PropOp46
 70
     1
102
RTVSPost2010Prop47
 90
       50
102
RTVSPost2010PropOp47
 70
     1
102
RTVSPost2010Prop48
 90
       50
102
RTVSPost2010PropOp48
 70
     1
102
RTVSPost2010Prop49
280
     0
102
RTVSPost2010PropOp49
 70
     1
102
RTVSPost2010Prop50
 90
       50
102
RTVSPost2010PropOp50
 70
     1
102
RTVSPost2010Prop51ColorIndex
 90
      256
102
RTVSPost2010Prop51ColorRGB
 90
-16777216
102
RTVSPost2010PropOp51
 70
     0
102
RTVSPost2010Prop52
140
1.0
102
RTVSPost2010PropOp52
 70
     0
102
RTVSPost2010Prop53
 90
        2
102
RTVSPost2010PropOp53
 70
     1
102
RTVSPost2010Prop54
  1
strokes_ogs.tif
102
RTVSPost2010PropOp54
 70
     1
102
RTVSPost2010Prop55
280
     0
102
RTVSPost2010PropOp55
 70
     1
102
RTVSPost2010Prop56
140
1.0
102
RTVSPost2010PropOp56
 70
     1
102
RTVSPost2010Prop57
140
1.0
102
RTVSPost2010PropOp57
 70
     1
102
RTVSPropertyOp0
 70
     1
102
RTVSPropertyOp1
 70
     1
102
RTVSPropertyOp2
 70
     1
102
RTVSPropertyOp3
 70
     1
102
RTVSPropertyOp4
 70
     1
102
RTVSPropertyOp5
 70
     1
102
RTVSPropertyOp6
 70
     1
102
RTVSPropertyOp7
 70
     1
102
RTVSPropertyOp8
 70
     1
102
RTVSPropertyOp9
 70
     1
102
RTVSPropertyOp10
 70
     1
102
RTVSPropertyOp11
 70
     1
102
RTVSPropertyOp12
 70
     1
102
RTVSPropertyOp13
 70
     1
102
RTVSPropertyOp14
 70
     1
102
RTVSPropertyOp15
 70
     1
102
RTVSPropertyOp16
 70
     1
102
RTVSPropertyOp17
 70
     1
102
RTVSPropertyOp18
 70
     1
102
RTVSPropertyOp19
 70
     1
102
RTVSPropertyOp20
 70
     1
102
RTVSPropertyOp21
 70
     1
102
RTVSPropertyOp22
 70
     1
102
RTVSPropertyOp23
 70
     1
102
RTVSPropertyOp24
 70
     1
102
RTVSPropertyOp25
 70
     1
102
RTVSPropertyOp26
 70
     1
102
RTVSPropertyOp27
 70
     1
102
RTVSPropertyOp28
 70
     1
102
RTVSPropertyOp29
 70
     1
102
RTVSPropertyOp30
 70
     1
102
RTVSPropertyOp31
 70
     1
102
RTVSPropertyOp32
 70
     1
102
RTVSPropertyOp33
 70
     1
102
RTVSPropertyOp34
 70
     1
102
RTVSPropertyOp35
 70
     1
102
RTVSPropertyOp36
 70
     1
102
RTVSPropertyOp37
 70
     1
102
RTVSPropertyOp38
 70
     1
102
RTVSPropertyOp39
 70
     1
102
RTVSPropertyOp40
 70
     1
102
RTVSPropertyOp41
 70
     1
102
RTVSPropertyOp42
 70
     1
102
RTVSPropertyOp43
 70
     1
102
RTVSPropertyOp44
 70
     1
102
RTVSPropertyOp45
 70
     1
102
RTVSPropertyOp46
 70
     1
102
RTVSPropertyOp47
 70
     1
102
RTVSPropertyOp48
 70
     1
102
RTVSPropertyOp49
 70
     1
102
RTVSPropertyOp50
 70
     1
102
RTVSPropertyOp51
 70
     0
102
RTVSPropertyOp52
 70
     0
102
RTVSPropertyOp53
 70
     1
102
RTVSPropertyOp54
 70
     1
102
RTVSPropertyOp55
 70
     1
102
RTVSPropertyOp56
 70
     1
102
RTVSPropertyOp57
 70
     1
102
RTVSPropertyOp58
 70
     1
102
RTVSPropertyOp59
 70
     1
102
RTVSPropertyOp60
 70
     1
102
RTVSPropertyOp61
 70
     1
102
RTVSPropertyOp62
 70
     1
  0
XRECORD
  5
2079
102
{ACAD_REACTORS
330
2078
102
}
330
2078
100
AcDbXrecord
280
     1
102
RTVSPost2010Prop28
280
     0
102
RTVSPost2010PropOp28
 70
     1
102
RTVSPost2010Prop29
280
     1
102
RTVSPost2010PropOp29
 70
     1
102
RTVSPost2010Prop30
280
     1
102
RTVSPost2010PropOp30
 70
     1
102
RTVSPost2010Prop31
280
     0
102
RTVSPost2010PropOp31
 70
     1
102
RTVSPost2010Prop32
280
     0
102
RTVSPost2010PropOp32
 70
     1
102
RTVSPost2010Prop33
280
     0
102
RTVSPost2010PropOp33
 70
     1
102
RTVSPost2010Prop34
280
     0
102
RTVSPost2010PropOp34
 70
     1
102
RTVSPost2010Prop35
280
     0
102
RTVSPost2010PropOp35
 70
     1
102
RTVSPost2010Prop36
280
     0
102
RTVSPost2010PropOp36
 70
     1
102
RTVSPost2010Prop37
 90
       50
102
RTVSPost2010PropOp37
 70
     1
102
RTVSPost2010Prop38
140
0.0
102
RTVSPost2010PropOp38
 70
     1
102
RTVSPost2010Prop39
140
1.0
102
RTVSPost2010PropOp39
 70
     1
102
RTVSPost2010Prop40
 90
        0
102
RTVSPost2010PropOp40
 70
     1
102
RTVSPost2010Prop41ColorIndex
 90
       18
102
RTVSPost2010Prop41ColorRGB
 90
-16777216
102
RTVSPost2010PropOp41
 70
     1
102
RTVSPost2010Prop42
 90
       50
102
RTVSPost2010PropOp42
 70
     1
102
RTVSPost2010Prop43
 90
        3
102
RTVSPost2010PropOp43
 70
     1
102
RTVSPost2010Prop44ColorIndex
 90
        5
102
RTVSPost2010Prop44ColorRGB
 90
      255
102
RTVSPost2010PropOp44
 70
     1
102
RTVSPost2010Prop45
280
     0
102
RTVSPost2010PropOp45
 70
     1
102
RTVSPost2010Prop46
 90
       50
102
RTVSPost2010PropOp46
 70
     1
102
RTVSPost2010Prop47
 90
       50
102
RTVSPost2010PropOp47
 70
     1
102
RTVSPost2010Prop48
 90
       50
102
RTVSPost2010PropOp48
 70
     1
102
RTVSPost2010Prop49
280
     0
102
RTVSPost2010PropOp49
 70
     1
102
RTVSPost2010Prop50
 90
       50
102
RTVSPost2010PropOp50
 70
     1
102
RTVSPost2010Prop51ColorIndex
 90
      256
102
RTVSPost2010Prop51ColorRGB
 90
-16777216
102
RTVSPost2010PropOp51
 70
     0
102
RTVSPost2010Prop52
140
1.0
102
RTVSPost2010PropOp52
 70
     0
102
RTVSPost2010Prop53
 90
        2
102
RTVSPost2010PropOp53
 70
     1
102
RTVSPost2010Prop54
  1
strokes_ogs.tif
102
RTVSPost2010PropOp54
 70
     1
102
RTVSPost2010Prop55
280
     0
102
RTVSPost2010PropOp55
 70
     1
102
RTVSPost2010Prop56
140
1.0
102
RTVSPost2010PropOp56
 70
     1
102
RTVSPost2010Prop57
140
1.0
102
RTVSPost2010PropOp57
 70
     1
102
RTVSPropertyOp0
 70
     1
102
RTVSPropertyOp1
 70
     1
102
RTVSPropertyOp2
 70
     1
102
RTVSPropertyOp3
 70
     1
102
RTVSPropertyOp4
 70
     1
102
RTVSPropertyOp5
 70
     1
102
RTVSPropertyOp6
 70
     1
102
RTVSPropertyOp7
 70
     1
102
RTVSPropertyOp8
 70
     1
102
RTVSPropertyOp9
 70
     1
102
RTVSPropertyOp10
 70
     1
102
RTVSPropertyOp11
 70
     1
102
RTVSPropertyOp12
 70
     1
102
RTVSPropertyOp13
 70
     1
102
RTVSPropertyOp14
 70
     1
102
RTVSPropertyOp15
 70
     1
102
RTVSPropertyOp16
 70
     1
102
RTVSPropertyOp17
 70
     1
102
RTVSPropertyOp18
 70
     1
102
RTVSPropertyOp19
 70
     1
102
RTVSPropertyOp20
 70
     1
102
RTVSPropertyOp21
 70
     1
102
RTVSPropertyOp22
 70
     1
102
RTVSPropertyOp23
 70
     1
102
RTVSPropertyOp24
 70
     1
102
RTVSPropertyOp25
 70
     1
102
RTVSPropertyOp26
 70
     1
102
RTVSPropertyOp27
 70
     1
102
RTVSPropertyOp28
 70
     1
102
RTVSPropertyOp29
 70
     1
102
RTVSPropertyOp30
 70
     1
102
RTVSPropertyOp31
 70
     1
102
RTVSPropertyOp32
 70
     1
102
RTVSPropertyOp33
 70
     1
102
RTVSPropertyOp34
 70
     1
102
RTVSPropertyOp35
 70
     1
102
RTVSPropertyOp36
 70
     1
102
RTVSPropertyOp37
 70
     1
102
RTVSPropertyOp38
 70
     1
102
RTVSPropertyOp39
 70
     1
102
RTVSPropertyOp40
 70
     1
102
RTVSPropertyOp41
 70
     1
102
RTVSPropertyOp42
 70
     1
102
RTVSPropertyOp43
 70
     1
102
RTVSPropertyOp44
 70
     1
102
RTVSPropertyOp45
 70
     1
102
RTVSPropertyOp46
 70
     1
102
RTVSPropertyOp47
 70
     1
102
RTVSPropertyOp48
 70
     1
102
RTVSPropertyOp49
 70
     1
102
RTVSPropertyOp50
 70
     1
102
RTVSPropertyOp51
 70
     0
102
RTVSPropertyOp52
 70
     0
102
RTVSPropertyOp53
 70
     1
102
RTVSPropertyOp54
 70
     1
102
RTVSPropertyOp55
 70
     1
102
RTVSPropertyOp56
 70
     1
102
RTVSPropertyOp57
 70
     1
102
RTVSPropertyOp58
 70
     1
102
RTVSPropertyOp59
 70
     1
102
RTVSPropertyOp60
 70
     1
102
RTVSPropertyOp61
 70
     1
102
RTVSPropertyOp62
 70
     1
  0
XRECORD
  5
2095
102
{ACAD_REACTORS
330
2094
102
}
330
2094
100
AcDbXrecord
280
     1
102
RTVSPost2010Prop28
280
     0
102
RTVSPost2010PropOp28
 70
     0
102
RTVSPost2010Prop29
280
     1
102
RTVSPost2010PropOp29
 70
     0
102
RTVSPost2010Prop30
280
     1
102
RTVSPost2010PropOp30
 70
     0
102
RTVSPost2010Prop31
280
     0
102
RTVSPost2010PropOp31
 70
     0
102
RTVSPost2010Prop32
280
     0
102
RTVSPost2010PropOp32
 70
     0
102
RTVSPost2010Prop33
280
     0
102
RTVSPost2010PropOp33
 70
     0
102
RTVSPost2010Prop34
280
     0
102
RTVSPost2010PropOp34
 70
     0
102
RTVSPost2010Prop35
280
     0
102
RTVSPost2010PropOp35
 70
     0
102
RTVSPost2010Prop36
280
     0
102
RTVSPost2010PropOp36
 70
     0
102
RTVSPost2010Prop37
 90
       50
102
RTVSPost2010PropOp37
 70
     0
102
RTVSPost2010Prop38
140
0.0
102
RTVSPost2010PropOp38
 70
     0
102
RTVSPost2010Prop39
140
1.0
102
RTVSPost2010PropOp39
 70
     0
102
RTVSPost2010Prop40
 90
        0
102
RTVSPost2010PropOp40
 70
     0
102
RTVSPost2010Prop41ColorIndex
 90
       18
102
RTVSPost2010Prop41ColorRGB
 90
-16777216
102
RTVSPost2010PropOp41
 70
     0
102
RTVSPost2010Prop42
 90
       50
102
RTVSPost2010PropOp42
 70
     0
102
RTVSPost2010Prop43
 90
        3
102
RTVSPost2010PropOp43
 70
     0
102
RTVSPost2010Prop44ColorIndex
 90
        5
102
RTVSPost2010Prop44ColorRGB
 90
      255
102
RTVSPost2010PropOp44
 70
     0
102
RTVSPost2010Prop45
280
     0
102
RTVSPost2010PropOp45
 70
     0
102
RTVSPost2010Prop46
 90
       50
102
RTVSPost2010PropOp46
 70
     0
102
RTVSPost2010Prop47
 90
       50
102
RTVSPost2010PropOp47
 70
     0
102
RTVSPost2010Prop48
 90
       50
102
RTVSPost2010PropOp48
 70
     0
102
RTVSPost2010Prop49
280
     0
102
RTVSPost2010PropOp49
 70
     0
102
RTVSPost2010Prop50
 90
       50
102
RTVSPost2010PropOp50
 70
     0
102
RTVSPost2010Prop51ColorIndex
 90
      256
102
RTVSPost2010Prop51ColorRGB
 90
-16777216
102
RTVSPost2010PropOp51
 70
     0
102
RTVSPost2010Prop52
140
1.0
102
RTVSPost2010PropOp52
 70
     0
102
RTVSPost2010Prop53
 90
        2
102
RTVSPost2010PropOp53
 70
     0
102
RTVSPost2010Prop54
  1
strokes_ogs.tif
102
RTVSPost2010PropOp54
 70
     0
102
RTVSPost2010Prop55
280
     0
102
RTVSPost2010PropOp55
 70
     0
102
RTVSPost2010Prop56
140
1.0
102
RTVSPost2010PropOp56
 70
     0
102
RTVSPost2010Prop57
140
1.0
102
RTVSPost2010PropOp57
 70
     0
102
RTVSPropertyOp0
 70
     0
102
RTVSPropertyOp1
 70
     0
102
RTVSPropertyOp2
 70
     0
102
RTVSPropertyOp3
 70
     0
102
RTVSPropertyOp4
 70
     0
102
RTVSPropertyOp5
 70
     0
102
RTVSPropertyOp6
 70
     0
102
RTVSPropertyOp7
 70
     0
102
RTVSPropertyOp8
 70
     0
102
RTVSPropertyOp9
 70
     0
102
RTVSPropertyOp10
 70
     0
102
RTVSPropertyOp11
 70
     0
102
RTVSPropertyOp12
 70
     0
102
RTVSPropertyOp13
 70
     0
102
RTVSPropertyOp14
 70
     2
102
RTVSPropertyOp15
 70
     0
102
RTVSPropertyOp16
 70
     0
102
RTVSPropertyOp17
 70
     0
102
RTVSPropertyOp18
 70
     0
102
RTVSPropertyOp19
 70
     0
102
RTVSPropertyOp20
 70
     0
102
RTVSPropertyOp21
 70
     0
102
RTVSPropertyOp22
 70
     0
102
RTVSPropertyOp23
 70
     0
102
RTVSPropertyOp24
 70
     0
102
RTVSPropertyOp25
 70
     0
102
RTVSPropertyOp26
 70
     0
102
RTVSPropertyOp27
 70
     0
102
RTVSPropertyOp28
 70
     0
102
RTVSPropertyOp29
 70
     0
102
RTVSPropertyOp30
 70
     0
102
RTVSPropertyOp31
 70
     0
102
RTVSPropertyOp32
 70
     0
102
RTVSPropertyOp33
 70
     0
102
RTVSPropertyOp34
 70
     0
102
RTVSPropertyOp35
 70
     0
102
RTVSPropertyOp36
 70
     0
102
RTVSPropertyOp37
 70
     0
102
RTVSPropertyOp38
 70
     0
102
RTVSPropertyOp39
 70
     0
102
RTVSPropertyOp40
 70
     0
102
RTVSPropertyOp41
 70
     0
102
RTVSPropertyOp42
 70
     0
102
RTVSPropertyOp43
 70
     0
102
RTVSPropertyOp44
 70
     0
102
RTVSPropertyOp45
 70
     0
102
RTVSPropertyOp46
 70
     0
102
RTVSPropertyOp47
 70
     0
102
RTVSPropertyOp48
 70
     0
102
RTVSPropertyOp49
 70
     0
102
RTVSPropertyOp50
 70
     0
102
RTVSPropertyOp51
 70
     0
102
RTVSPropertyOp52
 70
     0
102
RTVSPropertyOp53
 70
     0
102
RTVSPropertyOp54
 70
     0
102
RTVSPropertyOp55
 70
     0
102
RTVSPropertyOp56
 70
     0
102
RTVSPropertyOp57
 70
     0
102
RTVSPropertyOp58
 70
     1
102
RTVSPropertyOp59
 70
     1
102
RTVSPropertyOp60
 70
     1
102
RTVSPropertyOp61
 70
     1
102
RTVSPropertyOp62
 70
     1
  0
XRECORD
  5
2085
102
{ACAD_REACTORS
330
2084
102
}
330
2084
100
AcDbXrecord
280
     1
102
RTVSPost2010Prop28
280
     0
102
RTVSPost2010PropOp28
 70
     1
102
RTVSPost2010Prop29
280
     1
102
RTVSPost2010PropOp29
 70
     1
102
RTVSPost2010Prop30
280
     1
102
RTVSPost2010PropOp30
 70
     1
102
RTVSPost2010Prop31
280
     0
102
RTVSPost2010PropOp31
 70
     1
102
RTVSPost2010Prop32
280
     0
102
RTVSPost2010PropOp32
 70
     1
102
RTVSPost2010Prop33
280
     0
102
RTVSPost2010PropOp33
 70
     1
102
RTVSPost2010Prop34
280
     0
102
RTVSPost2010PropOp34
 70
     1
102
RTVSPost2010Prop35
280
     0
102
RTVSPost2010PropOp35
 70
     1
102
RTVSPost2010Prop36
280
     0
102
RTVSPost2010PropOp36
 70
     1
102
RTVSPost2010Prop37
 90
       50
102
RTVSPost2010PropOp37
 70
     1
102
RTVSPost2010Prop38
140
0.0
102
RTVSPost2010PropOp38
 70
     1
102
RTVSPost2010Prop39
140
1.0
102
RTVSPost2010PropOp39
 70
     1
102
RTVSPost2010Prop40
 90
        0
102
RTVSPost2010PropOp40
 70
     1
102
RTVSPost2010Prop41ColorIndex
 90
       18
102
RTVSPost2010Prop41ColorRGB
 90
-16777216
102
RTVSPost2010PropOp41
 70
     1
102
RTVSPost2010Prop42
 90
       50
102
RTVSPost2010PropOp42
 70
     1
102
RTVSPost2010Prop43
 90
        3
102
RTVSPost2010PropOp43
 70
     1
102
RTVSPost2010Prop44ColorIndex
 90
        5
102
RTVSPost2010Prop44ColorRGB
 90
      255
102
RTVSPost2010PropOp44
 70
     1
102
RTVSPost2010Prop45
280
     0
102
RTVSPost2010PropOp45
 70
     1
102
RTVSPost2010Prop46
 90
       50
102
RTVSPost2010PropOp46
 70
     1
102
RTVSPost2010Prop47
 90
       50
102
RTVSPost2010PropOp47
 70
     1
102
RTVSPost2010Prop48
 90
       50
102
RTVSPost2010PropOp48
 70
     1
102
RTVSPost2010Prop49
280
     0
102
RTVSPost2010PropOp49
 70
     1
102
RTVSPost2010Prop50
 90
       50
102
RTVSPost2010PropOp50
 70
     1
102
RTVSPost2010Prop51ColorIndex
 90
      256
102
RTVSPost2010Prop51ColorRGB
 90
-16777216
102
RTVSPost2010PropOp51
 70
     0
102
RTVSPost2010Prop52
140
1.0
102
RTVSPost2010PropOp52
 70
     0
102
RTVSPost2010Prop53
 90
        2
102
RTVSPost2010PropOp53
 70
     1
102
RTVSPost2010Prop54
  1
strokes_ogs.tif
102
RTVSPost2010PropOp54
 70
     1
102
RTVSPost2010Prop55
280
     0
102
RTVSPost2010PropOp55
 70
     1
102
RTVSPost2010Prop56
140
1.0
102
RTVSPost2010PropOp56
 70
     1
102
RTVSPost2010Prop57
140
1.0
102
RTVSPost2010PropOp57
 70
     1
102
RTVSPropertyOp0
 70
     1
102
RTVSPropertyOp1
 70
     1
102
RTVSPropertyOp2
 70
     1
102
RTVSPropertyOp3
 70
     1
102
RTVSPropertyOp4
 70
     1
102
RTVSPropertyOp5
 70
     1
102
RTVSPropertyOp6
 70
     1
102
RTVSPropertyOp7
 70
     1
102
RTVSPropertyOp8
 70
     1
102
RTVSPropertyOp9
 70
     1
102
RTVSPropertyOp10
 70
     1
102
RTVSPropertyOp11
 70
     1
102
RTVSPropertyOp12
 70
     1
102
RTVSPropertyOp13
 70
     1
102
RTVSPropertyOp14
 70
     1
102
RTVSPropertyOp15
 70
     1
102
RTVSPropertyOp16
 70
     1
102
RTVSPropertyOp17
 70
     1
102
RTVSPropertyOp18
 70
     1
102
RTVSPropertyOp19
 70
     1
102
RTVSPropertyOp20
 70
     1
102
RTVSPropertyOp21
 70
     1
102
RTVSPropertyOp22
 70
     1
102
RTVSPropertyOp23
 70
     1
102
RTVSPropertyOp24
 70
     1
102
RTVSPropertyOp25
 70
     1
102
RTVSPropertyOp26
 70
     1
102
RTVSPropertyOp27
 70
     1
102
RTVSPropertyOp28
 70
     1
102
RTVSPropertyOp29
 70
     1
102
RTVSPropertyOp30
 70
     1
102
RTVSPropertyOp31
 70
     1
102
RTVSPropertyOp32
 70
     1
102
RTVSPropertyOp33
 70
     1
102
RTVSPropertyOp34
 70
     1
102
RTVSPropertyOp35
 70
     1
102
RTVSPropertyOp36
 70
     1
102
RTVSPropertyOp37
 70
     1
102
RTVSPropertyOp38
 70
     1
102
RTVSPropertyOp39
 70
     1
102
RTVSPropertyOp40
 70
     1
102
RTVSPropertyOp41
 70
     1
102
RTVSPropertyOp42
 70
     1
102
RTVSPropertyOp43
 70
     1
102
RTVSPropertyOp44
 70
     1
102
RTVSPropertyOp45
 70
     1
102
RTVSPropertyOp46
 70
     1
102
RTVSPropertyOp47
 70
     1
102
RTVSPropertyOp48
 70
     1
102
RTVSPropertyOp49
 70
     1
102
RTVSPropertyOp50
 70
     1
102
RTVSPropertyOp51
 70
     0
102
RTVSPropertyOp52
 70
     0
102
RTVSPropertyOp53
 70
     1
102
RTVSPropertyOp54
 70
     1
102
RTVSPropertyOp55
 70
     1
102
RTVSPropertyOp56
 70
     1
102
RTVSPropertyOp57
 70
     1
102
RTVSPropertyOp58
 70
     1
102
RTVSPropertyOp59
 70
     1
102
RTVSPropertyOp60
 70
     1
102
RTVSPropertyOp61
 70
     1
102
RTVSPropertyOp62
 70
     1
  0
XRECORD
  5
2097
102
{ACAD_REACTORS
330
2096
102
}
330
2096
100
AcDbXrecord
280
     1
102
RTVSPost2010Prop28
280
     0
102
RTVSPost2010PropOp28
 70
     0
102
RTVSPost2010Prop29
280
     1
102
RTVSPost2010PropOp29
 70
     0
102
RTVSPost2010Prop30
280
     1
102
RTVSPost2010PropOp30
 70
     0
102
RTVSPost2010Prop31
280
     0
102
RTVSPost2010PropOp31
 70
     0
102
RTVSPost2010Prop32
280
     0
102
RTVSPost2010PropOp32
 70
     0
102
RTVSPost2010Prop33
280
     0
102
RTVSPost2010PropOp33
 70
     0
102
RTVSPost2010Prop34
280
     0
102
RTVSPost2010PropOp34
 70
     0
102
RTVSPost2010Prop35
280
     0
102
RTVSPost2010PropOp35
 70
     0
102
RTVSPost2010Prop36
280
     0
102
RTVSPost2010PropOp36
 70
     0
102
RTVSPost2010Prop37
 90
       50
102
RTVSPost2010PropOp37
 70
     0
102
RTVSPost2010Prop38
140
0.0
102
RTVSPost2010PropOp38
 70
     0
102
RTVSPost2010Prop39
140
1.0
102
RTVSPost2010PropOp39
 70
     0
102
RTVSPost2010Prop40
 90
        0
102
RTVSPost2010PropOp40
 70
     0
102
RTVSPost2010Prop41ColorIndex
 90
       18
102
RTVSPost2010Prop41ColorRGB
 90
-16777216
102
RTVSPost2010PropOp41
 70
     0
102
RTVSPost2010Prop42
 90
       50
102
RTVSPost2010PropOp42
 70
     0
102
RTVSPost2010Prop43
 90
        3
102
RTVSPost2010PropOp43
 70
     0
102
RTVSPost2010Prop44ColorIndex
 90
        5
102
RTVSPost2010Prop44ColorRGB
 90
      255
102
RTVSPost2010PropOp44
 70
     0
102
RTVSPost2010Prop45
280
     0
102
RTVSPost2010PropOp45
 70
     0
102
RTVSPost2010Prop46
 90
       50
102
RTVSPost2010PropOp46
 70
     0
102
RTVSPost2010Prop47
 90
       50
102
RTVSPost2010PropOp47
 70
     0
102
RTVSPost2010Prop48
 90
       50
102
RTVSPost2010PropOp48
 70
     0
102
RTVSPost2010Prop49
280
     0
102
RTVSPost2010PropOp49
 70
     0
102
RTVSPost2010Prop50
 90
       50
102
RTVSPost2010PropOp50
 70
     0
102
RTVSPost2010Prop51ColorIndex
 90
      256
102
RTVSPost2010Prop51ColorRGB
 90
-16777216
102
RTVSPost2010PropOp51
 70
     0
102
RTVSPost2010Prop52
140
1.0
102
RTVSPost2010PropOp52
 70
     0
102
RTVSPost2010Prop53
 90
        2
102
RTVSPost2010PropOp53
 70
     0
102
RTVSPost2010Prop54
  1
strokes_ogs.tif
102
RTVSPost2010PropOp54
 70
     0
102
RTVSPost2010Prop55
280
     0
102
RTVSPost2010PropOp55
 70
     0
102
RTVSPost2010Prop56
140
1.0
102
RTVSPost2010PropOp56
 70
     0
102
RTVSPost2010Prop57
140
1.0
102
RTVSPost2010PropOp57
 70
     0
102
RTVSPropertyOp0
 70
     0
102
RTVSPropertyOp1
 70
     0
102
RTVSPropertyOp2
 70
     0
102
RTVSPropertyOp3
 70
     0
102
RTVSPropertyOp4
 70
     0
102
RTVSPropertyOp5
 70
     0
102
RTVSPropertyOp6
 70
     0
102
RTVSPropertyOp7
 70
     0
102
RTVSPropertyOp8
 70
     0
102
RTVSPropertyOp9
 70
     0
102
RTVSPropertyOp10
 70
     0
102
RTVSPropertyOp11
 70
     0
102
RTVSPropertyOp12
 70
     0
102
RTVSPropertyOp13
 70
     0
102
RTVSPropertyOp14
 70
     2
102
RTVSPropertyOp15
 70
     0
102
RTVSPropertyOp16
 70
     0
102
RTVSPropertyOp17
 70
     0
102
RTVSPropertyOp18
 70
     0
102
RTVSPropertyOp19
 70
     0
102
RTVSPropertyOp20
 70
     0
102
RTVSPropertyOp21
 70
     0
102
RTVSPropertyOp22
 70
     0
102
RTVSPropertyOp23
 70
     0
102
RTVSPropertyOp24
 70
     0
102
RTVSPropertyOp25
 70
     0
102
RTVSPropertyOp26
 70
     0
102
RTVSPropertyOp27
 70
     0
102
RTVSPropertyOp28
 70
     0
102
RTVSPropertyOp29
 70
     0
102
RTVSPropertyOp30
 70
     0
102
RTVSPropertyOp31
 70
     0
102
RTVSPropertyOp32
 70
     0
102
RTVSPropertyOp33
 70
     0
102
RTVSPropertyOp34
 70
     0
102
RTVSPropertyOp35
 70
     0
102
RTVSPropertyOp36
 70
     0
102
RTVSPropertyOp37
 70
     0
102
RTVSPropertyOp38
 70
     0
102
RTVSPropertyOp39
 70
     0
102
RTVSPropertyOp40
 70
     0
102
RTVSPropertyOp41
 70
     0
102
RTVSPropertyOp42
 70
     0
102
RTVSPropertyOp43
 70
     0
102
RTVSPropertyOp44
 70
     0
102
RTVSPropertyOp45
 70
     0
102
RTVSPropertyOp46
 70
     0
102
RTVSPropertyOp47
 70
     0
102
RTVSPropertyOp48
 70
     0
102
RTVSPropertyOp49
 70
     0
102
RTVSPropertyOp50
 70
     0
102
RTVSPropertyOp51
 70
     0
102
RTVSPropertyOp52
 70
     0
102
RTVSPropertyOp53
 70
     0
102
RTVSPropertyOp54
 70
     0
102
RTVSPropertyOp55
 70
     0
102
RTVSPropertyOp56
 70
     0
102
RTVSPropertyOp57
 70
     0
102
RTVSPropertyOp58
 70
     1
102
RTVSPropertyOp59
 70
     1
102
RTVSPropertyOp60
 70
     1
102
RTVSPropertyOp61
 70
     1
102
RTVSPropertyOp62
 70
     1
  0
XRECORD
  5
207D
102
{ACAD_REACTORS
330
207C
102
}
330
207C
100
AcDbXrecord
280
     1
102
RTVSPost2010Prop28
280
     0
102
RTVSPost2010PropOp28
 70
     1
102
RTVSPost2010Prop29
280
     1
102
RTVSPost2010PropOp29
 70
     1
102
RTVSPost2010Prop30
280
     1
102
RTVSPost2010PropOp30
 70
     1
102
RTVSPost2010Prop31
280
     0
102
RTVSPost2010PropOp31
 70
     1
102
RTVSPost2010Prop32
280
     0
102
RTVSPost2010PropOp32
 70
     1
102
RTVSPost2010Prop33
280
     0
102
RTVSPost2010PropOp33
 70
     1
102
RTVSPost2010Prop34
280
     0
102
RTVSPost2010PropOp34
 70
     1
102
RTVSPost2010Prop35
280
     0
102
RTVSPost2010PropOp35
 70
     1
102
RTVSPost2010Prop36
280
     0
102
RTVSPost2010PropOp36
 70
     1
102
RTVSPost2010Prop37
 90
       50
102
RTVSPost2010PropOp37
 70
     1
102
RTVSPost2010Prop38
140
0.0
102
RTVSPost2010PropOp38
 70
     1
102
RTVSPost2010Prop39
140
1.0
102
RTVSPost2010PropOp39
 70
     1
102
RTVSPost2010Prop40
 90
        0
102
RTVSPost2010PropOp40
 70
     1
102
RTVSPost2010Prop41ColorIndex
 90
       18
102
RTVSPost2010Prop41ColorRGB
 90
-16777216
102
RTVSPost2010PropOp41
 70
     1
102
RTVSPost2010Prop42
 90
       50
102
RTVSPost2010PropOp42
 70
     1
102
RTVSPost2010Prop43
 90
        3
102
RTVSPost2010PropOp43
 70
     1
102
RTVSPost2010Prop44ColorIndex
 90
        5
102
RTVSPost2010Prop44ColorRGB
 90
      255
102
RTVSPost2010PropOp44
 70
     1
102
RTVSPost2010Prop45
280
     0
102
RTVSPost2010PropOp45
 70
     1
102
RTVSPost2010Prop46
 90
       50
102
RTVSPost2010PropOp46
 70
     1
102
RTVSPost2010Prop47
 90
       50
102
RTVSPost2010PropOp47
 70
     1
102
RTVSPost2010Prop48
 90
       50
102
RTVSPost2010PropOp48
 70
     1
102
RTVSPost2010Prop49
280
     0
102
RTVSPost2010PropOp49
 70
     1
102
RTVSPost2010Prop50
 90
       50
102
RTVSPost2010PropOp50
 70
     1
102
RTVSPost2010Prop51ColorIndex
 90
      256
102
RTVSPost2010Prop51ColorRGB
 90
-16777216
102
RTVSPost2010PropOp51
 70
     0
102
RTVSPost2010Prop52
140
1.0
102
RTVSPost2010PropOp52
 70
     0
102
RTVSPost2010Prop53
 90
        2
102
RTVSPost2010PropOp53
 70
     1
102
RTVSPost2010Prop54
  1
strokes_ogs.tif
102
RTVSPost2010PropOp54
 70
     1
102
RTVSPost2010Prop55
280
     0
102
RTVSPost2010PropOp55
 70
     1
102
RTVSPost2010Prop56
140
1.0
102
RTVSPost2010PropOp56
 70
     1
102
RTVSPost2010Prop57
140
1.0
102
RTVSPost2010PropOp57
 70
     1
102
RTVSPropertyOp0
 70
     1
102
RTVSPropertyOp1
 70
     1
102
RTVSPropertyOp2
 70
     1
102
RTVSPropertyOp3
 70
     1
102
RTVSPropertyOp4
 70
     1
102
RTVSPropertyOp5
 70
     1
102
RTVSPropertyOp6
 70
     1
102
RTVSPropertyOp7
 70
     1
102
RTVSPropertyOp8
 70
     1
102
RTVSPropertyOp9
 70
     1
102
RTVSPropertyOp10
 70
     1
102
RTVSPropertyOp11
 70
     1
102
RTVSPropertyOp12
 70
     1
102
RTVSPropertyOp13
 70
     1
102
RTVSPropertyOp14
 70
     1
102
RTVSPropertyOp15
 70
     1
102
RTVSPropertyOp16
 70
     1
102
RTVSPropertyOp17
 70
     1
102
RTVSPropertyOp18
 70
     1
102
RTVSPropertyOp19
 70
     1
102
RTVSPropertyOp20
 70
     1
102
RTVSPropertyOp21
 70
     1
102
RTVSPropertyOp22
 70
     1
102
RTVSPropertyOp23
 70
     1
102
RTVSPropertyOp24
 70
     1
102
RTVSPropertyOp25
 70
     1
102
RTVSPropertyOp26
 70
     1
102
RTVSPropertyOp27
 70
     1
102
RTVSPropertyOp28
 70
     1
102
RTVSPropertyOp29
 70
     1
102
RTVSPropertyOp30
 70
     1
102
RTVSPropertyOp31
 70
     1
102
RTVSPropertyOp32
 70
     1
102
RTVSPropertyOp33
 70
     1
102
RTVSPropertyOp34
 70
     1
102
RTVSPropertyOp35
 70
     1
102
RTVSPropertyOp36
 70
     1
102
RTVSPropertyOp37
 70
     1
102
RTVSPropertyOp38
 70
     1
102
RTVSPropertyOp39
 70
     1
102
RTVSPropertyOp40
 70
     1
102
RTVSPropertyOp41
 70
     1
102
RTVSPropertyOp42
 70
     1
102
RTVSPropertyOp43
 70
     1
102
RTVSPropertyOp44
 70
     1
102
RTVSPropertyOp45
 70
     1
102
RTVSPropertyOp46
 70
     1
102
RTVSPropertyOp47
 70
     1
102
RTVSPropertyOp48
 70
     1
102
RTVSPropertyOp49
 70
     1
102
RTVSPropertyOp50
 70
     1
102
RTVSPropertyOp51
 70
     0
102
RTVSPropertyOp52
 70
     0
102
RTVSPropertyOp53
 70
     1
102
RTVSPropertyOp54
 70
     1
102
RTVSPropertyOp55
 70
     1
102
RTVSPropertyOp56
 70
     1
102
RTVSPropertyOp57
 70
     1
102
RTVSPropertyOp58
 70
     1
102
RTVSPropertyOp59
 70
     1
102
RTVSPropertyOp60
 70
     1
102
RTVSPropertyOp61
 70
     1
102
RTVSPropertyOp62
 70
     1
  0
XRECORD
  5
2093
102
{ACAD_REACTORS
330
2092
102
}
330
2092
100
AcDbXrecord
280
     1
102
RTVSPost2010Prop28
280
     0
102
RTVSPost2010PropOp28
 70
     1
102
RTVSPost2010Prop29
280
     1
102
RTVSPost2010PropOp29
 70
     1
102
RTVSPost2010Prop30
280
     1
102
RTVSPost2010PropOp30
 70
     1
102
RTVSPost2010Prop31
280
     0
102
RTVSPost2010PropOp31
 70
     1
102
RTVSPost2010Prop32
280
     0
102
RTVSPost2010PropOp32
 70
     1
102
RTVSPost2010Prop33
280
     0
102
RTVSPost2010PropOp33
 70
     1
102
RTVSPost2010Prop34
280
     0
102
RTVSPost2010PropOp34
 70
     1
102
RTVSPost2010Prop35
280
     0
102
RTVSPost2010PropOp35
 70
     1
102
RTVSPost2010Prop36
280
     0
102
RTVSPost2010PropOp36
 70
     1
102
RTVSPost2010Prop37
 90
       50
102
RTVSPost2010PropOp37
 70
     1
102
RTVSPost2010Prop38
140
0.0
102
RTVSPost2010PropOp38
 70
     1
102
RTVSPost2010Prop39
140
1.0
102
RTVSPost2010PropOp39
 70
     1
102
RTVSPost2010Prop40
 90
        0
102
RTVSPost2010PropOp40
 70
     1
102
RTVSPost2010Prop41ColorIndex
 90
       18
102
RTVSPost2010Prop41ColorRGB
 90
-16777216
102
RTVSPost2010PropOp41
 70
     1
102
RTVSPost2010Prop42
 90
       50
102
RTVSPost2010PropOp42
 70
     1
102
RTVSPost2010Prop43
 90
        3
102
RTVSPost2010PropOp43
 70
     1
102
RTVSPost2010Prop44ColorIndex
 90
        5
102
RTVSPost2010Prop44ColorRGB
 90
      255
102
RTVSPost2010PropOp44
 70
     1
102
RTVSPost2010Prop45
280
     0
102
RTVSPost2010PropOp45
 70
     1
102
RTVSPost2010Prop46
 90
       50
102
RTVSPost2010PropOp46
 70
     1
102
RTVSPost2010Prop47
 90
       50
102
RTVSPost2010PropOp47
 70
     1
102
RTVSPost2010Prop48
 90
       50
102
RTVSPost2010PropOp48
 70
     1
102
RTVSPost2010Prop49
280
     0
102
RTVSPost2010PropOp49
 70
     1
102
RTVSPost2010Prop50
 90
       50
102
RTVSPost2010PropOp50
 70
     1
102
RTVSPost2010Prop51ColorIndex
 90
      256
102
RTVSPost2010Prop51ColorRGB
 90
-16777216
102
RTVSPost2010PropOp51
 70
     0
102
RTVSPost2010Prop52
140
1.0
102
RTVSPost2010PropOp52
 70
     0
102
RTVSPost2010Prop53
 90
        2
102
RTVSPost2010PropOp53
 70
     1
102
RTVSPost2010Prop54
  1
strokes_ogs.tif
102
RTVSPost2010PropOp54
 70
     1
102
RTVSPost2010Prop55
280
     0
102
RTVSPost2010PropOp55
 70
     1
102
RTVSPost2010Prop56
140
1.0
102
RTVSPost2010PropOp56
 70
     1
102
RTVSPost2010Prop57
140
1.0
102
RTVSPost2010PropOp57
 70
     1
102
RTVSPropertyOp0
 70
     1
102
RTVSPropertyOp1
 70
     1
102
RTVSPropertyOp2
 70
     1
102
RTVSPropertyOp3
 70
     1
102
RTVSPropertyOp4
 70
     1
102
RTVSPropertyOp5
 70
     1
102
RTVSPropertyOp6
 70
     1
102
RTVSPropertyOp7
 70
     1
102
RTVSPropertyOp8
 70
     1
102
RTVSPropertyOp9
 70
     1
102
RTVSPropertyOp10
 70
     1
102
RTVSPropertyOp11
 70
     1
102
RTVSPropertyOp12
 70
     1
102
RTVSPropertyOp13
 70
     1
102
RTVSPropertyOp14
 70
     1
102
RTVSPropertyOp15
 70
     1
102
RTVSPropertyOp16
 70
     1
102
RTVSPropertyOp17
 70
     1
102
RTVSPropertyOp18
 70
     1
102
RTVSPropertyOp19
 70
     1
102
RTVSPropertyOp20
 70
     1
102
RTVSPropertyOp21
 70
     1
102
RTVSPropertyOp22
 70
     1
102
RTVSPropertyOp23
 70
     1
102
RTVSPropertyOp24
 70
     1
102
RTVSPropertyOp25
 70
     1
102
RTVSPropertyOp26
 70
     1
102
RTVSPropertyOp27
 70
     1
102
RTVSPropertyOp28
 70
     1
102
RTVSPropertyOp29
 70
     1
102
RTVSPropertyOp30
 70
     1
102
RTVSPropertyOp31
 70
     1
102
RTVSPropertyOp32
 70
     1
102
RTVSPropertyOp33
 70
     1
102
RTVSPropertyOp34
 70
     1
102
RTVSPropertyOp35
 70
     1
102
RTVSPropertyOp36
 70
     1
102
RTVSPropertyOp37
 70
     1
102
RTVSPropertyOp38
 70
     1
102
RTVSPropertyOp39
 70
     1
102
RTVSPropertyOp40
 70
     1
102
RTVSPropertyOp41
 70
     1
102
RTVSPropertyOp42
 70
     1
102
RTVSPropertyOp43
 70
     1
102
RTVSPropertyOp44
 70
     1
102
RTVSPropertyOp45
 70
     1
102
RTVSPropertyOp46
 70
     1
102
RTVSPropertyOp47
 70
     1
102
RTVSPropertyOp48
 70
     1
102
RTVSPropertyOp49
 70
     1
102
RTVSPropertyOp50
 70
     1
102
RTVSPropertyOp51
 70
     0
102
RTVSPropertyOp52
 70
     0
102
RTVSPropertyOp53
 70
     1
102
RTVSPropertyOp54
 70
     1
102
RTVSPropertyOp55
 70
     1
102
RTVSPropertyOp56
 70
     1
102
RTVSPropertyOp57
 70
     1
102
RTVSPropertyOp58
 70
     1
102
RTVSPropertyOp59
 70
     1
102
RTVSPropertyOp60
 70
     1
102
RTVSPropertyOp61
 70
     1
102
RTVSPropertyOp62
 70
     1
  0
XRECORD
  5
2091
102
{ACAD_REACTORS
330
2090
102
}
330
2090
100
AcDbXrecord
280
     1
102
RTVSPost2010Prop28
280
     0
102
RTVSPost2010PropOp28
 70
     1
102
RTVSPost2010Prop29
280
     1
102
RTVSPost2010PropOp29
 70
     1
102
RTVSPost2010Prop30
280
     1
102
RTVSPost2010PropOp30
 70
     1
102
RTVSPost2010Prop31
280
     0
102
RTVSPost2010PropOp31
 70
     1
102
RTVSPost2010Prop32
280
     0
102
RTVSPost2010PropOp32
 70
     1
102
RTVSPost2010Prop33
280
     0
102
RTVSPost2010PropOp33
 70
     1
102
RTVSPost2010Prop34
280
     0
102
RTVSPost2010PropOp34
 70
     1
102
RTVSPost2010Prop35
280
     0
102
RTVSPost2010PropOp35
 70
     1
102
RTVSPost2010Prop36
280
     0
102
RTVSPost2010PropOp36
 70
     1
102
RTVSPost2010Prop37
 90
       50
102
RTVSPost2010PropOp37
 70
     1
102
RTVSPost2010Prop38
140
0.0
102
RTVSPost2010PropOp38
 70
     1
102
RTVSPost2010Prop39
140
1.0
102
RTVSPost2010PropOp39
 70
     1
102
RTVSPost2010Prop40
 90
        0
102
RTVSPost2010PropOp40
 70
     1
102
RTVSPost2010Prop41ColorIndex
 90
       18
102
RTVSPost2010Prop41ColorRGB
 90
-16777216
102
RTVSPost2010PropOp41
 70
     1
102
RTVSPost2010Prop42
 90
       50
102
RTVSPost2010PropOp42
 70
     1
102
RTVSPost2010Prop43
 90
        3
102
RTVSPost2010PropOp43
 70
     1
102
RTVSPost2010Prop44ColorIndex
 90
        5
102
RTVSPost2010Prop44ColorRGB
 90
      255
102
RTVSPost2010PropOp44
 70
     1
102
RTVSPost2010Prop45
280
     0
102
RTVSPost2010PropOp45
 70
     1
102
RTVSPost2010Prop46
 90
       50
102
RTVSPost2010PropOp46
 70
     1
102
RTVSPost2010Prop47
 90
       50
102
RTVSPost2010PropOp47
 70
     1
102
RTVSPost2010Prop48
 90
       50
102
RTVSPost2010PropOp48
 70
     1
102
RTVSPost2010Prop49
280
     0
102
RTVSPost2010PropOp49
 70
     1
102
RTVSPost2010Prop50
 90
       50
102
RTVSPost2010PropOp50
 70
     1
102
RTVSPost2010Prop51ColorIndex
 90
      256
102
RTVSPost2010Prop51ColorRGB
 90
-16777216
102
RTVSPost2010PropOp51
 70
     0
102
RTVSPost2010Prop52
140
1.0
102
RTVSPost2010PropOp52
 70
     0
102
RTVSPost2010Prop53
 90
        2
102
RTVSPost2010PropOp53
 70
     1
102
RTVSPost2010Prop54
  1
strokes_ogs.tif
102
RTVSPost2010PropOp54
 70
     1
102
RTVSPost2010Prop55
280
     0
102
RTVSPost2010PropOp55
 70
     1
102
RTVSPost2010Prop56
140
1.0
102
RTVSPost2010PropOp56
 70
     1
102
RTVSPost2010Prop57
140
1.0
102
RTVSPost2010PropOp57
 70
     1
102
RTVSPropertyOp0
 70
     1
102
RTVSPropertyOp1
 70
     1
102
RTVSPropertyOp2
 70
     1
102
RTVSPropertyOp3
 70
     1
102
RTVSPropertyOp4
 70
     1
102
RTVSPropertyOp5
 70
     1
102
RTVSPropertyOp6
 70
     1
102
RTVSPropertyOp7
 70
     1
102
RTVSPropertyOp8
 70
     1
102
RTVSPropertyOp9
 70
     1
102
RTVSPropertyOp10
 70
     1
102
RTVSPropertyOp11
 70
     1
102
RTVSPropertyOp12
 70
     1
102
RTVSPropertyOp13
 70
     1
102
RTVSPropertyOp14
 70
     1
102
RTVSPropertyOp15
 70
     1
102
RTVSPropertyOp16
 70
     1
102
RTVSPropertyOp17
 70
     1
102
RTVSPropertyOp18
 70
     1
102
RTVSPropertyOp19
 70
     1
102
RTVSPropertyOp20
 70
     1
102
RTVSPropertyOp21
 70
     1
102
RTVSPropertyOp22
 70
     1
102
RTVSPropertyOp23
 70
     1
102
RTVSPropertyOp24
 70
     1
102
RTVSPropertyOp25
 70
     1
102
RTVSPropertyOp26
 70
     1
102
RTVSPropertyOp27
 70
     1
102
RTVSPropertyOp28
 70
     1
102
RTVSPropertyOp29
 70
     1
102
RTVSPropertyOp30
 70
     1
102
RTVSPropertyOp31
 70
     1
102
RTVSPropertyOp32
 70
     1
102
RTVSPropertyOp33
 70
     1
102
RTVSPropertyOp34
 70
     1
102
RTVSPropertyOp35
 70
     1
102
RTVSPropertyOp36
 70
     1
102
RTVSPropertyOp37
 70
     1
102
RTVSPropertyOp38
 70
     1
102
RTVSPropertyOp39
 70
     1
102
RTVSPropertyOp40
 70
     1
102
RTVSPropertyOp41
 70
     1
102
RTVSPropertyOp42
 70
     1
102
RTVSPropertyOp43
 70
     1
102
RTVSPropertyOp44
 70
     1
102
RTVSPropertyOp45
 70
     1
102
RTVSPropertyOp46
 70
     1
102
RTVSPropertyOp47
 70
     1
102
RTVSPropertyOp48
 70
     1
102
RTVSPropertyOp49
 70
     1
102
RTVSPropertyOp50
 70
     1
102
RTVSPropertyOp51
 70
     0
102
RTVSPropertyOp52
 70
     0
102
RTVSPropertyOp53
 70
     1
102
RTVSPropertyOp54
 70
     1
102
RTVSPropertyOp55
 70
     1
102
RTVSPropertyOp56
 70
     1
102
RTVSPropertyOp57
 70
     1
102
RTVSPropertyOp58
 70
     1
102
RTVSPropertyOp59
 70
     1
102
RTVSPropertyOp60
 70
     1
102
RTVSPropertyOp61
 70
     1
102
RTVSPropertyOp62
 70
     1
  0
XRECORD
  5
208B
102
{ACAD_REACTORS
330
208A
102
}
330
208A
100
AcDbXrecord
280
     1
102
RTVSPost2010Prop28
280
     0
102
RTVSPost2010PropOp28
 70
     1
102
RTVSPost2010Prop29
280
     1
102
RTVSPost2010PropOp29
 70
     1
102
RTVSPost2010Prop30
280
     1
102
RTVSPost2010PropOp30
 70
     1
102
RTVSPost2010Prop31
280
     0
102
RTVSPost2010PropOp31
 70
     1
102
RTVSPost2010Prop32
280
     0
102
RTVSPost2010PropOp32
 70
     1
102
RTVSPost2010Prop33
280
     0
102
RTVSPost2010PropOp33
 70
     1
102
RTVSPost2010Prop34
280
     0
102
RTVSPost2010PropOp34
 70
     1
102
RTVSPost2010Prop35
280
     0
102
RTVSPost2010PropOp35
 70
     1
102
RTVSPost2010Prop36
280
     0
102
RTVSPost2010PropOp36
 70
     1
102
RTVSPost2010Prop37
 90
       50
102
RTVSPost2010PropOp37
 70
     1
102
RTVSPost2010Prop38
140
0.0
102
RTVSPost2010PropOp38
 70
     1
102
RTVSPost2010Prop39
140
1.0
102
RTVSPost2010PropOp39
 70
     1
102
RTVSPost2010Prop40
 90
        0
102
RTVSPost2010PropOp40
 70
     1
102
RTVSPost2010Prop41ColorIndex
 90
       18
102
RTVSPost2010Prop41ColorRGB
 90
-16777216
102
RTVSPost2010PropOp41
 70
     1
102
RTVSPost2010Prop42
 90
       50
102
RTVSPost2010PropOp42
 70
     1
102
RTVSPost2010Prop43
 90
        3
102
RTVSPost2010PropOp43
 70
     1
102
RTVSPost2010Prop44ColorIndex
 90
        5
102
RTVSPost2010Prop44ColorRGB
 90
      255
102
RTVSPost2010PropOp44
 70
     1
102
RTVSPost2010Prop45
280
     0
102
RTVSPost2010PropOp45
 70
     1
102
RTVSPost2010Prop46
 90
       50
102
RTVSPost2010PropOp46
 70
     1
102
RTVSPost2010Prop47
 90
       50
102
RTVSPost2010PropOp47
 70
     1
102
RTVSPost2010Prop48
 90
       50
102
RTVSPost2010PropOp48
 70
     1
102
RTVSPost2010Prop49
280
     0
102
RTVSPost2010PropOp49
 70
     1
102
RTVSPost2010Prop50
 90
       50
102
RTVSPost2010PropOp50
 70
     1
102
RTVSPost2010Prop51ColorIndex
 90
      256
102
RTVSPost2010Prop51ColorRGB
 90
-16777216
102
RTVSPost2010PropOp51
 70
     0
102
RTVSPost2010Prop52
140
1.0
102
RTVSPost2010PropOp52
 70
     0
102
RTVSPost2010Prop53
 90
        2
102
RTVSPost2010PropOp53
 70
     1
102
RTVSPost2010Prop54
  1
strokes_ogs.tif
102
RTVSPost2010PropOp54
 70
     1
102
RTVSPost2010Prop55
280
     0
102
RTVSPost2010PropOp55
 70
     1
102
RTVSPost2010Prop56
140
1.0
102
RTVSPost2010PropOp56
 70
     1
102
RTVSPost2010Prop57
140
1.0
102
RTVSPost2010PropOp57
 70
     1
102
RTVSPropertyOp0
 70
     1
102
RTVSPropertyOp1
 70
     1
102
RTVSPropertyOp2
 70
     1
102
RTVSPropertyOp3
 70
     1
102
RTVSPropertyOp4
 70
     1
102
RTVSPropertyOp5
 70
     1
102
RTVSPropertyOp6
 70
     1
102
RTVSPropertyOp7
 70
     1
102
RTVSPropertyOp8
 70
     1
102
RTVSPropertyOp9
 70
     1
102
RTVSPropertyOp10
 70
     1
102
RTVSPropertyOp11
 70
     1
102
RTVSPropertyOp12
 70
     1
102
RTVSPropertyOp13
 70
     1
102
RTVSPropertyOp14
 70
     1
102
RTVSPropertyOp15
 70
     1
102
RTVSPropertyOp16
 70
     1
102
RTVSPropertyOp17
 70
     1
102
RTVSPropertyOp18
 70
     1
102
RTVSPropertyOp19
 70
     1
102
RTVSPropertyOp20
 70
     1
102
RTVSPropertyOp21
 70
     1
102
RTVSPropertyOp22
 70
     1
102
RTVSPropertyOp23
 70
     1
102
RTVSPropertyOp24
 70
     1
102
RTVSPropertyOp25
 70
     1
102
RTVSPropertyOp26
 70
     1
102
RTVSPropertyOp27
 70
     1
102
RTVSPropertyOp28
 70
     1
102
RTVSPropertyOp29
 70
     1
102
RTVSPropertyOp30
 70
     1
102
RTVSPropertyOp31
 70
     1
102
RTVSPropertyOp32
 70
     1
102
RTVSPropertyOp33
 70
     1
102
RTVSPropertyOp34
 70
     1
102
RTVSPropertyOp35
 70
     1
102
RTVSPropertyOp36
 70
     1
102
RTVSPropertyOp37
 70
     1
102
RTVSPropertyOp38
 70
     1
102
RTVSPropertyOp39
 70
     1
102
RTVSPropertyOp40
 70
     1
102
RTVSPropertyOp41
 70
     1
102
RTVSPropertyOp42
 70
     1
102
RTVSPropertyOp43
 70
     1
102
RTVSPropertyOp44
 70
     1
102
RTVSPropertyOp45
 70
     1
102
RTVSPropertyOp46
 70
     1
102
RTVSPropertyOp47
 70
     1
102
RTVSPropertyOp48
 70
     1
102
RTVSPropertyOp49
 70
     1
102
RTVSPropertyOp50
 70
     1
102
RTVSPropertyOp51
 70
     0
102
RTVSPropertyOp52
 70
     0
102
RTVSPropertyOp53
 70
     1
102
RTVSPropertyOp54
 70
     1
102
RTVSPropertyOp55
 70
     1
102
RTVSPropertyOp56
 70
     1
102
RTVSPropertyOp57
 70
     1
102
RTVSPropertyOp58
 70
     1
102
RTVSPropertyOp59
 70
     1
102
RTVSPropertyOp60
 70
     1
102
RTVSPropertyOp61
 70
     1
102
RTVSPropertyOp62
 70
     1
  0
XRECORD
  5
208D
102
{ACAD_REACTORS
330
208C
102
}
330
208C
100
AcDbXrecord
280
     1
102
RTVSPost2010Prop28
280
     0
102
RTVSPost2010PropOp28
 70
     1
102
RTVSPost2010Prop29
280
     1
102
RTVSPost2010PropOp29
 70
     1
102
RTVSPost2010Prop30
280
     1
102
RTVSPost2010PropOp30
 70
     1
102
RTVSPost2010Prop31
280
     0
102
RTVSPost2010PropOp31
 70
     1
102
RTVSPost2010Prop32
280
     0
102
RTVSPost2010PropOp32
 70
     1
102
RTVSPost2010Prop33
280
     0
102
RTVSPost2010PropOp33
 70
     1
102
RTVSPost2010Prop34
280
     0
102
RTVSPost2010PropOp34
 70
     1
102
RTVSPost2010Prop35
280
     0
102
RTVSPost2010PropOp35
 70
     1
102
RTVSPost2010Prop36
280
     0
102
RTVSPost2010PropOp36
 70
     1
102
RTVSPost2010Prop37
 90
       50
102
RTVSPost2010PropOp37
 70
     1
102
RTVSPost2010Prop38
140
0.0
102
RTVSPost2010PropOp38
 70
     1
102
RTVSPost2010Prop39
140
1.0
102
RTVSPost2010PropOp39
 70
     1
102
RTVSPost2010Prop40
 90
        0
102
RTVSPost2010PropOp40
 70
     1
102
RTVSPost2010Prop41ColorIndex
 90
       18
102
RTVSPost2010Prop41ColorRGB
 90
-16777216
102
RTVSPost2010PropOp41
 70
     1
102
RTVSPost2010Prop42
 90
       50
102
RTVSPost2010PropOp42
 70
     1
102
RTVSPost2010Prop43
 90
        3
102
RTVSPost2010PropOp43
 70
     1
102
RTVSPost2010Prop44ColorIndex
 90
        5
102
RTVSPost2010Prop44ColorRGB
 90
      255
102
RTVSPost2010PropOp44
 70
     1
102
RTVSPost2010Prop45
280
     0
102
RTVSPost2010PropOp45
 70
     1
102
RTVSPost2010Prop46
 90
       50
102
RTVSPost2010PropOp46
 70
     1
102
RTVSPost2010Prop47
 90
       50
102
RTVSPost2010PropOp47
 70
     1
102
RTVSPost2010Prop48
 90
       50
102
RTVSPost2010PropOp48
 70
     1
102
RTVSPost2010Prop49
280
     0
102
RTVSPost2010PropOp49
 70
     1
102
RTVSPost2010Prop50
 90
       50
102
RTVSPost2010PropOp50
 70
     1
102
RTVSPost2010Prop51ColorIndex
 90
      256
102
RTVSPost2010Prop51ColorRGB
 90
-16777216
102
RTVSPost2010PropOp51
 70
     0
102
RTVSPost2010Prop52
140
1.0
102
RTVSPost2010PropOp52
 70
     0
102
RTVSPost2010Prop53
 90
        2
102
RTVSPost2010PropOp53
 70
     1
102
RTVSPost2010Prop54
  1
strokes_ogs.tif
102
RTVSPost2010PropOp54
 70
     1
102
RTVSPost2010Prop55
280
     0
102
RTVSPost2010PropOp55
 70
     1
102
RTVSPost2010Prop56
140
1.0
102
RTVSPost2010PropOp56
 70
     1
102
RTVSPost2010Prop57
140
1.0
102
RTVSPost2010PropOp57
 70
     1
102
RTVSPropertyOp0
 70
     1
102
RTVSPropertyOp1
 70
     1
102
RTVSPropertyOp2
 70
     1
102
RTVSPropertyOp3
 70
     1
102
RTVSPropertyOp4
 70
     1
102
RTVSPropertyOp5
 70
     1
102
RTVSPropertyOp6
 70
     1
102
RTVSPropertyOp7
 70
     1
102
RTVSPropertyOp8
 70
     1
102
RTVSPropertyOp9
 70
     1
102
RTVSPropertyOp10
 70
     1
102
RTVSPropertyOp11
 70
     1
102
RTVSPropertyOp12
 70
     1
102
RTVSPropertyOp13
 70
     1
102
RTVSPropertyOp14
 70
     1
102
RTVSPropertyOp15
 70
     1
102
RTVSPropertyOp16
 70
     1
102
RTVSPropertyOp17
 70
     1
102
RTVSPropertyOp18
 70
     1
102
RTVSPropertyOp19
 70
     1
102
RTVSPropertyOp20
 70
     1
102
RTVSPropertyOp21
 70
     1
102
RTVSPropertyOp22
 70
     1
102
RTVSPropertyOp23
 70
     1
102
RTVSPropertyOp24
 70
     1
102
RTVSPropertyOp25
 70
     1
102
RTVSPropertyOp26
 70
     1
102
RTVSPropertyOp27
 70
     1
102
RTVSPropertyOp28
 70
     1
102
RTVSPropertyOp29
 70
     1
102
RTVSPropertyOp30
 70
     1
102
RTVSPropertyOp31
 70
     1
102
RTVSPropertyOp32
 70
     1
102
RTVSPropertyOp33
 70
     1
102
RTVSPropertyOp34
 70
     1
102
RTVSPropertyOp35
 70
     1
102
RTVSPropertyOp36
 70
     1
102
RTVSPropertyOp37
 70
     1
102
RTVSPropertyOp38
 70
     1
102
RTVSPropertyOp39
 70
     1
102
RTVSPropertyOp40
 70
     1
102
RTVSPropertyOp41
 70
     1
102
RTVSPropertyOp42
 70
     1
102
RTVSPropertyOp43
 70
     1
102
RTVSPropertyOp44
 70
     1
102
RTVSPropertyOp45
 70
     1
102
RTVSPropertyOp46
 70
     1
102
RTVSPropertyOp47
 70
     1
102
RTVSPropertyOp48
 70
     1
102
RTVSPropertyOp49
 70
     1
102
RTVSPropertyOp50
 70
     1
102
RTVSPropertyOp51
 70
     0
102
RTVSPropertyOp52
 70
     0
102
RTVSPropertyOp53
 70
     1
102
RTVSPropertyOp54
 70
     1
102
RTVSPropertyOp55
 70
     1
102
RTVSPropertyOp56
 70
     1
102
RTVSPropertyOp57
 70
     1
102
RTVSPropertyOp58
 70
     1
102
RTVSPropertyOp59
 70
     1
102
RTVSPropertyOp60
 70
     1
102
RTVSPropertyOp61
 70
     1
102
RTVSPropertyOp62
 70
     1
  0
XRECORD
  5
2083
102
{ACAD_REACTORS
330
2082
102
}
330
2082
100
AcDbXrecord
280
     1
102
RTVSPost2010Prop28
280
     0
102
RTVSPost2010PropOp28
 70
     1
102
RTVSPost2010Prop29
280
     1
102
RTVSPost2010PropOp29
 70
     1
102
RTVSPost2010Prop30
280
     1
102
RTVSPost2010PropOp30
 70
     1
102
RTVSPost2010Prop31
280
     0
102
RTVSPost2010PropOp31
 70
     1
102
RTVSPost2010Prop32
280
     0
102
RTVSPost2010PropOp32
 70
     1
102
RTVSPost2010Prop33
280
     0
102
RTVSPost2010PropOp33
 70
     1
102
RTVSPost2010Prop34
280
     0
102
RTVSPost2010PropOp34
 70
     1
102
RTVSPost2010Prop35
280
     0
102
RTVSPost2010PropOp35
 70
     1
102
RTVSPost2010Prop36
280
     0
102
RTVSPost2010PropOp36
 70
     1
102
RTVSPost2010Prop37
 90
       50
102
RTVSPost2010PropOp37
 70
     1
102
RTVSPost2010Prop38
140
0.0
102
RTVSPost2010PropOp38
 70
     1
102
RTVSPost2010Prop39
140
1.0
102
RTVSPost2010PropOp39
 70
     1
102
RTVSPost2010Prop40
 90
        0
102
RTVSPost2010PropOp40
 70
     1
102
RTVSPost2010Prop41ColorIndex
 90
       18
102
RTVSPost2010Prop41ColorRGB
 90
-16777216
102
RTVSPost2010PropOp41
 70
     1
102
RTVSPost2010Prop42
 90
       50
102
RTVSPost2010PropOp42
 70
     1
102
RTVSPost2010Prop43
 90
        3
102
RTVSPost2010PropOp43
 70
     1
102
RTVSPost2010Prop44ColorIndex
 90
        5
102
RTVSPost2010Prop44ColorRGB
 90
      255
102
RTVSPost2010PropOp44
 70
     1
102
RTVSPost2010Prop45
280
     0
102
RTVSPost2010PropOp45
 70
     1
102
RTVSPost2010Prop46
 90
       50
102
RTVSPost2010PropOp46
 70
     1
102
RTVSPost2010Prop47
 90
       50
102
RTVSPost2010PropOp47
 70
     1
102
RTVSPost2010Prop48
 90
       50
102
RTVSPost2010PropOp48
 70
     1
102
RTVSPost2010Prop49
280
     0
102
RTVSPost2010PropOp49
 70
     1
102
RTVSPost2010Prop50
 90
       50
102
RTVSPost2010PropOp50
 70
     1
102
RTVSPost2010Prop51ColorIndex
 90
      256
102
RTVSPost2010Prop51ColorRGB
 90
-16777216
102
RTVSPost2010PropOp51
 70
     0
102
RTVSPost2010Prop52
140
1.0
102
RTVSPost2010PropOp52
 70
     0
102
RTVSPost2010Prop53
 90
        2
102
RTVSPost2010PropOp53
 70
     1
102
RTVSPost2010Prop54
  1
strokes_ogs.tif
102
RTVSPost2010PropOp54
 70
     1
102
RTVSPost2010Prop55
280
     0
102
RTVSPost2010PropOp55
 70
     1
102
RTVSPost2010Prop56
140
1.0
102
RTVSPost2010PropOp56
 70
     1
102
RTVSPost2010Prop57
140
1.0
102
RTVSPost2010PropOp57
 70
     1
102
RTVSPropertyOp0
 70
     1
102
RTVSPropertyOp1
 70
     1
102
RTVSPropertyOp2
 70
     1
102
RTVSPropertyOp3
 70
     1
102
RTVSPropertyOp4
 70
     1
102
RTVSPropertyOp5
 70
     1
102
RTVSPropertyOp6
 70
     1
102
RTVSPropertyOp7
 70
     1
102
RTVSPropertyOp8
 70
     1
102
RTVSPropertyOp9
 70
     1
102
RTVSPropertyOp10
 70
     1
102
RTVSPropertyOp11
 70
     1
102
RTVSPropertyOp12
 70
     1
102
RTVSPropertyOp13
 70
     1
102
RTVSPropertyOp14
 70
     1
102
RTVSPropertyOp15
 70
     1
102
RTVSPropertyOp16
 70
     1
102
RTVSPropertyOp17
 70
     1
102
RTVSPropertyOp18
 70
     1
102
RTVSPropertyOp19
 70
     1
102
RTVSPropertyOp20
 70
     1
102
RTVSPropertyOp21
 70
     1
102
RTVSPropertyOp22
 70
     1
102
RTVSPropertyOp23
 70
     1
102
RTVSPropertyOp24
 70
     1
102
RTVSPropertyOp25
 70
     1
102
RTVSPropertyOp26
 70
     1
102
RTVSPropertyOp27
 70
     1
102
RTVSPropertyOp28
 70
     1
102
RTVSPropertyOp29
 70
     1
102
RTVSPropertyOp30
 70
     1
102
RTVSPropertyOp31
 70
     1
102
RTVSPropertyOp32
 70
     1
102
RTVSPropertyOp33
 70
     1
102
RTVSPropertyOp34
 70
     1
102
RTVSPropertyOp35
 70
     1
102
RTVSPropertyOp36
 70
     1
102
RTVSPropertyOp37
 70
     1
102
RTVSPropertyOp38
 70
     1
102
RTVSPropertyOp39
 70
     1
102
RTVSPropertyOp40
 70
     1
102
RTVSPropertyOp41
 70
     1
102
RTVSPropertyOp42
 70
     1
102
RTVSPropertyOp43
 70
     1
102
RTVSPropertyOp44
 70
     1
102
RTVSPropertyOp45
 70
     1
102
RTVSPropertyOp46
 70
     1
102
RTVSPropertyOp47
 70
     1
102
RTVSPropertyOp48
 70
     1
102
RTVSPropertyOp49
 70
     1
102
RTVSPropertyOp50
 70
     1
102
RTVSPropertyOp51
 70
     0
102
RTVSPropertyOp52
 70
     0
102
RTVSPropertyOp53
 70
     1
102
RTVSPropertyOp54
 70
     1
102
RTVSPropertyOp55
 70
     1
102
RTVSPropertyOp56
 70
     1
102
RTVSPropertyOp57
 70
     1
102
RTVSPropertyOp58
 70
     1
102
RTVSPropertyOp59
 70
     1
102
RTVSPropertyOp60
 70
     1
102
RTVSPropertyOp61
 70
     1
102
RTVSPropertyOp62
 70
     1
  0
XRECORD
  5
2077
102
{ACAD_REACTORS
330
2076
102
}
330
2076
100
AcDbXrecord
280
     1
102
RTVSPost2010Prop28
280
     0
102
RTVSPost2010PropOp28
 70
     1
102
RTVSPost2010Prop29
280
     1
102
RTVSPost2010PropOp29
 70
     1
102
RTVSPost2010Prop30
280
     1
102
RTVSPost2010PropOp30
 70
     1
102
RTVSPost2010Prop31
280
     0
102
RTVSPost2010PropOp31
 70
     1
102
RTVSPost2010Prop32
280
     0
102
RTVSPost2010PropOp32
 70
     1
102
RTVSPost2010Prop33
280
     0
102
RTVSPost2010PropOp33
 70
     1
102
RTVSPost2010Prop34
280
     0
102
RTVSPost2010PropOp34
 70
     1
102
RTVSPost2010Prop35
280
     0
102
RTVSPost2010PropOp35
 70
     1
102
RTVSPost2010Prop36
280
     0
102
RTVSPost2010PropOp36
 70
     1
102
RTVSPost2010Prop37
 90
       50
102
RTVSPost2010PropOp37
 70
     1
102
RTVSPost2010Prop38
140
0.0
102
RTVSPost2010PropOp38
 70
     1
102
RTVSPost2010Prop39
140
1.0
102
RTVSPost2010PropOp39
 70
     1
102
RTVSPost2010Prop40
 90
        0
102
RTVSPost2010PropOp40
 70
     1
102
RTVSPost2010Prop41ColorIndex
 90
       18
102
RTVSPost2010Prop41ColorRGB
 90
-16777216
102
RTVSPost2010PropOp41
 70
     1
102
RTVSPost2010Prop42
 90
       50
102
RTVSPost2010PropOp42
 70
     1
102
RTVSPost2010Prop43
 90
        3
102
RTVSPost2010PropOp43
 70
     1
102
RTVSPost2010Prop44ColorIndex
 90
        5
102
RTVSPost2010Prop44ColorRGB
 90
      255
102
RTVSPost2010PropOp44
 70
     1
102
RTVSPost2010Prop45
280
     0
102
RTVSPost2010PropOp45
 70
     1
102
RTVSPost2010Prop46
 90
       50
102
RTVSPost2010PropOp46
 70
     1
102
RTVSPost2010Prop47
 90
       50
102
RTVSPost2010PropOp47
 70
     1
102
RTVSPost2010Prop48
 90
       50
102
RTVSPost2010PropOp48
 70
     1
102
RTVSPost2010Prop49
280
     0
102
RTVSPost2010PropOp49
 70
     1
102
RTVSPost2010Prop50
 90
       50
102
RTVSPost2010PropOp50
 70
     1
102
RTVSPost2010Prop51ColorIndex
 90
      256
102
RTVSPost2010Prop51ColorRGB
 90
-16777216
102
RTVSPost2010PropOp51
 70
     0
102
RTVSPost2010Prop52
140
1.0
102
RTVSPost2010PropOp52
 70
     0
102
RTVSPost2010Prop53
 90
        2
102
RTVSPost2010PropOp53
 70
     1
102
RTVSPost2010Prop54
  1
strokes_ogs.tif
102
RTVSPost2010PropOp54
 70
     1
102
RTVSPost2010Prop55
280
     0
102
RTVSPost2010PropOp55
 70
     1
102
RTVSPost2010Prop56
140
1.0
102
RTVSPost2010PropOp56
 70
     1
102
RTVSPost2010Prop57
140
1.0
102
RTVSPost2010PropOp57
 70
     1
102
RTVSPropertyOp0
 70
     1
102
RTVSPropertyOp1
 70
     1
102
RTVSPropertyOp2
 70
     1
102
RTVSPropertyOp3
 70
     1
102
RTVSPropertyOp4
 70
     1
102
RTVSPropertyOp5
 70
     1
102
RTVSPropertyOp6
 70
     1
102
RTVSPropertyOp7
 70
     1
102
RTVSPropertyOp8
 70
     1
102
RTVSPropertyOp9
 70
     1
102
RTVSPropertyOp10
 70
     1
102
RTVSPropertyOp11
 70
     1
102
RTVSPropertyOp12
 70
     1
102
RTVSPropertyOp13
 70
     1
102
RTVSPropertyOp14
 70
     1
102
RTVSPropertyOp15
 70
     1
102
RTVSPropertyOp16
 70
     1
102
RTVSPropertyOp17
 70
     1
102
RTVSPropertyOp18
 70
     1
102
RTVSPropertyOp19
 70
     1
102
RTVSPropertyOp20
 70
     1
102
RTVSPropertyOp21
 70
     1
102
RTVSPropertyOp22
 70
     1
102
RTVSPropertyOp23
 70
     1
102
RTVSPropertyOp24
 70
     1
102
RTVSPropertyOp25
 70
     1
102
RTVSPropertyOp26
 70
     1
102
RTVSPropertyOp27
 70
     1
102
RTVSPropertyOp28
 70
     1
102
RTVSPropertyOp29
 70
     1
102
RTVSPropertyOp30
 70
     1
102
RTVSPropertyOp31
 70
     1
102
RTVSPropertyOp32
 70
     1
102
RTVSPropertyOp33
 70
     1
102
RTVSPropertyOp34
 70
     1
102
RTVSPropertyOp35
 70
     1
102
RTVSPropertyOp36
 70
     1
102
RTVSPropertyOp37
 70
     1
102
RTVSPropertyOp38
 70
     1
102
RTVSPropertyOp39
 70
     1
102
RTVSPropertyOp40
 70
     1
102
RTVSPropertyOp41
 70
     1
102
RTVSPropertyOp42
 70
     1
102
RTVSPropertyOp43
 70
     1
102
RTVSPropertyOp44
 70
     1
102
RTVSPropertyOp45
 70
     1
102
RTVSPropertyOp46
 70
     1
102
RTVSPropertyOp47
 70
     1
102
RTVSPropertyOp48
 70
     1
102
RTVSPropertyOp49
 70
     1
102
RTVSPropertyOp50
 70
     1
102
RTVSPropertyOp51
 70
     0
102
RTVSPropertyOp52
 70
     0
102
RTVSPropertyOp53
 70
     1
102
RTVSPropertyOp54
 70
     1
102
RTVSPropertyOp55
 70
     1
102
RTVSPropertyOp56
 70
     1
102
RTVSPropertyOp57
 70
     1
102
RTVSPropertyOp58
 70
     1
102
RTVSPropertyOp59
 70
     1
102
RTVSPropertyOp60
 70
     1
102
RTVSPropertyOp61
 70
     1
102
RTVSPropertyOp62
 70
     1
  0
XRECORD
  5
208F
102
{ACAD_REACTORS
330
208E
102
}
330
208E
100
AcDbXrecord
280
     1
102
RTVSPost2010Prop28
280
     0
102
RTVSPost2010PropOp28
 70
     1
102
RTVSPost2010Prop29
280
     1
102
RTVSPost2010PropOp29
 70
     1
102
RTVSPost2010Prop30
280
     1
102
RTVSPost2010PropOp30
 70
     1
102
RTVSPost2010Prop31
280
     0
102
RTVSPost2010PropOp31
 70
     1
102
RTVSPost2010Prop32
280
     0
102
RTVSPost2010PropOp32
 70
     1
102
RTVSPost2010Prop33
280
     0
102
RTVSPost2010PropOp33
 70
     1
102
RTVSPost2010Prop34
280
     0
102
RTVSPost2010PropOp34
 70
     1
102
RTVSPost2010Prop35
280
     0
102
RTVSPost2010PropOp35
 70
     1
102
RTVSPost2010Prop36
280
     0
102
RTVSPost2010PropOp36
 70
     1
102
RTVSPost2010Prop37
 90
       50
102
RTVSPost2010PropOp37
 70
     1
102
RTVSPost2010Prop38
140
0.0
102
RTVSPost2010PropOp38
 70
     1
102
RTVSPost2010Prop39
140
1.0
102
RTVSPost2010PropOp39
 70
     1
102
RTVSPost2010Prop40
 90
        0
102
RTVSPost2010PropOp40
 70
     1
102
RTVSPost2010Prop41ColorIndex
 90
       18
102
RTVSPost2010Prop41ColorRGB
 90
-16777216
102
RTVSPost2010PropOp41
 70
     1
102
RTVSPost2010Prop42
 90
       50
102
RTVSPost2010PropOp42
 70
     1
102
RTVSPost2010Prop43
 90
        3
102
RTVSPost2010PropOp43
 70
     1
102
RTVSPost2010Prop44ColorIndex
 90
        5
102
RTVSPost2010Prop44ColorRGB
 90
      255
102
RTVSPost2010PropOp44
 70
     1
102
RTVSPost2010Prop45
280
     0
102
RTVSPost2010PropOp45
 70
     1
102
RTVSPost2010Prop46
 90
       50
102
RTVSPost2010PropOp46
 70
     1
102
RTVSPost2010Prop47
 90
       50
102
RTVSPost2010PropOp47
 70
     1
102
RTVSPost2010Prop48
 90
       50
102
RTVSPost2010PropOp48
 70
     1
102
RTVSPost2010Prop49
280
     0
102
RTVSPost2010PropOp49
 70
     1
102
RTVSPost2010Prop50
 90
       50
102
RTVSPost2010PropOp50
 70
     1
102
RTVSPost2010Prop51ColorIndex
 90
      256
102
RTVSPost2010Prop51ColorRGB
 90
-16777216
102
RTVSPost2010PropOp51
 70
     0
102
RTVSPost2010Prop52
140
1.0
102
RTVSPost2010PropOp52
 70
     0
102
RTVSPost2010Prop53
 90
        2
102
RTVSPost2010PropOp53
 70
     1
102
RTVSPost2010Prop54
  1
strokes_ogs.tif
102
RTVSPost2010PropOp54
 70
     1
102
RTVSPost2010Prop55
280
     0
102
RTVSPost2010PropOp55
 70
     1
102
RTVSPost2010Prop56
140
1.0
102
RTVSPost2010PropOp56
 70
     1
102
RTVSPost2010Prop57
140
1.0
102
RTVSPost2010PropOp57
 70
     1
102
RTVSPropertyOp0
 70
     1
102
RTVSPropertyOp1
 70
     1
102
RTVSPropertyOp2
 70
     1
102
RTVSPropertyOp3
 70
     1
102
RTVSPropertyOp4
 70
     1
102
RTVSPropertyOp5
 70
     1
102
RTVSPropertyOp6
 70
     1
102
RTVSPropertyOp7
 70
     1
102
RTVSPropertyOp8
 70
     1
102
RTVSPropertyOp9
 70
     1
102
RTVSPropertyOp10
 70
     1
102
RTVSPropertyOp11
 70
     1
102
RTVSPropertyOp12
 70
     1
102
RTVSPropertyOp13
 70
     1
102
RTVSPropertyOp14
 70
     1
102
RTVSPropertyOp15
 70
     1
102
RTVSPropertyOp16
 70
     1
102
RTVSPropertyOp17
 70
     1
102
RTVSPropertyOp18
 70
     1
102
RTVSPropertyOp19
 70
     1
102
RTVSPropertyOp20
 70
     1
102
RTVSPropertyOp21
 70
     1
102
RTVSPropertyOp22
 70
     1
102
RTVSPropertyOp23
 70
     1
102
RTVSPropertyOp24
 70
     1
102
RTVSPropertyOp25
 70
     1
102
RTVSPropertyOp26
 70
     1
102
RTVSPropertyOp27
 70
     1
102
RTVSPropertyOp28
 70
     1
102
RTVSPropertyOp29
 70
     1
102
RTVSPropertyOp30
 70
     1
102
RTVSPropertyOp31
 70
     1
102
RTVSPropertyOp32
 70
     1
102
RTVSPropertyOp33
 70
     1
102
RTVSPropertyOp34
 70
     1
102
RTVSPropertyOp35
 70
     1
102
RTVSPropertyOp36
 70
     1
102
RTVSPropertyOp37
 70
     1
102
RTVSPropertyOp38
 70
     1
102
RTVSPropertyOp39
 70
     1
102
RTVSPropertyOp40
 70
     1
102
RTVSPropertyOp41
 70
     1
102
RTVSPropertyOp42
 70
     1
102
RTVSPropertyOp43
 70
     1
102
RTVSPropertyOp44
 70
     1
102
RTVSPropertyOp45
 70
     1
102
RTVSPropertyOp46
 70
     1
102
RTVSPropertyOp47
 70
     1
102
RTVSPropertyOp48
 70
     1
102
RTVSPropertyOp49
 70
     1
102
RTVSPropertyOp50
 70
     1
102
RTVSPropertyOp51
 70
     0
102
RTVSPropertyOp52
 70
     0
102
RTVSPropertyOp53
 70
     1
102
RTVSPropertyOp54
 70
     1
102
RTVSPropertyOp55
 70
     1
102
RTVSPropertyOp56
 70
     1
102
RTVSPropertyOp57
 70
     1
102
RTVSPropertyOp58
 70
     1
102
RTVSPropertyOp59
 70
     1
102
RTVSPropertyOp60
 70
     1
102
RTVSPropertyOp61
 70
     1
102
RTVSPropertyOp62
 70
     1
  0
ENDSEC
  0
EOF
