  0
SECTION
  2
HEADER
  9
$ACADVER
  1
AC1015
  9
$ACADMAINTVER
 70
    20
  9
$DWGCODEPAGE
  3
ANSI_1252
  9
$INSBASE
 10
0.0
 20
0.0
 30
0.0
  9
$EXTMIN
 10
-0.0000000000000007
 20
-0.0000000000000024
 30
0.0
  9
$EXTMAX
 10
22.0
 20
17.0
 30
0.0
  9
$LIMMIN
 10
0.0
 20
0.0
  9
$LIMMAX
 10
12.0
 20
9.0
  9
$ORTHOMODE
 70
     0
  9
$REGENMODE
 70
     1
  9
$FILLMODE
 70
     1
  9
$QTEXTMODE
 70
     0
  9
$MIRRTEXT
 70
     1
  9
$LTSCALE
 40
0.5
  9
$ATTMODE
 70
     1
  9
$TEXTSIZE
 40
0.25
  9
$TRACEWID
 40
0.05
  9
$TEXTSTYLE
  7
SIMPLEX
  9
$CLAYER
  8
3
  9
$CELTYPE
  6
BYLAYER
  9
$CECOLOR
 62
   256
  9
$CELTSCALE
 40
1.0
  9
$DISPSILH
 70
     0
  9
$DIMSCALE
 40
2.0
  9
$DIMASZ
 40
0.125
  9
$DIMEXO
 40
0.0625
  9
$DIMDLI
 40
0.375
  9
$DIMRND
 40
0.0
  9
$DIMDLE
 40
0.0
  9
$DIMEXE
 40
0.0625
  9
$DIMTP
 40
0.0
  9
$DIMTM
 40
0.0
  9
$DIMTXT
 40
0.125
  9
$DIMCEN
 40
-0.125
  9
$DIMTSZ
 40
0.0
  9
$DIMTOL
 70
     0
  9
$DIMLIM
 70
     0
  9
$DIMTIH
 70
     1
  9
$DIMTOH
 70
     1
  9
$DIMSE1
 70
     0
  9
$DIMSE2
 70
     0
  9
$DIMTAD
 70
     0
  9
$DIMZIN
 70
     4
  9
$DIMBLK
  1

  9
$DIMASO
 70
     1
  9
$DIMSHO
 70
     0
  9
$DIMPOST
  1

  9
$DIMAPOST
  1

  9
$DIMALT
 70
     0
  9
$DIMALTD
 70
     2
  9
$DIMALTF
 40
25.4
  9
$DIMLFAC
 40
1.0
  9
$DIMTOFL
 70
     0
  9
$DIMTVP
 40
0.0
  9
$DIMTIX
 70
     1
  9
$DIMSOXD
 70
     0
  9
$DIMSAH
 70
     0
  9
$DIMBLK1
  1

  9
$DIMBLK2
  1

  9
$DIMSTYLE
  2
STANDARD
  9
$DIMCLRD
 70
     0
  9
$DIMCLRE
 70
     0
  9
$DIMCLRT
 70
     0
  9
$DIMTFAC
 40
1.0
  9
$DIMGAP
 40
0.09375
  9
$DIMJUST
 70
     0
  9
$DIMSD1
 70
     0
  9
$DIMSD2
 70
     0
  9
$DIMTOLJ
 70
     1
  9
$DIMTZIN
 70
     4
  9
$DIMALTZ
 70
     4
  9
$DIMALTTZ
 70
     4
  9
$DIMUPT
 70
     0
  9
$DIMDEC
 70
     6
  9
$DIMTDEC
 70
     6
  9
$DIMALTU
 70
     5
  9
$DIMALTTD
 70
     2
  9
$DIMTXSTY
  7
SIMPLEX
  9
$DIMAUNIT
 70
     0
  9
$DIMADEC
 70
     0
  9
$DIMALTRND
 40
0.0
  9
$DIMAZIN
 70
     0
  9
$DIMDSEP
 70
    46
  9
$DIMATFIT
 70
     3
  9
$DIMFRAC
 70
     0
  9
$DIMLDRBLK
  1

  9
$DIMLUNIT
 70
     5
  9
$DIMLWD
 70
    -2
  9
$DIMLWE
 70
    -2
  9
$DIMTMOVE
 70
     2
  9
$LUNITS
 70
     5
  9
$LUPREC
 70
     6
  9
$SKETCHINC
 40
0.1
  9
$FILLETRAD
 40
0.0
  9
$AUNITS
 70
     0
  9
$AUPREC
 70
     0
  9
$MENU
  1
ACAD
  9
$ELEVATION
 40
0.0
  9
$PELEVATION
 40
0.0
  9
$THICKNESS
 40
0.0
  9
$LIMCHECK
 70
     0
  9
$CHAMFERA
 40
0.0625
  9
$CHAMFERB
 40
0.0625
  9
$CHAMFERC
 40
0.0
  9
$CHAMFERD
 40
0.0
  9
$SKPOLY
 70
     0
  9
$TDCREATE
 40
2447600.596000695
  9
$TDUCREATE
 40
2447600.762667361
  9
$TDUPDATE
 40
2457155.540185024
  9
$TDUUPDATE
 40
2457155.706851690
  9
$TDINDWG
 40
0.2825003125
  9
$TDUSRTIMER
 40
0.2825003009
  9
$USRTIMER
 70
     1
  9
$ANGBASE
 50
0.0
  9
$ANGDIR
 70
     0
  9
$PDMODE
 70
     0
  9
$PDSIZE
 40
0.0
  9
$PLINEWID
 40
0.0
  9
$SPLFRAME
 70
     0
  9
$SPLINETYPE
 70
     6
  9
$SPLINESEGS
 70
     8
  9
$HANDSEED
  5
D23
  9
$SURFTAB1
 70
     6
  9
$SURFTAB2
 70
     6
  9
$SURFTYPE
 70
     6
  9
$SURFU
 70
     6
  9
$SURFV
 70
     6
  9
$UCSBASE
  2

  9
$UCSNAME
  2

  9
$UCSORG
 10
0.0
 20
0.0
 30
0.0
  9
$UCSXDIR
 10
1.0
 20
0.0
 30
0.0
  9
$UCSYDIR
 10
0.0
 20
1.0
 30
0.0
  9
$UCSORTHOREF
  2

  9
$UCSORTHOVIEW
 70
     0
  9
$UCSORGTOP
 10
0.0
 20
0.0
 30
0.0
  9
$UCSORGBOTTOM
 10
0.0
 20
0.0
 30
0.0
  9
$UCSORGLEFT
 10
0.0
 20
0.0
 30
0.0
  9
$UCSORGRIGHT
 10
0.0
 20
0.0
 30
0.0
  9
$UCSORGFRONT
 10
0.0
 20
0.0
 30
0.0
  9
$UCSORGBACK
 10
0.0
 20
0.0
 30
0.0
  9
$PUCSBASE
  2

  9
$PUCSNAME
  2

  9
$PUCSORG
 10
0.0
 20
0.0
 30
0.0
  9
$PUCSXDIR
 10
1.0
 20
0.0
 30
0.0
  9
$PUCSYDIR
 10
0.0
 20
1.0
 30
0.0
  9
$PUCSORTHOREF
  2

  9
$PUCSORTHOVIEW
 70
     0
  9
$PUCSORGTOP
 10
0.0
 20
0.0
 30
0.0
  9
$PUCSORGBOTTOM
 10
0.0
 20
0.0
 30
0.0
  9
$PUCSORGLEFT
 10
0.0
 20
0.0
 30
0.0
  9
$PUCSORGRIGHT
 10
0.0
 20
0.0
 30
0.0
  9
$PUCSORGFRONT
 10
0.0
 20
0.0
 30
0.0
  9
$PUCSORGBACK
 10
0.0
 20
0.0
 30
0.0
  9
$USERI1
 70
     0
  9
$USERI2
 70
     0
  9
$USERI3
 70
     0
  9
$USERI4
 70
     0
  9
$USERI5
 70
     0
  9
$USERR1
 40
0.0
  9
$USERR2
 40
0.0
  9
$USERR3
 40
0.0
  9
$USERR4
 40
0.0
  9
$USERR5
 40
0.0
  9
$WORLDVIEW
 70
     1
  9
$SHADEDGE
 70
     3
  9
$SHADEDIF
 70
    70
  9
$TILEMODE
 70
     1
  9
$MAXACTVP
 70
    16
  9
$PINSBASE
 10
0.0
 20
0.0
 30
0.0
  9
$PLIMCHECK
 70
     0
  9
$PEXTMIN
 10
1.000000000000000E+20
 20
1.000000000000000E+20
 30
1.000000000000000E+20
  9
$PEXTMAX
 10
-1.000000000000000E+20
 20
-1.000000000000000E+20
 30
-1.000000000000000E+20
  9
$PLIMMIN
 10
0.0
 20
0.0
  9
$PLIMMAX
 10
12.0
 20
9.0
  9
$UNITMODE
 70
     0
  9
$VISRETAIN
 70
     0
  9
$PLINEGEN
 70
     0
  9
$PSLTSCALE
 70
     0
  9
$TREEDEPTH
 70
  3020
  9
$CMLSTYLE
  2
STANDARD
  9
$CMLJUST
 70
     0
  9
$CMLSCALE
 40
1.0
  9
$PROXYGRAPHICS
 70
     1
  9
$MEASUREMENT
 70
     0
  9
$CELWEIGHT
370
    -1
  9
$ENDCAPS
280
     0
  9
$JOINSTYLE
280
     0
  9
$LWDISPLAY
290
     0
  9
$INSUNITS
 70
     0
  9
$HYPERLINKBASE
  1

  9
$STYLESHEET
  1
BLK1500.CTB
  9
$XEDIT
290
     1
  9
$CEPSNTYPE
380
     0
  9
$PSTYLEMODE
290
     1
  9
$FINGERPRINTGUID
  2
{7BEECFC0-927B-11D7-8B45-00A0CCD630B6}
  9
$VERSIONGUID
  2
{363899B2-9E80-4FCB-8773-0306E00D5306}
  9
$EXTNAMES
290
     1
  9
$PSVPSCALE
 40
0.0
  9
$OLESTARTUP
290
     0
  0
ENDSEC
  0
SECTION
  2
CLASSES
  0
CLASS
  1
DICTIONARYVAR
  2
AcDbDictionaryVar
  3
ObjectDBX Classes
 90
        0
280
     0
281
     0
  0
CLASS
  1
ACDBDICTIONARYWDFLT
  2
AcDbDictionaryWithDefault
  3
ObjectDBX Classes
 90
        0
280
     0
281
     0
  0
CLASS
  1
MATERIAL
  2
AcDbMaterial
  3
ObjectDBX Classes
 90
     1153
280
     0
281
     0
  0
CLASS
  1
VISUALSTYLE
  2
AcDbVisualStyle
  3
ObjectDBX Classes
 90
     4095
280
     0
281
     0
  0
CLASS
  1
TABLESTYLE
  2
AcDbTableStyle
  3
ObjectDBX Classes
 90
     4095
280
     0
281
     0
  0
CLASS
  1
SCALE
  2
AcDbScale
  3
ObjectDBX Classes
 90
     1153
280
     0
281
     0
  0
CLASS
  1
MLEADERSTYLE
  2
AcDbMLeaderStyle
  3
ACDB_MLEADERSTYLE_CLASS
 90
     4095
280
     0
281
     0
  0
CLASS
  1
ACDBSECTIONVIEWSTYLE
  2
AcDbSectionViewStyle
  3
ObjectDBX Classes
 90
     1025
280
     0
281
     0
  0
CLASS
  1
ACDBDETAILVIEWSTYLE
  2
AcDbDetailViewStyle
  3
ObjectDBX Classes
 90
     1025
280
     0
281
     0
  0
CLASS
  1
CELLSTYLEMAP
  2
AcDbCellStyleMap
  3
ObjectDBX Classes
 90
     1152
280
     0
281
     0
  0
CLASS
  1
ACDBPLACEHOLDER
  2
AcDbPlaceHolder
  3
ObjectDBX Classes
 90
        0
280
     0
281
     0
  0
CLASS
  1
LAYOUT
  2
AcDbLayout
  3
ObjectDBX Classes
 90
        0
280
     0
281
     0
  0
ENDSEC
  0
SECTION
  2
TABLES
  0
TABLE
  2
VPORT
  5
8
330
0
100
AcDbSymbolTable
 70
     1
  0
VPORT
  5
B9D
330
8
100
AcDbSymbolTableRecord
100
AcDbViewportTableRecord
  2
*Active
 70
     0
 10
0.0
 20
0.0
 11
1.0
 21
1.0
 12
11.0000001536776
 22
9.126754700191789
 13
0.0
 23
0.0
 14
1.0
 24
1.0
 15
0.0
 25
0.0
 16
0.0
 26
0.0
 36
1.0
 17
0.0
 27
0.0
 37
0.0
 40
17.7478127275087
 41
2.080545229244113
 42
50.0
 43
0.0
 44
0.0
 50
0.0
 51
0.0
 71
     0
 72
   250
 73
     1
 74
     0
 75
     0
 76
     0
 77
     0
 78
     0
281
     0
 65
     1
110
0.0
120
0.0
130
0.0
111
1.0
121
0.0
131
0.0
112
0.0
122
1.0
132
0.0
 79
     0
146
0.0
1001
ACAD_NAV_VCDISPLAY
1070
     3
  0
ENDTAB
  0
TABLE
  2
LTYPE
  5
5
330
0
100
AcDbSymbolTable
 70
     1
  0
LTYPE
  5
11
330
5
100
AcDbSymbolTableRecord
100
AcDbLinetypeTableRecord
  2
BYBLOCK
 70
     0
  3

 72
    65
 73
     0
 40
0.0
  0
LTYPE
  5
12
330
5
100
AcDbSymbolTableRecord
100
AcDbLinetypeTableRecord
  2
BYLAYER
 70
     0
  3

 72
    65
 73
     0
 40
0.0
  0
LTYPE
  5
13
330
5
100
AcDbSymbolTableRecord
100
AcDbLinetypeTableRecord
  2
CONTINUOUS
 70
     0
  3
Solid line
 72
    65
 73
     0
 40
0.0
  0
ENDTAB
  0
TABLE
  2
LAYER
  5
2
102
{ACAD_XDICTIONARY
360
C11
102
}
330
0
100
AcDbSymbolTable
 70
     5
  0
LAYER
  5
E
102
{ACAD_XDICTIONARY
360
C06
102
}
330
2
100
AcDbSymbolTableRecord
100
AcDbLayerTableRecord
  2
0
 70
     0
 62
     7
  6
CONTINUOUS
370
    -3
390
B85
  0
LAYER
  5
2D
102
{ACAD_XDICTIONARY
360
C08
102
}
330
2
100
AcDbSymbolTableRecord
100
AcDbLayerTableRecord
  2
2
 70
     0
 62
     2
  6
CONTINUOUS
370
    -3
390
B85
  0
LAYER
  5
2E
102
{ACAD_XDICTIONARY
360
C0A
102
}
330
2
100
AcDbSymbolTableRecord
100
AcDbLayerTableRecord
  2
3
 70
     0
 62
     3
  6
CONTINUOUS
370
    -3
390
B85
  0
LAYER
  5
2F
102
{ACAD_XDICTIONARY
360
C0C
102
}
330
2
100
AcDbSymbolTableRecord
100
AcDbLayerTableRecord
  2
4
 70
     0
 62
     4
  6
CONTINUOUS
370
    -3
390
B85
  0
LAYER
  5
30
330
2
100
AcDbSymbolTableRecord
100
AcDbLayerTableRecord
  2
DEFPOINTS
 70
     0
 62
     7
  6
CONTINUOUS
290
     0
370
    -3
390
B85
  0
ENDTAB
  0
TABLE
  2
STYLE
  5
3
330
0
100
AcDbSymbolTable
 70
     4
  0
STYLE
  5
F
330
3
100
AcDbSymbolTableRecord
100
AcDbTextStyleTableRecord
  2
STANDARD
 70
     0
 40
0.0
 41
1.0
 50
0.0
 71
     0
 42
0.2
  3
txt
  4

  0
STYLE
  5
24
330
3
100
AcDbSymbolTableRecord
100
AcDbTextStyleTableRecord
  2
SIMPLEX
 70
     0
 40
0.0
 41
1.0
 50
0.0
 71
     0
 42
0.25
  3
SIMPLEX.shx
  4

  0
STYLE
  5
25
330
3
100
AcDbSymbolTableRecord
100
AcDbTextStyleTableRecord
  2
MED
 70
     0
 40
0.125
 41
1.0
 50
0.0
 71
     0
 42
0.078
  3
ROMANS
  4

  0
STYLE
  5
26
330
3
100
AcDbSymbolTableRecord
100
AcDbTextStyleTableRecord
  2
T
 70
     0
 40
0.0
 41
1.0
 50
0.0
 71
     0
 42
1.0
  3
ROMI____.PFB
  4

  0
ENDTAB
  0
TABLE
  2
VIEW
  5
6
330
0
100
AcDbSymbolTable
 70
     0
  0
ENDTAB
  0
TABLE
  2
UCS
  5
7
330
0
100
AcDbSymbolTable
 70
     0
  0
ENDTAB
  0
TABLE
  2
APPID
  5
9
330
0
100
AcDbSymbolTable
 70
     4
  0
APPID
  5
10
330
9
100
AcDbSymbolTableRecord
100
AcDbRegAppTableRecord
  2
ACAD
 70
     0
  0
APPID
  5
BFF
330
9
100
AcDbSymbolTableRecord
100
AcDbRegAppTableRecord
  2
ACAD_EXEMPT_FROM_CAD_STANDARDS
 70
     0
  0
APPID
  5
C17
330
9
100
AcDbSymbolTableRecord
100
AcDbRegAppTableRecord
  2
ACAD_NAV_VCDISPLAY
 70
     0
  0
APPID
  5
D1E
330
9
100
AcDbSymbolTableRecord
100
AcDbRegAppTableRecord
  2
ACAD_MLEADERVER
 70
     0
  0
ENDTAB
  0
TABLE
  2
DIMSTYLE
  5
A
330
0
100
AcDbSymbolTable
 70
     1
100
AcDbDimStyleTable
 71
     1
340
B80
  0
DIMSTYLE
105
B80
102
{ACAD_REACTORS
330
BF1
102
}
330
A
100
AcDbSymbolTableRecord
100
AcDbDimStyleTableRecord
  2
STANDARD
 70
     0
340
F
  0
ENDTAB
  0
TABLE
  2
BLOCK_RECORD
  5
1
330
0
100
AcDbSymbolTable
 70
     5
  0
BLOCK_RECORD
  5
17
330
1
100
AcDbSymbolTableRecord
100
AcDbBlockTableRecord
  2
*MODEL_SPACE
340
B88
  0
BLOCK_RECORD
  5
14
330
1
100
AcDbSymbolTableRecord
100
AcDbBlockTableRecord
  2
*PAPER_SPACE
340
B89
  0
BLOCK_RECORD
  5
1C
330
1
100
AcDbSymbolTableRecord
100
AcDbBlockTableRecord
  2
*D0
340
0
  0
BLOCK_RECORD
  5
1D
330
1
100
AcDbSymbolTableRecord
100
AcDbBlockTableRecord
  2
*D1
340
0
  0
BLOCK_RECORD
  5
22
330
1
100
AcDbSymbolTableRecord
100
AcDbBlockTableRecord
  2
*D2
340
0
  0
BLOCK_RECORD
  5
23
330
1
100
AcDbSymbolTableRecord
100
AcDbBlockTableRecord
  2
*D3
340
0
  0
BLOCK_RECORD
  5
BF2
330
1
100
AcDbSymbolTableRecord
100
AcDbBlockTableRecord
  2
*D4
340
0
  0
ENDTAB
  0
ENDSEC
  0
SECTION
  2
BLOCKS
  0
BLOCK
  5
33
330
17
100
AcDbEntity
  8
0
100
AcDbBlockBegin
  2
*MODEL_SPACE
 70
     0
 10
0.0
 20
0.0
 30
0.0
  3
*MODEL_SPACE
  1

  0
ENDBLK
  5
34
330
17
100
AcDbEntity
  8
0
100
AcDbBlockEnd
  0
BLOCK
  5
31
330
14
100
AcDbEntity
 67
     1
  8
0
100
AcDbBlockBegin
  2
*PAPER_SPACE
 70
     0
 10
0.0
 20
0.0
 30
0.0
  3
*PAPER_SPACE
  1

  0
ENDBLK
  5
32
330
14
100
AcDbEntity
 67
     1
  8
0
100
AcDbBlockEnd
  0
BLOCK
  5
37
330
1C
100
AcDbEntity
  8
0
100
AcDbBlockBegin
  2
*D0
 70
     1
 10
0.0
 20
0.0
 30
0.0
  3
*D0
  1

  0
LINE
  5
38
330
1C
100
AcDbEntity
  8
0
  6
ByBlock
 62
     0
100
AcDbLine
 10
7.104909403362138
 20
9.445461592342855
 30
0.0
 11
7.104909403362138
 21
10.99258530173664
 31
0.0
  0
LINE
  5
39
330
1C
100
AcDbEntity
  8
0
  6
ByBlock
 62
     0
100
AcDbLine
 10
12.60490940336214
 20
8.977323775211365
 30
0.0
 11
12.60490940336214
 21
10.99258530173664
 31
0.0
  0
LINE
  5
3A
330
1C
100
AcDbEntity
  8
0
  6
ByBlock
 62
     0
100
AcDbLine
 10
7.354909403362138
 20
10.86758530173664
 30
0.0
 11
9.133242736695473
 21
10.86758530173664
 31
0.0
  0
LINE
  5
3B
330
1C
100
AcDbEntity
  8
0
  6
ByBlock
 62
     0
100
AcDbLine
 10
12.35490940336214
 20
10.86758530173664
 30
0.0
 11
10.5765760700288
 21
10.86758530173664
 31
0.0
  0
SOLID
  5
3C
330
1C
100
AcDbEntity
  8
0
  6
ByBlock
 62
     0
100
AcDbTrace
 10
7.354909403362138
 20
10.9092519684033
 30
0.0
 11
7.354909403362138
 21
10.82591863506997
 31
0.0
 12
7.104909403362138
 22
10.86758530173664
 32
0.0
 13
7.104909403362138
 23
10.86758530173664
 33
0.0
  0
SOLID
  5
3D
330
1C
100
AcDbEntity
  8
0
  6
ByBlock
 62
     0
100
AcDbTrace
 10
12.35490940336214
 20
10.9092519684033
 30
0.0
 11
12.35490940336214
 21
10.82591863506997
 31
0.0
 12
12.60490940336214
 22
10.86758530173664
 32
0.0
 13
12.60490940336214
 23
10.86758530173664
 33
0.0
  0
TEXT
  5
3E
330
1C
100
AcDbEntity
  8
0
  6
ByBlock
 62
     0
100
AcDbText
 10
9.313242736695475
 20
10.74258530173664
 30
0.0
 40
0.25
  1
5 1/2
  7
SIMPLEX
 72
     1
 11
9.854909403362141
 21
10.86758530173664
 31
0.0
100
AcDbText
 73
     2
  0
POINT
  5
40
330
1C
100
AcDbEntity
  8
DEFPOINTS
  6
ByBlock
 62
     0
100
AcDbPoint
 10
7.104909403362138
 20
9.320461592342855
 30
0.0
  0
POINT
  5
41
330
1C
100
AcDbEntity
  8
DEFPOINTS
  6
ByBlock
 62
     0
100
AcDbPoint
 10
12.60490940336214
 20
8.852323775211365
 30
0.0
  0
POINT
  5
42
330
1C
100
AcDbEntity
  8
DEFPOINTS
  6
ByBlock
 62
     0
100
AcDbPoint
 10
12.60490940336214
 20
10.86758530173664
 30
0.0
  0
ENDBLK
  5
43
330
1C
100
AcDbEntity
  8
0
100
AcDbBlockEnd
  0
BLOCK
  5
44
330
1D
100
AcDbEntity
  8
0
100
AcDbBlockBegin
  2
*D1
 70
     1
 10
0.0
 20
0.0
 30
0.0
  3
*D1
  1

  0
LINE
  5
45
330
1D
100
AcDbEntity
  8
0
  6
ByBlock
 62
     0
100
AcDbLine
 10
15.79812151017821
 20
8.507595169869798
 30
0.0
 11
15.79812151017821
 21
10.12375654624624
 31
0.0
  0
LINE
  5
46
330
1D
100
AcDbEntity
  8
0
  6
ByBlock
 62
     0
100
AcDbLine
 10
14.7981215101782
 20
8.507595169869796
 30
0.0
 11
14.7981215101782
 21
10.12375654624624
 31
0.0
  0
LINE
  5
47
330
1D
100
AcDbEntity
  8
0
  6
ByBlock
 62
     0
100
AcDbLine
 10
16.04812151017821
 20
9.998756546246239
 30
0.0
 11
16.29812151017821
 21
9.998756546246239
 31
0.0
  0
LINE
  5
48
330
1D
100
AcDbEntity
  8
0
  6
ByBlock
 62
     0
100
AcDbLine
 10
14.5481215101782
 20
9.998756546246239
 30
0.0
 11
14.2981215101782
 21
9.998756546246239
 31
0.0
  0
SOLID
  5
49
330
1D
100
AcDbEntity
  8
0
  6
ByBlock
 62
     0
100
AcDbTrace
 10
16.04812151017821
 20
10.0404232129129
 30
0.0
 11
16.04812151017821
 21
9.957089879579573
 31
0.0
 12
15.79812151017821
 22
9.998756546246239
 32
0.0
 13
15.79812151017821
 23
9.998756546246239
 33
0.0
  0
SOLID
  5
4A
330
1D
100
AcDbEntity
  8
0
  6
ByBlock
 62
     0
100
AcDbTrace
 10
14.5481215101782
 20
10.0404232129129
 30
0.0
 11
14.5481215101782
 21
9.957089879579573
 31
0.0
 12
14.7981215101782
 22
9.998756546246239
 32
0.0
 13
14.7981215101782
 23
9.998756546246239
 33
0.0
  0
TEXT
  5
4B
330
1D
100
AcDbEntity
  8
0
  6
ByBlock
 62
     0
100
AcDbText
 10
15.2683596054163
 20
9.873756546246239
 30
0.0
 40
0.25
  1
1
  7
SIMPLEX
 72
     1
 11
15.29812151017821
 21
9.998756546246239
 31
0.0
100
AcDbText
 73
     2
  0
POINT
  5
4C
330
1D
100
AcDbEntity
  8
DEFPOINTS
  6
ByBlock
 62
     0
100
AcDbPoint
 10
15.79812151017821
 20
8.382595169869798
 30
0.0
  0
POINT
  5
4D
330
1D
100
AcDbEntity
  8
DEFPOINTS
  6
ByBlock
 62
     0
100
AcDbPoint
 10
14.7981215101782
 20
8.382595169869796
 30
0.0
  0
POINT
  5
4E
330
1D
100
AcDbEntity
  8
DEFPOINTS
  6
ByBlock
 62
     0
100
AcDbPoint
 10
14.7981215101782
 20
9.998756546246239
 30
0.0
  0
ENDBLK
  5
4F
330
1D
100
AcDbEntity
  8
0
100
AcDbBlockEnd
  0
BLOCK
  5
50
330
22
100
AcDbEntity
  8
0
100
AcDbBlockBegin
  2
*D2
 70
     1
 10
0.0
 20
0.0
 30
0.0
  3
*D2
  1

  0
LINE
  5
51
330
22
100
AcDbEntity
  8
0
  6
ByBlock
 62
     0
100
AcDbLine
 10
7.042264634154737
 20
8.53470502080289
 30
0.0
 11
5.567698645395971
 21
8.53470502080289
 31
0.0
  0
LINE
  5
52
330
22
100
AcDbEntity
  8
0
  6
ByBlock
 62
     0
100
AcDbLine
 10
6.979909403362138
 20
6.070956513811474
 30
0.0
 11
5.567698645395971
 21
6.070956513811474
 31
0.0
  0
LINE
  5
53
330
22
100
AcDbEntity
  8
0
  6
ByBlock
 62
     0
100
AcDbLine
 10
5.692698645395971
 20
8.28470502080289
 30
0.0
 11
5.692698645395971
 21
7.615330767307182
 31
0.0
  0
LINE
  5
54
330
22
100
AcDbEntity
  8
0
  6
ByBlock
 62
     0
100
AcDbLine
 10
5.692698645395971
 20
6.320956513811474
 30
0.0
 11
5.692698645395971
 21
6.990330767307182
 31
0.0
  0
SOLID
  5
55
330
22
100
AcDbEntity
  8
0
  6
ByBlock
 62
     0
100
AcDbTrace
 10
5.651031978729304
 20
8.28470502080289
 30
0.0
 11
5.734365312062637
 21
8.28470502080289
 31
0.0
 12
5.692698645395971
 22
8.53470502080289
 32
0.0
 13
5.692698645395971
 23
8.53470502080289
 33
0.0
  0
SOLID
  5
56
330
22
100
AcDbEntity
  8
0
  6
ByBlock
 62
     0
100
AcDbTrace
 10
5.651031978729304
 20
6.320956513811474
 30
0.0
 11
5.734365312062637
 21
6.320956513811474
 31
0.0
 12
5.692698645395971
 22
6.070956513811474
 32
0.0
 13
5.692698645395971
 23
6.070956513811474
 33
0.0
  0
TEXT
  5
57
330
22
100
AcDbEntity
  8
0
  6
ByBlock
 62
     0
100
AcDbText
 10
4.912936740634067
 20
7.177830767307182
 30
0.0
 40
0.25
  1
2 15/32
  7
SIMPLEX
 72
     1
 11
5.692698645395971
 21
7.302830767307182
 31
0.0
100
AcDbText
 73
     2
  0
POINT
  5
58
330
22
100
AcDbEntity
  8
DEFPOINTS
  6
ByBlock
 62
     0
100
AcDbPoint
 10
7.167264634154737
 20
8.53470502080289
 30
0.0
  0
POINT
  5
59
330
22
100
AcDbEntity
  8
DEFPOINTS
  6
ByBlock
 62
     0
100
AcDbPoint
 10
7.104909403362138
 20
6.070956513811474
 30
0.0
  0
POINT
  5
5A
330
22
100
AcDbEntity
  8
DEFPOINTS
  6
ByBlock
 62
     0
100
AcDbPoint
 10
5.692698645395971
 20
6.070956513811474
 30
0.0
  0
ENDBLK
  5
5B
330
22
100
AcDbEntity
  8
0
100
AcDbBlockEnd
  0
BLOCK
  5
5C
330
23
100
AcDbEntity
  8
0
100
AcDbBlockBegin
  2
*D3
 70
     1
 10
0.0
 20
0.0
 30
0.0
  3
*D3
  1

  0
LINE
  5
5D
330
23
100
AcDbEntity
  8
0
  6
ByBlock
 62
     0
100
AcDbLine
 10
12.72990940336214
 20
6.070956513811474
 30
0.0
 11
14.09896123255283
 21
6.070956513811474
 31
0.0
  0
LINE
  5
5E
330
23
100
AcDbEntity
  8
0
  6
ByBlock
 62
     0
100
AcDbLine
 10
12.72990940336214
 20
8.012862141825646
 30
0.0
 11
14.09896123255283
 21
8.012862141825646
 31
0.0
  0
LINE
  5
5F
330
23
100
AcDbEntity
  8
0
  6
ByBlock
 62
     0
100
AcDbLine
 10
13.97396123255283
 20
6.320956513811474
 30
0.0
 11
13.97396123255283
 21
6.729409327818562
 31
0.0
  0
LINE
  5
60
330
23
100
AcDbEntity
  8
0
  6
ByBlock
 62
     0
100
AcDbLine
 10
13.97396123255283
 20
7.762862141825646
 30
0.0
 11
13.97396123255283
 21
7.354409327818562
 31
0.0
  0
SOLID
  5
61
330
23
100
AcDbEntity
  8
0
  6
ByBlock
 62
     0
100
AcDbTrace
 10
13.93229456588616
 20
6.320956513811474
 30
0.0
 11
14.01562789921949
 21
6.320956513811474
 31
0.0
 12
13.97396123255283
 22
6.070956513811474
 32
0.0
 13
13.97396123255283
 23
6.070956513811474
 33
0.0
  0
SOLID
  5
62
330
23
100
AcDbEntity
  8
0
  6
ByBlock
 62
     0
100
AcDbTrace
 10
13.93229456588616
 20
7.762862141825646
 30
0.0
 11
14.01562789921949
 21
7.762862141825646
 31
0.0
 12
13.97396123255283
 22
8.012862141825646
 32
0.0
 13
13.97396123255283
 23
8.012862141825646
 33
0.0
  0
TEXT
  5
63
330
23
100
AcDbEntity
  8
0
  6
ByBlock
 62
     0
100
AcDbText
 10
13.24777075636235
 20
6.916909327818562
 30
0.0
 40
0.25
  1
1 15/16
  7
SIMPLEX
 72
     1
 11
13.97396123255283
 21
7.041909327818562
 31
0.0
100
AcDbText
 73
     2
  0
POINT
  5
64
330
23
100
AcDbEntity
  8
DEFPOINTS
  6
ByBlock
 62
     0
100
AcDbPoint
 10
12.60490940336214
 20
6.070956513811474
 30
0.0
  0
POINT
  5
65
330
23
100
AcDbEntity
  8
DEFPOINTS
  6
ByBlock
 62
     0
100
AcDbPoint
 10
12.60490940336214
 20
8.012862141825646
 30
0.0
  0
POINT
  5
66
330
23
100
AcDbEntity
  8
DEFPOINTS
  6
ByBlock
 62
     0
100
AcDbPoint
 10
13.97396123255283
 20
8.012862141825646
 30
0.0
  0
ENDBLK
  5
67
330
23
100
AcDbEntity
  8
0
100
AcDbBlockEnd
  0
BLOCK
  5
BF3
330
BF2
100
AcDbEntity
  8
0
100
AcDbBlockBegin
  2
*D4
 70
     1
 10
0.0
 20
0.0
 30
0.0
  3
*D4
  1

  0
LINE
  5
BF5
330
BF2
100
AcDbEntity
  8
3
 62
     0
370
    -2
100
AcDbLine
 10
7.104909403362138
 20
11.68462875576268
 30
0.0
 11
7.104909403362138
 21
10.57722251394009
 31
0.0
  0
LINE
  5
BF6
330
BF2
100
AcDbEntity
  8
3
 62
     0
370
    -2
100
AcDbLine
 10
12.60490940336214
 20
11.68462875576268
 30
0.0
 11
12.60490940336214
 21
10.57722251394009
 31
0.0
  0
LINE
  5
BF7
330
BF2
100
AcDbEntity
  8
3
 62
     0
370
    -2
100
AcDbLine
 10
7.354909403362138
 20
10.70222251394009
 30
0.0
 11
9.465028450981185
 21
10.70222251394009
 31
0.0
  0
LINE
  5
BF8
330
BF2
100
AcDbEntity
  8
3
 62
     0
370
    -2
100
AcDbLine
 10
12.35490940336214
 20
10.70222251394009
 30
0.0
 11
10.24479035574309
 21
10.70222251394009
 31
0.0
  0
SOLID
  5
BF9
330
BF2
100
AcDbEntity
  8
3
 62
     0
100
AcDbTrace
 10
7.354909403362138
 20
10.74388918060676
 30
0.0
 11
7.354909403362138
 21
10.66055584727342
 31
0.0
 12
7.104909403362138
 22
10.70222251394009
 32
0.0
 13
7.104909403362138
 23
10.70222251394009
 33
0.0
  0
SOLID
  5
BFA
330
BF2
100
AcDbEntity
  8
3
 62
     0
100
AcDbTrace
 10
12.35490940336214
 20
10.74388918060676
 30
0.0
 11
12.35490940336214
 21
10.66055584727342
 31
0.0
 12
12.60490940336214
 22
10.70222251394009
 32
0.0
 13
12.60490940336214
 23
10.70222251394009
 33
0.0
  0
MTEXT
  5
BFB
330
BF2
100
AcDbEntity
  8
3
 62
     0
100
AcDbMText
 10
9.854909403362141
 20
10.70222251394009
 30
0.0
 40
0.25
 41
0.0
 71
     5
 72
     1
  1
\A1;5{\H1.000000x;\S1/2;}
  7
SIMPLEX
 73
     1
 44
1.0
1001
ACAD
1000
MTEXTBEGIN
1070
    73
1070
     1
1070
    44
1040
1.0
1070
    74
1070
     0
1000
MTEXTEND
  0
POINT
  5
BFC
330
BF2
100
AcDbEntity
  8
DEFPOINTS
 62
     0
100
AcDbPoint
 10
7.104909403362138
 20
11.80962875576268
 30
0.0
  0
POINT
  5
BFD
330
BF2
100
AcDbEntity
  8
DEFPOINTS
 62
     0
100
AcDbPoint
 10
12.60490940336214
 20
11.80962875576268
 30
0.0
  0
POINT
  5
BFE
330
BF2
100
AcDbEntity
  8
DEFPOINTS
 62
     0
100
AcDbPoint
 10
12.60490940336214
 20
10.70222251394009
 30
0.0
  0
ENDBLK
  5
BF4
330
BF2
100
AcDbEntity
  8
0
100
AcDbBlockEnd
  0
ENDSEC
  0
SECTION
  2
ENTITIES
  0
LINE
  5
68
330
17
100
AcDbEntity
  8
0
100
AcDbLine
 10
7.104909403362138
 20
9.174524141843136
 30
0.0
 11
7.104909403362138
 21
6.769024141843138
 31
0.0
  0
LINE
  5
69
330
17
100
AcDbEntity
  8
0
100
AcDbLine
 10
7.104909403362138
 20
6.769024141843138
 30
0.0
 11
12.60490940336214
 21
6.769024141843138
 31
0.0
  0
LINE
  5
6A
330
17
100
AcDbEntity
  8
0
100
AcDbLine
 10
12.60490940336214
 20
8.706386324711646
 30
0.0
 11
12.60490940336214
 21
6.769024141843138
 31
0.0
  0
LINE
  5
6B
330
17
100
AcDbEntity
  8
0
100
AcDbLine
 10
12.60490940336214
 20
8.550024141843136
 30
0.0
 11
7.104909403362127
 21
8.925024141843136
 31
0.0
  0
LINE
  5
6C
330
17
100
AcDbEntity
  8
0
100
AcDbLine
 10
12.60490940336214
 20
8.706386324711646
 30
0.0
 11
7.166377135485233
 21
9.077195342975979
 31
0.0
  0
LINE
  5
6D
330
17
100
AcDbEntity
  8
0
100
AcDbLine
 10
11.86720920036068
 20
8.912321882956875
 30
0.0
 11
7.167264634154737
 21
9.232772648834552
 31
0.0
  0
LINE
  5
6E
330
17
100
AcDbEntity
  8
0
100
AcDbLine
 10
7.167264634154737
 20
9.232772648834552
 30
0.0
 11
7.104909403362138
 21
9.174524141843136
 31
0.0
  0
LINE
  5
6F
330
17
100
AcDbEntity
  8
0
100
AcDbLine
 10
11.86720920036068
 20
8.912321882956875
 30
0.0
 11
12.60490940336214
 21
8.706386324711646
 31
0.0
  0
LINE
  5
70
330
17
100
AcDbEntity
  8
0
100
AcDbLine
 10
7.104909403362138
 20
11.80962875576268
 30
0.0
 11
7.104909403362138
 21
12.68462875576268
 31
0.0
  0
LINE
  5
71
330
17
100
AcDbEntity
  8
0
100
AcDbLine
 10
7.167409403362138
 20
12.74712875576268
 30
0.0
 11
12.54240940336214
 21
12.74712875576268
 31
0.0
  0
LINE
  5
72
330
17
100
AcDbEntity
  8
0
100
AcDbLine
 10
12.60490940336214
 20
11.80962875576268
 30
0.0
 11
12.60490940336214
 21
12.68462875576268
 31
0.0
  0
LINE
  5
73
330
17
100
AcDbEntity
  8
0
100
AcDbLine
 10
7.167409403362138
 20
11.74712875576267
 30
0.0
 11
12.54240940336214
 21
11.74712875576267
 31
0.0
  0
LINE
  5
74
330
17
100
AcDbEntity
  8
0
100
AcDbLine
 10
15.94865597166099
 20
9.080662797901457
 30
0.0
 11
15.948655971661
 21
6.769024141843138
 31
0.0
  0
LINE
  5
75
330
17
100
AcDbEntity
  8
0
100
AcDbLine
 10
16.948655971661
 20
9.080662797901457
 30
0.0
 11
16.948655971661
 21
6.769024141843138
 31
0.0
  0
LINE
  5
76
330
17
100
AcDbEntity
  8
0
100
AcDbLine
 10
15.948655971661
 20
8.550024141843136
 30
0.0
 11
16.94865597166099
 21
8.550024141843136
 31
0.0
  0
LINE
  5
77
330
17
100
AcDbEntity
  8
0
100
AcDbLine
 10
15.948655971661
 20
8.706386324711646
 30
0.0
 11
16.948655971661
 21
8.706386324711646
 31
0.0
  0
ARC
  5
78
330
17
100
AcDbEntity
  8
0
100
AcDbCircle
 10
16.448655971661
 20
8.202368107510352
 30
0.0
 40
0.7099537754465232
100
AcDbArc
 50
45.22930426328934
 51
134.7706957367106
  0
ARC
  5
79
330
17
100
AcDbEntity
  8
0
100
AcDbCircle
 10
12.53644836484156
 20
11.99872079800673
 30
0.0
 40
0.75153269059153
100
AcDbArc
 50
95.22661762539243
 51
143.8443175578196
  0
ARC
  5
7A
330
17
100
AcDbEntity
  8
0
100
AcDbCircle
 10
12.53644836484156
 20
12.49553671351862
 30
0.0
 40
0.75153269059153
100
AcDbArc
 50
216.1556824421798
 51
264.7733823746106
  0
ARC
  5
7B
330
17
100
AcDbEntity
  8
0
100
AcDbCircle
 10
12.12853152071621
 20
12.27093431365407
 30
0.0
 40
0.2624043820185125
100
AcDbArc
 50
139.2817802224705
 51
185.2050804496902
  0
ARC
  5
7C
330
17
100
AcDbEntity
  8
0
100
AcDbCircle
 10
12.12853152071621
 20
12.22332319787128
 30
0.0
 40
0.2624043820185125
100
AcDbArc
 50
174.7949195503097
 51
220.7182197775278
  0
ARC
  5
7D
330
17
100
AcDbEntity
  8
0
100
AcDbCircle
 10
16.448655971661
 20
8.334943201644334
 30
0.0
 40
0.8978294471902199
100
AcDbArc
 50
56.15841164148861
 51
123.8415883585115
  0
LINE
  5
7E
330
17
100
AcDbEntity
  8
0
100
AcDbLine
 10
7.167409403362138
 20
12.74712875576268
 30
0.0
 11
7.104909403362138
 21
12.68462875576268
 31
0.0
  0
LINE
  5
7F
330
17
100
AcDbEntity
  8
0
100
AcDbLine
 10
7.104909403362138
 20
11.80962875576268
 30
0.0
 11
7.167409403362138
 21
11.74712875576267
 31
0.0
  0
LINE
  5
80
330
17
100
AcDbEntity
  8
0
100
AcDbLine
 10
12.54240940336214
 20
11.74712875576267
 30
0.0
 11
12.60490940336214
 21
11.80962875576268
 31
0.0
  0
LINE
  5
81
330
17
100
AcDbEntity
  8
0
100
AcDbLine
 10
12.60490940336214
 20
12.68462875576268
 30
0.0
 11
12.54240940336214
 21
12.74712875576268
 31
0.0
  0
LINE
  5
82
330
17
100
AcDbEntity
  8
0
100
AcDbLine
 10
15.948655971661
 20
6.769024141843138
 30
0.0
 11
16.948655971661
 21
6.769024141843138
 31
0.0
  0
LINE
  5
83
330
17
100
AcDbEntity
  8
0
100
AcDbLine
 10
7.167264634154737
 20
9.232772648834552
 30
0.0
 11
7.167264634154737
 21
9.078268390465156
 31
0.0
  0
ARC
  5
84
330
17
100
AcDbEntity
  8
0
100
AcDbCircle
 10
7.377661332728894
 20
8.903349447600483
 30
0.0
 40
0.2736117821728424
100
AcDbArc
 50
140.5522486523181
 51
175.4564418635661
  0
LINE
  5
85
330
17
100
AcDbEntity
  8
0
100
AcDbLine
 10
10.01185508099068
 20
3.163045964277042
 30
0.0
 11
12.04381483455097
 21
3.163045964277042
 31
0.0
  0
LINE
  5
86
330
17
100
AcDbEntity
  8
0
100
AcDbLine
 10
10.01185508099068
 20
3.39750285891858
 30
0.0
 11
12.04381483455097
 21
3.39750285891858
 31
0.0
  0
TEXT
  5
87
330
17
100
AcDbEntity
  8
3
100
AcDbText
 10
10.46172537462251
 20
2.975094398511649
 30
0.0
 40
0.1236393780336343
  1
TOLERANCES
  7
SIMPLEX
 72
     1
 11
11.03576534406439
 21
2.975094398511649
 31
0.0
100
AcDbText
  0
TEXT
  5
88
330
17
100
AcDbEntity
  8
3
100
AcDbText
 10
10.52354506363933
 20
2.782974106692662
 30
0.0
 40
0.1236393780336343
  1
.XX %%P .010
  7
SIMPLEX
 72
     1
 11
11.03576534406439
 21
2.782974106692662
 31
0.0
100
AcDbText
  0
TEXT
  5
89
330
17
100
AcDbEntity
  8
3
100
AcDbText
 10
10.37929912260009
 20
2.571020887206401
 30
0.0
 40
0.1236393780336343
  1
.XXX %%P .005 
  7
SIMPLEX
 72
     1
 11
11.03576534406439
 21
2.571020887206401
 31
0.0
100
AcDbText
  0
TEXT
  5
8A
330
17
100
AcDbEntity
  8
3
100
AcDbText
 10
10.07299637918419
 20
3.234021522969549
 30
0.0
 40
0.0990742219853884
  1
DIMENSIONS ARE IN INCHES
 41
0.9163641132346503
  7
SIMPLEX
 72
     5
 11
11.97954567223931
 21
3.234021522969549
 31
0.0
100
AcDbText
  0
TEXT
  5
8B
330
17
100
AcDbEntity
  8
3
100
AcDbText
 10
10.07299637918419
 20
3.474489422495888
 30
0.0
 40
0.0990742219853884
  1
UNLESS OTHERWISE SPECIFIED
 41
0.843667168969689
  7
SIMPLEX
 72
     5
 11
11.97954567223931
 21
3.474489422495888
 31
0.0
100
AcDbText
  0
LINE
  5
8C
330
17
100
AcDbEntity
  8
0
100
AcDbLine
 10
10.01185508099068
 20
1.88146085791295
 30
0.0
 11
12.04381483455097
 21
1.88146085791295
 31
0.0
  0
TEXT
  5
8D
330
17
100
AcDbEntity
  8
3
100
AcDbText
 10
10.30864804943802
 20
2.147114448233963
 30
0.0
 40
0.1236393780336343
  1
ANGLES %%P 1/2%%D
  7
SIMPLEX
 72
     1
 11
11.03576534406439
 21
2.147114448233963
 31
0.0
100
AcDbText
  0
TEXT
  5
8E
330
17
100
AcDbEntity
  8
3
100
AcDbText
 10
10.36458014902466
 20
1.935161228747704
 30
0.0
 40
0.1236393780336343
  1
HOLES %%P .005
  7
SIMPLEX
 72
     1
 11
11.03576534406439
 21
1.935161228747704
 31
0.0
100
AcDbText
  0
TEXT
  5
8F
330
17
100
AcDbEntity
  8
3
100
AcDbText
 10
10.54590177889654
 20
1.756030017147541
 30
0.0
 40
0.0840747770628713
  1
DO NOT SCALE
  7
SIMPLEX
 72
     1
 11
11.01832195477363
 21
1.756030017147541
 31
0.0
100
AcDbText
  0
TEXT
  5
90
330
17
100
AcDbEntity
  8
3
100
AcDbText
 10
10.47383768427122
 20
1.636244247895384
 30
0.0
 40
0.0840747770628713
  1
READ ALL NOTES
  7
SIMPLEX
 72
     1
 11
11.01832195477363
 21
1.636244247895384
 31
0.0
100
AcDbText
  0
TEXT
  5
91
330
17
100
AcDbEntity
  8
3
100
AcDbText
 10
10.12907657181774
 20
2.359067667720225
 30
0.0
 40
0.1236393780336343
  1
FRACTIONS %%P 1/32
  7
SIMPLEX
 72
     1
 11
11.03576534406439
 21
2.359067667720225
 31
0.0
100
AcDbText
  0
LINE
  5
92
330
17
100
AcDbEntity
  8
0
100
AcDbLine
 10
10.01185508099068
 20
3.632001399999916
 30
0.0
 11
20.3
 21
3.632001399999916
 31
0.0
  0
LINE
  5
94
330
17
100
AcDbEntity
  8
4
100
AcDbLine
 10
20.3
 20
1.6
 30
0.0
 11
1.700000000000005
 21
1.600000000000003
 31
0.0
  0
LINE
  5
95
330
17
100
AcDbEntity
  8
4
100
AcDbLine
 10
22.0
 20
-0.0000000000000024
 30
0.0
 11
-0.0000000000000007
 21
0.0
 31
0.0
  0
LINE
  5
96
330
17
100
AcDbEntity
  8
4
100
AcDbLine
 10
20.29999999999999
 20
15.4
 30
0.0
 11
1.699999999999999
 21
15.4
 31
0.0
  0
LINE
  5
97
330
17
100
AcDbEntity
  8
4
100
AcDbLine
 10
-0.0000000000000007
 20
0.0
 30
0.0
 11
-0.0000000000000004
 21
17.0
 31
0.0
  0
LINE
  5
98
330
17
100
AcDbEntity
  8
4
100
AcDbLine
 10
1.699999999999999
 20
1.599999999999999
 30
0.0
 11
1.699999999999999
 21
15.4
 31
0.0
  0
LINE
  5
9E
330
17
100
AcDbEntity
  8
3
100
AcDbLine
 10
1.949016494524205
 20
3.943749999999998
 30
0.0
 11
1.699999999999999
 21
3.943749999999998
 31
0.0
  0
TEXT
  5
9F
330
17
100
AcDbEntity
  8
2
100
AcDbText
 10
1.756250732409322
 20
5.309018063230045
 30
0.0
 40
0.156
  1
4
  7
SIMPLEX
 72
     1
 11
1.811965018123608
 21
5.309018063230045
 31
0.0
100
AcDbText
  0
LINE
  5
A0
330
17
100
AcDbEntity
  8
3
100
AcDbLine
 10
1.949016494524205
 20
6.807812499999998
 30
0.0
 11
1.699999999999999
 21
6.807812499999998
 31
0.0
  0
TEXT
  5
A1
330
17
100
AcDbEntity
  8
2
100
AcDbText
 10
1.759965018123603
 20
8.061148463547132
 30
0.0
 40
0.156
  1
3
  7
SIMPLEX
 72
     1
 11
1.811965018123603
 21
8.061148463547132
 31
0.0
100
AcDbText
  0
LINE
  5
A2
330
17
100
AcDbEntity
  8
4
100
AcDbLine
 10
10.01185508099068
 20
3.632001399999916
 30
0.0
 11
10.01185508099068
 21
1.599999999999915
 31
0.0
  0
TEXT
  5
B0
330
17
100
AcDbEntity
  8
2
100
AcDbText
 10
1.793393589552179
 20
13.7921637479308
 30
0.0
 40
0.156
  1
1
  7
SIMPLEX
 72
     1
 11
1.811965018123608
 21
13.7921637479308
 31
0.0
100
AcDbText
  0
LINE
  5
B1
330
17
100
AcDbEntity
  8
3
100
AcDbLine
 10
1.949016494524205
 20
9.671875
 30
0.0
 11
1.699999999999999
 21
9.671875
 31
0.0
  0
TEXT
  5
B2
330
17
100
AcDbEntity
  8
2
100
AcDbText
 10
1.781139211287501
 20
10.91504263714998
 30
0.0
 40
0.156
  1
2
  7
SIMPLEX
 72
     1
 11
1.833139211287502
 21
10.91504263714998
 31
0.0
100
AcDbText
  0
LINE
  5
B3
330
17
100
AcDbEntity
  8
3
100
AcDbLine
 10
1.949016494524205
 20
12.5359375
 30
0.0
 11
1.699999999999999
 21
12.5359375
 31
0.0
  0
TEXT
  5
B4
330
17
100
AcDbEntity
  8
2
100
AcDbText
 10
3.643208238985426
 20
15.14511803904082
 30
0.0
 40
0.156
  1
A
  7
SIMPLEX
 72
     1
 11
3.702636810413998
 21
15.14511803904082
 31
0.0
100
AcDbText
  0
LINE
  5
B5
330
17
100
AcDbEntity
  8
3
100
AcDbLine
 10
5.214039514021767
 20
15.15025244921216
 30
0.0
 11
5.214039514021767
 21
15.4
 31
0.0
  0
TEXT
  5
B6
330
17
100
AcDbEntity
  8
2
100
AcDbText
 10
6.689280524403557
 20
15.14511803904082
 30
0.0
 40
0.156
  1
B
  7
SIMPLEX
 72
     1
 11
6.741280524403556
 21
15.14511803904082
 31
0.0
100
AcDbText
  0
LINE
  5
B7
330
17
100
AcDbEntity
  8
3
100
AcDbLine
 10
8.23123161121741
 20
15.15025244921216
 30
0.0
 11
8.23123161121741
 21
15.4
 31
0.0
  0
TEXT
  5
B8
330
17
100
AcDbEntity
  8
2
100
AcDbText
 10
9.636766968103586
 20
15.14511803904082
 30
0.0
 40
0.156
  1
C
  7
SIMPLEX
 72
     1
 11
9.692481253817872
 21
15.14511803904082
 31
0.0
100
AcDbText
  0
LINE
  5
B9
330
17
100
AcDbEntity
  8
4
100
AcDbLine
 10
21.99999999999999
 20
17.0
 30
0.0
 11
22.0
 21
-0.0000000000000024
 31
0.0
  0
LINE
  5
BA
330
17
100
AcDbEntity
  8
4
100
AcDbLine
 10
20.29999999999999
 20
15.4
 30
0.0
 11
20.3
 21
1.6
 31
0.0
  0
LWPOLYLINE
  5
BB
330
17
100
AcDbEntity
  8
4
  6
Continuous
100
AcDbPolyline
 90
       61
 70
     0
 43
0.0
 10
17.77901716440863
 20
3.330315320916453
 10
17.78740568730446
 20
3.33089383973681
 10
17.79550495078995
 20
3.332050877377604
 10
17.8027364360449
 20
3.333786433838842
 10
17.80938940247941
 20
3.336100509120433
 10
17.81517459068339
 20
3.338993103222383
 10
17.82067051947711
 20
3.342174956734593
 10
17.82558792945047
 20
3.345935329067158
 10
17.82992682060348
 20
3.350274220220078
 10
17.83368719293613
 20
3.354902370783263
 10
17.83686904644826
 20
3.359819780756626
 10
17.83947238114004
 20
3.365026450140164
 10
17.84149719701144
 20
3.370811638344147
 10
17.84323275347259
 20
3.376596826548126
 10
17.8443897911134
 20
3.382671274162283
 10
17.84496830993373
 20
3.38903498118662
 10
17.845257569344
 20
3.395687947621134
 10
17.84496830993373
 20
3.401762395235291
 10
17.84381127229304
 20
3.40783684284945
 10
17.84236497524197
 20
3.41362203105343
 10
17.84005089996039
 20
3.419407219257411
 10
17.83744756526861
 20
3.424903148051129
 10
17.83397645234631
 20
3.430109817434753
 10
17.83050533942384
 20
3.435027227408115
 10
17.82616644827091
 20
3.439655377971214
 10
17.82182755711799
 20
3.443705009714043
 10
17.81691014714463
 20
3.447465382046607
 10
17.81170347776109
 20
3.450647235558735
 10
17.80620754896729
 20
3.453539829660767
 10
17.80071162017349
 20
3.455853904942358
 10
17.79492643196959
 20
3.457300201993331
 10
17.78885198435534
 20
3.458457239634129
 10
17.78277753674128
 20
3.458746499044306
 10
17.58000669019255
 20
3.458746499044306
 10
17.5828992842945
 20
3.456432423762714
 10
17.58550261898627
 20
3.454118348481122
 10
17.58810595367804
 20
3.451515013789351
 10
17.59042002895964
 20
3.449200938507761
 10
17.59273410424123
 20
3.446886863226167
 10
17.59504817952281
 20
3.443994269124221
 10
17.59707299539423
 20
3.441101675022273
 10
17.59909781126556
 20
3.437630562099884
 10
17.60199040536759
 20
3.431266855075548
 10
17.60430448064919
 20
3.423746110410331
 10
17.60575077770007
 20
3.416514625155376
 10
17.60632929652051
 20
3.410729436951481
 10
17.60661855593077
 20
3.150685227183566
 10
17.67633007378838
 20
3.211718962735325
 10
17.67633007378838
 20
3.332340136787869
 10
17.70699157126944
 20
3.332629396198044
 10
17.81141421835082
 20
3.159652268899673
 10
17.90137389492232
 20
3.159073750079318
 10
17.8958779661286
 20
3.162255603591443
 10
17.89038203733487
 20
3.166015975924008
 10
17.88517536795134
 20
3.169776348256658
 10
17.88025795797798
 20
3.17411523940958
 10
17.87534054800462
 20
3.178164871152323
 10
17.87071239744144
 20
3.182793021715508
 10
17.86608424687825
 20
3.187421172278693
 10
17.86145609631507
 20
3.192338582252055
 10
17.77901716440863
 20
3.330315320916453
  0
TEXT
  5
FA
330
17
100
AcDbEntity
  8
3
100
AcDbText
 10
17.57117964010593
 20
2.031176911853155
 30
0.0
 40
0.0781522982138528
  1
PART/DWG. NO.
  7
SIMPLEX
100
AcDbText
  0
TEXT
  5
FB
330
17
100
AcDbEntity
  8
3
100
AcDbText
 10
17.61147997832251
 20
2.324167042848138
 30
0.0
 40
0.077527079828142
  1
SHEET
  7
SIMPLEX
100
AcDbText
  0
TEXT
  5
FC
330
17
100
AcDbEntity
  8
3
100
AcDbText
 10
18.17062646899166
 20
1.717904679869015
 30
0.0
 40
0.1750611479990302
  1
313.15
  7
SIMPLEX
 72
     1
 11
18.57076623584659
 21
1.717904679869015
 31
0.0
100
AcDbText
  0
LINE
  5
FD
330
17
100
AcDbEntity
  8
0
100
AcDbLine
 10
17.49696939050781
 20
2.177674272979746
 30
0.0
 11
20.30000000000001
 21
2.177674272979746
 31
0.0
  0
LINE
  5
FE
330
17
100
AcDbEntity
  8
0
100
AcDbLine
 10
12.04381483455088
 20
3.013702094781779
 30
0.0
 11
20.30000000000001
 21
3.013702094781779
 31
0.0
  0
LINE
  5
FF
330
17
100
AcDbEntity
  8
0
100
AcDbLine
 10
12.04381483455088
 20
2.537827578566158
 30
0.0
 11
20.30000000000001
 21
2.537827578566158
 31
0.0
  0
LWPOLYLINE
  5
100
330
17
100
AcDbEntity
  8
4
  6
Continuous
100
AcDbPolyline
 90
      205
 70
     0
 43
0.0
 10
17.25291268297088
 20
3.424903148051129
 10
17.24510267889557
 20
3.433002411536701
 10
17.23671415599981
 20
3.440523156201832
 10
17.22716859546327
 20
3.446886863226167
 10
17.21704451610637
 20
3.452382792019971
 10
17.20634191792903
 20
3.457010942583156
 10
17.19535006034151
 20
3.460771314915721
 10
17.18349042452346
 20
3.463663909017667
 10
17.17163078870532
 20
3.465688724889083
 10
17.15977115288717
 20
3.466845762529879
 10
17.14762225765887
 20
3.467135021940056
 10
17.13518410302037
 20
3.466267243709437
 10
17.12332446720223
 20
3.464820946658466
 10
17.11146483138409
 20
3.462217611966694
 10
17.09989445497622
 20
3.458746499044306
 10
17.0889025973887
 20
3.454118348481122
 10
17.07819999921144
 20
3.448911679097582
 10
17.07010073572578
 20
3.443994269124221
 10
17.06257999106065
 20
3.438787599740681
 10
17.0553485058057
 20
3.432713152126523
 10
17.04869553937118
 20
3.426349445102188
 10
17.04233183234685
 20
3.419407219257411
 10
17.03654664414296
 20
3.412175734002456
 10
17.03133997475933
 20
3.404365729927148
 10
17.02642256478596
 20
3.396266466441575
 10
17.02237293304322
 20
3.388167202956001
 10
17.01861256071057
 20
3.379489420650073
 10
17.01571996660862
 20
3.370522378933968
 10
17.01340589132703
 20
3.361555337217863
 10
17.01167033486588
 20
3.352588295501671
 10
17.01080255663526
 20
3.34333199437539
 10
17.01022403781491
 20
3.333786433838842
 10
17.01080255663526
 20
3.324530132712473
 10
17.01109181604544
 20
3.319901982149288
 10
17.01167033486588
 20
3.314984572175926
 10
17.01224885368632
 20
3.31035642161283
 10
17.01340589132703
 20
3.305728271049644
 10
17.0148521883781
 20
3.301389379896636
 10
17.01716626365968
 20
3.297339748153893
 10
17.02005885776164
 20
3.294157894641683
 10
17.0238192300942
 20
3.291843819360091
 10
17.02555478655535
 20
3.290976041129558
 10
17.02729034301658
 20
3.290397522309116
 10
17.029315158888
 20
3.290108262898939
 10
17.03105071534906
 20
3.290108262898939
 10
17.03307553122049
 20
3.290397522309116
 10
17.03510034709189
 20
3.290397522309116
 10
17.03712516296332
 20
3.290976041129558
 10
17.03972849765508
 20
3.291265300539736
 10
17.12563854248382
 20
3.306306789869998
 10
17.12939891481648
 20
3.306885308690438
 10
17.13344854655914
 20
3.307463827510796
 10
17.13720891889179
 20
3.307753086920973
 10
17.14125855063453
 20
3.308042346331236
 10
17.14501892296709
 20
3.308042346331236
 10
17.14906855470992
 20
3.308042346331236
 10
17.15282892704241
 20
3.308042346331236
 10
17.15687855878523
 20
3.307753086920973
 10
17.16063893111772
 20
3.307463827510796
 10
17.16468856286055
 20
3.306885308690438
 10
17.16844893519311
 20
3.306306789869998
 10
17.17220930752568
 20
3.305439011639466
 10
17.17625893926851
 20
3.304571233408847
 10
17.18001931160107
 20
3.303414195768051
 10
17.18349042452346
 20
3.302257158127256
 10
17.18725079685594
 20
3.300810861076281
 10
17.19592857916195
 20
3.296182710513096
 10
17.20287080500673
 20
3.289819003488761
 10
17.20836673380044
 20
3.282298258823629
 10
17.21183784672275
 20
3.273909735927879
 10
17.21386266259417
 20
3.264653434801511
 10
17.21444118141461
 20
3.255107874264965
 10
17.21328414377381
 20
3.245562313728504
 10
17.21039154967186
 20
3.236306012602134
 10
17.20749895556991
 20
3.230231564987977
 10
17.20431710205762
 20
3.224446376783998
 10
17.20026747031496
 20
3.219239707400457
 10
17.19592857916195
 20
3.214322297427095
 10
17.19101116918859
 20
3.209694146863911
 10
17.18580449980505
 20
3.205644515121167
 10
17.18030857101125
 20
3.202173402198778
 10
17.17452338280727
 20
3.198991548686568
 10
17.16844893519311
 20
3.196388213994798
 10
17.16208522816877
 20
3.194363398123468
 10
17.15572152114444
 20
3.19291710107241
 10
17.1493578141201
 20
3.192338582252055
 10
17.1427048476855
 20
3.192049322841876
 10
17.1360518812509
 20
3.192627841662232
 10
17.12968817422665
 20
3.193784879303028
 10
17.12332446720223
 20
3.195520435764267
 10
17.1181177978187
 20
3.197545251635593
 10
17.11320038784533
 20
3.199859326917185
 10
17.10857223728215
 20
3.202173402198778
 10
17.10394408671896
 20
3.205065996300725
 10
17.09931593615586
 20
3.207958590402758
 10
17.09497704500286
 20
3.211429703325148
 10
17.09063815384994
 20
3.214611556837273
 10
17.08658852210711
 20
3.218371929169839
 10
17.08282814977454
 20
3.222132301502404
 10
17.0787785180318
 20
3.226181933245232
 10
17.07530740510941
 20
3.230231564987977
 10
17.07183629218702
 20
3.23428119673072
 10
17.06836517926473
 20
3.238620087883726
 10
17.06518332575251
 20
3.243248238446911
 10
17.0620014722403
 20
3.247587129599834
 10
17.05910887813835
 20
3.252215280163016
 10
16.99055439792145
 20
3.218371929169839
 10
16.99605032671518
 20
3.209404887453731
 10
17.0024140337396
 20
3.20130562396816
 10
17.00935625958428
 20
3.193495619892849
 10
17.01687700424942
 20
3.186264134637898
 10
17.02497626773499
 20
3.179900427613561
 10
17.03365405004092
 20
3.17411523940958
 10
17.04262109175702
 20
3.168908570026041
 10
17.05216665229357
 20
3.164569678873033
 10
17.0620014722403
 20
3.160809306540468
 10
17.07183629218702
 20
3.157627453028343
 10
17.0822496309541
 20
3.155313377746749
 10
17.09266296972126
 20
3.153577821285513
 10
17.10307630848843
 20
3.152710043054981
 10
17.11348964725551
 20
3.152710043054981
 10
17.12390298602267
 20
3.153577821285513
 10
17.13431632478975
 20
3.155024118336488
 10
17.14472966355692
 20
3.157627453028343
 10
17.15485374291382
 20
3.160809306540468
 10
17.16439930345036
 20
3.164858938283297
 10
17.17394486398691
 20
3.170065607666836
 10
17.18291190570302
 20
3.175561536460553
 10
17.19130042859877
 20
3.181925243484889
 10
17.19939969208425
 20
3.188867469329665
 10
17.20692043674948
 20
3.196677473405062
 10
17.21357340318398
 20
3.204776736890548
 10
17.21993711020841
 20
3.213165259786298
 10
17.22543303900212
 20
3.222421560912668
 10
17.23006118956531
 20
3.231967121449129
 10
17.23411082130805
 20
3.241512681985675
 10
17.23729267482026
 20
3.251636761342663
 10
17.23960675010185
 20
3.262050100109741
 10
17.24076378774256
 20
3.272752698287084
 10
17.24105304715275
 20
3.280851961772571
 10
17.24076378774256
 20
3.288951225258142
 10
17.23989600951203
 20
3.296761229333453
 10
17.23844971246097
 20
3.304860492819026
 10
17.23613563717946
 20
3.312381237484158
 10
17.23353230248761
 20
3.319901982149288
 10
17.23006118956531
 20
3.327133467404243
 10
17.22572229841231
 20
3.334075693249018
 10
17.22225118549
 20
3.338703843812203
 10
17.21849081315735
 20
3.342753475554948
 10
17.21444118141461
 20
3.346513847887513
 10
17.20981303085142
 20
3.349984960809903
 10
17.20518488028831
 20
3.353166814322113
 10
17.20026747031496
 20
3.355770149013883
 10
17.19506080093133
 20
3.358373483705651
 10
17.18956487213753
 20
3.360398299577066
 10
17.18406894334381
 20
3.362423115448395
 10
17.1785730145501
 20
3.363869412499368
 10
17.17278782634612
 20
3.365315709550428
 10
17.16729189755231
 20
3.366472747191138
 10
17.16150670934842
 20
3.367340525421758
 10
17.15572152114444
 20
3.367919044242198
 10
17.14993633294047
 20
3.368497563062553
 10
17.14444040414674
 20
3.368786822472732
 10
17.14096929122435
 20
3.369076081882993
 10
17.13720891889179
 20
3.369076081882993
 10
17.1337378059694
 20
3.368786822472732
 10
17.13026669304701
 20
3.368786822472732
 10
17.12679558012462
 20
3.368497563062553
 10
17.12303520779205
 20
3.368208303652377
 10
17.11956409486974
 20
3.367629784831934
 10
17.11609298194728
 20
3.367340525421758
 10
17.11262186902497
 20
3.366762006601403
 10
17.1091507561025
 20
3.366183487780961
 10
17.10539038377002
 20
3.365604968960607
 10
17.10191927084763
 20
3.365026450140164
 10
17.09844815792525
 20
3.36444793131981
 10
17.09497704500286
 20
3.363869412499368
 10
17.09121667267029
 20
3.363290893679014
 10
17.08774555974791
 20
3.362712374858573
 10
17.03625738473269
 20
3.350274220220078
 10
17.03510034709189
 20
3.355191630193443
 10
17.03567886591225
 20
3.362712374858573
 10
17.03770368178366
 20
3.371968675984943
 10
17.04088553529587
 20
3.382382014752106
 10
17.04551368585897
 20
3.392795353519185
 10
17.05129887406305
 20
3.402630173465909
 10
17.05795184049755
 20
3.410729436951481
 10
17.06576184457286
 20
3.416803884565641
 10
17.07270407041764
 20
3.419985738077766
 10
17.07993555567251
 20
3.422299813359358
 10
17.08745630033772
 20
3.424035369820595
 10
17.09526630441312
 20
3.424903148051129
 10
17.10307630848843
 20
3.425192407461391
 10
17.11117557197392
 20
3.424903148051129
 10
17.11898557604923
 20
3.423746110410331
 10
17.12679558012462
 20
3.422010553949181
 10
17.13460558420002
 20
3.419696478667586
 10
17.14183706945497
 20
3.416803884565641
 10
17.14906855470992
 20
3.41362203105343
 10
17.15572152114444
 20
3.409861658720865
 10
17.1617959687586
 20
3.405522767567856
 10
17.16729189755231
 20
3.400605357594495
 10
17.17220930752568
 20
3.395398688210955
 10
17.17654819867868
 20
3.389902759417238
 10
17.25291268297088
 20
3.424903148051129
  0
LWPOLYLINE
  5
1CF
330
17
100
AcDbEntity
  8
4
  6
Continuous
100
AcDbPolyline
 90
      133
 70
     0
 43
0.0
 10
17.31882276039024
 20
3.445151306765017
 10
17.31390535041688
 20
3.439944637381476
 10
17.30927719985369
 20
3.433870189767318
 10
17.30522756811095
 20
3.427506482742899
 10
17.30088867695803
 20
3.420853516308384
 10
17.29654978580502
 20
3.414489809284048
 10
17.29192163524183
 20
3.408126102259711
 10
17.28729348467865
 20
3.402340914055733
 10
17.28179755588493
 20
3.39742350408237
 10
17.27977274001351
 20
3.395977207031396
 10
17.27774792414211
 20
3.394530909980336
 10
17.27572310827069
 20
3.393084612929363
 10
17.27369829239936
 20
3.39163831587839
 10
17.27167347652803
 20
3.390192018827416
 10
17.26935940124644
 20
3.388745721776443
 10
17.26704532596485
 20
3.387299424725468
 10
17.26415273186282
 20
3.38585312767441
 10
17.36915389776474
 20
3.38585312767441
 10
17.36452574720155
 20
3.382092755341843
 10
17.36018685604854
 20
3.378332383009278
 10
17.35613722430572
 20
3.374572010676711
 10
17.35208759256307
 20
3.370522378933968
 10
17.34832722023041
 20
3.366183487780961
 10
17.34456684789785
 20
3.361844596628039
 10
17.34109573497546
 20
3.357505705475033
 10
17.33791388146332
 20
3.352877554911848
 10
17.33444276854086
 20
3.347960144938487
 10
17.33155017443891
 20
3.342753475554948
 10
17.32865758033697
 20
3.337257546761231
 10
17.32576498623502
 20
3.331761617967428
 10
17.32287239213307
 20
3.325687170353268
 10
17.32026905744121
 20
3.319612722739111
 10
17.31766572274944
 20
3.312959756304597
 10
17.31535164746784
 20
3.306017530459821
 10
17.31130201572511
 20
3.290686781719296
 10
17.30898794044351
 20
3.275356032978852
 10
17.30869868103334
 20
3.259736024828147
 10
17.31014497808423
 20
3.244116016677444
 10
17.31332683159653
 20
3.229074527347181
 10
17.31853350098006
 20
3.214322297427095
 10
17.32518646741466
 20
3.200437845737627
 10
17.3338642497205
 20
3.18771043168887
 10
17.33820314087351
 20
3.18250376230533
 10
17.34312055084687
 20
3.177586352331968
 10
17.34861647964059
 20
3.172668942358606
 10
17.35469092725483
 20
3.168330051205599
 10
17.3607653748689
 20
3.163991160052678
 10
17.36741834130351
 20
3.159941528309849
 10
17.37436056714828
 20
3.156470415387547
 10
17.38159205240324
 20
3.153288561875336
 10
17.38882353765818
 20
3.150395967773388
 10
17.39634428232332
 20
3.147792633081618
 10
17.40357576757827
 20
3.145767817210203
 10
17.41109651224341
 20
3.14432152015923
 10
17.41861725690854
 20
3.143164482518436
 10
17.42584874216349
 20
3.142875223108172
 10
17.43308022741844
 20
3.142875223108172
 10
17.44002245326313
 20
3.143453741928613
 10
17.44870023556907
 20
3.144900038979585
 10
17.45737801787508
 20
3.146635595440823
 10
17.46576654077074
 20
3.148949670722415
 10
17.47386580425622
 20
3.151842264824363
 10
17.48196506774189
 20
3.155024118336488
 10
17.48948581240702
 20
3.158784490669053
 10
17.49700655707215
 20
3.16312338182206
 10
17.50365952350666
 20
3.168040791795423
 10
17.51031248994118
 20
3.173536720589225
 10
17.51609767814525
 20
3.17932190879312
 10
17.52159360693896
 20
3.185685615817542
 10
17.52651101691232
 20
3.192627841662232
 10
17.53084990806533
 20
3.200148586327364
 10
17.53432102098764
 20
3.207958590402758
 10
17.53721361508958
 20
3.216636372708685
 10
17.53952769037117
 20
3.225603414424793
 10
17.53316398334693
 20
3.220107485631074
 10
17.52651101691232
 20
3.215190075657714
 10
17.51927953165736
 20
3.210561925094528
 10
17.51204804640242
 20
3.206801552761961
 10
17.50452730173728
 20
3.203330439839575
 10
17.49671729766198
 20
3.200437845737627
 10
17.48861803417641
 20
3.198123770456035
 10
17.48051877069083
 20
3.196388213994798
 10
17.47241950720534
 20
3.195231176354003
 10
17.46403098430959
 20
3.194941916943825
 10
17.45593172082402
 20
3.194941916943825
 10
17.44783245733854
 20
3.195809695174443
 10
17.43973319385296
 20
3.197255992225418
 10
17.43192318977756
 20
3.199570067507008
 10
17.42411318570226
 20
3.202462661608955
 10
17.41659244103711
 20
3.205933774531345
 10
17.40936095578217
 20
3.210561925094528
 10
17.40270798934757
 20
3.21547933506789
 10
17.3966335417335
 20
3.221264523271871
 10
17.39084835352952
 20
3.227338970886029
 10
17.38593094355616
 20
3.23428119673072
 10
17.38130279299297
 20
3.241223422575497
 10
17.3775424206604
 20
3.248744167240627
 10
17.37407130773801
 20
3.256554171316023
 10
17.37117871363599
 20
3.264653434801511
 10
17.36915389776474
 20
3.272752698287084
 10
17.36741834130351
 20
3.281141221182832
 10
17.36626130366263
 20
3.289819003488761
 10
17.36568278484227
 20
3.298207526384511
 10
17.36568278484227
 20
3.306885308690438
 10
17.36626130366263
 20
3.315563090996367
 10
17.36741834130351
 20
3.323951613892118
 10
17.37060019481563
 20
3.333786433838842
 10
17.37407130773801
 20
3.342464216144768
 10
17.37783168007058
 20
3.350563479630257
 10
17.38217057122359
 20
3.358084224295473
 10
17.38679872178678
 20
3.365315709550428
 10
17.39229465058049
 20
3.371968675984943
 10
17.39865835760492
 20
3.378910901829718
 10
17.40588984285986
 20
3.385563868264232
 10
17.46084913079738
 20
3.385563868264232
 10
17.46403098430959
 20
3.385563868264232
 10
17.46779135664216
 20
3.386142387084673
 10
17.4718409883849
 20
3.386720905905026
 10
17.47589062012765
 20
3.387877943545823
 10
17.47994025187047
 20
3.38903498118662
 10
17.48341136479278
 20
3.390770537647772
 10
17.48659321830508
 20
3.392506094109009
 10
17.48890729358658
 20
3.394820169390602
 10
17.54155250624259
 20
3.459035758454485
 10
17.3517983331528
 20
3.459035758454485
 10
17.346302404359
 20
3.458746499044306
 10
17.34167425379581
 20
3.458457239634129
 10
17.33733536264289
 20
3.45758946140351
 10
17.33357499031033
 20
3.456143164352537
 10
17.32981461797776
 20
3.454407607891298
 10
17.32634350505537
 20
3.452093532609794
 10
17.32258313272281
 20
3.448911679097582
 10
17.31882276039024
 20
3.445151306765017
  0
LWPOLYLINE
  5
256
330
17
100
AcDbEntity
  8
4
  6
Continuous
100
AcDbPolyline
 90
      138
 70
     0
 43
0.0
 10
16.86759456463772
 20
3.459035758454485
 10
16.87366901225187
 20
3.454696867301564
 10
16.87858642222523
 20
3.449779457328201
 10
16.88263605396797
 20
3.444283528534398
 10
16.88552864806992
 20
3.438498340330419
 10
16.88784272335152
 20
3.43242389271626
 10
16.88928902040258
 20
3.426060185691923
 10
16.89015679863311
 20
3.419117959847234
 10
16.89044605804329
 20
3.411886474592278
 10
16.89044605804329
 20
3.194652657533646
 10
16.88523938865975
 20
3.194652657533646
 10
16.8800327192762
 20
3.194941916943825
 10
16.87482604989266
 20
3.195520435764267
 10
16.8699086399193
 20
3.196388213994798
 10
16.86470197053576
 20
3.197545251635593
 10
16.85978456056241
 20
3.198991548686568
 10
16.85486715058904
 20
3.200727105147805
 10
16.85023900002585
 20
3.202462661608955
 10
16.84532159005249
 20
3.204776736890548
 10
16.84069343948932
 20
3.207090812172141
 10
16.8363545483363
 20
3.209694146863911
 10
16.83201565718338
 20
3.212586740965944
 10
16.82767676603038
 20
3.215768594478068
 10
16.82333787487745
 20
3.218950447990279
 10
16.81928824313463
 20
3.222421560912668
 10
16.81552787080214
 20
3.225892673834971
 10
16.80887490436755
 20
3.232545640269568
 10
16.80280045675339
 20
3.239777125524523
 10
16.79730452795959
 20
3.247297870189655
 10
16.79238711798622
 20
3.255397133675227
 10
16.7880482268333
 20
3.263785656570892
 10
16.78457711391091
 20
3.272174179466643
 10
16.78168451980896
 20
3.281141221182832
 10
16.77965970393755
 20
3.290108262898939
 10
16.77850266629675
 20
3.298496785794688
 10
16.77763488806614
 20
3.306885308690438
 10
16.77763488806614
 20
3.315563090996367
 10
16.77821340688649
 20
3.323951613892118
 10
16.77937044452737
 20
3.332340136787869
 10
16.78110600098852
 20
3.340728659683533
 10
16.78370933568038
 20
3.348827923169105
 10
16.78718044860269
 20
3.356637927244499
 10
16.78978378329446
 20
3.361555337217863
 10
16.79238711798622
 20
3.366472747191138
 10
16.794990452678
 20
3.371100897754323
 10
16.79788304678002
 20
3.375729048317507
 10
16.8004863814718
 20
3.380357198880693
 10
16.80337897557383
 20
3.384696090033613
 10
16.80656082908595
 20
3.38903498118662
 10
16.80974268259808
 20
3.393084612929363
 10
16.81292453611037
 20
3.39742350408237
 10
16.8161063896225
 20
3.401473135825113
 10
16.8195775025448
 20
3.405522767567856
 10
16.82304861546728
 20
3.409572399310687
 10
16.82680898779976
 20
3.413332771643251
 10
16.83056936013241
 20
3.417382403385996
 10
16.83432973246489
 20
3.421142775718561
 10
16.83837936420772
 20
3.425192407461391
 10
16.8418504771301
 20
3.429242039204133
 10
16.84416455241161
 20
3.433580930357056
 10
16.84561084946267
 20
3.437919821510063
 10
16.84590010887285
 20
3.44225871266307
 10
16.84561084946267
 20
3.446597603815991
 10
16.84474307123214
 20
3.450936494968997
 10
16.84329677418108
 20
3.45498612671174
 10
16.84127195830966
 20
3.459035758454485
 10
16.7374278300487
 20
3.459035758454485
 10
16.7397419053303
 20
3.457010942583156
 10
16.7420559806119
 20
3.45498612671174
 10
16.7443700558934
 20
3.452961310840326
 10
16.74668413117499
 20
3.450647235558735
 10
16.74870894704632
 20
3.448333160277227
 10
16.75073376291773
 20
3.445729825585373
 10
16.75246931937897
 20
3.443126490893601
 10
16.75420487584013
 20
3.440523156201832
 10
16.75767598876251
 20
3.432713152126523
 10
16.75941154522375
 20
3.424324629230772
 10
16.75941154522375
 20
3.415646846924845
 10
16.75825450758287
 20
3.406969064618916
 10
16.75594043230127
 20
3.397712763492549
 10
16.75218005996879
 20
3.388745721776443
 10
16.74784116881579
 20
3.380357198880693
 10
16.74292375884243
 20
3.37225793539512
 10
16.73771708945889
 20
3.364158671909633
 10
16.73222116066509
 20
3.356348667834238
 10
16.72672523187127
 20
3.34824940434875
 10
16.72180782189792
 20
3.340150140863178
 10
16.71775819015526
 20
3.332050877377604
 10
16.71428707723278
 20
3.323951613892118
 10
16.71168374254101
 20
3.315273831586191
 10
16.70965892666961
 20
3.306596049280178
 10
16.70850188902889
 20
3.297918266974248
 10
16.70792337020853
 20
3.288951225258142
 10
16.70792337020853
 20
3.279984183542038
 10
16.70879114843907
 20
3.271017141825846
 10
16.70994818607987
 20
3.265231953621951
 10
16.71110522372066
 20
3.25944676541797
 10
16.7128407801819
 20
3.253661577213991
 10
16.71486559605323
 20
3.248165648420273
 10
16.71717967133482
 20
3.242669719626471
 10
16.71978300602658
 20
3.237463050242931
 10
16.72238634071836
 20
3.231967121449129
 10
16.72556819423057
 20
3.227049711475766
 10
16.7287500477427
 20
3.222132301502404
 10
16.73222116066509
 20
3.217214891529041
 10
16.73598153299765
 20
3.212586740965944
 10
16.74003116474048
 20
3.207958590402758
 10
16.74408079648322
 20
3.203619699249752
 10
16.74813042822596
 20
3.199280808096832
 10
16.75246931937897
 20
3.195231176354003
 10
16.75709746994215
 20
3.191470804021435
 10
16.76230413932569
 20
3.187421172278693
 10
16.76808932752959
 20
3.183660799946126
 10
16.77387451573366
 20
3.180189687023738
 10
16.77994896334773
 20
3.177007833511528
 10
16.78631267037215
 20
3.17411523940958
 10
16.7926763773964
 20
3.17151190471781
 10
16.79932934383101
 20
3.168908570026041
 10
16.8059823102656
 20
3.166883754154626
 10
16.81263527670011
 20
3.165148197693476
 10
16.81928824313463
 20
3.163412641232238
 10
16.8262304689794
 20
3.161966344181263
 10
16.83317269482418
 20
3.161098565950647
 10
16.83982566125869
 20
3.160230787720113
 10
16.84676788710347
 20
3.159652268899673
 10
16.85342085353799
 20
3.159073750079318
 10
16.86007381997258
 20
3.159073750079318
 10
16.95697572238885
 20
3.159073750079318
 10
16.95697572238885
 20
3.422589072769536
 10
16.95697572238885
 20
3.42721722333272
 10
16.95697572238885
 20
3.431845373895904
 10
16.95755424120929
 20
3.436762783869265
 10
16.95842201943982
 20
3.441680193842628
 10
16.96015757590106
 20
3.446308344405812
 10
16.96247165118265
 20
3.450647235558735
 10
16.96594276410495
 20
3.45498612671174
 10
16.97057091466813
 20
3.459035758454485
 10
16.86759456463772
 20
3.459035758454485
  0
LWPOLYLINE
  5
2E2
330
17
100
AcDbEntity
  8
4
  6
Continuous
100
AcDbPolyline
 90
       73
 70
     0
 43
0.0
 10
15.39362344509812
 20
3.233991937320541
 10
15.39854085507148
 20
3.231099343218595
 10
15.40259048681431
 20
3.227338970886029
 10
15.4060615997366
 20
3.222710820322844
 10
15.40866493442838
 20
3.217504150939306
 10
15.41011123147944
 20
3.211718962735325
 10
15.41040049088962
 20
3.205933774531345
 10
15.40953271265908
 20
3.200437845737627
 10
15.40721863737749
 20
3.194941916943825
 10
15.40461530268572
 20
3.191760063431698
 10
15.40201196799386
 20
3.188867469329665
 10
15.39883011448166
 20
3.186264134637898
 10
15.39535900155935
 20
3.183950059356303
 10
15.3915986292267
 20
3.182214502895153
 10
15.38754899748403
 20
3.180768205844178
 10
15.38321010633103
 20
3.179900427613561
 10
15.37887121517803
 20
3.179611168203383
 10
15.27329153045583
 20
3.179611168203383
 10
15.33027563426476
 20
3.227917489706384
 10
15.33374674718723
 20
3.231099343218595
 10
15.33635008187901
 20
3.23428119673072
 10
15.33866415716052
 20
3.237173790832753
 10
15.34011045421149
 20
3.240066384934701
 10
15.34126749185237
 20
3.242958979036647
 10
15.34184601067273
 20
3.246140832548859
 10
15.34242452949308
 20
3.249033426650806
 10
15.34242452949308
 20
3.252215280163016
 10
15.34242452949308
 20
3.443994269124221
 10
15.34184601067273
 20
3.448043900866965
 10
15.34068897303193
 20
3.452093532609794
 10
15.33866415716052
 20
3.455275386121919
 10
15.33606082246875
 20
3.458167980223951
 10
15.33287896895654
 20
3.460482055505458
 10
15.32940785603423
 20
3.462217611966694
 10
15.3253582242914
 20
3.463374649607491
 10
15.32130859254866
 20
3.463663909017667
 10
15.25882855994593
 20
3.463663909017667
 10
15.26316745109893
 20
3.459325017864747
 10
15.26692782343141
 20
3.455275386121919
 10
15.27010967694362
 20
3.450647235558735
 10
15.27271301163548
 20
3.446019084995634
 10
15.27502708691699
 20
3.440812415612008
 10
15.27647338396796
 20
3.435316486818292
 10
15.27734116219858
 20
3.428952779793958
 10
15.27763042160884
 20
3.421721294539002
 10
15.27763042160884
 20
3.221553782682048
 10
15.22614224659354
 20
3.159073750079318
 10
15.4208138296567
 20
3.159073750079318
 10
15.42399568316891
 20
3.159363009489493
 10
15.4274667960913
 20
3.159652268899673
 10
15.43064864960342
 20
3.160230787720113
 10
15.43411976252589
 20
3.161387825360908
 10
15.4375908754482
 20
3.162544863001706
 10
15.44077272896041
 20
3.163991160052678
 10
15.44395458247262
 20
3.165437457103653
 10
15.44713643598474
 20
3.167173013564803
 10
15.45031828949687
 20
3.169197829436217
 10
15.4532108835989
 20
3.171222645307633
 10
15.45610347770093
 20
3.173536720589225
 10
15.45899607180287
 20
3.175850795870732
 10
15.46131014708447
 20
3.178164871152323
 10
15.46391348177624
 20
3.180768205844178
 10
15.46593829764766
 20
3.183371540535949
 10
15.46796311351898
 20
3.185974875227719
 10
15.47259126408216
 20
3.195231176354003
 10
15.4754838581842
 20
3.205644515121167
 10
15.4769301552351
 20
3.217214891529041
 10
15.47664089582491
 20
3.229074527347181
 10
15.4746160799535
 20
3.240355644344879
 10
15.4711449670312
 20
3.250768983112043
 10
15.46622755705784
 20
3.25944676541797
 10
15.45957459062323
 20
3.266099731852483
 10
15.39362344509812
 20
3.233991937320541
  0
LWPOLYLINE
  5
32D
330
17
100
AcDbEntity
  8
4
  6
Continuous
100
AcDbPolyline
 90
       21
 70
     0
 43
0.0
 10
16.04393666810604
 20
3.458457239634129
 10
15.96757218381374
 20
3.458457239634129
 10
15.9713325561464
 20
3.455853904942358
 10
15.97509292847888
 20
3.452382792019971
 10
15.97885330081153
 20
3.448911679097582
 10
15.98203515432366
 20
3.44486204735484
 10
15.98492774842569
 20
3.440812415612008
 10
15.9872418237072
 20
3.436184265048913
 10
15.98868812075826
 20
3.431556114485728
 10
15.98926663957862
 20
3.426638704512366
 10
15.98926663957862
 20
3.160230787720113
 10
16.06129223271798
 20
3.160230787720113
 10
16.06129223271798
 20
3.441101675022273
 10
16.06100297330772
 20
3.445151306765017
 10
16.0601351950771
 20
3.448622419687404
 10
16.05839963861594
 20
3.451515013789351
 10
16.05637482274462
 20
3.454118348481122
 10
16.05377148805276
 20
3.455853904942358
 10
16.05087889395082
 20
3.457300201993331
 10
16.0476970404386
 20
3.458167980223951
 10
16.04393666810604
 20
3.458457239634129
  0
LWPOLYLINE
  5
344
330
17
100
AcDbEntity
  8
4
  6
Continuous
100
AcDbPolyline
 90
      133
 70
     0
 43
0.0
 10
15.74219789892955
 20
3.463953168427846
 10
15.68058564455743
 20
3.463953168427846
 10
15.68492453571044
 20
3.459325017864747
 10
15.68868490804292
 20
3.454696867301564
 10
15.69157750214495
 20
3.450068716738377
 10
15.69418083683672
 20
3.445729825585373
 10
15.69620565270815
 20
3.441390934432451
 10
15.69765194975911
 20
3.437052043279444
 10
15.69880898739991
 20
3.432423892716345
 10
15.69909824681009
 20
3.427795742153161
 10
15.69909824681009
 20
3.269860104185051
 10
15.69389157742655
 20
3.270438623005491
 10
15.68839564863275
 20
3.271306401236109
 10
15.68318897924921
 20
3.272174179466643
 10
15.67769305045548
 20
3.27333121710744
 10
15.67248638107195
 20
3.274777514158496
 10
15.66699045227814
 20
3.276223811209471
 10
15.66178378289452
 20
3.277959367670622
 10
15.65657711351098
 20
3.279694924131773
 10
15.65165970353762
 20
3.28171974000319
 10
15.64645303415408
 20
3.284033815284779
 10
15.64182488359089
 20
3.286347890566372
 10
15.63690747361754
 20
3.288951225258142
 10
15.63227932305435
 20
3.291843819360091
 10
15.62765117249116
 20
3.294736413462124
 10
15.62331228133825
 20
3.298207526384511
 10
15.6192626495955
 20
3.301678639306814
 10
15.61174190493036
 20
3.309199383972031
 10
15.60508893849577
 20
3.317587906867781
 10
15.59930375029187
 20
3.326554948583888
 10
15.59409708090824
 20
3.336389768530612
 10
15.5900474491655
 20
3.346224588477336
 10
15.58657633624311
 20
3.356927186654678
 10
15.58426226096153
 20
3.367629784831934
 10
15.58281596391055
 20
3.378621642419454
 10
15.58194818568001
 20
3.389613500006976
 10
15.58194818568001
 20
3.400894617004758
 10
15.58310522332073
 20
3.411886474592278
 10
15.58484077978197
 20
3.422878332179799
 10
15.58744411447374
 20
3.433870189767318
 10
15.5912044868063
 20
3.444283528534398
 10
15.59554337795923
 20
3.454407607891386
 10
15.60075004734276
 20
3.463953168427846
 10
15.52178222835879
 20
3.463953168427846
 10
15.5159970401549
 20
3.445440566175194
 10
15.51194740841206
 20
3.427506482742899
 10
15.50992259254066
 20
3.409572399310687
 10
15.50963333313047
 20
3.392506094109009
 10
15.51079037077127
 20
3.375729048317507
 10
15.51397222428349
 20
3.359819780756626
 10
15.51860037484666
 20
3.344489032016183
 10
15.52467482246074
 20
3.329736802096013
 10
15.53248482653605
 20
3.316141609816722
 10
15.54145186825223
 20
3.303124936357872
 10
15.55186520701932
 20
3.291265300539736
 10
15.56343558342729
 20
3.280273442952216
 10
15.57645225688613
 20
3.27072788241567
 10
15.59062596798586
 20
3.262050100109741
 10
15.60566745731613
 20
3.254818614854786
 10
15.62186598428726
 20
3.248744167240627
 10
15.62649413485045
 20
3.247297870189655
 10
15.63141154482381
 20
3.246140832548859
 10
15.63632895479717
 20
3.244983794908064
 10
15.64153562418071
 20
3.243826757267266
 10
15.64645303415408
 20
3.242958979036647
 10
15.65165970353762
 20
3.242380460216293
 10
15.65657711351098
 20
3.241512681985675
 10
15.66178378289452
 20
3.241223422575497
 10
15.66670119286788
 20
3.240644903755141
 10
15.67161860284124
 20
3.240355644344879
 10
15.6765360128146
 20
3.240066384934701
 10
15.6811641633778
 20
3.240066384934701
 10
15.68579231394097
 20
3.240066384934701
 10
15.69013120509399
 20
3.240066384934701
 10
15.69447009624699
 20
3.240355644344879
 10
15.69851972798965
 20
3.240644903755141
 10
15.69851972798965
 20
3.209983406274088
 10
15.66699045227814
 20
3.192338582252055
 10
15.66062674525381
 20
3.190892285201082
 10
15.65426303822938
 20
3.190024506970462
 10
15.64789933120505
 20
3.190024506970462
 10
15.64211414300108
 20
3.190892285201082
 10
15.63603969538699
 20
3.192049322841876
 10
15.6305437665932
 20
3.194074138713205
 10
15.62533709720965
 20
3.196677473405062
 10
15.62013042782603
 20
3.199570067507008
 10
15.61521301785267
 20
3.203041180429397
 10
15.61058486728948
 20
3.206801552761961
 10
15.60624597613657
 20
3.211140443914882
 10
15.60219634439382
 20
3.21547933506789
 10
15.59843597206117
 20
3.220396745041251
 10
15.59496485913887
 20
3.225314155014614
 10
15.59178300562674
 20
3.230231564987977
 10
15.58917967093498
 20
3.235438234371516
 10
15.53364186417693
 20
3.209694146863911
 10
15.5362451988687
 20
3.204776736890548
 10
15.53942705238083
 20
3.199859326917185
 10
15.54260890589303
 20
3.194652657533646
 10
15.54608001881542
 20
3.189735247560285
 10
15.55012965055816
 20
3.184817837586923
 10
15.55417928230091
 20
3.179900427613561
 10
15.55880743286409
 20
3.175561536460553
 10
15.56343558342729
 20
3.170933385897369
 10
15.56835299340064
 20
3.166883754154626
 10
15.57384892219436
 20
3.16312338182206
 10
15.57963411039843
 20
3.159941528309849
 10
15.58541929860232
 20
3.156759674797726
 10
15.59178300562674
 20
3.154445599516133
 10
15.59814671265099
 20
3.152420783644718
 10
15.60508893849577
 20
3.150974486593743
 10
15.61232042375072
 20
3.150395967773388
 10
15.61463449903232
 20
3.150395967773388
 10
15.61694857431391
 20
3.150685227183566
 10
15.61955190900567
 20
3.150974486593743
 10
15.62215524369745
 20
3.151263746003921
 10
15.62446931897904
 20
3.151842264824363
 10
15.6270726536708
 20
3.152710043054981
 10
15.6293867289524
 20
3.153577821285513
 10
15.631700804234
 20
3.154445599516133
 10
15.75695012884963
 20
3.228206749116561
 10
15.75984272295166
 20
3.230520824398154
 10
15.761867538823
 20
3.233702677910365
 10
15.7627353170537
 20
3.237463050242931
 10
15.76302457646388
 20
3.241512681985675
 10
15.76302457646388
 20
3.435316486818292
 10
15.76244605764344
 20
3.441969453252806
 10
15.76128902000264
 20
3.448043900866965
 10
15.75926420413122
 20
3.452961310840326
 10
15.75666086943946
 20
3.457010942583156
 10
15.75347901592733
 20
3.459903536685103
 10
15.74971864359468
 20
3.462217611966694
 10
15.74595827126221
 20
3.463374649607491
 10
15.74219789892955
 20
3.463953168427846
  0
LWPOLYLINE
  5
3CB
330
17
100
AcDbEntity
  8
4
  6
Continuous
100
AcDbPolyline
 90
       96
 70
     0
 43
0.0
 10
16.36436365703197
 20
3.159073750079318
 10
16.35973550646878
 20
3.162255603591443
 10
16.3551073559056
 20
3.165437457103653
 10
16.35105772416285
 20
3.169197829436217
 10
16.34758661124047
 20
3.172958201768783
 10
16.34469401713852
 20
3.177297092921792
 10
16.34237994185693
 20
3.182214502895153
 10
16.34093364480595
 20
3.187421172278693
 10
16.34035512598551
 20
3.19291710107241
 10
16.34035512598551
 20
3.38064645829087
 10
16.34035512598551
 20
3.388456462366264
 10
16.33977660716507
 20
3.396266466441575
 10
16.33861956952436
 20
3.404654989337325
 10
16.33630549424277
 20
3.412754252822812
 10
16.33283438132038
 20
3.421142775718561
 10
16.32733845252658
 20
3.428952779793958
 10
16.32010696727162
 20
3.436762783869265
 10
16.3102721473249
 20
3.444283528534398
 10
16.30419769971084
 20
3.448043900866965
 10
16.29783399268641
 20
3.451225754379174
 10
16.29147028566207
 20
3.453829089070946
 10
16.28452805981738
 20
3.456143164352537
 10
16.2775858339726
 20
3.45758946140351
 10
16.27064360812782
 20
3.458457239634129
 10
16.26370138228305
 20
3.459035758454485
 10
16.2564698970281
 20
3.459035758454485
 10
16.2495276711834
 20
3.458457239634129
 10
16.24258544533863
 20
3.45758946140351
 10
16.23593247890411
 20
3.456432423762714
 10
16.22927951246952
 20
3.454696867301564
 10
16.22320506485544
 20
3.452672051430147
 10
16.2171306172412
 20
3.450068716738377
 10
16.21134542903731
 20
3.447465382046607
 10
16.20613875965377
 20
3.444283528534398
 10
16.20324616555174
 20
3.442837231483424
 10
16.20064283085996
 20
3.441390934432451
 10
16.19775023675793
 20
3.439944637381476
 10
16.19514690206616
 20
3.438209080920241
 10
16.1925435673744
 20
3.436184265048913
 10
16.18965097327244
 20
3.434159449177498
 10
16.18704763858067
 20
3.431556114485728
 10
16.18386578506846
 20
3.428952779793958
 10
16.18241948801748
 20
3.434448708587674
 10
16.18010541273589
 20
3.439366118561035
 10
16.17750207804413
 20
3.443705009714043
 10
16.17432022453201
 20
3.447754641456787
 10
16.17084911160953
 20
3.451225754379174
 10
16.16708873927704
 20
3.454118348481122
 10
16.16332836694439
 20
3.456721683172892
 10
16.15927873520165
 20
3.458746499044306
 10
16.09303833026635
 20
3.458746499044306
 10
16.09911277788051
 20
3.454407607891298
 10
16.10431944726405
 20
3.449490197917938
 10
16.10865833841706
 20
3.444283528534398
 10
16.11241871074954
 20
3.438209080920241
 10
16.11531130485158
 20
3.431845373895904
 10
16.1173361207229
 20
3.42461388864095
 10
16.11878241777396
 20
3.417093143975818
 10
16.11907167718413
 20
3.408704621080067
 10
16.11907167718413
 20
3.151842264824363
 10
16.18646911976032
 20
3.203908958659931
 10
16.18646911976032
 20
3.381803495931666
 10
16.18762615740102
 20
3.391349056468211
 10
16.19051875150297
 20
3.399737579363963
 10
16.19485764265598
 20
3.406969064618916
 10
16.20064283085996
 20
3.413043512233075
 10
16.20729579729447
 20
3.417960922206435
 10
16.21452728254944
 20
3.421432035128825
 10
16.22233728662474
 20
3.423746110410331
 10
16.23014729070014
 20
3.42461388864095
 10
16.23477544126332
 20
3.42461388864095
 10
16.23940359182642
 20
3.424035369820595
 10
16.24374248297943
 20
3.423167591589975
 10
16.24808137413243
 20
3.422010553949181
 10
16.25213100587517
 20
3.420564256898208
 10
16.25618063761792
 20
3.418539441026791
 10
16.25994100995057
 20
3.416514625155376
 10
16.26341212287287
 20
3.413911290463609
 10
16.26688323579526
 20
3.411307955771838
 10
16.26977582989729
 20
3.408415361669892
 10
16.27208990517889
 20
3.404944248747503
 10
16.27440398046039
 20
3.401762395235291
 10
16.27613953692155
 20
3.398002022902725
 10
16.27729657456242
 20
3.39424165057016
 10
16.27816435279296
 20
3.390192018827416
 10
16.27845361220314
 20
3.38585312767441
 10
16.27845361220314
 20
3.187421172278693
 10
16.27874287161331
 20
3.182793021715508
 10
16.27932139043375
 20
3.177875611742146
 10
16.28076768748474
 20
3.173247461178961
 10
16.28279250335614
 20
3.168619310615865
 10
16.28597435686828
 20
3.164858938283297
 10
16.2900239886111
 20
3.161677084771087
 10
16.29551991740482
 20
3.159652268899673
 10
16.30246214324959
 20
3.159073750079318
 10
16.36436365703197
 20
3.159073750079318
  0
LWPOLYLINE
  5
42D
330
17
100
AcDbEntity
  8
4
  6
Continuous
100
AcDbPolyline
 90
       34
 70
     0
 43
0.0
 10
16.49182200684109
 20
3.435895005638649
 10
16.5031031238387
 20
3.434737967997851
 10
16.51409498142631
 20
3.43242389271626
 10
16.52450832019339
 20
3.428374260973515
 10
16.53463239955028
 20
3.422878332179799
 10
16.54388870067666
 20
3.416514625155376
 10
16.55285574239284
 20
3.408704621080067
 10
16.56095500587834
 20
3.400026838774142
 10
16.56847575054347
 20
3.390481278237593
 10
16.57541797638825
 20
3.379778680060251
 10
16.58120316459214
 20
3.368786822472732
 10
16.58640983397568
 20
3.356927186654678
 10
16.59074872512869
 20
3.344778291426361
 10
16.59421983805107
 20
3.332050877377604
 10
16.59653391333266
 20
3.319034203918755
 10
16.59826946979382
 20
3.306017530459821
 10
16.598558729204
 20
3.292711597590708
 10
16.59769095097347
 20
3.280562702362393
 10
16.59537687569187
 20
3.268992325954517
 10
16.59190576276948
 20
3.257711208956735
 10
16.58727761220638
 20
3.247297870189655
 10
16.58149242400241
 20
3.237173790832753
 10
16.57483945756788
 20
3.227917489706384
 10
16.56731871290266
 20
3.219528966810634
 10
16.55950870882727
 20
3.211718962735325
 10
16.55112018593161
 20
3.204487477480371
 10
16.54244240362568
 20
3.198123770456035
 10
16.53347536190958
 20
3.192627841662232
 10
16.52479757960357
 20
3.187999691099048
 10
16.51583053788746
 20
3.184528578176745
 10
16.5074420149917
 20
3.181635984074712
 10
16.49934275150622
 20
3.179900427613561
 10
16.49182200684109
 20
3.179032649382943
 10
16.49182200684109
 20
3.435895005638649
  0
LWPOLYLINE
  5
451
330
17
100
AcDbEntity
  8
4
  6
Continuous
100
AcDbPolyline
 90
       44
 70
     0
 43
0.0
 10
16.52450832019339
 20
3.459903536685103
 10
16.39636640147571
 20
3.459903536685103
 10
16.40041603321846
 20
3.45758946140351
 10
16.40504418378164
 20
3.454407607891298
 10
16.40938307493465
 20
3.449779457328201
 10
16.41372196608766
 20
3.444572787944576
 10
16.41748233842013
 20
3.438498340330419
 10
16.42066419193234
 20
3.431556114485728
 10
16.4223997483935
 20
3.424324629230772
 10
16.4232675266242
 20
3.416514625155376
 10
16.4232675266242
 20
3.159073750079318
 10
16.51930165080985
 20
3.159073750079318
 10
16.53550017778091
 20
3.159941528309849
 10
16.55112018593161
 20
3.162255603591443
 10
16.56616167526188
 20
3.166015975924008
 10
16.5803353863616
 20
3.171222645307633
 10
16.59364131923063
 20
3.177875611742146
 10
16.60636873327939
 20
3.185974875227719
 10
16.61793910968726
 20
3.194941916943825
 10
16.6286417078647
 20
3.205355255710991
 10
16.63818726840116
 20
3.216636372708685
 10
16.64686505070709
 20
3.229074527347181
 10
16.65438579537221
 20
3.242380460216293
 10
16.66046024298645
 20
3.256554171316023
 10
16.66537765295982
 20
3.271595660646288
 10
16.6691380252923
 20
3.287215668796991
 10
16.67116284116372
 20
3.303703455178228
 10
16.67203061939433
 20
3.320769760379908
 10
16.67145210057389
 20
3.335232730889815
 10
16.6691380252923
 20
3.349117182579283
 10
16.66537765295982
 20
3.362423115448395
 10
16.66017098357619
 20
3.375150529497153
 10
16.65380727655185
 20
3.387588684135648
 10
16.64628653188672
 20
3.398869801133343
 10
16.63760874958071
 20
3.409572399310687
 10
16.62777392963399
 20
3.419407219257411
 10
16.6173605908669
 20
3.428374260973515
 10
16.60579021445894
 20
3.436473524459088
 10
16.59364131923063
 20
3.443415750303866
 10
16.58062464577179
 20
3.449200938507761
 10
16.56731871290266
 20
3.453829089070946
 10
16.55343426121321
 20
3.457300201993331
 10
16.53897129070329
 20
3.459325017864747
 10
16.52450832019339
 20
3.459903536685103
  0
LWPOLYLINE
  5
47F
330
17
100
AcDbEntity
  8
4
  6
Continuous
100
AcDbPolyline
 90
       46
 70
     0
 43
0.0
 10
14.85527873562073
 20
3.463953168427846
 10
14.69821087588332
 20
3.463953168427846
 10
14.70168198880563
 20
3.459325017864747
 10
14.70486384231776
 20
3.454118348481122
 10
14.70804569583005
 20
3.448911679097582
 10
14.71064903052182
 20
3.443415750303866
 10
14.71267384639315
 20
3.437630562099884
 10
14.7144094028543
 20
3.431845373895904
 10
14.71556644049518
 20
3.426349445102188
 10
14.71585569990536
 20
3.420564256898208
 10
14.71585569990536
 20
3.153577821285513
 10
14.78614573658349
 20
3.220975263861609
 10
14.78614573658349
 20
3.340728659683533
 10
14.8804443043079
 20
3.340728659683533
 10
14.88680801133232
 20
3.341017919093794
 10
14.89288245894639
 20
3.341307178503973
 10
14.89895690656063
 20
3.342174956734593
 10
14.90474209476452
 20
3.34333199437539
 10
14.91052728296851
 20
3.345067550836541
 10
14.91602321176231
 20
3.347381626118131
 10
14.92122988114585
 20
3.349984960809903
 10
14.92585803170904
 20
3.353166814322113
 10
14.93048618227222
 20
3.356927186654678
 10
14.9342465546047
 20
3.361555337217863
 10
14.93771766752718
 20
3.366472747191138
 10
14.94061026162913
 20
3.37225793539512
 10
14.94263507750054
 20
3.378910901829718
 10
14.94437063396169
 20
3.386142387084673
 10
14.94523841219231
 20
3.39424165057016
 10
14.94523841219231
 20
3.403208692286352
 10
14.94437063396169
 20
3.412754252822812
 10
14.94263507750054
 20
3.421142775718561
 10
14.93974248339851
 20
3.428663520383694
 10
14.93627137047611
 20
3.435316486818292
 10
14.93164321991294
 20
3.441101675022273
 10
14.92672580993957
 20
3.446019084995634
 10
14.92094062173568
 20
3.450357976148556
 10
14.91457691471126
 20
3.453829089070946
 10
14.90792394827674
 20
3.456721683172892
 10
14.90069246302178
 20
3.459035758454485
 10
14.89346097776683
 20
3.460771314915721
 10
14.8859402331017
 20
3.461928352556517
 10
14.87813022902631
 20
3.463085390197312
 10
14.870320224951
 20
3.463663909017667
 10
14.86279948028587
 20
3.463953168427846
 10
14.85527873562073
 20
3.463953168427846
  0
LWPOLYLINE
  5
4AF
330
17
100
AcDbEntity
  8
4
  6
Continuous
100
AcDbPolyline
 90
      104
 70
     0
 43
0.0
 10
14.56625515455124
 20
3.463663909017667
 10
14.57435441803672
 20
3.45498612671174
 10
14.57782553095911
 20
3.450068716738377
 10
14.58071812506106
 20
3.445151306765017
 10
14.58332145975291
 20
3.440523156201832
 10
14.58534627562424
 20
3.436184265048913
 10
14.58708183208539
 20
3.431556114485728
 10
14.58823886972628
 20
3.426927963922541
 10
14.58881738854663
 20
3.422299813359358
 10
14.58910664795681
 20
3.417382403385996
 10
14.58910664795681
 20
3.192627841662232
 10
14.58187516270185
 20
3.193495619892849
 10
14.5746436774469
 20
3.194941916943825
 10
14.56770145160212
 20
3.196677473405062
 10
14.56075922575744
 20
3.198991548686568
 10
14.55410625932292
 20
3.201884142788602
 10
14.54745329288832
 20
3.204776736890548
 10
14.54080032645373
 20
3.208247849812937
 10
14.53472587883965
 20
3.212008222145501
 10
14.52865143122541
 20
3.216347113298508
 10
14.52286624302151
 20
3.22068600445143
 10
14.5173703142278
 20
3.225603414424793
 10
14.51216364484417
 20
3.230810083808332
 10
14.50695697546063
 20
3.236016753191957
 10
14.50232882489745
 20
3.241801941395852
 10
14.49798993374452
 20
3.247876389010011
 10
14.4939403020017
 20
3.25395083662417
 10
14.48757659497736
 20
3.265521213032129
 10
14.48236992559382
 20
3.277670108260446
 10
14.47832029385107
 20
3.290397522309116
 10
14.47571695915931
 20
3.303414195768051
 10
14.47455992151843
 20
3.316720128637165
 10
14.47513844033887
 20
3.329736802096013
 10
14.47774177503063
 20
3.343042734965124
 10
14.48208066618356
 20
3.355770149013883
 10
14.48439474146515
 20
3.3612660778076
 10
14.48699807615692
 20
3.366472747191138
 10
14.48989067025895
 20
3.371679416574766
 10
14.49278326436098
 20
3.376596826548126
 10
14.49596511787311
 20
3.381803495931666
 10
14.4994362307955
 20
3.386720905905026
 10
14.50290734371789
 20
3.391349056468211
 10
14.50637845664019
 20
3.396266466441575
 10
14.51013882897284
 20
3.400894617004758
 10
14.51389920130532
 20
3.405233508157679
 10
14.51794883304815
 20
3.409861658720865
 10
14.52199846479089
 20
3.414200549873871
 10
14.52604809653364
 20
3.418539441026791
 10
14.53038698768664
 20
3.422589072769536
 10
14.53443661942948
 20
3.426638704512366
 10
14.53877551058239
 20
3.430688336255108
 10
14.54224662350478
 20
3.434737967997851
 10
14.54456069878638
 20
3.439366118561035
 10
14.54600699583734
 20
3.443994269124221
 10
14.54600699583734
 20
3.448911679097582
 10
14.54542847701691
 20
3.453250570250504
 10
14.54369292055575
 20
3.45758946140351
 10
14.54166810468443
 20
3.461060574325897
 10
14.53877551058239
 20
3.463663909017667
 10
14.43522064173153
 20
3.463663909017667
 10
14.44013805170489
 20
3.459035758454485
 10
14.4456339804986
 20
3.453250570250504
 10
14.45084064988223
 20
3.446308344405812
 10
14.45517954103515
 20
3.438787599740681
 10
14.45836139454736
 20
3.430399076844931
 10
14.45980769159834
 20
3.421721294539002
 10
14.45865065395763
 20
3.413043512233075
 10
14.4546010222148
 20
3.404654989337325
 10
14.42278248709303
 20
3.349117182579283
 10
14.41497248301772
 20
3.332918655608223
 10
14.41005507304436
 20
3.315852350406546
 10
14.40774099776277
 20
3.298207526384511
 10
14.40803025717294
 20
3.280273442952216
 10
14.4109228512749
 20
3.262339359519918
 10
14.41670803947887
 20
3.245273054318241
 10
14.42480730296445
 20
3.229074527347181
 10
14.43550990114171
 20
3.214611556837273
 10
14.44071657052525
 20
3.208826368633378
 10
14.44621249931905
 20
3.203330439839575
 10
14.45199768752303
 20
3.197834511045773
 10
14.45807213513719
 20
3.192627841662232
 10
14.46414658275134
 20
3.187999691099048
 10
14.47079954918594
 20
3.183371540535949
 10
14.47745251562037
 20
3.179032649382943
 10
14.48439474146515
 20
3.175272277050376
 10
14.49133696730992
 20
3.17151190471781
 10
14.49856845256488
 20
3.168330051205599
 10
14.50579993781983
 20
3.165726716513829
 10
14.51332068248497
 20
3.163412641232238
 10
14.5208414271501
 20
3.161387825360908
 10
14.52865143122541
 20
3.160230787720113
 10
14.53617217589063
 20
3.159363009489493
 10
14.54398217996602
 20
3.159073750079318
 10
14.65476853407176
 20
3.159073750079318
 10
14.65476853407176
 20
3.420274997488029
 10
14.65505779348193
 20
3.426060185691923
 10
14.6553470528921
 20
3.431845373895904
 10
14.65621483112273
 20
3.437341302689622
 10
14.65737186876353
 20
3.443126490893601
 10
14.65910742522475
 20
3.448622419687404
 10
14.66113224109609
 20
3.453829089070946
 10
14.66344631637768
 20
3.458746499044306
 10
14.66604965106945
 20
3.463663909017667
 10
14.56625515455124
 20
3.463663909017667
  0
LWPOLYLINE
  5
519
330
17
100
AcDbEntity
  8
4
  6
Continuous
100
AcDbPolyline
 90
      213
 70
     0
 43
0.0
 10
14.34012871514155
 20
3.446019084995634
 10
14.33347574870711
 20
3.448622419687404
 10
14.32682278227252
 20
3.450936494968997
 10
14.32016981583792
 20
3.452961310840326
 10
14.31322758999323
 20
3.454696867301564
 10
14.30628536414845
 20
3.455853904942358
 10
14.29934313830376
 20
3.457010942583156
 10
14.29240091245898
 20
3.457878720813687
 10
14.28545868661421
 20
3.458457239634129
 10
14.27822720135925
 20
3.458746499044306
 10
14.27128497551448
 20
3.458746499044306
 10
14.26405349025952
 20
3.458457239634129
 10
14.25711126441483
 20
3.457878720813687
 10
14.24987977915988
 20
3.457010942583156
 10
14.2429375533151
 20
3.456143164352537
 10
14.23599532747041
 20
3.454696867301564
 10
14.22905310162563
 20
3.453250570250504
 10
14.21690420639732
 20
3.449490197917938
 10
14.20504457057919
 20
3.443994269124221
 10
14.19376345358148
 20
3.437630562099884
 10
14.18277159599396
 20
3.42982055802449
 10
14.17264751663706
 20
3.421142775718561
 10
14.16310195610051
 20
3.411307955771838
 10
14.15471343320476
 20
3.400894617004758
 10
14.14719268853963
 20
3.389902759417238
 10
14.14111824092547
 20
3.378332383009278
 10
14.13649009036229
 20
3.366183487780961
 10
14.1330189774399
 20
3.354034592552645
 10
14.13157268038893
 20
3.341596437914152
 10
14.1318619397991
 20
3.329158283275658
 10
14.13388675567052
 20
3.316720128637165
 10
14.13793638741335
 20
3.304571233408847
 10
14.14430009443759
 20
3.293000857000886
 10
14.14574639148866
 20
3.291265300539736
 10
14.14748194794981
 20
3.289819003488761
 10
14.14921750441096
 20
3.288661965847965
 10
14.15124232028237
 20
3.287504928207169
 10
14.15326713615379
 20
3.28692640938673
 10
14.1552919520252
 20
3.286637149976549
 10
14.15760602730679
 20
3.286637149976549
 10
14.15992010258839
 20
3.287215668796991
 10
14.24206977508448
 20
3.302835676947611
 10
14.24669792564767
 20
3.303703455178228
 10
14.25132607621085
 20
3.304281973998671
 10
14.25624348618421
 20
3.305149752229203
 10
14.2608716367474
 20
3.305439011639466
 10
14.26578904672076
 20
3.306017530459821
 10
14.27041719728394
 20
3.306306789869998
 10
14.27504534784713
 20
3.306306789869998
 10
14.27996275782049
 20
3.306306789869998
 10
14.28459090838367
 20
3.306017530459821
 10
14.28921905894677
 20
3.305728271049644
 10
14.29384720950996
 20
3.305149752229203
 10
14.29847536007306
 20
3.304281973998671
 10
14.30281425122606
 20
3.303124936357872
 10
14.30744240178925
 20
3.301967898717077
 10
14.31178129294226
 20
3.300232342255839
 10
14.31612018409517
 20
3.298496785794688
 10
14.3259550040419
 20
3.292422338180531
 10
14.33318648929685
 20
3.283744555874605
 10
14.33810389927022
 20
3.273620476517616
 10
14.34099649337225
 20
3.262050100109741
 10
14.34128575278243
 20
3.249901204881425
 10
14.33926093691101
 20
3.237463050242931
 10
14.33521130516827
 20
3.225892673834971
 10
14.3291368575541
 20
3.215190075657714
 10
14.32479796640111
 20
3.210272665684351
 10
14.3204590752481
 20
3.205355255710991
 10
14.31525240586456
 20
3.20130562396816
 10
14.31004573648101
 20
3.197545251635593
 10
14.3045498076873
 20
3.194074138713205
 10
14.29847536007306
 20
3.191181544611258
 10
14.29240091245898
 20
3.189156728739844
 10
14.28603720543457
 20
3.187421172278693
 10
14.27851646076943
 20
3.186553394048073
 10
14.2709957161043
 20
3.186553394048073
 10
14.26376423084935
 20
3.187131912868515
 10
14.25624348618421
 20
3.188867469329665
 10
14.24930126033944
 20
3.190892285201082
 10
14.24206977508448
 20
3.193784879303028
 10
14.23541680864997
 20
3.197255992225418
 10
14.22876384221546
 20
3.20130562396816
 10
14.22240013519103
 20
3.205933774531345
 10
14.21632568757696
 20
3.210851184504706
 10
14.21054049937289
 20
3.216347113298508
 10
14.20504457057919
 20
3.222132301502404
 10
14.20012716060581
 20
3.228206749116561
 10
14.19520975063245
 20
3.234570456140983
 10
14.19087085947945
 20
3.241223422575497
 10
14.18711048714696
 20
3.247876389010011
 10
14.12029156339123
 20
3.217504150939306
 10
14.12376267631361
 20
3.208826368633378
 10
14.12810156746654
 20
3.200437845737627
 10
14.13388675567052
 20
3.19291710107241
 10
14.14053972210511
 20
3.185685615817542
 10
14.14806046677025
 20
3.179032649382943
 10
14.15644898966591
 20
3.172958201768783
 10
14.1654160313821
 20
3.167462272975067
 10
14.17496159191865
 20
3.162544863001706
 10
14.18508567127555
 20
3.158495231258876
 10
14.19549901004263
 20
3.155024118336488
 10
14.20649086763024
 20
3.15213152423454
 10
14.2171934658075
 20
3.150395967773388
 10
14.22818532339501
 20
3.148949670722415
 10
14.23917718098253
 20
3.148660411312153
 10
14.24987977915988
 20
3.149238930132593
 10
14.26058237733722
 20
3.150395967773388
 10
14.2686816408227
 20
3.15213152423454
 10
14.27649164489802
 20
3.154445599516133
 10
14.28430164897342
 20
3.157048934207903
 10
14.29182239363863
 20
3.160230787720113
 10
14.2990538788935
 20
3.163991160052678
 10
14.30628536414845
 20
3.168330051205599
 10
14.31293833058297
 20
3.172668942358606
 10
14.31959129701756
 20
3.177875611742146
 10
14.32566574463171
 20
3.183082281125686
 10
14.33174019224588
 20
3.188867469329665
 10
14.3372361210396
 20
3.194941916943825
 10
14.34244279042314
 20
3.201594883378424
 10
14.34707094098633
 20
3.208247849812937
 10
14.35140983213933
 20
3.215190075657714
 10
14.35517020447189
 20
3.222421560912668
 10
14.35864131739428
 20
3.229942305577799
 10
14.36182317090641
 20
3.23833082847355
 10
14.364137246188
 20
3.2467193513693
 10
14.36587280264923
 20
3.255107874264965
 10
14.36731909970021
 20
3.264074915981156
 10
14.36789761852065
 20
3.272752698287084
 10
14.36789761852065
 20
3.281430480593011
 10
14.36731909970021
 20
3.290108262898939
 10
14.36587280264923
 20
3.298786045204866
 10
14.364137246188
 20
3.306306789869998
 10
14.36182317090641
 20
3.313538275124955
 10
14.35893057680446
 20
3.320480500969728
 10
14.35545946388216
 20
3.327422726814506
 10
14.35112057272915
 20
3.333497174428663
 10
14.34620316275579
 20
3.339282362632558
 10
14.34041797455181
 20
3.344489032016183
 10
14.33434352693765
 20
3.348827923169105
 10
14.33174019224588
 20
3.350563479630257
 10
14.32884759814393
 20
3.352299036091493
 10
14.3259550040419
 20
3.353745333142468
 10
14.32306240993987
 20
3.355191630193443
 10
14.32016981583792
 20
3.356637927244499
 10
14.31698796232579
 20
3.357794964885211
 10
14.31409536822385
 20
3.35866274311583
 10
14.31091351471164
 20
3.359530521346448
 10
14.30773166119943
 20
3.360398299577066
 10
14.3045498076873
 20
3.3612660778076
 10
14.30136795417508
 20
3.361844596628039
 10
14.29818610066288
 20
3.362423115448395
 10
14.29500424715075
 20
3.363001634268837
 10
14.29182239363863
 20
3.363290893679014
 10
14.28835128071615
 20
3.363869412499368
 10
14.28516942720403
 20
3.364158671909633
 10
14.2819875736919
 20
3.364158671909633
 10
14.27880572017961
 20
3.364158671909633
 10
14.27562386666748
 20
3.36444793131981
 10
14.27244201315535
 20
3.36444793131981
 10
14.26926015964315
 20
3.36444793131981
 10
14.26607830613094
 20
3.364737190729988
 10
14.26260719320855
 20
3.364737190729988
 10
14.25913608028616
 20
3.364737190729988
 10
14.25566496736386
 20
3.364737190729988
 10
14.25219385444147
 20
3.36444793131981
 10
14.24814422269872
 20
3.364158671909633
 10
14.24438385036607
 20
3.363869412499368
 10
14.24033421862333
 20
3.363580153089191
 10
14.23599532747041
 20
3.363001634268837
 10
14.2316564363174
 20
3.362133856038218
 10
14.22702828575422
 20
3.3612660778076
 10
14.16078788081892
 20
3.349117182579283
 10
14.15905232435769
 20
3.355191630193443
 10
14.15818454612715
 20
3.360976818397423
 10
14.15847380553732
 20
3.36705126601158
 10
14.15934158376794
 20
3.372836454215559
 10
14.16136639963927
 20
3.378621642419454
 10
14.16368047492087
 20
3.384117571213258
 10
14.16715158784326
 20
3.389613500006976
 10
14.17091196017582
 20
3.394530909980336
 10
14.17525085132883
 20
3.399159060543522
 10
14.18016826130219
 20
3.403787211106706
 10
14.18537493068573
 20
3.407547583439272
 10
14.19116011888971
 20
3.41101869636166
 10
14.19723456650387
 20
3.413911290463609
 10
14.20330901411803
 20
3.416514625155463
 10
14.20967272114236
 20
3.418250181616615
 10
14.21632568757696
 20
3.419407219257411
 10
14.22211087578086
 20
3.419696478667586
 10
14.22818532339501
 20
3.419696478667586
 10
14.23397051159899
 20
3.419117959847234
 10
14.23975569980289
 20
3.418250181616615
 10
14.24554088800696
 20
3.417093143975818
 10
14.25132607621085
 20
3.415357587514668
 10
14.25682200500457
 20
3.413332771643251
 10
14.26231793379837
 20
3.41101869636166
 10
14.26781386259217
 20
3.408415361669892
 10
14.27330979138589
 20
3.405522767567856
 10
14.27851646076943
 20
3.402630173465909
 10
14.28372313015297
 20
3.399159060543522
 10
14.28864054012633
 20
3.395687947621134
 10
14.29355795009969
 20
3.392216834698832
 10
14.29847536007306
 20
3.388456462366264
 10
14.30310351063624
 20
3.384696090033613
 10
14.37802169787755
 20
3.419985738077766
 10
14.37397206613472
 20
3.424035369820595
 10
14.3696331749818
 20
3.428085001563338
 10
14.36529428382888
 20
3.431845373895904
 10
14.36037687385551
 20
3.435027227408115
 10
14.35545946388216
 20
3.438209080920241
 10
14.35054205390879
 20
3.441101675022273
 10
14.34533538452517
 20
3.443705009714043
 10
14.34012871514155
 20
3.446019084995634
  0
LWPOLYLINE
  5
5F0
330
17
100
AcDbEntity
  8
4
  6
Continuous
100
AcDbPolyline
 90
      114
 70
     0
 43
0.0
 10
13.60415485737226
 20
3.156759674797726
 10
13.60097300386013
 20
3.159363009489493
 10
13.59779115034792
 20
3.16312338182206
 10
13.59460929683572
 20
3.168330051205599
 10
13.59142744332359
 20
3.174693758230022
 10
13.58853484922164
 20
3.182214502895153
 10
13.58622077394005
 20
3.191470804021435
 10
13.58448521747882
 20
3.202173402198778
 10
13.5833281798381
 20
3.214322297427095
 10
13.5833281798381
 20
3.405812026978122
 10
13.58303892042793
 20
3.41101869636166
 10
13.58188188278704
 20
3.416514625155463
 10
13.57985706691563
 20
3.422010553949181
 10
13.57696447281368
 20
3.42721722333272
 10
13.57320410048112
 20
3.432423892716345
 10
13.56857594991793
 20
3.437630562099884
 10
13.56336928053439
 20
3.442547972073247
 10
13.55729483292024
 20
3.447465382046607
 10
13.55064186648563
 20
3.451804273199531
 10
13.5431211218205
 20
3.455853904942358
 10
13.53473259892484
 20
3.459325017864747
 10
13.52605481661882
 20
3.462506871376873
 10
13.5162199966721
 20
3.464820946658466
 10
13.50609591731519
 20
3.466845762529879
 10
13.49510405972768
 20
3.468002800170676
 10
13.4835336833198
 20
3.46858131899103
 10
13.47109552868131
 20
3.468002800170676
 10
13.45894663345299
 20
3.466267243709437
 10
13.44708699763486
 20
3.462796130787051
 10
13.43580588063708
 20
3.458457239634129
 10
13.42510328245982
 20
3.452672051430147
 10
13.41468994369274
 20
3.446019084995634
 10
13.40514438315619
 20
3.438209080920241
 10
13.39617734144
 20
3.429531298614311
 10
13.38807807795452
 20
3.419985738077766
 10
13.38055733328938
 20
3.409861658720865
 10
13.37419362626496
 20
3.399159060543522
 10
13.36898695688142
 20
3.387877943545823
 10
13.36464806572841
 20
3.376018307727684
 10
13.36146621221629
 20
3.363869412499368
 10
13.35944139634487
 20
3.351431257860876
 10
13.35886287752452
 20
3.338703843812203
 10
13.35886287752452
 20
3.197545251635593
 10
13.35828435870408
 20
3.188578209919489
 10
13.35625954283275
 20
3.181057465254358
 10
13.35365620814098
 20
3.174693758230022
 10
13.3501850952185
 20
3.169487088846396
 10
13.3467139822962
 20
3.165437457103653
 10
13.34324286937381
 20
3.161966344181263
 10
13.33977175645142
 20
3.159363009489493
 10
13.33716842175966
 20
3.157048934207903
 10
13.39849141672159
 20
3.157048934207903
 10
13.40659068020708
 20
3.158205971848698
 10
13.41353290605186
 20
3.161098565950647
 10
13.4196073536661
 20
3.165437457103653
 10
13.42481402304964
 20
3.171222645307633
 10
13.42915291420256
 20
3.177586352331968
 10
13.43233476771477
 20
3.184528578176745
 10
13.43435958358618
 20
3.191760063431698
 10
13.43551662122689
 20
3.198991548686568
 10
13.43609514004725
 20
3.209404887453731
 10
13.43464884299636
 20
3.220107485631074
 10
13.43262402712495
 20
3.230520824398154
 10
13.43002069243318
 20
3.240644903755141
 10
13.42654957951079
 20
3.255107874264965
 10
13.42336772599858
 20
3.269570844774873
 10
13.42047513189664
 20
3.284033815284779
 10
13.41758253779469
 20
3.298496785794688
 10
13.41497920310291
 20
3.312959756304597
 10
13.4129543872315
 20
3.327711986224683
 10
13.41121883077026
 20
3.342174956734593
 10
13.41006179312955
 20
3.356927186654678
 10
13.40977253371938
 20
3.369076081882993
 10
13.41064031194991
 20
3.381514236521489
 10
13.41266512782131
 20
3.393663131749805
 10
13.41584698133345
 20
3.405522767567942
 10
13.42047513189664
 20
3.416514625155463
 10
13.42654957951079
 20
3.426638704512366
 10
13.43407032417592
 20
3.435316486818292
 10
13.44361588471247
 20
3.442547972073247
 10
13.44911181350627
 20
3.445440566175194
 10
13.45489700171017
 20
3.447465382046607
 10
13.46097144932433
 20
3.448911679097582
 10
13.46704589693848
 20
3.449779457328201
 10
13.4734096039629
 20
3.449779457328201
 10
13.47977331098716
 20
3.448911679097582
 10
13.4858477586014
 20
3.447465382046607
 10
13.49192220621547
 20
3.445440566175194
 10
13.49741813500928
 20
3.442547972073247
 10
13.50262480439289
 20
3.439076859150858
 10
13.50754221436618
 20
3.434737967997851
 10
13.51159184610892
 20
3.42982055802449
 10
13.51506295903139
 20
3.424324629230772
 10
13.51795555313334
 20
3.417960922206435
 10
13.51998036900475
 20
3.41101869636166
 10
13.52084814723529
 20
3.403497951696528
 10
13.52084814723529
 20
3.198123770456035
 10
13.52113740664547
 20
3.193206360482673
 10
13.52200518487608
 20
3.188867469329665
 10
13.52345148192706
 20
3.184528578176745
 10
13.52518703838829
 20
3.180478946433916
 10
13.52750111366989
 20
3.177007833511528
 10
13.53010444836166
 20
3.173536720589225
 10
13.5329970424636
 20
3.170354867077016
 10
13.53646815538599
 20
3.167462272975067
 10
13.54022852771855
 20
3.165148197693476
 10
13.54398890005112
 20
3.162834122411883
 10
13.54803853179387
 20
3.161098565950647
 10
13.55237742294687
 20
3.159652268899673
 10
13.55671631409988
 20
3.158205971848698
 10
13.56134446466307
 20
3.157338193618079
 10
13.56568335581599
 20
3.157048934207903
 10
13.57031150637909
 20
3.156759674797726
 10
13.60415485737226
 20
3.156759674797726
  0
LWPOLYLINE
  5
664
330
17
100
AcDbEntity
  8
4
  6
Continuous
100
AcDbPolyline
 90
       59
 70
     0
 43
0.0
 10
12.50220653888923
 20
3.37543978890733
 10
12.5317109987294
 20
3.398002022902725
 10
12.53633914929259
 20
3.397712763492549
 10
12.54067804044559
 20
3.397134244672193
 10
12.54501693159852
 20
3.395977207031396
 10
12.54906656334126
 20
3.394820169390602
 10
12.55340545449426
 20
3.393084612929363
 10
12.55745508623709
 20
3.391059797058034
 10
12.56121545856957
 20
3.388745721776443
 10
12.56497583090222
 20
3.386142387084673
 10
12.56844694382453
 20
3.383539052392817
 10
12.57191805674692
 20
3.38064645829087
 10
12.57538916966931
 20
3.377753864188923
 10
12.57857102318143
 20
3.374572010676711
 10
12.58146361728346
 20
3.371390157164586
 10
12.5843562113855
 20
3.368208303652377
 10
12.58695954607726
 20
3.365315709550428
 10
12.58927362135877
 20
3.362133856038218
 10
12.59737288484434
 20
3.349406441989546
 10
12.60373659186868
 20
3.336100509120433
 10
12.60836474243187
 20
3.321926798020705
 10
12.61154659594407
 20
3.307463827510796
 10
12.61357141181541
 20
3.292711597590708
 10
12.61443919004602
 20
3.277670108260446
 10
12.61501770886638
 20
3.262628618930182
 10
12.6147284494562
 20
3.247587129599834
 10
12.61414993063585
 20
3.239777125524523
 10
12.61270363358478
 20
3.232256380859391
 10
12.61038955830319
 20
3.225024895604438
 10
12.60749696420124
 20
3.21808266975966
 10
12.60402585127886
 20
3.211429703325148
 10
12.59968696012594
 20
3.205065996300725
 10
12.59505880956275
 20
3.199280808096832
 10
12.58985214017921
 20
3.193784879303028
 10
12.58406695197523
 20
3.188867469329665
 10
12.57828176377125
 20
3.184239318766483
 10
12.57191805674692
 20
3.180189687023738
 10
12.56555434972258
 20
3.176429314691173
 10
12.55919064269816
 20
3.173247461178961
 10
12.55253767626373
 20
3.170933385897369
 10
12.54588470982913
 20
3.168908570026041
 10
12.53952100280471
 20
3.167462272975067
 10
12.53576063047223
 20
3.167751532385243
 10
12.53200025813958
 20
3.168040791795423
 10
12.52823988580711
 20
3.168908570026041
 10
12.52476877288463
 20
3.170065607666836
 10
12.52129765996232
 20
3.17151190471781
 10
12.51811580645011
 20
3.173247461178961
 10
12.5149339529379
 20
3.175561536460553
 10
12.51233061824613
 20
3.177875611742146
 10
12.50943802414418
 20
3.180768205844178
 10
12.50741320827277
 20
3.183950059356303
 10
12.50567765181162
 20
3.187421172278693
 10
12.50423135476064
 20
3.191181544611258
 10
12.50336357653002
 20
3.194941916943825
 10
12.50278505770958
 20
3.198991548686568
 10
12.50220653888923
 20
3.203041180429397
 10
12.50220653888923
 20
3.207090812172141
 10
12.50220653888923
 20
3.37543978890733
  0
LWPOLYLINE
  5
6A1
330
17
100
AcDbEntity
  8
4
  6
Continuous
100
AcDbPolyline
 90
       61
 70
     0
 43
0.0
 10
12.90192304191934
 20
3.328001245634861
 10
12.91031156481501
 20
3.328579764455303
 10
12.91841082830058
 20
3.329736802096098
 10
12.92564231355544
 20
3.331472358557248
 10
12.93229527999004
 20
3.333786433838842
 10
12.93808046819403
 20
3.336679027940788
 10
12.94357639698783
 20
3.339860881453001
 10
12.94849380696119
 20
3.343621253785566
 10
12.95283269811412
 20
3.347960144938487
 10
12.95659307044667
 20
3.352588295501671
 10
12.9597749239588
 20
3.357505705475033
 10
12.96237825865066
 20
3.362712374858573
 10
12.96440307452199
 20
3.368497563062553
 10
12.96613863098322
 20
3.374282751266533
 10
12.96729566862393
 20
3.380357198880693
 10
12.96787418744446
 20
3.386720905905026
 10
12.96816344685464
 20
3.393373872339626
 10
12.96787418744446
 20
3.399448319953784
 10
12.96671714980358
 20
3.405522767567942
 10
12.96527085275261
 20
3.411307955771838
 10
12.96295677747101
 20
3.417093143975818
 10
12.96035344277925
 20
3.422589072769536
 10
12.95717158926703
 20
3.427795742153161
 10
12.95341121693456
 20
3.432713152126523
 10
12.94936158519172
 20
3.437341302689707
 10
12.94473343462854
 20
3.441390934432451
 10
12.93981602465518
 20
3.445151306765017
 10
12.93489861468182
 20
3.448333160277227
 10
12.92940268588809
 20
3.451225754379174
 10
12.92361749768412
 20
3.453539829660767
 10
12.91783230948014
 20
3.45498612671174
 10
12.91175786186606
 20
3.456143164352537
 10
12.90568341425182
 20
3.456432423762714
 10
12.70320182711328
 20
3.456432423762714
 10
12.7060944212153
 20
3.454118348481122
 10
12.70869775590708
 20
3.451804273199531
 10
12.71130109059893
 20
3.449200938507761
 10
12.71361516588053
 20
3.446886863226167
 10
12.71592924116203
 20
3.444572787944576
 10
12.71824331644363
 20
3.441680193842628
 10
12.72026813231495
 20
3.438787599740681
 10
12.72229294818637
 20
3.435316486818292
 10
12.72518554228832
 20
3.428952779793958
 10
12.72749961756991
 20
3.421432035128825
 10
12.72894591462097
 20
3.414200549873871
 10
12.72952443344133
 20
3.408415361669892
 10
12.72981369285149
 20
3.148371151901975
 10
12.79952521070928
 20
3.209404887453731
 10
12.79952521070928
 20
3.330026061506276
 10
12.83018670819016
 20
3.330315320916453
 10
12.93460935527164
 20
3.157338193618079
 10
13.02456903184322
 20
3.156759674797726
 10
13.01907310304941
 20
3.159941528309849
 10
13.0135771742557
 20
3.163701900642501
 10
13.00837050487206
 20
3.167462272975067
 10
13.00316383548852
 20
3.171801164127988
 10
12.99824642551517
 20
3.175850795870732
 10
12.99361827495199
 20
3.180478946433916
 10
12.98899012438879
 20
3.1851070969971
 10
12.98436197382561
 20
3.190024506970462
 10
12.90192304191934
 20
3.328001245634861
  0
LWPOLYLINE
  5
6E0
330
17
100
AcDbEntity
  8
4
  6
Continuous
100
AcDbPolyline
 90
       83
 70
     0
 43
0.0
 10
12.61964585942956
 20
3.425192407461391
 10
12.61501770886638
 20
3.429531298614311
 10
12.61038955830319
 20
3.433870189767318
 10
12.60576140774009
 20
3.437919821510063
 10
12.60084399776673
 20
3.441680193842628
 10
12.59563732838311
 20
3.44486204735484
 10
12.58985214017921
 20
3.447754641456787
 10
12.58348843315479
 20
3.450357976148556
 10
12.57625694789984
 20
3.452093532609794
 10
12.44146206274766
 20
3.377464604778745
 10
12.4408835439273
 20
3.1851070969971
 10
12.44117280333747
 20
3.181925243484974
 10
12.44175132215782
 20
3.178454130562585
 10
12.44290835979871
 20
3.175561536460553
 10
12.4443546568496
 20
3.172668942358606
 10
12.44609021331083
 20
3.170065607666836
 10
12.44811502918225
 20
3.167462272975067
 10
12.45042910446384
 20
3.165437457103653
 10
12.45303243915561
 20
3.163412641232238
 10
12.45737133030862
 20
3.160809306540468
 10
12.46199948087171
 20
3.158495231258876
 10
12.4666276314349
 20
3.156470415387547
 10
12.47154504140826
 20
3.15473485892631
 10
12.47646245138162
 20
3.153577821285513
 10
12.48137986135498
 20
3.152420783644718
 10
12.48658653073853
 20
3.151553005414186
 10
12.49179320012215
 20
3.150685227183566
 10
12.49699986950569
 20
3.150395967773388
 10
12.50220653888923
 20
3.150106708363126
 10
12.50741320827277
 20
3.150106708363126
 10
12.51290913706649
 20
3.150395967773388
 10
12.51811580645011
 20
3.150685227183566
 10
12.52332247583374
 20
3.151263746003921
 10
12.52852914521728
 20
3.151842264824363
 10
12.53373581460081
 20
3.152710043054981
 10
12.53981026221497
 20
3.153577821285513
 10
12.54588470982913
 20
3.155024118336488
 10
12.55166989803303
 20
3.156470415387547
 10
12.55745508623709
 20
3.158205971848698
 10
12.56324027444099
 20
3.160230787720113
 10
12.56902546264488
 20
3.162544863001706
 10
12.57452139143877
 20
3.165148197693476
 10
12.58001732023249
 20
3.167751532385243
 10
12.58522398961603
 20
3.170644126487192
 10
12.59071991840975
 20
3.173825979999403
 10
12.59563732838311
 20
3.177297092921792
 10
12.60084399776673
 20
3.180768205844178
 10
12.60576140774009
 20
3.184528578176745
 10
12.61038955830319
 20
3.188288950509309
 10
12.61501770886638
 20
3.192338582252055
 10
12.61964585942956
 20
3.196388213994798
 10
12.62687734468452
 20
3.203908958659931
 10
12.6335303111191
 20
3.211718962735325
 10
12.63989401814345
 20
3.219818226220812
 10
12.64538994693726
 20
3.228496008526826
 10
12.6505966163208
 20
3.237752309653108
 10
12.65522476688398
 20
3.247008610779476
 10
12.65898513921646
 20
3.256554171316023
 10
12.66245625213894
 20
3.266388991262747
 10
12.6650595868307
 20
3.276223811209471
 10
12.66708440270203
 20
3.286637149976549
 10
12.668530699753
 20
3.296761229333453
 10
12.66939847798363
 20
3.307174568100617
 10
12.66968773739379
 20
3.317298647457518
 10
12.66910921857336
 20
3.327711986224683
 10
12.66795218093265
 20
3.338125324991763
 10
12.66621662447141
 20
3.34824940434875
 10
12.66477032742044
 20
3.353745333142468
 10
12.66332403036946
 20
3.359241261936269
 10
12.66158847390823
 20
3.364737190729988
 10
12.6595636580369
 20
3.369943860113528
 10
12.65724958275531
 20
3.375150529497153
 10
12.65464624806354
 20
3.380357198880693
 10
12.65204291337168
 20
3.385274608854053
 10
12.64915031926973
 20
3.390192018827416
 10
12.64596846575761
 20
3.395109428800779
 10
12.64249735283522
 20
3.399737579363963
 10
12.63902623991283
 20
3.404365729927148
 10
12.63555512699045
 20
3.408704621080067
 10
12.63179475465788
 20
3.413043512233075
 10
12.62774512291513
 20
3.417093143975818
 10
12.62369549117239
 20
3.421142775718561
 10
12.61964585942956
 20
3.425192407461391
  0
LWPOLYLINE
  5
735
330
17
100
AcDbEntity
  8
4
  6
Continuous
100
AcDbPolyline
 90
      271
 70
     0
 43
0.0
 10
13.25775805707774
 20
3.341017919093794
 10
13.25370842533499
 20
3.34333199437539
 10
13.24965879359216
 20
3.345356810246718
 10
13.24531990243924
 20
3.347092366707953
 10
13.2412702706965
 20
3.348827923169105
 10
13.23693137954349
 20
3.350563479630257
 10
13.23259248839049
 20
3.351720517271053
 10
13.22825359723756
 20
3.353166814322113
 10
13.22391470608464
 20
3.354323851962908
 10
13.21928655552147
 20
3.355191630193443
 10
13.21494766436845
 20
3.355770149013883
 10
13.21003025439509
 20
3.356348667834238
 10
13.20540210383191
 20
3.356927186654678
 10
13.20048469385855
 20
3.357216446064856
 10
13.19556728388518
 20
3.357216446064856
 10
13.19064987391182
 20
3.357216446064856
 10
13.18544320452828
 20
3.356927186654678
 10
13.11717798372157
 20
3.296182710513096
 10
13.12238465310511
 20
3.297339748153893
 10
13.12759132248865
 20
3.298496785794688
 10
13.13279799187227
 20
3.299653823435486
 10
13.1380046612559
 20
3.300521601666104
 10
13.14321133063944
 20
3.301389379896636
 10
13.14841800002298
 20
3.301967898717077
 10
13.15362466940652
 20
3.302546417537435
 10
13.15912059820023
 20
3.302835676947611
 10
13.16432726758377
 20
3.303124936357872
 10
13.1695339369674
 20
3.303124936357872
 10
13.17474060635103
 20
3.303124936357872
 10
13.17994727573456
 20
3.302835676947611
 10
13.1851539451181
 20
3.302257158127256
 10
13.19036061450164
 20
3.301389379896636
 10
13.19556728388518
 20
3.300521601666104
 10
13.20077395326872
 20
3.299364564025307
 10
13.2042450661912
 20
3.298207526384511
 10
13.20800543852368
 20
3.297339748153893
 10
13.21147655144606
 20
3.295893451102918
 10
13.21494766436845
 20
3.294736413462124
 10
13.21841877729085
 20
3.293290116411148
 10
13.22188989021323
 20
3.291843819360091
 10
13.22507174372535
 20
3.290108262898939
 10
13.22854285664783
 20
3.288372706437788
 10
13.23172471015995
 20
3.286347890566372
 10
13.2346173042619
 20
3.28432307469496
 10
13.23750989836385
 20
3.282298258823629
 10
13.24040249246588
 20
3.279984183542038
 10
13.24300582715765
 20
3.277380848850268
 10
13.24560916184942
 20
3.274777514158496
 10
13.24792323713101
 20
3.271884920056463
 10
13.2502373124126
 20
3.268992325954517
 10
13.25370842533499
 20
3.263785656570892
 10
13.25660101943694
 20
3.258000468366997
 10
13.25862583530836
 20
3.252215280163016
 10
13.26007213235933
 20
3.245851573138682
 10
13.26093991058995
 20
3.239777125524523
 10
13.26065065117977
 20
3.233413418500186
 10
13.25920435412871
 20
3.227338970886029
 10
13.25689027884713
 20
3.221553782682048
 10
13.25341916592481
 20
3.216347113298508
 10
13.24936953418199
 20
3.212008222145501
 10
13.2447413836188
 20
3.208247849812937
 10
13.23924545482508
 20
3.205065996300725
 10
13.23346026662119
 20
3.202462661608955
 10
13.22767507841713
 20
3.200437845737627
 10
13.22131137139287
 20
3.198702289276391
 10
13.21523692377863
 20
3.197545251635593
 10
13.21234432967669
 20
3.197255992225418
 10
13.20916247616456
 20
3.196677473405062
 10
13.20626988206252
 20
3.196388213994798
 10
13.20308802855031
 20
3.196388213994798
 10
13.19990617503819
 20
3.196098954584619
 10
13.19701358093624
 20
3.196098954584619
 10
13.19383172742395
 20
3.196098954584619
 10
13.19064987391182
 20
3.196098954584619
 10
13.18775727980987
 20
3.196098954584619
 10
13.18457542629775
 20
3.196388213994798
 10
13.18139357278546
 20
3.196388213994798
 10
13.17821171927333
 20
3.196966732815241
 10
13.17531912517137
 20
3.197255992225418
 10
13.17213727165917
 20
3.197834511045857
 10
13.16924467755713
 20
3.198413029866212
 10
13.16606282404501
 20
3.198991548686568
 10
13.16259171112271
 20
3.199859326917185
 10
13.15912059820023
 20
3.200727105147805
 10
13.15593874468811
 20
3.201884142788602
 10
13.15246763176572
 20
3.203041180429397
 10
13.14928577825351
 20
3.204487477480371
 10
13.14610392474138
 20
3.205933774531345
 10
13.14292207122917
 20
3.207669330992581
 10
13.13974021771696
 20
3.209404887453731
 10
13.13684762361501
 20
3.211140443914882
 10
13.13366577010289
 20
3.213165259786298
 10
13.13077317600086
 20
3.215190075657714
 10
13.12788058189882
 20
3.217214891529041
 10
13.12498798779687
 20
3.219239707400457
 10
13.12238465310511
 20
3.221553782682048
 10
13.11949205900317
 20
3.223867857963641
 10
13.11688872431139
 20
3.226181933245232
 10
13.11254983315838
 20
3.230520824398154
 10
13.10850020141564
 20
3.235148974961339
 10
13.10445056967289
 20
3.239777125524523
 10
13.10040093793007
 20
3.244405276087707
 10
13.09664056559759
 20
3.249033426650806
 10
13.09316945267511
 20
3.25395083662417
 10
13.08940908034263
 20
3.259157506007793
 10
13.08622722683034
 20
3.264074915981156
 10
13.08304537331822
 20
3.269281585364696
 10
13.08015277921626
 20
3.274777514158496
 10
13.07754944452449
 20
3.279984183542038
 10
13.07494610983273
 20
3.285480112335756
 10
13.07263203455113
 20
3.291265300539736
 10
13.0708964780899
 20
3.296761229333453
 10
13.06916092162875
 20
3.302835676947611
 10
13.06771462457778
 20
3.308620865151592
 10
13.06568980870636
 20
3.321926798020705
 10
13.06482203047582
 20
3.335811249710171
 10
13.06568980870636
 20
3.349695701399726
 10
13.06800388398795
 20
3.363001634268837
 10
13.0720535157307
 20
3.375729048317507
 10
13.07812796334485
 20
3.387299424725468
 10
13.08593796742016
 20
3.397712763492549
 10
13.09577278736689
 20
3.406101286388298
 10
13.09924390028935
 20
3.408126102259711
 10
13.10271501321166
 20
3.409861658720865
 10
13.10647538554431
 20
3.411597215182015
 10
13.10994649846662
 20
3.413043512233075
 10
13.11370687079927
 20
3.414200549873871
 10
13.11775650254192
 20
3.415357587514668
 10
13.12151687487457
 20
3.416225365745201
 10
13.12556650661732
 20
3.416803884565641
 10
13.12932687894988
 20
3.417382403385996
 10
13.13337651069272
 20
3.417671662796172
 10
13.13742614243537
 20
3.417671662796172
 10
13.1414757741782
 20
3.417671662796172
 10
13.14552540592103
 20
3.417671662796172
 10
13.14957503766369
 20
3.417382403385996
 10
13.15333540999634
 20
3.416803884565641
 10
13.15738504173908
 20
3.416225365745201
 10
13.16259171112271
 20
3.415357587514668
 10
13.16779838050625
 20
3.414200549873871
 10
13.17300504988979
 20
3.413043512233075
 10
13.17792245986315
 20
3.411307955771838
 10
13.18283986983651
 20
3.409572399310687
 10
13.18775727980987
 20
3.407547583439272
 10
13.19267468978323
 20
3.405522767567942
 10
13.19759209975659
 20
3.403208692286352
 10
13.20222025031978
 20
3.400605357594495
 10
13.20655914147279
 20
3.398002022902725
 10
13.21118729203589
 20
3.394820169390602
 10
13.21552618318881
 20
3.391927575288566
 10
13.21986507434181
 20
3.388456462366264
 10
13.22391470608464
 20
3.385274608854053
 10
13.22796433782738
 20
3.381514236521489
 10
13.23172471015995
 20
3.377753864188923
 10
13.28523770104659
 20
3.406679805208654
 10
13.28176658812411
 20
3.413043512233075
 10
13.27771695638145
 20
3.41882870043697
 10
13.27308880581826
 20
3.424324629230772
 10
13.26788213643472
 20
3.429242039204133
 10
13.26238620764092
 20
3.433870189767318
 10
13.25631176002676
 20
3.437919821510063
 10
13.2502373124126
 20
3.441680193842628
 10
13.24387360538827
 20
3.445151306765017
 10
13.23895619541491
 20
3.447465382046607
 10
13.23374952603137
 20
3.449779457328201
 10
13.228832116058
 20
3.451804273199531
 10
13.22362544667446
 20
3.453539829660767
 10
13.21812951788058
 20
3.455275386121919
 10
13.21292284849704
 20
3.456432423762714
 10
13.20742691970332
 20
3.45758946140351
 10
13.2019309909096
 20
3.458457239634129
 10
13.1964350621158
 20
3.459035758454485
 10
13.190939133322
 20
3.459325017864747
 10
13.1851539451181
 20
3.459614277274924
 10
13.17965801632438
 20
3.459614277274924
 10
13.1741620875305
 20
3.459325017864747
 10
13.16866615873678
 20
3.458746499044306
 10
13.16317022994306
 20
3.457878720813687
 10
13.15767430114926
 20
3.456721683172892
 10
13.15246763176572
 20
3.455564645532096
 10
13.14755022179236
 20
3.453829089070946
 10
13.14234355240874
 20
3.452093532609794
 10
13.13742614243537
 20
3.450357976148556
 10
13.13279799187227
 20
3.448043900866965
 10
13.12788058189882
 20
3.445729825585373
 10
13.12325243133572
 20
3.443126490893601
 10
13.11862428077262
 20
3.440523156201832
 10
13.11399613020944
 20
3.437630562099884
 10
13.10965723905643
 20
3.434737967997851
 10
13.10531834790344
 20
3.431556114485728
 10
13.1009794567505
 20
3.428374260973515
 10
13.09664056559759
 20
3.424903148051129
 10
13.09259093385476
 20
3.421432035128825
 10
13.08825204270175
 20
3.417960922206435
 10
13.08420241095901
 20
3.414489809284048
 10
13.07841722275503
 20
3.409283139900508
 10
13.07292129396131
 20
3.404076470516883
 10
13.06742536516759
 20
3.398580541723166
 10
13.06221869578396
 20
3.392795353519185
 10
13.05701202640042
 20
3.387010165315206
 10
13.05209461642707
 20
3.381224977111309
 10
13.04746646586388
 20
3.375150529497153
 10
13.04283831530078
 20
3.368786822472732
 10
13.03878868355795
 20
3.362423115448395
 10
13.03473905181512
 20
3.355770149013883
 10
13.03097867948264
 20
3.349117182579283
 10
13.02779682597035
 20
3.342174956734593
 10
13.02490423186839
 20
3.335232730889815
 10
13.02230089717663
 20
3.328001245634861
 10
13.01998682189504
 20
3.320769760379908
 10
13.01825126543389
 20
3.313249015714776
 10
13.01651570897274
 20
3.303124936357872
 10
13.01564793074211
 20
3.292711597590708
 10
13.01535867133186
 20
3.282587518233806
 10
13.01564793074211
 20
3.272174179466643
 10
13.01680496838292
 20
3.262050100109741
 10
13.01882978425433
 20
3.251926020752839
 10
13.0214331189461
 20
3.241801941395937
 10
13.02490423186839
 20
3.232256380859391
 10
13.02721830715
 20
3.227049711475766
 10
13.02982164184177
 20
3.221843042092225
 10
13.03242497653353
 20
3.216925632118865
 10
13.03560683004583
 20
3.21229748155568
 10
13.03878868355795
 20
3.207669330992581
 10
13.04225979648026
 20
3.203041180429397
 10
13.0460201688129
 20
3.198702289276391
 10
13.04978054114547
 20
3.194652657533646
 10
13.05383017288822
 20
3.190603025790903
 10
13.05816906404122
 20
3.186842653458337
 10
13.06250795519423
 20
3.183082281125686
 10
13.06684684634706
 20
3.179611168203383
 10
13.07147499691025
 20
3.176429314691173
 10
13.07639240688361
 20
3.173536720589225
 10
13.08130981685697
 20
3.170644126487192
 10
13.08622722683034
 20
3.168040791795423
 10
13.0977976032383
 20
3.16312338182206
 10
13.10965723905643
 20
3.159073750079318
 10
13.12180613428475
 20
3.156181155977283
 10
13.13424428892325
 20
3.153867080695777
 10
13.14668244356175
 20
3.152710043054981
 10
13.15912059820023
 20
3.15213152423454
 10
13.17155875283873
 20
3.152710043054981
 10
13.18428616688748
 20
3.154156340105954
 10
13.1964350621158
 20
3.156470415387547
 10
13.20829469793385
 20
3.159652268899673
 10
13.22015433375199
 20
3.163991160052678
 10
13.23143545074978
 20
3.168908570026041
 10
13.24213804892703
 20
3.174983017640198
 10
13.25226212828393
 20
3.181925243484974
 10
13.26180768882048
 20
3.189735247560285
 10
13.27077473053667
 20
3.198413029866212
 10
13.27742769697128
 20
3.206223033941522
 10
13.28350214458534
 20
3.214611556837273
 10
13.28899807337906
 20
3.223000079733021
 10
13.29362622394224
 20
3.232256380859391
 10
13.29767585568507
 20
3.241512681985675
 10
13.3008577091972
 20
3.251058242522221
 10
13.30288252506862
 20
3.260893062468943
 10
13.30432882211967
 20
3.271017141825846
 10
13.30461808152985
 20
3.27911640531142
 10
13.30403956270941
 20
3.28692640938673
 10
13.30259326565843
 20
3.294736413462124
 10
13.29998993096667
 20
3.302546417537435
 10
13.29651881804428
 20
3.308910124561768
 10
13.29246918630153
 20
3.314695312765748
 10
13.28755177632817
 20
3.320191241559551
 10
13.28234510694455
 20
3.325108651532912
 10
13.27655991874056
 20
3.329447542685837
 10
13.2704854711265
 20
3.333786433838842
 10
13.26412176410207
 20
3.337546806171408
 10
13.25775805707774
 20
3.341017919093794
  0
LWPOLYLINE
  5
846
330
17
100
AcDbEntity
  8
4
  6
Continuous
 62
     4
100
AcDbPolyline
 90
       96
 70
     0
 43
0.0
 10
13.91606436274175
 20
3.157048934207903
 10
13.91143621217857
 20
3.159941528309849
 10
13.90651880220521
 20
3.163412641232238
 10
13.90131213282167
 20
3.167751532385243
 10
13.89668398225849
 20
3.172668942358606
 10
13.89234509110548
 20
3.178164871152323
 10
13.88887397818317
 20
3.184817837586923
 10
13.88655990290158
 20
3.192049322841876
 10
13.88569212467088
 20
3.200437845737627
 10
13.88569212467088
 20
3.392216834698832
 10
13.88511360585053
 20
3.400316098184319
 10
13.88395656820973
 20
3.40783684284945
 10
13.88164249292822
 20
3.415068328104403
 10
13.87874989882619
 20
3.421721294539002
 10
13.8752787859038
 20
3.428374260973515
 10
13.87093989475079
 20
3.434159449177498
 10
13.86602248477743
 20
3.439655377971214
 10
13.86052655598372
 20
3.44486204735484
 10
13.85474136777983
 20
3.449490197917938
 10
13.8483776607554
 20
3.453539829660767
 10
13.8417246943208
 20
3.457010942583156
 10
13.83507172788637
 20
3.460192796095281
 10
13.82784024263142
 20
3.462506871376873
 10
13.82060875737646
 20
3.464242427838109
 10
13.81308801271133
 20
3.465688724889083
 10
13.80556726804611
 20
3.466267243709437
 10
13.80036059866249
 20
3.466267243709437
 10
13.79515392927895
 20
3.466267243709437
 10
13.79023651930559
 20
3.465688724889083
 10
13.78502984992204
 20
3.465110206068642
 10
13.78011243994869
 20
3.464242427838109
 10
13.77490577056515
 20
3.462796130787051
 10
13.76998836059179
 20
3.461349833736076
 10
13.76507095061842
 20
3.459903536685103
 10
13.76015354064506
 20
3.457878720813687
 10
13.75552539008187
 20
3.455853904942358
 10
13.7508972395187
 20
3.453539829660767
 10
13.74626908895551
 20
3.451225754379174
 10
13.74164093839232
 20
3.448333160277227
 10
13.73730204723948
 20
3.445729825585373
 10
13.73296315608649
 20
3.442837231483424
 10
13.72891352434365
 20
3.439655377971214
 10
13.7271779678825
 20
3.443705009714043
 10
13.72486389260091
 20
3.448043900866965
 10
13.72168203908869
 20
3.452093532609794
 10
13.71821092616639
 20
3.455853904942358
 10
13.71473981324393
 20
3.459035758454485
 10
13.71126870032162
 20
3.461639093146255
 10
13.70808684680949
 20
3.463374649607491
 10
13.7057727715279
 20
3.463953168427846
 10
13.63490421602942
 20
3.463953168427846
 10
13.63924310718234
 20
3.459903536685103
 10
13.6441605171557
 20
3.455275386121919
 10
13.6496564459495
 20
3.449779457328201
 10
13.65486311533304
 20
3.443415750303866
 10
13.65978052530641
 20
3.436184265048913
 10
13.66354089763897
 20
3.428663520383694
 10
13.66643349174101
 20
3.420274997488029
 10
13.66730126997154
 20
3.411597215182015
 10
13.66730126997154
 20
3.157338193618079
 10
13.73238463726613
 20
3.209983406274088
 10
13.73238463726613
 20
3.393952391159982
 10
13.73267389667631
 20
3.398580541723166
 10
13.73354167490684
 20
3.402919432876086
 10
13.73527723136807
 20
3.406969064618916
 10
13.73730204723948
 20
3.41101869636166
 10
13.73961612252099
 20
3.415068328104403
 10
13.74250871662303
 20
3.418539441026791
 10
13.74597982954533
 20
3.422010553949181
 10
13.74945094246772
 20
3.425192407461391
 10
13.75350057421046
 20
3.427795742153161
 10
13.75755020595329
 20
3.430109817434753
 10
13.7618890971063
 20
3.432423892716345
 10
13.76622798825922
 20
3.433870189767318
 10
13.77085613882232
 20
3.435316486818292
 10
13.7754842893855
 20
3.435895005638649
 10
13.77982318053851
 20
3.436473524459088
 10
13.78445133110169
 20
3.436184265048913
 10
13.79168281635665
 20
3.435027227408115
 10
13.79862504220142
 20
3.432713152126523
 10
13.80527800863594
 20
3.429531298614311
 10
13.81106319683991
 20
3.425192407461391
 10
13.81598060681328
 20
3.419985738077766
 10
13.81974097914576
 20
3.413911290463609
 10
13.82205505442735
 20
3.406679805208654
 10
13.82292283265806
 20
3.398580541723166
 10
13.82292283265806
 20
3.193206360482673
 10
13.82379061088859
 20
3.185685615817542
 10
13.82610468617018
 20
3.178743389972765
 10
13.82957579909257
 20
3.172668942358606
 10
13.83449320906584
 20
3.167462272975067
 10
13.84027839726991
 20
3.16312338182206
 10
13.84693136370443
 20
3.159652268899673
 10
13.85416284895939
 20
3.157627453028343
 10
13.86197285303469
 20
3.157048934207903
 10
13.91606436274175
 20
3.157048934207903
  0
LWPOLYLINE
  5
8A8
330
17
100
AcDbEntity
  8
4
  6
Continuous
100
AcDbPolyline
 90
       46
 70
     0
 43
0.0
 10
15.13531376554992
 20
3.463085390197312
 10
14.97824590581252
 20
3.463085390197312
 10
14.98171701873482
 20
3.458457239634129
 10
14.98518813165721
 20
3.453250570250504
 10
14.98808072575924
 20
3.448043900866965
 10
14.99068406045101
 20
3.442547972073247
 10
14.9929981357326
 20
3.436762783869265
 10
14.99473369219366
 20
3.430977595665286
 10
14.99589072983455
 20
3.425481666871568
 10
14.99617998924472
 20
3.419696478667586
 10
14.99617998924472
 20
3.152710043054981
 10
15.0661807665126
 20
3.220107485631074
 10
15.0661807665126
 20
3.339860881453001
 10
15.16047933423708
 20
3.339860881453001
 10
15.16655378185134
 20
3.340150140863178
 10
15.17291748887558
 20
3.340439400273357
 10
15.17870267707964
 20
3.341307178503973
 10
15.18477712469372
 20
3.342464216144768
 10
15.19027305348744
 20
3.344199772605921
 10
15.19576898228124
 20
3.346513847887513
 10
15.20097565166486
 20
3.349117182579283
 10
15.20589306163822
 20
3.352299036091493
 10
15.21023195279115
 20
3.35605940842406
 10
15.21399232512371
 20
3.360687558987243
 10
15.2174634380461
 20
3.365604968960607
 10
15.22035603214813
 20
3.371390157164586
 10
15.22238084801946
 20
3.378043123599101
 10
15.22411640448062
 20
3.385274608854053
 10
15.22498418271123
 20
3.393373872339626
 10
15.22498418271123
 20
3.402340914055733
 10
15.22411640448062
 20
3.411886474592278
 10
15.22238084801946
 20
3.420564256898208
 10
15.21948825391743
 20
3.428085001563338
 10
15.21601714099513
 20
3.434737967997851
 10
15.21138899043194
 20
3.440523156201832
 10
15.20647158045859
 20
3.445440566175194
 10
15.20068639225461
 20
3.449490197917938
 10
15.19461194464044
 20
3.452961310840326
 10
15.18766971879567
 20
3.455853904942358
 10
15.18072749295098
 20
3.458167980223951
 10
15.17349600769602
 20
3.459903536685103
 10
15.16597526303089
 20
3.461060574325897
 10
15.15816525895549
 20
3.462217611966694
 10
15.15035525488018
 20
3.462796130787051
 10
15.14283451021506
 20
3.463085390197312
 10
15.13531376554992
 20
3.463085390197312
  0
LWPOLYLINE
  5
8D8
330
17
100
AcDbEntity
  8
4
  6
Continuous
100
AcDbPolyline
 90
       21
 70
     0
 43
0.0
 10
12.24614784408168
 20
3.543403366049752
 10
12.24614784408168
 20
3.203745445419443
 10
12.25942595432528
 20
3.072031333985544
 10
12.2751937102395
 20
3.203745445419443
 10
12.2751937102395
 20
3.542810593271006
 10
12.27483804657232
 20
3.547671330056604
 10
12.2738896101263
 20
3.551939294063457
 10
12.27246695545733
 20
3.555495930735861
 10
12.27068863712116
 20
3.558459794629516
 10
12.26843610056195
 20
3.560712331188725
 10
12.26594645489127
 20
3.562372094969102
 10
12.26333825466487
 20
3.563320531415116
 10
12.26073005443848
 20
3.563676195082296
 10
12.25800329965631
 20
3.563439085970814
 10
12.25539509942991
 20
3.562490649524884
 10
12.25290545375923
 20
3.560830885744423
 10
12.2506529172001
 20
3.558696903740998
 10
12.24887459886386
 20
3.555851594403126
 10
12.24745194419497
 20
3.552294957730723
 10
12.24650350774895
 20
3.548145548279569
 10
12.24614784408168
 20
3.543403366049752
  0
LWPOLYLINE
  5
8EF
330
17
100
AcDbEntity
  8
4
  6
Continuous
100
AcDbPolyline
 90
       21
 70
     0
 43
0.0
 10
12.19682452710034
 20
3.494851957225386
 10
12.19682452710034
 20
3.203863999975228
 10
12.21140673745705
 20
3.072031333985544
 10
12.22646316603682
 20
3.203271227196478
 10
12.22646316603682
 20
3.4959189482271
 10
12.22610750236955
 20
3.500661130456915
 10
12.22515906592362
 20
3.504691985352283
 10
12.22373641125464
 20
3.508130067468905
 10
12.2218395383627
 20
3.510975376806863
 10
12.21958700180348
 20
3.512990804254505
 10
12.21709735613288
 20
3.514532013479183
 10
12.21437060135071
 20
3.515361895369412
 10
12.21164384656854
 20
3.515599004480894
 10
12.20891709178635
 20
3.51512478625793
 10
12.20619033700418
 20
3.514057795256218
 10
12.20370069133358
 20
3.512398031475756
 10
12.20144815477438
 20
3.510145494916631
 10
12.19955128188251
 20
3.507181631022974
 10
12.19812862721345
 20
3.503743548906268
 10
12.19718019076753
 20
3.499594139455203
 10
12.19682452710034
 20
3.494851957225386
  0
LINE
  5
906
330
17
100
AcDbEntity
  8
0
100
AcDbLine
 10
12.04381483455097
 20
1.599999999999915
 30
0.0
 11
12.04381483455097
 21
3.631959753560121
 31
0.0
  0
LWPOLYLINE
  5
907
330
17
100
AcDbEntity
  8
4
  6
Continuous
100
AcDbPolyline
 90
       21
 70
     0
 43
0.0
 10
12.29416706094992
 20
3.515210762388198
 10
12.29416706094992
 20
3.203745445419443
 10
12.30744517119344
 20
3.072031333985544
 10
12.32321292710773
 20
3.203745445419443
 10
12.32321292710773
 20
3.514617989609448
 10
12.32285726344046
 20
3.519478726395049
 10
12.32190882699445
 20
3.523746690401899
 10
12.32048617232555
 20
3.527303327074305
 10
12.31870785398931
 20
3.530267190967961
 10
12.31645531743019
 20
3.532519727527171
 10
12.3139656717595
 20
3.534179491307631
 10
12.3113574715331
 20
3.535127927753559
 10
12.30874927130672
 20
3.535483591420828
 10
12.30602251652454
 20
3.535246482309344
 10
12.30341431629815
 20
3.53429804586333
 10
12.30092467062746
 20
3.532638282082869
 10
12.29867213406834
 20
3.530504300079444
 10
12.29689381573209
 20
3.527658990741571
 10
12.29547116106311
 20
3.524102354069166
 10
12.2945227246171
 20
3.519952944618098
 10
12.29416706094992
 20
3.515210762388198
  0
TEXT
  5
91E
330
17
100
AcDbEntity
  8
3
100
AcDbText
 10
13.61239411467719
 20
1.783153505858034
 30
0.0
 40
0.156
  1
MAT'L. DESCRIPTION
  7
SIMPLEX
 72
     1
 11
14.77125125753433
 21
1.783153505858034
 31
0.0
100
AcDbText
  0
LINE
  5
91F
330
17
100
AcDbEntity
  8
0
100
AcDbLine
 10
12.04381483455097
 20
2.269844922297496
 30
0.0
 11
17.49696939050781
 21
2.269844922297496
 31
0.0
  0
TEXT
  5
920
330
17
100
AcDbEntity
  8
3
100
AcDbText
 10
12.1230120331185
 20
2.372154126682997
 30
0.0
 40
0.0781522982138528
  1
FILE PATH
  7
SIMPLEX
100
AcDbText
  0
TEXT
  5
921
330
17
100
AcDbEntity
  8
3
100
AcDbText
 10
12.11054985639056
 20
2.09797742110938
 30
0.0
 40
0.0781522982138528
  1
MAT'L DESCRIPTION:
  7
SIMPLEX
100
AcDbText
  0
TEXT
  5
922
330
17
100
AcDbEntity
  8
3
100
AcDbText
 10
12.12721133705336
 20
2.8504367714216
 30
0.0
 40
0.0781522982138528
  1
NAME:
  7
SIMPLEX
100
AcDbText
  0
TEXT
  5
923
330
17
100
AcDbEntity
  8
3
100
AcDbText
 10
13.96929617018797
 20
2.622298285376095
 30
0.0
 40
0.1563045964277055
  1
WURLITZER PEDAL SHARP ASSEMBLY
  7
SIMPLEX
 72
     1
 11
16.17244667221658
 21
2.622298285376095
 31
0.0
100
AcDbText
  0
TEXT
  5
924
330
17
100
AcDbEntity
  8
3
100
AcDbText
 10
13.77877774903092
 20
2.345443402288886
 30
0.0
 40
0.1162906197422129
  1
DWG/PART NO/031315
  7
SIMPLEX
 72
     1
 11
14.77832331395804
 21
2.345443402288886
 31
0.0
100
AcDbText
  0
LINE
  5
925
330
17
100
AcDbEntity
  8
0
100
AcDbLine
 10
17.49696939050781
 20
1.599999999999915
 30
0.0
 11
17.49696939050781
 21
2.537827578566158
 31
0.0
  0
LWPOLYLINE
  5
929
330
17
100
AcDbEntity
  8
4
  6
Continuous
100
AcDbPolyline
 90
       18
 70
     0
 43
0.0
 10
12.2691474278964
 20
3.203508336307959
 10
12.2690288733407
 20
3.201611463416017
 10
12.26879176422922
 20
3.199714590524073
 10
12.26819899145047
 20
3.198054826743613
 10
12.26748766411594
 20
3.196513617518935
 10
12.26630211855853
 20
3.19509096285004
 10
12.26487946388956
 20
3.194023971848243
 10
12.26321970010908
 20
3.193312644513797
 10
12.26108571810566
 20
3.192956980846531
 10
12.25907029065802
 20
3.193075535402313
 10
12.25717341776608
 20
3.193668308181063
 10
12.25575076309711
 20
3.194735299182775
 10
12.25456521753969
 20
3.196157953851753
 10
12.25361678109368
 20
3.197817717632129
 10
12.25290545375923
 20
3.199596035968373
 10
12.25243123553626
 20
3.201492908860319
 10
12.25231268098057
 20
3.203508336307959
 10
12.2691474278964
 20
3.203508336307959
  0
LWPOLYLINE
  5
93D
330
17
100
AcDbEntity
  8
4
  6
Continuous
100
AcDbPolyline
 90
       18
 70
     0
 43
0.0
 10
12.25219412642478
 20
3.210503055096985
 10
12.25207557186899
 20
3.215600900994067
 10
12.25207557186899
 20
3.221172965114113
 10
12.25207557186899
 20
3.227219247457209
 10
12.25254979009196
 20
3.233739748023186
 10
12.25337967198228
 20
3.240615912256511
 10
12.25492088120695
 20
3.247966294712718
 10
12.25729197232187
 20
3.255672340836277
 10
12.26073005443848
 20
3.263734050627013
 10
12.26357536377645
 20
3.25614655905924
 10
12.26582790033557
 20
3.248677622047251
 10
12.26748766411594
 20
3.241445794146743
 10
12.26867320967345
 20
3.234451075357718
 10
12.26938453700797
 20
3.227693465680174
 10
12.26962164611945
 20
3.22152862878138
 10
12.26962164611945
 20
3.215719455549852
 10
12.26938453700797
 20
3.210503055096985
 10
12.25219412642478
 20
3.210503055096985
  0
LWPOLYLINE
  5
951
330
17
100
AcDbEntity
  8
4
  6
Continuous
100
AcDbPolyline
 90
       18
 70
     0
 43
0.0
 10
12.20180381844164
 20
3.210028836874021
 10
12.20168526388594
 20
3.216905001107263
 10
12.2021594821089
 20
3.224018274452071
 10
12.20298936399905
 20
3.231131547796794
 10
12.20417490955654
 20
3.238126266585821
 10
12.20571611878123
 20
3.24476532170758
 10
12.20749443711747
 20
3.250693049494893
 10
12.20950986456512
 20
3.255909449947758
 10
12.21176240112432
 20
3.259940304843127
 10
12.21365927401618
 20
3.256028004503455
 10
12.21555614690821
 20
3.251048713162158
 10
12.21733446524437
 20
3.245002430819063
 10
12.21887567446905
 20
3.238244821141603
 10
12.22017977458224
 20
3.231131547796794
 10
12.22112821102825
 20
3.223899719896287
 10
12.22160242925122
 20
3.216786446551563
 10
12.22160242925122
 20
3.210028836874021
 10
12.20180381844164
 20
3.210028836874021
  0
LWPOLYLINE
  5
965
330
17
100
AcDbEntity
  8
4
  6
Continuous
100
AcDbPolyline
 90
       18
 70
     0
 43
0.0
 10
12.22136532013974
 20
3.203508336307959
 10
12.22136532013974
 20
3.201611463416017
 10
12.22112821102825
 20
3.199714590524073
 10
12.22053543824951
 20
3.197936272187912
 10
12.21958700180348
 20
3.196157953851753
 10
12.21840145624608
 20
3.194616744626991
 10
12.21674169246562
 20
3.193431199069579
 10
12.21484481957368
 20
3.192601317179348
 10
12.21247372845877
 20
3.192364208067868
 10
12.21010263734386
 20
3.192719871735048
 10
12.20808720989621
 20
3.193431199069579
 10
12.20630889155997
 20
3.194498190071293
 10
12.2047676823353
 20
3.196039399295971
 10
12.20370069133358
 20
3.197699163076431
 10
12.20275225488766
 20
3.199477481412591
 10
12.2022780366646
 20
3.201492908860319
 10
12.20204092755312
 20
3.203508336307959
 10
12.22136532013974
 20
3.203508336307959
  0
LINE
  5
979
330
17
100
AcDbEntity
  8
0
100
AcDbLine
 10
12.26043603597086
 20
3.563650628259066
 30
0.0
 11
12.26043603597086
 21
3.563650628259066
 31
0.0
  0
LWPOLYLINE
  5
97A
330
17
100
AcDbEntity
  8
4
  6
Continuous
100
AcDbPolyline
 90
       18
 70
     0
 43
0.0
 10
12.30021334329302
 20
3.210503055096985
 10
12.30009478873723
 20
3.215600900994067
 10
12.30009478873723
 20
3.221172965114113
 10
12.30009478873723
 20
3.227219247457209
 10
12.3005690069602
 20
3.233739748023186
 10
12.30139888885043
 20
3.240615912256511
 10
12.30294009807519
 20
3.247966294712718
 10
12.30531118919002
 20
3.255672340836277
 10
12.30874927130672
 20
3.263734050627013
 10
12.31159458064458
 20
3.25614655905924
 10
12.31384711720372
 20
3.248677622047251
 10
12.31550688098417
 20
3.241445794146743
 10
12.31669242654167
 20
3.234451075357718
 10
12.3174037538762
 20
3.227693465680174
 10
12.3176408629876
 20
3.22152862878138
 10
12.3176408629876
 20
3.215719455549852
 10
12.3174037538762
 20
3.210503055096985
 10
12.30021334329302
 20
3.210503055096985
  0
LWPOLYLINE
  5
98E
330
17
100
AcDbEntity
  8
4
  6
Continuous
100
AcDbPolyline
 90
       18
 70
     0
 43
0.0
 10
12.31716664476464
 20
3.203508336307959
 10
12.31704809020894
 20
3.201611463416017
 10
12.31681098109746
 20
3.199714590524073
 10
12.3162182083187
 20
3.198054826743613
 10
12.31550688098417
 20
3.196513617518935
 10
12.31432133542676
 20
3.19509096285004
 10
12.31289868075779
 20
3.194023971848243
 10
12.31123891697732
 20
3.193312644513797
 10
12.3091049349739
 20
3.192956980846531
 10
12.30708950752625
 20
3.193075535402313
 10
12.30519263463431
 20
3.193668308181063
 10
12.30376997996533
 20
3.194735299182775
 10
12.30258443440783
 20
3.196157953851753
 10
12.30163599796191
 20
3.197817717632129
 10
12.30092467062746
 20
3.199596035968373
 10
12.30045045240441
 20
3.201492908860319
 10
12.30033189784872
 20
3.203508336307959
 10
12.31716664476464
 20
3.203508336307959
  0
LWPOLYLINE
  5
9A4
330
17
100
AcDbEntity
  8
4
  6
Continuous
100
AcDbPolyline
 90
       21
 70
     0
 43
0.0
 10
12.90076600427846
 20
3.393373872339626
 10
12.89989822604792
 20
3.384406830623436
 10
12.89729489135616
 20
3.376018307727684
 10
12.89324525961333
 20
3.368786822472732
 10
12.88774933081961
 20
3.362423115448395
 10
12.88109636438502
 20
3.357216446064856
 10
12.87357561971988
 20
3.353456073732288
 10
12.86518709682422
 20
3.351141998450698
 10
12.85650931451819
 20
3.350274220220078
 10
12.79836817306838
 20
3.350274220220078
 10
12.79836817306838
 20
3.42461388864095
 10
12.7925829848645
 20
3.438787599740681
 10
12.85766635215899
 20
3.438787599740681
 10
12.86634413446493
 20
3.437919821510063
 10
12.87473265736068
 20
3.435316486818292
 10
12.88196414261562
 20
3.431266855075548
 10
12.88832784963997
 20
3.425770926281745
 10
12.8935345190235
 20
3.41882870043697
 10
12.89729489135616
 20
3.411307955771838
 10
12.89989822604792
 20
3.402630173465909
 10
12.90076600427846
 20
3.393373872339626
  0
LWPOLYLINE
  5
9BB
330
17
100
AcDbEntity
  8
4
  6
Continuous
100
AcDbPolyline
 90
        5
 70
     0
 43
0.0
 10
13.51245962433962
 20
3.308910124561768
 10
13.42770661715159
 20
3.363001634268837
 10
13.42770661715159
 20
3.310067162202566
 10
13.5127488837498
 20
3.264364175391333
 10
13.51245962433962
 20
3.308910124561768
  0
LWPOLYLINE
  5
9C3
330
17
100
AcDbEntity
  8
4
  6
Continuous
100
AcDbPolyline
 90
       21
 70
     0
 43
0.0
 10
14.77341832253473
 20
3.448043900866965
 10
14.84428687803321
 20
3.448043900866965
 10
14.85325391974932
 20
3.447176122636431
 10
14.86193170205525
 20
3.444572787944576
 10
14.86945244672046
 20
3.440523156201832
 10
14.87639467256515
 20
3.435027227408115
 10
14.88189060135896
 20
3.428374260973515
 10
14.88622949251188
 20
3.420853516308384
 10
14.88883282720374
 20
3.412464993412633
 10
14.88970060543427
 20
3.403208692286352
 10
14.88912208661391
 20
3.395687947621134
 10
14.88738653015268
 20
3.388167202956001
 10
14.8847831954609
 20
3.381224977111309
 10
14.88102282312834
 20
3.375150529497153
 10
14.87610541315498
 20
3.369943860113528
 10
14.870320224951
 20
3.365894228370784
 10
14.86366725851639
 20
3.363290893679014
 10
14.85585725444108
 20
3.362423115448395
 10
14.78672425540384
 20
3.362423115448395
 10
14.78672425540384
 20
3.432713152126523
 10
14.77341832253473
 20
3.448043900866965
  0
LWPOLYLINE
  5
9DA
330
17
100
AcDbEntity
  8
4
  6
Continuous
100
AcDbPolyline
 90
       21
 70
     0
 43
0.0
 10
15.05345335246392
 20
3.447465382046607
 10
15.12432190796241
 20
3.447465382046607
 10
15.13357820908868
 20
3.446597603815991
 10
15.14196673198444
 20
3.443994269124221
 10
15.14977673605984
 20
3.439944637381476
 10
15.1567189619046
 20
3.434448708587674
 10
15.16221489069832
 20
3.427795742153161
 10
15.16655378185134
 20
3.419985738077766
 10
15.1691571165431
 20
3.411597215182015
 10
15.17002489477363
 20
3.402340914055733
 10
15.16944637595327
 20
3.394820169390602
 10
15.16771081949204
 20
3.387299424725468
 10
15.16481822539009
 20
3.38064645829087
 10
15.16105785305753
 20
3.374282751266533
 10
15.15614044308416
 20
3.369076081882993
 10
15.15035525488018
 20
3.365026450140164
 10
15.14370228844559
 20
3.362423115448395
 10
15.13589228437028
 20
3.361555337217863
 10
15.06675928533303
 20
3.361555337217863
 10
15.06675928533303
 20
3.431845373895904
 10
15.05345335246392
 20
3.447465382046607
  0
LWPOLYLINE
  5
9F2
330
17
100
AcDbEntity
  8
4
  6
Continuous
100
AcDbPolyline
 90
       21
 70
     0
 43
0.0
 10
17.77757086735774
 20
3.395687947621134
 10
17.77670308912703
 20
3.386720905905026
 10
17.77409975443526
 20
3.378332383009278
 10
17.77005012269252
 20
3.371100897754323
 10
17.76455419389871
 20
3.364737190729988
 10
17.75790122746429
 20
3.359530521346448
 10
17.75038048279907
 20
3.355770149013883
 10
17.7422812193135
 20
3.353456073732288
 10
17.73360343700765
 20
3.352588295501671
 10
17.67546229555784
 20
3.352588295501671
 10
17.67546229555784
 20
3.426927963922541
 10
17.6693878479436
 20
3.441101675022273
 10
17.73447121523819
 20
3.441101675022273
 10
17.74343825695438
 20
3.440233896791654
 10
17.75153752043987
 20
3.437630562099884
 10
17.75876900569482
 20
3.433580930357056
 10
17.76513271271924
 20
3.428085001563338
 10
17.77033938210278
 20
3.421142775718561
 10
17.77409975443526
 20
3.41362203105343
 10
17.77670308912703
 20
3.404944248747503
 10
17.77757086735774
 20
3.395687947621134
  0
LWPOLYLINE
  5
A09
330
17
100
AcDbEntity
  8
4
  6
Continuous
 62
     4
100
AcDbPolyline
 90
      205
 70
     0
 43
0.0
 10
18.57715955873931
 20
3.422878332179799
 10
18.569349554664
 20
3.430977595665286
 10
18.56096103176816
 20
3.438209080920241
 10
18.5514154712317
 20
3.444572787944576
 10
18.54129139187471
 20
3.450357976148556
 10
18.53058879369745
 20
3.45498612671174
 10
18.51959693610985
 20
3.458746499044306
 10
18.50802655970198
 20
3.461639093146255
 10
18.49616692388392
 20
3.463663909017667
 10
18.48401802865561
 20
3.464531687248288
 10
18.47186913342729
 20
3.464820946658466
 10
18.45972023819898
 20
3.464242427838109
 10
18.44757134297066
 20
3.462506871376873
 10
18.43571170715252
 20
3.459903536685103
 10
18.42414133074456
 20
3.456432423762714
 10
18.41314947315712
 20
3.452093532609794
 10
18.4024468749797
 20
3.446886863226167
 10
18.39434761149421
 20
3.441969453252806
 10
18.38682686682908
 20
3.436473524459088
 10
18.37959538157412
 20
3.430688336255108
 10
18.37294241513953
 20
3.424324629230772
 10
18.36657870811528
 20
3.417382403385996
 10
18.36079351991121
 20
3.409861658720865
 10
18.35529759111748
 20
3.402340914055733
 10
18.35066944055431
 20
3.39424165057016
 10
18.34633054940139
 20
3.38585312767441
 10
18.34257017706882
 20
3.377175345368481
 10
18.33967758296687
 20
3.368497563062553
 10
18.33736350768528
 20
3.359530521346448
 10
18.33562795122404
 20
3.350274220220078
 10
18.33447091358324
 20
3.341017919093794
 10
18.33418165417307
 20
3.331761617967428
 10
18.33476017299351
 20
3.322505316841143
 10
18.33504943240368
 20
3.317587906867781
 10
18.33562795122404
 20
3.312959756304597
 10
18.3362064700444
 20
3.308042346331236
 10
18.33736350768528
 20
3.303414195768051
 10
18.33909906414643
 20
3.299075304615046
 10
18.34112388001776
 20
3.295025672872301
 10
18.34430573352997
 20
3.291843819360091
 10
18.34806610586254
 20
3.289529744078584
 10
18.34980166232377
 20
3.288661965847965
 10
18.35153721878492
 20
3.288083447027524
 10
18.35356203465634
 20
3.288083447027524
 10
18.35529759111748
 20
3.288083447027524
 10
18.35732240698889
 20
3.288083447027524
 10
18.35934722286032
 20
3.288372706437788
 10
18.36166129814191
 20
3.288951225258142
 10
18.36426463283368
 20
3.289240484668319
 10
18.45017467766243
 20
3.304281973998671
 10
18.453935049995
 20
3.304860492819026
 10
18.45798468173773
 20
3.305149752229203
 10
18.46174505407039
 20
3.305728271049644
 10
18.46579468581305
 20
3.305728271049644
 10
18.4695550581457
 20
3.306017530459821
 10
18.47360468988844
 20
3.306017530459821
 10
18.47736506222101
 20
3.305728271049644
 10
18.48141469396384
 20
3.305439011639466
 10
18.48517506629631
 20
3.305149752229203
 10
18.48922469803915
 20
3.304571233408847
 10
18.49298507037171
 20
3.303992714588406
 10
18.49674544270428
 20
3.303124936357872
 10
18.50050581503685
 20
3.302257158127256
 10
18.50426618736941
 20
3.301389379896636
 10
18.50802655970198
 20
3.300232342255839
 10
18.51149767262437
 20
3.298786045204866
 10
18.52017545493038
 20
3.294157894641683
 10
18.52740694018525
 20
3.287794187617346
 10
18.53261360956887
 20
3.280273442952216
 10
18.53637398190135
 20
3.271595660646288
 10
18.53839879777277
 20
3.262628618930182
 10
18.53868805718295
 20
3.253083058393636
 10
18.53753101954223
 20
3.243537497857089
 10
18.5346384254402
 20
3.233991937320541
 10
18.53174583133817
 20
3.227917489706384
 10
18.52856397782604
 20
3.222132301502404
 10
18.52451434608322
 20
3.216925632118865
 10
18.52017545493038
 20
3.212008222145501
 10
18.5155473043672
 20
3.207380071582319
 10
18.51034063498357
 20
3.203330439839575
 10
18.50455544677959
 20
3.199859326917185
 10
18.49877025857569
 20
3.196677473405062
 10
18.49269581096153
 20
3.194074138713205
 10
18.48662136334738
 20
3.192338582252055
 10
18.47996839691278
 20
3.190892285201082
 10
18.47360468988844
 20
3.190024506970462
 10
18.46724098286411
 20
3.189735247560285
 10
18.46058801642951
 20
3.19031376638064
 10
18.45422430940517
 20
3.191470804021435
 10
18.44786060238083
 20
3.193495619892849
 10
18.44265393299729
 20
3.195520435764267
 10
18.43773652302394
 20
3.197834511045773
 10
18.43281911305057
 20
3.200148586327364
 10
18.42819096248739
 20
3.203041180429397
 10
18.4235628119242
 20
3.205933774531345
 10
18.4192239207712
 20
3.209115628043555
 10
18.41517428902854
 20
3.212586740965944
 10
18.41083539787552
 20
3.216347113298508
 10
18.40707502554288
 20
3.220107485631074
 10
18.4033146532104
 20
3.223867857963641
 10
18.39955428087774
 20
3.227917489706384
 10
18.39608316795545
 20
3.232256380859391
 10
18.39261205503297
 20
3.236595272012314
 10
18.38943020152085
 20
3.240934163165319
 10
18.38624834800873
 20
3.245273054318241
 10
18.38335575390669
 20
3.249901204881425
 10
18.31451201427962
 20
3.216347113298508
 10
18.32000794307334
 20
3.207380071582319
 10
18.32637165009768
 20
3.198991548686568
 10
18.33331387594245
 20
3.191181544611258
 10
18.34083462060758
 20
3.184239318766483
 10
18.34893388409316
 20
3.177586352331968
 10
18.35761166639909
 20
3.171801164127988
 10
18.36686796752545
 20
3.166594494744448
 10
18.37612426865173
 20
3.162255603591443
 10
18.38595908859854
 20
3.158495231258876
 10
18.39608316795545
 20
3.155313377746749
 10
18.40649650672253
 20
3.152999302465158
 10
18.41690984548961
 20
3.151553005414186
 10
18.42732318425676
 20
3.150685227183566
 10
18.43773652302394
 20
3.150685227183566
 10
18.44814986179102
 20
3.151263746003921
 10
18.45856320055809
 20
3.152999302465158
 10
18.46897653932534
 20
3.155313377746749
 10
18.47910061868225
 20
3.158784490669053
 10
18.48864617921879
 20
3.162834122411883
 10
18.49819173975525
 20
3.167751532385243
 10
18.50715878147136
 20
3.173536720589225
 10
18.51583656377737
 20
3.179900427613561
 10
18.52364656785267
 20
3.186842653458251
 10
18.53116731251781
 20
3.194363398123468
 10
18.53810953836259
 20
3.202462661608955
 10
18.54418398597674
 20
3.211140443914882
 10
18.54967991477055
 20
3.220107485631074
 10
18.55459732474383
 20
3.229653046167621
 10
18.55835769707639
 20
3.239487866114346
 10
18.5615395505886
 20
3.249611945471246
 10
18.5638536258702
 20
3.260025284238326
 10
18.56501066351099
 20
3.270438623005491
 10
18.56558918233135
 20
3.278537886491065
 10
18.56529992292117
 20
3.286637149976549
 10
18.56443214469064
 20
3.294736413462124
 10
18.56298584763958
 20
3.302546417537435
 10
18.56067177235799
 20
3.31035642161283
 10
18.55777917825603
 20
3.31787716627796
 10
18.55430806533364
 20
3.325108651532912
 10
18.54996917418073
 20
3.332050877377604
 10
18.54649806125825
 20
3.336389768530612
 10
18.54273768892577
 20
3.340728659683533
 10
18.53868805718295
 20
3.344489032016183
 10
18.53434916603003
 20
3.347670885528311
 10
18.52943175605657
 20
3.35085273904052
 10
18.52451434608322
 20
3.353745333142468
 10
18.51930767669968
 20
3.35605940842406
 10
18.51410100731613
 20
3.358373483705651
 10
18.50860507852242
 20
3.360109040166801
 10
18.50310914972861
 20
3.361844596628039
 10
18.49732396152464
 20
3.363290893679014
 10
18.49153877332074
 20
3.36444793131981
 10
18.48575358511675
 20
3.365315709550428
 10
18.47996839691278
 20
3.365894228370784
 10
18.47418320870888
 20
3.366472747191138
 10
18.46868727991507
 20
3.366762006601403
 10
18.46521616699269
 20
3.366762006601403
 10
18.46145579466013
 20
3.366762006601403
 10
18.45798468173773
 20
3.366762006601403
 10
18.45451356881544
 20
3.366472747191138
 10
18.45104245589297
 20
3.366183487780961
 10
18.44757134297066
 20
3.365894228370784
 10
18.44410023004827
 20
3.365604968960607
 10
18.44062911712588
 20
3.365026450140164
 10
18.43686874479332
 20
3.36444793131981
 10
18.43339763187093
 20
3.363869412499368
 10
18.42992651894854
 20
3.363290893679014
 10
18.42645540602615
 20
3.363001634268837
 10
18.42298429310385
 20
3.362423115448395
 10
18.41951318018146
 20
3.361844596628039
 10
18.4157528078489
 20
3.3612660778076
 10
18.41228169492651
 20
3.360687558987243
 10
18.36050426050103
 20
3.347960144938487
 10
18.3596364822705
 20
3.352877554911848
 10
18.36021500109085
 20
3.360398299577066
 10
18.36195055755209
 20
3.36965460070335
 10
18.36542167047439
 20
3.380067939470513
 10
18.3697605616274
 20
3.390481278237593
 10
18.37554574983138
 20
3.400316098184319
 10
18.38248797567607
 20
3.408415361669892
 10
18.39029797975146
 20
3.414489809284048
 10
18.39724020559616
 20
3.417671662796172
 10
18.40447169085111
 20
3.420274997488029
 10
18.41199243551624
 20
3.421721294539002
 10
18.41980243959164
 20
3.422878332179799
 10
18.42761244366704
 20
3.423167591589975
 10
18.43571170715252
 20
3.422589072769536
 10
18.44352171122783
 20
3.421721294539002
 10
18.45133171530322
 20
3.419985738077766
 10
18.45914171937854
 20
3.417671662796172
 10
18.46637320463349
 20
3.414779068694226
 10
18.47331543047818
 20
3.411307955771838
 10
18.47996839691278
 20
3.407547583439272
 10
18.48604284452693
 20
3.403208692286352
 10
18.49182803273091
 20
3.398291282312988
 10
18.49674544270428
 20
3.393084612929363
 10
18.5007950744471
 20
3.387588684135648
 10
18.57715955873931
 20
3.422878332179799
  0
TEXT
  5
AD8
330
17
100
AcDbEntity
  8
4
100
AcDbText
 10
18.72157383827759
 20
3.154739855979538
 30
0.0
 40
0.1875
  1
inc., erie, pa.
  7
T
100
AcDbText
  0
LWPOLYLINE
  5
ADA
330
17
100
AcDbEntity
  8
4
  6
Continuous
100
AcDbPolyline
 90
       21
 70
     0
 43
0.0
 10
17.91050705367978
 20
3.459035758454485
 10
17.9160029824735
 20
3.456143164352537
 10
17.92063113303668
 20
3.452672051430147
 10
17.92468076477943
 20
3.448622419687404
 10
17.92757335888145
 20
3.443994269124221
 10
17.92988743416305
 20
3.438787599740681
 10
17.9316229906242
 20
3.433291670946878
 10
17.93249076885482
 20
3.42721722333272
 10
17.932780028265
 20
3.420853516308384
 10
17.932780028265
 20
3.159073750079318
 10
18.00393784317366
 20
3.159073750079318
 10
18.00393784317366
 20
3.421721294539002
 10
18.00422710258383
 20
3.427795742153161
 10
18.0056733996349
 20
3.433002411536701
 10
18.00740895609605
 20
3.438209080920241
 10
18.01030155019798
 20
3.442837231483424
 10
18.01348340371021
 20
3.447176122636431
 10
18.01753303545295
 20
3.451515013789351
 10
18.02187192660586
 20
3.455275386121919
 10
18.0270785959895
 20
3.459035758454485
 10
17.91050705367978
 20
3.459035758454485
  0
LWPOLYLINE
  5
AF1
330
17
100
AcDbEntity
  8
4
  6
Continuous
100
AcDbPolyline
 90
       88
 70
     0
 43
0.0
 10
18.248555109065
 20
3.458746499044306
 10
18.05909019538549
 20
3.458746499044306
 10
18.06429686476903
 20
3.454696867301564
 10
18.06950353415257
 20
3.450068716738377
 10
18.07413168471575
 20
3.44486204735484
 10
18.07847057586867
 20
3.439655377971214
 10
18.08194168879106
 20
3.433580930357056
 10
18.08454502348283
 20
3.427506482742899
 10
18.08628057994405
 20
3.420564256898208
 10
18.0871483581746
 20
3.41362203105343
 10
18.0871483581746
 20
3.212586740965944
 10
18.03826351785115
 20
3.159073750079318
 10
18.2126869422005
 20
3.159073750079318
 10
18.21615805512288
 20
3.159073750079318
 10
18.2196291680452
 20
3.159652268899673
 10
18.22310028096767
 20
3.159941528309849
 10
18.22628213447979
 20
3.160809306540468
 10
18.22975324740218
 20
3.161677084771087
 10
18.23322436032457
 20
3.162834122411883
 10
18.2364062138367
 20
3.163991160052678
 10
18.23987732675908
 20
3.165726716513829
 10
18.2430591802713
 20
3.167173013564803
 10
18.24624103378341
 20
3.168908570026041
 10
18.24913362788545
 20
3.170933385897369
 10
18.25202622198749
 20
3.172958201768783
 10
18.25491881608943
 20
3.175272277050376
 10
18.25781141019138
 20
3.177586352331968
 10
18.26012548547297
 20
3.179900427613561
 10
18.26272882016473
 20
3.18250376230533
 10
18.26967104600951
 20
3.191181544611258
 10
18.27516697480324
 20
3.20130562396816
 10
18.27921660654607
 20
3.212008222145501
 10
18.28153068182766
 20
3.223000079733021
 10
18.28181994123783
 20
3.23428119673072
 10
18.2800843847766
 20
3.244694535497884
 10
18.27574549362359
 20
3.254529355444609
 10
18.26909252718916
 20
3.263207137750538
 10
18.20603397576599
 20
3.236016753191957
 10
18.20921582927812
 20
3.231388602628773
 10
18.21181916396989
 20
3.226181933245232
 10
18.2138439798413
 20
3.220975263861609
 10
18.21529027689228
 20
3.21547933506789
 10
18.21615805512288
 20
3.209983406274088
 10
18.21615805512288
 20
3.204487477480371
 10
18.21529027689228
 20
3.198991548686568
 10
18.21355472043112
 20
3.193784879303028
 10
18.21124064514953
 20
3.190024506970462
 10
18.20863731045776
 20
3.186553394048073
 10
18.20516619753538
 20
3.183371540535949
 10
18.20169508461299
 20
3.181057465254358
 10
18.19764545287016
 20
3.179032649382943
 10
18.1935958211275
 20
3.177297092921792
 10
18.18925692997449
 20
3.176429314691173
 10
18.18491803882148
 20
3.176140055280995
 10
18.08628057994405
 20
3.176140055280995
 10
18.15165320664874
 20
3.243826757267266
 10
18.15165320664874
 20
3.309777902792387
 10
18.22859620976139
 20
3.309777902792387
 10
18.22859620976139
 20
3.332918655608223
 10
18.15281024428953
 20
3.332918655608223
 10
18.15281024428953
 20
3.420853516308384
 10
18.13921505201025
 20
3.441969453252806
 10
18.18289322295006
 20
3.441969453252806
 10
18.19272804289679
 20
3.441390934432451
 10
18.20082730638245
 20
3.439076859150858
 10
18.20719101340669
 20
3.435316486818292
 10
18.21181916396989
 20
3.430109817434753
 10
18.21442249866166
 20
3.424035369820595
 10
18.21529027689228
 20
3.417093143975818
 10
18.21413323925147
 20
3.409283139900508
 10
18.21095138573934
 20
3.401473135825113
 10
18.27863808772563
 20
3.380935717701047
 10
18.2832662382888
 20
3.38585312767441
 10
18.28673735121119
 20
3.391349056468211
 10
18.28934068590297
 20
3.39742350408237
 10
18.29078698295394
 20
3.403497951696528
 10
18.29136550177437
 20
3.409861658720865
 10
18.29078698295394
 20
3.416514625155376
 10
18.28962994531315
 20
3.422878332179799
 10
18.28760512944173
 20
3.429242039204133
 10
18.28500179474995
 20
3.435027227408115
 10
18.28153068182766
 20
3.440812415612008
 10
18.27748105008483
 20
3.445729825585373
 10
18.27256364011146
 20
3.450068716738377
 10
18.26735697072793
 20
3.453829089070946
 10
18.26157178252394
 20
3.456432423762714
 10
18.25520807549961
 20
3.458167980223951
 10
18.248555109065
 20
3.458746499044306
  0
TEXT
  5
B4B
330
17
100
AcDbEntity
  8
3
100
AcDbText
 10
18.1418143724038
 20
2.281398689203143
 30
0.0
 40
0.1563045964277055
  1
1
  7
SIMPLEX
100
AcDbText
  0
TEXT
  5
B4C
330
17
100
AcDbEntity
  8
3
100
AcDbText
 10
18.41404834376206
 20
2.323502844314687
 30
0.0
 40
0.077527079828142
  1
OF
  7
SIMPLEX
100
AcDbText
  0
LINE
  5
B4D
330
17
100
AcDbEntity
  8
0
100
AcDbLine
 10
18.95000730842624
 20
2.177674272979746
 30
0.0
 11
18.95000730842624
 21
2.537827578566158
 31
0.0
  0
TEXT
  5
B4E
330
17
100
AcDbEntity
  8
3
100
AcDbText
 10
19.15988819379656
 20
2.312278887805065
 30
0.0
 40
0.0781522982138528
  1
SCALE:
  7
SIMPLEX
100
AcDbText
  0
TEXT
  5
B4F
330
17
100
AcDbEntity
  8
3
100
AcDbText
 10
18.75085217219046
 20
2.281398689203143
 30
0.0
 40
0.1563045964277055
  1
1
  7
SIMPLEX
100
AcDbText
  0
LINE
  5
B50
330
17
100
AcDbEntity
  8
0
100
AcDbLine
 10
19.62950958281673
 20
1.6
 30
0.0
 11
19.62950958281673
 21
2.177674272979746
 31
0.0
  0
TEXT
  5
B51
330
17
100
AcDbEntity
  8
3
100
AcDbText
 10
19.90737487125106
 20
1.717904679869015
 30
0.0
 40
0.1750611479990302
  1
A
  7
SIMPLEX
 72
     1
 11
19.97406483239355
 21
1.717904679869015
 31
0.0
100
AcDbText
  0
TEXT
  5
B52
330
17
100
AcDbEntity
  8
3
100
AcDbText
 10
19.86587590401093
 20
2.030693672726669
 30
0.0
 40
0.0781522982138528
  1
REV.
  7
SIMPLEX
100
AcDbText
  0
TEXT
  5
B53
330
17
100
AcDbEntity
  8
3
100
AcDbText
 10
19.67706885038316
 20
2.296484104436296
 30
0.0
 40
0.1071624313108349
  1
.50=1
  7
SIMPLEX
 72
     1
 11
19.88373925362548
 21
2.296484104436296
 31
0.0
100
AcDbText
  0
LINE
  5
B54
330
17
100
AcDbEntity
  8
3
100
AcDbLine
 10
11.24842370841305
 20
15.15025244921216
 30
0.0
 11
11.24842370841305
 21
15.4
 31
0.0
  0
TEXT
  5
B55
330
17
100
AcDbEntity
  8
2
100
AcDbText
 10
12.613542729376
 20
15.14511803904082
 30
0.0
 40
0.156
  1
D
  7
SIMPLEX
 72
     1
 11
12.665542729376
 21
15.14511803904082
 31
0.0
100
AcDbText
  0
LINE
  5
B56
330
17
100
AcDbEntity
  8
3
100
AcDbLine
 10
14.2656158056087
 20
15.15025244921216
 30
0.0
 11
14.2656158056087
 21
15.4
 31
0.0
  0
TEXT
  5
B57
330
17
100
AcDbEntity
  8
2
100
AcDbText
 10
15.67776147522365
 20
15.14511803904082
 30
0.0
 40
0.156
  1
E
  7
SIMPLEX
 72
     1
 11
15.72604718950937
 21
15.14511803904082
 31
0.0
100
AcDbText
  0
LINE
  5
B58
330
17
100
AcDbEntity
  8
3
100
AcDbLine
 10
17.28280790280434
 20
15.15025244921216
 30
0.0
 11
17.28280790280434
 21
15.4
 31
0.0
  0
TEXT
  5
B59
330
17
100
AcDbEntity
  8
2
100
AcDbText
 10
18.6945444430694
 20
15.14511803904082
 30
0.0
 40
0.156
  1
F
  7
SIMPLEX
 72
     1
 11
18.74283015735512
 21
15.14511803904082
 31
0.0
100
AcDbText
  0
LINE
  5
B5A
330
17
100
AcDbEntity
  8
4
100
AcDbLine
 10
21.99999999999999
 20
17.0
 30
0.0
 11
-0.0000000000000004
 21
17.0
 31
0.0
  0
DIMENSION
  5
B68
330
17
100
AcDbEntity
  8
3
100
AcDbDimension
  2
*D1
 10
15.94865597166099
 20
10.6968241742779
 30
0.0
 11
16.448655971661
 21
10.6968241742779
 31
0.0
 12
1.150534461482791
 22
0.6980676280316624
 32
0.0
 71
     5
 42
-1.0
100
AcDbAlignedDimension
 13
16.948655971661
 23
9.08066279790146
 33
0.0
 14
15.94865597166099
 24
9.080662797901457
 34
0.0
100
AcDbRotatedDimension
  0
DIMENSION
  5
B6A
330
17
100
AcDbEntity
  8
3
100
AcDbDimension
  2
*D2
 10
5.692698645395971
 20
6.769024141843138
 30
0.0
 11
5.692698645395971
 21
8.000898395338845
 31
0.0
 12
0.0
 22
0.6980676280316624
 32
0.0
 71
     5
 42
-1.0
100
AcDbAlignedDimension
 13
7.167264634154737
 23
9.232772648834552
 33
0.0
 14
7.104909403362138
 24
6.769024141843138
 34
0.0
 50
90.0
100
AcDbRotatedDimension
  0
DIMENSION
  5
BF1
330
17
100
AcDbEntity
  8
3
100
AcDbDimension
  2
*D4
 10
12.60490940336214
 20
10.70222251394009
 30
0.0
 11
9.854909403362141
 21
10.70222251394009
 31
0.0
 70
    32
 71
     5
 42
5.5
  3
STANDARD
100
AcDbAlignedDimension
 13
7.104909403362138
 23
11.80962875576268
 33
0.0
 14
12.60490940336214
 24
11.80962875576268
 34
0.0
100
AcDbRotatedDimension
1001
ACAD
1000
DSTYLE
1002
{
1070
    40
1040
2.0
1070
    41
1040
0.125
1070
    43
1040
0.375
1070
    44
1040
0.0625
1070
    78
1070
     4
1070
   140
1040
0.125
1070
   141
1040
-0.125
1070
   147
1040
0.09375
1070
   174
1070
     1
1070
   271
1070
     6
1070
   272
1070
     6
1070
   273
1070
     5
1070
   277
1070
     5
1070
   279
1070
     2
1070
   284
1070
     4
1070
   285
1070
     4
1070
   286
1070
     4
1070
   340
1005
24
1002
}
  0
ENDSEC
  0
SECTION
  2
OBJECTS
  0
DICTIONARY
  5
C
330
0
100
AcDbDictionary
281
     1
  3
ACAD_CIP_PREVIOUS_PRODUCT_INFO
350
BF0
  3
ACAD_COLOR
350
BD1
  3
ACAD_DETAILVIEWSTYLE
350
BEA
  3
ACAD_GROUP
350
D
  3
ACAD_LAYOUT
350
B86
  3
ACAD_MATERIAL
350
B9F
  3
ACAD_MLEADERSTYLE
350
BE6
  3
ACAD_MLINESTYLE
350
1A
  3
ACAD_PLOTSETTINGS
350
B87
  3
ACAD_PLOTSTYLENAME
350
B84
  3
ACAD_SCALELIST
350
BD4
  3
ACAD_SECTIONVIEWSTYLE
350
BE8
  3
ACAD_TABLESTYLE
350
BD2
  3
ACAD_VISUALSTYLE
350
BB8
  3
ACDB_RECOMPOSE_DATA
350
CDC
  3
ACDBVARIABLEDICTIONARY
350
35
  3
AcDsDecomposeData
350
CE3
  3
DWGPROPS
350
CDD
  0
DICTIONARY
  5
C11
330
2
100
AcDbDictionary
280
     1
281
     1
  3
ACAD_LAYERSTATES
360
C12
  0
DICTIONARY
  5
C06
330
E
100
AcDbDictionary
280
     1
281
     1
  3
ADSK_XREC_LAYER_RECONCILED
360
C07
  0
DICTIONARY
  5
C08
330
2D
100
AcDbDictionary
280
     1
281
     1
  3
ADSK_XREC_LAYER_RECONCILED
360
C09
  0
DICTIONARY
  5
C0A
330
2E
100
AcDbDictionary
280
     1
281
     1
  3
ADSK_XREC_LAYER_RECONCILED
360
C0B
  0
DICTIONARY
  5
C0C
330
2F
100
AcDbDictionary
280
     1
281
     1
  3
ADSK_XREC_LAYER_RECONCILED
360
C0D
  0
XRECORD
  5
BF0
102
{ACAD_REACTORS
330
C
102
}
330
C
100
AcDbXrecord
280
     1
300
AMECH_PP
300
2015
300
PDSU_F_S
  0
DICTIONARY
  5
BD1
102
{ACAD_REACTORS
330
C
102
}
330
C
100
AcDbDictionary
281
     1
  0
DICTIONARY
  5
BEA
102
{ACAD_REACTORS
330
C
102
}
330
C
100
AcDbDictionary
281
     1
  3
Imperial24
350
BEB
  0
DICTIONARY
  5
D
102
{ACAD_REACTORS
330
C
102
}
330
C
100
AcDbDictionary
281
     1
  0
DICTIONARY
  5
B86
102
{ACAD_REACTORS
330
C
102
}
330
C
100
AcDbDictionary
281
     1
  3
Layout1
350
B89
  3
Model
350
B88
  0
DICTIONARY
  5
B9F
102
{ACAD_REACTORS
330
C
102
}
330
C
100
AcDbDictionary
281
     1
  3
ByBlock
350
BA8
  3
ByLayer
350
BA0
  3
Global
350
BB0
  0
DICTIONARY
  5
BE6
102
{ACAD_REACTORS
330
C
102
}
330
C
100
AcDbDictionary
281
     1
  3
Standard
350
BE7
  0
DICTIONARY
  5
1A
102
{ACAD_REACTORS
330
C
102
}
330
C
100
AcDbDictionary
281
     1
  3
STANDARD
350
1B
  0
DICTIONARY
  5
B87
102
{ACAD_REACTORS
330
C
102
}
330
C
100
AcDbDictionary
281
     1
  0
ACDBDICTIONARYWDFLT
  5
B84
102
{ACAD_REACTORS
330
C
102
}
330
C
100
AcDbDictionary
281
     1
  3
Normal
350
B85
100
AcDbDictionaryWithDefault
340
B85
  0
DICTIONARY
  5
BD4
102
{ACAD_REACTORS
330
C
102
}
330
C
100
AcDbDictionary
281
     1
  3
A0
350
BD5
  3
A1
350
BD6
  3
A2
350
BD7
  3
A3
350
BD8
  3
A4
350
BD9
  3
A5
350
BDA
  3
A6
350
BDB
  3
A7
350
BDC
  3
A8
350
BDD
  3
A9
350
BDE
  3
B0
350
BDF
  3
B1
350
BE0
  3
B2
350
BE1
  3
B3
350
BE2
  3
B4
350
BE3
  3
B5
350
BE4
  3
B6
350
BE5
  0
DICTIONARY
  5
BE8
102
{ACAD_REACTORS
330
C
102
}
330
C
100
AcDbDictionary
281
     1
  3
Imperial24
350
BE9
  0
DICTIONARY
  5
BD2
102
{ACAD_REACTORS
330
C
102
}
330
C
100
AcDbDictionary
281
     1
  3
Standard
350
BD3
  0
DICTIONARY
  5
BB8
102
{ACAD_REACTORS
330
C
102
}
330
C
100
AcDbDictionary
281
     1
  3
2dWireframe
350
BBE
  3
Basic
350
BBD
  3
Brighten
350
BC4
  3
ColorChange
350
BC8
  3
Conceptual
350
BC1
  3
Dim
350
BC3
  3
EdgeColorOff
350
BD0
  3
Facepattern
350
BC7
  3
Flat
350
BB9
  3
FlatWithEdges
350
BBA
  3
Gouraud
350
BBB
  3
GouraudWithEdges
350
BBC
  3
Hidden
350
BC0
  3
JitterOff
350
BCE
  3
Linepattern
350
BC6
  3
OverhangOff
350
BCF
  3
Realistic
350
BC2
  3
Shaded
350
BCD
  3
Shaded with edges
350
BCC
  3
Shades of Gray
350
BC9
  3
Sketchy
350
BCA
  3
Thicken
350
BC5
  3
Wireframe
350
BBF
  3
X-Ray
350
BCB
  0
XRECORD
  5
CDC
102
{ACAD_REACTORS
330
C
102
}
330
C
100
AcDbXrecord
280
     1
 90
        1
330
BD3
  0
DICTIONARY
  5
35
102
{ACAD_REACTORS
330
C
102
}
330
C
100
AcDbDictionary
281
     1
  3
CANNOSCALE
350
CC4
  3
CMLEADERSTYLE
350
CC0
  3
CTABLESTYLE
350
CBF
  3
CVIEWDETAILSTYLE
350
CC1
  3
CVIEWSECTIONSTYLE
350
CC2
  3
DIMADEC
350
36
  3
DIMASSOC
350
B94
  3
INDEXCTL
350
CD6
  3
LAYEREVAL
350
CC6
  3
LAYERNOTIFY
350
CC7
  3
LIGHTINGUNITS
350
CC5
  3
LOFTANG1
350
CD7
  3
LOFTANG2
350
CD8
  3
LONGITUDE
350
CD9
  3
MSLTSCALE
350
CC3
  3
SORTENTS
350
CD5
  3
XCLIPFRAME
350
CDA
  0
DICTIONARY
  5
CE3
102
{ACAD_REACTORS
330
C
102
}
330
C
100
AcDbDictionary
281
     1
  3
AcDsRecords
350
CE5
  3
AcDsSchemas
350
CE4
1001
ACAD
1070
     2
  0
XRECORD
  5
CDD
102
{ACAD_REACTORS
330
C
102
}
330
C
100
AcDbXrecord
280
     1
  1
DWGPROPS COOKIE
  2

  3

  4

  6

  7

  8
jmilewski
  9

300
=
301
=
302
=
303
=
304
=
305
=
306
=
307
=
308
=
309
=
 40
0.2824990046296296
 41
2447600.596000695
 42
2457155.540185024
  1

 90
        0
  0
DICTIONARY
  5
C12
102
{ACAD_REACTORS
330
C11
102
}
330
C11
100
AcDbDictionary
281
     1
  0
XRECORD
  5
C07
102
{ACAD_REACTORS
330
C06
102
}
330
C06
100
AcDbXrecord
280
     1
290
     1
  0
XRECORD
  5
C09
102
{ACAD_REACTORS
330
C08
102
}
330
C08
100
AcDbXrecord
280
     1
290
     1
  0
XRECORD
  5
C0B
102
{ACAD_REACTORS
330
C0A
102
}
330
C0A
100
AcDbXrecord
280
     1
290
     1
  0
XRECORD
  5
C0D
102
{ACAD_REACTORS
330
C0C
102
}
330
C0C
100
AcDbXrecord
280
     1
290
     1
  0
ACDBDETAILVIEWSTYLE
  5
BEB
102
{ACAD_XDICTIONARY
360
CCC
102
}
102
{ACAD_REACTORS
330
BEA
102
}
330
BEA
100
AcDbModelDocViewStyle
 70
     0
  3
Imperial24
290
     0
100
AcDbDetailViewStyle
 70
     0
 71
     0
 90
        3
 71
     1
340
F
 40
0.24
340
0
 40
0.24
300

 40
0.36
280
     3
 71
     2
340
13
 90
       25
 71
     3
340
F
 40
0.24
 90
        1
 40
0.75
 90
        1
300
%<\AcVar ViewType \f "%tc1">% %<\AcVar ViewDetailId>%\PSCALE %<\AcVar ViewScale \f "%sn">%
 71
     4
340
13
 90
       25
340
13
 90
       25
280
     0
  0
LAYOUT
  5
B89
102
{ACAD_XDICTIONARY
360
CE8
102
}
102
{ACAD_REACTORS
330
B86
102
}
330
B86
100
AcDbPlotSettings
  1

  2
HP DesignJet 500 42 by HP
  4

  6

 40
0.0
 41
0.0
 42
0.0
 43
0.0
 44
0.0
 45
0.0
 46
0.0
 47
0.0
 48
0.0
 49
0.0
140
0.0
141
0.0
142
1.0
143
1.0
 70
   688
 72
     0
 73
     0
 74
     5
  7
blk1500.ctb
 75
    16
147
1.0
148
0.0
149
0.0
100
AcDbLayout
  1
Layout1
 70
     0
 71
     1
 10
0.0
 20
0.0
 11
12.0
 21
9.0
 12
0.0
 22
0.0
 32
0.0
 14
1.000000000000000E+20
 24
1.000000000000000E+20
 34
1.000000000000000E+20
 15
-1.000000000000000E+20
 25
-1.000000000000000E+20
 35
-1.000000000000000E+20
146
0.0
 13
0.0
 23
0.0
 33
0.0
 16
1.0
 26
0.0
 36
0.0
 17
0.0
 27
1.0
 37
0.0
 76
     0
330
14
  0
LAYOUT
  5
B88
102
{ACAD_XDICTIONARY
360
CE6
102
}
102
{ACAD_REACTORS
330
B86
102
}
330
B86
100
AcDbPlotSettings
  1

  2
HP DesignJet 500 42 by HP
  4
User262
  6

 40
4.995333194732666
 41
16.97567367553711
 42
4.995330810546875
 43
16.97567749023437
 44
215.857666015625
 45
279.3153381347656
 46
0.0
 47
0.0
 48
0.0
 49
0.0
140
0.0
141
0.0
142
1.0
143
1.0
 70
 11952
 72
     0
 73
     1
 74
     0
  7
PHOTO.ctb
 75
     0
147
1.0
148
-61.28736869206174
149
2.212631603633171
100
AcDbLayout
  1
Model
 70
     1
 71
     0
 10
0.0
 20
0.0
 11
12.0
 21
9.0
 12
0.0
 22
0.0
 32
0.0
 14
0.0
 24
0.0
 34
0.0
 15
0.0
 25
0.0
 35
0.0
146
0.0
 13
0.0
 23
0.0
 33
0.0
 16
1.0
 26
0.0
 36
0.0
 17
0.0
 27
1.0
 37
0.0
 76
     0
330
17
331
B9D
  0
MATERIAL
  5
BA8
102
{ACAD_XDICTIONARY
360
BA9
102
}
102
{ACAD_REACTORS
330
B9F
102
}
330
B9F
100
AcDbMaterial
  1
ByBlock
 72
     0
 43
0.0208333333333333
 43
0.0
 43
0.0
 43
0.0
 43
0.0
 43
0.0208333333333333
 43
0.0
 43
0.0
 43
0.0
 43
0.0
 43
1.0
 43
0.0
 43
0.0
 43
0.0
 43
0.0
 43
1.0
 77
     0
 47
0.0208333333333333
 47
0.0
 47
0.0
 47
0.0
 47
0.0
 47
0.0208333333333333
 47
0.0
 47
0.0
 47
0.0
 47
0.0
 47
1.0
 47
0.0
 47
0.0
 47
0.0
 47
0.0
 47
1.0
171
     0
 49
0.0208333333333333
 49
0.0
 49
0.0
 49
0.0
 49
0.0
 49
0.0208333333333333
 49
0.0
 49
0.0
 49
0.0
 49
0.0
 49
1.0
 49
0.0
 49
0.0
 49
0.0
 49
0.0
 49
1.0
175
     0
142
0.0208333333333333
142
0.0
142
0.0
142
0.0
142
0.0
142
0.0208333333333333
142
0.0
142
0.0
142
0.0
142
0.0
142
1.0
142
0.0
142
0.0
142
0.0
142
0.0
142
1.0
179
     0
144
0.0208333333333333
144
0.0
144
0.0
144
0.0
144
0.0
144
0.0208333333333333
144
0.0
144
0.0
144
0.0
144
0.0
144
1.0
144
0.0
144
0.0
144
0.0
144
0.0
144
1.0
147
0.0208333333333333
147
0.0
147
0.0
147
0.0
147
0.0
147
0.0208333333333333
147
0.0
147
0.0
147
0.0
147
0.0
147
1.0
147
0.0
147
0.0
147
0.0
147
0.0
147
1.0
  0
MATERIAL
  5
BA0
102
{ACAD_XDICTIONARY
360
BA1
102
}
102
{ACAD_REACTORS
330
B9F
102
}
330
B9F
100
AcDbMaterial
  1
ByLayer
 72
     0
 43
0.0208333333333333
 43
0.0
 43
0.0
 43
0.0
 43
0.0
 43
0.0208333333333333
 43
0.0
 43
0.0
 43
0.0
 43
0.0
 43
1.0
 43
0.0
 43
0.0
 43
0.0
 43
0.0
 43
1.0
 77
     0
 47
0.0208333333333333
 47
0.0
 47
0.0
 47
0.0
 47
0.0
 47
0.0208333333333333
 47
0.0
 47
0.0
 47
0.0
 47
0.0
 47
1.0
 47
0.0
 47
0.0
 47
0.0
 47
0.0
 47
1.0
171
     0
 49
0.0208333333333333
 49
0.0
 49
0.0
 49
0.0
 49
0.0
 49
0.0208333333333333
 49
0.0
 49
0.0
 49
0.0
 49
0.0
 49
1.0
 49
0.0
 49
0.0
 49
0.0
 49
0.0
 49
1.0
175
     0
142
0.0208333333333333
142
0.0
142
0.0
142
0.0
142
0.0
142
0.0208333333333333
142
0.0
142
0.0
142
0.0
142
0.0
142
1.0
142
0.0
142
0.0
142
0.0
142
0.0
142
1.0
179
     0
144
0.0208333333333333
144
0.0
144
0.0
144
0.0
144
0.0
144
0.0208333333333333
144
0.0
144
0.0
144
0.0
144
0.0
144
1.0
144
0.0
144
0.0
144
0.0
144
0.0
144
1.0
147
0.0208333333333333
147
0.0
147
0.0
147
0.0
147
0.0
147
0.0208333333333333
147
0.0
147
0.0
147
0.0
147
0.0
147
1.0
147
0.0
147
0.0
147
0.0
147
0.0
147
1.0
  0
MATERIAL
  5
BB0
102
{ACAD_XDICTIONARY
360
BB1
102
}
102
{ACAD_REACTORS
330
B9F
102
}
330
B9F
100
AcDbMaterial
  1
Global
 72
     0
 43
0.0208333333333333
 43
0.0
 43
0.0
 43
0.0
 43
0.0
 43
0.0208333333333333
 43
0.0
 43
0.0
 43
0.0
 43
0.0
 43
1.0
 43
0.0
 43
0.0
 43
0.0
 43
0.0
 43
1.0
 77
     0
 47
0.0208333333333333
 47
0.0
 47
0.0
 47
0.0
 47
0.0
 47
0.0208333333333333
 47
0.0
 47
0.0
 47
0.0
 47
0.0
 47
1.0
 47
0.0
 47
0.0
 47
0.0
 47
0.0
 47
1.0
171
     0
 49
0.0208333333333333
 49
0.0
 49
0.0
 49
0.0
 49
0.0
 49
0.0208333333333333
 49
0.0
 49
0.0
 49
0.0
 49
0.0
 49
1.0
 49
0.0
 49
0.0
 49
0.0
 49
0.0
 49
1.0
175
     0
142
0.0208333333333333
142
0.0
142
0.0
142
0.0
142
0.0
142
0.0208333333333333
142
0.0
142
0.0
142
0.0
142
0.0
142
1.0
142
0.0
142
0.0
142
0.0
142
0.0
142
1.0
179
     0
144
0.0208333333333333
144
0.0
144
0.0
144
0.0
144
0.0
144
0.0208333333333333
144
0.0
144
0.0
144
0.0
144
0.0
144
1.0
144
0.0
144
0.0
144
0.0
144
0.0
144
1.0
147
0.0208333333333333
147
0.0
147
0.0
147
0.0
147
0.0
147
0.0208333333333333
147
0.0
147
0.0
147
0.0
147
0.0
147
1.0
147
0.0
147
0.0
147
0.0
147
0.0
147
1.0
  0
MLEADERSTYLE
  5
BE7
102
{ACAD_XDICTIONARY
360
D1F
102
}
102
{ACAD_REACTORS
330
BE6
102
}
330
BE6
100
AcDbMLeaderStyle
170
     2
171
     1
172
     0
 90
        2
 40
0.0
 41
0.0
173
     1
 91
-1056964608
340
11
 92
       -2
290
     1
 42
0.09
291
     1
 43
0.36
  3
Standard
 44
0.18
300

342
F
174
     1
178
     6
175
     1
176
     0
 93
-1056964608
 45
0.18
292
     0
297
     0
 46
0.18
 94
-1056964608
 47
1.0
 49
1.0
140
1.0
293
     1
141
0.0
294
     1
177
     0
142
1.0
295
     0
296
     0
143
0.125
1001
ACAD_MLEADERVER
1070
     2
  0
MLINESTYLE
  5
1B
102
{ACAD_REACTORS
330
1A
102
}
330
1A
100
AcDbMlineStyle
  2
STANDARD
 70
     0
  3

 62
   256
 51
90.0
 52
90.0
 71
     2
 49
0.5
 62
   256
  6
BYLAYER
 49
-0.5
 62
   256
  6
BYLAYER
  0
ACDBPLACEHOLDER
  5
B85
102
{ACAD_REACTORS
330
B84
102
}
330
B84
  0
SCALE
  5
BD5
102
{ACAD_REACTORS
330
BD4
102
}
330
BD4
100
AcDbScale
 70
     0
300
1:1
140
1.0
141
1.0
290
     1
  0
SCALE
  5
BD6
102
{ACAD_REACTORS
330
BD4
102
}
330
BD4
100
AcDbScale
 70
     0
300
1/128" = 1'-0"
140
0.0078125
141
12.0
290
     0
  0
SCALE
  5
BD7
102
{ACAD_REACTORS
330
BD4
102
}
330
BD4
100
AcDbScale
 70
     0
300
1/64" = 1'-0"
140
0.015625
141
12.0
290
     0
  0
SCALE
  5
BD8
102
{ACAD_REACTORS
330
BD4
102
}
330
BD4
100
AcDbScale
 70
     0
300
1/32" = 1'-0"
140
0.03125
141
12.0
290
     0
  0
SCALE
  5
BD9
102
{ACAD_REACTORS
330
BD4
102
}
330
BD4
100
AcDbScale
 70
     0
300
1/16" = 1'-0"
140
0.0625
141
12.0
290
     0
  0
SCALE
  5
BDA
102
{ACAD_REACTORS
330
BD4
102
}
330
BD4
100
AcDbScale
 70
     0
300
3/32" = 1'-0"
140
0.09375
141
12.0
290
     0
  0
SCALE
  5
BDB
102
{ACAD_REACTORS
330
BD4
102
}
330
BD4
100
AcDbScale
 70
     0
300
1/8" = 1'-0"
140
0.125
141
12.0
290
     0
  0
SCALE
  5
BDC
102
{ACAD_REACTORS
330
BD4
102
}
330
BD4
100
AcDbScale
 70
     0
300
3/16" = 1'-0"
140
0.1875
141
12.0
290
     0
  0
SCALE
  5
BDD
102
{ACAD_REACTORS
330
BD4
102
}
330
BD4
100
AcDbScale
 70
     0
300
1/4" = 1'-0"
140
0.25
141
12.0
290
     0
  0
SCALE
  5
BDE
102
{ACAD_REACTORS
330
BD4
102
}
330
BD4
100
AcDbScale
 70
     0
300
3/8" = 1'-0"
140
0.375
141
12.0
290
     0
  0
SCALE
  5
BDF
102
{ACAD_REACTORS
330
BD4
102
}
330
BD4
100
AcDbScale
 70
     0
300
1/2" = 1'-0"
140
0.5
141
12.0
290
     0
  0
SCALE
  5
BE0
102
{ACAD_REACTORS
330
BD4
102
}
330
BD4
100
AcDbScale
 70
     0
300
3/4" = 1'-0"
140
0.75
141
12.0
290
     0
  0
SCALE
  5
BE1
102
{ACAD_REACTORS
330
BD4
102
}
330
BD4
100
AcDbScale
 70
     0
300
1" = 1'-0"
140
1.0
141
12.0
290
     0
  0
SCALE
  5
BE2
102
{ACAD_REACTORS
330
BD4
102
}
330
BD4
100
AcDbScale
 70
     0
300
1-1/2" = 1'-0"
140
1.5
141
12.0
290
     0
  0
SCALE
  5
BE3
102
{ACAD_REACTORS
330
BD4
102
}
330
BD4
100
AcDbScale
 70
     0
300
3" = 1'-0"
140
3.0
141
12.0
290
     0
  0
SCALE
  5
BE4
102
{ACAD_REACTORS
330
BD4
102
}
330
BD4
100
AcDbScale
 70
     0
300
6" = 1'-0"
140
6.0
141
12.0
290
     0
  0
SCALE
  5
BE5
102
{ACAD_REACTORS
330
BD4
102
}
330
BD4
100
AcDbScale
 70
     0
300
1'-0" = 1'-0"
140
12.0
141
12.0
290
     0
  0
ACDBSECTIONVIEWSTYLE
  5
BE9
102
{ACAD_XDICTIONARY
360
CCA
102
}
102
{ACAD_REACTORS
330
BE8
102
}
330
BE8
100
AcDbModelDocViewStyle
 70
     0
  3
Imperial24
290
     0
100
AcDbSectionViewStyle
 70
     0
 71
     0
 90
       78
 71
     1
340
F
 40
0.24
340
0
340
0
 40
0.24
300
I, O, Q, S, X, Z
 40
0.48
 90
        3
 40
0.18
 90
        1
 71
     2
340
13
 90
       25
340
13
 90
       50
 40
0.24
 40
0.0
 40
0.24
 71
     3
340
F
 40
0.24
 90
        1
 40
0.75
 90
        1
300
%<\AcVar ViewType \f "%tc1">% %<\AcVar ViewSectionStartId>%-%<\AcVar ViewSectionEndId>%\PSCALE %<\AcVar ViewScale \f "%sn">%
 71
     4
300
ANSI31
 40
1.0
 90
        0
290
     0
290
     0
 90
        6
 40
0.0
 40
1.570796326794896
 40
0.2617993877991494
 40
1.308996938995747
 40
-0.2617993877991494
 40
1.832595714594045
  0
TABLESTYLE
  5
BD3
102
{ACAD_XDICTIONARY
360
CC8
102
}
102
{ACAD_REACTORS
330
BD2
102
}
330
BD2
100
AcDbTableStyle
  3
Standard
 70
     0
 71
     0
 40
0.06
 41
0.06
280
     0
281
     0
  7
STANDARD
140
0.18
170
     2
 62
     0
 63
     7
283
     0
274
    -2
284
     1
 64
     0
275
    -2
285
     1
 65
     0
276
    -2
286
     1
 66
     0
277
    -2
287
     1
 67
     0
278
    -2
288
     1
 68
     0
279
    -2
289
     1
 69
     0
  7
STANDARD
140
0.25
170
     5
 62
     0
 63
     7
283
     0
274
    -2
284
     1
 64
     0
275
    -2
285
     1
 65
     0
276
    -2
286
     1
 66
     0
277
    -2
287
     1
 67
     0
278
    -2
288
     1
 68
     0
279
    -2
289
     1
 69
     0
  7
STANDARD
140
0.18
170
     5
 62
     0
 63
     7
283
     0
274
    -2
284
     1
 64
     0
275
    -2
285
     1
 65
     0
276
    -2
286
     1
 66
     0
277
    -2
287
     1
 67
     0
278
    -2
288
     1
 68
     0
279
    -2
289
     1
 69
     0
  0
VISUALSTYLE
  5
BBE
102
{ACAD_XDICTIONARY
360
CF7
102
}
102
{ACAD_REACTORS
330
BB8
102
}
330
BB8
100
AcDbVisualStyle
  2
2dWireframe
 70
     4
 71
     0
 72
     2
 73
     0
 90
        0
 40
-0.6
 41
-30.0
 62
     5
 63
     7
 74
     1
 91
        4
 64
     7
 65
   257
 75
     1
175
     1
 42
1.0
 92
        0
 66
   257
 43
1.0
 76
     1
 77
     6
 78
     2
 67
     7
 79
     5
170
     0
171
     0
290
     0
174
     0
 93
        1
 44
0.0
173
     0
291
     0
 45
0.0
1001
ACAD
1000
AcDbSavedByObjectVersion
1070
     0
  0
VISUALSTYLE
  5
BBD
102
{ACAD_XDICTIONARY
360
CF5
102
}
102
{ACAD_REACTORS
330
BB8
102
}
330
BB8
100
AcDbVisualStyle
  2
Basic
 70
     7
 71
     1
 72
     0
 73
     1
 90
        0
 40
-0.6
 41
-30.0
 62
     5
 63
     7
 74
     0
 91
        4
 64
     7
 65
   257
 75
     1
175
     1
 42
1.0
 92
        8
 66
     7
 43
1.0
 76
     1
 77
     6
 78
     2
 67
     7
 79
     5
170
     0
171
     0
290
     0
174
     0
 93
        1
 44
0.0
173
     0
291
     1
 45
0.0
1001
ACAD
1000
AcDbSavedByObjectVersion
1070
     0
  0
VISUALSTYLE
  5
BC4
102
{ACAD_XDICTIONARY
360
D03
102
}
102
{ACAD_REACTORS
330
BB8
102
}
330
BB8
100
AcDbVisualStyle
  2
Brighten
 70
    12
 71
     2
 72
     2
 73
     0
 90
        0
 40
-0.6
 41
-30.0
 62
     5
 63
     7
 74
     1
 91
        4
 64
     7
 65
   257
 75
     1
175
     1
 42
1.0
 92
        8
 66
     7
 43
1.0
 76
     1
 77
     6
 78
     2
 67
     7
 79
     5
170
     0
171
     0
290
     0
174
     0
 93
        1
 44
50.0
173
     0
291
     1
 45
0.0
1001
ACAD
1000
AcDbSavedByObjectVersion
1070
     0
  0
VISUALSTYLE
  5
BC8
102
{ACAD_XDICTIONARY
360
D0B
102
}
102
{ACAD_REACTORS
330
BB8
102
}
330
BB8
100
AcDbVisualStyle
  2
ColorChange
 70
    16
 71
     2
 72
     2
 73
     3
 90
        0
 40
-0.6
 41
-30.0
 62
     5
 63
     8
 74
     1
 91
        4
 64
     7
 65
   257
 75
     1
175
     1
 42
1.0
 92
        8
 66
     8
 43
1.0
 76
     1
 77
     6
 78
     2
 67
     7
 79
     5
170
     0
171
     0
290
     0
174
     0
 93
        1
 44
0.0
173
     0
291
     1
 45
0.0
1001
ACAD
1000
AcDbSavedByObjectVersion
1070
     0
  0
VISUALSTYLE
  5
BC1
102
{ACAD_XDICTIONARY
360
CFD
102
}
102
{ACAD_REACTORS
330
BB8
102
}
330
BB8
100
AcDbVisualStyle
  2
Conceptual
 70
     9
 71
     3
 72
     2
 73
     0
 90
        0
 40
-0.6
 41
-30.0
 62
     5
 63
     7
 74
     2
 91
        2
 64
     7
 65
   257
 75
     1
175
     1
 42
179.0
 92
        8
 66
     7
 43
1.0
 76
     1
 77
     6
 78
     2
 67
     7
 79
     3
170
     0
171
     0
290
     0
174
     0
 93
        1
 44
0.0
173
     0
291
     0
 45
0.0
1001
ACAD
1000
AcDbSavedByObjectVersion
1070
     0
  0
VISUALSTYLE
  5
BC3
102
{ACAD_XDICTIONARY
360
D01
102
}
102
{ACAD_REACTORS
330
BB8
102
}
330
BB8
100
AcDbVisualStyle
  2
Dim
 70
    11
 71
     2
 72
     2
 73
     0
 90
        0
 40
-0.6
 41
-30.0
 62
     5
 63
     7
 74
     1
 91
        4
 64
     7
 65
   257
 75
     1
175
     1
 42
1.0
 92
        8
 66
     7
 43
1.0
 76
     1
 77
     6
 78
     2
 67
     7
 79
     5
170
     0
171
     0
290
     0
174
     0
 93
        1
 44
-50.0
173
     0
291
     1
 45
0.0
1001
ACAD
1000
AcDbSavedByObjectVersion
1070
     0
  0
VISUALSTYLE
  5
BD0
102
{ACAD_XDICTIONARY
360
D1B
102
}
102
{ACAD_REACTORS
330
BB8
102
}
330
BB8
100
AcDbVisualStyle
  2
EdgeColorOff
 70
    22
 71
     2
 72
     2
 73
     0
 90
        0
 40
-0.6
 41
-30.0
 62
     5
 63
     7
 74
     1
 91
        4
 64
     7
 65
   257
 75
     1
175
     1
 42
1.0
 92
        8
 66
     7
 43
1.0
 76
     1
 77
     6
 78
     2
 67
     7
 79
     5
170
     0
171
     0
290
     0
174
     0
 93
        1
 44
0.0
173
     0
291
     1
 45
0.0
1001
ACAD
1000
AcDbSavedByObjectVersion
1070
     0
  0
VISUALSTYLE
  5
BC7
102
{ACAD_XDICTIONARY
360
D09
102
}
102
{ACAD_REACTORS
330
BB8
102
}
330
BB8
100
AcDbVisualStyle
  2
Facepattern
 70
    15
 71
     2
 72
     2
 73
     0
 90
        0
 40
-0.6
 41
-30.0
 62
     5
 63
     7
 74
     1
 91
        4
 64
     7
 65
   257
 75
     1
175
     1
 42
1.0
 92
        8
 66
     7
 43
1.0
 76
     1
 77
     6
 78
     2
 67
     7
 79
     5
170
     0
171
     0
290
     0
174
     0
 93
        1
 44
0.0
173
     0
291
     1
 45
0.0
1001
ACAD
1000
AcDbSavedByObjectVersion
1070
     0
  0
VISUALSTYLE
  5
BB9
102
{ACAD_XDICTIONARY
360
CED
102
}
102
{ACAD_REACTORS
330
BB8
102
}
330
BB8
100
AcDbVisualStyle
  2
Flat
 70
     0
 71
     2
 72
     1
 73
     1
 90
        2
 40
-0.6
 41
30.0
 62
     5
 63
     7
 74
     0
 91
        0
 64
     7
 65
   257
 75
     1
175
     1
 42
1.0
 92
        8
 66
     7
 43
1.0
 76
     1
 77
     6
 78
     2
 67
     7
 79
     5
170
     0
171
     0
290
     0
174
     0
 93
       13
 44
0.0
173
     0
291
     1
 45
0.0
1001
ACAD
1000
AcDbSavedByObjectVersion
1070
     0
  0
VISUALSTYLE
  5
BBA
102
{ACAD_XDICTIONARY
360
CEF
102
}
102
{ACAD_REACTORS
330
BB8
102
}
330
BB8
100
AcDbVisualStyle
  2
FlatWithEdges
 70
     1
 71
     2
 72
     1
 73
     1
 90
        2
 40
-0.6
 41
30.0
 62
     5
 63
     7
 74
     1
 91
        0
 64
     7
 65
   257
 75
     1
175
     1
 42
1.0
 92
        0
 66
   257
 43
1.0
 76
     1
 77
     6
 78
     2
 67
     7
 79
     5
170
     0
171
     0
290
     0
174
     0
 93
       13
 44
0.0
173
     0
291
     1
 45
0.0
1001
ACAD
1000
AcDbSavedByObjectVersion
1070
     0
  0
VISUALSTYLE
  5
BBB
102
{ACAD_XDICTIONARY
360
CF1
102
}
102
{ACAD_REACTORS
330
BB8
102
}
330
BB8
100
AcDbVisualStyle
  2
Gouraud
 70
     2
 71
     2
 72
     2
 73
     1
 90
        2
 40
-0.6
 41
30.0
 62
     5
 63
     7
 74
     0
 91
        0
 64
     7
 65
   257
 75
     1
175
     1
 42
1.0
 92
        0
 66
     7
 43
1.0
 76
     1
 77
     6
 78
     2
 67
     7
 79
     5
170
     0
171
     0
290
     0
174
     0
 93
       13
 44
0.0
173
     0
291
     1
 45
0.0
1001
ACAD
1000
AcDbSavedByObjectVersion
1070
     0
  0
VISUALSTYLE
  5
BBC
102
{ACAD_XDICTIONARY
360
CF3
102
}
102
{ACAD_REACTORS
330
BB8
102
}
330
BB8
100
AcDbVisualStyle
  2
GouraudWithEdges
 70
     3
 71
     2
 72
     2
 73
     1
 90
        2
 40
-0.6
 41
30.0
 62
     5
 63
     7
 74
     1
 91
        0
 64
     7
 65
   257
 75
     1
175
     1
 42
1.0
 92
        0
 66
   257
 43
1.0
 76
     1
 77
     6
 78
     2
 67
     7
 79
     5
170
     0
171
     0
290
     0
174
     0
 93
       13
 44
0.0
173
     0
291
     1
 45
0.0
1001
ACAD
1000
AcDbSavedByObjectVersion
1070
     0
  0
VISUALSTYLE
  5
BC0
102
{ACAD_XDICTIONARY
360
CFB
102
}
102
{ACAD_REACTORS
330
BB8
102
}
330
BB8
100
AcDbVisualStyle
  2
Hidden
 70
     6
 71
     1
 72
     2
 73
     2
 90
        0
 40
-0.6
 41
-30.0
 62
     5
 63
     7
 74
     2
 91
        2
 64
     7
 65
   257
 75
     2
175
     1
 42
40.0
 92
        0
 66
   257
 43
1.0
 76
     1
 77
     6
 78
     2
 67
     7
 79
     3
170
     0
171
     0
290
     0
174
     0
 93
        1
 44
0.0
173
     0
291
     0
 45
0.0
1001
ACAD
1000
AcDbSavedByObjectVersion
1070
     0
  0
VISUALSTYLE
  5
BCE
102
{ACAD_XDICTIONARY
360
D17
102
}
102
{ACAD_REACTORS
330
BB8
102
}
330
BB8
100
AcDbVisualStyle
  2
JitterOff
 70
    20
 71
     2
 72
     2
 73
     0
 90
        0
 40
-0.6
 41
-30.0
 62
     5
 63
     7
 74
     1
 91
        4
 64
     7
 65
   257
 75
     1
175
     1
 42
1.0
 92
       10
 66
     7
 43
1.0
 76
     1
 77
     6
 78
     2
 67
     7
 79
     5
170
     0
171
     0
290
     0
174
     0
 93
        1
 44
0.0
173
     0
291
     1
 45
0.0
1001
ACAD
1000
AcDbSavedByObjectVersion
1070
     0
  0
VISUALSTYLE
  5
BC6
102
{ACAD_XDICTIONARY
360
D07
102
}
102
{ACAD_REACTORS
330
BB8
102
}
330
BB8
100
AcDbVisualStyle
  2
Linepattern
 70
    14
 71
     2
 72
     2
 73
     0
 90
        0
 40
-0.6
 41
-30.0
 62
     5
 63
     7
 74
     1
 91
        4
 64
     7
 65
   257
 75
     7
175
     7
 42
1.0
 92
        8
 66
     7
 43
1.0
 76
     1
 77
     6
 78
     2
 67
     7
 79
     5
170
     0
171
     0
290
     0
174
     0
 93
        1
 44
0.0
173
     0
291
     1
 45
0.0
1001
ACAD
1000
AcDbSavedByObjectVersion
1070
     0
  0
VISUALSTYLE
  5
BCF
102
{ACAD_XDICTIONARY
360
D19
102
}
102
{ACAD_REACTORS
330
BB8
102
}
330
BB8
100
AcDbVisualStyle
  2
OverhangOff
 70
    21
 71
     2
 72
     2
 73
     0
 90
        0
 40
-0.6
 41
-30.0
 62
     5
 63
     7
 74
     1
 91
        4
 64
     7
 65
   257
 75
     1
175
     1
 42
1.0
 92
        9
 66
     7
 43
1.0
 76
     1
 77
     6
 78
     2
 67
     7
 79
     5
170
     0
171
     0
290
     0
174
     0
 93
        1
 44
0.0
173
     0
291
     1
 45
0.0
1001
ACAD
1000
AcDbSavedByObjectVersion
1070
     0
  0
VISUALSTYLE
  5
BC2
102
{ACAD_XDICTIONARY
360
CFF
102
}
102
{ACAD_REACTORS
330
BB8
102
}
330
BB8
100
AcDbVisualStyle
  2
Realistic
 70
     8
 71
     2
 72
     3
 73
     0
 90
        2
 40
-0.6
 41
30.0
 62
     5
 63
     7
 74
     0
 91
        0
 64
     7
 65
   257
 75
     1
175
     1
 42
1.0
 92
        8
 66
   257
 43
1.0
 76
     1
 77
     6
 78
     2
 67
     7
 79
     3
170
     0
171
     0
290
     0
174
     0
 93
       13
 44
0.0
173
     0
291
     0
 45
0.0
1001
ACAD
1000
AcDbSavedByObjectVersion
1070
     0
  0
VISUALSTYLE
  5
BCD
102
{ACAD_XDICTIONARY
360
D15
102
}
102
{ACAD_REACTORS
330
BB8
102
}
330
BB8
100
AcDbVisualStyle
  2
Shaded
 70
    27
 71
     2
 72
     2
 73
     1
 90
        2
 40
-0.6
 41
30.0
 62
     5
 63
     7
 74
     0
 91
        4
 64
     7
 65
   257
 75
     1
175
     1
 42
1.0
 92
        8
 66
   257
 43
1.0
 76
     1
 77
     6
 78
     2
 67
     8
 79
     3
170
     0
171
     0
290
     0
174
     0
 93
        5
 44
0.0
173
     0
291
     0
 45
0.0
1001
ACAD
1000
AcDbSavedByObjectVersion
1070
     0
  0
VISUALSTYLE
  5
BCC
102
{ACAD_XDICTIONARY
360
D13
102
}
102
{ACAD_REACTORS
330
BB8
102
}
330
BB8
100
AcDbVisualStyle
  2
Shaded with edges
 70
    26
 71
     2
 72
     2
 73
     1
 90
        2
 40
-0.6
 41
30.0
 62
     5
 63
     7
 74
     1
 91
       10
 64
     7
 65
   257
 75
     2
175
     1
 42
1.0
 92
        8
 66
   257
 43
1.0
 76
     1
 77
     6
 78
     2
 67
     7
 79
     3
170
     0
171
     0
290
     0
174
     0
 93
        5
 44
0.0
173
     0
291
     0
 45
0.0
1001
ACAD
1000
AcDbSavedByObjectVersion
1070
     0
  0
VISUALSTYLE
  5
BC9
102
{ACAD_XDICTIONARY
360
D0D
102
}
102
{ACAD_REACTORS
330
BB8
102
}
330
BB8
100
AcDbVisualStyle
  2
Shades of Gray
 70
    23
 71
     2
 72
     2
 73
     3
 90
        0
 40
-0.6
 41
-30.0
 62
     5
 63
     7
 74
     2
 91
        2
 64
     7
 65
     7
 75
     1
175
     1
 42
40.0
 92
        8
 66
     7
 43
1.0
 76
     1
 77
     6
 78
     2
 67
     7
 79
     3
170
     0
171
     0
290
     0
174
     0
 93
        1
 44
0.0
173
     0
291
     0
 45
0.0
1001
ACAD
1000
AcDbSavedByObjectVersion
1070
     0
  0
VISUALSTYLE
  5
BCA
102
{ACAD_XDICTIONARY
360
D0F
102
}
102
{ACAD_REACTORS
330
BB8
102
}
330
BB8
100
AcDbVisualStyle
  2
Sketchy
 70
    24
 71
     1
 72
     2
 73
     2
 90
        0
 40
-0.6
 41
-30.0
 62
     5
 63
     7
 74
     2
 91
        2
 64
     7
 65
     7
 75
     1
175
     1
 42
40.0
 92
       11
 66
     7
 43
1.0
 76
     1
 77
     6
 78
     2
 67
     7
 79
     6
170
     0
171
     0
290
     0
174
     0
 93
        1
 44
0.0
173
     0
291
     0
 45
0.0
1001
ACAD
1000
AcDbSavedByObjectVersion
1070
     0
  0
VISUALSTYLE
  5
BC5
102
{ACAD_XDICTIONARY
360
D05
102
}
102
{ACAD_REACTORS
330
BB8
102
}
330
BB8
100
AcDbVisualStyle
  2
Thicken
 70
    13
 71
     2
 72
     2
 73
     0
 90
        0
 40
-0.6
 41
-30.0
 62
     5
 63
     7
 74
     1
 91
        4
 64
     7
 65
   257
 75
     1
175
     1
 42
1.0
 92
       12
 66
     7
 43
1.0
 76
     1
 77
     6
 78
     2
 67
     7
 79
     5
170
     0
171
     0
290
     0
174
     0
 93
        1
 44
0.0
173
     0
291
     1
 45
0.0
1001
ACAD
1000
AcDbSavedByObjectVersion
1070
     0
  0
VISUALSTYLE
  5
BBF
102
{ACAD_XDICTIONARY
360
CF9
102
}
102
{ACAD_REACTORS
330
BB8
102
}
330
BB8
100
AcDbVisualStyle
  2
Wireframe
 70
     5
 71
     0
 72
     2
 73
     0
 90
        0
 40
-0.6
 41
-30.0
 62
     5
 63
     7
 74
     1
 91
        4
 64
     7
 65
   257
 75
     1
175
     1
 42
1.0
 92
        0
 66
   257
 43
1.0
 76
     1
 77
     6
 78
     2
 67
     7
 79
     3
170
     0
171
     0
290
     0
174
     0
 93
        1
 44
0.0
173
     0
291
     0
 45
0.0
1001
ACAD
1000
AcDbSavedByObjectVersion
1070
     0
  0
VISUALSTYLE
  5
BCB
102
{ACAD_XDICTIONARY
360
D11
102
}
102
{ACAD_REACTORS
330
BB8
102
}
330
BB8
100
AcDbVisualStyle
  2
X-Ray
 70
    25
 71
     2
 72
     2
 73
     1
 90
        1
 40
0.5
 41
-30.0
 62
     5
 63
     7
 74
     1
 91
        0
 64
     7
 65
   257
 75
     1
175
     1
 42
1.0
 92
        8
 66
     7
 43
1.0
 76
     1
 77
     6
 78
     2
 67
     7
 79
     3
170
     0
171
     0
290
     0
174
     0
 93
       13
 44
0.0
173
     0
291
     0
 45
0.0
1001
ACAD
1000
AcDbSavedByObjectVersion
1070
     0
  0
DICTIONARYVAR
  5
CC4
102
{ACAD_REACTORS
330
35
102
}
330
35
100
DictionaryVariables
280
     0
  1
1:1
  0
DICTIONARYVAR
  5
CC0
102
{ACAD_REACTORS
330
35
102
}
330
35
100
DictionaryVariables
280
     0
  1
STANDARD
  0
DICTIONARYVAR
  5
CBF
102
{ACAD_REACTORS
330
35
102
}
330
35
100
DictionaryVariables
280
     0
  1
STANDARD
  0
DICTIONARYVAR
  5
CC1
102
{ACAD_REACTORS
330
35
102
}
330
35
100
DictionaryVariables
280
     0
  1
Imperial24
  0
DICTIONARYVAR
  5
CC2
102
{ACAD_REACTORS
330
35
102
}
330
35
100
DictionaryVariables
280
     0
  1
Imperial24
  0
DICTIONARYVAR
  5
36
102
{ACAD_REACTORS
330
35
102
}
330
35
100
DictionaryVariables
280
     0
  1
0
  0
DICTIONARYVAR
  5
B94
102
{ACAD_REACTORS
330
35
102
}
330
35
100
DictionaryVariables
280
     0
  1
1
  0
DICTIONARYVAR
  5
CD6
102
{ACAD_REACTORS
330
35
102
}
330
35
100
DictionaryVariables
280
     0
  1
0
  0
DICTIONARYVAR
  5
CC6
102
{ACAD_REACTORS
330
35
102
}
330
35
100
DictionaryVariables
280
     0
  1
1
  0
DICTIONARYVAR
  5
CC7
102
{ACAD_REACTORS
330
35
102
}
330
35
100
DictionaryVariables
280
     0
  1
15
  0
DICTIONARYVAR
  5
CC5
102
{ACAD_REACTORS
330
35
102
}
330
35
100
DictionaryVariables
280
     0
  1
0
  0
DICTIONARYVAR
  5
CD7
102
{ACAD_REACTORS
330
35
102
}
330
35
100
DictionaryVariables
280
     0
  1
1.570796
  0
DICTIONARYVAR
  5
CD8
102
{ACAD_REACTORS
330
35
102
}
330
35
100
DictionaryVariables
280
     0
  1
1.570796
  0
DICTIONARYVAR
  5
CD9
102
{ACAD_REACTORS
330
35
102
}
330
35
100
DictionaryVariables
280
     0
  1
-122.394000
  0
DICTIONARYVAR
  5
CC3
102
{ACAD_REACTORS
330
35
102
}
330
35
100
DictionaryVariables
280
     0
  1
0
  0
DICTIONARYVAR
  5
CD5
102
{ACAD_REACTORS
330
35
102
}
330
35
100
DictionaryVariables
280
     0
  1
127
  0
DICTIONARYVAR
  5
CDA
102
{ACAD_REACTORS
330
35
102
}
330
35
100
DictionaryVariables
280
     0
  1
2
  0
DICTIONARY
  5
CE5
102
{ACAD_REACTORS
330
CE3
102
}
330
CE3
100
AcDbDictionary
281
     1
  0
DICTIONARY
  5
CE4
102
{ACAD_REACTORS
330
CE3
102
}
330
CE3
100
AcDbDictionary
281
     1
  3
8796088082656
350
CDE
  3
8796088082672
350
CDF
  3
8796088082688
350
CE0
  3
8796088082704
350
CE1
  3
8796088082720
350
CE2
  0
DICTIONARY
  5
CCC
330
BEB
100
AcDbDictionary
280
     1
281
     1
  3
ACAD_XREC_ROUNDTRIP
360
D22
  0
DICTIONARY
  5
CE8
330
B89
100
AcDbDictionary
280
     1
281
     1
  3
ACAD_XREC_ROUNDTRIP
360
CE9
  0
DICTIONARY
  5
CE6
330
B88
100
AcDbDictionary
280
     1
281
     1
  3
ACAD_XREC_ROUNDTRIP
360
CE7
  0
DICTIONARY
  5
BA9
330
BA8
100
AcDbDictionary
280
     1
281
     1
  3
ACAD_XREC_ROUNDTRIP
360
CEB
  3
BUMPTILE
360
BAB
  3
DIFFUSETILE
360
BAA
  3
OPACITYTILE
360
BAE
  3
REFLECTIONTILE
360
BAD
  3
REFRACTIONTILE
360
BAF
  3
SPECULARTILE
360
BAC
  0
DICTIONARY
  5
BA1
330
BA0
100
AcDbDictionary
280
     1
281
     1
  3
ACAD_XREC_ROUNDTRIP
360
CEA
  3
BUMPTILE
360
BA3
  3
DIFFUSETILE
360
BA2
  3
OPACITYTILE
360
BA6
  3
REFLECTIONTILE
360
BA5
  3
REFRACTIONTILE
360
BA7
  3
SPECULARTILE
360
BA4
  0
DICTIONARY
  5
BB1
330
BB0
100
AcDbDictionary
280
     1
281
     1
  3
ACAD_XREC_ROUNDTRIP
360
CEC
  3
BUMPTILE
360
BB3
  3
DIFFUSETILE
360
BB2
  3
OPACITYTILE
360
BB6
  3
REFLECTIONTILE
360
BB5
  3
REFRACTIONTILE
360
BB7
  3
SPECULARTILE
360
BB4
  0
DICTIONARY
  5
D1F
330
BE7
100
AcDbDictionary
280
     1
281
     1
  3
ACAD_XREC_ROUNDTRIP
360
D20
  0
DICTIONARY
  5
CCA
330
BE9
100
AcDbDictionary
280
     1
281
     1
  3
ACAD_XREC_ROUNDTRIP
360
D21
  0
DICTIONARY
  5
CC8
330
BD3
100
AcDbDictionary
280
     1
281
     1
  3
ACAD_ROUNDTRIP_2008_TABLESTYLE_CELLSTYLEMAP
360
CDB
  3
ACAD_XREC_ROUNDTRIP
360
D1D
  0
DICTIONARY
  5
CF7
330
BBE
100
AcDbDictionary
280
     1
281
     1
  3
ACAD_XREC_ROUNDTRIP
360
CF8
  0
DICTIONARY
  5
CF5
330
BBD
100
AcDbDictionary
280
     1
281
     1
  3
ACAD_XREC_ROUNDTRIP
360
CF6
  0
DICTIONARY
  5
D03
330
BC4
100
AcDbDictionary
280
     1
281
     1
  3
ACAD_XREC_ROUNDTRIP
360
D04
  0
DICTIONARY
  5
D0B
330
BC8
100
AcDbDictionary
280
     1
281
     1
  3
ACAD_XREC_ROUNDTRIP
360
D0C
  0
DICTIONARY
  5
CFD
330
BC1
100
AcDbDictionary
280
     1
281
     1
  3
ACAD_XREC_ROUNDTRIP
360
CFE
  0
DICTIONARY
  5
D01
330
BC3
100
AcDbDictionary
280
     1
281
     1
  3
ACAD_XREC_ROUNDTRIP
360
D02
  0
DICTIONARY
  5
D1B
330
BD0
100
AcDbDictionary
280
     1
281
     1
  3
ACAD_XREC_ROUNDTRIP
360
D1C
  0
DICTIONARY
  5
D09
330
BC7
100
AcDbDictionary
280
     1
281
     1
  3
ACAD_XREC_ROUNDTRIP
360
D0A
  0
DICTIONARY
  5
CED
330
BB9
100
AcDbDictionary
280
     1
281
     1
  3
ACAD_XREC_ROUNDTRIP
360
CEE
  0
DICTIONARY
  5
CEF
330
BBA
100
AcDbDictionary
280
     1
281
     1
  3
ACAD_XREC_ROUNDTRIP
360
CF0
  0
DICTIONARY
  5
CF1
330
BBB
100
AcDbDictionary
280
     1
281
     1
  3
ACAD_XREC_ROUNDTRIP
360
CF2
  0
DICTIONARY
  5
CF3
330
BBC
100
AcDbDictionary
280
     1
281
     1
  3
ACAD_XREC_ROUNDTRIP
360
CF4
  0
DICTIONARY
  5
CFB
330
BC0
100
AcDbDictionary
280
     1
281
     1
  3
ACAD_XREC_ROUNDTRIP
360
CFC
  0
DICTIONARY
  5
D17
330
BCE
100
AcDbDictionary
280
     1
281
     1
  3
ACAD_XREC_ROUNDTRIP
360
D18
  0
DICTIONARY
  5
D07
330
BC6
100
AcDbDictionary
280
     1
281
     1
  3
ACAD_XREC_ROUNDTRIP
360
D08
  0
DICTIONARY
  5
D19
330
BCF
100
AcDbDictionary
280
     1
281
     1
  3
ACAD_XREC_ROUNDTRIP
360
D1A
  0
DICTIONARY
  5
CFF
330
BC2
100
AcDbDictionary
280
     1
281
     1
  3
ACAD_XREC_ROUNDTRIP
360
D00
  0
DICTIONARY
  5
D15
330
BCD
100
AcDbDictionary
280
     1
281
     1
  3
ACAD_XREC_ROUNDTRIP
360
D16
  0
DICTIONARY
  5
D13
330
BCC
100
AcDbDictionary
280
     1
281
     1
  3
ACAD_XREC_ROUNDTRIP
360
D14
  0
DICTIONARY
  5
D0D
330
BC9
100
AcDbDictionary
280
     1
281
     1
  3
ACAD_XREC_ROUNDTRIP
360
D0E
  0
DICTIONARY
  5
D0F
330
BCA
100
AcDbDictionary
280
     1
281
     1
  3
ACAD_XREC_ROUNDTRIP
360
D10
  0
DICTIONARY
  5
D05
330
BC5
100
AcDbDictionary
280
     1
281
     1
  3
ACAD_XREC_ROUNDTRIP
360
D06
  0
DICTIONARY
  5
CF9
330
BBF
100
AcDbDictionary
280
     1
281
     1
  3
ACAD_XREC_ROUNDTRIP
360
CFA
  0
DICTIONARY
  5
D11
330
BCB
100
AcDbDictionary
280
     1
281
     1
  3
ACAD_XREC_ROUNDTRIP
360
D12
  0
XRECORD
  5
CDE
102
{ACAD_REACTORS
330
CE4
102
}
330
CE4
100
AcDbXrecord
280
     1
  1
AcDb_Thumbnail_Schema
102
{ATTRRECORD
341
CDF
  2
AcDbDs::TreatedAsObjectData
280
     1
291
     1
102
ATTRRECORD}
102
{ATTRRECORD
341
CE0
  2
AcDbDs::Legacy
280
     1
291
     1
102
ATTRRECORD}
  2
AcDbDs::ID
280
    10
 91
        8
102
{ATTRRECORD
341
CE1
  2
AcDs:Indexable
280
     1
291
     1
102
ATTRRECORD}
102
{ATTRRECORD
341
CE2
  2
AcDbDs::HandleAttribute
280
     7
282
     1
102
ATTRRECORD}
  2
Thumbnail_Data
280
    15
 91
        0
  0
XRECORD
  5
CDF
102
{ACAD_REACTORS
330
CE4
102
}
330
CE4
100
AcDbXrecord
280
     1
  1
AcDbDs::TreatedAsObjectDataSchema
  2
AcDbDs::TreatedAsObjectData
280
     1
 91
        0
  0
XRECORD
  5
CE0
102
{ACAD_REACTORS
330
CE4
102
}
330
CE4
100
AcDbXrecord
280
     1
  1
AcDbDs::LegacySchema
  2
AcDbDs::Legacy
280
     1
 91
        0
  0
XRECORD
  5
CE1
102
{ACAD_REACTORS
330
CE4
102
}
330
CE4
100
AcDbXrecord
280
     1
  1
AcDbDs::IndexedPropertySchema
  2
AcDs:Indexable
280
     1
 91
        0
  0
XRECORD
  5
CE2
102
{ACAD_REACTORS
330
CE4
102
}
330
CE4
100
AcDbXrecord
280
     1
  1
AcDbDs::HandleAttributeSchema
  2
AcDbDs::HandleAttribute
280
     7
 91
        1
284
     1
  0
XRECORD
  5
D22
102
{ACAD_REACTORS
330
CCC
102
}
330
CCC
100
AcDbXrecord
280
     1
102
DISPLAYNAME
  1
Imperial24
102
FLAGS
 90
        0
  0
XRECORD
  5
CE9
102
{ACAD_REACTORS
330
CE8
102
}
330
CE8
100
AcDbXrecord
280
     1
102
SHADEPLOT
 70
     0
102
SHADEPLOTRESLEVEL
 70
     2
102
SHADEPLOTCUSTOMDPI
 70
   300
  0
XRECORD
  5
CE7
102
{ACAD_REACTORS
330
CE6
102
}
330
CE6
100
AcDbXrecord
280
     1
102
SHADEPLOT
 70
     0
102
SHADEPLOTRESLEVEL
 70
     2
102
SHADEPLOTCUSTOMDPI
 70
   300
  0
XRECORD
  5
CEB
102
{ACAD_REACTORS
330
BA9
102
}
330
BA9
100
AcDbXrecord
280
     1
102
MATERIAL
148
0.0
149
0.0
149
0.0
 93
        0
 94
      127
282
     0
 72
     0
 77
     0
171
     0
175
     0
179
     0
273
     0
  0
XRECORD
  5
BAB
102
{ACAD_REACTORS
330
BA9
102
}
330
BA9
100
AcDbXrecord
280
     1
270
     1
271
     1
  0
XRECORD
  5
BAA
102
{ACAD_REACTORS
330
BA9
102
}
330
BA9
100
AcDbXrecord
280
     1
270
     1
271
     1
  0
XRECORD
  5
BAE
102
{ACAD_REACTORS
330
BA9
102
}
330
BA9
100
AcDbXrecord
280
     1
270
     1
271
     1
  0
XRECORD
  5
BAD
102
{ACAD_REACTORS
330
BA9
102
}
330
BA9
100
AcDbXrecord
280
     1
270
     1
271
     1
  0
XRECORD
  5
BAF
102
{ACAD_REACTORS
330
BA9
102
}
330
BA9
100
AcDbXrecord
280
     1
270
     1
271
     1
  0
XRECORD
  5
BAC
102
{ACAD_REACTORS
330
BA9
102
}
330
BA9
100
AcDbXrecord
280
     1
270
     1
271
     1
  0
XRECORD
  5
CEA
102
{ACAD_REACTORS
330
BA1
102
}
330
BA1
100
AcDbXrecord
280
     1
102
MATERIAL
148
0.0
149
0.0
149
0.0
 93
        0
 94
      127
282
     0
 72
     0
 77
     0
171
     0
175
     0
179
     0
273
     0
  0
XRECORD
  5
BA3
102
{ACAD_REACTORS
330
BA1
102
}
330
BA1
100
AcDbXrecord
280
     1
270
     1
271
     1
  0
XRECORD
  5
BA2
102
{ACAD_REACTORS
330
BA1
102
}
330
BA1
100
AcDbXrecord
280
     1
270
     1
271
     1
  0
XRECORD
  5
BA6
102
{ACAD_REACTORS
330
BA1
102
}
330
BA1
100
AcDbXrecord
280
     1
270
     1
271
     1
  0
XRECORD
  5
BA5
102
{ACAD_REACTORS
330
BA1
102
}
330
BA1
100
AcDbXrecord
280
     1
270
     1
271
     1
  0
XRECORD
  5
BA7
102
{ACAD_REACTORS
330
BA1
102
}
330
BA1
100
AcDbXrecord
280
     1
270
     1
271
     1
  0
XRECORD
  5
BA4
102
{ACAD_REACTORS
330
BA1
102
}
330
BA1
100
AcDbXrecord
280
     1
270
     1
271
     1
  0
XRECORD
  5
CEC
102
{ACAD_REACTORS
330
BB1
102
}
330
BB1
100
AcDbXrecord
280
     1
102
MATERIAL
148
0.0
149
0.0
149
0.0
 93
        0
 94
      127
282
     0
 72
     0
 77
     0
171
     0
175
     0
179
     0
273
     0
  0
XRECORD
  5
BB3
102
{ACAD_REACTORS
330
BB1
102
}
330
BB1
100
AcDbXrecord
280
     1
270
     1
271
     1
  0
XRECORD
  5
BB2
102
{ACAD_REACTORS
330
BB1
102
}
330
BB1
100
AcDbXrecord
280
     1
270
     1
271
     1
  0
XRECORD
  5
BB6
102
{ACAD_REACTORS
330
BB1
102
}
330
BB1
100
AcDbXrecord
280
     1
270
     1
271
     1
  0
XRECORD
  5
BB5
102
{ACAD_REACTORS
330
BB1
102
}
330
BB1
100
AcDbXrecord
280
     1
270
     1
271
     1
  0
XRECORD
  5
BB7
102
{ACAD_REACTORS
330
BB1
102
}
330
BB1
100
AcDbXrecord
280
     1
270
     1
271
     1
  0
XRECORD
  5
BB4
102
{ACAD_REACTORS
330
BB1
102
}
330
BB1
100
AcDbXrecord
280
     1
270
     1
271
     1
  0
XRECORD
  5
D20
102
{ACAD_REACTORS
330
D1F
102
}
330
D1F
100
AcDbXrecord
280
     1
102
ACAD_ROUNDTRIP_2012_MLEADER_STYLE
298
     1
  0
XRECORD
  5
D21
102
{ACAD_REACTORS
330
CCA
102
}
330
CCA
100
AcDbXrecord
280
     1
102
DISPLAYNAME
  1
Imperial24
102
FLAGS
 90
        0
  0
CELLSTYLEMAP
  5
CDB
102
{ACAD_REACTORS
330
CC8
102
}
330
CC8
100
AcDbCellStyleMap
 90
        3
300
CELLSTYLE
  1
TABLEFORMAT_BEGIN
 90
        5
170
     1
 91
        0
 92
    32768
 62
   257
 93
        1
300
CONTENTFORMAT
  1
CONTENTFORMAT_BEGIN
 90
        0
 91
        0
 92
      512
 93
        0
300

 40
0.0
140
1.0
 94
        5
 62
     0
340
F
144
0.25
309
CONTENTFORMAT_END
171
     1
301
MARGIN
  1
CELLMARGIN_BEGIN
 40
0.06
 40
0.06
 40
0.06
 40
0.06
 40
0.18
 40
0.18
309
CELLMARGIN_END
 94
        6
 95
        1
302
GRIDFORMAT
  1
GRIDFORMAT_BEGIN
 90
        0
 91
        1
 62
     0
 92
       -2
340
0
 93
        0
 40
0.045
309
GRIDFORMAT_END
 95
        2
302
GRIDFORMAT
  1
GRIDFORMAT_BEGIN
 90
        0
 91
        1
 62
     0
 92
       -2
340
0
 93
        0
 40
0.045
309
GRIDFORMAT_END
 95
        4
302
GRIDFORMAT
  1
GRIDFORMAT_BEGIN
 90
        0
 91
        1
 62
     0
 92
       -2
340
0
 93
        0
 40
0.045
309
GRIDFORMAT_END
 95
        8
302
GRIDFORMAT
  1
GRIDFORMAT_BEGIN
 90
        0
 91
        1
 62
     0
 92
       -2
340
0
 93
        0
 40
0.045
309
GRIDFORMAT_END
 95
       16
302
GRIDFORMAT
  1
GRIDFORMAT_BEGIN
 90
        0
 91
        1
 62
     0
 92
       -2
340
0
 93
        0
 40
0.045
309
GRIDFORMAT_END
 95
       32
302
GRIDFORMAT
  1
GRIDFORMAT_BEGIN
 90
        0
 91
        1
 62
     0
 92
       -2
340
0
 93
        0
 40
0.045
309
GRIDFORMAT_END
309
TABLEFORMAT_END
  1
CELLSTYLE_BEGIN
 90
        1
 91
        1
300
_TITLE
309
CELLSTYLE_END
300
CELLSTYLE
  1
TABLEFORMAT_BEGIN
 90
        5
170
     1
 91
        0
 92
        0
 62
   257
 93
        1
300
CONTENTFORMAT
  1
CONTENTFORMAT_BEGIN
 90
        0
 91
        0
 92
      512
 93
        0
300

 40
0.0
140
1.0
 94
        5
 62
     0
340
F
144
0.18
309
CONTENTFORMAT_END
171
     1
301
MARGIN
  1
CELLMARGIN_BEGIN
 40
0.06
 40
0.06
 40
0.06
 40
0.06
 40
0.18
 40
0.18
309
CELLMARGIN_END
 94
        6
 95
        1
302
GRIDFORMAT
  1
GRIDFORMAT_BEGIN
 90
        0
 91
        1
 62
     0
 92
       -2
340
0
 93
        0
 40
0.045
309
GRIDFORMAT_END
 95
        2
302
GRIDFORMAT
  1
GRIDFORMAT_BEGIN
 90
        0
 91
        1
 62
     0
 92
       -2
340
0
 93
        0
 40
0.045
309
GRIDFORMAT_END
 95
        4
302
GRIDFORMAT
  1
GRIDFORMAT_BEGIN
 90
        0
 91
        1
 62
     0
 92
       -2
340
0
 93
        0
 40
0.045
309
GRIDFORMAT_END
 95
        8
302
GRIDFORMAT
  1
GRIDFORMAT_BEGIN
 90
        0
 91
        1
 62
     0
 92
       -2
340
0
 93
        0
 40
0.045
309
GRIDFORMAT_END
 95
       16
302
GRIDFORMAT
  1
GRIDFORMAT_BEGIN
 90
        0
 91
        1
 62
     0
 92
       -2
340
0
 93
        0
 40
0.045
309
GRIDFORMAT_END
 95
       32
302
GRIDFORMAT
  1
GRIDFORMAT_BEGIN
 90
        0
 91
        1
 62
     0
 92
       -2
340
0
 93
        0
 40
0.045
309
GRIDFORMAT_END
309
TABLEFORMAT_END
  1
CELLSTYLE_BEGIN
 90
        2
 91
        1
300
_HEADER
309
CELLSTYLE_END
300
CELLSTYLE
  1
TABLEFORMAT_BEGIN
 90
        5
170
     1
 91
        0
 92
        0
 62
   257
 93
        1
300
CONTENTFORMAT
  1
CONTENTFORMAT_BEGIN
 90
        0
 91
        0
 92
      512
 93
        0
300

 40
0.0
140
1.0
 94
        2
 62
     0
340
F
144
0.18
309
CONTENTFORMAT_END
171
     1
301
MARGIN
  1
CELLMARGIN_BEGIN
 40
0.06
 40
0.06
 40
0.06
 40
0.06
 40
0.18
 40
0.18
309
CELLMARGIN_END
 94
        6
 95
        1
302
GRIDFORMAT
  1
GRIDFORMAT_BEGIN
 90
        0
 91
        1
 62
     0
 92
       -2
340
0
 93
        0
 40
0.045
309
GRIDFORMAT_END
 95
        2
302
GRIDFORMAT
  1
GRIDFORMAT_BEGIN
 90
        0
 91
        1
 62
     0
 92
       -2
340
0
 93
        0
 40
0.045
309
GRIDFORMAT_END
 95
        4
302
GRIDFORMAT
  1
GRIDFORMAT_BEGIN
 90
        0
 91
        1
 62
     0
 92
       -2
340
0
 93
        0
 40
0.045
309
GRIDFORMAT_END
 95
        8
302
GRIDFORMAT
  1
GRIDFORMAT_BEGIN
 90
        0
 91
        1
 62
     0
 92
       -2
340
0
 93
        0
 40
0.045
309
GRIDFORMAT_END
 95
       16
302
GRIDFORMAT
  1
GRIDFORMAT_BEGIN
 90
        0
 91
        1
 62
     0
 92
       -2
340
0
 93
        0
 40
0.045
309
GRIDFORMAT_END
 95
       32
302
GRIDFORMAT
  1
GRIDFORMAT_BEGIN
 90
        0
 91
        1
 62
     0
 92
       -2
340
0
 93
        0
 40
0.045
309
GRIDFORMAT_END
309
TABLEFORMAT_END
  1
CELLSTYLE_BEGIN
 90
        3
 91
        2
300
_DATA
309
CELLSTYLE_END
  0
XRECORD
  5
D1D
102
{ACAD_REACTORS
330
CC8
102
}
330
CC8
100
AcDbXrecord
280
     1
102
ACAD_ROUNDTRIP_PRE2007_TABLESTYLE
 90
      512
 91
        0
  1

 92
      512
 93
        0
  2

 94
      512
 95
        0
  3

  0
XRECORD
  5
CF8
102
{ACAD_REACTORS
330
CF7
102
}
330
CF7
100
AcDbXrecord
280
     1
102
RTVSPost2010Prop28
280
     1
102
RTVSPost2010PropOp28
 70
     1
102
RTVSPost2010Prop29
280
     1
102
RTVSPost2010PropOp29
 70
     1
102
RTVSPost2010Prop30
280
     0
102
RTVSPost2010PropOp30
 70
     1
102
RTVSPost2010Prop31
280
     0
102
RTVSPost2010PropOp31
 70
     1
102
RTVSPost2010Prop32
280
     0
102
RTVSPost2010PropOp32
 70
     1
102
RTVSPost2010Prop33
280
     0
102
RTVSPost2010PropOp33
 70
     1
102
RTVSPost2010Prop34
280
     0
102
RTVSPost2010PropOp34
 70
     1
102
RTVSPost2010Prop35
280
     0
102
RTVSPost2010PropOp35
 70
     1
102
RTVSPost2010Prop36
280
     0
102
RTVSPost2010PropOp36
 70
     1
102
RTVSPost2010Prop37
 90
       50
102
RTVSPost2010PropOp37
 70
     1
102
RTVSPost2010Prop38
140
0.0
102
RTVSPost2010PropOp38
 70
     1
102
RTVSPost2010Prop39
140
1.0
102
RTVSPost2010PropOp39
 70
     1
102
RTVSPost2010Prop40
 90
        0
102
RTVSPost2010PropOp40
 70
     1
102
RTVSPost2010Prop41ColorIndex
 90
       18
102
RTVSPost2010Prop41ColorRGB
 90
-16777216
102
RTVSPost2010PropOp41
 70
     1
102
RTVSPost2010Prop42
 90
       50
102
RTVSPost2010PropOp42
 70
     1
102
RTVSPost2010Prop43
 90
        3
102
RTVSPost2010PropOp43
 70
     1
102
RTVSPost2010Prop44ColorIndex
 90
        5
102
RTVSPost2010Prop44ColorRGB
 90
      255
102
RTVSPost2010PropOp44
 70
     1
102
RTVSPost2010Prop45
280
     0
102
RTVSPost2010PropOp45
 70
     1
102
RTVSPost2010Prop46
 90
       50
102
RTVSPost2010PropOp46
 70
     1
102
RTVSPost2010Prop47
 90
       50
102
RTVSPost2010PropOp47
 70
     1
102
RTVSPost2010Prop48
 90
       50
102
RTVSPost2010PropOp48
 70
     1
102
RTVSPost2010Prop49
280
     0
102
RTVSPost2010PropOp49
 70
     1
102
RTVSPost2010Prop50
 90
       50
102
RTVSPost2010PropOp50
 70
     1
102
RTVSPost2010Prop51ColorIndex
 90
      256
102
RTVSPost2010Prop51ColorRGB
 90
-16777216
102
RTVSPost2010PropOp51
 70
     0
102
RTVSPost2010Prop52
140
1.0
102
RTVSPost2010PropOp52
 70
     0
102
RTVSPost2010Prop53
 90
        2
102
RTVSPost2010PropOp53
 70
     1
102
RTVSPost2010Prop54
  1
strokes_ogs.tif
102
RTVSPost2010PropOp54
 70
     1
102
RTVSPost2010Prop55
280
     0
102
RTVSPost2010PropOp55
 70
     1
102
RTVSPost2010Prop56
140
1.0
102
RTVSPost2010PropOp56
 70
     1
102
RTVSPost2010Prop57
140
1.0
102
RTVSPost2010PropOp57
 70
     1
102
RTVSPropertyOp0
 70
     1
102
RTVSPropertyOp1
 70
     1
102
RTVSPropertyOp2
 70
     1
102
RTVSPropertyOp3
 70
     1
102
RTVSPropertyOp4
 70
     1
102
RTVSPropertyOp5
 70
     1
102
RTVSPropertyOp6
 70
     1
102
RTVSPropertyOp7
 70
     1
102
RTVSPropertyOp8
 70
     1
102
RTVSPropertyOp9
 70
     1
102
RTVSPropertyOp10
 70
     1
102
RTVSPropertyOp11
 70
     1
102
RTVSPropertyOp12
 70
     1
102
RTVSPropertyOp13
 70
     1
102
RTVSPropertyOp14
 70
     1
102
RTVSPropertyOp15
 70
     1
102
RTVSPropertyOp16
 70
     1
102
RTVSPropertyOp17
 70
     1
102
RTVSPropertyOp18
 70
     1
102
RTVSPropertyOp19
 70
     1
102
RTVSPropertyOp20
 70
     1
102
RTVSPropertyOp21
 70
     1
102
RTVSPropertyOp22
 70
     1
102
RTVSPropertyOp23
 70
     1
102
RTVSPropertyOp24
 70
     1
102
RTVSPropertyOp25
 70
     1
102
RTVSPropertyOp26
 70
     1
102
RTVSPropertyOp27
 70
     1
102
RTVSPropertyOp28
 70
     1
102
RTVSPropertyOp29
 70
     1
102
RTVSPropertyOp30
 70
     1
102
RTVSPropertyOp31
 70
     1
102
RTVSPropertyOp32
 70
     1
102
RTVSPropertyOp33
 70
     1
102
RTVSPropertyOp34
 70
     1
102
RTVSPropertyOp35
 70
     1
102
RTVSPropertyOp36
 70
     1
102
RTVSPropertyOp37
 70
     1
102
RTVSPropertyOp38
 70
     1
102
RTVSPropertyOp39
 70
     1
102
RTVSPropertyOp40
 70
     1
102
RTVSPropertyOp41
 70
     1
102
RTVSPropertyOp42
 70
     1
102
RTVSPropertyOp43
 70
     1
102
RTVSPropertyOp44
 70
     1
102
RTVSPropertyOp45
 70
     1
102
RTVSPropertyOp46
 70
     1
102
RTVSPropertyOp47
 70
     1
102
RTVSPropertyOp48
 70
     1
102
RTVSPropertyOp49
 70
     1
102
RTVSPropertyOp50
 70
     1
102
RTVSPropertyOp51
 70
     0
102
RTVSPropertyOp52
 70
     0
102
RTVSPropertyOp53
 70
     1
102
RTVSPropertyOp54
 70
     1
102
RTVSPropertyOp55
 70
     1
102
RTVSPropertyOp56
 70
     1
102
RTVSPropertyOp57
 70
     1
102
RTVSPropertyOp58
 70
     1
102
RTVSPropertyOp59
 70
     1
102
RTVSPropertyOp60
 70
     1
102
RTVSPropertyOp61
 70
     1
102
RTVSPropertyOp62
 70
     1
  0
XRECORD
  5
CF6
102
{ACAD_REACTORS
330
CF5
102
}
330
CF5
100
AcDbXrecord
280
     1
102
RTVSPost2010Prop28
280
     0
102
RTVSPost2010PropOp28
 70
     1
102
RTVSPost2010Prop29
280
     1
102
RTVSPost2010PropOp29
 70
     1
102
RTVSPost2010Prop30
280
     1
102
RTVSPost2010PropOp30
 70
     1
102
RTVSPost2010Prop31
280
     0
102
RTVSPost2010PropOp31
 70
     1
102
RTVSPost2010Prop32
280
     0
102
RTVSPost2010PropOp32
 70
     1
102
RTVSPost2010Prop33
280
     0
102
RTVSPost2010PropOp33
 70
     1
102
RTVSPost2010Prop34
280
     0
102
RTVSPost2010PropOp34
 70
     1
102
RTVSPost2010Prop35
280
     0
102
RTVSPost2010PropOp35
 70
     1
102
RTVSPost2010Prop36
280
     0
102
RTVSPost2010PropOp36
 70
     1
102
RTVSPost2010Prop37
 90
       50
102
RTVSPost2010PropOp37
 70
     1
102
RTVSPost2010Prop38
140
0.0
102
RTVSPost2010PropOp38
 70
     1
102
RTVSPost2010Prop39
140
1.0
102
RTVSPost2010PropOp39
 70
     1
102
RTVSPost2010Prop40
 90
        0
102
RTVSPost2010PropOp40
 70
     1
102
RTVSPost2010Prop41ColorIndex
 90
       18
102
RTVSPost2010Prop41ColorRGB
 90
-16777216
102
RTVSPost2010PropOp41
 70
     1
102
RTVSPost2010Prop42
 90
       50
102
RTVSPost2010PropOp42
 70
     1
102
RTVSPost2010Prop43
 90
        3
102
RTVSPost2010PropOp43
 70
     1
102
RTVSPost2010Prop44ColorIndex
 90
        5
102
RTVSPost2010Prop44ColorRGB
 90
      255
102
RTVSPost2010PropOp44
 70
     1
102
RTVSPost2010Prop45
280
     0
102
RTVSPost2010PropOp45
 70
     1
102
RTVSPost2010Prop46
 90
       50
102
RTVSPost2010PropOp46
 70
     1
102
RTVSPost2010Prop47
 90
       50
102
RTVSPost2010PropOp47
 70
     1
102
RTVSPost2010Prop48
 90
       50
102
RTVSPost2010PropOp48
 70
     1
102
RTVSPost2010Prop49
280
     0
102
RTVSPost2010PropOp49
 70
     1
102
RTVSPost2010Prop50
 90
       50
102
RTVSPost2010PropOp50
 70
     1
102
RTVSPost2010Prop51ColorIndex
 90
      256
102
RTVSPost2010Prop51ColorRGB
 90
-16777216
102
RTVSPost2010PropOp51
 70
     0
102
RTVSPost2010Prop52
140
1.0
102
RTVSPost2010PropOp52
 70
     0
102
RTVSPost2010Prop53
 90
        2
102
RTVSPost2010PropOp53
 70
     1
102
RTVSPost2010Prop54
  1
strokes_ogs.tif
102
RTVSPost2010PropOp54
 70
     1
102
RTVSPost2010Prop55
280
     0
102
RTVSPost2010PropOp55
 70
     1
102
RTVSPost2010Prop56
140
1.0
102
RTVSPost2010PropOp56
 70
     1
102
RTVSPost2010Prop57
140
1.0
102
RTVSPost2010PropOp57
 70
     1
102
RTVSPropertyOp0
 70
     1
102
RTVSPropertyOp1
 70
     1
102
RTVSPropertyOp2
 70
     1
102
RTVSPropertyOp3
 70
     1
102
RTVSPropertyOp4
 70
     1
102
RTVSPropertyOp5
 70
     1
102
RTVSPropertyOp6
 70
     1
102
RTVSPropertyOp7
 70
     1
102
RTVSPropertyOp8
 70
     1
102
RTVSPropertyOp9
 70
     1
102
RTVSPropertyOp10
 70
     1
102
RTVSPropertyOp11
 70
     1
102
RTVSPropertyOp12
 70
     1
102
RTVSPropertyOp13
 70
     1
102
RTVSPropertyOp14
 70
     1
102
RTVSPropertyOp15
 70
     1
102
RTVSPropertyOp16
 70
     1
102
RTVSPropertyOp17
 70
     1
102
RTVSPropertyOp18
 70
     1
102
RTVSPropertyOp19
 70
     1
102
RTVSPropertyOp20
 70
     1
102
RTVSPropertyOp21
 70
     1
102
RTVSPropertyOp22
 70
     1
102
RTVSPropertyOp23
 70
     1
102
RTVSPropertyOp24
 70
     1
102
RTVSPropertyOp25
 70
     1
102
RTVSPropertyOp26
 70
     1
102
RTVSPropertyOp27
 70
     1
102
RTVSPropertyOp28
 70
     1
102
RTVSPropertyOp29
 70
     1
102
RTVSPropertyOp30
 70
     1
102
RTVSPropertyOp31
 70
     1
102
RTVSPropertyOp32
 70
     1
102
RTVSPropertyOp33
 70
     1
102
RTVSPropertyOp34
 70
     1
102
RTVSPropertyOp35
 70
     1
102
RTVSPropertyOp36
 70
     1
102
RTVSPropertyOp37
 70
     1
102
RTVSPropertyOp38
 70
     1
102
RTVSPropertyOp39
 70
     1
102
RTVSPropertyOp40
 70
     1
102
RTVSPropertyOp41
 70
     1
102
RTVSPropertyOp42
 70
     1
102
RTVSPropertyOp43
 70
     1
102
RTVSPropertyOp44
 70
     1
102
RTVSPropertyOp45
 70
     1
102
RTVSPropertyOp46
 70
     1
102
RTVSPropertyOp47
 70
     1
102
RTVSPropertyOp48
 70
     1
102
RTVSPropertyOp49
 70
     1
102
RTVSPropertyOp50
 70
     1
102
RTVSPropertyOp51
 70
     0
102
RTVSPropertyOp52
 70
     0
102
RTVSPropertyOp53
 70
     1
102
RTVSPropertyOp54
 70
     1
102
RTVSPropertyOp55
 70
     1
102
RTVSPropertyOp56
 70
     1
102
RTVSPropertyOp57
 70
     1
102
RTVSPropertyOp58
 70
     1
102
RTVSPropertyOp59
 70
     1
102
RTVSPropertyOp60
 70
     1
102
RTVSPropertyOp61
 70
     1
102
RTVSPropertyOp62
 70
     1
  0
XRECORD
  5
D04
102
{ACAD_REACTORS
330
D03
102
}
330
D03
100
AcDbXrecord
280
     1
102
RTVSPost2010Prop28
280
     0
102
RTVSPost2010PropOp28
 70
     1
102
RTVSPost2010Prop29
280
     1
102
RTVSPost2010PropOp29
 70
     1
102
RTVSPost2010Prop30
280
     1
102
RTVSPost2010PropOp30
 70
     1
102
RTVSPost2010Prop31
280
     0
102
RTVSPost2010PropOp31
 70
     1
102
RTVSPost2010Prop32
280
     0
102
RTVSPost2010PropOp32
 70
     1
102
RTVSPost2010Prop33
280
     0
102
RTVSPost2010PropOp33
 70
     1
102
RTVSPost2010Prop34
280
     0
102
RTVSPost2010PropOp34
 70
     1
102
RTVSPost2010Prop35
280
     0
102
RTVSPost2010PropOp35
 70
     1
102
RTVSPost2010Prop36
280
     0
102
RTVSPost2010PropOp36
 70
     1
102
RTVSPost2010Prop37
 90
       50
102
RTVSPost2010PropOp37
 70
     1
102
RTVSPost2010Prop38
140
0.0
102
RTVSPost2010PropOp38
 70
     1
102
RTVSPost2010Prop39
140
1.0
102
RTVSPost2010PropOp39
 70
     1
102
RTVSPost2010Prop40
 90
        0
102
RTVSPost2010PropOp40
 70
     1
102
RTVSPost2010Prop41ColorIndex
 90
       18
102
RTVSPost2010Prop41ColorRGB
 90
-16777216
102
RTVSPost2010PropOp41
 70
     1
102
RTVSPost2010Prop42
 90
       50
102
RTVSPost2010PropOp42
 70
     1
102
RTVSPost2010Prop43
 90
        3
102
RTVSPost2010PropOp43
 70
     1
102
RTVSPost2010Prop44ColorIndex
 90
        5
102
RTVSPost2010Prop44ColorRGB
 90
      255
102
RTVSPost2010PropOp44
 70
     1
102
RTVSPost2010Prop45
280
     0
102
RTVSPost2010PropOp45
 70
     1
102
RTVSPost2010Prop46
 90
       50
102
RTVSPost2010PropOp46
 70
     1
102
RTVSPost2010Prop47
 90
       50
102
RTVSPost2010PropOp47
 70
     1
102
RTVSPost2010Prop48
 90
       50
102
RTVSPost2010PropOp48
 70
     1
102
RTVSPost2010Prop49
280
     0
102
RTVSPost2010PropOp49
 70
     1
102
RTVSPost2010Prop50
 90
       50
102
RTVSPost2010PropOp50
 70
     1
102
RTVSPost2010Prop51ColorIndex
 90
      256
102
RTVSPost2010Prop51ColorRGB
 90
-16777216
102
RTVSPost2010PropOp51
 70
     0
102
RTVSPost2010Prop52
140
1.0
102
RTVSPost2010PropOp52
 70
     0
102
RTVSPost2010Prop53
 90
        2
102
RTVSPost2010PropOp53
 70
     1
102
RTVSPost2010Prop54
  1
strokes_ogs.tif
102
RTVSPost2010PropOp54
 70
     1
102
RTVSPost2010Prop55
280
     0
102
RTVSPost2010PropOp55
 70
     1
102
RTVSPost2010Prop56
140
1.0
102
RTVSPost2010PropOp56
 70
     1
102
RTVSPost2010Prop57
140
1.0
102
RTVSPost2010PropOp57
 70
     1
102
RTVSPropertyOp0
 70
     1
102
RTVSPropertyOp1
 70
     1
102
RTVSPropertyOp2
 70
     1
102
RTVSPropertyOp3
 70
     1
102
RTVSPropertyOp4
 70
     1
102
RTVSPropertyOp5
 70
     1
102
RTVSPropertyOp6
 70
     1
102
RTVSPropertyOp7
 70
     1
102
RTVSPropertyOp8
 70
     1
102
RTVSPropertyOp9
 70
     1
102
RTVSPropertyOp10
 70
     1
102
RTVSPropertyOp11
 70
     1
102
RTVSPropertyOp12
 70
     1
102
RTVSPropertyOp13
 70
     1
102
RTVSPropertyOp14
 70
     1
102
RTVSPropertyOp15
 70
     1
102
RTVSPropertyOp16
 70
     1
102
RTVSPropertyOp17
 70
     1
102
RTVSPropertyOp18
 70
     1
102
RTVSPropertyOp19
 70
     1
102
RTVSPropertyOp20
 70
     1
102
RTVSPropertyOp21
 70
     1
102
RTVSPropertyOp22
 70
     1
102
RTVSPropertyOp23
 70
     1
102
RTVSPropertyOp24
 70
     1
102
RTVSPropertyOp25
 70
     1
102
RTVSPropertyOp26
 70
     1
102
RTVSPropertyOp27
 70
     1
102
RTVSPropertyOp28
 70
     1
102
RTVSPropertyOp29
 70
     1
102
RTVSPropertyOp30
 70
     1
102
RTVSPropertyOp31
 70
     1
102
RTVSPropertyOp32
 70
     1
102
RTVSPropertyOp33
 70
     1
102
RTVSPropertyOp34
 70
     1
102
RTVSPropertyOp35
 70
     1
102
RTVSPropertyOp36
 70
     1
102
RTVSPropertyOp37
 70
     1
102
RTVSPropertyOp38
 70
     1
102
RTVSPropertyOp39
 70
     1
102
RTVSPropertyOp40
 70
     1
102
RTVSPropertyOp41
 70
     1
102
RTVSPropertyOp42
 70
     1
102
RTVSPropertyOp43
 70
     1
102
RTVSPropertyOp44
 70
     1
102
RTVSPropertyOp45
 70
     1
102
RTVSPropertyOp46
 70
     1
102
RTVSPropertyOp47
 70
     1
102
RTVSPropertyOp48
 70
     1
102
RTVSPropertyOp49
 70
     1
102
RTVSPropertyOp50
 70
     1
102
RTVSPropertyOp51
 70
     0
102
RTVSPropertyOp52
 70
     0
102
RTVSPropertyOp53
 70
     1
102
RTVSPropertyOp54
 70
     1
102
RTVSPropertyOp55
 70
     1
102
RTVSPropertyOp56
 70
     1
102
RTVSPropertyOp57
 70
     1
102
RTVSPropertyOp58
 70
     1
102
RTVSPropertyOp59
 70
     1
102
RTVSPropertyOp60
 70
     1
102
RTVSPropertyOp61
 70
     1
102
RTVSPropertyOp62
 70
     1
  0
XRECORD
  5
D0C
102
{ACAD_REACTORS
330
D0B
102
}
330
D0B
100
AcDbXrecord
280
     1
102
RTVSPost2010Prop28
280
     0
102
RTVSPost2010PropOp28
 70
     1
102
RTVSPost2010Prop29
280
     1
102
RTVSPost2010PropOp29
 70
     1
102
RTVSPost2010Prop30
280
     1
102
RTVSPost2010PropOp30
 70
     1
102
RTVSPost2010Prop31
280
     0
102
RTVSPost2010PropOp31
 70
     1
102
RTVSPost2010Prop32
280
     0
102
RTVSPost2010PropOp32
 70
     1
102
RTVSPost2010Prop33
280
     0
102
RTVSPost2010PropOp33
 70
     1
102
RTVSPost2010Prop34
280
     0
102
RTVSPost2010PropOp34
 70
     1
102
RTVSPost2010Prop35
280
     0
102
RTVSPost2010PropOp35
 70
     1
102
RTVSPost2010Prop36
280
     0
102
RTVSPost2010PropOp36
 70
     1
102
RTVSPost2010Prop37
 90
       50
102
RTVSPost2010PropOp37
 70
     1
102
RTVSPost2010Prop38
140
0.0
102
RTVSPost2010PropOp38
 70
     1
102
RTVSPost2010Prop39
140
1.0
102
RTVSPost2010PropOp39
 70
     1
102
RTVSPost2010Prop40
 90
        0
102
RTVSPost2010PropOp40
 70
     1
102
RTVSPost2010Prop41ColorIndex
 90
       18
102
RTVSPost2010Prop41ColorRGB
 90
-16777216
102
RTVSPost2010PropOp41
 70
     1
102
RTVSPost2010Prop42
 90
       50
102
RTVSPost2010PropOp42
 70
     1
102
RTVSPost2010Prop43
 90
        3
102
RTVSPost2010PropOp43
 70
     1
102
RTVSPost2010Prop44ColorIndex
 90
        5
102
RTVSPost2010Prop44ColorRGB
 90
      255
102
RTVSPost2010PropOp44
 70
     1
102
RTVSPost2010Prop45
280
     0
102
RTVSPost2010PropOp45
 70
     1
102
RTVSPost2010Prop46
 90
       50
102
RTVSPost2010PropOp46
 70
     1
102
RTVSPost2010Prop47
 90
       50
102
RTVSPost2010PropOp47
 70
     1
102
RTVSPost2010Prop48
 90
       50
102
RTVSPost2010PropOp48
 70
     1
102
RTVSPost2010Prop49
280
     0
102
RTVSPost2010PropOp49
 70
     1
102
RTVSPost2010Prop50
 90
       50
102
RTVSPost2010PropOp50
 70
     1
102
RTVSPost2010Prop51ColorIndex
 90
      256
102
RTVSPost2010Prop51ColorRGB
 90
-16777216
102
RTVSPost2010PropOp51
 70
     0
102
RTVSPost2010Prop52
140
1.0
102
RTVSPost2010PropOp52
 70
     0
102
RTVSPost2010Prop53
 90
        2
102
RTVSPost2010PropOp53
 70
     1
102
RTVSPost2010Prop54
  1
strokes_ogs.tif
102
RTVSPost2010PropOp54
 70
     1
102
RTVSPost2010Prop55
280
     0
102
RTVSPost2010PropOp55
 70
     1
102
RTVSPost2010Prop56
140
1.0
102
RTVSPost2010PropOp56
 70
     1
102
RTVSPost2010Prop57
140
1.0
102
RTVSPost2010PropOp57
 70
     1
102
RTVSPropertyOp0
 70
     1
102
RTVSPropertyOp1
 70
     1
102
RTVSPropertyOp2
 70
     1
102
RTVSPropertyOp3
 70
     1
102
RTVSPropertyOp4
 70
     1
102
RTVSPropertyOp5
 70
     1
102
RTVSPropertyOp6
 70
     1
102
RTVSPropertyOp7
 70
     1
102
RTVSPropertyOp8
 70
     1
102
RTVSPropertyOp9
 70
     1
102
RTVSPropertyOp10
 70
     1
102
RTVSPropertyOp11
 70
     1
102
RTVSPropertyOp12
 70
     1
102
RTVSPropertyOp13
 70
     1
102
RTVSPropertyOp14
 70
     1
102
RTVSPropertyOp15
 70
     1
102
RTVSPropertyOp16
 70
     1
102
RTVSPropertyOp17
 70
     1
102
RTVSPropertyOp18
 70
     1
102
RTVSPropertyOp19
 70
     1
102
RTVSPropertyOp20
 70
     1
102
RTVSPropertyOp21
 70
     1
102
RTVSPropertyOp22
 70
     1
102
RTVSPropertyOp23
 70
     1
102
RTVSPropertyOp24
 70
     1
102
RTVSPropertyOp25
 70
     1
102
RTVSPropertyOp26
 70
     1
102
RTVSPropertyOp27
 70
     1
102
RTVSPropertyOp28
 70
     1
102
RTVSPropertyOp29
 70
     1
102
RTVSPropertyOp30
 70
     1
102
RTVSPropertyOp31
 70
     1
102
RTVSPropertyOp32
 70
     1
102
RTVSPropertyOp33
 70
     1
102
RTVSPropertyOp34
 70
     1
102
RTVSPropertyOp35
 70
     1
102
RTVSPropertyOp36
 70
     1
102
RTVSPropertyOp37
 70
     1
102
RTVSPropertyOp38
 70
     1
102
RTVSPropertyOp39
 70
     1
102
RTVSPropertyOp40
 70
     1
102
RTVSPropertyOp41
 70
     1
102
RTVSPropertyOp42
 70
     1
102
RTVSPropertyOp43
 70
     1
102
RTVSPropertyOp44
 70
     1
102
RTVSPropertyOp45
 70
     1
102
RTVSPropertyOp46
 70
     1
102
RTVSPropertyOp47
 70
     1
102
RTVSPropertyOp48
 70
     1
102
RTVSPropertyOp49
 70
     1
102
RTVSPropertyOp50
 70
     1
102
RTVSPropertyOp51
 70
     0
102
RTVSPropertyOp52
 70
     0
102
RTVSPropertyOp53
 70
     1
102
RTVSPropertyOp54
 70
     1
102
RTVSPropertyOp55
 70
     1
102
RTVSPropertyOp56
 70
     1
102
RTVSPropertyOp57
 70
     1
102
RTVSPropertyOp58
 70
     1
102
RTVSPropertyOp59
 70
     1
102
RTVSPropertyOp60
 70
     1
102
RTVSPropertyOp61
 70
     1
102
RTVSPropertyOp62
 70
     1
  0
XRECORD
  5
CFE
102
{ACAD_REACTORS
330
CFD
102
}
330
CFD
100
AcDbXrecord
280
     1
102
RTVSPost2010Prop28
280
     0
102
RTVSPost2010PropOp28
 70
     1
102
RTVSPost2010Prop29
280
     1
102
RTVSPost2010PropOp29
 70
     1
102
RTVSPost2010Prop30
280
     1
102
RTVSPost2010PropOp30
 70
     1
102
RTVSPost2010Prop31
280
     0
102
RTVSPost2010PropOp31
 70
     1
102
RTVSPost2010Prop32
280
     0
102
RTVSPost2010PropOp32
 70
     1
102
RTVSPost2010Prop33
280
     0
102
RTVSPost2010PropOp33
 70
     1
102
RTVSPost2010Prop34
280
     0
102
RTVSPost2010PropOp34
 70
     1
102
RTVSPost2010Prop35
280
     0
102
RTVSPost2010PropOp35
 70
     1
102
RTVSPost2010Prop36
280
     0
102
RTVSPost2010PropOp36
 70
     1
102
RTVSPost2010Prop37
 90
       50
102
RTVSPost2010PropOp37
 70
     1
102
RTVSPost2010Prop38
140
0.0
102
RTVSPost2010PropOp38
 70
     1
102
RTVSPost2010Prop39
140
1.0
102
RTVSPost2010PropOp39
 70
     1
102
RTVSPost2010Prop40
 90
        0
102
RTVSPost2010PropOp40
 70
     1
102
RTVSPost2010Prop41ColorIndex
 90
       18
102
RTVSPost2010Prop41ColorRGB
 90
-16777216
102
RTVSPost2010PropOp41
 70
     1
102
RTVSPost2010Prop42
 90
       50
102
RTVSPost2010PropOp42
 70
     1
102
RTVSPost2010Prop43
 90
        3
102
RTVSPost2010PropOp43
 70
     1
102
RTVSPost2010Prop44ColorIndex
 90
        5
102
RTVSPost2010Prop44ColorRGB
 90
      255
102
RTVSPost2010PropOp44
 70
     1
102
RTVSPost2010Prop45
280
     0
102
RTVSPost2010PropOp45
 70
     1
102
RTVSPost2010Prop46
 90
       50
102
RTVSPost2010PropOp46
 70
     1
102
RTVSPost2010Prop47
 90
       50
102
RTVSPost2010PropOp47
 70
     1
102
RTVSPost2010Prop48
 90
       50
102
RTVSPost2010PropOp48
 70
     1
102
RTVSPost2010Prop49
280
     0
102
RTVSPost2010PropOp49
 70
     1
102
RTVSPost2010Prop50
 90
       50
102
RTVSPost2010PropOp50
 70
     1
102
RTVSPost2010Prop51ColorIndex
 90
      256
102
RTVSPost2010Prop51ColorRGB
 90
-16777216
102
RTVSPost2010PropOp51
 70
     0
102
RTVSPost2010Prop52
140
1.0
102
RTVSPost2010PropOp52
 70
     0
102
RTVSPost2010Prop53
 90
        2
102
RTVSPost2010PropOp53
 70
     1
102
RTVSPost2010Prop54
  1
strokes_ogs.tif
102
RTVSPost2010PropOp54
 70
     1
102
RTVSPost2010Prop55
280
     0
102
RTVSPost2010PropOp55
 70
     1
102
RTVSPost2010Prop56
140
1.0
102
RTVSPost2010PropOp56
 70
     1
102
RTVSPost2010Prop57
140
1.0
102
RTVSPost2010PropOp57
 70
     1
102
RTVSPropertyOp0
 70
     1
102
RTVSPropertyOp1
 70
     1
102
RTVSPropertyOp2
 70
     1
102
RTVSPropertyOp3
 70
     1
102
RTVSPropertyOp4
 70
     1
102
RTVSPropertyOp5
 70
     1
102
RTVSPropertyOp6
 70
     1
102
RTVSPropertyOp7
 70
     1
102
RTVSPropertyOp8
 70
     1
102
RTVSPropertyOp9
 70
     1
102
RTVSPropertyOp10
 70
     1
102
RTVSPropertyOp11
 70
     1
102
RTVSPropertyOp12
 70
     1
102
RTVSPropertyOp13
 70
     1
102
RTVSPropertyOp14
 70
     1
102
RTVSPropertyOp15
 70
     1
102
RTVSPropertyOp16
 70
     1
102
RTVSPropertyOp17
 70
     1
102
RTVSPropertyOp18
 70
     1
102
RTVSPropertyOp19
 70
     1
102
RTVSPropertyOp20
 70
     1
102
RTVSPropertyOp21
 70
     1
102
RTVSPropertyOp22
 70
     1
102
RTVSPropertyOp23
 70
     1
102
RTVSPropertyOp24
 70
     1
102
RTVSPropertyOp25
 70
     1
102
RTVSPropertyOp26
 70
     1
102
RTVSPropertyOp27
 70
     1
102
RTVSPropertyOp28
 70
     1
102
RTVSPropertyOp29
 70
     1
102
RTVSPropertyOp30
 70
     1
102
RTVSPropertyOp31
 70
     1
102
RTVSPropertyOp32
 70
     1
102
RTVSPropertyOp33
 70
     1
102
RTVSPropertyOp34
 70
     1
102
RTVSPropertyOp35
 70
     1
102
RTVSPropertyOp36
 70
     1
102
RTVSPropertyOp37
 70
     1
102
RTVSPropertyOp38
 70
     1
102
RTVSPropertyOp39
 70
     1
102
RTVSPropertyOp40
 70
     1
102
RTVSPropertyOp41
 70
     1
102
RTVSPropertyOp42
 70
     1
102
RTVSPropertyOp43
 70
     1
102
RTVSPropertyOp44
 70
     1
102
RTVSPropertyOp45
 70
     1
102
RTVSPropertyOp46
 70
     1
102
RTVSPropertyOp47
 70
     1
102
RTVSPropertyOp48
 70
     1
102
RTVSPropertyOp49
 70
     1
102
RTVSPropertyOp50
 70
     1
102
RTVSPropertyOp51
 70
     0
102
RTVSPropertyOp52
 70
     0
102
RTVSPropertyOp53
 70
     1
102
RTVSPropertyOp54
 70
     1
102
RTVSPropertyOp55
 70
     1
102
RTVSPropertyOp56
 70
     1
102
RTVSPropertyOp57
 70
     1
102
RTVSPropertyOp58
 70
     1
102
RTVSPropertyOp59
 70
     1
102
RTVSPropertyOp60
 70
     1
102
RTVSPropertyOp61
 70
     1
102
RTVSPropertyOp62
 70
     1
  0
XRECORD
  5
D02
102
{ACAD_REACTORS
330
D01
102
}
330
D01
100
AcDbXrecord
280
     1
102
RTVSPost2010Prop28
280
     0
102
RTVSPost2010PropOp28
 70
     1
102
RTVSPost2010Prop29
280
     1
102
RTVSPost2010PropOp29
 70
     1
102
RTVSPost2010Prop30
280
     1
102
RTVSPost2010PropOp30
 70
     1
102
RTVSPost2010Prop31
280
     0
102
RTVSPost2010PropOp31
 70
     1
102
RTVSPost2010Prop32
280
     0
102
RTVSPost2010PropOp32
 70
     1
102
RTVSPost2010Prop33
280
     0
102
RTVSPost2010PropOp33
 70
     1
102
RTVSPost2010Prop34
280
     0
102
RTVSPost2010PropOp34
 70
     1
102
RTVSPost2010Prop35
280
     0
102
RTVSPost2010PropOp35
 70
     1
102
RTVSPost2010Prop36
280
     0
102
RTVSPost2010PropOp36
 70
     1
102
RTVSPost2010Prop37
 90
       50
102
RTVSPost2010PropOp37
 70
     1
102
RTVSPost2010Prop38
140
0.0
102
RTVSPost2010PropOp38
 70
     1
102
RTVSPost2010Prop39
140
1.0
102
RTVSPost2010PropOp39
 70
     1
102
RTVSPost2010Prop40
 90
        0
102
RTVSPost2010PropOp40
 70
     1
102
RTVSPost2010Prop41ColorIndex
 90
       18
102
RTVSPost2010Prop41ColorRGB
 90
-16777216
102
RTVSPost2010PropOp41
 70
     1
102
RTVSPost2010Prop42
 90
       50
102
RTVSPost2010PropOp42
 70
     1
102
RTVSPost2010Prop43
 90
        3
102
RTVSPost2010PropOp43
 70
     1
102
RTVSPost2010Prop44ColorIndex
 90
        5
102
RTVSPost2010Prop44ColorRGB
 90
      255
102
RTVSPost2010PropOp44
 70
     1
102
RTVSPost2010Prop45
280
     0
102
RTVSPost2010PropOp45
 70
     1
102
RTVSPost2010Prop46
 90
       50
102
RTVSPost2010PropOp46
 70
     1
102
RTVSPost2010Prop47
 90
       50
102
RTVSPost2010PropOp47
 70
     1
102
RTVSPost2010Prop48
 90
       50
102
RTVSPost2010PropOp48
 70
     1
102
RTVSPost2010Prop49
280
     0
102
RTVSPost2010PropOp49
 70
     1
102
RTVSPost2010Prop50
 90
       50
102
RTVSPost2010PropOp50
 70
     1
102
RTVSPost2010Prop51ColorIndex
 90
      256
102
RTVSPost2010Prop51ColorRGB
 90
-16777216
102
RTVSPost2010PropOp51
 70
     0
102
RTVSPost2010Prop52
140
1.0
102
RTVSPost2010PropOp52
 70
     0
102
RTVSPost2010Prop53
 90
        2
102
RTVSPost2010PropOp53
 70
     1
102
RTVSPost2010Prop54
  1
strokes_ogs.tif
102
RTVSPost2010PropOp54
 70
     1
102
RTVSPost2010Prop55
280
     0
102
RTVSPost2010PropOp55
 70
     1
102
RTVSPost2010Prop56
140
1.0
102
RTVSPost2010PropOp56
 70
     1
102
RTVSPost2010Prop57
140
1.0
102
RTVSPost2010PropOp57
 70
     1
102
RTVSPropertyOp0
 70
     1
102
RTVSPropertyOp1
 70
     1
102
RTVSPropertyOp2
 70
     1
102
RTVSPropertyOp3
 70
     1
102
RTVSPropertyOp4
 70
     1
102
RTVSPropertyOp5
 70
     1
102
RTVSPropertyOp6
 70
     1
102
RTVSPropertyOp7
 70
     1
102
RTVSPropertyOp8
 70
     1
102
RTVSPropertyOp9
 70
     1
102
RTVSPropertyOp10
 70
     1
102
RTVSPropertyOp11
 70
     1
102
RTVSPropertyOp12
 70
     1
102
RTVSPropertyOp13
 70
     1
102
RTVSPropertyOp14
 70
     1
102
RTVSPropertyOp15
 70
     1
102
RTVSPropertyOp16
 70
     1
102
RTVSPropertyOp17
 70
     1
102
RTVSPropertyOp18
 70
     1
102
RTVSPropertyOp19
 70
     1
102
RTVSPropertyOp20
 70
     1
102
RTVSPropertyOp21
 70
     1
102
RTVSPropertyOp22
 70
     1
102
RTVSPropertyOp23
 70
     1
102
RTVSPropertyOp24
 70
     1
102
RTVSPropertyOp25
 70
     1
102
RTVSPropertyOp26
 70
     1
102
RTVSPropertyOp27
 70
     1
102
RTVSPropertyOp28
 70
     1
102
RTVSPropertyOp29
 70
     1
102
RTVSPropertyOp30
 70
     1
102
RTVSPropertyOp31
 70
     1
102
RTVSPropertyOp32
 70
     1
102
RTVSPropertyOp33
 70
     1
102
RTVSPropertyOp34
 70
     1
102
RTVSPropertyOp35
 70
     1
102
RTVSPropertyOp36
 70
     1
102
RTVSPropertyOp37
 70
     1
102
RTVSPropertyOp38
 70
     1
102
RTVSPropertyOp39
 70
     1
102
RTVSPropertyOp40
 70
     1
102
RTVSPropertyOp41
 70
     1
102
RTVSPropertyOp42
 70
     1
102
RTVSPropertyOp43
 70
     1
102
RTVSPropertyOp44
 70
     1
102
RTVSPropertyOp45
 70
     1
102
RTVSPropertyOp46
 70
     1
102
RTVSPropertyOp47
 70
     1
102
RTVSPropertyOp48
 70
     1
102
RTVSPropertyOp49
 70
     1
102
RTVSPropertyOp50
 70
     1
102
RTVSPropertyOp51
 70
     0
102
RTVSPropertyOp52
 70
     0
102
RTVSPropertyOp53
 70
     1
102
RTVSPropertyOp54
 70
     1
102
RTVSPropertyOp55
 70
     1
102
RTVSPropertyOp56
 70
     1
102
RTVSPropertyOp57
 70
     1
102
RTVSPropertyOp58
 70
     1
102
RTVSPropertyOp59
 70
     1
102
RTVSPropertyOp60
 70
     1
102
RTVSPropertyOp61
 70
     1
102
RTVSPropertyOp62
 70
     1
  0
XRECORD
  5
D1C
102
{ACAD_REACTORS
330
D1B
102
}
330
D1B
100
AcDbXrecord
280
     1
102
RTVSPost2010Prop28
280
     0
102
RTVSPost2010PropOp28
 70
     0
102
RTVSPost2010Prop29
280
     1
102
RTVSPost2010PropOp29
 70
     0
102
RTVSPost2010Prop30
280
     1
102
RTVSPost2010PropOp30
 70
     0
102
RTVSPost2010Prop31
280
     0
102
RTVSPost2010PropOp31
 70
     0
102
RTVSPost2010Prop32
280
     0
102
RTVSPost2010PropOp32
 70
     0
102
RTVSPost2010Prop33
280
     0
102
RTVSPost2010PropOp33
 70
     0
102
RTVSPost2010Prop34
280
     0
102
RTVSPost2010PropOp34
 70
     0
102
RTVSPost2010Prop35
280
     0
102
RTVSPost2010PropOp35
 70
     0
102
RTVSPost2010Prop36
280
     0
102
RTVSPost2010PropOp36
 70
     0
102
RTVSPost2010Prop37
 90
       50
102
RTVSPost2010PropOp37
 70
     0
102
RTVSPost2010Prop38
140
0.0
102
RTVSPost2010PropOp38
 70
     0
102
RTVSPost2010Prop39
140
1.0
102
RTVSPost2010PropOp39
 70
     0
102
RTVSPost2010Prop40
 90
        0
102
RTVSPost2010PropOp40
 70
     0
102
RTVSPost2010Prop41ColorIndex
 90
       18
102
RTVSPost2010Prop41ColorRGB
 90
-16777216
102
RTVSPost2010PropOp41
 70
     0
102
RTVSPost2010Prop42
 90
       50
102
RTVSPost2010PropOp42
 70
     0
102
RTVSPost2010Prop43
 90
        3
102
RTVSPost2010PropOp43
 70
     0
102
RTVSPost2010Prop44ColorIndex
 90
        5
102
RTVSPost2010Prop44ColorRGB
 90
      255
102
RTVSPost2010PropOp44
 70
     0
102
RTVSPost2010Prop45
280
     0
102
RTVSPost2010PropOp45
 70
     0
102
RTVSPost2010Prop46
 90
       50
102
RTVSPost2010PropOp46
 70
     0
102
RTVSPost2010Prop47
 90
       50
102
RTVSPost2010PropOp47
 70
     0
102
RTVSPost2010Prop48
 90
       50
102
RTVSPost2010PropOp48
 70
     0
102
RTVSPost2010Prop49
280
     0
102
RTVSPost2010PropOp49
 70
     0
102
RTVSPost2010Prop50
 90
       50
102
RTVSPost2010PropOp50
 70
     0
102
RTVSPost2010Prop51ColorIndex
 90
      256
102
RTVSPost2010Prop51ColorRGB
 90
-16777216
102
RTVSPost2010PropOp51
 70
     0
102
RTVSPost2010Prop52
140
1.0
102
RTVSPost2010PropOp52
 70
     0
102
RTVSPost2010Prop53
 90
        2
102
RTVSPost2010PropOp53
 70
     0
102
RTVSPost2010Prop54
  1
strokes_ogs.tif
102
RTVSPost2010PropOp54
 70
     0
102
RTVSPost2010Prop55
280
     0
102
RTVSPost2010PropOp55
 70
     0
102
RTVSPost2010Prop56
140
1.0
102
RTVSPost2010PropOp56
 70
     0
102
RTVSPost2010Prop57
140
1.0
102
RTVSPost2010PropOp57
 70
     0
102
RTVSPropertyOp0
 70
     0
102
RTVSPropertyOp1
 70
     0
102
RTVSPropertyOp2
 70
     0
102
RTVSPropertyOp3
 70
     0
102
RTVSPropertyOp4
 70
     0
102
RTVSPropertyOp5
 70
     0
102
RTVSPropertyOp6
 70
     0
102
RTVSPropertyOp7
 70
     0
102
RTVSPropertyOp8
 70
     0
102
RTVSPropertyOp9
 70
     0
102
RTVSPropertyOp10
 70
     0
102
RTVSPropertyOp11
 70
     0
102
RTVSPropertyOp12
 70
     0
102
RTVSPropertyOp13
 70
     0
102
RTVSPropertyOp14
 70
     2
102
RTVSPropertyOp15
 70
     0
102
RTVSPropertyOp16
 70
     0
102
RTVSPropertyOp17
 70
     0
102
RTVSPropertyOp18
 70
     0
102
RTVSPropertyOp19
 70
     0
102
RTVSPropertyOp20
 70
     0
102
RTVSPropertyOp21
 70
     0
102
RTVSPropertyOp22
 70
     0
102
RTVSPropertyOp23
 70
     0
102
RTVSPropertyOp24
 70
     0
102
RTVSPropertyOp25
 70
     0
102
RTVSPropertyOp26
 70
     0
102
RTVSPropertyOp27
 70
     0
102
RTVSPropertyOp28
 70
     0
102
RTVSPropertyOp29
 70
     0
102
RTVSPropertyOp30
 70
     0
102
RTVSPropertyOp31
 70
     0
102
RTVSPropertyOp32
 70
     0
102
RTVSPropertyOp33
 70
     0
102
RTVSPropertyOp34
 70
     0
102
RTVSPropertyOp35
 70
     0
102
RTVSPropertyOp36
 70
     0
102
RTVSPropertyOp37
 70
     0
102
RTVSPropertyOp38
 70
     0
102
RTVSPropertyOp39
 70
     0
102
RTVSPropertyOp40
 70
     0
102
RTVSPropertyOp41
 70
     0
102
RTVSPropertyOp42
 70
     0
102
RTVSPropertyOp43
 70
     0
102
RTVSPropertyOp44
 70
     0
102
RTVSPropertyOp45
 70
     0
102
RTVSPropertyOp46
 70
     0
102
RTVSPropertyOp47
 70
     0
102
RTVSPropertyOp48
 70
     0
102
RTVSPropertyOp49
 70
     0
102
RTVSPropertyOp50
 70
     0
102
RTVSPropertyOp51
 70
     0
102
RTVSPropertyOp52
 70
     0
102
RTVSPropertyOp53
 70
     0
102
RTVSPropertyOp54
 70
     0
102
RTVSPropertyOp55
 70
     0
102
RTVSPropertyOp56
 70
     0
102
RTVSPropertyOp57
 70
     0
102
RTVSPropertyOp58
 70
     1
102
RTVSPropertyOp59
 70
     1
102
RTVSPropertyOp60
 70
     1
102
RTVSPropertyOp61
 70
     1
102
RTVSPropertyOp62
 70
     1
  0
XRECORD
  5
D0A
102
{ACAD_REACTORS
330
D09
102
}
330
D09
100
AcDbXrecord
280
     1
102
RTVSPost2010Prop28
280
     0
102
RTVSPost2010PropOp28
 70
     1
102
RTVSPost2010Prop29
280
     1
102
RTVSPost2010PropOp29
 70
     1
102
RTVSPost2010Prop30
280
     1
102
RTVSPost2010PropOp30
 70
     1
102
RTVSPost2010Prop31
280
     0
102
RTVSPost2010PropOp31
 70
     1
102
RTVSPost2010Prop32
280
     0
102
RTVSPost2010PropOp32
 70
     1
102
RTVSPost2010Prop33
280
     0
102
RTVSPost2010PropOp33
 70
     1
102
RTVSPost2010Prop34
280
     0
102
RTVSPost2010PropOp34
 70
     1
102
RTVSPost2010Prop35
280
     0
102
RTVSPost2010PropOp35
 70
     1
102
RTVSPost2010Prop36
280
     0
102
RTVSPost2010PropOp36
 70
     1
102
RTVSPost2010Prop37
 90
       50
102
RTVSPost2010PropOp37
 70
     1
102
RTVSPost2010Prop38
140
0.0
102
RTVSPost2010PropOp38
 70
     1
102
RTVSPost2010Prop39
140
1.0
102
RTVSPost2010PropOp39
 70
     1
102
RTVSPost2010Prop40
 90
        0
102
RTVSPost2010PropOp40
 70
     1
102
RTVSPost2010Prop41ColorIndex
 90
       18
102
RTVSPost2010Prop41ColorRGB
 90
-16777216
102
RTVSPost2010PropOp41
 70
     1
102
RTVSPost2010Prop42
 90
       50
102
RTVSPost2010PropOp42
 70
     1
102
RTVSPost2010Prop43
 90
        3
102
RTVSPost2010PropOp43
 70
     1
102
RTVSPost2010Prop44ColorIndex
 90
        5
102
RTVSPost2010Prop44ColorRGB
 90
      255
102
RTVSPost2010PropOp44
 70
     1
102
RTVSPost2010Prop45
280
     0
102
RTVSPost2010PropOp45
 70
     1
102
RTVSPost2010Prop46
 90
       50
102
RTVSPost2010PropOp46
 70
     1
102
RTVSPost2010Prop47
 90
       50
102
RTVSPost2010PropOp47
 70
     1
102
RTVSPost2010Prop48
 90
       50
102
RTVSPost2010PropOp48
 70
     1
102
RTVSPost2010Prop49
280
     0
102
RTVSPost2010PropOp49
 70
     1
102
RTVSPost2010Prop50
 90
       50
102
RTVSPost2010PropOp50
 70
     1
102
RTVSPost2010Prop51ColorIndex
 90
      256
102
RTVSPost2010Prop51ColorRGB
 90
-16777216
102
RTVSPost2010PropOp51
 70
     0
102
RTVSPost2010Prop52
140
1.0
102
RTVSPost2010PropOp52
 70
     0
102
RTVSPost2010Prop53
 90
        2
102
RTVSPost2010PropOp53
 70
     1
102
RTVSPost2010Prop54
  1
strokes_ogs.tif
102
RTVSPost2010PropOp54
 70
     1
102
RTVSPost2010Prop55
280
     0
102
RTVSPost2010PropOp55
 70
     1
102
RTVSPost2010Prop56
140
1.0
102
RTVSPost2010PropOp56
 70
     1
102
RTVSPost2010Prop57
140
1.0
102
RTVSPost2010PropOp57
 70
     1
102
RTVSPropertyOp0
 70
     1
102
RTVSPropertyOp1
 70
     1
102
RTVSPropertyOp2
 70
     1
102
RTVSPropertyOp3
 70
     1
102
RTVSPropertyOp4
 70
     1
102
RTVSPropertyOp5
 70
     1
102
RTVSPropertyOp6
 70
     1
102
RTVSPropertyOp7
 70
     1
102
RTVSPropertyOp8
 70
     1
102
RTVSPropertyOp9
 70
     1
102
RTVSPropertyOp10
 70
     1
102
RTVSPropertyOp11
 70
     1
102
RTVSPropertyOp12
 70
     1
102
RTVSPropertyOp13
 70
     1
102
RTVSPropertyOp14
 70
     1
102
RTVSPropertyOp15
 70
     1
102
RTVSPropertyOp16
 70
     1
102
RTVSPropertyOp17
 70
     1
102
RTVSPropertyOp18
 70
     1
102
RTVSPropertyOp19
 70
     1
102
RTVSPropertyOp20
 70
     1
102
RTVSPropertyOp21
 70
     1
102
RTVSPropertyOp22
 70
     1
102
RTVSPropertyOp23
 70
     1
102
RTVSPropertyOp24
 70
     1
102
RTVSPropertyOp25
 70
     1
102
RTVSPropertyOp26
 70
     1
102
RTVSPropertyOp27
 70
     1
102
RTVSPropertyOp28
 70
     1
102
RTVSPropertyOp29
 70
     1
102
RTVSPropertyOp30
 70
     1
102
RTVSPropertyOp31
 70
     1
102
RTVSPropertyOp32
 70
     1
102
RTVSPropertyOp33
 70
     1
102
RTVSPropertyOp34
 70
     1
102
RTVSPropertyOp35
 70
     1
102
RTVSPropertyOp36
 70
     1
102
RTVSPropertyOp37
 70
     1
102
RTVSPropertyOp38
 70
     1
102
RTVSPropertyOp39
 70
     1
102
RTVSPropertyOp40
 70
     1
102
RTVSPropertyOp41
 70
     1
102
RTVSPropertyOp42
 70
     1
102
RTVSPropertyOp43
 70
     1
102
RTVSPropertyOp44
 70
     1
102
RTVSPropertyOp45
 70
     1
102
RTVSPropertyOp46
 70
     1
102
RTVSPropertyOp47
 70
     1
102
RTVSPropertyOp48
 70
     1
102
RTVSPropertyOp49
 70
     1
102
RTVSPropertyOp50
 70
     1
102
RTVSPropertyOp51
 70
     0
102
RTVSPropertyOp52
 70
     0
102
RTVSPropertyOp53
 70
     1
102
RTVSPropertyOp54
 70
     1
102
RTVSPropertyOp55
 70
     1
102
RTVSPropertyOp56
 70
     1
102
RTVSPropertyOp57
 70
     1
102
RTVSPropertyOp58
 70
     1
102
RTVSPropertyOp59
 70
     1
102
RTVSPropertyOp60
 70
     1
102
RTVSPropertyOp61
 70
     1
102
RTVSPropertyOp62
 70
     1
  0
XRECORD
  5
CEE
102
{ACAD_REACTORS
330
CED
102
}
330
CED
100
AcDbXrecord
280
     1
102
RTVSPost2010Prop28
280
     0
102
RTVSPost2010PropOp28
 70
     1
102
RTVSPost2010Prop29
280
     1
102
RTVSPost2010PropOp29
 70
     1
102
RTVSPost2010Prop30
280
     1
102
RTVSPost2010PropOp30
 70
     1
102
RTVSPost2010Prop31
280
     0
102
RTVSPost2010PropOp31
 70
     1
102
RTVSPost2010Prop32
280
     0
102
RTVSPost2010PropOp32
 70
     1
102
RTVSPost2010Prop33
280
     0
102
RTVSPost2010PropOp33
 70
     1
102
RTVSPost2010Prop34
280
     0
102
RTVSPost2010PropOp34
 70
     1
102
RTVSPost2010Prop35
280
     0
102
RTVSPost2010PropOp35
 70
     1
102
RTVSPost2010Prop36
280
     0
102
RTVSPost2010PropOp36
 70
     1
102
RTVSPost2010Prop37
 90
       50
102
RTVSPost2010PropOp37
 70
     1
102
RTVSPost2010Prop38
140
0.0
102
RTVSPost2010PropOp38
 70
     1
102
RTVSPost2010Prop39
140
1.0
102
RTVSPost2010PropOp39
 70
     1
102
RTVSPost2010Prop40
 90
        0
102
RTVSPost2010PropOp40
 70
     1
102
RTVSPost2010Prop41ColorIndex
 90
       18
102
RTVSPost2010Prop41ColorRGB
 90
-16777216
102
RTVSPost2010PropOp41
 70
     1
102
RTVSPost2010Prop42
 90
       50
102
RTVSPost2010PropOp42
 70
     1
102
RTVSPost2010Prop43
 90
        3
102
RTVSPost2010PropOp43
 70
     1
102
RTVSPost2010Prop44ColorIndex
 90
        5
102
RTVSPost2010Prop44ColorRGB
 90
      255
102
RTVSPost2010PropOp44
 70
     1
102
RTVSPost2010Prop45
280
     0
102
RTVSPost2010PropOp45
 70
     1
102
RTVSPost2010Prop46
 90
       50
102
RTVSPost2010PropOp46
 70
     1
102
RTVSPost2010Prop47
 90
       50
102
RTVSPost2010PropOp47
 70
     1
102
RTVSPost2010Prop48
 90
       50
102
RTVSPost2010PropOp48
 70
     1
102
RTVSPost2010Prop49
280
     0
102
RTVSPost2010PropOp49
 70
     1
102
RTVSPost2010Prop50
 90
       50
102
RTVSPost2010PropOp50
 70
     1
102
RTVSPost2010Prop51ColorIndex
 90
      256
102
RTVSPost2010Prop51ColorRGB
 90
-16777216
102
RTVSPost2010PropOp51
 70
     0
102
RTVSPost2010Prop52
140
1.0
102
RTVSPost2010PropOp52
 70
     0
102
RTVSPost2010Prop53
 90
        2
102
RTVSPost2010PropOp53
 70
     1
102
RTVSPost2010Prop54
  1
strokes_ogs.tif
102
RTVSPost2010PropOp54
 70
     1
102
RTVSPost2010Prop55
280
     0
102
RTVSPost2010PropOp55
 70
     1
102
RTVSPost2010Prop56
140
1.0
102
RTVSPost2010PropOp56
 70
     1
102
RTVSPost2010Prop57
140
1.0
102
RTVSPost2010PropOp57
 70
     1
102
RTVSPropertyOp0
 70
     1
102
RTVSPropertyOp1
 70
     1
102
RTVSPropertyOp2
 70
     1
102
RTVSPropertyOp3
 70
     1
102
RTVSPropertyOp4
 70
     1
102
RTVSPropertyOp5
 70
     1
102
RTVSPropertyOp6
 70
     1
102
RTVSPropertyOp7
 70
     1
102
RTVSPropertyOp8
 70
     1
102
RTVSPropertyOp9
 70
     1
102
RTVSPropertyOp10
 70
     1
102
RTVSPropertyOp11
 70
     1
102
RTVSPropertyOp12
 70
     1
102
RTVSPropertyOp13
 70
     1
102
RTVSPropertyOp14
 70
     1
102
RTVSPropertyOp15
 70
     1
102
RTVSPropertyOp16
 70
     1
102
RTVSPropertyOp17
 70
     1
102
RTVSPropertyOp18
 70
     1
102
RTVSPropertyOp19
 70
     1
102
RTVSPropertyOp20
 70
     1
102
RTVSPropertyOp21
 70
     1
102
RTVSPropertyOp22
 70
     1
102
RTVSPropertyOp23
 70
     1
102
RTVSPropertyOp24
 70
     1
102
RTVSPropertyOp25
 70
     1
102
RTVSPropertyOp26
 70
     1
102
RTVSPropertyOp27
 70
     1
102
RTVSPropertyOp28
 70
     1
102
RTVSPropertyOp29
 70
     1
102
RTVSPropertyOp30
 70
     1
102
RTVSPropertyOp31
 70
     1
102
RTVSPropertyOp32
 70
     1
102
RTVSPropertyOp33
 70
     1
102
RTVSPropertyOp34
 70
     1
102
RTVSPropertyOp35
 70
     1
102
RTVSPropertyOp36
 70
     1
102
RTVSPropertyOp37
 70
     1
102
RTVSPropertyOp38
 70
     1
102
RTVSPropertyOp39
 70
     1
102
RTVSPropertyOp40
 70
     1
102
RTVSPropertyOp41
 70
     1
102
RTVSPropertyOp42
 70
     1
102
RTVSPropertyOp43
 70
     1
102
RTVSPropertyOp44
 70
     1
102
RTVSPropertyOp45
 70
     1
102
RTVSPropertyOp46
 70
     1
102
RTVSPropertyOp47
 70
     1
102
RTVSPropertyOp48
 70
     1
102
RTVSPropertyOp49
 70
     1
102
RTVSPropertyOp50
 70
     1
102
RTVSPropertyOp51
 70
     0
102
RTVSPropertyOp52
 70
     0
102
RTVSPropertyOp53
 70
     1
102
RTVSPropertyOp54
 70
     1
102
RTVSPropertyOp55
 70
     1
102
RTVSPropertyOp56
 70
     1
102
RTVSPropertyOp57
 70
     1
102
RTVSPropertyOp58
 70
     1
102
RTVSPropertyOp59
 70
     1
102
RTVSPropertyOp60
 70
     1
102
RTVSPropertyOp61
 70
     1
102
RTVSPropertyOp62
 70
     1
  0
XRECORD
  5
CF0
102
{ACAD_REACTORS
330
CEF
102
}
330
CEF
100
AcDbXrecord
280
     1
102
RTVSPost2010Prop28
280
     0
102
RTVSPost2010PropOp28
 70
     1
102
RTVSPost2010Prop29
280
     1
102
RTVSPost2010PropOp29
 70
     1
102
RTVSPost2010Prop30
280
     1
102
RTVSPost2010PropOp30
 70
     1
102
RTVSPost2010Prop31
280
     0
102
RTVSPost2010PropOp31
 70
     1
102
RTVSPost2010Prop32
280
     0
102
RTVSPost2010PropOp32
 70
     1
102
RTVSPost2010Prop33
280
     0
102
RTVSPost2010PropOp33
 70
     1
102
RTVSPost2010Prop34
280
     0
102
RTVSPost2010PropOp34
 70
     1
102
RTVSPost2010Prop35
280
     0
102
RTVSPost2010PropOp35
 70
     1
102
RTVSPost2010Prop36
280
     0
102
RTVSPost2010PropOp36
 70
     1
102
RTVSPost2010Prop37
 90
       50
102
RTVSPost2010PropOp37
 70
     1
102
RTVSPost2010Prop38
140
0.0
102
RTVSPost2010PropOp38
 70
     1
102
RTVSPost2010Prop39
140
1.0
102
RTVSPost2010PropOp39
 70
     1
102
RTVSPost2010Prop40
 90
        0
102
RTVSPost2010PropOp40
 70
     1
102
RTVSPost2010Prop41ColorIndex
 90
       18
102
RTVSPost2010Prop41ColorRGB
 90
-16777216
102
RTVSPost2010PropOp41
 70
     1
102
RTVSPost2010Prop42
 90
       50
102
RTVSPost2010PropOp42
 70
     1
102
RTVSPost2010Prop43
 90
        3
102
RTVSPost2010PropOp43
 70
     1
102
RTVSPost2010Prop44ColorIndex
 90
        5
102
RTVSPost2010Prop44ColorRGB
 90
      255
102
RTVSPost2010PropOp44
 70
     1
102
RTVSPost2010Prop45
280
     0
102
RTVSPost2010PropOp45
 70
     1
102
RTVSPost2010Prop46
 90
       50
102
RTVSPost2010PropOp46
 70
     1
102
RTVSPost2010Prop47
 90
       50
102
RTVSPost2010PropOp47
 70
     1
102
RTVSPost2010Prop48
 90
       50
102
RTVSPost2010PropOp48
 70
     1
102
RTVSPost2010Prop49
280
     0
102
RTVSPost2010PropOp49
 70
     1
102
RTVSPost2010Prop50
 90
       50
102
RTVSPost2010PropOp50
 70
     1
102
RTVSPost2010Prop51ColorIndex
 90
      256
102
RTVSPost2010Prop51ColorRGB
 90
-16777216
102
RTVSPost2010PropOp51
 70
     0
102
RTVSPost2010Prop52
140
1.0
102
RTVSPost2010PropOp52
 70
     0
102
RTVSPost2010Prop53
 90
        2
102
RTVSPost2010PropOp53
 70
     1
102
RTVSPost2010Prop54
  1
strokes_ogs.tif
102
RTVSPost2010PropOp54
 70
     1
102
RTVSPost2010Prop55
280
     0
102
RTVSPost2010PropOp55
 70
     1
102
RTVSPost2010Prop56
140
1.0
102
RTVSPost2010PropOp56
 70
     1
102
RTVSPost2010Prop57
140
1.0
102
RTVSPost2010PropOp57
 70
     1
102
RTVSPropertyOp0
 70
     1
102
RTVSPropertyOp1
 70
     1
102
RTVSPropertyOp2
 70
     1
102
RTVSPropertyOp3
 70
     1
102
RTVSPropertyOp4
 70
     1
102
RTVSPropertyOp5
 70
     1
102
RTVSPropertyOp6
 70
     1
102
RTVSPropertyOp7
 70
     1
102
RTVSPropertyOp8
 70
     1
102
RTVSPropertyOp9
 70
     1
102
RTVSPropertyOp10
 70
     1
102
RTVSPropertyOp11
 70
     1
102
RTVSPropertyOp12
 70
     1
102
RTVSPropertyOp13
 70
     1
102
RTVSPropertyOp14
 70
     1
102
RTVSPropertyOp15
 70
     1
102
RTVSPropertyOp16
 70
     1
102
RTVSPropertyOp17
 70
     1
102
RTVSPropertyOp18
 70
     1
102
RTVSPropertyOp19
 70
     1
102
RTVSPropertyOp20
 70
     1
102
RTVSPropertyOp21
 70
     1
102
RTVSPropertyOp22
 70
     1
102
RTVSPropertyOp23
 70
     1
102
RTVSPropertyOp24
 70
     1
102
RTVSPropertyOp25
 70
     1
102
RTVSPropertyOp26
 70
     1
102
RTVSPropertyOp27
 70
     1
102
RTVSPropertyOp28
 70
     1
102
RTVSPropertyOp29
 70
     1
102
RTVSPropertyOp30
 70
     1
102
RTVSPropertyOp31
 70
     1
102
RTVSPropertyOp32
 70
     1
102
RTVSPropertyOp33
 70
     1
102
RTVSPropertyOp34
 70
     1
102
RTVSPropertyOp35
 70
     1
102
RTVSPropertyOp36
 70
     1
102
RTVSPropertyOp37
 70
     1
102
RTVSPropertyOp38
 70
     1
102
RTVSPropertyOp39
 70
     1
102
RTVSPropertyOp40
 70
     1
102
RTVSPropertyOp41
 70
     1
102
RTVSPropertyOp42
 70
     1
102
RTVSPropertyOp43
 70
     1
102
RTVSPropertyOp44
 70
     1
102
RTVSPropertyOp45
 70
     1
102
RTVSPropertyOp46
 70
     1
102
RTVSPropertyOp47
 70
     1
102
RTVSPropertyOp48
 70
     1
102
RTVSPropertyOp49
 70
     1
102
RTVSPropertyOp50
 70
     1
102
RTVSPropertyOp51
 70
     0
102
RTVSPropertyOp52
 70
     0
102
RTVSPropertyOp53
 70
     1
102
RTVSPropertyOp54
 70
     1
102
RTVSPropertyOp55
 70
     1
102
RTVSPropertyOp56
 70
     1
102
RTVSPropertyOp57
 70
     1
102
RTVSPropertyOp58
 70
     1
102
RTVSPropertyOp59
 70
     1
102
RTVSPropertyOp60
 70
     1
102
RTVSPropertyOp61
 70
     1
102
RTVSPropertyOp62
 70
     1
  0
XRECORD
  5
CF2
102
{ACAD_REACTORS
330
CF1
102
}
330
CF1
100
AcDbXrecord
280
     1
102
RTVSPost2010Prop28
280
     0
102
RTVSPost2010PropOp28
 70
     1
102
RTVSPost2010Prop29
280
     1
102
RTVSPost2010PropOp29
 70
     1
102
RTVSPost2010Prop30
280
     1
102
RTVSPost2010PropOp30
 70
     1
102
RTVSPost2010Prop31
280
     0
102
RTVSPost2010PropOp31
 70
     1
102
RTVSPost2010Prop32
280
     0
102
RTVSPost2010PropOp32
 70
     1
102
RTVSPost2010Prop33
280
     0
102
RTVSPost2010PropOp33
 70
     1
102
RTVSPost2010Prop34
280
     0
102
RTVSPost2010PropOp34
 70
     1
102
RTVSPost2010Prop35
280
     0
102
RTVSPost2010PropOp35
 70
     1
102
RTVSPost2010Prop36
280
     0
102
RTVSPost2010PropOp36
 70
     1
102
RTVSPost2010Prop37
 90
       50
102
RTVSPost2010PropOp37
 70
     1
102
RTVSPost2010Prop38
140
0.0
102
RTVSPost2010PropOp38
 70
     1
102
RTVSPost2010Prop39
140
1.0
102
RTVSPost2010PropOp39
 70
     1
102
RTVSPost2010Prop40
 90
        0
102
RTVSPost2010PropOp40
 70
     1
102
RTVSPost2010Prop41ColorIndex
 90
       18
102
RTVSPost2010Prop41ColorRGB
 90
-16777216
102
RTVSPost2010PropOp41
 70
     1
102
RTVSPost2010Prop42
 90
       50
102
RTVSPost2010PropOp42
 70
     1
102
RTVSPost2010Prop43
 90
        3
102
RTVSPost2010PropOp43
 70
     1
102
RTVSPost2010Prop44ColorIndex
 90
        5
102
RTVSPost2010Prop44ColorRGB
 90
      255
102
RTVSPost2010PropOp44
 70
     1
102
RTVSPost2010Prop45
280
     0
102
RTVSPost2010PropOp45
 70
     1
102
RTVSPost2010Prop46
 90
       50
102
RTVSPost2010PropOp46
 70
     1
102
RTVSPost2010Prop47
 90
       50
102
RTVSPost2010PropOp47
 70
     1
102
RTVSPost2010Prop48
 90
       50
102
RTVSPost2010PropOp48
 70
     1
102
RTVSPost2010Prop49
280
     0
102
RTVSPost2010PropOp49
 70
     1
102
RTVSPost2010Prop50
 90
       50
102
RTVSPost2010PropOp50
 70
     1
102
RTVSPost2010Prop51ColorIndex
 90
      256
102
RTVSPost2010Prop51ColorRGB
 90
-16777216
102
RTVSPost2010PropOp51
 70
     0
102
RTVSPost2010Prop52
140
1.0
102
RTVSPost2010PropOp52
 70
     0
102
RTVSPost2010Prop53
 90
        2
102
RTVSPost2010PropOp53
 70
     1
102
RTVSPost2010Prop54
  1
strokes_ogs.tif
102
RTVSPost2010PropOp54
 70
     1
102
RTVSPost2010Prop55
280
     0
102
RTVSPost2010PropOp55
 70
     1
102
RTVSPost2010Prop56
140
1.0
102
RTVSPost2010PropOp56
 70
     1
102
RTVSPost2010Prop57
140
1.0
102
RTVSPost2010PropOp57
 70
     1
102
RTVSPropertyOp0
 70
     1
102
RTVSPropertyOp1
 70
     1
102
RTVSPropertyOp2
 70
     1
102
RTVSPropertyOp3
 70
     1
102
RTVSPropertyOp4
 70
     1
102
RTVSPropertyOp5
 70
     1
102
RTVSPropertyOp6
 70
     1
102
RTVSPropertyOp7
 70
     1
102
RTVSPropertyOp8
 70
     1
102
RTVSPropertyOp9
 70
     1
102
RTVSPropertyOp10
 70
     1
102
RTVSPropertyOp11
 70
     1
102
RTVSPropertyOp12
 70
     1
102
RTVSPropertyOp13
 70
     1
102
RTVSPropertyOp14
 70
     1
102
RTVSPropertyOp15
 70
     1
102
RTVSPropertyOp16
 70
     1
102
RTVSPropertyOp17
 70
     1
102
RTVSPropertyOp18
 70
     1
102
RTVSPropertyOp19
 70
     1
102
RTVSPropertyOp20
 70
     1
102
RTVSPropertyOp21
 70
     1
102
RTVSPropertyOp22
 70
     1
102
RTVSPropertyOp23
 70
     1
102
RTVSPropertyOp24
 70
     1
102
RTVSPropertyOp25
 70
     1
102
RTVSPropertyOp26
 70
     1
102
RTVSPropertyOp27
 70
     1
102
RTVSPropertyOp28
 70
     1
102
RTVSPropertyOp29
 70
     1
102
RTVSPropertyOp30
 70
     1
102
RTVSPropertyOp31
 70
     1
102
RTVSPropertyOp32
 70
     1
102
RTVSPropertyOp33
 70
     1
102
RTVSPropertyOp34
 70
     1
102
RTVSPropertyOp35
 70
     1
102
RTVSPropertyOp36
 70
     1
102
RTVSPropertyOp37
 70
     1
102
RTVSPropertyOp38
 70
     1
102
RTVSPropertyOp39
 70
     1
102
RTVSPropertyOp40
 70
     1
102
RTVSPropertyOp41
 70
     1
102
RTVSPropertyOp42
 70
     1
102
RTVSPropertyOp43
 70
     1
102
RTVSPropertyOp44
 70
     1
102
RTVSPropertyOp45
 70
     1
102
RTVSPropertyOp46
 70
     1
102
RTVSPropertyOp47
 70
     1
102
RTVSPropertyOp48
 70
     1
102
RTVSPropertyOp49
 70
     1
102
RTVSPropertyOp50
 70
     1
102
RTVSPropertyOp51
 70
     0
102
RTVSPropertyOp52
 70
     0
102
RTVSPropertyOp53
 70
     1
102
RTVSPropertyOp54
 70
     1
102
RTVSPropertyOp55
 70
     1
102
RTVSPropertyOp56
 70
     1
102
RTVSPropertyOp57
 70
     1
102
RTVSPropertyOp58
 70
     1
102
RTVSPropertyOp59
 70
     1
102
RTVSPropertyOp60
 70
     1
102
RTVSPropertyOp61
 70
     1
102
RTVSPropertyOp62
 70
     1
  0
XRECORD
  5
CF4
102
{ACAD_REACTORS
330
CF3
102
}
330
CF3
100
AcDbXrecord
280
     1
102
RTVSPost2010Prop28
280
     0
102
RTVSPost2010PropOp28
 70
     1
102
RTVSPost2010Prop29
280
     1
102
RTVSPost2010PropOp29
 70
     1
102
RTVSPost2010Prop30
280
     1
102
RTVSPost2010PropOp30
 70
     1
102
RTVSPost2010Prop31
280
     0
102
RTVSPost2010PropOp31
 70
     1
102
RTVSPost2010Prop32
280
     0
102
RTVSPost2010PropOp32
 70
     1
102
RTVSPost2010Prop33
280
     0
102
RTVSPost2010PropOp33
 70
     1
102
RTVSPost2010Prop34
280
     0
102
RTVSPost2010PropOp34
 70
     1
102
RTVSPost2010Prop35
280
     0
102
RTVSPost2010PropOp35
 70
     1
102
RTVSPost2010Prop36
280
     0
102
RTVSPost2010PropOp36
 70
     1
102
RTVSPost2010Prop37
 90
       50
102
RTVSPost2010PropOp37
 70
     1
102
RTVSPost2010Prop38
140
0.0
102
RTVSPost2010PropOp38
 70
     1
102
RTVSPost2010Prop39
140
1.0
102
RTVSPost2010PropOp39
 70
     1
102
RTVSPost2010Prop40
 90
        0
102
RTVSPost2010PropOp40
 70
     1
102
RTVSPost2010Prop41ColorIndex
 90
       18
102
RTVSPost2010Prop41ColorRGB
 90
-16777216
102
RTVSPost2010PropOp41
 70
     1
102
RTVSPost2010Prop42
 90
       50
102
RTVSPost2010PropOp42
 70
     1
102
RTVSPost2010Prop43
 90
        3
102
RTVSPost2010PropOp43
 70
     1
102
RTVSPost2010Prop44ColorIndex
 90
        5
102
RTVSPost2010Prop44ColorRGB
 90
      255
102
RTVSPost2010PropOp44
 70
     1
102
RTVSPost2010Prop45
280
     0
102
RTVSPost2010PropOp45
 70
     1
102
RTVSPost2010Prop46
 90
       50
102
RTVSPost2010PropOp46
 70
     1
102
RTVSPost2010Prop47
 90
       50
102
RTVSPost2010PropOp47
 70
     1
102
RTVSPost2010Prop48
 90
       50
102
RTVSPost2010PropOp48
 70
     1
102
RTVSPost2010Prop49
280
     0
102
RTVSPost2010PropOp49
 70
     1
102
RTVSPost2010Prop50
 90
       50
102
RTVSPost2010PropOp50
 70
     1
102
RTVSPost2010Prop51ColorIndex
 90
      256
102
RTVSPost2010Prop51ColorRGB
 90
-16777216
102
RTVSPost2010PropOp51
 70
     0
102
RTVSPost2010Prop52
140
1.0
102
RTVSPost2010PropOp52
 70
     0
102
RTVSPost2010Prop53
 90
        2
102
RTVSPost2010PropOp53
 70
     1
102
RTVSPost2010Prop54
  1
strokes_ogs.tif
102
RTVSPost2010PropOp54
 70
     1
102
RTVSPost2010Prop55
280
     0
102
RTVSPost2010PropOp55
 70
     1
102
RTVSPost2010Prop56
140
1.0
102
RTVSPost2010PropOp56
 70
     1
102
RTVSPost2010Prop57
140
1.0
102
RTVSPost2010PropOp57
 70
     1
102
RTVSPropertyOp0
 70
     1
102
RTVSPropertyOp1
 70
     1
102
RTVSPropertyOp2
 70
     1
102
RTVSPropertyOp3
 70
     1
102
RTVSPropertyOp4
 70
     1
102
RTVSPropertyOp5
 70
     1
102
RTVSPropertyOp6
 70
     1
102
RTVSPropertyOp7
 70
     1
102
RTVSPropertyOp8
 70
     1
102
RTVSPropertyOp9
 70
     1
102
RTVSPropertyOp10
 70
     1
102
RTVSPropertyOp11
 70
     1
102
RTVSPropertyOp12
 70
     1
102
RTVSPropertyOp13
 70
     1
102
RTVSPropertyOp14
 70
     1
102
RTVSPropertyOp15
 70
     1
102
RTVSPropertyOp16
 70
     1
102
RTVSPropertyOp17
 70
     1
102
RTVSPropertyOp18
 70
     1
102
RTVSPropertyOp19
 70
     1
102
RTVSPropertyOp20
 70
     1
102
RTVSPropertyOp21
 70
     1
102
RTVSPropertyOp22
 70
     1
102
RTVSPropertyOp23
 70
     1
102
RTVSPropertyOp24
 70
     1
102
RTVSPropertyOp25
 70
     1
102
RTVSPropertyOp26
 70
     1
102
RTVSPropertyOp27
 70
     1
102
RTVSPropertyOp28
 70
     1
102
RTVSPropertyOp29
 70
     1
102
RTVSPropertyOp30
 70
     1
102
RTVSPropertyOp31
 70
     1
102
RTVSPropertyOp32
 70
     1
102
RTVSPropertyOp33
 70
     1
102
RTVSPropertyOp34
 70
     1
102
RTVSPropertyOp35
 70
     1
102
RTVSPropertyOp36
 70
     1
102
RTVSPropertyOp37
 70
     1
102
RTVSPropertyOp38
 70
     1
102
RTVSPropertyOp39
 70
     1
102
RTVSPropertyOp40
 70
     1
102
RTVSPropertyOp41
 70
     1
102
RTVSPropertyOp42
 70
     1
102
RTVSPropertyOp43
 70
     1
102
RTVSPropertyOp44
 70
     1
102
RTVSPropertyOp45
 70
     1
102
RTVSPropertyOp46
 70
     1
102
RTVSPropertyOp47
 70
     1
102
RTVSPropertyOp48
 70
     1
102
RTVSPropertyOp49
 70
     1
102
RTVSPropertyOp50
 70
     1
102
RTVSPropertyOp51
 70
     0
102
RTVSPropertyOp52
 70
     0
102
RTVSPropertyOp53
 70
     1
102
RTVSPropertyOp54
 70
     1
102
RTVSPropertyOp55
 70
     1
102
RTVSPropertyOp56
 70
     1
102
RTVSPropertyOp57
 70
     1
102
RTVSPropertyOp58
 70
     1
102
RTVSPropertyOp59
 70
     1
102
RTVSPropertyOp60
 70
     1
102
RTVSPropertyOp61
 70
     1
102
RTVSPropertyOp62
 70
     1
  0
XRECORD
  5
CFC
102
{ACAD_REACTORS
330
CFB
102
}
330
CFB
100
AcDbXrecord
280
     1
102
RTVSPost2010Prop28
280
     0
102
RTVSPost2010PropOp28
 70
     1
102
RTVSPost2010Prop29
280
     1
102
RTVSPost2010PropOp29
 70
     1
102
RTVSPost2010Prop30
280
     1
102
RTVSPost2010PropOp30
 70
     1
102
RTVSPost2010Prop31
280
     0
102
RTVSPost2010PropOp31
 70
     1
102
RTVSPost2010Prop32
280
     0
102
RTVSPost2010PropOp32
 70
     1
102
RTVSPost2010Prop33
280
     0
102
RTVSPost2010PropOp33
 70
     1
102
RTVSPost2010Prop34
280
     0
102
RTVSPost2010PropOp34
 70
     1
102
RTVSPost2010Prop35
280
     0
102
RTVSPost2010PropOp35
 70
     1
102
RTVSPost2010Prop36
280
     0
102
RTVSPost2010PropOp36
 70
     1
102
RTVSPost2010Prop37
 90
       50
102
RTVSPost2010PropOp37
 70
     1
102
RTVSPost2010Prop38
140
0.0
102
RTVSPost2010PropOp38
 70
     1
102
RTVSPost2010Prop39
140
1.0
102
RTVSPost2010PropOp39
 70
     1
102
RTVSPost2010Prop40
 90
        0
102
RTVSPost2010PropOp40
 70
     1
102
RTVSPost2010Prop41ColorIndex
 90
       18
102
RTVSPost2010Prop41ColorRGB
 90
-16777216
102
RTVSPost2010PropOp41
 70
     1
102
RTVSPost2010Prop42
 90
       50
102
RTVSPost2010PropOp42
 70
     1
102
RTVSPost2010Prop43
 90
        3
102
RTVSPost2010PropOp43
 70
     1
102
RTVSPost2010Prop44ColorIndex
 90
        5
102
RTVSPost2010Prop44ColorRGB
 90
      255
102
RTVSPost2010PropOp44
 70
     1
102
RTVSPost2010Prop45
280
     0
102
RTVSPost2010PropOp45
 70
     1
102
RTVSPost2010Prop46
 90
       50
102
RTVSPost2010PropOp46
 70
     1
102
RTVSPost2010Prop47
 90
       50
102
RTVSPost2010PropOp47
 70
     1
102
RTVSPost2010Prop48
 90
       50
102
RTVSPost2010PropOp48
 70
     1
102
RTVSPost2010Prop49
280
     0
102
RTVSPost2010PropOp49
 70
     1
102
RTVSPost2010Prop50
 90
       50
102
RTVSPost2010PropOp50
 70
     1
102
RTVSPost2010Prop51ColorIndex
 90
      256
102
RTVSPost2010Prop51ColorRGB
 90
-16777216
102
RTVSPost2010PropOp51
 70
     0
102
RTVSPost2010Prop52
140
1.0
102
RTVSPost2010PropOp52
 70
     0
102
RTVSPost2010Prop53
 90
        2
102
RTVSPost2010PropOp53
 70
     1
102
RTVSPost2010Prop54
  1
strokes_ogs.tif
102
RTVSPost2010PropOp54
 70
     1
102
RTVSPost2010Prop55
280
     0
102
RTVSPost2010PropOp55
 70
     1
102
RTVSPost2010Prop56
140
1.0
102
RTVSPost2010PropOp56
 70
     1
102
RTVSPost2010Prop57
140
1.0
102
RTVSPost2010PropOp57
 70
     1
102
RTVSPropertyOp0
 70
     1
102
RTVSPropertyOp1
 70
     1
102
RTVSPropertyOp2
 70
     1
102
RTVSPropertyOp3
 70
     1
102
RTVSPropertyOp4
 70
     1
102
RTVSPropertyOp5
 70
     1
102
RTVSPropertyOp6
 70
     1
102
RTVSPropertyOp7
 70
     1
102
RTVSPropertyOp8
 70
     1
102
RTVSPropertyOp9
 70
     1
102
RTVSPropertyOp10
 70
     1
102
RTVSPropertyOp11
 70
     1
102
RTVSPropertyOp12
 70
     1
102
RTVSPropertyOp13
 70
     1
102
RTVSPropertyOp14
 70
     1
102
RTVSPropertyOp15
 70
     1
102
RTVSPropertyOp16
 70
     1
102
RTVSPropertyOp17
 70
     1
102
RTVSPropertyOp18
 70
     1
102
RTVSPropertyOp19
 70
     1
102
RTVSPropertyOp20
 70
     1
102
RTVSPropertyOp21
 70
     1
102
RTVSPropertyOp22
 70
     1
102
RTVSPropertyOp23
 70
     1
102
RTVSPropertyOp24
 70
     1
102
RTVSPropertyOp25
 70
     1
102
RTVSPropertyOp26
 70
     1
102
RTVSPropertyOp27
 70
     1
102
RTVSPropertyOp28
 70
     1
102
RTVSPropertyOp29
 70
     1
102
RTVSPropertyOp30
 70
     1
102
RTVSPropertyOp31
 70
     1
102
RTVSPropertyOp32
 70
     1
102
RTVSPropertyOp33
 70
     1
102
RTVSPropertyOp34
 70
     1
102
RTVSPropertyOp35
 70
     1
102
RTVSPropertyOp36
 70
     1
102
RTVSPropertyOp37
 70
     1
102
RTVSPropertyOp38
 70
     1
102
RTVSPropertyOp39
 70
     1
102
RTVSPropertyOp40
 70
     1
102
RTVSPropertyOp41
 70
     1
102
RTVSPropertyOp42
 70
     1
102
RTVSPropertyOp43
 70
     1
102
RTVSPropertyOp44
 70
     1
102
RTVSPropertyOp45
 70
     1
102
RTVSPropertyOp46
 70
     1
102
RTVSPropertyOp47
 70
     1
102
RTVSPropertyOp48
 70
     1
102
RTVSPropertyOp49
 70
     1
102
RTVSPropertyOp50
 70
     1
102
RTVSPropertyOp51
 70
     0
102
RTVSPropertyOp52
 70
     0
102
RTVSPropertyOp53
 70
     1
102
RTVSPropertyOp54
 70
     1
102
RTVSPropertyOp55
 70
     1
102
RTVSPropertyOp56
 70
     1
102
RTVSPropertyOp57
 70
     1
102
RTVSPropertyOp58
 70
     1
102
RTVSPropertyOp59
 70
     1
102
RTVSPropertyOp60
 70
     1
102
RTVSPropertyOp61
 70
     1
102
RTVSPropertyOp62
 70
     1
  0
XRECORD
  5
D18
102
{ACAD_REACTORS
330
D17
102
}
330
D17
100
AcDbXrecord
280
     1
102
RTVSPost2010Prop28
280
     0
102
RTVSPost2010PropOp28
 70
     0
102
RTVSPost2010Prop29
280
     1
102
RTVSPost2010PropOp29
 70
     0
102
RTVSPost2010Prop30
280
     1
102
RTVSPost2010PropOp30
 70
     0
102
RTVSPost2010Prop31
280
     0
102
RTVSPost2010PropOp31
 70
     0
102
RTVSPost2010Prop32
280
     0
102
RTVSPost2010PropOp32
 70
     0
102
RTVSPost2010Prop33
280
     0
102
RTVSPost2010PropOp33
 70
     0
102
RTVSPost2010Prop34
280
     0
102
RTVSPost2010PropOp34
 70
     0
102
RTVSPost2010Prop35
280
     0
102
RTVSPost2010PropOp35
 70
     0
102
RTVSPost2010Prop36
280
     0
102
RTVSPost2010PropOp36
 70
     0
102
RTVSPost2010Prop37
 90
       50
102
RTVSPost2010PropOp37
 70
     0
102
RTVSPost2010Prop38
140
0.0
102
RTVSPost2010PropOp38
 70
     0
102
RTVSPost2010Prop39
140
1.0
102
RTVSPost2010PropOp39
 70
     0
102
RTVSPost2010Prop40
 90
        0
102
RTVSPost2010PropOp40
 70
     0
102
RTVSPost2010Prop41ColorIndex
 90
       18
102
RTVSPost2010Prop41ColorRGB
 90
-16777216
102
RTVSPost2010PropOp41
 70
     0
102
RTVSPost2010Prop42
 90
       50
102
RTVSPost2010PropOp42
 70
     0
102
RTVSPost2010Prop43
 90
        3
102
RTVSPost2010PropOp43
 70
     0
102
RTVSPost2010Prop44ColorIndex
 90
        5
102
RTVSPost2010Prop44ColorRGB
 90
      255
102
RTVSPost2010PropOp44
 70
     0
102
RTVSPost2010Prop45
280
     0
102
RTVSPost2010PropOp45
 70
     0
102
RTVSPost2010Prop46
 90
       50
102
RTVSPost2010PropOp46
 70
     0
102
RTVSPost2010Prop47
 90
       50
102
RTVSPost2010PropOp47
 70
     0
102
RTVSPost2010Prop48
 90
       50
102
RTVSPost2010PropOp48
 70
     0
102
RTVSPost2010Prop49
280
     0
102
RTVSPost2010PropOp49
 70
     0
102
RTVSPost2010Prop50
 90
       50
102
RTVSPost2010PropOp50
 70
     0
102
RTVSPost2010Prop51ColorIndex
 90
      256
102
RTVSPost2010Prop51ColorRGB
 90
-16777216
102
RTVSPost2010PropOp51
 70
     0
102
RTVSPost2010Prop52
140
1.0
102
RTVSPost2010PropOp52
 70
     0
102
RTVSPost2010Prop53
 90
        2
102
RTVSPost2010PropOp53
 70
     0
102
RTVSPost2010Prop54
  1
strokes_ogs.tif
102
RTVSPost2010PropOp54
 70
     0
102
RTVSPost2010Prop55
280
     0
102
RTVSPost2010PropOp55
 70
     0
102
RTVSPost2010Prop56
140
1.0
102
RTVSPost2010PropOp56
 70
     0
102
RTVSPost2010Prop57
140
1.0
102
RTVSPost2010PropOp57
 70
     0
102
RTVSPropertyOp0
 70
     0
102
RTVSPropertyOp1
 70
     0
102
RTVSPropertyOp2
 70
     0
102
RTVSPropertyOp3
 70
     0
102
RTVSPropertyOp4
 70
     0
102
RTVSPropertyOp5
 70
     0
102
RTVSPropertyOp6
 70
     0
102
RTVSPropertyOp7
 70
     0
102
RTVSPropertyOp8
 70
     0
102
RTVSPropertyOp9
 70
     0
102
RTVSPropertyOp10
 70
     0
102
RTVSPropertyOp11
 70
     0
102
RTVSPropertyOp12
 70
     0
102
RTVSPropertyOp13
 70
     0
102
RTVSPropertyOp14
 70
     2
102
RTVSPropertyOp15
 70
     0
102
RTVSPropertyOp16
 70
     0
102
RTVSPropertyOp17
 70
     0
102
RTVSPropertyOp18
 70
     0
102
RTVSPropertyOp19
 70
     0
102
RTVSPropertyOp20
 70
     0
102
RTVSPropertyOp21
 70
     0
102
RTVSPropertyOp22
 70
     0
102
RTVSPropertyOp23
 70
     0
102
RTVSPropertyOp24
 70
     0
102
RTVSPropertyOp25
 70
     0
102
RTVSPropertyOp26
 70
     0
102
RTVSPropertyOp27
 70
     0
102
RTVSPropertyOp28
 70
     0
102
RTVSPropertyOp29
 70
     0
102
RTVSPropertyOp30
 70
     0
102
RTVSPropertyOp31
 70
     0
102
RTVSPropertyOp32
 70
     0
102
RTVSPropertyOp33
 70
     0
102
RTVSPropertyOp34
 70
     0
102
RTVSPropertyOp35
 70
     0
102
RTVSPropertyOp36
 70
     0
102
RTVSPropertyOp37
 70
     0
102
RTVSPropertyOp38
 70
     0
102
RTVSPropertyOp39
 70
     0
102
RTVSPropertyOp40
 70
     0
102
RTVSPropertyOp41
 70
     0
102
RTVSPropertyOp42
 70
     0
102
RTVSPropertyOp43
 70
     0
102
RTVSPropertyOp44
 70
     0
102
RTVSPropertyOp45
 70
     0
102
RTVSPropertyOp46
 70
     0
102
RTVSPropertyOp47
 70
     0
102
RTVSPropertyOp48
 70
     0
102
RTVSPropertyOp49
 70
     0
102
RTVSPropertyOp50
 70
     0
102
RTVSPropertyOp51
 70
     0
102
RTVSPropertyOp52
 70
     0
102
RTVSPropertyOp53
 70
     0
102
RTVSPropertyOp54
 70
     0
102
RTVSPropertyOp55
 70
     0
102
RTVSPropertyOp56
 70
     0
102
RTVSPropertyOp57
 70
     0
102
RTVSPropertyOp58
 70
     1
102
RTVSPropertyOp59
 70
     1
102
RTVSPropertyOp60
 70
     1
102
RTVSPropertyOp61
 70
     1
102
RTVSPropertyOp62
 70
     1
  0
XRECORD
  5
D08
102
{ACAD_REACTORS
330
D07
102
}
330
D07
100
AcDbXrecord
280
     1
102
RTVSPost2010Prop28
280
     0
102
RTVSPost2010PropOp28
 70
     1
102
RTVSPost2010Prop29
280
     1
102
RTVSPost2010PropOp29
 70
     1
102
RTVSPost2010Prop30
280
     1
102
RTVSPost2010PropOp30
 70
     1
102
RTVSPost2010Prop31
280
     0
102
RTVSPost2010PropOp31
 70
     1
102
RTVSPost2010Prop32
280
     0
102
RTVSPost2010PropOp32
 70
     1
102
RTVSPost2010Prop33
280
     0
102
RTVSPost2010PropOp33
 70
     1
102
RTVSPost2010Prop34
280
     0
102
RTVSPost2010PropOp34
 70
     1
102
RTVSPost2010Prop35
280
     0
102
RTVSPost2010PropOp35
 70
     1
102
RTVSPost2010Prop36
280
     0
102
RTVSPost2010PropOp36
 70
     1
102
RTVSPost2010Prop37
 90
       50
102
RTVSPost2010PropOp37
 70
     1
102
RTVSPost2010Prop38
140
0.0
102
RTVSPost2010PropOp38
 70
     1
102
RTVSPost2010Prop39
140
1.0
102
RTVSPost2010PropOp39
 70
     1
102
RTVSPost2010Prop40
 90
        0
102
RTVSPost2010PropOp40
 70
     1
102
RTVSPost2010Prop41ColorIndex
 90
       18
102
RTVSPost2010Prop41ColorRGB
 90
-16777216
102
RTVSPost2010PropOp41
 70
     1
102
RTVSPost2010Prop42
 90
       50
102
RTVSPost2010PropOp42
 70
     1
102
RTVSPost2010Prop43
 90
        3
102
RTVSPost2010PropOp43
 70
     1
102
RTVSPost2010Prop44ColorIndex
 90
        5
102
RTVSPost2010Prop44ColorRGB
 90
      255
102
RTVSPost2010PropOp44
 70
     1
102
RTVSPost2010Prop45
280
     0
102
RTVSPost2010PropOp45
 70
     1
102
RTVSPost2010Prop46
 90
       50
102
RTVSPost2010PropOp46
 70
     1
102
RTVSPost2010Prop47
 90
       50
102
RTVSPost2010PropOp47
 70
     1
102
RTVSPost2010Prop48
 90
       50
102
RTVSPost2010PropOp48
 70
     1
102
RTVSPost2010Prop49
280
     0
102
RTVSPost2010PropOp49
 70
     1
102
RTVSPost2010Prop50
 90
       50
102
RTVSPost2010PropOp50
 70
     1
102
RTVSPost2010Prop51ColorIndex
 90
      256
102
RTVSPost2010Prop51ColorRGB
 90
-16777216
102
RTVSPost2010PropOp51
 70
     0
102
RTVSPost2010Prop52
140
1.0
102
RTVSPost2010PropOp52
 70
     0
102
RTVSPost2010Prop53
 90
        2
102
RTVSPost2010PropOp53
 70
     1
102
RTVSPost2010Prop54
  1
strokes_ogs.tif
102
RTVSPost2010PropOp54
 70
     1
102
RTVSPost2010Prop55
280
     0
102
RTVSPost2010PropOp55
 70
     1
102
RTVSPost2010Prop56
140
1.0
102
RTVSPost2010PropOp56
 70
     1
102
RTVSPost2010Prop57
140
1.0
102
RTVSPost2010PropOp57
 70
     1
102
RTVSPropertyOp0
 70
     1
102
RTVSPropertyOp1
 70
     1
102
RTVSPropertyOp2
 70
     1
102
RTVSPropertyOp3
 70
     1
102
RTVSPropertyOp4
 70
     1
102
RTVSPropertyOp5
 70
     1
102
RTVSPropertyOp6
 70
     1
102
RTVSPropertyOp7
 70
     1
102
RTVSPropertyOp8
 70
     1
102
RTVSPropertyOp9
 70
     1
102
RTVSPropertyOp10
 70
     1
102
RTVSPropertyOp11
 70
     1
102
RTVSPropertyOp12
 70
     1
102
RTVSPropertyOp13
 70
     1
102
RTVSPropertyOp14
 70
     1
102
RTVSPropertyOp15
 70
     1
102
RTVSPropertyOp16
 70
     1
102
RTVSPropertyOp17
 70
     1
102
RTVSPropertyOp18
 70
     1
102
RTVSPropertyOp19
 70
     1
102
RTVSPropertyOp20
 70
     1
102
RTVSPropertyOp21
 70
     1
102
RTVSPropertyOp22
 70
     1
102
RTVSPropertyOp23
 70
     1
102
RTVSPropertyOp24
 70
     1
102
RTVSPropertyOp25
 70
     1
102
RTVSPropertyOp26
 70
     1
102
RTVSPropertyOp27
 70
     1
102
RTVSPropertyOp28
 70
     1
102
RTVSPropertyOp29
 70
     1
102
RTVSPropertyOp30
 70
     1
102
RTVSPropertyOp31
 70
     1
102
RTVSPropertyOp32
 70
     1
102
RTVSPropertyOp33
 70
     1
102
RTVSPropertyOp34
 70
     1
102
RTVSPropertyOp35
 70
     1
102
RTVSPropertyOp36
 70
     1
102
RTVSPropertyOp37
 70
     1
102
RTVSPropertyOp38
 70
     1
102
RTVSPropertyOp39
 70
     1
102
RTVSPropertyOp40
 70
     1
102
RTVSPropertyOp41
 70
     1
102
RTVSPropertyOp42
 70
     1
102
RTVSPropertyOp43
 70
     1
102
RTVSPropertyOp44
 70
     1
102
RTVSPropertyOp45
 70
     1
102
RTVSPropertyOp46
 70
     1
102
RTVSPropertyOp47
 70
     1
102
RTVSPropertyOp48
 70
     1
102
RTVSPropertyOp49
 70
     1
102
RTVSPropertyOp50
 70
     1
102
RTVSPropertyOp51
 70
     0
102
RTVSPropertyOp52
 70
     0
102
RTVSPropertyOp53
 70
     1
102
RTVSPropertyOp54
 70
     1
102
RTVSPropertyOp55
 70
     1
102
RTVSPropertyOp56
 70
     1
102
RTVSPropertyOp57
 70
     1
102
RTVSPropertyOp58
 70
     1
102
RTVSPropertyOp59
 70
     1
102
RTVSPropertyOp60
 70
     1
102
RTVSPropertyOp61
 70
     1
102
RTVSPropertyOp62
 70
     1
  0
XRECORD
  5
D1A
102
{ACAD_REACTORS
330
D19
102
}
330
D19
100
AcDbXrecord
280
     1
102
RTVSPost2010Prop28
280
     0
102
RTVSPost2010PropOp28
 70
     0
102
RTVSPost2010Prop29
280
     1
102
RTVSPost2010PropOp29
 70
     0
102
RTVSPost2010Prop30
280
     1
102
RTVSPost2010PropOp30
 70
     0
102
RTVSPost2010Prop31
280
     0
102
RTVSPost2010PropOp31
 70
     0
102
RTVSPost2010Prop32
280
     0
102
RTVSPost2010PropOp32
 70
     0
102
RTVSPost2010Prop33
280
     0
102
RTVSPost2010PropOp33
 70
     0
102
RTVSPost2010Prop34
280
     0
102
RTVSPost2010PropOp34
 70
     0
102
RTVSPost2010Prop35
280
     0
102
RTVSPost2010PropOp35
 70
     0
102
RTVSPost2010Prop36
280
     0
102
RTVSPost2010PropOp36
 70
     0
102
RTVSPost2010Prop37
 90
       50
102
RTVSPost2010PropOp37
 70
     0
102
RTVSPost2010Prop38
140
0.0
102
RTVSPost2010PropOp38
 70
     0
102
RTVSPost2010Prop39
140
1.0
102
RTVSPost2010PropOp39
 70
     0
102
RTVSPost2010Prop40
 90
        0
102
RTVSPost2010PropOp40
 70
     0
102
RTVSPost2010Prop41ColorIndex
 90
       18
102
RTVSPost2010Prop41ColorRGB
 90
-16777216
102
RTVSPost2010PropOp41
 70
     0
102
RTVSPost2010Prop42
 90
       50
102
RTVSPost2010PropOp42
 70
     0
102
RTVSPost2010Prop43
 90
        3
102
RTVSPost2010PropOp43
 70
     0
102
RTVSPost2010Prop44ColorIndex
 90
        5
102
RTVSPost2010Prop44ColorRGB
 90
      255
102
RTVSPost2010PropOp44
 70
     0
102
RTVSPost2010Prop45
280
     0
102
RTVSPost2010PropOp45
 70
     0
102
RTVSPost2010Prop46
 90
       50
102
RTVSPost2010PropOp46
 70
     0
102
RTVSPost2010Prop47
 90
       50
102
RTVSPost2010PropOp47
 70
     0
102
RTVSPost2010Prop48
 90
       50
102
RTVSPost2010PropOp48
 70
     0
102
RTVSPost2010Prop49
280
     0
102
RTVSPost2010PropOp49
 70
     0
102
RTVSPost2010Prop50
 90
       50
102
RTVSPost2010PropOp50
 70
     0
102
RTVSPost2010Prop51ColorIndex
 90
      256
102
RTVSPost2010Prop51ColorRGB
 90
-16777216
102
RTVSPost2010PropOp51
 70
     0
102
RTVSPost2010Prop52
140
1.0
102
RTVSPost2010PropOp52
 70
     0
102
RTVSPost2010Prop53
 90
        2
102
RTVSPost2010PropOp53
 70
     0
102
RTVSPost2010Prop54
  1
strokes_ogs.tif
102
RTVSPost2010PropOp54
 70
     0
102
RTVSPost2010Prop55
280
     0
102
RTVSPost2010PropOp55
 70
     0
102
RTVSPost2010Prop56
140
1.0
102
RTVSPost2010PropOp56
 70
     0
102
RTVSPost2010Prop57
140
1.0
102
RTVSPost2010PropOp57
 70
     0
102
RTVSPropertyOp0
 70
     0
102
RTVSPropertyOp1
 70
     0
102
RTVSPropertyOp2
 70
     0
102
RTVSPropertyOp3
 70
     0
102
RTVSPropertyOp4
 70
     0
102
RTVSPropertyOp5
 70
     0
102
RTVSPropertyOp6
 70
     0
102
RTVSPropertyOp7
 70
     0
102
RTVSPropertyOp8
 70
     0
102
RTVSPropertyOp9
 70
     0
102
RTVSPropertyOp10
 70
     0
102
RTVSPropertyOp11
 70
     0
102
RTVSPropertyOp12
 70
     0
102
RTVSPropertyOp13
 70
     0
102
RTVSPropertyOp14
 70
     2
102
RTVSPropertyOp15
 70
     0
102
RTVSPropertyOp16
 70
     0
102
RTVSPropertyOp17
 70
     0
102
RTVSPropertyOp18
 70
     0
102
RTVSPropertyOp19
 70
     0
102
RTVSPropertyOp20
 70
     0
102
RTVSPropertyOp21
 70
     0
102
RTVSPropertyOp22
 70
     0
102
RTVSPropertyOp23
 70
     0
102
RTVSPropertyOp24
 70
     0
102
RTVSPropertyOp25
 70
     0
102
RTVSPropertyOp26
 70
     0
102
RTVSPropertyOp27
 70
     0
102
RTVSPropertyOp28
 70
     0
102
RTVSPropertyOp29
 70
     0
102
RTVSPropertyOp30
 70
     0
102
RTVSPropertyOp31
 70
     0
102
RTVSPropertyOp32
 70
     0
102
RTVSPropertyOp33
 70
     0
102
RTVSPropertyOp34
 70
     0
102
RTVSPropertyOp35
 70
     0
102
RTVSPropertyOp36
 70
     0
102
RTVSPropertyOp37
 70
     0
102
RTVSPropertyOp38
 70
     0
102
RTVSPropertyOp39
 70
     0
102
RTVSPropertyOp40
 70
     0
102
RTVSPropertyOp41
 70
     0
102
RTVSPropertyOp42
 70
     0
102
RTVSPropertyOp43
 70
     0
102
RTVSPropertyOp44
 70
     0
102
RTVSPropertyOp45
 70
     0
102
RTVSPropertyOp46
 70
     0
102
RTVSPropertyOp47
 70
     0
102
RTVSPropertyOp48
 70
     0
102
RTVSPropertyOp49
 70
     0
102
RTVSPropertyOp50
 70
     0
102
RTVSPropertyOp51
 70
     0
102
RTVSPropertyOp52
 70
     0
102
RTVSPropertyOp53
 70
     0
102
RTVSPropertyOp54
 70
     0
102
RTVSPropertyOp55
 70
     0
102
RTVSPropertyOp56
 70
     0
102
RTVSPropertyOp57
 70
     0
102
RTVSPropertyOp58
 70
     1
102
RTVSPropertyOp59
 70
     1
102
RTVSPropertyOp60
 70
     1
102
RTVSPropertyOp61
 70
     1
102
RTVSPropertyOp62
 70
     1
  0
XRECORD
  5
D00
102
{ACAD_REACTORS
330
CFF
102
}
330
CFF
100
AcDbXrecord
280
     1
102
RTVSPost2010Prop28
280
     0
102
RTVSPost2010PropOp28
 70
     1
102
RTVSPost2010Prop29
280
     1
102
RTVSPost2010PropOp29
 70
     1
102
RTVSPost2010Prop30
280
     1
102
RTVSPost2010PropOp30
 70
     1
102
RTVSPost2010Prop31
280
     0
102
RTVSPost2010PropOp31
 70
     1
102
RTVSPost2010Prop32
280
     0
102
RTVSPost2010PropOp32
 70
     1
102
RTVSPost2010Prop33
280
     0
102
RTVSPost2010PropOp33
 70
     1
102
RTVSPost2010Prop34
280
     0
102
RTVSPost2010PropOp34
 70
     1
102
RTVSPost2010Prop35
280
     0
102
RTVSPost2010PropOp35
 70
     1
102
RTVSPost2010Prop36
280
     0
102
RTVSPost2010PropOp36
 70
     1
102
RTVSPost2010Prop37
 90
       50
102
RTVSPost2010PropOp37
 70
     1
102
RTVSPost2010Prop38
140
0.0
102
RTVSPost2010PropOp38
 70
     1
102
RTVSPost2010Prop39
140
1.0
102
RTVSPost2010PropOp39
 70
     1
102
RTVSPost2010Prop40
 90
        0
102
RTVSPost2010PropOp40
 70
     1
102
RTVSPost2010Prop41ColorIndex
 90
       18
102
RTVSPost2010Prop41ColorRGB
 90
-16777216
102
RTVSPost2010PropOp41
 70
     1
102
RTVSPost2010Prop42
 90
       50
102
RTVSPost2010PropOp42
 70
     1
102
RTVSPost2010Prop43
 90
        3
102
RTVSPost2010PropOp43
 70
     1
102
RTVSPost2010Prop44ColorIndex
 90
        5
102
RTVSPost2010Prop44ColorRGB
 90
      255
102
RTVSPost2010PropOp44
 70
     1
102
RTVSPost2010Prop45
280
     0
102
RTVSPost2010PropOp45
 70
     1
102
RTVSPost2010Prop46
 90
       50
102
RTVSPost2010PropOp46
 70
     1
102
RTVSPost2010Prop47
 90
       50
102
RTVSPost2010PropOp47
 70
     1
102
RTVSPost2010Prop48
 90
       50
102
RTVSPost2010PropOp48
 70
     1
102
RTVSPost2010Prop49
280
     0
102
RTVSPost2010PropOp49
 70
     1
102
RTVSPost2010Prop50
 90
       50
102
RTVSPost2010PropOp50
 70
     1
102
RTVSPost2010Prop51ColorIndex
 90
      256
102
RTVSPost2010Prop51ColorRGB
 90
-16777216
102
RTVSPost2010PropOp51
 70
     0
102
RTVSPost2010Prop52
140
1.0
102
RTVSPost2010PropOp52
 70
     0
102
RTVSPost2010Prop53
 90
        2
102
RTVSPost2010PropOp53
 70
     1
102
RTVSPost2010Prop54
  1
strokes_ogs.tif
102
RTVSPost2010PropOp54
 70
     1
102
RTVSPost2010Prop55
280
     0
102
RTVSPost2010PropOp55
 70
     1
102
RTVSPost2010Prop56
140
1.0
102
RTVSPost2010PropOp56
 70
     1
102
RTVSPost2010Prop57
140
1.0
102
RTVSPost2010PropOp57
 70
     1
102
RTVSPropertyOp0
 70
     1
102
RTVSPropertyOp1
 70
     1
102
RTVSPropertyOp2
 70
     1
102
RTVSPropertyOp3
 70
     1
102
RTVSPropertyOp4
 70
     1
102
RTVSPropertyOp5
 70
     1
102
RTVSPropertyOp6
 70
     1
102
RTVSPropertyOp7
 70
     1
102
RTVSPropertyOp8
 70
     1
102
RTVSPropertyOp9
 70
     1
102
RTVSPropertyOp10
 70
     1
102
RTVSPropertyOp11
 70
     1
102
RTVSPropertyOp12
 70
     1
102
RTVSPropertyOp13
 70
     1
102
RTVSPropertyOp14
 70
     1
102
RTVSPropertyOp15
 70
     1
102
RTVSPropertyOp16
 70
     1
102
RTVSPropertyOp17
 70
     1
102
RTVSPropertyOp18
 70
     1
102
RTVSPropertyOp19
 70
     1
102
RTVSPropertyOp20
 70
     1
102
RTVSPropertyOp21
 70
     1
102
RTVSPropertyOp22
 70
     1
102
RTVSPropertyOp23
 70
     1
102
RTVSPropertyOp24
 70
     1
102
RTVSPropertyOp25
 70
     1
102
RTVSPropertyOp26
 70
     1
102
RTVSPropertyOp27
 70
     1
102
RTVSPropertyOp28
 70
     1
102
RTVSPropertyOp29
 70
     1
102
RTVSPropertyOp30
 70
     1
102
RTVSPropertyOp31
 70
     1
102
RTVSPropertyOp32
 70
     1
102
RTVSPropertyOp33
 70
     1
102
RTVSPropertyOp34
 70
     1
102
RTVSPropertyOp35
 70
     1
102
RTVSPropertyOp36
 70
     1
102
RTVSPropertyOp37
 70
     1
102
RTVSPropertyOp38
 70
     1
102
RTVSPropertyOp39
 70
     1
102
RTVSPropertyOp40
 70
     1
102
RTVSPropertyOp41
 70
     1
102
RTVSPropertyOp42
 70
     1
102
RTVSPropertyOp43
 70
     1
102
RTVSPropertyOp44
 70
     1
102
RTVSPropertyOp45
 70
     1
102
RTVSPropertyOp46
 70
     1
102
RTVSPropertyOp47
 70
     1
102
RTVSPropertyOp48
 70
     1
102
RTVSPropertyOp49
 70
     1
102
RTVSPropertyOp50
 70
     1
102
RTVSPropertyOp51
 70
     0
102
RTVSPropertyOp52
 70
     0
102
RTVSPropertyOp53
 70
     1
102
RTVSPropertyOp54
 70
     1
102
RTVSPropertyOp55
 70
     1
102
RTVSPropertyOp56
 70
     1
102
RTVSPropertyOp57
 70
     1
102
RTVSPropertyOp58
 70
     1
102
RTVSPropertyOp59
 70
     1
102
RTVSPropertyOp60
 70
     1
102
RTVSPropertyOp61
 70
     1
102
RTVSPropertyOp62
 70
     1
  0
XRECORD
  5
D16
102
{ACAD_REACTORS
330
D15
102
}
330
D15
100
AcDbXrecord
280
     1
102
RTVSPost2010Prop28
280
     0
102
RTVSPost2010PropOp28
 70
     1
102
RTVSPost2010Prop29
280
     1
102
RTVSPost2010PropOp29
 70
     1
102
RTVSPost2010Prop30
280
     1
102
RTVSPost2010PropOp30
 70
     1
102
RTVSPost2010Prop31
280
     0
102
RTVSPost2010PropOp31
 70
     1
102
RTVSPost2010Prop32
280
     0
102
RTVSPost2010PropOp32
 70
     1
102
RTVSPost2010Prop33
280
     0
102
RTVSPost2010PropOp33
 70
     1
102
RTVSPost2010Prop34
280
     0
102
RTVSPost2010PropOp34
 70
     1
102
RTVSPost2010Prop35
280
     0
102
RTVSPost2010PropOp35
 70
     1
102
RTVSPost2010Prop36
280
     0
102
RTVSPost2010PropOp36
 70
     1
102
RTVSPost2010Prop37
 90
       50
102
RTVSPost2010PropOp37
 70
     1
102
RTVSPost2010Prop38
140
0.0
102
RTVSPost2010PropOp38
 70
     1
102
RTVSPost2010Prop39
140
1.0
102
RTVSPost2010PropOp39
 70
     1
102
RTVSPost2010Prop40
 90
        0
102
RTVSPost2010PropOp40
 70
     1
102
RTVSPost2010Prop41ColorIndex
 90
       18
102
RTVSPost2010Prop41ColorRGB
 90
-16777216
102
RTVSPost2010PropOp41
 70
     1
102
RTVSPost2010Prop42
 90
       50
102
RTVSPost2010PropOp42
 70
     1
102
RTVSPost2010Prop43
 90
        3
102
RTVSPost2010PropOp43
 70
     1
102
RTVSPost2010Prop44ColorIndex
 90
        5
102
RTVSPost2010Prop44ColorRGB
 90
      255
102
RTVSPost2010PropOp44
 70
     1
102
RTVSPost2010Prop45
280
     0
102
RTVSPost2010PropOp45
 70
     1
102
RTVSPost2010Prop46
 90
       50
102
RTVSPost2010PropOp46
 70
     1
102
RTVSPost2010Prop47
 90
       50
102
RTVSPost2010PropOp47
 70
     1
102
RTVSPost2010Prop48
 90
       50
102
RTVSPost2010PropOp48
 70
     1
102
RTVSPost2010Prop49
280
     0
102
RTVSPost2010PropOp49
 70
     1
102
RTVSPost2010Prop50
 90
       50
102
RTVSPost2010PropOp50
 70
     1
102
RTVSPost2010Prop51ColorIndex
 90
      256
102
RTVSPost2010Prop51ColorRGB
 90
-16777216
102
RTVSPost2010PropOp51
 70
     0
102
RTVSPost2010Prop52
140
1.0
102
RTVSPost2010PropOp52
 70
     0
102
RTVSPost2010Prop53
 90
        2
102
RTVSPost2010PropOp53
 70
     1
102
RTVSPost2010Prop54
  1
strokes_ogs.tif
102
RTVSPost2010PropOp54
 70
     1
102
RTVSPost2010Prop55
280
     0
102
RTVSPost2010PropOp55
 70
     1
102
RTVSPost2010Prop56
140
1.0
102
RTVSPost2010PropOp56
 70
     1
102
RTVSPost2010Prop57
140
1.0
102
RTVSPost2010PropOp57
 70
     1
102
RTVSPropertyOp0
 70
     1
102
RTVSPropertyOp1
 70
     1
102
RTVSPropertyOp2
 70
     1
102
RTVSPropertyOp3
 70
     1
102
RTVSPropertyOp4
 70
     1
102
RTVSPropertyOp5
 70
     1
102
RTVSPropertyOp6
 70
     1
102
RTVSPropertyOp7
 70
     1
102
RTVSPropertyOp8
 70
     1
102
RTVSPropertyOp9
 70
     1
102
RTVSPropertyOp10
 70
     1
102
RTVSPropertyOp11
 70
     1
102
RTVSPropertyOp12
 70
     1
102
RTVSPropertyOp13
 70
     1
102
RTVSPropertyOp14
 70
     1
102
RTVSPropertyOp15
 70
     1
102
RTVSPropertyOp16
 70
     1
102
RTVSPropertyOp17
 70
     1
102
RTVSPropertyOp18
 70
     1
102
RTVSPropertyOp19
 70
     1
102
RTVSPropertyOp20
 70
     1
102
RTVSPropertyOp21
 70
     1
102
RTVSPropertyOp22
 70
     1
102
RTVSPropertyOp23
 70
     1
102
RTVSPropertyOp24
 70
     1
102
RTVSPropertyOp25
 70
     1
102
RTVSPropertyOp26
 70
     1
102
RTVSPropertyOp27
 70
     1
102
RTVSPropertyOp28
 70
     1
102
RTVSPropertyOp29
 70
     1
102
RTVSPropertyOp30
 70
     1
102
RTVSPropertyOp31
 70
     1
102
RTVSPropertyOp32
 70
     1
102
RTVSPropertyOp33
 70
     1
102
RTVSPropertyOp34
 70
     1
102
RTVSPropertyOp35
 70
     1
102
RTVSPropertyOp36
 70
     1
102
RTVSPropertyOp37
 70
     1
102
RTVSPropertyOp38
 70
     1
102
RTVSPropertyOp39
 70
     1
102
RTVSPropertyOp40
 70
     1
102
RTVSPropertyOp41
 70
     1
102
RTVSPropertyOp42
 70
     1
102
RTVSPropertyOp43
 70
     1
102
RTVSPropertyOp44
 70
     1
102
RTVSPropertyOp45
 70
     1
102
RTVSPropertyOp46
 70
     1
102
RTVSPropertyOp47
 70
     1
102
RTVSPropertyOp48
 70
     1
102
RTVSPropertyOp49
 70
     1
102
RTVSPropertyOp50
 70
     1
102
RTVSPropertyOp51
 70
     0
102
RTVSPropertyOp52
 70
     0
102
RTVSPropertyOp53
 70
     1
102
RTVSPropertyOp54
 70
     1
102
RTVSPropertyOp55
 70
     1
102
RTVSPropertyOp56
 70
     1
102
RTVSPropertyOp57
 70
     1
102
RTVSPropertyOp58
 70
     1
102
RTVSPropertyOp59
 70
     1
102
RTVSPropertyOp60
 70
     1
102
RTVSPropertyOp61
 70
     1
102
RTVSPropertyOp62
 70
     1
  0
XRECORD
  5
D14
102
{ACAD_REACTORS
330
D13
102
}
330
D13
100
AcDbXrecord
280
     1
102
RTVSPost2010Prop28
280
     0
102
RTVSPost2010PropOp28
 70
     1
102
RTVSPost2010Prop29
280
     1
102
RTVSPost2010PropOp29
 70
     1
102
RTVSPost2010Prop30
280
     1
102
RTVSPost2010PropOp30
 70
     1
102
RTVSPost2010Prop31
280
     0
102
RTVSPost2010PropOp31
 70
     1
102
RTVSPost2010Prop32
280
     0
102
RTVSPost2010PropOp32
 70
     1
102
RTVSPost2010Prop33
280
     0
102
RTVSPost2010PropOp33
 70
     1
102
RTVSPost2010Prop34
280
     0
102
RTVSPost2010PropOp34
 70
     1
102
RTVSPost2010Prop35
280
     0
102
RTVSPost2010PropOp35
 70
     1
102
RTVSPost2010Prop36
280
     0
102
RTVSPost2010PropOp36
 70
     1
102
RTVSPost2010Prop37
 90
       50
102
RTVSPost2010PropOp37
 70
     1
102
RTVSPost2010Prop38
140
0.0
102
RTVSPost2010PropOp38
 70
     1
102
RTVSPost2010Prop39
140
1.0
102
RTVSPost2010PropOp39
 70
     1
102
RTVSPost2010Prop40
 90
        0
102
RTVSPost2010PropOp40
 70
     1
102
RTVSPost2010Prop41ColorIndex
 90
       18
102
RTVSPost2010Prop41ColorRGB
 90
-16777216
102
RTVSPost2010PropOp41
 70
     1
102
RTVSPost2010Prop42
 90
       50
102
RTVSPost2010PropOp42
 70
     1
102
RTVSPost2010Prop43
 90
        3
102
RTVSPost2010PropOp43
 70
     1
102
RTVSPost2010Prop44ColorIndex
 90
        5
102
RTVSPost2010Prop44ColorRGB
 90
      255
102
RTVSPost2010PropOp44
 70
     1
102
RTVSPost2010Prop45
280
     0
102
RTVSPost2010PropOp45
 70
     1
102
RTVSPost2010Prop46
 90
       50
102
RTVSPost2010PropOp46
 70
     1
102
RTVSPost2010Prop47
 90
       50
102
RTVSPost2010PropOp47
 70
     1
102
RTVSPost2010Prop48
 90
       50
102
RTVSPost2010PropOp48
 70
     1
102
RTVSPost2010Prop49
280
     0
102
RTVSPost2010PropOp49
 70
     1
102
RTVSPost2010Prop50
 90
       50
102
RTVSPost2010PropOp50
 70
     1
102
RTVSPost2010Prop51ColorIndex
 90
      256
102
RTVSPost2010Prop51ColorRGB
 90
-16777216
102
RTVSPost2010PropOp51
 70
     0
102
RTVSPost2010Prop52
140
1.0
102
RTVSPost2010PropOp52
 70
     0
102
RTVSPost2010Prop53
 90
        2
102
RTVSPost2010PropOp53
 70
     1
102
RTVSPost2010Prop54
  1
strokes_ogs.tif
102
RTVSPost2010PropOp54
 70
     1
102
RTVSPost2010Prop55
280
     0
102
RTVSPost2010PropOp55
 70
     1
102
RTVSPost2010Prop56
140
1.0
102
RTVSPost2010PropOp56
 70
     1
102
RTVSPost2010Prop57
140
1.0
102
RTVSPost2010PropOp57
 70
     1
102
RTVSPropertyOp0
 70
     1
102
RTVSPropertyOp1
 70
     1
102
RTVSPropertyOp2
 70
     1
102
RTVSPropertyOp3
 70
     1
102
RTVSPropertyOp4
 70
     1
102
RTVSPropertyOp5
 70
     1
102
RTVSPropertyOp6
 70
     1
102
RTVSPropertyOp7
 70
     1
102
RTVSPropertyOp8
 70
     1
102
RTVSPropertyOp9
 70
     1
102
RTVSPropertyOp10
 70
     1
102
RTVSPropertyOp11
 70
     1
102
RTVSPropertyOp12
 70
     1
102
RTVSPropertyOp13
 70
     1
102
RTVSPropertyOp14
 70
     1
102
RTVSPropertyOp15
 70
     1
102
RTVSPropertyOp16
 70
     1
102
RTVSPropertyOp17
 70
     1
102
RTVSPropertyOp18
 70
     1
102
RTVSPropertyOp19
 70
     1
102
RTVSPropertyOp20
 70
     1
102
RTVSPropertyOp21
 70
     1
102
RTVSPropertyOp22
 70
     1
102
RTVSPropertyOp23
 70
     1
102
RTVSPropertyOp24
 70
     1
102
RTVSPropertyOp25
 70
     1
102
RTVSPropertyOp26
 70
     1
102
RTVSPropertyOp27
 70
     1
102
RTVSPropertyOp28
 70
     1
102
RTVSPropertyOp29
 70
     1
102
RTVSPropertyOp30
 70
     1
102
RTVSPropertyOp31
 70
     1
102
RTVSPropertyOp32
 70
     1
102
RTVSPropertyOp33
 70
     1
102
RTVSPropertyOp34
 70
     1
102
RTVSPropertyOp35
 70
     1
102
RTVSPropertyOp36
 70
     1
102
RTVSPropertyOp37
 70
     1
102
RTVSPropertyOp38
 70
     1
102
RTVSPropertyOp39
 70
     1
102
RTVSPropertyOp40
 70
     1
102
RTVSPropertyOp41
 70
     1
102
RTVSPropertyOp42
 70
     1
102
RTVSPropertyOp43
 70
     1
102
RTVSPropertyOp44
 70
     1
102
RTVSPropertyOp45
 70
     1
102
RTVSPropertyOp46
 70
     1
102
RTVSPropertyOp47
 70
     1
102
RTVSPropertyOp48
 70
     1
102
RTVSPropertyOp49
 70
     1
102
RTVSPropertyOp50
 70
     1
102
RTVSPropertyOp51
 70
     0
102
RTVSPropertyOp52
 70
     0
102
RTVSPropertyOp53
 70
     1
102
RTVSPropertyOp54
 70
     1
102
RTVSPropertyOp55
 70
     1
102
RTVSPropertyOp56
 70
     1
102
RTVSPropertyOp57
 70
     1
102
RTVSPropertyOp58
 70
     1
102
RTVSPropertyOp59
 70
     1
102
RTVSPropertyOp60
 70
     1
102
RTVSPropertyOp61
 70
     1
102
RTVSPropertyOp62
 70
     1
  0
XRECORD
  5
D0E
102
{ACAD_REACTORS
330
D0D
102
}
330
D0D
100
AcDbXrecord
280
     1
102
RTVSPost2010Prop28
280
     0
102
RTVSPost2010PropOp28
 70
     1
102
RTVSPost2010Prop29
280
     1
102
RTVSPost2010PropOp29
 70
     1
102
RTVSPost2010Prop30
280
     1
102
RTVSPost2010PropOp30
 70
     1
102
RTVSPost2010Prop31
280
     0
102
RTVSPost2010PropOp31
 70
     1
102
RTVSPost2010Prop32
280
     0
102
RTVSPost2010PropOp32
 70
     1
102
RTVSPost2010Prop33
280
     0
102
RTVSPost2010PropOp33
 70
     1
102
RTVSPost2010Prop34
280
     0
102
RTVSPost2010PropOp34
 70
     1
102
RTVSPost2010Prop35
280
     0
102
RTVSPost2010PropOp35
 70
     1
102
RTVSPost2010Prop36
280
     0
102
RTVSPost2010PropOp36
 70
     1
102
RTVSPost2010Prop37
 90
       50
102
RTVSPost2010PropOp37
 70
     1
102
RTVSPost2010Prop38
140
0.0
102
RTVSPost2010PropOp38
 70
     1
102
RTVSPost2010Prop39
140
1.0
102
RTVSPost2010PropOp39
 70
     1
102
RTVSPost2010Prop40
 90
        0
102
RTVSPost2010PropOp40
 70
     1
102
RTVSPost2010Prop41ColorIndex
 90
       18
102
RTVSPost2010Prop41ColorRGB
 90
-16777216
102
RTVSPost2010PropOp41
 70
     1
102
RTVSPost2010Prop42
 90
       50
102
RTVSPost2010PropOp42
 70
     1
102
RTVSPost2010Prop43
 90
        3
102
RTVSPost2010PropOp43
 70
     1
102
RTVSPost2010Prop44ColorIndex
 90
        5
102
RTVSPost2010Prop44ColorRGB
 90
      255
102
RTVSPost2010PropOp44
 70
     1
102
RTVSPost2010Prop45
280
     0
102
RTVSPost2010PropOp45
 70
     1
102
RTVSPost2010Prop46
 90
       50
102
RTVSPost2010PropOp46
 70
     1
102
RTVSPost2010Prop47
 90
       50
102
RTVSPost2010PropOp47
 70
     1
102
RTVSPost2010Prop48
 90
       50
102
RTVSPost2010PropOp48
 70
     1
102
RTVSPost2010Prop49
280
     0
102
RTVSPost2010PropOp49
 70
     1
102
RTVSPost2010Prop50
 90
       50
102
RTVSPost2010PropOp50
 70
     1
102
RTVSPost2010Prop51ColorIndex
 90
      256
102
RTVSPost2010Prop51ColorRGB
 90
-16777216
102
RTVSPost2010PropOp51
 70
     0
102
RTVSPost2010Prop52
140
1.0
102
RTVSPost2010PropOp52
 70
     0
102
RTVSPost2010Prop53
 90
        2
102
RTVSPost2010PropOp53
 70
     1
102
RTVSPost2010Prop54
  1
strokes_ogs.tif
102
RTVSPost2010PropOp54
 70
     1
102
RTVSPost2010Prop55
280
     0
102
RTVSPost2010PropOp55
 70
     1
102
RTVSPost2010Prop56
140
1.0
102
RTVSPost2010PropOp56
 70
     1
102
RTVSPost2010Prop57
140
1.0
102
RTVSPost2010PropOp57
 70
     1
102
RTVSPropertyOp0
 70
     1
102
RTVSPropertyOp1
 70
     1
102
RTVSPropertyOp2
 70
     1
102
RTVSPropertyOp3
 70
     1
102
RTVSPropertyOp4
 70
     1
102
RTVSPropertyOp5
 70
     1
102
RTVSPropertyOp6
 70
     1
102
RTVSPropertyOp7
 70
     1
102
RTVSPropertyOp8
 70
     1
102
RTVSPropertyOp9
 70
     1
102
RTVSPropertyOp10
 70
     1
102
RTVSPropertyOp11
 70
     1
102
RTVSPropertyOp12
 70
     1
102
RTVSPropertyOp13
 70
     1
102
RTVSPropertyOp14
 70
     1
102
RTVSPropertyOp15
 70
     1
102
RTVSPropertyOp16
 70
     1
102
RTVSPropertyOp17
 70
     1
102
RTVSPropertyOp18
 70
     1
102
RTVSPropertyOp19
 70
     1
102
RTVSPropertyOp20
 70
     1
102
RTVSPropertyOp21
 70
     1
102
RTVSPropertyOp22
 70
     1
102
RTVSPropertyOp23
 70
     1
102
RTVSPropertyOp24
 70
     1
102
RTVSPropertyOp25
 70
     1
102
RTVSPropertyOp26
 70
     1
102
RTVSPropertyOp27
 70
     1
102
RTVSPropertyOp28
 70
     1
102
RTVSPropertyOp29
 70
     1
102
RTVSPropertyOp30
 70
     1
102
RTVSPropertyOp31
 70
     1
102
RTVSPropertyOp32
 70
     1
102
RTVSPropertyOp33
 70
     1
102
RTVSPropertyOp34
 70
     1
102
RTVSPropertyOp35
 70
     1
102
RTVSPropertyOp36
 70
     1
102
RTVSPropertyOp37
 70
     1
102
RTVSPropertyOp38
 70
     1
102
RTVSPropertyOp39
 70
     1
102
RTVSPropertyOp40
 70
     1
102
RTVSPropertyOp41
 70
     1
102
RTVSPropertyOp42
 70
     1
102
RTVSPropertyOp43
 70
     1
102
RTVSPropertyOp44
 70
     1
102
RTVSPropertyOp45
 70
     1
102
RTVSPropertyOp46
 70
     1
102
RTVSPropertyOp47
 70
     1
102
RTVSPropertyOp48
 70
     1
102
RTVSPropertyOp49
 70
     1
102
RTVSPropertyOp50
 70
     1
102
RTVSPropertyOp51
 70
     0
102
RTVSPropertyOp52
 70
     0
102
RTVSPropertyOp53
 70
     1
102
RTVSPropertyOp54
 70
     1
102
RTVSPropertyOp55
 70
     1
102
RTVSPropertyOp56
 70
     1
102
RTVSPropertyOp57
 70
     1
102
RTVSPropertyOp58
 70
     1
102
RTVSPropertyOp59
 70
     1
102
RTVSPropertyOp60
 70
     1
102
RTVSPropertyOp61
 70
     1
102
RTVSPropertyOp62
 70
     1
  0
XRECORD
  5
D10
102
{ACAD_REACTORS
330
D0F
102
}
330
D0F
100
AcDbXrecord
280
     1
102
RTVSPost2010Prop28
280
     0
102
RTVSPost2010PropOp28
 70
     1
102
RTVSPost2010Prop29
280
     1
102
RTVSPost2010PropOp29
 70
     1
102
RTVSPost2010Prop30
280
     1
102
RTVSPost2010PropOp30
 70
     1
102
RTVSPost2010Prop31
280
     0
102
RTVSPost2010PropOp31
 70
     1
102
RTVSPost2010Prop32
280
     0
102
RTVSPost2010PropOp32
 70
     1
102
RTVSPost2010Prop33
280
     0
102
RTVSPost2010PropOp33
 70
     1
102
RTVSPost2010Prop34
280
     0
102
RTVSPost2010PropOp34
 70
     1
102
RTVSPost2010Prop35
280
     0
102
RTVSPost2010PropOp35
 70
     1
102
RTVSPost2010Prop36
280
     0
102
RTVSPost2010PropOp36
 70
     1
102
RTVSPost2010Prop37
 90
       50
102
RTVSPost2010PropOp37
 70
     1
102
RTVSPost2010Prop38
140
0.0
102
RTVSPost2010PropOp38
 70
     1
102
RTVSPost2010Prop39
140
1.0
102
RTVSPost2010PropOp39
 70
     1
102
RTVSPost2010Prop40
 90
        0
102
RTVSPost2010PropOp40
 70
     1
102
RTVSPost2010Prop41ColorIndex
 90
       18
102
RTVSPost2010Prop41ColorRGB
 90
-16777216
102
RTVSPost2010PropOp41
 70
     1
102
RTVSPost2010Prop42
 90
       50
102
RTVSPost2010PropOp42
 70
     1
102
RTVSPost2010Prop43
 90
        3
102
RTVSPost2010PropOp43
 70
     1
102
RTVSPost2010Prop44ColorIndex
 90
        5
102
RTVSPost2010Prop44ColorRGB
 90
      255
102
RTVSPost2010PropOp44
 70
     1
102
RTVSPost2010Prop45
280
     0
102
RTVSPost2010PropOp45
 70
     1
102
RTVSPost2010Prop46
 90
       50
102
RTVSPost2010PropOp46
 70
     1
102
RTVSPost2010Prop47
 90
       50
102
RTVSPost2010PropOp47
 70
     1
102
RTVSPost2010Prop48
 90
       50
102
RTVSPost2010PropOp48
 70
     1
102
RTVSPost2010Prop49
280
     0
102
RTVSPost2010PropOp49
 70
     1
102
RTVSPost2010Prop50
 90
       50
102
RTVSPost2010PropOp50
 70
     1
102
RTVSPost2010Prop51ColorIndex
 90
      256
102
RTVSPost2010Prop51ColorRGB
 90
-16777216
102
RTVSPost2010PropOp51
 70
     0
102
RTVSPost2010Prop52
140
1.0
102
RTVSPost2010PropOp52
 70
     0
102
RTVSPost2010Prop53
 90
        2
102
RTVSPost2010PropOp53
 70
     1
102
RTVSPost2010Prop54
  1
strokes_ogs.tif
102
RTVSPost2010PropOp54
 70
     1
102
RTVSPost2010Prop55
280
     0
102
RTVSPost2010PropOp55
 70
     1
102
RTVSPost2010Prop56
140
1.0
102
RTVSPost2010PropOp56
 70
     1
102
RTVSPost2010Prop57
140
1.0
102
RTVSPost2010PropOp57
 70
     1
102
RTVSPropertyOp0
 70
     1
102
RTVSPropertyOp1
 70
     1
102
RTVSPropertyOp2
 70
     1
102
RTVSPropertyOp3
 70
     1
102
RTVSPropertyOp4
 70
     1
102
RTVSPropertyOp5
 70
     1
102
RTVSPropertyOp6
 70
     1
102
RTVSPropertyOp7
 70
     1
102
RTVSPropertyOp8
 70
     1
102
RTVSPropertyOp9
 70
     1
102
RTVSPropertyOp10
 70
     1
102
RTVSPropertyOp11
 70
     1
102
RTVSPropertyOp12
 70
     1
102
RTVSPropertyOp13
 70
     1
102
RTVSPropertyOp14
 70
     1
102
RTVSPropertyOp15
 70
     1
102
RTVSPropertyOp16
 70
     1
102
RTVSPropertyOp17
 70
     1
102
RTVSPropertyOp18
 70
     1
102
RTVSPropertyOp19
 70
     1
102
RTVSPropertyOp20
 70
     1
102
RTVSPropertyOp21
 70
     1
102
RTVSPropertyOp22
 70
     1
102
RTVSPropertyOp23
 70
     1
102
RTVSPropertyOp24
 70
     1
102
RTVSPropertyOp25
 70
     1
102
RTVSPropertyOp26
 70
     1
102
RTVSPropertyOp27
 70
     1
102
RTVSPropertyOp28
 70
     1
102
RTVSPropertyOp29
 70
     1
102
RTVSPropertyOp30
 70
     1
102
RTVSPropertyOp31
 70
     1
102
RTVSPropertyOp32
 70
     1
102
RTVSPropertyOp33
 70
     1
102
RTVSPropertyOp34
 70
     1
102
RTVSPropertyOp35
 70
     1
102
RTVSPropertyOp36
 70
     1
102
RTVSPropertyOp37
 70
     1
102
RTVSPropertyOp38
 70
     1
102
RTVSPropertyOp39
 70
     1
102
RTVSPropertyOp40
 70
     1
102
RTVSPropertyOp41
 70
     1
102
RTVSPropertyOp42
 70
     1
102
RTVSPropertyOp43
 70
     1
102
RTVSPropertyOp44
 70
     1
102
RTVSPropertyOp45
 70
     1
102
RTVSPropertyOp46
 70
     1
102
RTVSPropertyOp47
 70
     1
102
RTVSPropertyOp48
 70
     1
102
RTVSPropertyOp49
 70
     1
102
RTVSPropertyOp50
 70
     1
102
RTVSPropertyOp51
 70
     0
102
RTVSPropertyOp52
 70
     0
102
RTVSPropertyOp53
 70
     1
102
RTVSPropertyOp54
 70
     1
102
RTVSPropertyOp55
 70
     1
102
RTVSPropertyOp56
 70
     1
102
RTVSPropertyOp57
 70
     1
102
RTVSPropertyOp58
 70
     1
102
RTVSPropertyOp59
 70
     1
102
RTVSPropertyOp60
 70
     1
102
RTVSPropertyOp61
 70
     1
102
RTVSPropertyOp62
 70
     1
  0
XRECORD
  5
D06
102
{ACAD_REACTORS
330
D05
102
}
330
D05
100
AcDbXrecord
280
     1
102
RTVSPost2010Prop28
280
     0
102
RTVSPost2010PropOp28
 70
     1
102
RTVSPost2010Prop29
280
     1
102
RTVSPost2010PropOp29
 70
     1
102
RTVSPost2010Prop30
280
     1
102
RTVSPost2010PropOp30
 70
     1
102
RTVSPost2010Prop31
280
     0
102
RTVSPost2010PropOp31
 70
     1
102
RTVSPost2010Prop32
280
     0
102
RTVSPost2010PropOp32
 70
     1
102
RTVSPost2010Prop33
280
     0
102
RTVSPost2010PropOp33
 70
     1
102
RTVSPost2010Prop34
280
     0
102
RTVSPost2010PropOp34
 70
     1
102
RTVSPost2010Prop35
280
     0
102
RTVSPost2010PropOp35
 70
     1
102
RTVSPost2010Prop36
280
     0
102
RTVSPost2010PropOp36
 70
     1
102
RTVSPost2010Prop37
 90
       50
102
RTVSPost2010PropOp37
 70
     1
102
RTVSPost2010Prop38
140
0.0
102
RTVSPost2010PropOp38
 70
     1
102
RTVSPost2010Prop39
140
1.0
102
RTVSPost2010PropOp39
 70
     1
102
RTVSPost2010Prop40
 90
        0
102
RTVSPost2010PropOp40
 70
     1
102
RTVSPost2010Prop41ColorIndex
 90
       18
102
RTVSPost2010Prop41ColorRGB
 90
-16777216
102
RTVSPost2010PropOp41
 70
     1
102
RTVSPost2010Prop42
 90
       50
102
RTVSPost2010PropOp42
 70
     1
102
RTVSPost2010Prop43
 90
        3
102
RTVSPost2010PropOp43
 70
     1
102
RTVSPost2010Prop44ColorIndex
 90
        5
102
RTVSPost2010Prop44ColorRGB
 90
      255
102
RTVSPost2010PropOp44
 70
     1
102
RTVSPost2010Prop45
280
     0
102
RTVSPost2010PropOp45
 70
     1
102
RTVSPost2010Prop46
 90
       50
102
RTVSPost2010PropOp46
 70
     1
102
RTVSPost2010Prop47
 90
       50
102
RTVSPost2010PropOp47
 70
     1
102
RTVSPost2010Prop48
 90
       50
102
RTVSPost2010PropOp48
 70
     1
102
RTVSPost2010Prop49
280
     0
102
RTVSPost2010PropOp49
 70
     1
102
RTVSPost2010Prop50
 90
       50
102
RTVSPost2010PropOp50
 70
     1
102
RTVSPost2010Prop51ColorIndex
 90
      256
102
RTVSPost2010Prop51ColorRGB
 90
-16777216
102
RTVSPost2010PropOp51
 70
     0
102
RTVSPost2010Prop52
140
1.0
102
RTVSPost2010PropOp52
 70
     0
102
RTVSPost2010Prop53
 90
        2
102
RTVSPost2010PropOp53
 70
     1
102
RTVSPost2010Prop54
  1
strokes_ogs.tif
102
RTVSPost2010PropOp54
 70
     1
102
RTVSPost2010Prop55
280
     0
102
RTVSPost2010PropOp55
 70
     1
102
RTVSPost2010Prop56
140
1.0
102
RTVSPost2010PropOp56
 70
     1
102
RTVSPost2010Prop57
140
1.0
102
RTVSPost2010PropOp57
 70
     1
102
RTVSPropertyOp0
 70
     1
102
RTVSPropertyOp1
 70
     1
102
RTVSPropertyOp2
 70
     1
102
RTVSPropertyOp3
 70
     1
102
RTVSPropertyOp4
 70
     1
102
RTVSPropertyOp5
 70
     1
102
RTVSPropertyOp6
 70
     1
102
RTVSPropertyOp7
 70
     1
102
RTVSPropertyOp8
 70
     1
102
RTVSPropertyOp9
 70
     1
102
RTVSPropertyOp10
 70
     1
102
RTVSPropertyOp11
 70
     1
102
RTVSPropertyOp12
 70
     1
102
RTVSPropertyOp13
 70
     1
102
RTVSPropertyOp14
 70
     1
102
RTVSPropertyOp15
 70
     1
102
RTVSPropertyOp16
 70
     1
102
RTVSPropertyOp17
 70
     1
102
RTVSPropertyOp18
 70
     1
102
RTVSPropertyOp19
 70
     1
102
RTVSPropertyOp20
 70
     1
102
RTVSPropertyOp21
 70
     1
102
RTVSPropertyOp22
 70
     1
102
RTVSPropertyOp23
 70
     1
102
RTVSPropertyOp24
 70
     1
102
RTVSPropertyOp25
 70
     1
102
RTVSPropertyOp26
 70
     1
102
RTVSPropertyOp27
 70
     1
102
RTVSPropertyOp28
 70
     1
102
RTVSPropertyOp29
 70
     1
102
RTVSPropertyOp30
 70
     1
102
RTVSPropertyOp31
 70
     1
102
RTVSPropertyOp32
 70
     1
102
RTVSPropertyOp33
 70
     1
102
RTVSPropertyOp34
 70
     1
102
RTVSPropertyOp35
 70
     1
102
RTVSPropertyOp36
 70
     1
102
RTVSPropertyOp37
 70
     1
102
RTVSPropertyOp38
 70
     1
102
RTVSPropertyOp39
 70
     1
102
RTVSPropertyOp40
 70
     1
102
RTVSPropertyOp41
 70
     1
102
RTVSPropertyOp42
 70
     1
102
RTVSPropertyOp43
 70
     1
102
RTVSPropertyOp44
 70
     1
102
RTVSPropertyOp45
 70
     1
102
RTVSPropertyOp46
 70
     1
102
RTVSPropertyOp47
 70
     1
102
RTVSPropertyOp48
 70
     1
102
RTVSPropertyOp49
 70
     1
102
RTVSPropertyOp50
 70
     1
102
RTVSPropertyOp51
 70
     0
102
RTVSPropertyOp52
 70
     0
102
RTVSPropertyOp53
 70
     1
102
RTVSPropertyOp54
 70
     1
102
RTVSPropertyOp55
 70
     1
102
RTVSPropertyOp56
 70
     1
102
RTVSPropertyOp57
 70
     1
102
RTVSPropertyOp58
 70
     1
102
RTVSPropertyOp59
 70
     1
102
RTVSPropertyOp60
 70
     1
102
RTVSPropertyOp61
 70
     1
102
RTVSPropertyOp62
 70
     1
  0
XRECORD
  5
CFA
102
{ACAD_REACTORS
330
CF9
102
}
330
CF9
100
AcDbXrecord
280
     1
102
RTVSPost2010Prop28
280
     0
102
RTVSPost2010PropOp28
 70
     1
102
RTVSPost2010Prop29
280
     1
102
RTVSPost2010PropOp29
 70
     1
102
RTVSPost2010Prop30
280
     1
102
RTVSPost2010PropOp30
 70
     1
102
RTVSPost2010Prop31
280
     0
102
RTVSPost2010PropOp31
 70
     1
102
RTVSPost2010Prop32
280
     0
102
RTVSPost2010PropOp32
 70
     1
102
RTVSPost2010Prop33
280
     0
102
RTVSPost2010PropOp33
 70
     1
102
RTVSPost2010Prop34
280
     0
102
RTVSPost2010PropOp34
 70
     1
102
RTVSPost2010Prop35
280
     0
102
RTVSPost2010PropOp35
 70
     1
102
RTVSPost2010Prop36
280
     0
102
RTVSPost2010PropOp36
 70
     1
102
RTVSPost2010Prop37
 90
       50
102
RTVSPost2010PropOp37
 70
     1
102
RTVSPost2010Prop38
140
0.0
102
RTVSPost2010PropOp38
 70
     1
102
RTVSPost2010Prop39
140
1.0
102
RTVSPost2010PropOp39
 70
     1
102
RTVSPost2010Prop40
 90
        0
102
RTVSPost2010PropOp40
 70
     1
102
RTVSPost2010Prop41ColorIndex
 90
       18
102
RTVSPost2010Prop41ColorRGB
 90
-16777216
102
RTVSPost2010PropOp41
 70
     1
102
RTVSPost2010Prop42
 90
       50
102
RTVSPost2010PropOp42
 70
     1
102
RTVSPost2010Prop43
 90
        3
102
RTVSPost2010PropOp43
 70
     1
102
RTVSPost2010Prop44ColorIndex
 90
        5
102
RTVSPost2010Prop44ColorRGB
 90
      255
102
RTVSPost2010PropOp44
 70
     1
102
RTVSPost2010Prop45
280
     0
102
RTVSPost2010PropOp45
 70
     1
102
RTVSPost2010Prop46
 90
       50
102
RTVSPost2010PropOp46
 70
     1
102
RTVSPost2010Prop47
 90
       50
102
RTVSPost2010PropOp47
 70
     1
102
RTVSPost2010Prop48
 90
       50
102
RTVSPost2010PropOp48
 70
     1
102
RTVSPost2010Prop49
280
     0
102
RTVSPost2010PropOp49
 70
     1
102
RTVSPost2010Prop50
 90
       50
102
RTVSPost2010PropOp50
 70
     1
102
RTVSPost2010Prop51ColorIndex
 90
      256
102
RTVSPost2010Prop51ColorRGB
 90
-16777216
102
RTVSPost2010PropOp51
 70
     0
102
RTVSPost2010Prop52
140
1.0
102
RTVSPost2010PropOp52
 70
     0
102
RTVSPost2010Prop53
 90
        2
102
RTVSPost2010PropOp53
 70
     1
102
RTVSPost2010Prop54
  1
strokes_ogs.tif
102
RTVSPost2010PropOp54
 70
     1
102
RTVSPost2010Prop55
280
     0
102
RTVSPost2010PropOp55
 70
     1
102
RTVSPost2010Prop56
140
1.0
102
RTVSPost2010PropOp56
 70
     1
102
RTVSPost2010Prop57
140
1.0
102
RTVSPost2010PropOp57
 70
     1
102
RTVSPropertyOp0
 70
     1
102
RTVSPropertyOp1
 70
     1
102
RTVSPropertyOp2
 70
     1
102
RTVSPropertyOp3
 70
     1
102
RTVSPropertyOp4
 70
     1
102
RTVSPropertyOp5
 70
     1
102
RTVSPropertyOp6
 70
     1
102
RTVSPropertyOp7
 70
     1
102
RTVSPropertyOp8
 70
     1
102
RTVSPropertyOp9
 70
     1
102
RTVSPropertyOp10
 70
     1
102
RTVSPropertyOp11
 70
     1
102
RTVSPropertyOp12
 70
     1
102
RTVSPropertyOp13
 70
     1
102
RTVSPropertyOp14
 70
     1
102
RTVSPropertyOp15
 70
     1
102
RTVSPropertyOp16
 70
     1
102
RTVSPropertyOp17
 70
     1
102
RTVSPropertyOp18
 70
     1
102
RTVSPropertyOp19
 70
     1
102
RTVSPropertyOp20
 70
     1
102
RTVSPropertyOp21
 70
     1
102
RTVSPropertyOp22
 70
     1
102
RTVSPropertyOp23
 70
     1
102
RTVSPropertyOp24
 70
     1
102
RTVSPropertyOp25
 70
     1
102
RTVSPropertyOp26
 70
     1
102
RTVSPropertyOp27
 70
     1
102
RTVSPropertyOp28
 70
     1
102
RTVSPropertyOp29
 70
     1
102
RTVSPropertyOp30
 70
     1
102
RTVSPropertyOp31
 70
     1
102
RTVSPropertyOp32
 70
     1
102
RTVSPropertyOp33
 70
     1
102
RTVSPropertyOp34
 70
     1
102
RTVSPropertyOp35
 70
     1
102
RTVSPropertyOp36
 70
     1
102
RTVSPropertyOp37
 70
     1
102
RTVSPropertyOp38
 70
     1
102
RTVSPropertyOp39
 70
     1
102
RTVSPropertyOp40
 70
     1
102
RTVSPropertyOp41
 70
     1
102
RTVSPropertyOp42
 70
     1
102
RTVSPropertyOp43
 70
     1
102
RTVSPropertyOp44
 70
     1
102
RTVSPropertyOp45
 70
     1
102
RTVSPropertyOp46
 70
     1
102
RTVSPropertyOp47
 70
     1
102
RTVSPropertyOp48
 70
     1
102
RTVSPropertyOp49
 70
     1
102
RTVSPropertyOp50
 70
     1
102
RTVSPropertyOp51
 70
     0
102
RTVSPropertyOp52
 70
     0
102
RTVSPropertyOp53
 70
     1
102
RTVSPropertyOp54
 70
     1
102
RTVSPropertyOp55
 70
     1
102
RTVSPropertyOp56
 70
     1
102
RTVSPropertyOp57
 70
     1
102
RTVSPropertyOp58
 70
     1
102
RTVSPropertyOp59
 70
     1
102
RTVSPropertyOp60
 70
     1
102
RTVSPropertyOp61
 70
     1
102
RTVSPropertyOp62
 70
     1
  0
XRECORD
  5
D12
102
{ACAD_REACTORS
330
D11
102
}
330
D11
100
AcDbXrecord
280
     1
102
RTVSPost2010Prop28
280
     0
102
RTVSPost2010PropOp28
 70
     1
102
RTVSPost2010Prop29
280
     1
102
RTVSPost2010PropOp29
 70
     1
102
RTVSPost2010Prop30
280
     1
102
RTVSPost2010PropOp30
 70
     1
102
RTVSPost2010Prop31
280
     0
102
RTVSPost2010PropOp31
 70
     1
102
RTVSPost2010Prop32
280
     0
102
RTVSPost2010PropOp32
 70
     1
102
RTVSPost2010Prop33
280
     0
102
RTVSPost2010PropOp33
 70
     1
102
RTVSPost2010Prop34
280
     0
102
RTVSPost2010PropOp34
 70
     1
102
RTVSPost2010Prop35
280
     0
102
RTVSPost2010PropOp35
 70
     1
102
RTVSPost2010Prop36
280
     0
102
RTVSPost2010PropOp36
 70
     1
102
RTVSPost2010Prop37
 90
       50
102
RTVSPost2010PropOp37
 70
     1
102
RTVSPost2010Prop38
140
0.0
102
RTVSPost2010PropOp38
 70
     1
102
RTVSPost2010Prop39
140
1.0
102
RTVSPost2010PropOp39
 70
     1
102
RTVSPost2010Prop40
 90
        0
102
RTVSPost2010PropOp40
 70
     1
102
RTVSPost2010Prop41ColorIndex
 90
       18
102
RTVSPost2010Prop41ColorRGB
 90
-16777216
102
RTVSPost2010PropOp41
 70
     1
102
RTVSPost2010Prop42
 90
       50
102
RTVSPost2010PropOp42
 70
     1
102
RTVSPost2010Prop43
 90
        3
102
RTVSPost2010PropOp43
 70
     1
102
RTVSPost2010Prop44ColorIndex
 90
        5
102
RTVSPost2010Prop44ColorRGB
 90
      255
102
RTVSPost2010PropOp44
 70
     1
102
RTVSPost2010Prop45
280
     0
102
RTVSPost2010PropOp45
 70
     1
102
RTVSPost2010Prop46
 90
       50
102
RTVSPost2010PropOp46
 70
     1
102
RTVSPost2010Prop47
 90
       50
102
RTVSPost2010PropOp47
 70
     1
102
RTVSPost2010Prop48
 90
       50
102
RTVSPost2010PropOp48
 70
     1
102
RTVSPost2010Prop49
280
     0
102
RTVSPost2010PropOp49
 70
     1
102
RTVSPost2010Prop50
 90
       50
102
RTVSPost2010PropOp50
 70
     1
102
RTVSPost2010Prop51ColorIndex
 90
      256
102
RTVSPost2010Prop51ColorRGB
 90
-16777216
102
RTVSPost2010PropOp51
 70
     0
102
RTVSPost2010Prop52
140
1.0
102
RTVSPost2010PropOp52
 70
     0
102
RTVSPost2010Prop53
 90
        2
102
RTVSPost2010PropOp53
 70
     1
102
RTVSPost2010Prop54
  1
strokes_ogs.tif
102
RTVSPost2010PropOp54
 70
     1
102
RTVSPost2010Prop55
280
     0
102
RTVSPost2010PropOp55
 70
     1
102
RTVSPost2010Prop56
140
1.0
102
RTVSPost2010PropOp56
 70
     1
102
RTVSPost2010Prop57
140
1.0
102
RTVSPost2010PropOp57
 70
     1
102
RTVSPropertyOp0
 70
     1
102
RTVSPropertyOp1
 70
     1
102
RTVSPropertyOp2
 70
     1
102
RTVSPropertyOp3
 70
     1
102
RTVSPropertyOp4
 70
     1
102
RTVSPropertyOp5
 70
     1
102
RTVSPropertyOp6
 70
     1
102
RTVSPropertyOp7
 70
     1
102
RTVSPropertyOp8
 70
     1
102
RTVSPropertyOp9
 70
     1
102
RTVSPropertyOp10
 70
     1
102
RTVSPropertyOp11
 70
     1
102
RTVSPropertyOp12
 70
     1
102
RTVSPropertyOp13
 70
     1
102
RTVSPropertyOp14
 70
     1
102
RTVSPropertyOp15
 70
     1
102
RTVSPropertyOp16
 70
     1
102
RTVSPropertyOp17
 70
     1
102
RTVSPropertyOp18
 70
     1
102
RTVSPropertyOp19
 70
     1
102
RTVSPropertyOp20
 70
     1
102
RTVSPropertyOp21
 70
     1
102
RTVSPropertyOp22
 70
     1
102
RTVSPropertyOp23
 70
     1
102
RTVSPropertyOp24
 70
     1
102
RTVSPropertyOp25
 70
     1
102
RTVSPropertyOp26
 70
     1
102
RTVSPropertyOp27
 70
     1
102
RTVSPropertyOp28
 70
     1
102
RTVSPropertyOp29
 70
     1
102
RTVSPropertyOp30
 70
     1
102
RTVSPropertyOp31
 70
     1
102
RTVSPropertyOp32
 70
     1
102
RTVSPropertyOp33
 70
     1
102
RTVSPropertyOp34
 70
     1
102
RTVSPropertyOp35
 70
     1
102
RTVSPropertyOp36
 70
     1
102
RTVSPropertyOp37
 70
     1
102
RTVSPropertyOp38
 70
     1
102
RTVSPropertyOp39
 70
     1
102
RTVSPropertyOp40
 70
     1
102
RTVSPropertyOp41
 70
     1
102
RTVSPropertyOp42
 70
     1
102
RTVSPropertyOp43
 70
     1
102
RTVSPropertyOp44
 70
     1
102
RTVSPropertyOp45
 70
     1
102
RTVSPropertyOp46
 70
     1
102
RTVSPropertyOp47
 70
     1
102
RTVSPropertyOp48
 70
     1
102
RTVSPropertyOp49
 70
     1
102
RTVSPropertyOp50
 70
     1
102
RTVSPropertyOp51
 70
     0
102
RTVSPropertyOp52
 70
     0
102
RTVSPropertyOp53
 70
     1
102
RTVSPropertyOp54
 70
     1
102
RTVSPropertyOp55
 70
     1
102
RTVSPropertyOp56
 70
     1
102
RTVSPropertyOp57
 70
     1
102
RTVSPropertyOp58
 70
     1
102
RTVSPropertyOp59
 70
     1
102
RTVSPropertyOp60
 70
     1
102
RTVSPropertyOp61
 70
     1
102
RTVSPropertyOp62
 70
     1
  0
ENDSEC
  0
EOF
