  0
SECTION
  2
HEADER
  9
$ACADVER
  1
AC1015
  9
$ACADMAINTVER
 70
    20
  9
$DWGCODEPAGE
  3
ANSI_1252
  9
$INSBASE
 10
0.0
 20
0.0
 30
0.0
  9
$EXTMIN
 10
0.0
 20
-0.0000000000000007
 30
0.0
  9
$EXTMAX
 10
5.525
 20
4.25
 30
0.0
  9
$LIMMIN
 10
0.0
 20
0.0
  9
$LIMMAX
 10
12.0
 20
9.0
  9
$ORTHOMODE
 70
     0
  9
$REGENMODE
 70
     1
  9
$FILLMODE
 70
     1
  9
$QTEXTMODE
 70
     0
  9
$MIRRTEXT
 70
     1
  9
$LTSCALE
 40
0.25
  9
$ATTMODE
 70
     1
  9
$TEXTSIZE
 40
0.078
  9
$TRACEWID
 40
0.05
  9
$TEXTSTYLE
  7
SIMPLEX
  9
$CLAYER
  8
3
  9
$CELTYPE
  6
BYLAYER
  9
$CECOLOR
 62
   256
  9
$CELTSCALE
 40
1.0
  9
$DISPSILH
 70
     0
  9
$DIMSCALE
 40
0.5
  9
$DIMASZ
 40
0.125
  9
$DIMEXO
 40
0.0625
  9
$DIMDLI
 40
0.38
  9
$DIMRND
 40
0.0
  9
$DIMDLE
 40
0.0
  9
$DIMEXE
 40
0.0625
  9
$DIMTP
 40
0.0
  9
$DIMTM
 40
0.0
  9
$DIMTXT
 40
0.125
  9
$DIMCEN
 40
-0.125
  9
$DIMTSZ
 40
0.0
  9
$DIMTOL
 70
     0
  9
$DIMLIM
 70
     0
  9
$DIMTIH
 70
     1
  9
$DIMTOH
 70
     1
  9
$DIMSE1
 70
     0
  9
$DIMSE2
 70
     0
  9
$DIMTAD
 70
     0
  9
$DIMZIN
 70
     4
  9
$DIMBLK
  1

  9
$DIMASO
 70
     1
  9
$DIMSHO
 70
     0
  9
$DIMPOST
  1

  9
$DIMAPOST
  1

  9
$DIMALT
 70
     0
  9
$DIMALTD
 70
     2
  9
$DIMALTF
 40
25.4
  9
$DIMLFAC
 40
1.0
  9
$DIMTOFL
 70
     0
  9
$DIMTVP
 40
0.0
  9
$DIMTIX
 70
     0
  9
$DIMSOXD
 70
     0
  9
$DIMSAH
 70
     0
  9
$DIMBLK1
  1

  9
$DIMBLK2
  1

  9
$DIMSTYLE
  2
STANDARD
  9
$DIMCLRD
 70
     0
  9
$DIMCLRE
 70
     0
  9
$DIMCLRT
 70
     0
  9
$DIMTFAC
 40
1.0
  9
$DIMGAP
 40
0.09
  9
$DIMJUST
 70
     0
  9
$DIMSD1
 70
     0
  9
$DIMSD2
 70
     0
  9
$DIMTOLJ
 70
     1
  9
$DIMTZIN
 70
     4
  9
$DIMALTZ
 70
     4
  9
$DIMALTTZ
 70
     4
  9
$DIMUPT
 70
     0
  9
$DIMDEC
 70
     5
  9
$DIMTDEC
 70
     3
  9
$DIMALTU
 70
     2
  9
$DIMALTTD
 70
     2
  9
$DIMTXSTY
  7
SIMPLEX
  9
$DIMAUNIT
 70
     0
  9
$DIMADEC
 70
     0
  9
$DIMALTRND
 40
0.0
  9
$DIMAZIN
 70
     0
  9
$DIMDSEP
 70
    46
  9
$DIMATFIT
 70
     3
  9
$DIMFRAC
 70
     2
  9
$DIMLDRBLK
  1

  9
$DIMLUNIT
 70
     5
  9
$DIMLWD
 70
    -2
  9
$DIMLWE
 70
    -2
  9
$DIMTMOVE
 70
     2
  9
$LUNITS
 70
     2
  9
$LUPREC
 70
     3
  9
$SKETCHINC
 40
0.1
  9
$FILLETRAD
 40
0.0
  9
$AUNITS
 70
     0
  9
$AUPREC
 70
     2
  9
$MENU
  1
ACAD
  9
$ELEVATION
 40
0.0
  9
$PELEVATION
 40
0.0
  9
$THICKNESS
 40
0.0
  9
$LIMCHECK
 70
     0
  9
$CHAMFERA
 40
0.0
  9
$CHAMFERB
 40
0.0
  9
$CHAMFERC
 40
0.0
  9
$CHAMFERD
 40
0.0
  9
$SKPOLY
 70
     0
  9
$TDCREATE
 40
2449051.539295139
  9
$TDUCREATE
 40
2449051.705961806
  9
$TDUPDATE
 40
2457155.527299502
  9
$TDUUPDATE
 40
2457155.693966169
  9
$TDINDWG
 40
0.2394072569
  9
$TDUSRTIMER
 40
0.2394072454
  9
$USRTIMER
 70
     1
  9
$ANGBASE
 50
0.0
  9
$ANGDIR
 70
     0
  9
$PDMODE
 70
     0
  9
$PDSIZE
 40
0.0
  9
$PLINEWID
 40
0.0
  9
$SPLFRAME
 70
     0
  9
$SPLINETYPE
 70
     6
  9
$SPLINESEGS
 70
     8
  9
$HANDSEED
  5
1005
  9
$SURFTAB1
 70
     6
  9
$SURFTAB2
 70
     6
  9
$SURFTYPE
 70
     6
  9
$SURFU
 70
     6
  9
$SURFV
 70
     6
  9
$UCSBASE
  2

  9
$UCSNAME
  2

  9
$UCSORG
 10
0.0
 20
0.0
 30
0.0
  9
$UCSXDIR
 10
1.0
 20
0.0
 30
0.0
  9
$UCSYDIR
 10
0.0
 20
1.0
 30
0.0
  9
$UCSORTHOREF
  2

  9
$UCSORTHOVIEW
 70
     0
  9
$UCSORGTOP
 10
0.0
 20
0.0
 30
0.0
  9
$UCSORGBOTTOM
 10
0.0
 20
0.0
 30
0.0
  9
$UCSORGLEFT
 10
0.0
 20
0.0
 30
0.0
  9
$UCSORGRIGHT
 10
0.0
 20
0.0
 30
0.0
  9
$UCSORGFRONT
 10
0.0
 20
0.0
 30
0.0
  9
$UCSORGBACK
 10
0.0
 20
0.0
 30
0.0
  9
$PUCSBASE
  2

  9
$PUCSNAME
  2

  9
$PUCSORG
 10
0.0
 20
0.0
 30
0.0
  9
$PUCSXDIR
 10
1.0
 20
0.0
 30
0.0
  9
$PUCSYDIR
 10
0.0
 20
1.0
 30
0.0
  9
$PUCSORTHOREF
  2

  9
$PUCSORTHOVIEW
 70
     0
  9
$PUCSORGTOP
 10
0.0
 20
0.0
 30
0.0
  9
$PUCSORGBOTTOM
 10
0.0
 20
0.0
 30
0.0
  9
$PUCSORGLEFT
 10
0.0
 20
0.0
 30
0.0
  9
$PUCSORGRIGHT
 10
0.0
 20
0.0
 30
0.0
  9
$PUCSORGFRONT
 10
0.0
 20
0.0
 30
0.0
  9
$PUCSORGBACK
 10
0.0
 20
0.0
 30
0.0
  9
$USERI1
 70
     0
  9
$USERI2
 70
     0
  9
$USERI3
 70
     0
  9
$USERI4
 70
     0
  9
$USERI5
 70
     0
  9
$USERR1
 40
0.0
  9
$USERR2
 40
0.0
  9
$USERR3
 40
0.0
  9
$USERR4
 40
0.0
  9
$USERR5
 40
0.0
  9
$WORLDVIEW
 70
     1
  9
$SHADEDGE
 70
     3
  9
$SHADEDIF
 70
    70
  9
$TILEMODE
 70
     1
  9
$MAXACTVP
 70
    16
  9
$PINSBASE
 10
0.0
 20
0.0
 30
0.0
  9
$PLIMCHECK
 70
     0
  9
$PEXTMIN
 10
1.000000000000000E+20
 20
1.000000000000000E+20
 30
1.000000000000000E+20
  9
$PEXTMAX
 10
-1.000000000000000E+20
 20
-1.000000000000000E+20
 30
-1.000000000000000E+20
  9
$PLIMMIN
 10
0.0
 20
0.0
  9
$PLIMMAX
 10
12.0
 20
9.0
  9
$UNITMODE
 70
     0
  9
$VISRETAIN
 70
     0
  9
$PLINEGEN
 70
     0
  9
$PSLTSCALE
 70
     0
  9
$TREEDEPTH
 70
  3020
  9
$CMLSTYLE
  2
STANDARD
  9
$CMLJUST
 70
     0
  9
$CMLSCALE
 40
1.0
  9
$PROXYGRAPHICS
 70
     1
  9
$MEASUREMENT
 70
     0
  9
$CELWEIGHT
370
    -1
  9
$ENDCAPS
280
     0
  9
$JOINSTYLE
280
     0
  9
$LWDISPLAY
290
     0
  9
$INSUNITS
 70
     0
  9
$HYPERLINKBASE
  1

  9
$STYLESHEET
  1

  9
$XEDIT
290
     1
  9
$CEPSNTYPE
380
     0
  9
$PSTYLEMODE
290
     1
  9
$FINGERPRINTGUID
  2
{E18F9B43-5F13-11D5-8B45-8933A909ED00}
  9
$VERSIONGUID
  2
{F319024F-BB5C-4D3D-9A91-9791B0AC72E9}
  9
$EXTNAMES
290
     1
  9
$PSVPSCALE
 40
0.0
  9
$OLESTARTUP
290
     0
  0
ENDSEC
  0
SECTION
  2
CLASSES
  0
CLASS
  1
DICTIONARYVAR
  2
AcDbDictionaryVar
  3
ObjectDBX Classes
 90
        0
280
     0
281
     0
  0
CLASS
  1
ACDBDICTIONARYWDFLT
  2
AcDbDictionaryWithDefault
  3
ObjectDBX Classes
 90
        0
280
     0
281
     0
  0
CLASS
  1
MATERIAL
  2
AcDbMaterial
  3
ObjectDBX Classes
 90
     1153
280
     0
281
     0
  0
CLASS
  1
VISUALSTYLE
  2
AcDbVisualStyle
  3
ObjectDBX Classes
 90
     4095
280
     0
281
     0
  0
CLASS
  1
TABLESTYLE
  2
AcDbTableStyle
  3
ObjectDBX Classes
 90
     4095
280
     0
281
     0
  0
CLASS
  1
SCALE
  2
AcDbScale
  3
ObjectDBX Classes
 90
     1153
280
     0
281
     0
  0
CLASS
  1
MLEADERSTYLE
  2
AcDbMLeaderStyle
  3
ACDB_MLEADERSTYLE_CLASS
 90
     4095
280
     0
281
     0
  0
CLASS
  1
ACDBSECTIONVIEWSTYLE
  2
AcDbSectionViewStyle
  3
ObjectDBX Classes
 90
     1025
280
     0
281
     0
  0
CLASS
  1
ACDBDETAILVIEWSTYLE
  2
AcDbDetailViewStyle
  3
ObjectDBX Classes
 90
     1025
280
     0
281
     0
  0
CLASS
  1
CELLSTYLEMAP
  2
AcDbCellStyleMap
  3
ObjectDBX Classes
 90
     1152
280
     0
281
     0
  0
CLASS
  1
ACDBPLACEHOLDER
  2
AcDbPlaceHolder
  3
ObjectDBX Classes
 90
        0
280
     0
281
     0
  0
CLASS
  1
LAYOUT
  2
AcDbLayout
  3
ObjectDBX Classes
 90
        0
280
     0
281
     0
  0
ENDSEC
  0
SECTION
  2
TABLES
  0
TABLE
  2
VPORT
  5
8
330
0
100
AcDbSymbolTable
 70
     1
  0
VPORT
  5
DF2
330
8
100
AcDbSymbolTableRecord
100
AcDbViewportTableRecord
  2
*Active
 70
     0
 10
0.0
 20
0.0
 11
1.0
 21
1.0
 12
3.274019905811376
 22
2.416026346335901
 13
0.0
 23
0.0
 14
1.0
 24
1.0
 15
0.0
 25
0.0
 16
0.0
 26
0.0
 36
1.0
 17
0.0
 27
0.0
 37
0.0
 40
7.095769356762554
 41
2.080545229244113
 42
50.0
 43
0.0
 44
0.0
 50
0.0
 51
0.0
 71
     0
 72
   250
 73
     1
 74
     0
 75
     0
 76
     0
 77
     0
 78
     0
281
     0
 65
     1
110
0.0
120
0.0
130
0.0
111
1.0
121
0.0
131
0.0
112
0.0
122
1.0
132
0.0
 79
     0
146
0.0
1001
ACAD_NAV_VCDISPLAY
1070
     3
  0
ENDTAB
  0
TABLE
  2
LTYPE
  5
5
330
0
100
AcDbSymbolTable
 70
     1
  0
LTYPE
  5
11
330
5
100
AcDbSymbolTableRecord
100
AcDbLinetypeTableRecord
  2
BYBLOCK
 70
     0
  3

 72
    65
 73
     0
 40
0.0
  0
LTYPE
  5
12
330
5
100
AcDbSymbolTableRecord
100
AcDbLinetypeTableRecord
  2
BYLAYER
 70
     0
  3

 72
    65
 73
     0
 40
0.0
  0
LTYPE
  5
13
330
5
100
AcDbSymbolTableRecord
100
AcDbLinetypeTableRecord
  2
CONTINUOUS
 70
     0
  3
Solid line
 72
    65
 73
     0
 40
0.0
  0
ENDTAB
  0
TABLE
  2
LAYER
  5
2
102
{ACAD_XDICTIONARY
360
EE9
102
}
330
0
100
AcDbSymbolTable
 70
     5
  0
LAYER
  5
E
102
{ACAD_XDICTIONARY
360
EDE
102
}
330
2
100
AcDbSymbolTableRecord
100
AcDbLayerTableRecord
  2
0
 70
     0
 62
     7
  6
CONTINUOUS
370
    -3
390
D9F
  0
LAYER
  5
24
102
{ACAD_XDICTIONARY
360
EE0
102
}
330
2
100
AcDbSymbolTableRecord
100
AcDbLayerTableRecord
  2
3
 70
     0
 62
     3
  6
CONTINUOUS
370
    -3
390
D9F
  0
LAYER
  5
B1A
330
2
100
AcDbSymbolTableRecord
100
AcDbLayerTableRecord
  2
DEFPOINTS
 70
     0
 62
     7
  6
CONTINUOUS
290
     0
370
    -3
390
D9F
  0
LAYER
  5
C56
102
{ACAD_XDICTIONARY
360
EE2
102
}
330
2
100
AcDbSymbolTableRecord
100
AcDbLayerTableRecord
  2
2
 70
     0
 62
     2
  6
CONTINUOUS
370
    -3
390
D9F
  0
LAYER
  5
C57
102
{ACAD_XDICTIONARY
360
EE4
102
}
330
2
100
AcDbSymbolTableRecord
100
AcDbLayerTableRecord
  2
4
 70
     0
 62
     4
  6
CONTINUOUS
370
    -3
390
D9F
  0
ENDTAB
  0
TABLE
  2
STYLE
  5
3
330
0
100
AcDbSymbolTable
 70
     3
  0
STYLE
  5
F
330
3
100
AcDbSymbolTableRecord
100
AcDbTextStyleTableRecord
  2
STANDARD
 70
     0
 40
0.0
 41
1.0
 50
0.0
 71
     0
 42
0.2
  3
txt
  4

  0
STYLE
  5
1C
330
3
100
AcDbSymbolTableRecord
100
AcDbTextStyleTableRecord
  2
SIMPLEX
 70
     0
 40
0.0
 41
1.0
 50
0.0
 71
     0
 42
0.078
  3
SIMPLEX.shx
  4

  0
STYLE
  5
C58
330
3
100
AcDbSymbolTableRecord
100
AcDbTextStyleTableRecord
  2
T
 70
     0
 40
0.0
 41
1.0
 50
0.0
 71
     0
 42
1.0
  3
ROMI____.PFB
  4

  0
ENDTAB
  0
TABLE
  2
VIEW
  5
6
330
0
100
AcDbSymbolTable
 70
     0
  0
ENDTAB
  0
TABLE
  2
UCS
  5
7
330
0
100
AcDbSymbolTable
 70
     0
  0
ENDTAB
  0
TABLE
  2
APPID
  5
9
330
0
100
AcDbSymbolTable
 70
     5
  0
APPID
  5
10
330
9
100
AcDbSymbolTableRecord
100
AcDbRegAppTableRecord
  2
ACAD
 70
     0
  0
APPID
  5
E84
330
9
100
AcDbSymbolTableRecord
100
AcDbRegAppTableRecord
  2
ACAD_EXEMPT_FROM_CAD_STANDARDS
 70
     0
  0
APPID
  5
EEF
330
9
100
AcDbSymbolTableRecord
100
AcDbRegAppTableRecord
  2
ACAD_NAV_VCDISPLAY
 70
     0
  0
APPID
  5
F40
330
9
100
AcDbSymbolTableRecord
100
AcDbRegAppTableRecord
  2
ACAD_PSEXT
 70
     0
  0
APPID
  5
1000
330
9
100
AcDbSymbolTableRecord
100
AcDbRegAppTableRecord
  2
ACAD_MLEADERVER
 70
     0
  0
ENDTAB
  0
TABLE
  2
DIMSTYLE
  5
A
330
0
100
AcDbSymbolTable
 70
     1
100
AcDbDimStyleTable
 71
     1
340
B05
  0
DIMSTYLE
105
B05
102
{ACAD_REACTORS
330
E8B
330
E99
330
EA7
330
EB5
330
EC3
330
ED1
102
}
330
A
100
AcDbSymbolTableRecord
100
AcDbDimStyleTableRecord
  2
STANDARD
 70
     0
340
F
  0
ENDTAB
  0
TABLE
  2
BLOCK_RECORD
  5
1
330
0
100
AcDbSymbolTable
 70
     8
  0
BLOCK_RECORD
  5
17
102
{ACAD_XDICTIONARY
360
E18
102
}
330
1
100
AcDbSymbolTableRecord
100
AcDbBlockTableRecord
  2
*MODEL_SPACE
340
DA2
  0
BLOCK_RECORD
  5
14
102
{ACAD_XDICTIONARY
360
E16
102
}
330
1
100
AcDbSymbolTableRecord
100
AcDbBlockTableRecord
  2
*PAPER_SPACE
340
DA3
  0
BLOCK_RECORD
  5
C3B
330
1
100
AcDbSymbolTableRecord
100
AcDbBlockTableRecord
  2
*D0
340
0
  0
BLOCK_RECORD
  5
C49
330
1
100
AcDbSymbolTableRecord
100
AcDbBlockTableRecord
  2
*D1
340
0
  0
BLOCK_RECORD
  5
E8C
330
1
100
AcDbSymbolTableRecord
100
AcDbBlockTableRecord
  2
*D2
340
0
  0
BLOCK_RECORD
  5
E9A
330
1
100
AcDbSymbolTableRecord
100
AcDbBlockTableRecord
  2
*D3
340
0
  0
BLOCK_RECORD
  5
EA8
330
1
100
AcDbSymbolTableRecord
100
AcDbBlockTableRecord
  2
*D4
340
0
  0
BLOCK_RECORD
  5
EB6
330
1
100
AcDbSymbolTableRecord
100
AcDbBlockTableRecord
  2
*D5
340
0
  0
BLOCK_RECORD
  5
EC4
330
1
100
AcDbSymbolTableRecord
100
AcDbBlockTableRecord
  2
*D6
340
0
  0
BLOCK_RECORD
  5
ED2
330
1
100
AcDbSymbolTableRecord
100
AcDbBlockTableRecord
  2
*D7
340
0
  0
ENDTAB
  0
ENDSEC
  0
SECTION
  2
BLOCKS
  0
BLOCK
  5
29
330
17
100
AcDbEntity
  8
0
100
AcDbBlockBegin
  2
*MODEL_SPACE
 70
     0
 10
0.0
 20
0.0
 30
0.0
  3
*MODEL_SPACE
  1

  0
ENDBLK
  5
2A
330
17
100
AcDbEntity
  8
0
100
AcDbBlockEnd
  0
BLOCK
  5
27
330
14
100
AcDbEntity
 67
     1
  8
0
100
AcDbBlockBegin
  2
*PAPER_SPACE
 70
     0
 10
0.0
 20
0.0
 30
0.0
  3
*PAPER_SPACE
  1

  0
ENDBLK
  5
28
330
14
100
AcDbEntity
 67
     1
  8
0
100
AcDbBlockEnd
  0
BLOCK
  5
D8F
330
C3B
100
AcDbEntity
  8
0
100
AcDbBlockBegin
  2
*D0
 70
     1
 10
0.0
 20
0.0
 30
0.0
  3
*D0
  1

  0
LINE
  5
E1C
330
C3B
100
AcDbEntity
  8
3
 62
     0
100
AcDbLine
 10
3.256002977110814
 20
2.306286533860856
 30
0.0
 11
3.597410531210622
 21
2.306286533860856
 31
0.0
  0
LINE
  5
E1D
330
C3B
100
AcDbEntity
  8
3
 62
     0
100
AcDbLine
 10
3.172302977110815
 20
2.493786533860856
 30
0.0
 11
3.597410531210622
 21
2.493786533860856
 31
0.0
  0
LINE
  5
E1E
330
C3B
100
AcDbEntity
  8
3
 62
     0
100
AcDbLine
 10
3.566160531210622
 20
2.243786533860856
 30
0.0
 11
3.566160531210622
 21
2.181286533860856
 31
0.0
  0
LINE
  5
E1F
330
C3B
100
AcDbEntity
  8
3
 62
     0
100
AcDbLine
 10
3.566160531210622
 20
2.556286533860856
 30
0.0
 11
3.566160531210622
 21
2.618786533860856
 31
0.0
  0
SOLID
  5
E20
330
C3B
100
AcDbEntity
  8
3
 62
     0
100
AcDbTrace
 10
3.555743864543955
 20
2.243786533860856
 30
0.0
 11
3.576577197877287
 21
2.243786533860856
 31
0.0
 12
3.566160531210622
 22
2.306286533860856
 32
0.0
 13
3.566160531210622
 23
2.306286533860856
 33
0.0
  0
SOLID
  5
E21
330
C3B
100
AcDbEntity
  8
3
 62
     0
100
AcDbTrace
 10
3.555743864543955
 20
2.556286533860856
 30
0.0
 11
3.576577197877287
 21
2.556286533860856
 31
0.0
 12
3.566160531210622
 22
2.493786533860856
 32
0.0
 13
3.566160531210622
 23
2.493786533860856
 33
0.0
  0
MTEXT
  5
E22
330
C3B
100
AcDbEntity
  8
3
 62
     0
100
AcDbMText
 10
3.56616053121062
 20
2.400036533860857
 30
0.0
 40
0.0625
 41
0.0
 71
     5
 72
     1
  1
\A1;3/16
  7
SIMPLEX
 73
     1
 44
1.0
1001
ACAD
1000
MTEXTBEGIN
1070
    73
1070
     1
1070
    44
1040
1.0
1070
    74
1070
     0
1000
MTEXTEND
  0
POINT
  5
E23
330
C3B
100
AcDbEntity
  8
DEFPOINTS
 62
     0
100
AcDbPoint
 10
3.224752977110814
 20
2.306286533860856
 30
0.0
  0
POINT
  5
E24
330
C3B
100
AcDbEntity
  8
DEFPOINTS
 62
     0
100
AcDbPoint
 10
3.141052977110815
 20
2.493786533860856
 30
0.0
  0
POINT
  5
E25
330
C3B
100
AcDbEntity
  8
DEFPOINTS
 62
     0
100
AcDbPoint
 10
3.566160531210622
 20
2.493786533860856
 30
0.0
  0
ENDBLK
  5
D9A
330
C3B
100
AcDbEntity
  8
0
100
AcDbBlockEnd
  0
BLOCK
  5
D76
330
C49
100
AcDbEntity
  8
0
100
AcDbBlockBegin
  2
*D1
 70
     1
 10
0.0
 20
0.0
 30
0.0
  3
*D1
  1

  0
LINE
  5
E26
330
C49
100
AcDbEntity
  8
3
 62
     0
100
AcDbLine
 10
2.142255530207668
 20
2.337536533860856
 30
0.0
 11
2.142255530207668
 21
2.557977832755129
 31
0.0
  0
LINE
  5
E27
330
C49
100
AcDbEntity
  8
3
 62
     0
100
AcDbLine
 10
2.517255530207668
 20
2.232636533860856
 30
0.0
 11
2.517255530207668
 21
2.557977832755129
 31
0.0
  0
LINE
  5
E28
330
C49
100
AcDbEntity
  8
3
 62
     0
100
AcDbLine
 10
2.079755530207668
 20
2.526727832755129
 30
0.0
 11
2.017255530207668
 21
2.526727832755129
 31
0.0
  0
LINE
  5
E29
330
C49
100
AcDbEntity
  8
3
 62
     0
100
AcDbLine
 10
2.579755530207668
 20
2.526727832755129
 30
0.0
 11
2.642255530207668
 21
2.526727832755129
 31
0.0
  0
SOLID
  5
E2A
330
C49
100
AcDbEntity
  8
3
 62
     0
100
AcDbTrace
 10
2.079755530207668
 20
2.537144499421795
 30
0.0
 11
2.079755530207668
 21
2.516311166088462
 31
0.0
 12
2.142255530207668
 22
2.526727832755129
 32
0.0
 13
2.142255530207668
 23
2.526727832755129
 33
0.0
  0
SOLID
  5
E2B
330
C49
100
AcDbEntity
  8
3
 62
     0
100
AcDbTrace
 10
2.579755530207668
 20
2.537144499421795
 30
0.0
 11
2.579755530207668
 21
2.516311166088462
 31
0.0
 12
2.517255530207668
 22
2.526727832755129
 32
0.0
 13
2.517255530207668
 23
2.526727832755129
 33
0.0
  0
MTEXT
  5
E2C
330
C49
100
AcDbEntity
  8
3
 62
     0
100
AcDbMText
 10
2.329755530207668
 20
2.526727832755129
 30
0.0
 40
0.0625
 41
0.0
 71
     5
 72
     1
  1
\A1;3/8
  7
SIMPLEX
 73
     1
 44
1.0
1001
ACAD
1000
MTEXTBEGIN
1070
    73
1070
     1
1070
    44
1040
1.0
1070
    74
1070
     0
1000
MTEXTEND
  0
POINT
  5
E2D
330
C49
100
AcDbEntity
  8
DEFPOINTS
 62
     0
100
AcDbPoint
 10
2.142255530207668
 20
2.306286533860856
 30
0.0
  0
POINT
  5
E2E
330
C49
100
AcDbEntity
  8
DEFPOINTS
 62
     0
100
AcDbPoint
 10
2.517255530207668
 20
2.201386533860856
 30
0.0
  0
POINT
  5
E2F
330
C49
100
AcDbEntity
  8
DEFPOINTS
 62
     0
100
AcDbPoint
 10
2.517255530207668
 20
2.526727832755129
 30
0.0
  0
ENDBLK
  5
D81
330
C49
100
AcDbEntity
  8
0
100
AcDbBlockEnd
  0
BLOCK
  5
E8D
330
E8C
100
AcDbEntity
  8
0
100
AcDbBlockBegin
  2
*D2
 70
     1
 10
0.0
 20
0.0
 30
0.0
  3
*D2
  1

  0
LINE
  5
E8F
330
E8C
100
AcDbEntity
  8
3
 62
     0
370
    -2
100
AcDbLine
 10
1.204755530207668
 20
2.087536533860856
 30
0.0
 11
1.204755530207668
 21
1.318533613105126
 31
0.0
  0
LINE
  5
E90
330
E8C
100
AcDbEntity
  8
3
 62
     0
370
    -2
100
AcDbLine
 10
2.517255530207668
 20
2.150036533860856
 30
0.0
 11
2.517255530207668
 21
1.318533613105126
 31
0.0
  0
LINE
  5
E91
330
E8C
100
AcDbEntity
  8
3
 62
     0
370
    -2
100
AcDbLine
 10
1.267255530207668
 20
1.349783613105126
 30
0.0
 11
1.658267434969571
 21
1.349783613105126
 31
0.0
  0
LINE
  5
E92
330
E8C
100
AcDbEntity
  8
3
 62
     0
370
    -2
100
AcDbLine
 10
2.454755530207668
 20
1.349783613105126
 30
0.0
 11
2.063743625445763
 21
1.349783613105126
 31
0.0
  0
SOLID
  5
E93
330
E8C
100
AcDbEntity
  8
3
 62
     0
100
AcDbTrace
 10
1.267255530207668
 20
1.360200279771794
 30
0.0
 11
1.267255530207668
 21
1.33936694643846
 31
0.0
 12
1.204755530207668
 22
1.349783613105126
 32
0.0
 13
1.204755530207668
 23
1.349783613105126
 33
0.0
  0
SOLID
  5
E94
330
E8C
100
AcDbEntity
  8
3
 62
     0
100
AcDbTrace
 10
2.454755530207668
 20
1.360200279771794
 30
0.0
 11
2.454755530207668
 21
1.33936694643846
 31
0.0
 12
2.517255530207668
 22
1.349783613105126
 32
0.0
 13
2.517255530207668
 23
1.349783613105126
 33
0.0
  0
MTEXT
  5
E95
330
E8C
100
AcDbEntity
  8
3
 62
     0
100
AcDbMText
 10
1.861005530207668
 20
1.349783613105126
 30
0.0
 40
0.0625
 41
0.0
 71
     5
 72
     1
  1
\A1;1 5/16
  7
SIMPLEX
 73
     1
 44
1.0
1001
ACAD
1000
MTEXTBEGIN
1070
    73
1070
     1
1070
    44
1040
1.0
1070
    74
1070
     0
1000
MTEXTEND
  0
POINT
  5
E96
330
E8C
100
AcDbEntity
  8
DEFPOINTS
 62
     0
100
AcDbPoint
 10
1.204755530207668
 20
2.118786533860856
 30
0.0
  0
POINT
  5
E97
330
E8C
100
AcDbEntity
  8
DEFPOINTS
 62
     0
100
AcDbPoint
 10
2.517255530207668
 20
2.181286533860856
 30
0.0
  0
POINT
  5
E98
330
E8C
100
AcDbEntity
  8
DEFPOINTS
 62
     0
100
AcDbPoint
 10
2.517255530207668
 20
1.349783613105126
 30
0.0
  0
ENDBLK
  5
E8E
330
E8C
100
AcDbEntity
  8
0
100
AcDbBlockEnd
  0
BLOCK
  5
E9B
330
E9A
100
AcDbEntity
  8
0
100
AcDbBlockBegin
  2
*D3
 70
     1
 10
0.0
 20
0.0
 30
0.0
  3
*D3
  1

  0
LINE
  5
E9D
330
E9A
100
AcDbEntity
  8
3
 62
     0
370
    -2
100
AcDbLine
 10
1.204755530207668
 20
2.087536533860856
 30
0.0
 11
1.204755530207668
 21
1.601262412936025
 31
0.0
  0
LINE
  5
E9E
330
E9A
100
AcDbEntity
  8
3
 62
     0
370
    -2
100
AcDbLine
 10
2.142255530207668
 20
1.868786533860856
 30
0.0
 11
2.142255530207668
 21
1.601262412936025
 31
0.0
  0
LINE
  5
E9F
330
E9A
100
AcDbEntity
  8
3
 62
     0
370
    -2
100
AcDbLine
 10
1.267255530207668
 20
1.632512412936025
 30
0.0
 11
1.499041244493382
 21
1.632512412936025
 31
0.0
  0
LINE
  5
EA0
330
E9A
100
AcDbEntity
  8
3
 62
     0
370
    -2
100
AcDbLine
 10
2.079755530207668
 20
1.632512412936025
 30
0.0
 11
1.847969815921953
 21
1.632512412936025
 31
0.0
  0
SOLID
  5
EA1
330
E9A
100
AcDbEntity
  8
3
 62
     0
100
AcDbTrace
 10
1.267255530207668
 20
1.642929079602692
 30
0.0
 11
1.267255530207668
 21
1.62209574626936
 31
0.0
 12
1.204755530207668
 22
1.632512412936025
 32
0.0
 13
1.204755530207668
 23
1.632512412936025
 33
0.0
  0
SOLID
  5
EA2
330
E9A
100
AcDbEntity
  8
3
 62
     0
100
AcDbTrace
 10
2.079755530207668
 20
1.642929079602692
 30
0.0
 11
2.079755530207668
 21
1.62209574626936
 31
0.0
 12
2.142255530207668
 22
1.632512412936025
 32
0.0
 13
2.142255530207668
 23
1.632512412936025
 33
0.0
  0
MTEXT
  5
EA3
330
E9A
100
AcDbEntity
  8
3
 62
     0
100
AcDbMText
 10
1.673505530207668
 20
1.632512412936025
 30
0.0
 40
0.0625
 41
0.0
 71
     5
 72
     1
  1
\A1;15/16
  7
SIMPLEX
 73
     1
 44
1.0
1001
ACAD
1000
MTEXTBEGIN
1070
    73
1070
     1
1070
    44
1040
1.0
1070
    74
1070
     0
1000
MTEXTEND
  0
POINT
  5
EA4
330
E9A
100
AcDbEntity
  8
DEFPOINTS
 62
     0
100
AcDbPoint
 10
1.204755530207668
 20
2.118786533860856
 30
0.0
  0
POINT
  5
EA5
330
E9A
100
AcDbEntity
  8
DEFPOINTS
 62
     0
100
AcDbPoint
 10
2.142255530207668
 20
1.900036533860856
 30
0.0
  0
POINT
  5
EA6
330
E9A
100
AcDbEntity
  8
DEFPOINTS
 62
     0
100
AcDbPoint
 10
2.142255530207668
 20
1.632512412936025
 30
0.0
  0
ENDBLK
  5
E9C
330
E9A
100
AcDbEntity
  8
0
100
AcDbBlockEnd
  0
BLOCK
  5
EA9
330
EA8
100
AcDbEntity
  8
0
100
AcDbBlockBegin
  2
*D4
 70
     1
 10
0.0
 20
0.0
 30
0.0
  3
*D4
  1

  0
LINE
  5
EAB
330
EA8
100
AcDbEntity
  8
3
 62
     0
370
    -2
100
AcDbLine
 10
2.912252977110814
 20
1.868786533860856
 30
0.0
 11
2.912252977110814
 21
1.601262412936025
 31
0.0
  0
LINE
  5
EAC
330
EA8
100
AcDbEntity
  8
3
 62
     0
370
    -2
100
AcDbLine
 10
3.224752977110814
 20
1.868786533860856
 30
0.0
 11
3.224752977110814
 21
1.601262412936025
 31
0.0
  0
LINE
  5
EAD
330
EA8
100
AcDbEntity
  8
3
 62
     0
370
    -2
100
AcDbLine
 10
2.849752977110814
 20
1.632512412936025
 30
0.0
 11
2.787252977110814
 21
1.632512412936025
 31
0.0
  0
LINE
  5
EAE
330
EA8
100
AcDbEntity
  8
3
 62
     0
370
    -2
100
AcDbLine
 10
3.287252977110814
 20
1.632512412936025
 30
0.0
 11
3.349752977110814
 21
1.632512412936025
 31
0.0
  0
SOLID
  5
EAF
330
EA8
100
AcDbEntity
  8
3
 62
     0
100
AcDbTrace
 10
2.849752977110814
 20
1.642929079602692
 30
0.0
 11
2.849752977110814
 21
1.62209574626936
 31
0.0
 12
2.912252977110814
 22
1.632512412936025
 32
0.0
 13
2.912252977110814
 23
1.632512412936025
 33
0.0
  0
SOLID
  5
EB0
330
EA8
100
AcDbEntity
  8
3
 62
     0
100
AcDbTrace
 10
3.287252977110814
 20
1.642929079602692
 30
0.0
 11
3.287252977110814
 21
1.62209574626936
 31
0.0
 12
3.224752977110814
 22
1.632512412936025
 32
0.0
 13
3.224752977110814
 23
1.632512412936025
 33
0.0
  0
MTEXT
  5
EB1
330
EA8
100
AcDbEntity
  8
3
 62
     0
100
AcDbMText
 10
3.068502977110814
 20
1.632512412936025
 30
0.0
 40
0.0625
 41
0.0
 71
     5
 72
     1
  1
\A1;5/16
  7
SIMPLEX
 73
     1
 44
1.0
1001
ACAD
1000
MTEXTBEGIN
1070
    73
1070
     1
1070
    44
1040
1.0
1070
    74
1070
     0
1000
MTEXTEND
  0
POINT
  5
EB2
330
EA8
100
AcDbEntity
  8
DEFPOINTS
 62
     0
100
AcDbPoint
 10
2.912252977110814
 20
1.900036533860856
 30
0.0
  0
POINT
  5
EB3
330
EA8
100
AcDbEntity
  8
DEFPOINTS
 62
     0
100
AcDbPoint
 10
3.224752977110814
 20
1.900036533860856
 30
0.0
  0
POINT
  5
EB4
330
EA8
100
AcDbEntity
  8
DEFPOINTS
 62
     0
100
AcDbPoint
 10
3.224752977110814
 20
1.632512412936025
 30
0.0
  0
ENDBLK
  5
EAA
330
EA8
100
AcDbEntity
  8
0
100
AcDbBlockEnd
  0
BLOCK
  5
EB7
330
EB6
100
AcDbEntity
  8
0
100
AcDbBlockBegin
  2
*D5
 70
     1
 10
0.0
 20
0.0
 30
0.0
  3
*D5
  1

  0
LINE
  5
EB9
330
EB6
100
AcDbEntity
  8
3
 62
     0
370
    -2
100
AcDbLine
 10
3.256002977110814
 20
1.900036533860856
 30
0.0
 11
3.91064367499204
 21
1.900036533860856
 31
0.0
  0
LINE
  5
EBA
330
EB6
100
AcDbEntity
  8
3
 62
     0
370
    -2
100
AcDbLine
 10
3.172302977110815
 20
2.493786533860856
 30
0.0
 11
3.91064367499204
 21
2.493786533860856
 31
0.0
  0
LINE
  5
EBB
330
EB6
100
AcDbEntity
  8
3
 62
     0
370
    -2
100
AcDbLine
 10
3.87939367499204
 20
1.962536533860856
 30
0.0
 11
3.87939367499204
 21
2.104292486241809
 31
0.0
  0
LINE
  5
EBC
330
EB6
100
AcDbEntity
  8
3
 62
     0
370
    -2
100
AcDbLine
 10
3.87939367499204
 20
2.431286533860856
 30
0.0
 11
3.87939367499204
 21
2.289530581479904
 31
0.0
  0
SOLID
  5
EBD
330
EB6
100
AcDbEntity
  8
3
 62
     0
100
AcDbTrace
 10
3.868977008325373
 20
1.962536533860856
 30
0.0
 11
3.889810341658707
 21
1.962536533860856
 31
0.0
 12
3.87939367499204
 22
1.900036533860856
 32
0.0
 13
3.87939367499204
 23
1.900036533860856
 33
0.0
  0
SOLID
  5
EBE
330
EB6
100
AcDbEntity
  8
3
 62
     0
100
AcDbTrace
 10
3.868977008325373
 20
2.431286533860856
 30
0.0
 11
3.889810341658707
 21
2.431286533860856
 31
0.0
 12
3.87939367499204
 22
2.493786533860856
 32
0.0
 13
3.87939367499204
 23
2.493786533860856
 33
0.0
  0
MTEXT
  5
EBF
330
EB6
100
AcDbEntity
  8
3
 62
     0
100
AcDbMText
 10
3.879393674992039
 20
2.196911533860858
 30
0.0
 40
0.0625
 41
0.0
 71
     5
 72
     1
  1
\A1;19/32
  7
SIMPLEX
 73
     1
 44
1.0
1001
ACAD
1000
MTEXTBEGIN
1070
    73
1070
     1
1070
    44
1040
1.0
1070
    74
1070
     0
1000
MTEXTEND
  0
POINT
  5
EC0
330
EB6
100
AcDbEntity
  8
DEFPOINTS
 62
     0
100
AcDbPoint
 10
3.224752977110814
 20
1.900036533860856
 30
0.0
  0
POINT
  5
EC1
330
EB6
100
AcDbEntity
  8
DEFPOINTS
 62
     0
100
AcDbPoint
 10
3.141052977110815
 20
2.493786533860856
 30
0.0
  0
POINT
  5
EC2
330
EB6
100
AcDbEntity
  8
DEFPOINTS
 62
     0
100
AcDbPoint
 10
3.87939367499204
 20
2.493786533860856
 30
0.0
  0
ENDBLK
  5
EB8
330
EB6
100
AcDbEntity
  8
0
100
AcDbBlockEnd
  0
BLOCK
  5
EC5
330
EC4
100
AcDbEntity
  8
0
100
AcDbBlockBegin
  2
*D6
 70
     1
 10
0.0
 20
0.0
 30
0.0
  3
*D6
  1

  0
LINE
  5
EC7
330
EC4
100
AcDbEntity
  8
3
 62
     0
370
    -2
100
AcDbLine
 10
3.256002977110814
 20
2.306286533860856
 30
0.0
 11
3.536905582897307
 21
2.306286533860856
 31
0.0
  0
LINE
  5
EC8
330
EC4
100
AcDbEntity
  8
3
 62
     0
370
    -2
100
AcDbLine
 10
3.256002977110813
 20
1.900036533860856
 30
0.0
 11
3.536905582897307
 21
1.900036533860856
 31
0.0
  0
LINE
  5
EC9
330
EC4
100
AcDbEntity
  8
3
 62
     0
370
    -2
100
AcDbLine
 10
3.505655582897307
 20
2.243786533860856
 30
0.0
 11
3.505655582897307
 21
2.195780581479904
 31
0.0
  0
LINE
  5
ECA
330
EC4
100
AcDbEntity
  8
3
 62
     0
370
    -2
100
AcDbLine
 10
3.505655582897307
 20
1.962536533860856
 30
0.0
 11
3.505655582897307
 21
2.010542486241809
 31
0.0
  0
SOLID
  5
ECB
330
EC4
100
AcDbEntity
  8
3
 62
     0
100
AcDbTrace
 10
3.495238916230641
 20
2.243786533860856
 30
0.0
 11
3.516072249563973
 21
2.243786533860856
 31
0.0
 12
3.505655582897307
 22
2.306286533860856
 32
0.0
 13
3.505655582897307
 23
2.306286533860856
 33
0.0
  0
SOLID
  5
ECC
330
EC4
100
AcDbEntity
  8
3
 62
     0
100
AcDbTrace
 10
3.495238916230641
 20
1.962536533860856
 30
0.0
 11
3.516072249563973
 21
1.962536533860856
 31
0.0
 12
3.505655582897307
 22
1.900036533860856
 32
0.0
 13
3.505655582897307
 23
1.900036533860856
 33
0.0
  0
MTEXT
  5
ECD
330
EC4
100
AcDbEntity
  8
3
 62
     0
100
AcDbMText
 10
3.505655582897306
 20
2.103161533860858
 30
0.0
 40
0.0625
 41
0.0
 71
     5
 72
     1
  1
\A1;13/32
  7
SIMPLEX
 73
     1
 44
1.0
1001
ACAD
1000
MTEXTBEGIN
1070
    73
1070
     1
1070
    44
1040
1.0
1070
    74
1070
     0
1000
MTEXTEND
  0
POINT
  5
ECE
330
EC4
100
AcDbEntity
  8
DEFPOINTS
 62
     0
100
AcDbPoint
 10
3.224752977110814
 20
2.306286533860856
 30
0.0
  0
POINT
  5
ECF
330
EC4
100
AcDbEntity
  8
DEFPOINTS
 62
     0
100
AcDbPoint
 10
3.224752977110813
 20
1.900036533860856
 30
0.0
  0
POINT
  5
ED0
330
EC4
100
AcDbEntity
  8
DEFPOINTS
 62
     0
100
AcDbPoint
 10
3.505655582897307
 20
1.900036533860856
 30
0.0
  0
ENDBLK
  5
EC6
330
EC4
100
AcDbEntity
  8
0
100
AcDbBlockEnd
  0
BLOCK
  5
ED3
330
ED2
100
AcDbEntity
  8
0
100
AcDbBlockBegin
  2
*D7
 70
     1
 10
0.0
 20
0.0
 30
0.0
  3
*D7
  1

  0
LINE
  5
ED5
330
ED2
100
AcDbEntity
  8
3
 62
     0
370
    -2
100
AcDbLine
 10
1.173505530207668
 20
3.003140029116281
 30
0.0
 11
0.9745865604134742
 21
3.003140029116281
 31
0.0
  0
LINE
  5
ED6
330
ED2
100
AcDbEntity
  8
3
 62
     0
370
    -2
100
AcDbLine
 10
1.173505530207668
 20
3.315640029116281
 30
0.0
 11
0.9745865604134744
 21
3.315640029116281
 31
0.0
  0
LINE
  5
ED7
330
ED2
100
AcDbEntity
  8
3
 62
     0
370
    -2
100
AcDbLine
 10
1.005836560413474
 20
3.065640029116281
 30
0.0
 11
1.005836560413474
 21
3.253140029116281
 31
0.0
  0
MTEXT
  5
ED8
330
ED2
100
AcDbEntity
  8
3
 62
     0
100
AcDbMText
 10
0.8568484651753786
 20
3.159390029116281
 30
0.0
 40
0.0625
 41
0.0
 71
     5
 72
     1
  1
\A1;5/16
  7
SIMPLEX
 73
     1
 44
1.0
1001
ACAD
1000
MTEXTBEGIN
1070
    73
1070
     1
1070
    44
1040
1.0
1070
    74
1070
     0
1000
MTEXTEND
  0
SOLID
  5
ED9
330
ED2
100
AcDbEntity
  8
3
 62
     0
100
AcDbTrace
 10
0.9954198937468076
 20
3.065640029116281
 30
0.0
 11
1.016253227080139
 21
3.065640029116281
 31
0.0
 12
1.005836560413474
 22
3.003140029116281
 32
0.0
 13
1.005836560413474
 23
3.003140029116281
 33
0.0
  0
SOLID
  5
EDA
330
ED2
100
AcDbEntity
  8
3
 62
     0
100
AcDbTrace
 10
0.9954198937468078
 20
3.253140029116281
 30
0.0
 11
1.016253227080139
 21
3.253140029116281
 31
0.0
 12
1.005836560413474
 22
3.315640029116281
 32
0.0
 13
1.005836560413474
 23
3.315640029116281
 33
0.0
  0
POINT
  5
EDB
330
ED2
100
AcDbEntity
  8
DEFPOINTS
 62
     0
100
AcDbPoint
 10
1.204755530207668
 20
3.003140029116281
 30
0.0
  0
POINT
  5
EDC
330
ED2
100
AcDbEntity
  8
DEFPOINTS
 62
     0
100
AcDbPoint
 10
1.204755530207668
 20
3.315640029116281
 30
0.0
  0
POINT
  5
EDD
330
ED2
100
AcDbEntity
  8
DEFPOINTS
 62
     0
100
AcDbPoint
 10
1.005836560413474
 20
3.315640029116281
 30
0.0
  0
ENDBLK
  5
ED4
330
ED2
100
AcDbEntity
  8
0
100
AcDbBlockEnd
  0
ENDSEC
  0
SECTION
  2
ENTITIES
  0
LINE
  5
C59
330
17
100
AcDbEntity
  8
0
100
AcDbLine
 10
2.515463770247667
 20
0.7907614910692598
 30
0.0
 11
3.023453708637739
 21
0.7907614910692598
 31
0.0
  0
LINE
  5
C5A
330
17
100
AcDbEntity
  8
0
100
AcDbLine
 10
2.515463770247667
 20
0.8493757147296443
 30
0.0
 11
3.023453708637739
 21
0.8493757147296443
 31
0.0
  0
TEXT
  5
C5B
330
17
100
AcDbEntity
  8
3
100
AcDbText
 10
2.530749094796046
 20
0.8085053807423868
 30
0.0
 40
0.0247685554963471
  1
DIMENSIONS ARE IN INCHES
 41
0.9163641132346473
  7
SIMPLEX
 72
     5
 11
3.007386418059825
 21
0.8085053807423868
 31
0.0
100
AcDbText
  0
TEXT
  5
C5C
330
17
100
AcDbEntity
  8
3
100
AcDbText
 10
2.530749094796046
 20
0.8686223556239712
 30
0.0
 40
0.0247685554963471
  1
UNLESS OTHERWISE SPECIFIED
 41
0.8436671689696863
  7
SIMPLEX
 72
     5
 11
3.007386418059825
 21
0.8686223556239712
 31
0.0
100
AcDbText
  0
LINE
  5
C5D
330
17
100
AcDbEntity
  8
0
100
AcDbLine
 10
2.515463770247667
 20
0.470365214478237
 30
0.0
 11
3.023453708637739
 21
0.470365214478237
 31
0.0
  0
LINE
  5
C5E
330
17
100
AcDbEntity
  8
0
100
AcDbLine
 10
2.515463770247667
 20
0.9080003499999783
 30
0.0
 11
5.087499999999998
 21
0.9080003499999783
 31
0.0
  0
LINE
  5
C61
330
17
100
AcDbEntity
  8
4
100
AcDbLine
 10
5.525
 20
-0.0000000000000007
 30
0.0
 11
0.0
 21
0.0
 31
0.0
  0
LINE
  5
C62
330
17
100
AcDbEntity
  8
4
100
AcDbLine
 10
5.087499999999998
 20
0.3999999999999994
 30
0.0
 11
0.4375000000000001
 21
0.4
 31
0.0
  0
LINE
  5
C63
330
17
100
AcDbEntity
  8
4
100
AcDbLine
 10
5.087499999999998
 20
3.849999999999998
 30
0.0
 11
0.4375000000000001
 21
3.849999999999998
 31
0.0
  0
LINE
  5
C64
330
17
100
AcDbEntity
  8
4
100
AcDbLine
 10
0.0
 20
0.0
 30
0.0
 11
0.0000000000000001
 21
4.249999999999999
 31
0.0
  0
LINE
  5
C65
330
17
100
AcDbEntity
  8
4
100
AcDbLine
 10
0.4375000000000001
 20
0.3999999999999999
 30
0.0
 11
0.4375000000000001
 21
3.849999999999998
 31
0.0
  0
LINE
  5
C6A
330
17
100
AcDbEntity
  8
3
100
AcDbLine
 10
0.4997541236310516
 20
0.9859375
 30
0.0
 11
0.4375000000000001
 21
0.9859375
 31
0.0
  0
TEXT
  5
C6B
330
17
100
AcDbEntity
  8
2
100
AcDbText
 10
0.451562683102331
 20
1.32725451580751
 30
0.0
 40
0.039
  1
4
  7
SIMPLEX
 72
     1
 11
0.4654912545309024
 21
1.32725451580751
 31
0.0
100
AcDbText
  0
LINE
  5
C6C
330
17
100
AcDbEntity
  8
3
100
AcDbLine
 10
0.4997541236310516
 20
1.701953125
 30
0.0
 11
0.4375000000000001
 21
1.701953125
 31
0.0
  0
TEXT
  5
C6D
330
17
100
AcDbEntity
  8
2
100
AcDbText
 10
0.4524912545309016
 20
2.015287115886783
 30
0.0
 40
0.039
  1
3
  7
SIMPLEX
 72
     1
 11
0.4654912545309016
 21
2.015287115886783
 31
0.0
100
AcDbText
  0
LINE
  5
C6E
330
17
100
AcDbEntity
  8
4
100
AcDbLine
 10
2.515463770247667
 20
0.9080003499999783
 30
0.0
 11
2.515463770247667
 21
0.3999999999999781
 31
0.0
  0
TEXT
  5
C7A
330
17
100
AcDbEntity
  8
3
100
AcDbText
 10
2.603645037256163
 20
0.4837903071869251
 30
0.0
 40
0.0309098445084086
  1
HOLES %%P .005
  7
SIMPLEX
 72
     1
 11
2.771441336016095
 21
0.4837903071869251
 31
0.0
100
AcDbText
  0
TEXT
  5
C7B
330
17
100
AcDbEntity
  8
3
100
AcDbText
 10
2.648975444724134
 20
0.4390075042868843
 30
0.0
 40
0.0210186942657178
  1
DO NOT SCALE
  7
SIMPLEX
 72
     1
 11
2.767080488693406
 21
0.4390075042868843
 31
0.0
100
AcDbText
  0
TEXT
  5
C7C
330
17
100
AcDbEntity
  8
3
100
AcDbText
 10
2.630959421067805
 20
0.4090610619738455
 30
0.0
 40
0.0210186942657178
  1
READ ALL NOTES
  7
SIMPLEX
 72
     1
 11
2.767080488693406
 21
0.4090610619738455
 31
0.0
100
AcDbText
  0
TEXT
  5
C7D
330
17
100
AcDbEntity
  8
3
100
AcDbText
 10
2.627931343655627
 20
0.7437735996279118
 30
0.0
 40
0.0309098445084086
  1
TOLERANCES
  7
SIMPLEX
 72
     1
 11
2.771441336016095
 21
0.7437735996279118
 31
0.0
100
AcDbText
  0
TEXT
  5
C7E
330
17
100
AcDbEntity
  8
3
100
AcDbText
 10
2.643386265909831
 20
0.6957435266731649
 30
0.0
 40
0.0309098445084086
  1
.XX %%P .010
  7
SIMPLEX
 72
     1
 11
2.771441336016095
 21
0.6957435266731649
 31
0.0
100
AcDbText
  0
TEXT
  5
C7F
330
17
100
AcDbEntity
  8
3
100
AcDbText
 10
2.607324780650021
 20
0.6427552218015995
 30
0.0
 40
0.0309098445084086
  1
.XXX %%P .005 
  7
SIMPLEX
 72
     1
 11
2.771441336016095
 21
0.6427552218015995
 31
0.0
100
AcDbText
  0
TEXT
  5
C80
330
17
100
AcDbEntity
  8
3
100
AcDbText
 10
2.589662012359501
 20
0.5367786120584901
 30
0.0
 40
0.0309098445084086
  1
ANGLES %%P 1/2%%D
  7
SIMPLEX
 72
     1
 11
2.771441336016095
 21
0.5367786120584901
 31
0.0
100
AcDbText
  0
TEXT
  5
C81
330
17
100
AcDbEntity
  8
3
100
AcDbText
 10
2.544769142954432
 20
0.5897669169300555
 30
0.0
 40
0.0309098445084086
  1
FRACTIONS %%P 1/32
  7
SIMPLEX
 72
     1
 11
2.771441336016095
 21
0.5897669169300555
 31
0.0
100
AcDbText
  0
LINE
  5
C84
330
17
100
AcDbEntity
  8
3
100
AcDbLine
 10
0.4997541236310516
 20
2.41796875
 30
0.0
 11
0.4375000000000001
 21
2.41796875
 31
0.0
  0
TEXT
  5
C85
330
17
100
AcDbEntity
  8
2
100
AcDbText
 10
0.457784802821876
 20
2.728760659287496
 30
0.0
 40
0.039
  1
2
  7
SIMPLEX
 72
     1
 11
0.470784802821876
 21
2.728760659287496
 31
0.0
100
AcDbText
  0
LINE
  5
C86
330
17
100
AcDbEntity
  8
3
100
AcDbLine
 10
0.4997541236310516
 20
3.133984374999998
 30
0.0
 11
0.4375000000000001
 21
3.133984374999998
 31
0.0
  0
TEXT
  5
C87
330
17
100
AcDbEntity
  8
2
100
AcDbText
 10
0.4608483973880454
 20
3.448040936982698
 30
0.0
 40
0.039
  1
1
  7
SIMPLEX
 72
     1
 11
0.4654912545309024
 21
3.448040936982698
 31
0.0
100
AcDbText
  0
TEXT
  5
C88
330
17
100
AcDbEntity
  8
2
100
AcDbText
 10
0.9233020597463571
 20
3.786279509760205
 30
0.0
 40
0.039
  1
A
  7
SIMPLEX
 72
     1
 11
0.9381592026035001
 21
3.786279509760205
 31
0.0
100
AcDbText
  0
LINE
  5
C89
330
17
100
AcDbEntity
  8
3
100
AcDbLine
 10
1.316009878505441
 20
3.787563112303041
 30
0.0
 11
1.316009878505441
 21
3.85
 31
0.0
  0
TEXT
  5
C8A
330
17
100
AcDbEntity
  8
2
100
AcDbText
 10
1.684820131100889
 20
3.786279509760205
 30
0.0
 40
0.039
  1
B
  7
SIMPLEX
 72
     1
 11
1.697820131100889
 21
3.786279509760205
 31
0.0
100
AcDbText
  0
LINE
  5
C8B
330
17
100
AcDbEntity
  8
3
100
AcDbLine
 10
2.070307902804351
 20
3.787563112303041
 30
0.0
 11
2.070307902804351
 21
3.85
 31
0.0
  0
TEXT
  5
C8C
330
17
100
AcDbEntity
  8
2
100
AcDbText
 10
2.421691742025896
 20
3.786279509760205
 30
0.0
 40
0.039
  1
C
  7
SIMPLEX
 72
     1
 11
2.435620313454468
 21
3.786279509760205
 31
0.0
100
AcDbText
  0
LINE
  5
C8D
330
17
100
AcDbEntity
  8
3
100
AcDbLine
 10
2.824605927103263
 20
3.787563112303041
 30
0.0
 11
2.824605927103263
 21
3.85
 31
0.0
  0
LINE
  5
C8E
330
17
100
AcDbEntity
  8
4
100
AcDbLine
 10
5.524999999999997
 20
4.25
 30
0.0
 11
5.525
 21
-0.0000000000000007
 31
0.0
  0
LINE
  5
C8F
330
17
100
AcDbEntity
  8
4
100
AcDbLine
 10
5.087499999999998
 20
3.849999999999998
 30
0.0
 11
5.0875
 21
0.4000000000000003
 31
0.0
  0
TEXT
  5
C90
330
17
100
AcDbEntity
  8
4
100
AcDbText
 10
4.692893459569394
 20
0.7886849639948839
 30
0.0
 40
0.047
  1
inc., erie, pa.
  7
T
100
AcDbText
  0
TEXT
  5
C91
330
17
100
AcDbEntity
  8
3
100
AcDbText
 10
4.802472048449138
 20
0.5780697219512656
 30
0.0
 40
0.0195380745534632
  1
SCALE:
  7
SIMPLEX
100
AcDbText
  0
TEXT
  5
C92
330
17
100
AcDbEntity
  8
3
100
AcDbText
 10
4.546820372105103
 20
0.4294761699672533
 30
0.0
 40
0.0437652869997576
  1
220.23
  7
SIMPLEX
 72
     1
 11
4.655191558961646
 21
0.4294761699672533
 31
0.0
100
AcDbText
  0
LINE
  5
C93
330
17
100
AcDbEntity
  8
0
100
AcDbLine
 10
4.386742347626951
 20
0.544418568244936
 30
0.0
 11
5.0875
 21
0.544418568244936
 31
0.0
  0
LINE
  5
C94
330
17
100
AcDbEntity
  8
0
100
AcDbLine
 10
3.023453708637718
 20
0.7534255236954444
 30
0.0
 11
5.0875
 21
0.7534255236954444
 31
0.0
  0
LINE
  5
C95
330
17
100
AcDbEntity
  8
0
100
AcDbLine
 10
3.023453708637718
 20
0.6344568946415388
 30
0.0
 11
5.0875
 21
0.6344568946415388
 31
0.0
  0
LWPOLYLINE
  5
C96
330
17
100
AcDbEntity
  8
4
  6
Continuous
 62
     4
100
AcDbPolyline
 90
      205
 70
     0
 43
0.0
 10
4.656789889684825
 20
0.8557195830449487
 10
4.654837388665996
 20
0.8577443989163207
 10
4.652740257942038
 20
0.8595522702300595
 10
4.650353867807923
 20
0.8611431969861435
 10
4.647822847968675
 20
0.8625894940371383
 10
4.645147198424362
 20
0.8637465316779342
 10
4.64239923402746
 20
0.8646866247610759
 10
4.639506639925492
 20
0.8654097732865629
 10
4.636541730970979
 20
0.865915977254416
 10
4.6335045071639
 20
0.8661329218120712
 10
4.63046728335682
 20
0.8662052366646156
 10
4.627430059549743
 20
0.8660606069595267
 10
4.624392835742662
 20
0.8656267178442176
 10
4.621427926788126
 20
0.8649758841712751
 10
4.618535332686136
 20
0.8641081059406779
 10
4.615787368289278
 20
0.8630233831524476
 10
4.613111718744923
 20
0.8617217158065413
 10
4.61108690287355
 20
0.8604923633132004
 10
4.609206716707268
 20
0.8591183811147713
 10
4.607398845393528
 20
0.8576720840637761
 10
4.60573560378488
 20
0.8560811573076922
 10
4.604144677028817
 20
0.8543456008464982
 10
4.602698379977799
 20
0.8524654146802156
 10
4.601324397779372
 20
0.8505852285139321
 10
4.600167360138575
 20
0.8485604126425393
 10
4.599082637350345
 20
0.8464632819186018
 10
4.598142544267203
 20
0.8442938363421195
 10
4.597419395741716
 20
0.8421243907656377
 10
4.596840876921318
 20
0.8398826303366108
 10
4.596406987806006
 20
0.8375685550550189
 10
4.596117728395808
 20
0.8352544797734481
 10
4.596045413543264
 20
0.8329404044918561
 10
4.596190043248376
 20
0.8306263292102853
 10
4.596262358100918
 20
0.8293969767169445
 10
4.596406987806006
 20
0.8282399390761487
 10
4.596551617511098
 20
0.8270105865828082
 10
4.596840876921318
 20
0.8258535489420122
 10
4.597274766036605
 20
0.8247688261537607
 10
4.597780970004438
 20
0.8237564182180745
 10
4.59857643338249
 20
0.8229609548400221
 10
4.599516526465633
 20
0.8223824360196454
 10
4.599950415580941
 20
0.8221654914619907
 10
4.600384304696228
 20
0.82202086175688
 10
4.600890508664083
 20
0.82202086175688
 10
4.601324397779372
 20
0.82202086175688
 10
4.601830601747224
 20
0.82202086175688
 10
4.602336805715077
 20
0.8220931766094462
 10
4.602915324535476
 20
0.8222378063145349
 10
4.603566158208416
 20
0.8223101211670794
 10
4.625043669415605
 20
0.826070493499667
 10
4.625983762498748
 20
0.8262151232047557
 10
4.626996170434431
 20
0.8262874380572997
 10
4.627936263517595
 20
0.8264320677624104
 10
4.628948671453259
 20
0.8264320677624104
 10
4.629888764536421
 20
0.8265043826149547
 10
4.630901172472108
 20
0.8265043826149547
 10
4.631841265555252
 20
0.8264320677624104
 10
4.632853673490958
 20
0.8263597529098657
 10
4.633793766574076
 20
0.8262874380572997
 10
4.634806174509785
 20
0.8261428083522112
 10
4.635746267592925
 20
0.8259981786471009
 10
4.636686360676065
 20
0.8257812340894673
 10
4.637626453759209
 20
0.8255642895318132
 10
4.63856654684235
 20
0.8253473449741584
 10
4.639506639925492
 20
0.8250580855639594
 10
4.640374418156089
 20
0.8246965113012159
 10
4.642543863732591
 20
0.8235394736604199
 10
4.644351735046309
 20
0.8219485469043359
 10
4.645653402392215
 20
0.8200683607380533
 10
4.646593495475335
 20
0.8178989151615713
 10
4.647099699443191
 20
0.8156571547325448
 10
4.647172014295735
 20
0.8132707645984083
 10
4.646882754885556
 20
0.8108843744642717
 10
4.646159606360048
 20
0.8084979843301345
 10
4.64543645783454
 20
0.8069793724265954
 10
4.644640994456509
 20
0.8055330753756003
 10
4.643628586520803
 20
0.8042314080297153
 10
4.642543863732591
 20
0.8030020555363748
 10
4.641386826091798
 20
0.8018450178955788
 10
4.640085158745891
 20
0.8008326099598928
 10
4.638638861694896
 20
0.7999648317292958
 10
4.63719256464392
 20
0.7991693683512647
 10
4.63567395274038
 20
0.7985185346783008
 10
4.634155340836842
 20
0.7980846455630131
 10
4.632492099228191
 20
0.7977230713002697
 10
4.630901172472108
 20
0.7975061267426149
 10
4.629310245716025
 20
0.7974338118900706
 10
4.627647004107375
 20
0.7975784415951594
 10
4.62605607735129
 20
0.7978677010053583
 10
4.624465150595206
 20
0.7983739049732117
 10
4.623163483249321
 20
0.798880108941066
 10
4.621934130755983
 20
0.7994586277614424
 10
4.620704778262641
 20
0.8000371465818405
 10
4.619547740621844
 20
0.8007602951073485
 10
4.618390702981049
 20
0.8014834436328355
 10
4.617305980192798
 20
0.8022789070108878
 10
4.616293572257132
 20
0.8031466852414851
 10
4.61520884946888
 20
0.8040867783246261
 10
4.614268756385716
 20
0.8050268714077677
 10
4.613328663302598
 20
0.8059669644909096
 10
4.612388570219434
 20
0.8069793724265954
 10
4.61152079198886
 20
0.8080640952148471
 10
4.61065301375824
 20
0.8091488180030776
 10
4.609857550380209
 20
0.8102335407913292
 10
4.609062087002181
 20
0.8113182635795595
 10
4.608338938476672
 20
0.8124753012203552
 10
4.591128003569903
 20
0.8040867783246261
 10
4.592501985768333
 20
0.8018450178955788
 10
4.594092912524418
 20
0.7997478871716415
 10
4.59582846898561
 20
0.797795386152814
 10
4.597708655151893
 20
0.7960598296916201
 10
4.599733471023288
 20
0.7943965880829916
 10
4.601902916599771
 20
0.7929502910319966
 10
4.604216991881362
 20
0.7916486236861116
 10
4.606531067162931
 20
0.7905639008978599
 10
4.608989772149633
 20
0.7896238078147185
 10
4.61152079198886
 20
0.7888283444366869
 10
4.614124126680629
 20
0.7882498256162891
 10
4.6167274613724
 20
0.7878882513535457
 10
4.61933079606419
 20
0.787671306795891
 10
4.621934130755983
 20
0.787671306795891
 10
4.624537465447753
 20
0.7878159365009796
 10
4.627140800139521
 20
0.7882498256162891
 10
4.629744134831334
 20
0.7888283444366869
 10
4.632275154670559
 20
0.7896961226672628
 10
4.634661544804696
 20
0.79070853060297
 10
4.637047934938811
 20
0.7919378830963102
 10
4.639289695367836
 20
0.7933841801473056
 10
4.64145914094434
 20
0.7949751069033897
 10
4.643411641963167
 20
0.796710663364562
 10
4.645291828129451
 20
0.7985908495308665
 10
4.647027384590644
 20
0.8006156654022383
 10
4.648545996494184
 20
0.8027851109787198
 10
4.649919978692636
 20
0.8050268714077677
 10
4.651149331185954
 20
0.8074132615419046
 10
4.652089424269096
 20
0.8098719665285859
 10
4.652884887647148
 20
0.8124029863678108
 10
4.653463406467547
 20
0.8150063210595808
 10
4.653752665877746
 20
0.8176096557513719
 10
4.653897295582835
 20
0.8196344716227653
 10
4.65382498073029
 20
0.8216592874941369
 10
4.653608036172657
 20
0.8236841033655304
 10
4.65324646190989
 20
0.8256366043843579
 10
4.652667943089495
 20
0.8275891054032067
 10
4.651944794564006
 20
0.8294692915694895
 10
4.65107701633341
 20
0.8312771628832273
 10
4.64999229354518
 20
0.8330127193444006
 10
4.649124515314562
 20
0.8340974421326521
 10
4.648184422231441
 20
0.8351821649208828
 10
4.647172014295735
 20
0.836122258004045
 10
4.646087291507504
 20
0.8369177213820769
 10
4.644857939014141
 20
0.8377131847601294
 10
4.643628586520803
 20
0.838436333285616
 10
4.642326919174918
 20
0.8390148521060144
 10
4.641025251829031
 20
0.839593370926412
 10
4.639651269630601
 20
0.8400272600416997
 10
4.638277287432151
 20
0.8404611491570094
 10
4.636830990381158
 20
0.8408227234197527
 10
4.635384693330181
 20
0.8411119828299518
 10
4.633938396279186
 20
0.8413289273876063
 10
4.632492099228191
 20
0.8414735570926952
 10
4.631045802177219
 20
0.8416181867977837
 10
4.629671819978768
 20
0.8416905016503497
 10
4.62880404174817
 20
0.8416905016503497
 10
4.627863948665029
 20
0.8416905016503497
 10
4.626996170434431
 20
0.8416905016503497
 10
4.626128392203858
 20
0.8416181867977837
 10
4.625260613973241
 20
0.8415458719452395
 10
4.624392835742662
 20
0.8414735570926952
 10
4.623525057512066
 20
0.8414012422401507
 10
4.622657279281469
 20
0.8412566125350405
 10
4.621717186198328
 20
0.8411119828299518
 10
4.62084940796773
 20
0.8409673531248412
 10
4.619981629737133
 20
0.8408227234197527
 10
4.619113851506535
 20
0.8407504085672082
 10
4.61824607327596
 20
0.840605778862098
 10
4.617378295045361
 20
0.8404611491570094
 10
4.616438201962222
 20
0.8403165194518994
 10
4.615570423731624
 20
0.8401718897468102
 10
4.602626065125255
 20
0.8369900362346211
 10
4.602409120567623
 20
0.8382193887279614
 10
4.60255375027271
 20
0.8400995748942657
 10
4.602987639388021
 20
0.8424136501758368
 10
4.603855417618596
 20
0.8450169848676274
 10
4.604940140406846
 20
0.8476203195593976
 10
4.606386437457842
 20
0.8500790245460787
 10
4.608121993919017
 20
0.8521038404174721
 10
4.610074494937864
 20
0.8536224523210114
 10
4.611810051399038
 20
0.8544179156990423
 10
4.613617922712776
 20
0.8550687493720062
 10
4.615498108879058
 20
0.8554303236347497
 10
4.617450609897908
 20
0.8557195830449487
 10
4.619403110916757
 20
0.8557918978974932
 10
4.621427926788126
 20
0.8556472681923832
 10
4.623380427806957
 20
0.8554303236347497
 10
4.625332928825804
 20
0.8549964345194407
 10
4.627285429844632
 20
0.8544179156990423
 10
4.62909330115837
 20
0.8536947671735557
 10
4.630828857619543
 20
0.8528269889429589
 10
4.632492099228191
 20
0.8518868958598172
 10
4.634010711131731
 20
0.8508021730715871
 10
4.635457008182726
 20
0.8495728205782462
 10
4.636686360676065
 20
0.8482711532323401
 10
4.637698768611773
 20
0.846897171033911
 10
4.656789889684825
 20
0.8557195830449487
  0
LWPOLYLINE
  5
C97
330
17
100
AcDbEntity
  8
4
  6
Continuous
100
AcDbPolyline
 90
       21
 70
     0
 43
0.0
 10
4.456892716839432
 20
0.8489219869052826
 10
4.456675772281757
 20
0.8466802264762558
 10
4.456024938608813
 20
0.844583095752319
 10
4.455012530673127
 20
0.8427752244385802
 10
4.453638548474676
 20
0.841184297682496
 10
4.451975306866071
 20
0.8398826303366108
 10
4.450095120699766
 20
0.8389425372534699
 10
4.448070304828373
 20
0.8383640184330714
 10
4.445900859251912
 20
0.8381470738754169
 10
4.431365573889459
 20
0.8381470738754169
 10
4.431365573889459
 20
0.8567319909806347
 10
4.4298469619859
 20
0.8602754187555675
 10
4.446117803809545
 20
0.8602754187555675
 10
4.448359564238592
 20
0.860058474197913
 10
4.450384380109965
 20
0.8594076405249705
 10
4.452192251423702
 20
0.8583952325892632
 10
4.453783178179809
 20
0.8570212503908336
 10
4.455084845525695
 20
0.8552856939296397
 10
4.456024938608813
 20
0.8534055077633567
 10
4.456675772281757
 20
0.8512360621868747
 10
4.456892716839432
 20
0.8489219869052826
  0
LWPOLYLINE
  5
C98
330
17
100
AcDbEntity
  8
4
  6
Continuous
100
AcDbPolyline
 90
       61
 70
     0
 43
0.0
 10
4.457254291102156
 20
0.8325788302291128
 10
4.459351421826113
 20
0.832723459934202
 10
4.461376237697486
 20
0.8330127193444006
 10
4.463184109011224
 20
0.8334466084597098
 10
4.464847350619851
 20
0.8340251272801078
 10
4.466293647670847
 20
0.8347482758055948
 10
4.467667629869277
 20
0.8355437391836474
 10
4.468896982362617
 20
0.8364838322667884
 10
4.469981705150869
 20
0.8375685550550189
 10
4.470921798234032
 20
0.838725592695815
 10
4.471717261612063
 20
0.8399549451891559
 10
4.472368095285006
 20
0.8412566125350405
 10
4.472874299252858
 20
0.8427029095860357
 10
4.473308188368146
 20
0.8441492066370306
 10
4.473597447778346
 20
0.8456678185405699
 10
4.473742077483433
 20
0.8472587452966543
 10
4.473814392335999
 20
0.8489219869052826
 10
4.473742077483433
 20
0.8504405988088219
 10
4.473452818073258
 20
0.8519592107123617
 10
4.473091243810491
 20
0.8534055077633567
 10
4.472512724990096
 20
0.854851804814352
 10
4.471861891317152
 20
0.8562257870127814
 10
4.470994113086574
 20
0.8575274543586877
 10
4.470126334855958
 20
0.858756806852028
 10
4.469041612067726
 20
0.859913844492803
 10
4.467956889279497
 20
0.8609262524285099
 10
4.466727536786154
 20
0.8618663455116513
 10
4.465425869440271
 20
0.862661808889683
 10
4.46405188724182
 20
0.8633849574151909
 10
4.462677905043371
 20
0.8639634762355886
 10
4.461231607992396
 20
0.8643250504983321
 10
4.459712996088834
 20
0.8646143099085318
 10
4.458194384185317
 20
0.8646866247610759
 10
4.407501672548137
 20
0.8646866247610759
 10
4.408224821073623
 20
0.8641081059406779
 10
4.408875654746566
 20
0.8635295871202796
 10
4.409526488419508
 20
0.8628787534473371
 10
4.410105007239907
 20
0.8623002346269393
 10
4.410683526060306
 20
0.8617217158065413
 10
4.411262044880701
 20
0.8609985672810545
 10
4.411768248848557
 20
0.8602754187555675
 10
4.412274452816387
 20
0.8594076405249705
 10
4.412997601341897
 20
0.8578167137688863
 10
4.413576120162295
 20
0.8559365276025822
 10
4.413937694425016
 20
0.8541286562888434
 10
4.414082324130126
 20
0.8526823592378697
 10
4.414154638982691
 20
0.787671306795891
 10
4.431582518447092
 20
0.8029297406838303
 10
4.431582518447092
 20
0.8330850341969664
 10
4.439247892817356
 20
0.8331573490495106
 10
4.465353554587704
 20
0.7899130672249175
 10
4.487843473730578
 20
0.789768437519829
 10
4.486469491532148
 20
0.7905639008978599
 10
4.485095509333718
 20
0.7915039939810016
 10
4.483793841987833
 20
0.7924440870641642
 10
4.482564489494493
 20
0.7935288098523943
 10
4.481335137001153
 20
0.7945412177880802
 10
4.480178099360357
 20
0.7956982554288765
 10
4.479021061719561
 20
0.7968552930696724
 10
4.477864024078765
 20
0.7980846455630131
 10
4.457254291102156
 20
0.8325788302291128
  0
LWPOLYLINE
  5
C99
330
17
100
AcDbEntity
  8
4
  6
Continuous
100
AcDbPolyline
 90
      205
 70
     0
 43
0.0
 10
4.325728170742718
 20
0.8562257870127814
 10
4.32377566972389
 20
0.8582506028841745
 10
4.321678538999951
 20
0.8601307890504571
 10
4.319292148865816
 20
0.8617217158065413
 10
4.31676112902659
 20
0.8630956980049917
 10
4.314085479482256
 20
0.8642527356457883
 10
4.311337515085376
 20
0.8651928287289294
 10
4.308372606130863
 20
0.865915977254416
 10
4.305407697176328
 20
0.8664221812222701
 10
4.302442788221791
 20
0.8667114406324692
 10
4.299405564414714
 20
0.8667837554850134
 10
4.296296025755092
 20
0.8665668109273585
 10
4.293331116800557
 20
0.8662052366646156
 10
4.290366207846021
 20
0.8655544029916729
 10
4.287473613744053
 20
0.8646866247610759
 10
4.284725649347175
 20
0.8635295871202796
 10
4.282049999802858
 20
0.8622279197743946
 10
4.280025183931443
 20
0.8609985672810545
 10
4.278144997765162
 20
0.8596968999351695
 10
4.276337126451423
 20
0.8581782880316302
 10
4.274673884842793
 20
0.8565873612755458
 10
4.27308295808671
 20
0.854851804814352
 10
4.271636661035739
 20
0.8530439335006132
 10
4.27033499368983
 20
0.8510914324817861
 10
4.269105641196488
 20
0.8490666166103931
 10
4.268093233260803
 20
0.8470418007389993
 10
4.267153140177642
 20
0.8448723551625175
 10
4.266429991652153
 20
0.8426305947334913
 10
4.265851472831754
 20
0.8403888343044647
 10
4.265417583716468
 20
0.8381470738754169
 10
4.265200639158813
 20
0.8358329985938466
 10
4.265056009453726
 20
0.8334466084597098
 10
4.265200639158813
 20
0.8311325331781173
 10
4.265272954011358
 20
0.8299754955373215
 10
4.265417583716468
 20
0.8287461430439806
 10
4.265562213421578
 20
0.8275891054032067
 10
4.265851472831754
 20
0.8264320677624104
 10
4.266213047094522
 20
0.8253473449741584
 10
4.266791565914918
 20
0.8243349370384724
 10
4.267514714440406
 20
0.8235394736604199
 10
4.268454807523548
 20
0.8229609548400221
 10
4.268888696638835
 20
0.8227440102823887
 10
4.269322585754143
 20
0.8225993805772784
 10
4.269828789721998
 20
0.8225270657247341
 10
4.270262678837263
 20
0.8225270657247341
 10
4.27076888280512
 20
0.8225993805772784
 10
4.271275086772972
 20
0.8225993805772784
 10
4.271781290740826
 20
0.8227440102823887
 10
4.272432124413768
 20
0.8228163251349332
 10
4.293909635620953
 20
0.826576697467499
 10
4.294849728704118
 20
0.8267213271726088
 10
4.295862136639783
 20
0.8268659568776982
 10
4.296802229722946
 20
0.8269382717302422
 10
4.297814637658631
 20
0.8270105865828082
 10
4.298754730741771
 20
0.8270105865828082
 10
4.299767138677478
 20
0.8270105865828082
 10
4.3007072317606
 20
0.8270105865828082
 10
4.301719639696305
 20
0.8269382717302422
 10
4.302659732779428
 20
0.8268659568776982
 10
4.303672140715136
 20
0.8267213271726088
 10
4.304612233798274
 20
0.826576697467499
 10
4.305552326881418
 20
0.8263597529098657
 10
4.306564734817126
 20
0.8261428083522112
 10
4.307504827900264
 20
0.8258535489420122
 10
4.308372606130863
 20
0.8255642895318132
 10
4.309312699213982
 20
0.8252027152690697
 10
4.311482144790486
 20
0.8240456776282734
 10
4.313217701251681
 20
0.8224547508721895
 10
4.314591683450109
 20
0.8205745647059066
 10
4.315459461680687
 20
0.8184774339819691
 10
4.315965665648541
 20
0.816163358700377
 10
4.31611029535365
 20
0.8137769685662401
 10
4.315821035943451
 20
0.8113905784321254
 10
4.315097887417963
 20
0.8090765031505329
 10
4.314374738892476
 20
0.8075578912469936
 10
4.313579275514404
 20
0.8061115941959986
 10
4.312566867578738
 20
0.8048099268501136
 10
4.311482144790486
 20
0.8035805743567728
 10
4.310252792297147
 20
0.8024235367159771
 10
4.308951124951262
 20
0.801411128780291
 10
4.307577142752809
 20
0.8005433505496938
 10
4.306130845701814
 20
0.7997478871716415
 10
4.304612233798274
 20
0.7990970534986991
 10
4.303021307042191
 20
0.7985908495308665
 10
4.301430380286107
 20
0.7982292752681019
 10
4.299839453530023
 20
0.7980846455630131
 10
4.298176211921373
 20
0.7980123307104683
 10
4.296512970312723
 20
0.7981569604155574
 10
4.294922043556661
 20
0.7984462198257565
 10
4.293331116800557
 20
0.798880108941066
 10
4.292029449454673
 20
0.7993863129088977
 10
4.290800096961332
 20
0.7999648317292958
 10
4.289643059320535
 20
0.8005433505496938
 10
4.288486021679736
 20
0.8012664990751808
 10
4.287328984038963
 20
0.8019896476006888
 10
4.286244261250712
 20
0.8028574258312859
 10
4.285159538462482
 20
0.8036528892093175
 10
4.284147130526775
 20
0.8045929822924588
 10
4.283207037443633
 20
0.8055330753756003
 10
4.282194629507948
 20
0.806545483311307
 10
4.281326851277349
 20
0.8075578912469936
 10
4.280459073046753
 20
0.8085702991826796
 10
4.27959129481618
 20
0.8096550219709307
 10
4.278795831438126
 20
0.810812059611727
 10
4.278000368060073
 20
0.8118967823999575
 10
4.277277219534584
 20
0.8130538200407535
 10
4.260138599480361
 20
0.8045929822924588
 10
4.261512581678792
 20
0.8023512218634323
 10
4.263103508434897
 20
0.800326405992039
 10
4.264839064896068
 20
0.7983739049732117
 10
4.266719251062353
 20
0.7965660336594738
 10
4.268744066933747
 20
0.7949751069033897
 10
4.270913512510229
 20
0.7935288098523943
 10
4.273155272939254
 20
0.7922271425065098
 10
4.275541663073392
 20
0.7911424197182578
 10
4.278000368060073
 20
0.7902023266351163
 10
4.280459073046753
 20
0.789406863257085
 10
4.283062407738523
 20
0.7888283444366869
 10
4.285665742430313
 20
0.7883944553213778
 10
4.288269077122104
 20
0.7881775107637448
 10
4.290872411813874
 20
0.7881775107637448
 10
4.293475746505666
 20
0.7883944553213778
 10
4.296079081197436
 20
0.7887560295841212
 10
4.298682415889228
 20
0.789406863257085
 10
4.301213435728453
 20
0.7902023266351163
 10
4.303599825862589
 20
0.7912147345708234
 10
4.305986215996727
 20
0.7925164019167084
 10
4.308227976425752
 20
0.7938903841151377
 10
4.310325107149692
 20
0.7954813108712218
 10
4.31234992302106
 20
0.7972168673324159
 10
4.314230109187367
 20
0.7991693683512647
 10
4.315893350795994
 20
0.8011941842226363
 10
4.317484277552099
 20
0.8032913149465738
 10
4.318858259750529
 20
0.8056053902281661
 10
4.320015297391325
 20
0.8079917803622812
 10
4.32102770532701
 20
0.8103781704964179
 10
4.321823168705064
 20
0.8129091903356647
 10
4.322401687525461
 20
0.8155125250274345
 10
4.322690946935638
 20
0.8181881745717705
 10
4.322763261788185
 20
0.8202129904431423
 10
4.322690946935638
 20
0.8222378063145349
 10
4.322474002378006
 20
0.8241903073333624
 10
4.32211242811524
 20
0.8262151232047557
 10
4.321533909294863
 20
0.8280953093710387
 10
4.3208830756219
 20
0.8299754955373215
 10
4.320015297391325
 20
0.8317833668510598
 10
4.318930574603076
 20
0.8335189233122537
 10
4.318062796372498
 20
0.8346759609530501
 10
4.317122703289334
 20
0.8356883688887361
 10
4.31611029535365
 20
0.8366284619718776
 10
4.314953257712853
 20
0.8374962402024749
 10
4.313796220072078
 20
0.8382917035805274
 10
4.312566867578738
 20
0.8389425372534699
 10
4.31126520023283
 20
0.839593370926412
 10
4.309891218034382
 20
0.8400995748942657
 10
4.30851723583595
 20
0.840605778862098
 10
4.307143253637523
 20
0.8409673531248412
 10
4.305696956586528
 20
0.8413289273876063
 10
4.304322974388075
 20
0.8416181867977837
 10
4.302876677337103
 20
0.841835131355439
 10
4.301430380286107
 20
0.841979761060549
 10
4.299984083235115
 20
0.8421243907656377
 10
4.298610101036683
 20
0.8421967056181824
 10
4.297742322806084
 20
0.8422690204707475
 10
4.296802229722946
 20
0.8422690204707475
 10
4.295934451492348
 20
0.8421967056181824
 10
4.295066673261752
 20
0.8421967056181824
 10
4.294198895031153
 20
0.8421243907656377
 10
4.293258801948011
 20
0.8420520759130932
 10
4.292391023717437
 20
0.8419074462079828
 10
4.291523245486818
 20
0.841835131355439
 10
4.290655467256241
 20
0.8416905016503497
 10
4.289787689025623
 20
0.8415458719452395
 10
4.288847595942503
 20
0.8414012422401507
 10
4.287979817711907
 20
0.8412566125350405
 10
4.287112039481311
 20
0.8411119828299518
 10
4.286244261250712
 20
0.8409673531248412
 10
4.285304168167572
 20
0.8408227234197527
 10
4.284436389936975
 20
0.8406780937146427
 10
4.271564346183171
 20
0.8375685550550189
 10
4.271275086772972
 20
0.8387979075483599
 10
4.271419716478059
 20
0.8406780937146427
 10
4.271925920445913
 20
0.8429921689962347
 10
4.272721383823967
 20
0.8455955036880258
 10
4.273878421464742
 20
0.8481988383797958
 10
4.27532471851576
 20
0.8506575433664767
 10
4.276987960124386
 20
0.8526823592378697
 10
4.278940461143213
 20
0.8542009711414094
 10
4.280676017604408
 20
0.8549964345194407
 10
4.282483888918124
 20
0.8555749533398389
 10
4.284364075084428
 20
0.856008842455148
 10
4.286316576103279
 20
0.8562257870127814
 10
4.288269077122104
 20
0.856298101865347
 10
4.290293892993478
 20
0.8562257870127814
 10
4.292246394012305
 20
0.8559365276025822
 10
4.294198895031153
 20
0.8555026384872943
 10
4.296151396050003
 20
0.8549241196668958
 10
4.297959267363742
 20
0.8542009711414094
 10
4.299767138677478
 20
0.8534055077633567
 10
4.301430380286107
 20
0.8524654146802156
 10
4.302948992189648
 20
0.8513806918919634
 10
4.304322974388075
 20
0.8501513393986233
 10
4.305552326881418
 20
0.8488496720527383
 10
4.306637049669668
 20
0.8474756898543088
 10
4.325728170742718
 20
0.8562257870127814
  0
LWPOLYLINE
  5
C9A
330
17
100
AcDbEntity
  8
4
  6
Continuous
100
AcDbPolyline
 90
      133
 70
     0
 43
0.0
 10
4.342205690097556
 20
0.8612878266912533
 10
4.340976337604218
 20
0.8599861593453681
 10
4.339819299963421
 20
0.8584675474418288
 10
4.338806892027736
 20
0.8568766206857237
 10
4.337722169239505
 20
0.8552133790770955
 10
4.336637446451254
 20
0.8536224523210114
 10
4.335480408810457
 20
0.8520315255649272
 10
4.334323371169661
 20
0.8505852285139321
 10
4.332949388971231
 20
0.8493558760205917
 10
4.332443185003377
 20
0.8489943017578481
 10
4.331936981035524
 20
0.8486327274950834
 10
4.331430777067671
 20
0.8482711532323401
 10
4.330924573099839
 20
0.8479095789695968
 10
4.330418369132005
 20
0.8475480047068533
 10
4.329839850311609
 20
0.8471864304441098
 10
4.329261331491212
 20
0.8468248561813663
 10
4.328538182965703
 20
0.8464632819186018
 10
4.354788474441184
 20
0.8464632819186018
 10
4.353631436800387
 20
0.84552318883546
 10
4.352546714012134
 20
0.844583095752319
 10
4.351534306076429
 20
0.843643002669177
 10
4.350521898140765
 20
0.8426305947334913
 10
4.349581805057601
 20
0.8415458719452395
 10
4.348641711974459
 20
0.8404611491570094
 10
4.347773933743861
 20
0.8393764263687577
 10
4.346978470365828
 20
0.8382193887279614
 10
4.346110692135211
 20
0.8369900362346211
 10
4.345387543609725
 20
0.8356883688887361
 10
4.34466439508424
 20
0.8343143866903069
 10
4.343941246558753
 20
0.8329404044918561
 10
4.343218098033267
 20
0.8314217925883163
 10
4.342567264360301
 20
0.829903180684777
 10
4.341916430687358
 20
0.8282399390761487
 10
4.341337911866959
 20
0.8265043826149547
 10
4.340325503931275
 20
0.8226716954298233
 10
4.339746985110876
 20
0.8188390082447124
 10
4.339674670258334
 20
0.8149340062070361
 10
4.340036244521055
 20
0.8110290041693604
 10
4.34083170789913
 20
0.8072686318367946
 10
4.342133375245014
 20
0.8035805743567728
 10
4.343796616853663
 20
0.800109461434406
 10
4.345966062430123
 20
0.7969276079222169
 10
4.347050785218376
 20
0.7956259405763319
 10
4.348280137711716
 20
0.7943965880829916
 10
4.349654119910146
 20
0.7931672355896509
 10
4.351172731813706
 20
0.7920825128013993
 10
4.352691343717223
 20
0.7909977900131691
 10
4.354354585325875
 20
0.789985382077462
 10
4.356090141787069
 20
0.7891176038468859
 10
4.357898013100808
 20
0.7883221404688335
 10
4.359705884414545
 20
0.7875989919433462
 10
4.361586070580829
 20
0.7869481582704041
 10
4.363393941894566
 20
0.7864419543025503
 10
4.36527412806085
 20
0.7860803800398069
 10
4.367154314227134
 20
0.7857911206296082
 10
4.368962185540871
 20
0.7857188057770422
 10
4.37077005685461
 20
0.7857188057770422
 10
4.372505613315781
 20
0.7858634354821527
 10
4.374675058892265
 20
0.7862250097448955
 10
4.376844504468769
 20
0.7866588988602051
 10
4.378941635192683
 20
0.7872374176806032
 10
4.380966451064056
 20
0.78796056620609
 10
4.382991266935471
 20
0.7887560295841212
 10
4.384871453101752
 20
0.7896961226672628
 10
4.386751639268036
 20
0.7907808454555143
 10
4.388414880876663
 20
0.792010197948855
 10
4.390078122485292
 20
0.7933841801473056
 10
4.39152441953631
 20
0.7948304771982793
 10
4.39289840173474
 20
0.7964214039543847
 10
4.39412775422808
 20
0.7981569604155574
 10
4.395212477016331
 20
0.8000371465818405
 10
4.396080255246906
 20
0.8019896476006888
 10
4.396803403772392
 20
0.8041590931771708
 10
4.397381922592791
 20
0.8064008536061976
 10
4.39579099583673
 20
0.8050268714077677
 10
4.39412775422808
 20
0.8037975189144276
 10
4.392319882914341
 20
0.8026404812736313
 10
4.390512011600603
 20
0.8017003881904898
 10
4.38863182543432
 20
0.8008326099598928
 10
4.386679324415491
 20
0.800109461434406
 10
4.384654508544099
 20
0.7995309426140082
 10
4.382629692672706
 20
0.7990970534986991
 10
4.380604876801332
 20
0.7988077940884999
 10
4.378507746077396
 20
0.7987354792359556
 10
4.376482930206003
 20
0.7987354792359556
 10
4.374458114334633
 20
0.7989524237936099
 10
4.372433298463238
 20
0.7993139980563539
 10
4.370480797444388
 20
0.7998925168767515
 10
4.368528296425561
 20
0.8006156654022383
 10
4.366648110259278
 20
0.8014834436328355
 10
4.36484023894554
 20
0.8026404812736313
 10
4.363176997336891
 20
0.8038698337669721
 10
4.361658385433373
 20
0.8053161308179671
 10
4.360212088382378
 20
0.8068347427215066
 10
4.358982735889036
 20
0.8085702991826796
 10
4.35782569824824
 20
0.8103058556438734
 10
4.3568856051651
 20
0.8121860418101562
 10
4.356017826934501
 20
0.814138542829005
 10
4.355294678408995
 20
0.816163358700377
 10
4.354788474441184
 20
0.8181881745717705
 10
4.354354585325875
 20
0.8202853052957074
 10
4.354065325915654
 20
0.8224547508721895
 10
4.353920696210565
 20
0.8245518815961272
 10
4.353920696210565
 20
0.8267213271726088
 10
4.354065325915654
 20
0.828890772749091
 10
4.354354585325875
 20
0.8309879034730286
 10
4.355150048703906
 20
0.8334466084597098
 10
4.356017826934501
 20
0.8356160540361914
 10
4.356957920017642
 20
0.8376408699075636
 10
4.358042642805896
 20
0.8395210560738677
 10
4.359199680446693
 20
0.8413289273876063
 10
4.360573662645121
 20
0.8429921689962347
 10
4.362164589401228
 20
0.8447277254574292
 10
4.363972460714965
 20
0.8463909670660573
 10
4.377712282699342
 20
0.8463909670660573
 10
4.378507746077396
 20
0.8463909670660573
 10
4.379447839160538
 20
0.8465355967711673
 10
4.380460247096222
 20
0.8466802264762558
 10
4.38147265503191
 20
0.8469694858864551
 10
4.382485062967615
 20
0.8472587452966543
 10
4.383352841198194
 20
0.8476926344119423
 10
4.384148304576267
 20
0.8481265235272513
 10
4.384726823396642
 20
0.8487050423476496
 10
4.397888126560646
 20
0.8647589396136204
 10
4.350449583288198
 20
0.8647589396136204
 10
4.349075601089748
 20
0.8646866247610759
 10
4.347918563448951
 20
0.8646143099085318
 10
4.34683384066072
 20
0.8643973653508767
 10
4.34589374757758
 20
0.8640357910881334
 10
4.344953654494438
 20
0.8636019019728241
 10
4.344085876263841
 20
0.8630233831524476
 10
4.343145783180699
 20
0.8622279197743946
 10
4.342205690097556
 20
0.8612878266912533
  0
LWPOLYLINE
  5
C9B
330
17
100
AcDbEntity
  8
4
  6
Continuous
100
AcDbPolyline
 90
      138
 70
     0
 43
0.0
 10
4.229398641159426
 20
0.8647589396136204
 10
4.230917253062965
 20
0.8636742168253901
 10
4.232146605556304
 20
0.8624448643320492
 10
4.233159013491992
 20
0.8610708821335988
 10
4.233882162017478
 20
0.8596245850826036
 10
4.234460680837877
 20
0.8581059731790642
 10
4.234822255100644
 20
0.8565150464229798
 10
4.235039199658276
 20
0.8547794899618077
 10
4.235111514510821
 20
0.8529716186480689
 10
4.235111514510821
 20
0.7986631643834108
 10
4.233809847164936
 20
0.7986631643834108
 10
4.232508179819048
 20
0.7987354792359556
 10
4.231206512473163
 20
0.798880108941066
 10
4.229977159979823
 20
0.7990970534986991
 10
4.228675492633938
 20
0.7993863129088977
 10
4.2274461401406
 20
0.7997478871716415
 10
4.226216787647257
 20
0.8001817762869505
 10
4.225059750006462
 20
0.8006156654022383
 10
4.223830397513122
 20
0.8011941842226363
 10
4.222673359872326
 20
0.8017727030430346
 10
4.221588637084074
 20
0.8024235367159771
 10
4.220503914295843
 20
0.8031466852414851
 10
4.219419191507594
 20
0.8039421486195163
 10
4.218334468719359
 20
0.8047376119975693
 10
4.217322060783656
 20
0.8056053902281661
 10
4.216381967700534
 20
0.8064731684587421
 10
4.214718726091886
 20
0.8081364100673912
 10
4.213200114188346
 20
0.80994428138113
 10
4.211826131989896
 20
0.8118244675474134
 10
4.210596779496555
 20
0.8138492834188058
 10
4.209512056708323
 20
0.8159464141427219
 10
4.208644278477725
 20
0.8180435448666598
 10
4.207921129952238
 20
0.8202853052957074
 10
4.207414925984386
 20
0.8225270657247341
 10
4.207125666574187
 20
0.8246241964486713
 10
4.206908722016533
 20
0.8267213271726088
 10
4.206908722016533
 20
0.828890772749091
 10
4.207053351721622
 20
0.8309879034730286
 10
4.207342611131841
 20
0.8330850341969664
 10
4.207776500247129
 20
0.8351821649208828
 10
4.208427333920092
 20
0.8372069807922756
 10
4.20929511215067
 20
0.8391594818111244
 10
4.209945945823611
 20
0.8403888343044647
 10
4.210596779496555
 20
0.8416181867977837
 10
4.211247613169497
 20
0.8427752244385802
 10
4.211970761695003
 20
0.843932262079376
 10
4.212621595367949
 20
0.8450892997201723
 10
4.213344743893455
 20
0.8461740225084025
 10
4.214140207271486
 20
0.8472587452966543
 10
4.214935670649517
 20
0.8482711532323401
 10
4.215731134027591
 20
0.8493558760205917
 10
4.216526597405623
 20
0.8503682839562776
 10
4.2173943756362
 20
0.8513806918919634
 10
4.218262153866819
 20
0.8523930998276711
 10
4.219202246949937
 20
0.8533331929108122
 10
4.2201423400331
 20
0.8543456008464982
 10
4.221082433116221
 20
0.8552856939296397
 10
4.222094841051928
 20
0.856298101865347
 10
4.222962619282523
 20
0.8573105098010325
 10
4.223541138102901
 20
0.8583952325892632
 10
4.223902712365664
 20
0.8594799553775152
 10
4.223975027218211
 20
0.8605646781657668
 10
4.223902712365664
 20
0.8616494009539971
 10
4.223685767808032
 20
0.8627341237422484
 10
4.223324193545268
 20
0.8637465316779342
 10
4.222817989577413
 20
0.8647589396136204
 10
4.196856957512173
 20
0.8647589396136204
 10
4.197435476332572
 20
0.8642527356457883
 10
4.198013995152972
 20
0.8637465316779342
 10
4.198592513973347
 20
0.8632403277100806
 10
4.199171032793747
 20
0.862661808889683
 10
4.199677236761578
 20
0.8620832900693059
 10
4.200183440729431
 20
0.8614324563963425
 10
4.200617329844741
 20
0.8607816227233996
 10
4.20105121896003
 20
0.8601307890504571
 10
4.201918997190626
 20
0.8581782880316302
 10
4.202352886305935
 20
0.8560811573076922
 10
4.202352886305935
 20
0.8539117117312105
 10
4.202063626895716
 20
0.851742266154728
 10
4.201485108075319
 20
0.8494281908731363
 10
4.200545014992196
 20
0.8471864304441098
 10
4.199460292203945
 20
0.8450892997201723
 10
4.198230939710605
 20
0.8430644838487793
 10
4.19692927236472
 20
0.8410396679774072
 10
4.19555529016627
 20
0.8390871669585584
 10
4.194181307967818
 20
0.8370623510871869
 10
4.192951955474478
 20
0.8350375352157936
 10
4.191939547538813
 20
0.8330127193444006
 10
4.191071769308194
 20
0.8309879034730286
 10
4.190420935635252
 20
0.828818457896547
 10
4.1899147316674
 20
0.8266490123200437
 10
4.189625472257221
 20
0.8244795667435614
 10
4.189480842552131
 20
0.8222378063145349
 10
4.189480842552131
 20
0.8199960458855088
 10
4.189697787109765
 20
0.8177542854564608
 10
4.189987046519965
 20
0.8163079884054869
 10
4.190276305930162
 20
0.814861691354492
 10
4.190710195045473
 20
0.813415394303497
 10
4.191216399013305
 20
0.8120414121050675
 10
4.191794917833703
 20
0.810667429906617
 10
4.192445751506642
 20
0.809365762560732
 10
4.193096585179587
 20
0.8079917803622812
 10
4.19389204855764
 20
0.8067624278689407
 10
4.194687511935672
 20
0.8055330753756003
 10
4.19555529016627
 20
0.8043037228822598
 10
4.196495383249411
 20
0.8031466852414851
 10
4.197507791185118
 20
0.8019896476006888
 10
4.198520199120803
 20
0.8009049248124371
 10
4.199532607056488
 20
0.7998202020242072
 10
4.200617329844741
 20
0.7988077940884999
 10
4.201774367485536
 20
0.7978677010053583
 10
4.203076034831419
 20
0.7968552930696724
 10
4.204522331882396
 20
0.7959151999865309
 10
4.205968628933413
 20
0.7950474217559341
 10
4.207487240836931
 20
0.7942519583778817
 10
4.209078167593036
 20
0.7935288098523943
 10
4.210669094349098
 20
0.7928779761794518
 10
4.21233233595775
 20
0.7922271425065098
 10
4.213995577566397
 20
0.7917209385386559
 10
4.215658819175025
 20
0.7912870494233683
 10
4.217322060783656
 20
0.7908531603080588
 10
4.219057617244848
 20
0.7904915860453153
 10
4.220793173706042
 20
0.7902746414876609
 10
4.222456415314669
 20
0.7900576969300275
 10
4.224191971775866
 20
0.7899130672249175
 10
4.225855213384495
 20
0.789768437519829
 10
4.227518454993143
 20
0.789768437519829
 10
4.251743930597212
 20
0.789768437519829
 10
4.251743930597212
 20
0.8556472681923832
 10
4.251743930597212
 20
0.8568043058331793
 10
4.251743930597212
 20
0.8579613434739755
 10
4.251888560302321
 20
0.8591906959673154
 10
4.252105504859953
 20
0.8604200484606563
 10
4.252539393975263
 20
0.8615770861014521
 10
4.253117912795659
 20
0.862661808889683
 10
4.253985691026234
 20
0.8637465316779342
 10
4.255142728667031
 20
0.8647589396136204
 10
4.229398641159426
 20
0.8647589396136204
  0
LWPOLYLINE
  5
C9C
330
17
100
AcDbEntity
  8
4
  6
Continuous
100
AcDbPolyline
 90
       21
 70
     0
 43
0.0
 10
4.490126763419943
 20
0.8647589396136204
 10
4.491500745618371
 20
0.8640357910881334
 10
4.492657783259168
 20
0.8631680128575363
 10
4.493670191194855
 20
0.8621556049218504
 10
4.494393339720362
 20
0.8609985672810545
 10
4.494971858540761
 20
0.8596968999351695
 10
4.495405747656048
 20
0.8583229177367186
 10
4.495622692213704
 20
0.8568043058331793
 10
4.495695007066246
 20
0.8552133790770955
 10
4.495695007066246
 20
0.789768437519829
 10
4.513484460793414
 20
0.789768437519829
 10
4.513484460793414
 20
0.8554303236347497
 10
4.513556775645954
 20
0.8569489355382895
 10
4.513918349908721
 20
0.8582506028841745
 10
4.51435223902401
 20
0.8595522702300595
 10
4.515075387549495
 20
0.8607093078708555
 10
4.515870850927549
 20
0.8617940306591068
 10
4.516883258863236
 20
0.8628787534473371
 10
4.517967981651463
 20
0.8638188465304793
 10
4.519269648997371
 20
0.8647589396136204
 10
4.490126763419943
 20
0.8647589396136204
  0
LWPOLYLINE
  5
C9D
330
17
100
AcDbEntity
  8
4
  6
Continuous
100
AcDbPolyline
 90
       73
 70
     0
 43
0.0
 10
3.860905861274526
 20
0.8084979843301345
 10
3.862135213767866
 20
0.8077748358046479
 10
3.863147621703575
 20
0.8068347427215066
 10
3.864015399934148
 20
0.8056777050807102
 10
3.864666233607093
 20
0.8043760377348259
 10
3.865027807869858
 20
0.8029297406838303
 10
3.865100122722401
 20
0.8014834436328355
 10
3.864883178164769
 20
0.800109461434406
 10
3.86430465934437
 20
0.7987354792359556
 10
3.863653825671428
 20
0.7979400158579241
 10
3.863002991998462
 20
0.7972168673324159
 10
3.862207528620412
 20
0.7965660336594738
 10
3.861339750389836
 20
0.7959875148390752
 10
3.860399657306674
 20
0.7955536257237874
 10
3.859387249371009
 20
0.7951920514610441
 10
3.858302526582756
 20
0.7949751069033897
 10
3.857217803794506
 20
0.7949027920508454
 10
3.830822882613956
 20
0.7949027920508454
 10
3.845068908566188
 20
0.8069793724265954
 10
3.845936686796806
 20
0.8077748358046479
 10
3.846587520469752
 20
0.8085702991826796
 10
3.847166039290127
 20
0.8092934477081874
 10
3.847527613552871
 20
0.8100165962336745
 10
3.84781687296309
 20
0.8107397447591612
 10
3.84796150266818
 20
0.8115352081372142
 10
3.848106132373268
 20
0.8122583566627008
 10
3.848106132373268
 20
0.8130538200407535
 10
3.848106132373268
 20
0.8609985672810545
 10
3.84796150266818
 20
0.8620109752167405
 10
3.847672243257979
 20
0.8630233831524476
 10
3.847166039290127
 20
0.8638188465304793
 10
3.846515205617185
 20
0.8645419950559869
 10
3.845719742239133
 20
0.8651205138763636
 10
3.844851964008555
 20
0.8655544029916729
 10
3.843839556072848
 20
0.8658436624018719
 10
3.842827148137163
 20
0.865915977254416
 10
3.827207139986479
 20
0.865915977254416
 10
3.828291862774731
 20
0.8648312544661859
 10
3.82923195585785
 20
0.8638188465304793
 10
3.830027419235903
 20
0.862661808889683
 10
3.830678252908866
 20
0.8615047712489079
 10
3.831256771729245
 20
0.8602031039030016
 10
3.831618345991988
 20
0.8588291217045721
 10
3.831835290549642
 20
0.8572381949484885
 10
3.831907605402209
 20
0.8554303236347497
 10
3.831907605402209
 20
0.8053884456705111
 10
3.819035561648383
 20
0.789768437519829
 10
3.867703457414171
 20
0.789768437519829
 10
3.868498920792224
 20
0.7898407523723729
 10
3.869366699022823
 20
0.7899130672249175
 10
3.870162162400853
 20
0.7900576969300275
 10
3.871029940631471
 20
0.7903469563402266
 10
3.871897718862046
 20
0.7906362157504258
 10
3.872693182240099
 20
0.7909977900131691
 10
3.873488645618153
 20
0.7913593642759125
 10
3.874284108996183
 20
0.7917932533912003
 10
3.875079572374216
 20
0.7922994573590536
 10
3.875802720899723
 20
0.7928056613269076
 10
3.876525869425231
 20
0.7933841801473056
 10
3.877249017950716
 20
0.7939626989676825
 10
3.877827536771116
 20
0.7945412177880802
 10
3.878478370444057
 20
0.7951920514610441
 10
3.878984574411911
 20
0.7958428851339865
 10
3.879490778379744
 20
0.7964937188069291
 10
3.880647816020538
 20
0.7988077940884999
 10
3.881370964546047
 20
0.801411128780291
 10
3.881732538808773
 20
0.8043037228822598
 10
3.881660223956226
 20
0.8072686318367946
 10
3.881154019988373
 20
0.810088911086219
 10
3.880286241757796
 20
0.81269224577801
 10
3.879056889264457
 20
0.814861691354492
 10
3.877393647655805
 20
0.8165249329631203
 10
3.860905861274526
 20
0.8084979843301345
  0
LWPOLYLINE
  5
C9E
330
17
100
AcDbEntity
  8
4
  6
Continuous
100
AcDbPolyline
 90
       21
 70
     0
 43
0.0
 10
4.023484167026508
 20
0.8646143099085318
 10
4.004393045953435
 20
0.8646143099085318
 10
4.005333139036596
 20
0.8639634762355886
 10
4.006273232119719
 20
0.8630956980049917
 10
4.00721332520288
 20
0.8622279197743946
 10
4.008008788580913
 20
0.8612155118387093
 10
4.00873193710642
 20
0.8602031039030016
 10
4.009310455926796
 20
0.8590460662622273
 10
4.009672030189562
 20
0.8578890286214308
 10
4.009816659894653
 20
0.8566596761280909
 10
4.009816659894653
 20
0.7900576969300275
 10
4.027823058179492
 20
0.7900576969300275
 10
4.027823058179492
 20
0.8602754187555675
 10
4.027750743326928
 20
0.8612878266912533
 10
4.027533798769273
 20
0.8621556049218504
 10
4.027099909653983
 20
0.8628787534473371
 10
4.026593705686153
 20
0.8635295871202796
 10
4.025942872013189
 20
0.8639634762355886
 10
4.025219723487703
 20
0.8643250504983321
 10
4.024424260109648
 20
0.8645419950559869
 10
4.023484167026508
 20
0.8646143099085318
  0
LWPOLYLINE
  5
C9F
330
17
100
AcDbEntity
  8
4
  6
Continuous
100
AcDbPolyline
 90
      133
 70
     0
 43
0.0
 10
3.948049474732384
 20
0.8659882921069609
 10
3.932646411139357
 20
0.8659882921069609
 10
3.933731133927609
 20
0.8648312544661859
 10
3.934671227010728
 20
0.8636742168253901
 10
3.935394375536236
 20
0.8625171791845938
 10
3.936045209209177
 20
0.8614324563963425
 10
3.936551413177035
 20
0.860347733608112
 10
3.936912987439774
 20
0.8592630108198605
 10
3.937202246849976
 20
0.8581059731790855
 10
3.937274561702521
 20
0.8569489355382895
 10
3.937274561702521
 20
0.817465026046262
 10
3.935972894356636
 20
0.8176096557513719
 10
3.934598912158185
 20
0.8178266003090266
 10
3.933297244812301
 20
0.8180435448666598
 10
3.931923262613868
 20
0.8183328042768589
 10
3.930621595267986
 20
0.8186943785396232
 10
3.929247613069533
 20
0.8190559528023673
 10
3.927945945723627
 20
0.8194898419176549
 10
3.926644278377743
 20
0.8199237310329428
 10
3.925414925884403
 20
0.8204299350007966
 10
3.924113258538517
 20
0.8210084538211944
 10
3.922956220897721
 20
0.8215869726415924
 10
3.921726868404381
 20
0.8222378063145349
 10
3.920569830763586
 20
0.8229609548400221
 10
3.91941279312279
 20
0.8236841033655304
 10
3.91832807033456
 20
0.8245518815961272
 10
3.917315662398872
 20
0.8254196598267027
 10
3.915435476232588
 20
0.8272998459930072
 10
3.913772234623941
 20
0.8293969767169445
 10
3.912325937572966
 20
0.8316387371459711
 10
3.911024270227058
 20
0.8340974421326521
 10
3.910011862291374
 20
0.8365561471193332
 10
3.909144084060777
 20
0.8392317966636685
 10
3.90856556524038
 20
0.8419074462079828
 10
3.908203990977635
 20
0.8446554106048628
 10
3.907987046420002
 20
0.8474033750017433
 10
3.907987046420002
 20
0.8502236542511889
 10
3.908276305830181
 20
0.8529716186480689
 10
3.90871019494549
 20
0.8557195830449487
 10
3.909361028618431
 20
0.8584675474418288
 10
3.910301121701573
 20
0.8610708821335988
 10
3.911385844489805
 20
0.8636019019728458
 10
3.912687511835687
 20
0.8659882921069609
 10
3.892945557089696
 20
0.8659882921069609
 10
3.891499260038721
 20
0.861360141543798
 10
3.890486852103013
 20
0.8568766206857237
 10
3.889980648135161
 20
0.8523930998276711
 10
3.889908333282616
 20
0.8481265235272513
 10
3.890197592692816
 20
0.843932262079376
 10
3.89099305607087
 20
0.8399549451891559
 10
3.892150093711665
 20
0.836122258004045
 10
3.893668705615183
 20
0.8324342005240028
 10
3.895621206634011
 20
0.8290354024541798
 10
3.897862967063056
 20
0.8257812340894673
 10
3.900466301754828
 20
0.8228163251349332
 10
3.903358895856819
 20
0.8200683607380533
 10
3.906613064221531
 20
0.8176819706039164
 10
3.910156491996462
 20
0.8155125250274345
 10
3.91391686432903
 20
0.8137046537136958
 10
3.917966496071813
 20
0.8121860418101562
 10
3.919123533712611
 20
0.8118244675474134
 10
3.920352886205951
 20
0.8115352081372142
 10
3.921582238699291
 20
0.8112459487270148
 10
3.922883906045176
 20
0.8109566893168159
 10
3.924113258538517
 20
0.8107397447591612
 10
3.925414925884403
 20
0.8105951150540724
 10
3.926644278377743
 20
0.8103781704964179
 10
3.927945945723627
 20
0.8103058556438734
 10
3.92917529821697
 20
0.8101612259387845
 10
3.930404650710308
 20
0.810088911086219
 10
3.931634003203648
 20
0.8100165962336745
 10
3.932791040844446
 20
0.8100165962336745
 10
3.933948078485241
 20
0.8100165962336745
 10
3.935032801273494
 20
0.8100165962336745
 10
3.936117524061745
 20
0.810088911086219
 10
3.937129931997411
 20
0.8101612259387845
 10
3.937129931997411
 20
0.8024958515685213
 10
3.929247613069533
 20
0.7980846455630131
 10
3.92765668631345
 20
0.7977230713002697
 10
3.926065759557343
 20
0.7975061267426149
 10
3.924474832801261
 20
0.7975061267426149
 10
3.923028535750266
 20
0.7977230713002697
 10
3.921509923846747
 20
0.7980123307104683
 10
3.920135941648299
 20
0.7985185346783008
 10
3.918834274302412
 20
0.7991693683512647
 10
3.917532606956506
 20
0.7998925168767515
 10
3.916303254463166
 20
0.8007602951073485
 10
3.915146216822368
 20
0.8017003881904898
 10
3.91406149403414
 20
0.8027851109787198
 10
3.913049086098453
 20
0.8038698337669721
 10
3.912108993015291
 20
0.8050991862603121
 10
3.911241214784716
 20
0.8063285387536527
 10
3.910445751406683
 20
0.8075578912469936
 10
3.909794917733741
 20
0.8088595585928782
 10
3.895910466044231
 20
0.8024235367159771
 10
3.896561299717173
 20
0.8011941842226363
 10
3.897356763095204
 20
0.7999648317292958
 10
3.898152226473255
 20
0.7986631643834108
 10
3.899020004703853
 20
0.7974338118900706
 10
3.900032412639538
 20
0.7962044593967299
 10
3.901044820575226
 20
0.7949751069033897
 10
3.902201858216022
 20
0.7938903841151377
 10
3.903358895856819
 20
0.7927333464743418
 10
3.904588248350158
 20
0.7917209385386559
 10
3.905962230548587
 20
0.7907808454555143
 10
3.907408527599604
 20
0.789985382077462
 10
3.908854824650577
 20
0.7891899186994307
 10
3.910445751406683
 20
0.7886113998790325
 10
3.912036678162746
 20
0.7881051959111787
 10
3.913772234623941
 20
0.7877436216484353
 10
3.915580105937678
 20
0.7875989919433462
 10
3.916158624758076
 20
0.7875989919433462
 10
3.916737143578476
 20
0.787671306795891
 10
3.917387977251416
 20
0.7877436216484353
 10
3.918038810924361
 20
0.7878159365009796
 10
3.918617329744757
 20
0.78796056620609
 10
3.919268163417698
 20
0.7881775107637448
 10
3.919846682238098
 20
0.7883944553213778
 10
3.920425201058496
 20
0.7886113998790325
 10
3.951737532212407
 20
0.8070516872791396
 10
3.952460680737913
 20
0.8076302060995379
 10
3.952966884705747
 20
0.8084256694775904
 10
3.953183829263423
 20
0.809365762560732
 10
3.953256144115968
 20
0.8103781704964179
 10
3.953256144115968
 20
0.8588291217045721
 10
3.953111514410858
 20
0.8604923633132004
 10
3.952822255000658
 20
0.8620109752167405
 10
3.952316051032803
 20
0.8632403277100806
 10
3.951665217359863
 20
0.8642527356457883
 10
3.950869753981832
 20
0.8649758841712751
 10
3.949929660898668
 20
0.8655544029916729
 10
3.948989567815549
 20
0.8658436624018719
 10
3.948049474732384
 20
0.8659882921069609
  0
LWPOLYLINE
  5
CA0
330
17
100
AcDbEntity
  8
4
  6
Continuous
100
AcDbPolyline
 90
       96
 70
     0
 43
0.0
 10
4.103590914257989
 20
0.789768437519829
 10
4.102433876617193
 20
0.7905639008978599
 10
4.101276838976398
 20
0.7913593642759125
 10
4.100264431040711
 20
0.7922994573590536
 10
4.099396652810114
 20
0.7932395504421952
 10
4.098673504284628
 20
0.7943242732304472
 10
4.098094985464229
 20
0.7955536257237874
 10
4.097733411201486
 20
0.7968552930696724
 10
4.097588781496376
 20
0.7982292752681019
 10
4.097588781496376
 20
0.8451616145727168
 10
4.097588781496376
 20
0.8471141155915656
 10
4.097444151791266
 20
0.8490666166103931
 10
4.097154892381088
 20
0.8511637473343306
 10
4.096576373560689
 20
0.8531885632057022
 10
4.095708595330093
 20
0.8552856939296397
 10
4.094334613131643
 20
0.8572381949484885
 10
4.092526741817903
 20
0.8591906959673154
 10
4.090068036831222
 20
0.8610708821335988
 10
4.088549424927707
 20
0.8620109752167405
 10
4.0869584981716
 20
0.8628064385947929
 10
4.085367571415517
 20
0.8634572722677358
 10
4.083632014954345
 20
0.8640357910881334
 10
4.081896458493148
 20
0.8643973653508767
 10
4.080160902031953
 20
0.8646143099085318
 10
4.078425345570761
 20
0.8647589396136204
 10
4.076617474257022
 20
0.8647589396136204
 10
4.074881917795851
 20
0.8646143099085318
 10
4.073146361334655
 20
0.8643973653508767
 10
4.071483119726027
 20
0.8641081059406779
 10
4.069819878117377
 20
0.8636742168253901
 10
4.068301266213858
 20
0.8631680128575363
 10
4.066782654310298
 20
0.8625171791845938
 10
4.065336357259326
 20
0.8618663455116513
 10
4.064034689913441
 20
0.8610708821335988
 10
4.063311541387933
 20
0.8607093078708555
 10
4.062660707714988
 20
0.860347733608112
 10
4.061937559189479
 20
0.8599861593453681
 10
4.061286725516538
 20
0.8595522702300595
 10
4.060635891843596
 20
0.8590460662622273
 10
4.059912743318109
 20
0.8585398622943735
 10
4.059261909645167
 20
0.8578890286214308
 10
4.058466446267114
 20
0.8572381949484885
 10
4.058104872004369
 20
0.858612177146918
 10
4.057526353183972
 20
0.8598415296402579
 10
4.056875519511031
 20
0.8609262524285099
 10
4.056080056133
 20
0.8619386603641958
 10
4.055212277902381
 20
0.8628064385947929
 10
4.054272184819258
 20
0.8635295871202796
 10
4.053332091736097
 20
0.8641804207932221
 10
4.052319683800409
 20
0.8646866247610759
 10
4.035759582566586
 20
0.8646866247610759
 10
4.037278194470126
 20
0.8636019019728241
 10
4.038579861816011
 20
0.8623725494794838
 10
4.039664584604262
 20
0.8610708821335988
 10
4.040604677687383
 20
0.8595522702300595
 10
4.041327826212891
 20
0.8579613434739755
 10
4.041834030180725
 20
0.8561534721602367
 10
4.042195604443487
 20
0.8542732859939539
 10
4.042267919296032
 20
0.8521761552700159
 10
4.042267919296032
 20
0.78796056620609
 10
4.059117279940077
 20
0.8009772396649822
 10
4.059117279940077
 20
0.8454508739829158
 10
4.059406539350254
 20
0.8478372641170517
 10
4.060129687875742
 20
0.8499343948409896
 10
4.061214410663993
 20
0.851742266154728
 10
4.062660707714988
 20
0.853260878058268
 10
4.064323949323616
 20
0.8544902305516082
 10
4.066131820637356
 20
0.8553580087822055
 10
4.068084321656183
 20
0.8559365276025822
 10
4.070036822675032
 20
0.8561534721602367
 10
4.071193860315828
 20
0.8561534721602367
 10
4.072350897956603
 20
0.856008842455148
 10
4.073435620744856
 20
0.8557918978974932
 10
4.074520343533105
 20
0.8555026384872943
 10
4.075532751468792
 20
0.8551410642245508
 10
4.076545159404478
 20
0.8546348602566972
 10
4.07748525248764
 20
0.8541286562888434
 10
4.078353030718215
 20
0.8534778226159014
 10
4.079220808948814
 20
0.8528269889429589
 10
4.079943957474322
 20
0.8521038404174721
 10
4.080522476294721
 20
0.8512360621868747
 10
4.081100995115096
 20
0.8504405988088219
 10
4.081534884230386
 20
0.8495005057256808
 10
4.081824143640603
 20
0.8485604126425393
 10
4.082041088198238
 20
0.8475480047068533
 10
4.082113403050783
 20
0.8464632819186018
 10
4.082113403050783
 20
0.7968552930696724
 10
4.082185717903326
 20
0.7956982554288765
 10
4.082330347608436
 20
0.7944689029355359
 10
4.082691921871181
 20
0.7933118652947396
 10
4.083198125839033
 20
0.7921548276539654
 10
4.083993589217066
 20
0.7912147345708234
 10
4.085005997152773
 20
0.7904192711927709
 10
4.086379979351202
 20
0.7899130672249175
 10
4.088115535812397
 20
0.789768437519829
 10
4.103590914257989
 20
0.789768437519829
  0
LWPOLYLINE
  5
CA1
330
17
100
AcDbEntity
  8
4
  6
Continuous
100
AcDbPolyline
 90
       34
 70
     0
 43
0.0
 10
4.13545550171027
 20
0.8589737514096611
 10
4.138275780959673
 20
0.858684491999462
 10
4.141023745356575
 20
0.8581059731790642
 10
4.143627080048346
 20
0.8570935652433782
 10
4.146158099887569
 20
0.8557195830449487
 10
4.148472175169161
 20
0.8541286562888434
 10
4.15071393559821
 20
0.8521761552700159
 10
4.152738751469581
 20
0.8500067096935346
 10
4.154618937635865
 20
0.8476203195593976
 10
4.156354494097059
 20
0.8449446700150618
 10
4.157800791148034
 20
0.8421967056181824
 10
4.159102458493919
 20
0.8392317966636685
 10
4.16018718128217
 20
0.8361945728565896
 10
4.161054959512766
 20
0.8330127193444006
 10
4.161633478333165
 20
0.8297585509796881
 10
4.162067367448451
 20
0.8265043826149547
 10
4.162139682300996
 20
0.8231778993976766
 10
4.161922737743364
 20
0.8201406755905974
 10
4.161344218922965
 20
0.8172480814886283
 10
4.160476440692367
 20
0.8144278022391826
 10
4.159319403051592
 20
0.8118244675474134
 10
4.157873106000599
 20
0.8092934477081874
 10
4.15620986439197
 20
0.8069793724265954
 10
4.154329678225662
 20
0.8048822417026578
 10
4.152377177206816
 20
0.8029297406838303
 10
4.150280046482901
 20
0.8011218693700921
 10
4.148110600906417
 20
0.7995309426140082
 10
4.145868840477393
 20
0.7981569604155574
 10
4.143699394900889
 20
0.7969999227747615
 10
4.141457634471863
 20
0.7961321445441856
 10
4.139360503747924
 20
0.7954089960186776
 10
4.137335687876553
 20
0.7949751069033897
 10
4.13545550171027
 20
0.794758162345735
 10
4.13545550171027
 20
0.8589737514096611
  0
LWPOLYLINE
  5
CA2
330
17
100
AcDbEntity
  8
4
  6
Continuous
100
AcDbPolyline
 90
       44
 70
     0
 43
0.0
 10
4.143627080048346
 20
0.8649758841712751
 10
4.111591600368926
 20
0.8649758841712751
 10
4.112604008304613
 20
0.8643973653508767
 10
4.113761045945406
 20
0.8636019019728241
 10
4.114845768733659
 20
0.8624448643320492
 10
4.115930491521912
 20
0.8611431969861435
 10
4.11687058460503
 20
0.8596245850826036
 10
4.117666047983083
 20
0.8578890286214308
 10
4.118099937098373
 20
0.8560811573076922
 10
4.118316881656048
 20
0.8541286562888434
 10
4.118316881656048
 20
0.789768437519829
 10
4.142325412702459
 20
0.789768437519829
 10
4.146375044445225
 20
0.789985382077462
 10
4.150280046482901
 20
0.7905639008978599
 10
4.154040418815466
 20
0.7915039939810016
 10
4.157583846590397
 20
0.7928056613269076
 10
4.160910329807656
 20
0.7944689029355359
 10
4.164092183319846
 20
0.7964937188069291
 10
4.166984777421813
 20
0.7987354792359556
 10
4.169660426966173
 20
0.8013388139277466
 10
4.172046817100286
 20
0.8041590931771708
 10
4.17421626267677
 20
0.8072686318367946
 10
4.176096448843051
 20
0.8105951150540724
 10
4.177615060746611
 20
0.814138542829005
 10
4.178844413239953
 20
0.8178989151615713
 10
4.179784506323073
 20
0.8218039171992471
 10
4.180290710290926
 20
0.8259258637945563
 10
4.180507654848581
 20
0.830192440094976
 10
4.180363025143471
 20
0.8338081827224531
 10
4.179784506323073
 20
0.8372792956448201
 10
4.178844413239953
 20
0.840605778862098
 10
4.177542745894045
 20
0.8437876323742873
 10
4.175951819137961
 20
0.846897171033911
 10
4.17407163297168
 20
0.8497174502833351
 10
4.171902187395176
 20
0.8523930998276711
 10
4.169443482408496
 20
0.854851804814352
 10
4.166840147716723
 20
0.8570935652433782
 10
4.163947553614733
 20
0.8591183811147713
 10
4.160910329807656
 20
0.8608539375759658
 10
4.157656161442944
 20
0.8623002346269393
 10
4.154329678225662
 20
0.8634572722677358
 10
4.150858565303299
 20
0.8643250504983321
 10
4.147242822675821
 20
0.8648312544661859
 10
4.143627080048346
 20
0.8649758841712751
  0
LWPOLYLINE
  5
CA3
330
17
100
AcDbEntity
  8
4
  6
Continuous
100
AcDbPolyline
 90
       21
 70
     0
 43
0.0
 10
3.775863338115978
 20
0.8618663455116513
 10
3.7935804769906
 20
0.8618663455116513
 10
3.795894552272168
 20
0.8616494009539971
 10
3.797991682996109
 20
0.8609985672810545
 10
3.799944184014957
 20
0.8599861593453681
 10
3.801679740476148
 20
0.858612177146918
 10
3.803053722674578
 20
0.8569489355382895
 10
3.804138445462831
 20
0.8549964345194407
 10
3.804789279135773
 20
0.852899303795503
 10
3.805006223693404
 20
0.8505852285139321
 10
3.804861593988316
 20
0.8487050423476496
 10
3.804427704873008
 20
0.8468248561813663
 10
3.803704556347522
 20
0.8451616145727168
 10
3.802764463264381
 20
0.8435706878166325
 10
3.801535110771038
 20
0.8422690204707475
 10
3.800088813720043
 20
0.8412566125350405
 10
3.798425572111395
 20
0.840605778862098
 10
3.796473071092568
 20
0.8403888343044647
 10
3.779189821333256
 20
0.8403888343044647
 10
3.779189821333256
 20
0.8579613434739755
 10
3.775863338115978
 20
0.8618663455116513
  0
LWPOLYLINE
  5
CA4
330
17
100
AcDbEntity
  8
4
  6
Continuous
100
AcDbPolyline
 90
       21
 70
     0
 43
0.0
 10
3.705854580633681
 20
0.8620109752167405
 10
3.723571719508301
 20
0.8620109752167405
 10
3.725813479937328
 20
0.8617940306591068
 10
3.727982925513809
 20
0.8611431969861435
 10
3.729863111680113
 20
0.8601307890504571
 10
3.731598668141286
 20
0.858756806852028
 10
3.732972650339736
 20
0.8570935652433782
 10
3.734057373127968
 20
0.8552133790770955
 10
3.734708206800932
 20
0.8531162483531574
 10
3.734925151358565
 20
0.8508021730715871
 10
3.734780521653476
 20
0.8489219869052826
 10
3.734346632538168
 20
0.8470418007389993
 10
3.733695798865222
 20
0.8453062442778268
 10
3.732755705782083
 20
0.8437876323742873
 10
3.731526353288741
 20
0.842485965028381
 10
3.730080056237746
 20
0.8414735570926952
 10
3.728416814629096
 20
0.8408227234197527
 10
3.72646431361027
 20
0.840605778862098
 10
3.709181063850958
 20
0.840605778862098
 10
3.709181063850958
 20
0.8581782880316302
 10
3.705854580633681
 20
0.8620109752167405
  0
LWPOLYLINE
  5
CA5
330
17
100
AcDbEntity
  8
4
  6
Continuous
100
AcDbPolyline
 90
       46
 70
     0
 43
0.0
 10
3.726319683905181
 20
0.8659882921069609
 10
3.687052718970828
 20
0.8659882921069609
 10
3.687920497201406
 20
0.8648312544661859
 10
3.688715960579438
 20
0.8635295871202796
 10
3.689511423957509
 20
0.8622279197743946
 10
3.690162257630453
 20
0.8608539375759658
 10
3.690668461598285
 20
0.8594076405249705
 10
3.691102350713573
 20
0.8579613434739755
 10
3.691391610123791
 20
0.8565873612755458
 10
3.691463924976338
 20
0.8551410642245508
 10
3.691463924976338
 20
0.7883944553213778
 10
3.70903643414587
 20
0.8052438159654013
 10
3.70903643414587
 20
0.8351821649208828
 10
3.732611076076971
 20
0.8351821649208828
 10
3.734202002833078
 20
0.8352544797734481
 10
3.735720614736596
 20
0.8353267946259926
 10
3.737239226640156
 20
0.8355437391836474
 10
3.738685523691128
 20
0.8358329985938466
 10
3.740131820742126
 20
0.8362668877091344
 10
3.741505802940575
 20
0.8368454065295319
 10
3.742807470286461
 20
0.8374962402024749
 10
3.743964507927256
 20
0.8382917035805274
 10
3.745121545568053
 20
0.8392317966636685
 10
3.746061638651172
 20
0.8403888343044647
 10
3.746929416881791
 20
0.8416181867977837
 10
3.747652565407279
 20
0.8430644838487793
 10
3.748158769375133
 20
0.8447277254574292
 10
3.748592658490421
 20
0.8465355967711673
 10
3.748809603048075
 20
0.8485604126425393
 10
3.748809603048075
 20
0.8508021730715871
 10
3.748592658490421
 20
0.8531885632057022
 10
3.748158769375133
 20
0.8552856939296397
 10
3.747435620849624
 20
0.857165880095923
 10
3.746567842619026
 20
0.8588291217045721
 10
3.745410804978233
 20
0.8602754187555675
 10
3.74418145248489
 20
0.8615047712489079
 10
3.742735155433916
 20
0.8625894940371383
 10
3.741144228677812
 20
0.8634572722677358
 10
3.739480987069183
 20
0.8641804207932221
 10
3.737673115755444
 20
0.8647589396136204
 10
3.735865244441705
 20
0.8651928287289294
 10
3.733985058275423
 20
0.8654820881391284
 10
3.732032557256575
 20
0.8657713475493276
 10
3.730080056237746
 20
0.865915977254416
 10
3.728199870071464
 20
0.8659882921069609
 10
3.726319683905181
 20
0.8659882921069609
  0
LWPOLYLINE
  5
CA6
330
17
100
AcDbEntity
  8
4
  6
Continuous
100
AcDbPolyline
 90
      104
 70
     0
 43
0.0
 10
3.654063788637807
 20
0.865915977254416
 10
3.656088604509179
 20
0.8637465316779342
 10
3.656956382739776
 20
0.8625171791845938
 10
3.657679531265261
 20
0.8612878266912533
 10
3.658330364938226
 20
0.8601307890504571
 10
3.658836568906058
 20
0.8590460662622273
 10
3.659270458021346
 20
0.8578890286214308
 10
3.659559717431568
 20
0.8567319909806347
 10
3.659704347136655
 20
0.8555749533398389
 10
3.659776661989202
 20
0.8543456008464982
 10
3.659776661989202
 20
0.7981569604155574
 10
3.657968790675461
 20
0.7983739049732117
 10
3.656160919361723
 20
0.7987354792359556
 10
3.654425362900528
 20
0.7991693683512647
 10
3.652689806439358
 20
0.7997478871716415
 10
3.651026564830726
 20
0.8004710356971497
 10
3.649363323222078
 20
0.8011941842226363
 10
3.647700081613431
 20
0.8020619624532335
 10
3.646181469709909
 20
0.8030020555363748
 10
3.644662857806349
 20
0.8040867783246261
 10
3.643216560755374
 20
0.8051715011128571
 10
3.641842578556948
 20
0.8064008536061976
 10
3.64054091121104
 20
0.8077025209520821
 10
3.639239243865155
 20
0.8090041882979884
 10
3.63808220622436
 20
0.8104504853489622
 10
3.636997483436128
 20
0.811969097252502
 10
3.635985075500423
 20
0.8134877091560417
 10
3.634394148744338
 20
0.8163803032580315
 10
3.633092481398453
 20
0.8194175270651108
 10
3.632080073462766
 20
0.8225993805772784
 10
3.631429239789826
 20
0.8258535489420122
 10
3.631139980379606
 20
0.8291800321592901
 10
3.631284610084716
 20
0.8324342005240028
 10
3.631935443757656
 20
0.8357606837412806
 10
3.633020166545888
 20
0.8389425372534699
 10
3.633598685366285
 20
0.8403165194518994
 10
3.634249519039228
 20
0.8416181867977837
 10
3.634972667564736
 20
0.8429198541436907
 10
3.635695816090243
 20
0.8441492066370306
 10
3.636491279468274
 20
0.8454508739829158
 10
3.637359057698873
 20
0.8466802264762558
 10
3.63822683592947
 20
0.8478372641170517
 10
3.639094614160044
 20
0.8490666166103931
 10
3.640034707243208
 20
0.8502236542511889
 10
3.640974800326326
 20
0.8513083770394192
 10
3.641987208262037
 20
0.8524654146802156
 10
3.642999616197721
 20
0.853550137468467
 10
3.644012024133408
 20
0.8546348602566972
 10
3.645096746921658
 20
0.8556472681923832
 10
3.646109154857367
 20
0.8566596761280909
 10
3.647193877645596
 20
0.8576720840637761
 10
3.648061655876193
 20
0.858684491999462
 10
3.648640174696593
 20
0.8598415296402579
 10
3.649001748959333
 20
0.8609985672810545
 10
3.649001748959333
 20
0.8622279197743946
 10
3.648857119254224
 20
0.8633126425626254
 10
3.648423230138936
 20
0.8643973653508767
 10
3.647917026171104
 20
0.8652651435814735
 10
3.647193877645596
 20
0.865915977254416
 10
3.621305160432879
 20
0.865915977254416
 10
3.622534512926221
 20
0.8647589396136204
 10
3.623908495124648
 20
0.8633126425626254
 10
3.625210162470556
 20
0.8615770861014521
 10
3.626294885258785
 20
0.8596968999351695
 10
3.627090348636838
 20
0.857599769211232
 10
3.627451922899584
 20
0.8554303236347497
 10
3.627162663489404
 20
0.853260878058268
 10
3.626150255553698
 20
0.8511637473343306
 10
3.618195621773256
 20
0.8372792956448201
 10
3.616243120754428
 20
0.8332296639020553
 10
3.615013768261088
 20
0.8289630876016357
 10
3.614435249440691
 20
0.8245518815961272
 10
3.614507564293233
 20
0.8200683607380533
 10
3.615230712818723
 20
0.8155848398799786
 10
3.616677009869716
 20
0.8113182635795595
 10
3.618701825741109
 20
0.8072686318367946
 10
3.621377475285424
 20
0.8036528892093175
 10
3.62267914263131
 20
0.8022065921583434
 10
3.624053124829762
 20
0.8008326099598928
 10
3.625499421880754
 20
0.7994586277614424
 10
3.627018033784294
 20
0.7981569604155574
 10
3.628536645687833
 20
0.7969999227747615
 10
3.630199887296484
 20
0.7958428851339865
 10
3.631863128905091
 20
0.794758162345735
 10
3.633598685366285
 20
0.7938180692625934
 10
3.635334241827478
 20
0.7928779761794518
 10
3.637142113141218
 20
0.7920825128013993
 10
3.638949984454955
 20
0.7914316791284568
 10
3.64083017062124
 20
0.7908531603080588
 10
3.642710356787523
 20
0.7903469563402266
 10
3.644662857806349
 20
0.7900576969300275
 10
3.646543043972656
 20
0.7898407523723729
 10
3.648495544991503
 20
0.789768437519829
 10
3.676192133517938
 20
0.789768437519829
 10
3.676192133517938
 20
0.8550687493720062
 10
3.676264448370481
 20
0.8565150464229798
 10
3.676336763223022
 20
0.8579613434739755
 10
3.67655370778068
 20
0.8593353256724045
 10
3.676842967190879
 20
0.8607816227233996
 10
3.677276856306186
 20
0.8621556049218504
 10
3.677783060274019
 20
0.8634572722677358
 10
3.678361579094418
 20
0.8646866247610759
 10
3.679012412767361
 20
0.865915977254416
 10
3.654063788637807
 20
0.865915977254416
  0
LWPOLYLINE
  5
CA7
330
17
100
AcDbEntity
  8
4
  6
Continuous
100
AcDbPolyline
 90
      213
 70
     0
 43
0.0
 10
3.597532178785384
 20
0.8615047712489079
 10
3.595868937176776
 20
0.8621556049218504
 10
3.594205695568127
 20
0.8627341237422484
 10
3.592542453959477
 20
0.8632403277100806
 10
3.590806897498305
 20
0.8636742168253901
 10
3.589071341037112
 20
0.8639634762355886
 10
3.587335784575939
 20
0.8642527356457883
 10
3.585600228114743
 20
0.8644696802034211
 10
3.583864671653549
 20
0.8646143099085318
 10
3.58205680033981
 20
0.8646866247610759
 10
3.580321243878617
 20
0.8646866247610759
 10
3.578513372564879
 20
0.8646143099085318
 10
3.576777816103707
 20
0.8644696802034211
 10
3.574969944789968
 20
0.8642527356457883
 10
3.573234388328773
 20
0.8640357910881334
 10
3.5714988318676
 20
0.8636742168253901
 10
3.569763275406406
 20
0.8633126425626254
 10
3.566726051599327
 20
0.8623725494794838
 10
3.563761142644795
 20
0.8609985672810545
 10
3.560940863395368
 20
0.8594076405249705
 10
3.558192898998488
 20
0.8574551395061217
 10
3.555661879159265
 20
0.8552856939296397
 10
3.553275489025126
 20
0.8528269889429589
 10
3.551178358301188
 20
0.8502236542511889
 10
3.549298172134904
 20
0.8474756898543088
 10
3.547779560231366
 20
0.844583095752319
 10
3.546622522590569
 20
0.8415458719452395
 10
3.545754744359973
 20
0.8385086481381605
 10
3.545393170097231
 20
0.8353991094785371
 10
3.545465484949774
 20
0.8322895708189136
 10
3.545971688917628
 20
0.8291800321592901
 10
3.546984096853336
 20
0.8261428083522112
 10
3.548575023609396
 20
0.8232502142502209
 10
3.548936597872163
 20
0.8228163251349332
 10
3.54937048698745
 20
0.8224547508721895
 10
3.54980437610274
 20
0.8221654914619907
 10
3.550310580070591
 20
0.8218762320517916
 10
3.550816784038444
 20
0.8217316023466816
 10
3.551322988006298
 20
0.8216592874941369
 10
3.551901506826697
 20
0.8216592874941369
 10
3.552480025647096
 20
0.8218039171992471
 10
3.573017443771118
 20
0.825708919236902
 10
3.574174481411914
 20
0.8259258637945563
 10
3.575331519052709
 20
0.826070493499667
 10
3.576560871546051
 20
0.8262874380572997
 10
3.577717909186848
 20
0.8263597529098657
 10
3.578947261680188
 20
0.8265043826149547
 10
3.580104299320983
 20
0.826576697467499
 10
3.581261336961779
 20
0.826576697467499
 10
3.58249068945512
 20
0.826576697467499
 10
3.583647727095916
 20
0.8265043826149547
 10
3.58480476473669
 20
0.8264320677624104
 10
3.585961802377488
 20
0.8262874380572997
 10
3.587118840018263
 20
0.826070493499667
 10
3.588203562806513
 20
0.8257812340894673
 10
3.58936060044731
 20
0.8254919746792687
 10
3.590445323235563
 20
0.8250580855639594
 10
3.59153004602379
 20
0.8246241964486713
 10
3.593988751010473
 20
0.823105584545132
 10
3.595796622324211
 20
0.8209361389686502
 10
3.597025974817553
 20
0.8184051191294035
 10
3.59774912334306
 20
0.8155125250274345
 10
3.597821438195605
 20
0.8124753012203552
 10
3.597315234227751
 20
0.809365762560732
 10
3.596302826292064
 20
0.8064731684587421
 10
3.594784214388524
 20
0.8037975189144276
 10
3.593699491600276
 20
0.8025681664210871
 10
3.592614768812022
 20
0.8013388139277466
 10
3.591313101466138
 20
0.800326405992039
 10
3.590011434120251
 20
0.7993863129088977
 10
3.588637451921823
 20
0.7985185346783008
 10
3.587118840018263
 20
0.797795386152814
 10
3.585600228114743
 20
0.7972891821849603
 10
3.584009301358641
 20
0.7968552930696724
 10
3.582129115192356
 20
0.7966383485120177
 10
3.580248929026073
 20
0.7966383485120177
 10
3.578441057712336
 20
0.7967829782171281
 10
3.576560871546051
 20
0.7972168673324159
 10
3.574825315084857
 20
0.7977230713002697
 10
3.573017443771118
 20
0.7984462198257565
 10
3.57135420216249
 20
0.7993139980563539
 10
3.569690960553863
 20
0.800326405992039
 10
3.568100033797756
 20
0.8014834436328355
 10
3.566581421894238
 20
0.8027127961261758
 10
3.565135124843221
 20
0.8040867783246261
 10
3.563761142644795
 20
0.8055330753756003
 10
3.562531790151451
 20
0.8070516872791396
 10
3.561302437658111
 20
0.808642614035245
 10
3.560217714869859
 20
0.8103058556438734
 10
3.559277621786738
 20
0.811969097252502
 10
3.542572890847806
 20
0.8043760377348259
 10
3.543440669078401
 20
0.8022065921583434
 10
3.544525391866633
 20
0.800109461434406
 10
3.545971688917628
 20
0.7982292752681019
 10
3.547634930526276
 20
0.7964214039543847
 10
3.54951511669256
 20
0.794758162345735
 10
3.551612247416477
 20
0.7932395504421952
 10
3.553854007845524
 20
0.7918655682437663
 10
3.556240397979661
 20
0.7906362157504258
 10
3.558771417818886
 20
0.7896238078147185
 10
3.561374752510656
 20
0.7887560295841212
 10
3.564122716907557
 20
0.7880328810586345
 10
3.566798366451873
 20
0.7875989919433462
 10
3.569546330848751
 20
0.7872374176806032
 10
3.572294295245631
 20
0.7871651028280377
 10
3.574969944789968
 20
0.7873097325331475
 10
3.577645594334303
 20
0.7875989919433462
 10
3.579670410205673
 20
0.7880328810586345
 10
3.581622911224502
 20
0.7886113998790325
 10
3.583575412243352
 20
0.789262233551975
 10
3.585455598409654
 20
0.7900576969300275
 10
3.587263469723373
 20
0.7909977900131691
 10
3.589071341037112
 20
0.7920825128013993
 10
3.59073458264574
 20
0.7931672355896509
 10
3.592397824254388
 20
0.7944689029355359
 10
3.593916436157926
 20
0.795770570281421
 10
3.595435048061468
 20
0.7972168673324159
 10
3.596809030259897
 20
0.7987354792359556
 10
3.598110697605783
 20
0.800398720844605
 10
3.59926773524658
 20
0.8020619624532335
 10
3.60035245803483
 20
0.8037975189144276
 10
3.60129255111797
 20
0.8056053902281661
 10
3.602160329348568
 20
0.8074855763944491
 10
3.602955792726601
 20
0.8095827071183865
 10
3.603534311546998
 20
0.8116798378423242
 10
3.603968200662305
 20
0.8137769685662401
 10
3.604329774925052
 20
0.8160187289952883
 10
3.604474404630161
 20
0.8181881745717705
 10
3.604474404630161
 20
0.8203576201482523
 10
3.604329774925052
 20
0.8225270657247341
 10
3.603968200662305
 20
0.8246965113012159
 10
3.603534311546998
 20
0.826576697467499
 10
3.602955792726601
 20
0.8283845687812377
 10
3.602232644201113
 20
0.8301201252424315
 10
3.601364865970538
 20
0.8318556817036258
 10
3.600280143182285
 20
0.8333742936071653
 10
3.599050790688945
 20
0.8348205906581387
 10
3.59760449363795
 20
0.836122258004045
 10
3.596085881734409
 20
0.8372069807922756
 10
3.595435048061468
 20
0.8376408699075636
 10
3.594711899535981
 20
0.8380747590228725
 10
3.593988751010473
 20
0.838436333285616
 10
3.593265602484964
 20
0.8387979075483599
 10
3.592542453959477
 20
0.8391594818111244
 10
3.591746990581446
 20
0.8394487412213019
 10
3.591023842055959
 20
0.8396656857789569
 10
3.590228378677908
 20
0.8398826303366108
 10
3.589432915299854
 20
0.8400995748942657
 10
3.588637451921823
 20
0.8403165194518994
 10
3.58784198854377
 20
0.8404611491570094
 10
3.587046525165717
 20
0.840605778862098
 10
3.586251061787685
 20
0.8407504085672082
 10
3.585455598409654
 20
0.8408227234197527
 10
3.584587820179036
 20
0.8409673531248412
 10
3.583792356801005
 20
0.8410396679774072
 10
3.582996893422973
 20
0.8410396679774072
 10
3.5822014300449
 20
0.8410396679774072
 10
3.581405966666868
 20
0.8411119828299518
 10
3.580610503288836
 20
0.8411119828299518
 10
3.579815039910784
 20
0.8411119828299518
 10
3.579019576532732
 20
0.841184297682496
 10
3.578151798302134
 20
0.841184297682496
 10
3.577284020071538
 20
0.841184297682496
 10
3.576416241840962
 20
0.841184297682496
 10
3.575548463610365
 20
0.8411119828299518
 10
3.574536055674678
 20
0.8410396679774072
 10
3.573595962591516
 20
0.8409673531248412
 10
3.57258355465583
 20
0.8408950382722968
 10
3.5714988318676
 20
0.8407504085672082
 10
3.570414109079348
 20
0.840533464009554
 10
3.569257071438553
 20
0.8403165194518994
 10
3.552696970204728
 20
0.8372792956448201
 10
3.552263081089421
 20
0.8387979075483599
 10
3.552046136531787
 20
0.8402442045993549
 10
3.552118451384328
 20
0.8417628165028943
 10
3.552335395941983
 20
0.8432091135538893
 10
3.552841599909816
 20
0.8446554106048628
 10
3.553420118730215
 20
0.846029392803314
 10
3.554287896960812
 20
0.8474033750017433
 10
3.555227990043953
 20
0.8486327274950834
 10
3.556312712832205
 20
0.8497897651358798
 10
3.557542065325546
 20
0.8509468027766756
 10
3.558843732671431
 20
0.8518868958598172
 10
3.560290029722424
 20
0.8527546740904142
 10
3.561808641625964
 20
0.8534778226159014
 10
3.563327253529505
 20
0.8541286562888652
 10
3.564918180285589
 20
0.854562545404153
 10
3.566581421894238
 20
0.854851804814352
 10
3.568027718945212
 20
0.8549241196668958
 10
3.569546330848751
 20
0.8549241196668958
 10
3.570992627899746
 20
0.8547794899618077
 10
3.572438924950721
 20
0.854562545404153
 10
3.573885222001738
 20
0.8542732859939539
 10
3.575331519052709
 20
0.8538393968786659
 10
3.57670550125114
 20
0.8533331929108122
 10
3.578079483449589
 20
0.8527546740904142
 10
3.57945346564804
 20
0.8521038404174721
 10
3.580827447846471
 20
0.8513806918919634
 10
3.582129115192356
 20
0.8506575433664767
 10
3.583430782538241
 20
0.8497897651358798
 10
3.58466013503158
 20
0.8489219869052826
 10
3.585889487524921
 20
0.8480542086747071
 10
3.587118840018263
 20
0.8471141155915656
 10
3.588275877659058
 20
0.8461740225084025
 10
3.607005424469386
 20
0.8549964345194407
 10
3.605993016533678
 20
0.856008842455148
 10
3.604908293745448
 20
0.8570212503908336
 10
3.603823570957219
 20
0.8579613434739755
 10
3.602594218463877
 20
0.858756806852028
 10
3.601364865970538
 20
0.8595522702300595
 10
3.600135513477196
 20
0.8602754187555675
 10
3.598833846131292
 20
0.8609262524285099
 10
3.597532178785384
 20
0.8615047712489079
  0
LWPOLYLINE
  5
CA8
330
17
100
AcDbEntity
  8
4
  6
Continuous
100
AcDbPolyline
 90
       21
 70
     0
 43
0.0
 10
3.237691501069613
 20
0.8483434680849056
 10
3.237474556511978
 20
0.8461017076558583
 10
3.236823722839037
 20
0.8440045769319205
 10
3.23581131490333
 20
0.8421967056181824
 10
3.234437332704901
 20
0.840605778862098
 10
3.232774091096252
 20
0.8393041115162134
 10
3.230893904929968
 20
0.8383640184330714
 10
3.228796774206053
 20
0.8377854996126734
 10
3.226627328629546
 20
0.8375685550550189
 10
3.212092043267094
 20
0.8375685550550189
 10
3.212092043267094
 20
0.8561534721602367
 10
3.210645746216123
 20
0.8596968999351695
 10
3.226916588039745
 20
0.8596968999351695
 10
3.229086033616229
 20
0.8594799553775152
 10
3.231183164340166
 20
0.8588291217045721
 10
3.232991035653903
 20
0.8578167137688863
 10
3.23458196240999
 20
0.8564427315704357
 10
3.235883629755873
 20
0.8547071751092417
 10
3.236823722839037
 20
0.8528269889429589
 10
3.237474556511978
 20
0.8506575433664767
 10
3.237691501069613
 20
0.8483434680849056
  0
LWPOLYLINE
  5
CA9
330
17
100
AcDbEntity
  8
4
  6
Continuous
100
AcDbPolyline
 90
      114
 70
     0
 43
0.0
 10
3.413538714343063
 20
0.7891899186994307
 10
3.412743250965032
 20
0.7898407523723729
 10
3.411947787586977
 20
0.7907808454555143
 10
3.411152324208926
 20
0.7920825128013993
 10
3.410356860830896
 20
0.7936734395575047
 10
3.409633712305407
 20
0.7955536257237874
 10
3.409055193485011
 20
0.7978677010053583
 10
3.408621304369701
 20
0.8005433505496938
 10
3.408332044959522
 20
0.8035805743567728
 10
3.408332044959522
 20
0.8514530067445296
 10
3.40825973010698
 20
0.8527546740904142
 10
3.407970470696758
 20
0.8541286562888652
 10
3.407464266728906
 20
0.8555026384872943
 10
3.406741118203418
 20
0.8568043058331793
 10
3.405801025120278
 20
0.8581059731790855
 10
3.404643987479481
 20
0.8594076405249705
 10
3.403342320133595
 20
0.860636993018311
 10
3.401823708230056
 20
0.8618663455116513
 10
3.400160466621406
 20
0.8629510682998818
 10
3.398280280455123
 20
0.8639634762355886
 10
3.396183149731209
 20
0.8648312544661859
 10
3.394013704154703
 20
0.8656267178442176
 10
3.391554999168024
 20
0.8662052366646156
 10
3.389023979328797
 20
0.8667114406324692
 10
3.386276014931918
 20
0.867000700042668
 10
3.383383420829948
 20
0.8671453297477569
 10
3.380273882170325
 20
0.867000700042668
 10
3.377236658363246
 20
0.8665668109273585
 10
3.374271749408713
 20
0.8656990326967617
 10
3.371451470159267
 20
0.8646143099085318
 10
3.368775820614953
 20
0.8631680128575363
 10
3.366172485923182
 20
0.8615047712489079
 10
3.363786095789047
 20
0.8595522702300595
 10
3.361544335359996
 20
0.8573828246535772
 10
3.359519519488627
 20
0.8549964345194407
 10
3.357639333322343
 20
0.8524654146802156
 10
3.356048406566238
 20
0.8497897651358798
 10
3.354746739220353
 20
0.8469694858864551
 10
3.3536620164321
 20
0.8440045769319205
 10
3.352866553054069
 20
0.8409673531248412
 10
3.352360349086215
 20
0.8378578144652184
 10
3.352215719381128
 20
0.8346759609530501
 10
3.352215719381128
 20
0.7993863129088977
 10
3.352071089676018
 20
0.7971445524798715
 10
3.351564885708184
 20
0.7952643663135888
 10
3.350914052035242
 20
0.7936734395575047
 10
3.350046273804623
 20
0.7923717722115984
 10
3.349178495574048
 20
0.7913593642759125
 10
3.348310717343451
 20
0.7904915860453153
 10
3.347442939112853
 20
0.7898407523723729
 10
3.346792105439913
 20
0.789262233551975
 10
3.362122854180396
 20
0.789262233551975
 10
3.364147670051767
 20
0.7895514929621738
 10
3.365883226512963
 20
0.7902746414876609
 10
3.367401838416522
 20
0.7913593642759125
 10
3.368703505762406
 20
0.7928056613269076
 10
3.369788228550636
 20
0.7943965880829916
 10
3.370583691928692
 20
0.7961321445441856
 10
3.371089895896544
 20
0.7979400158579241
 10
3.371379155306721
 20
0.7997478871716415
 10
3.37152378501181
 20
0.8023512218634323
 10
3.371162210749089
 20
0.8050268714077677
 10
3.370656006781234
 20
0.8076302060995379
 10
3.370005173108292
 20
0.8101612259387845
 10
3.369137394877696
 20
0.8137769685662401
 10
3.368341931499642
 20
0.8173927111937175
 10
3.367618782974157
 20
0.8210084538211944
 10
3.36689563444867
 20
0.8246241964486713
 10
3.366244800775725
 20
0.8282399390761487
 10
3.365738596807873
 20
0.8319279965561703
 10
3.365304707692564
 20
0.8355437391836474
 10
3.365015448282385
 20
0.8392317966636685
 10
3.364943133429842
 20
0.8422690204707475
 10
3.365160077987475
 20
0.8453785591303715
 10
3.365666281955326
 20
0.8484157829374506
 10
3.366461745333359
 20
0.8513806918919847
 10
3.367618782974157
 20
0.8541286562888652
 10
3.369137394877696
 20
0.8566596761280909
 10
3.371017581043978
 20
0.8588291217045721
 10
3.373403971178114
 20
0.860636993018311
 10
3.374777953376566
 20
0.861360141543798
 10
3.37622425042754
 20
0.8618663455116513
 10
3.377742862331079
 20
0.8622279197743946
 10
3.379261474234618
 20
0.8624448643320492
 10
3.380852400990723
 20
0.8624448643320492
 10
3.382443327746788
 20
0.8622279197743946
 10
3.383961939650346
 20
0.8618663455116513
 10
3.385480551553866
 20
0.861360141543798
 10
3.386854533752318
 20
0.860636993018311
 10
3.388156201098221
 20
0.8597692147877138
 10
3.389385553591542
 20
0.858684491999462
 10
3.390397961527228
 20
0.8574551395061217
 10
3.391265739757845
 20
0.8560811573076922
 10
3.391988888283331
 20
0.8544902305516082
 10
3.392495092251185
 20
0.8527546740904142
 10
3.392712036808819
 20
0.8508744879241314
 10
3.392712036808819
 20
0.7995309426140082
 10
3.392784351661365
 20
0.7983015901206674
 10
3.393001296219018
 20
0.7972168673324159
 10
3.393362870481761
 20
0.7961321445441856
 10
3.393796759597071
 20
0.7951197366084784
 10
3.39437527841747
 20
0.7942519583778817
 10
3.395026112090413
 20
0.7933841801473056
 10
3.395749260615897
 20
0.7925887167692533
 10
3.396617038846496
 20
0.7918655682437663
 10
3.397557131929636
 20
0.7912870494233683
 10
3.398497225012778
 20
0.79070853060297
 10
3.399509632948464
 20
0.7902746414876609
 10
3.400594355736716
 20
0.7899130672249175
 10
3.401679078524968
 20
0.7895514929621738
 10
3.402836116165764
 20
0.7893345484045195
 10
3.403920838953994
 20
0.789262233551975
 10
3.40507787659477
 20
0.7891899186994307
 10
3.413538714343063
 20
0.7891899186994307
  0
LWPOLYLINE
  5
CAA
330
17
100
AcDbEntity
  8
4
  6
Continuous
100
AcDbPolyline
 90
       59
 70
     0
 43
0.0
 10
3.138051634722304
 20
0.8438599472268318
 10
3.145427749682346
 20
0.8495005057256808
 10
3.146584787323146
 20
0.8494281908731363
 10
3.147669510111394
 20
0.8492835611680471
 10
3.148754232899627
 20
0.8489943017578481
 10
3.149766640835313
 20
0.8487050423476496
 10
3.150851363623564
 20
0.8482711532323401
 10
3.151863771559271
 20
0.8477649492645081
 10
3.152803864642391
 20
0.8471864304441098
 10
3.153743957725553
 20
0.8465355967711673
 10
3.154611735956129
 20
0.8458847630982035
 10
3.155479514186728
 20
0.8451616145727168
 10
3.156347292417326
 20
0.8444384660472298
 10
3.157142755795357
 20
0.843643002669177
 10
3.157865904320863
 20
0.8428475392911456
 10
3.158589052846373
 20
0.8420520759130932
 10
3.159239886519313
 20
0.8413289273876063
 10
3.159818405339691
 20
0.840533464009554
 10
3.161843221211084
 20
0.8373516104973859
 10
3.163434147967168
 20
0.8340251272801078
 10
3.164591185607966
 20
0.8304816995051751
 10
3.165386648986015
 20
0.8268659568776982
 10
3.165892852953851
 20
0.8231778993976766
 10
3.166109797511503
 20
0.8194175270651108
 10
3.166254427216593
 20
0.8156571547325448
 10
3.166182112364047
 20
0.8118967823999575
 10
3.166037482658961
 20
0.80994428138113
 10
3.165675908396194
 20
0.8080640952148471
 10
3.165097389575796
 20
0.8062562239011086
 10
3.164374241050308
 20
0.8045206674399146
 10
3.163506462819712
 20
0.8028574258312859
 10
3.162421740031483
 20
0.8012664990751808
 10
3.161264702390687
 20
0.7998202020242072
 10
3.159963035044802
 20
0.7984462198257565
 10
3.158516737993806
 20
0.7972168673324159
 10
3.15707044094281
 20
0.7960598296916201
 10
3.155479514186728
 20
0.7950474217559341
 10
3.153888587430643
 20
0.7941073286727926
 10
3.152297660674538
 20
0.7933118652947396
 10
3.150634419065931
 20
0.7927333464743418
 10
3.148971177457282
 20
0.7922271425065098
 10
3.147380250701176
 20
0.7918655682437663
 10
3.146440157618055
 20
0.7919378830963102
 10
3.145500064534893
 20
0.792010197948855
 10
3.144559971451774
 20
0.7922271425065098
 10
3.143692193221156
 20
0.7925164019167084
 10
3.142824414990578
 20
0.7928779761794518
 10
3.142028951612526
 20
0.7933118652947396
 10
3.141233488234473
 20
0.7938903841151377
 10
3.140582654561531
 20
0.7944689029355359
 10
3.139859506036043
 20
0.7951920514610441
 10
3.139353302068189
 20
0.7959875148390752
 10
3.138919412952903
 20
0.7968552930696724
 10
3.138557838690158
 20
0.797795386152814
 10
3.138340894132503
 20
0.7987354792359556
 10
3.138196264427393
 20
0.7997478871716415
 10
3.138051634722304
 20
0.8007602951073485
 10
3.138051634722304
 20
0.8017727030430346
 10
3.138051634722304
 20
0.8438599472268318
  0
LWPOLYLINE
  5
CAB
330
17
100
AcDbEntity
  8
4
  6
Continuous
100
AcDbPolyline
 90
       61
 70
     0
 43
0.0
 10
3.237980760479834
 20
0.8320003114087144
 10
3.240077891203749
 20
0.8321449411138248
 10
3.242102707075143
 20
0.8324342005240236
 10
3.243910578388859
 20
0.8328680896393112
 10
3.245573819997509
 20
0.8334466084597098
 10
3.247020117048506
 20
0.8341697569851962
 10
3.248394099246956
 20
0.8349652203632494
 10
3.249623451740296
 20
0.8359053134463907
 10
3.250708174528528
 20
0.8369900362346211
 10
3.251648267611666
 20
0.8381470738754169
 10
3.252443730989698
 20
0.8393764263687577
 10
3.253094564662663
 20
0.8406780937146427
 10
3.253600768630496
 20
0.8421243907656377
 10
3.254034657745803
 20
0.8435706878166325
 10
3.254323917155981
 20
0.8450892997201723
 10
3.254468546861113
 20
0.8466802264762558
 10
3.254540861713658
 20
0.8483434680849056
 10
3.254468546861113
 20
0.8498620799884456
 10
3.254179287450893
 20
0.8513806918919847
 10
3.25381771318815
 20
0.8528269889429589
 10
3.253239194367751
 20
0.8542732859939539
 10
3.25258836069481
 20
0.8556472681923832
 10
3.251792897316756
 20
0.8569489355382895
 10
3.250852804233636
 20
0.8581782880316302
 10
3.249840396297929
 20
0.8593353256724258
 10
3.248683358657133
 20
0.860347733608112
 10
3.247454006163793
 20
0.8612878266912533
 10
3.246224653670451
 20
0.8620832900693059
 10
3.244850671472021
 20
0.8628064385947929
 10
3.243404374421029
 20
0.8633849574151909
 10
3.241958077370033
 20
0.8637465316779342
 10
3.240439465466513
 20
0.8640357910881334
 10
3.238920853562953
 20
0.8641081059406779
 10
3.188300456778318
 20
0.8641081059406779
 10
3.189023605303823
 20
0.8635295871202796
 10
3.189674438976768
 20
0.8629510682998818
 10
3.190325272649731
 20
0.8623002346269393
 10
3.190903791470129
 20
0.8617217158065413
 10
3.191482310290506
 20
0.8611431969861435
 10
3.192060829110904
 20
0.8604200484606563
 10
3.192567033078736
 20
0.8596968999351695
 10
3.193073237046589
 20
0.8588291217045721
 10
3.193796385572078
 20
0.8572381949484885
 10
3.194374904392474
 20
0.8553580087822055
 10
3.194736478655241
 20
0.853550137468467
 10
3.194881108360331
 20
0.8521038404174721
 10
3.194953423212872
 20
0.7870927879754932
 10
3.212381302677318
 20
0.8023512218634323
 10
3.212381302677318
 20
0.8325065153765685
 10
3.220046677047537
 20
0.8325788302291128
 10
3.246152338817906
 20
0.7893345484045195
 10
3.268642257960801
 20
0.7891899186994307
 10
3.267268275762351
 20
0.789985382077462
 10
3.265894293563921
 20
0.7909254751606249
 10
3.264592626218013
 20
0.7918655682437663
 10
3.263290958872128
 20
0.7929502910319966
 10
3.26206160637879
 20
0.7939626989676825
 10
3.260904568737994
 20
0.7951197366084784
 10
3.259747531097196
 20
0.7962767742492744
 10
3.258590493456401
 20
0.7975061267426149
 10
3.237980760479834
 20
0.8320003114087144
  0
LWPOLYLINE
  5
CAC
330
17
100
AcDbEntity
  8
4
  6
Continuous
100
AcDbPolyline
 90
       83
 70
     0
 43
0.0
 10
3.167411464857388
 20
0.856298101865347
 10
3.166254427216593
 20
0.8573828246535772
 10
3.165097389575796
 20
0.8584675474418288
 10
3.163940351935021
 20
0.8594799553775152
 10
3.162710999441681
 20
0.8604200484606563
 10
3.161409332095774
 20
0.8612155118387093
 10
3.159963035044802
 20
0.8619386603641958
 10
3.158372108288697
 20
0.8625894940371383
 10
3.156564236974958
 20
0.8630233831524476
 10
3.122865515686911
 20
0.8443661511946856
 10
3.122720885981823
 20
0.7962767742492744
 10
3.122793200834365
 20
0.7954813108712431
 10
3.122937830539453
 20
0.794613532640646
 10
3.123227089949676
 20
0.7938903841151377
 10
3.123588664212397
 20
0.7931672355896509
 10
3.124022553327706
 20
0.7925164019167084
 10
3.12452875729556
 20
0.7918655682437663
 10
3.125107276115959
 20
0.7913593642759125
 10
3.1257581097889
 20
0.7908531603080588
 10
3.126842832577153
 20
0.7902023266351163
 10
3.127999870217926
 20
0.7896238078147185
 10
3.129156907858723
 20
0.7891176038468859
 10
3.130386260352063
 20
0.788683714731577
 10
3.131615612845403
 20
0.7883944553213778
 10
3.132844965338744
 20
0.7881051959111787
 10
3.134146632684631
 20
0.7878882513535457
 10
3.135448300030537
 20
0.787671306795891
 10
3.136749967376419
 20
0.7875989919433462
 10
3.138051634722304
 20
0.7875266770907809
 10
3.139353302068189
 20
0.7875266770907809
 10
3.14072728426662
 20
0.7875989919433462
 10
3.142028951612526
 20
0.787671306795891
 10
3.143330618958433
 20
0.7878159365009796
 10
3.144632286304318
 20
0.78796056620609
 10
3.1459339536502
 20
0.7881775107637448
 10
3.147452565553741
 20
0.7883944553213778
 10
3.148971177457282
 20
0.7887560295841212
 10
3.150417474508254
 20
0.7891176038468859
 10
3.151863771559271
 20
0.7895514929621738
 10
3.153310068610244
 20
0.7900576969300275
 10
3.154756365661218
 20
0.7906362157504258
 10
3.15613034785969
 20
0.7912870494233683
 10
3.157504330058122
 20
0.7919378830963102
 10
3.158805997404004
 20
0.7926610316217975
 10
3.160179979602435
 20
0.79345649499985
 10
3.161409332095774
 20
0.7943242732304472
 10
3.162710999441681
 20
0.7951920514610441
 10
3.163940351935021
 20
0.7961321445441856
 10
3.165097389575796
 20
0.7970722376273267
 10
3.166254427216593
 20
0.7980846455630131
 10
3.167411464857388
 20
0.7990970534986991
 10
3.169219336171128
 20
0.8009772396649822
 10
3.170882577779776
 20
0.8029297406838303
 10
3.172473504535861
 20
0.8049545565552023
 10
3.173847486734312
 20
0.8071240021317059
 10
3.175149154080198
 20
0.8094380774132762
 10
3.176306191720992
 20
0.8117521526948683
 10
3.177246284804111
 20
0.814138542829005
 10
3.178114063034732
 20
0.8165972478156858
 10
3.178764896707671
 20
0.8190559528023673
 10
3.179271100675506
 20
0.8216592874941369
 10
3.179632674938248
 20
0.8241903073333624
 10
3.179849619495906
 20
0.8267936420251537
 10
3.179921934348446
 20
0.829324661864379
 10
3.179777304643339
 20
0.8319279965561703
 10
3.17948804523316
 20
0.8345313312479396
 10
3.179054156117851
 20
0.8370623510871869
 10
3.178692581855108
 20
0.838436333285616
 10
3.178331007592364
 20
0.8398103154840669
 10
3.177897118477056
 20
0.841184297682496
 10
3.177390914509223
 20
0.842485965028381
 10
3.176812395688825
 20
0.8437876323742873
 10
3.176161562015883
 20
0.8450892997201723
 10
3.175510728342918
 20
0.8463186522135124
 10
3.17478757981743
 20
0.8475480047068533
 10
3.173992116439399
 20
0.8487773572001938
 10
3.173124338208803
 20
0.8499343948409896
 10
3.172256559978205
 20
0.8510914324817861
 10
3.17138878174761
 20
0.8521761552700159
 10
3.170448688664468
 20
0.853260878058268
 10
3.169436280728781
 20
0.8542732859939539
 10
3.168423872793094
 20
0.8552856939296397
 10
3.167411464857388
 20
0.856298101865347
  0
LWPOLYLINE
  5
CAD
330
17
100
AcDbEntity
  8
4
  6
Continuous
100
AcDbPolyline
 90
      271
 70
     0
 43
0.0
 10
3.326939514269433
 20
0.8352544797734481
 10
3.325927106333746
 20
0.8358329985938466
 10
3.324914698398038
 20
0.8363392025616786
 10
3.323829975609808
 20
0.8367730916769875
 10
3.322817567674122
 20
0.8372069807922756
 10
3.321732844885871
 20
0.8376408699075636
 10
3.320648122097621
 20
0.8379301293177626
 10
3.319563399309388
 20
0.8382917035805274
 10
3.318478676521158
 20
0.8385809629907264
 10
3.317321638880365
 20
0.8387979075483599
 10
3.316236916092111
 20
0.8389425372534699
 10
3.315007563598771
 20
0.8390871669585584
 10
3.313850525957975
 20
0.8392317966636685
 10
3.312621173464636
 20
0.8393041115162134
 10
3.311391820971292
 20
0.8393041115162134
 10
3.310162468477952
 20
0.8393041115162134
 10
3.308860801132068
 20
0.8392317966636685
 10
3.29179449593039
 20
0.8240456776282734
 10
3.293096163276276
 20
0.8243349370384724
 10
3.29439783062216
 20
0.8246241964486713
 10
3.295699497968064
 20
0.8249134558588707
 10
3.297001165313973
 20
0.8251304004165254
 10
3.298302832659858
 20
0.8253473449741584
 10
3.299604500005743
 20
0.8254919746792687
 10
3.300906167351628
 20
0.8256366043843579
 10
3.302280149550056
 20
0.825708919236902
 10
3.303581816895941
 20
0.8257812340894673
 10
3.304883484241848
 20
0.8257812340894673
 10
3.306185151587756
 20
0.8257812340894673
 10
3.307486818933639
 20
0.825708919236902
 10
3.308788486279524
 20
0.8255642895318132
 10
3.310090153625408
 20
0.8253473449741584
 10
3.311391820971292
 20
0.8251304004165254
 10
3.312693488317178
 20
0.8248411410063262
 10
3.313561266547798
 20
0.8245518815961272
 10
3.314501359630917
 20
0.8243349370384724
 10
3.315369137861513
 20
0.8239733627757289
 10
3.316236916092111
 20
0.8236841033655304
 10
3.31710469432271
 20
0.8233225291027864
 10
3.317972472553305
 20
0.8229609548400221
 10
3.318767935931334
 20
0.8225270657247341
 10
3.319635714161956
 20
0.8220931766094462
 10
3.320431177539986
 20
0.8215869726415924
 10
3.321154326065475
 20
0.8210807686737391
 10
3.32187747459096
 20
0.8205745647059066
 10
3.322600623116468
 20
0.8199960458855088
 10
3.323251456789412
 20
0.8193452122125663
 10
3.323902290462353
 20
0.8186943785396232
 10
3.324480809282751
 20
0.8179712300141153
 10
3.325059328103149
 20
0.8172480814886283
 10
3.325927106333746
 20
0.8159464141427219
 10
3.326650254859232
 20
0.8145001170917485
 10
3.327156458827087
 20
0.8130538200407535
 10
3.32751803308983
 20
0.8114628932846699
 10
3.327734977647486
 20
0.80994428138113
 10
3.327662662794941
 20
0.8083533546250459
 10
3.327301088532176
 20
0.8068347427215066
 10
3.32672256971178
 20
0.8053884456705111
 10
3.325854791481201
 20
0.8040867783246261
 10
3.324842383545495
 20
0.8030020555363748
 10
3.323685345904698
 20
0.8020619624532335
 10
3.322311363706268
 20
0.8012664990751808
 10
3.320865066655296
 20
0.8006156654022383
 10
3.319418769604281
 20
0.800109461434406
 10
3.317827842848216
 20
0.7996755723190973
 10
3.316309230944656
 20
0.7993863129088977
 10
3.315586082419171
 20
0.7993139980563539
 10
3.314790619041138
 20
0.7991693683512647
 10
3.314067470515629
 20
0.7990970534986991
 10
3.313272007137576
 20
0.7990970534986991
 10
3.312476543759546
 20
0.7990247386461542
 10
3.31175339523406
 20
0.7990247386461542
 10
3.310957931855986
 20
0.7990247386461542
 10
3.310162468477952
 20
0.7990247386461542
 10
3.309439319952466
 20
0.7990247386461542
 10
3.308643856574435
 20
0.7990970534986991
 10
3.307848393196361
 20
0.7990970534986991
 10
3.30705292981833
 20
0.7992416832038094
 10
3.306329781292841
 20
0.7993139980563539
 10
3.305534317914791
 20
0.7994586277614637
 10
3.304811169389281
 20
0.7996032574665524
 10
3.30401570601125
 20
0.7997478871716415
 10
3.303147927780676
 20
0.7999648317292958
 10
3.302280149550056
 20
0.8001817762869505
 10
3.301484686172026
 20
0.8004710356971497
 10
3.300616907941428
 20
0.8007602951073485
 10
3.299821444563376
 20
0.8011218693700921
 10
3.299025981185343
 20
0.8014834436328355
 10
3.298230517807291
 20
0.8019173327481446
 10
3.297435054429239
 20
0.8023512218634323
 10
3.296711905903751
 20
0.8027851109787198
 10
3.295916442525721
 20
0.8032913149465738
 10
3.295193294000213
 20
0.8037975189144276
 10
3.294470145474703
 20
0.8043037228822598
 10
3.293746996949216
 20
0.8048099268501136
 10
3.293096163276276
 20
0.8053884456705111
 10
3.292373014750789
 20
0.8059669644909096
 10
3.291722181077846
 20
0.806545483311307
 10
3.290637458289593
 20
0.8076302060995379
 10
3.289625050353907
 20
0.8087872437403341
 10
3.288612642418221
 20
0.80994428138113
 10
3.287600234482515
 20
0.8111013190219258
 10
3.286660141399396
 20
0.8122583566627008
 10
3.285792363168776
 20
0.8134877091560417
 10
3.284852270085655
 20
0.8147893765019475
 10
3.284056806707583
 20
0.8160187289952883
 10
3.283261343329551
 20
0.8173203963411733
 10
3.282538194804062
 20
0.8186943785396232
 10
3.281887361131122
 20
0.8199960458855088
 10
3.28123652745818
 20
0.8213700280839383
 10
3.280658008637781
 20
0.8228163251349332
 10
3.280224119522473
 20
0.8241903073333624
 10
3.279790230407185
 20
0.825708919236902
 10
3.279428656144443
 20
0.8271552162878972
 10
3.278922452176588
 20
0.8304816995051751
 10
3.278705507618953
 20
0.8339528124275419
 10
3.278922452176588
 20
0.8374239253499307
 10
3.279500970996986
 20
0.8407504085672082
 10
3.280513378932672
 20
0.843932262079376
 10
3.282031990836211
 20
0.8468248561813663
 10
3.283984491855037
 20
0.8494281908731363
 10
3.28644319684172
 20
0.8515253215970739
 10
3.287310975072336
 20
0.8520315255649272
 10
3.288178753302913
 20
0.8524654146802156
 10
3.289118846386076
 20
0.852899303795503
 10
3.289986624616652
 20
0.853260878058268
 10
3.290926717699816
 20
0.853550137468467
 10
3.291939125635477
 20
0.8538393968786659
 10
3.292879218718641
 20
0.8540563414362996
 10
3.293891626654327
 20
0.8542009711414094
 10
3.294831719737468
 20
0.8543456008464982
 10
3.295844127673176
 20
0.8544179156990423
 10
3.296856535608839
 20
0.8544179156990423
 10
3.297868943544548
 20
0.8544179156990423
 10
3.298881351480256
 20
0.8544179156990423
 10
3.299893759415921
 20
0.8543456008464982
 10
3.300833852499083
 20
0.8542009711414094
 10
3.30184626043477
 20
0.8540563414362996
 10
3.303147927780676
 20
0.8538393968786659
 10
3.30444959512656
 20
0.853550137468467
 10
3.305751262472446
 20
0.853260878058268
 10
3.306980614965786
 20
0.8528269889429589
 10
3.308209967459124
 20
0.8523930998276711
 10
3.309439319952466
 20
0.8518868958598172
 10
3.310668672445806
 20
0.8513806918919847
 10
3.311898024939146
 20
0.8508021730715871
 10
3.313055062579943
 20
0.8501513393986233
 10
3.314139785368196
 20
0.8495005057256808
 10
3.315296823008971
 20
0.8487050423476496
 10
3.316381545797201
 20
0.8479818938221409
 10
3.317466268585451
 20
0.8471141155915656
 10
3.318478676521158
 20
0.8463186522135124
 10
3.319491084456843
 20
0.8453785591303715
 10
3.320431177539986
 20
0.8444384660472298
 10
3.333809425261645
 20
0.8516699513021631
 10
3.332941647031026
 20
0.853260878058268
 10
3.33192923909536
 20
0.8547071751092417
 10
3.330772201454563
 20
0.8560811573076922
 10
3.329470534108678
 20
0.8573105098010325
 10
3.328096551910228
 20
0.8584675474418288
 10
3.326577940006687
 20
0.8594799553775152
 10
3.325059328103149
 20
0.8604200484606563
 10
3.323468401347065
 20
0.8612878266912533
 10
3.322239048853725
 20
0.8618663455116513
 10
3.320937381507841
 20
0.8624448643320492
 10
3.319708029014498
 20
0.8629510682998818
 10
3.318406361668613
 20
0.8633849574151909
 10
3.317032379470143
 20
0.8638188465304793
 10
3.315730712124258
 20
0.8641081059406779
 10
3.314356729925827
 20
0.8643973653508767
 10
3.312982747727398
 20
0.8646143099085318
 10
3.311608765528948
 20
0.8647589396136204
 10
3.310234783330498
 20
0.8648312544661859
 10
3.308788486279524
 20
0.8649035693187304
 10
3.307414504081093
 20
0.8649035693187304
 10
3.306040521882622
 20
0.8648312544661859
 10
3.304666539684192
 20
0.8646866247610759
 10
3.303292557485763
 20
0.8644696802034211
 10
3.301918575287313
 20
0.8641804207932221
 10
3.300616907941428
 20
0.8638911613830233
 10
3.299387555448088
 20
0.8634572722677358
 10
3.298085888102183
 20
0.8630233831524476
 10
3.296856535608839
 20
0.8625894940371383
 10
3.295699497968064
 20
0.8620109752167405
 10
3.294470145474703
 20
0.8614324563963425
 10
3.293313107833928
 20
0.8607816227233996
 10
3.292156070193153
 20
0.8601307890504571
 10
3.290999032552357
 20
0.8594076405249705
 10
3.289914309764106
 20
0.858684491999462
 10
3.288829586975857
 20
0.8578890286214308
 10
3.287744864187623
 20
0.8570935652433782
 10
3.286660141399396
 20
0.8562257870127814
 10
3.285647733463687
 20
0.8553580087822055
 10
3.284563010675435
 20
0.8544902305516082
 10
3.283550602739751
 20
0.8536224523210114
 10
3.282104305688755
 20
0.8523207849751264
 10
3.280730323490326
 20
0.8510191176292201
 10
3.279356341291896
 20
0.8496451354307906
 10
3.278054673945988
 20
0.8481988383797958
 10
3.276753006600103
 20
0.8467525413288008
 10
3.275523654106763
 20
0.8453062442778268
 10
3.274366616465968
 20
0.8437876323742873
 10
3.273209578825193
 20
0.8421967056181824
 10
3.272197170889485
 20
0.840605778862098
 10
3.271184762953779
 20
0.8389425372534699
 10
3.27024466987066
 20
0.8372792956448201
 10
3.269449206492585
 20
0.8355437391836474
 10
3.268726057967096
 20
0.8338081827224531
 10
3.268075224294156
 20
0.8320003114087144
 10
3.267496705473758
 20
0.830192440094976
 10
3.26706281635847
 20
0.8283122539286932
 10
3.266628927243181
 20
0.8257812340894673
 10
3.266411982685526
 20
0.8231778993976766
 10
3.266339667832961
 20
0.8206468795584509
 10
3.266411982685526
 20
0.8180435448666598
 10
3.266701242095727
 20
0.8155125250274345
 10
3.267207446063581
 20
0.8129815051882092
 10
3.267858279736523
 20
0.8104504853489833
 10
3.268726057967096
 20
0.8080640952148471
 10
3.269304576787496
 20
0.8067624278689407
 10
3.269955410460439
 20
0.8054607605230557
 10
3.27060624413338
 20
0.8042314080297153
 10
3.271401707511456
 20
0.8030743703889189
 10
3.272197170889485
 20
0.8019173327481446
 10
3.273064949120063
 20
0.8007602951073485
 10
3.274005042203223
 20
0.7996755723190973
 10
3.274945135286366
 20
0.7986631643834108
 10
3.275957543222053
 20
0.7976507564477254
 10
3.277042266010303
 20
0.7967106633645839
 10
3.278126988798556
 20
0.795770570281421
 10
3.279211711586763
 20
0.7949027920508454
 10
3.28036874922756
 20
0.7941073286727926
 10
3.281598101720899
 20
0.7933841801473056
 10
3.282827454214241
 20
0.7926610316217975
 10
3.284056806707583
 20
0.792010197948855
 10
3.286949400809573
 20
0.7907808454555143
 10
3.289914309764106
 20
0.789768437519829
 10
3.292951533571187
 20
0.7890452889943203
 10
3.296061072230811
 20
0.7884667701739434
 10
3.299170610890434
 20
0.7881775107637448
 10
3.302280149550056
 20
0.7880328810586345
 10
3.30538968820968
 20
0.7881775107637448
 10
3.308571541721868
 20
0.7885390850264879
 10
3.311608765528948
 20
0.7891176038468859
 10
3.314573674483462
 20
0.7899130672249175
 10
3.317538583437996
 20
0.7909977900131691
 10
3.320358862687443
 20
0.7922271425065098
 10
3.323034512231754
 20
0.7937457544100491
 10
3.325565532070982
 20
0.7954813108712431
 10
3.327951922205118
 20
0.7974338118900706
 10
3.330193682634165
 20
0.7996032574665524
 10
3.331856924242817
 20
0.8015557584853798
 10
3.333375536146333
 20
0.8036528892093175
 10
3.334749518344763
 20
0.8057500199332546
 10
3.335906555985558
 20
0.8080640952148471
 10
3.336918963921266
 20
0.8103781704964179
 10
3.337714427299298
 20
0.8127645606305545
 10
3.338220631267152
 20
0.8152232656172353
 10
3.338582205529916
 20
0.8177542854564608
 10
3.338654520382459
 20
0.8197791013278541
 10
3.338509890677352
 20
0.8217316023466816
 10
3.338148316414606
 20
0.8236841033655304
 10
3.337497482741665
 20
0.8256366043843579
 10
3.336629704511068
 20
0.8272275311404413
 10
3.335617296575381
 20
0.8286738281914365
 10
3.334387944082041
 20
0.8300478103898869
 10
3.333086276736134
 20
0.8312771628832273
 10
3.331639979685138
 20
0.8323618856714585
 10
3.330121367781623
 20
0.8334466084597098
 10
3.328530441025517
 20
0.8343867015428511
 10
3.326939514269433
 20
0.8352544797734481
  0
LWPOLYLINE
  5
CAE
330
17
100
AcDbEntity
  8
4
  6
Continuous
 62
     4
100
AcDbPolyline
 90
       96
 70
     0
 43
0.0
 10
3.491516090685436
 20
0.789262233551975
 10
3.490359053044642
 20
0.789985382077462
 10
3.4891297005513
 20
0.7908531603080588
 10
3.487828033205414
 20
0.7919378830963102
 10
3.486670995564621
 20
0.7931672355896509
 10
3.485586272776368
 20
0.7945412177880802
 10
3.48471849454579
 20
0.7962044593967299
 10
3.484139975725393
 20
0.7980123307104683
 10
3.483923031167718
 20
0.800109461434406
 10
3.483923031167718
 20
0.8480542086747071
 10
3.483778401462631
 20
0.8500790245460787
 10
3.483489142052429
 20
0.8519592107123617
 10
3.482910623232053
 20
0.8537670820260998
 10
3.482187474706546
 20
0.8554303236347497
 10
3.481319696475948
 20
0.8570935652433782
 10
3.480234973687696
 20
0.8585398622943735
 10
3.479005621194356
 20
0.859913844492803
 10
3.477631638995928
 20
0.8612155118387093
 10
3.476185341944955
 20
0.8623725494794838
 10
3.474594415188848
 20
0.8633849574151909
 10
3.472931173580198
 20
0.8642527356457883
 10
3.471267931971589
 20
0.8650481990238192
 10
3.469460060657852
 20
0.8656267178442176
 10
3.467652189344113
 20
0.8660606069595267
 10
3.465772003177829
 20
0.8664221812222701
 10
3.463891817011526
 20
0.8665668109273585
 10
3.46259014966562
 20
0.8665668109273585
 10
3.461288482319734
 20
0.8665668109273585
 10
3.460059129826396
 20
0.8664221812222701
 10
3.458757462480508
 20
0.8662775515171594
 10
3.457528109987171
 20
0.8660606069595267
 10
3.456226442641286
 20
0.8656990326967617
 10
3.454997090147946
 20
0.8653374584340184
 10
3.453767737654603
 20
0.8649758841712751
 10
3.452538385161263
 20
0.8644696802034211
 10
3.451381347520467
 20
0.8639634762355886
 10
3.450224309879672
 20
0.8633849574151909
 10
3.449067272238876
 20
0.8628064385947929
 10
3.447910234598078
 20
0.8620832900693059
 10
3.446825511809868
 20
0.8614324563963425
 10
3.44574078902162
 20
0.8607093078708555
 10
3.444728381085912
 20
0.859913844492803
 10
3.444294491970623
 20
0.8609262524285099
 10
3.443715973150225
 20
0.8620109752167405
 10
3.442920509772172
 20
0.8630233831524476
 10
3.442052731541595
 20
0.8639634762355886
 10
3.44118495331098
 20
0.8647589396136204
 10
3.440317175080402
 20
0.8654097732865629
 10
3.439521711702371
 20
0.8658436624018719
 10
3.438943192881973
 20
0.8659882921069609
 10
3.421226054007353
 20
0.8659882921069609
 10
3.422310776795582
 20
0.8649758841712751
 10
3.423540129288923
 20
0.8638188465304793
 10
3.424914111487375
 20
0.8624448643320492
 10
3.42621577883326
 20
0.8608539375759658
 10
3.4274451313266
 20
0.8590460662622273
 10
3.428385224409741
 20
0.857165880095923
 10
3.429108372935249
 20
0.8550687493720062
 10
3.429325317492883
 20
0.852899303795503
 10
3.429325317492883
 20
0.7893345484045195
 10
3.445596159316531
 20
0.8024958515685213
 10
3.445596159316531
 20
0.8484880977899948
 10
3.445668474169075
 20
0.8496451354307906
 10
3.445885418726708
 20
0.8507298582190209
 10
3.446319307842016
 20
0.851742266154728
 10
3.446825511809868
 20
0.8527546740904142
 10
3.447404030630246
 20
0.8537670820260998
 10
3.448127179155756
 20
0.8546348602566972
 10
3.44899495738633
 20
0.8555026384872943
 10
3.449862735616928
 20
0.856298101865347
 10
3.450875143552613
 20
0.8569489355382895
 10
3.451887551488321
 20
0.8575274543586877
 10
3.452972274276572
 20
0.8581059731790855
 10
3.454056997064803
 20
0.8584675474418288
 10
3.455214034705578
 20
0.8588291217045721
 10
3.456371072346373
 20
0.8589737514096611
 10
3.457455795134626
 20
0.8591183811147713
 10
3.458612832775421
 20
0.8590460662622273
 10
3.460420704089161
 20
0.858756806852028
 10
3.462156260550353
 20
0.8581782880316302
 10
3.463819502158982
 20
0.8573828246535772
 10
3.465265799209976
 20
0.856298101865347
 10
3.466495151703318
 20
0.8549964345194407
 10
3.467435244786437
 20
0.8534778226159014
 10
3.468013763606836
 20
0.8516699513021631
 10
3.468230708164512
 20
0.8496451354307906
 10
3.468230708164512
 20
0.7983015901206674
 10
3.468447652722144
 20
0.7964214039543847
 10
3.469026171542545
 20
0.7946858474931906
 10
3.46989394977314
 20
0.7931672355896509
 10
3.471123302266458
 20
0.7918655682437663
 10
3.472569599317474
 20
0.7907808454555143
 10
3.474232840926106
 20
0.7899130672249175
 10
3.476040712239845
 20
0.789406863257085
 10
3.477993213258669
 20
0.789262233551975
 10
3.491516090685436
 20
0.789262233551975
  0
LWPOLYLINE
  5
CAF
330
17
100
AcDbEntity
  8
4
  6
Continuous
100
AcDbPolyline
 90
       46
 70
     0
 43
0.0
 10
3.796328441387478
 20
0.8657713475493276
 10
3.757061476453126
 20
0.8657713475493276
 10
3.757929254683703
 20
0.8646143099085318
 10
3.758797032914301
 20
0.8633126425626254
 10
3.759520181439808
 20
0.8620109752167405
 10
3.760171015112751
 20
0.860636993018311
 10
3.760749533933147
 20
0.8591906959673154
 10
3.761183423048413
 20
0.8577443989163207
 10
3.761472682458636
 20
0.8563704167178912
 10
3.761544997311178
 20
0.8549241196668958
 10
3.761544997311178
 20
0.7881775107637448
 10
3.779045191628148
 20
0.8050268714077677
 10
3.779045191628148
 20
0.8349652203632494
 10
3.802619833559268
 20
0.8349652203632494
 10
3.804138445462831
 20
0.8350375352157936
 10
3.805729372218893
 20
0.8351098500683383
 10
3.807175669269908
 20
0.8353267946259926
 10
3.808694281173428
 20
0.8356160540361914
 10
3.810068263371857
 20
0.8360499431514796
 10
3.811442245570308
 20
0.8366284619718776
 10
3.812743912916213
 20
0.8372792956448201
 10
3.813973265409553
 20
0.8380747590228725
 10
3.815057988197786
 20
0.8390148521060144
 10
3.815998081280924
 20
0.8401718897468102
 10
3.816865859511523
 20
0.8414012422401507
 10
3.817589008037031
 20
0.8428475392911456
 10
3.818095212004863
 20
0.8445107808997747
 10
3.818529101120152
 20
0.8463186522135124
 10
3.818746045677806
 20
0.8483434680849056
 10
3.818746045677806
 20
0.8505852285139321
 10
3.818529101120152
 20
0.8529716186480689
 10
3.818095212004863
 20
0.8551410642245508
 10
3.817372063479356
 20
0.8570212503908336
 10
3.816504285248781
 20
0.858684491999462
 10
3.815347247607983
 20
0.8601307890504571
 10
3.814117895114646
 20
0.861360141543798
 10
3.81267159806365
 20
0.8623725494794838
 10
3.811152986160109
 20
0.8632403277100806
 10
3.809417429698916
 20
0.8639634762355886
 10
3.807681873237743
 20
0.8645419950559869
 10
3.805874001924003
 20
0.8649758841712751
 10
3.803993815757721
 20
0.8652651435814735
 10
3.802041314738871
 20
0.8655544029916729
 10
3.800088813720043
 20
0.8656990326967617
 10
3.798208627553761
 20
0.8657713475493276
 10
3.796328441387478
 20
0.8657713475493276
  0
LWPOLYLINE
  5
CB0
330
17
100
AcDbEntity
  8
4
  6
Continuous
100
AcDbPolyline
 90
       88
 70
     0
 43
0.0
 10
4.574638777266248
 20
0.8646866247610759
 10
4.52727254884637
 20
0.8646866247610759
 10
4.528574216192255
 20
0.8636742168253901
 10
4.529875883538139
 20
0.8625171791845938
 10
4.531032921178934
 20
0.8612155118387093
 10
4.532117643967167
 20
0.859913844492803
 10
4.532985422197763
 20
0.8583952325892632
 10
4.533636255870705
 20
0.8568766206857237
 10
4.534070144986014
 20
0.8551410642245508
 10
4.534287089543648
 20
0.8534055077633567
 10
4.534287089543648
 20
0.8031466852414851
 10
4.522065879462786
 20
0.789768437519829
 10
4.565671735550123
 20
0.789768437519829
 10
4.566539513780718
 20
0.789768437519829
 10
4.567407292011298
 20
0.7899130672249175
 10
4.568275070241915
 20
0.789985382077462
 10
4.569070533619946
 20
0.7902023266351163
 10
4.569938311850544
 20
0.7904192711927709
 10
4.57080609008114
 20
0.79070853060297
 10
4.571601553459172
 20
0.7909977900131691
 10
4.572469331689767
 20
0.7914316791284568
 10
4.573264795067823
 20
0.7917932533912003
 10
4.574060258445851
 20
0.7922271425065098
 10
4.57478340697136
 20
0.7927333464743418
 10
4.57550655549687
 20
0.7932395504421952
 10
4.576229704022356
 20
0.7938180692625934
 10
4.576952852547843
 20
0.7943965880829916
 10
4.577531371368241
 20
0.7949751069033897
 10
4.578182205041181
 20
0.7956259405763319
 10
4.579917761502376
 20
0.797795386152814
 10
4.581291743700806
 20
0.800326405992039
 10
4.582304151636514
 20
0.8030020555363748
 10
4.582882670456911
 20
0.8057500199332546
 10
4.582954985309456
 20
0.8085702991826796
 10
4.582521096194146
 20
0.8111736338744702
 10
4.581436373405896
 20
0.8136323388611517
 10
4.579773131797288
 20
0.8158017844376338
 10
4.564008493941495
 20
0.8090041882979884
 10
4.564803957319528
 20
0.8078471506571926
 10
4.565454790992469
 20
0.806545483311307
 10
4.565960994960322
 20
0.8052438159654013
 10
4.566322569223068
 20
0.8038698337669721
 10
4.566539513780718
 20
0.8024958515685213
 10
4.566539513780718
 20
0.8011218693700921
 10
4.566322569223068
 20
0.7997478871716415
 10
4.565888680107778
 20
0.7984462198257565
 10
4.56531016128738
 20
0.7975061267426149
 10
4.564659327614438
 20
0.7966383485120177
 10
4.563791549383842
 20
0.7958428851339865
 10
4.562923771153244
 20
0.7952643663135888
 10
4.561911363217538
 20
0.794758162345735
 10
4.560898955281873
 20
0.7943242732304472
 10
4.55981423249362
 20
0.7941073286727926
 10
4.558729509705369
 20
0.7940350138202481
 10
4.534070144986014
 20
0.7940350138202481
 10
4.550413301662183
 20
0.8109566893168159
 10
4.550413301662183
 20
0.8274444756980956
 10
4.569649052440344
 20
0.8274444756980956
 10
4.569649052440344
 20
0.8332296639020553
 10
4.550702561072381
 20
0.8332296639020553
 10
4.550702561072381
 20
0.8552133790770955
 10
4.547303763002561
 20
0.8604923633132004
 10
4.558223305737514
 20
0.8604923633132004
 10
4.560682010724196
 20
0.860347733608112
 10
4.56270682659561
 20
0.8597692147877138
 10
4.564297753351671
 20
0.8588291217045721
 10
4.565454790992469
 20
0.8575274543586877
 10
4.566105624665413
 20
0.856008842455148
 10
4.566322569223068
 20
0.8542732859939539
 10
4.566033309812866
 20
0.8523207849751264
 10
4.565237846434833
 20
0.8503682839562776
 10
4.582159521931404
 20
0.845233929425261
 10
4.5833165595722
 20
0.8464632819186018
 10
4.584184337802796
 20
0.8478372641170517
 10
4.58483517147574
 20
0.8493558760205917
 10
4.585196745738483
 20
0.8508744879241314
 10
4.585341375443592
 20
0.8524654146802156
 10
4.585196745738483
 20
0.8541286562888434
 10
4.584907486328285
 20
0.8557195830449487
 10
4.584401282360431
 20
0.8573105098010325
 10
4.583750448687487
 20
0.858756806852028
 10
4.582882670456911
 20
0.8602031039030016
 10
4.581870262521205
 20
0.8614324563963425
 10
4.580640910027865
 20
0.8625171791845938
 10
4.57933924268198
 20
0.8634572722677358
 10
4.577892945630982
 20
0.8641081059406779
 10
4.576302018874901
 20
0.8645419950559869
 10
4.574638777266248
 20
0.8646866247610759
  0
LWPOLYLINE
  5
CB1
330
17
100
AcDbEntity
  8
4
  6
Continuous
100
AcDbPolyline
 90
       21
 70
     0
 43
0.0
 10
3.07403696102042
 20
0.8858508415124376
 10
3.07403696102042
 20
0.8009363613548599
 10
3.077356488581318
 20
0.7680078334963856
 10
3.081298427559873
 20
0.8009363613548599
 10
3.081298427559873
 20
0.8857026483177508
 10
3.081209511643076
 20
0.8869178325141502
 10
3.080972402531574
 20
0.8879848235158631
 10
3.08061673886433
 20
0.8888739826839644
 10
3.080172159280288
 20
0.8896149486573783
 10
3.079609025140486
 20
0.8901780827971808
 10
3.078986613722814
 20
0.8905930237422746
 10
3.078334563666214
 20
0.8908301328537785
 10
3.077682513609618
 20
0.8909190487705732
 10
3.077000824914076
 20
0.8908597714927029
 10
3.076348774857477
 20
0.8906226623812203
 10
3.075726363439804
 20
0.8902077214361053
 10
3.075163229300023
 20
0.8896742259352489
 10
3.074718649715963
 20
0.8889628986007807
 10
3.07436298604874
 20
0.8880737394326796
 10
3.074125876937236
 20
0.8870363870698918
 10
3.07403696102042
 20
0.8858508415124376
  0
LWPOLYLINE
  5
CB2
330
17
100
AcDbEntity
  8
4
  6
Continuous
100
AcDbPolyline
 90
       21
 70
     0
 43
0.0
 10
3.061706131775084
 20
0.8737129893063459
 10
3.061706131775084
 20
0.8009659999938062
 10
3.065351684364259
 20
0.7680078334963856
 10
3.069115791509203
 20
0.8008178067991188
 10
3.069115791509203
 20
0.8739797370567741
 10
3.069026875592386
 20
0.8751652826142278
 10
3.068789766480903
 20
0.8761729963380702
 10
3.068434102813657
 20
0.8770325168672258
 10
3.067959884590674
 20
0.877743844201715
 10
3.067396750450868
 20
0.8782477010636251
 10
3.066774339033218
 20
0.8786330033697947
 10
3.066092650337676
 20
0.8788404738423523
 10
3.065410961642133
 20
0.8788997511202229
 10
3.064729272946589
 20
0.878781196564482
 10
3.064047584251043
 20
0.8785144488140538
 10
3.063425172833393
 20
0.8780995078689382
 10
3.062862038693593
 20
0.877536373729157
 10
3.062387820470626
 20
0.876795407755743
 10
3.062032156803361
 20
0.8759358872265663
 10
3.061795047691879
 20
0.8748985348637996
 10
3.061706131775084
 20
0.8737129893063459
  0
LINE
  5
CB3
330
17
100
AcDbEntity
  8
0
100
AcDbLine
 10
3.023453708637739
 20
0.3999999999999781
 30
0.0
 11
3.023453708637739
 21
0.9079899383900292
 31
0.0
  0
LWPOLYLINE
  5
CB4
330
17
100
AcDbEntity
  8
4
  6
Continuous
100
AcDbPolyline
 90
       21
 70
     0
 43
0.0
 10
3.086041765237478
 20
0.8788026905970486
 10
3.086041765237478
 20
0.8009363613548599
 10
3.089361292798358
 20
0.7680078334963856
 10
3.093303231776932
 20
0.8009363613548599
 10
3.093303231776932
 20
0.8786544974023616
 10
3.093214315860113
 20
0.8798696815987614
 10
3.092977206748611
 20
0.8809366726004741
 10
3.092621543081386
 20
0.8818258317685753
 10
3.092176963497326
 20
0.8825667977419895
 10
3.091613829357544
 20
0.8831299318817919
 10
3.090991417939873
 20
0.8835448728269073
 10
3.090339367883273
 20
0.883781981938389
 10
3.089687317826677
 20
0.8838708978552061
 10
3.089005629131133
 20
0.8838116205773353
 10
3.088353579074535
 20
0.8835745114658315
 10
3.087731167656863
 20
0.8831595705207162
 10
3.087168033517081
 20
0.8826260750198603
 10
3.086723453933021
 20
0.8819147476853919
 10
3.086367790265776
 20
0.8810255885172907
 10
3.086130681154273
 20
0.879988236154524
 10
3.086041765237478
 20
0.8788026905970486
  0
LINE
  5
CB5
330
17
100
AcDbEntity
  8
0
100
AcDbLine
 10
3.023453708637739
 20
0.5674612305743733
 30
0.0
 11
4.386742347626951
 21
0.5674612305743733
 31
0.0
  0
TEXT
  5
CB6
330
17
100
AcDbEntity
  8
3
100
AcDbText
 10
3.043253008279623
 20
0.5930385316707488
 30
0.0
 40
0.0195380745534632
  1
FILE PATH:
  7
SIMPLEX
100
AcDbText
  0
TEXT
  5
CB7
330
17
100
AcDbEntity
  8
3
100
AcDbText
 10
3.040137464097638
 20
0.5244943552773444
 30
0.0
 40
0.0195380745534632
  1
MAT'L DESCRIPTION:
  7
SIMPLEX
100
AcDbText
  0
TEXT
  5
CB8
330
17
100
AcDbEntity
  8
3
100
AcDbText
 10
3.044302834263338
 20
0.7126091928553993
 30
0.0
 40
0.0195380745534632
  1
NAME:
  7
SIMPLEX
100
AcDbText
  0
LWPOLYLINE
  5
CB9
330
17
100
AcDbEntity
  8
4
  6
Continuous
100
AcDbPolyline
 90
       18
 70
     0
 43
0.0
 10
3.079786856974098
 20
0.8008770840769891
 10
3.079757218335173
 20
0.8004028658540034
 10
3.079697941057303
 20
0.7999286476310177
 10
3.079549747862616
 20
0.7995137066859024
 10
3.079371916028983
 20
0.7991284043797329
 10
3.079075529639631
 20
0.7987727407125096
 10
3.078719865972388
 20
0.7985059929620602
 10
3.07830492502727
 20
0.7983281611284485
 10
3.077771429526413
 20
0.7982392452116322
 10
3.077267572664502
 20
0.7982688838505779
 10
3.076793354441518
 20
0.798417077045265
 10
3.076437690774274
 20
0.7986838247956931
 10
3.076141304384921
 20
0.7990394884629377
 10
3.075904195273417
 20
0.7994544294080317
 10
3.075726363439804
 20
0.7998990089920928
 10
3.075607808884062
 20
0.800373227215079
 10
3.07557817024514
 20
0.8008770840769891
 10
3.079786856974098
 20
0.8008770840769891
  0
LWPOLYLINE
  5
CBA
330
17
100
AcDbEntity
  8
4
  6
Continuous
100
AcDbPolyline
 90
       18
 70
     0
 43
0.0
 10
3.075548531606195
 20
0.8026257637742455
 10
3.075518892967247
 20
0.8039002252485158
 10
3.075518892967247
 20
0.8052932412785276
 10
3.075518892967247
 20
0.8068048118643016
 10
3.075637447522988
 20
0.8084349370057957
 10
3.075844917995568
 20
0.8101539780641271
 10
3.076230220301736
 20
0.8119915736781791
 10
3.076822993080464
 20
0.8139180852090682
 10
3.077682513609618
 20
0.8159335126567523
 10
3.07839384094411
 20
0.8140366397648094
 10
3.078956975083889
 20
0.8121694055118119
 10
3.079371916028983
 20
0.8103614485366851
 10
3.079668302418359
 20
0.8086127688394284
 10
3.079846134251991
 20
0.8069233664200428
 10
3.079905411529861
 20
0.8053821571953442
 10
3.079905411529861
 20
0.8039298638874621
 10
3.079846134251991
 20
0.8026257637742455
 10
3.075548531606195
 20
0.8026257637742455
  0
LWPOLYLINE
  5
CBB
330
17
100
AcDbEntity
  8
4
  6
Continuous
100
AcDbPolyline
 90
       18
 70
     0
 43
0.0
 10
3.062950954610408
 20
0.8025072092185045
 10
3.062921315971484
 20
0.8042262502768149
 10
3.063039870527225
 20
0.8060045686130173
 10
3.06324734099976
 20
0.8077828869491979
 10
3.063543727389133
 20
0.8095315666464543
 10
3.063929029695305
 20
0.811191330426894
 10
3.064373609279366
 20
0.8126732623737225
 10
3.064877466141276
 20
0.8139773624869386
 10
3.065440600281078
 20
0.8149850762107806
 10
3.065914818504043
 20
0.8140070011258631
 10
3.066389036727051
 20
0.8127621782905388
 10
3.06683361631109
 20
0.8112506077047648
 10
3.06721891861726
 20
0.8095612052854001
 10
3.067544943645558
 20
0.8077828869491979
 10
3.067782052757061
 20
0.8059749299740708
 10
3.067900607312803
 20
0.8041966116378901
 10
3.067900607312803
 20
0.8025072092185045
 10
3.062950954610408
 20
0.8025072092185045
  0
LWPOLYLINE
  5
CBC
330
17
100
AcDbEntity
  8
4
  6
Continuous
100
AcDbPolyline
 90
       18
 70
     0
 43
0.0
 10
3.067841330034933
 20
0.8008770840769891
 10
3.067841330034933
 20
0.8004028658540034
 10
3.067782052757061
 20
0.7999286476310177
 10
3.067633859562374
 20
0.7994840680469775
 10
3.067396750450868
 20
0.7990394884629377
 10
3.067100364061518
 20
0.7986541861567475
 10
3.066685423116403
 20
0.7983577997673943
 10
3.066211204893417
 20
0.7981503292948366
 10
3.065618432114691
 20
0.7980910520169662
 10
3.065025659335963
 20
0.7981799679337615
 10
3.064521802474051
 20
0.7983577997673943
 10
3.064077222889991
 20
0.7986245475178225
 10
3.063691920583821
 20
0.7990098498239922
 10
3.063425172833393
 20
0.7994247907691073
 10
3.063188063721912
 20
0.799869370353147
 10
3.063069509166148
 20
0.800373227215079
 10
3.063010231888278
 20
0.8008770840769891
 10
3.067841330034933
 20
0.8008770840769891
  0
LWPOLYLINE
  5
CBD
330
17
100
AcDbEntity
  8
4
  6
Continuous
100
AcDbPolyline
 90
       18
 70
     0
 43
0.0
 10
3.087553335823252
 20
0.8026257637742455
 10
3.087523697184304
 20
0.8039002252485158
 10
3.087523697184304
 20
0.8052932412785276
 10
3.087523697184304
 20
0.8068048118643016
 10
3.087642251740048
 20
0.8084349370057957
 10
3.087849722212606
 20
0.8101539780641271
 10
3.088235024518795
 20
0.8119915736781791
 10
3.088827797297502
 20
0.8139180852090682
 10
3.089687317826677
 20
0.8159335126567523
 10
3.090398645161143
 20
0.8140366397648094
 10
3.090961779300926
 20
0.8121694055118119
 10
3.09137672024604
 20
0.8103614485366851
 10
3.091673106635416
 20
0.8086127688394284
 10
3.091850938469048
 20
0.8069233664200428
 10
3.091910215746898
 20
0.8053821571953442
 10
3.091910215746898
 20
0.8039298638874621
 10
3.091850938469048
 20
0.8026257637742455
 10
3.087553335823252
 20
0.8026257637742455
  0
LWPOLYLINE
  5
CBE
330
17
100
AcDbEntity
  8
4
  6
Continuous
100
AcDbPolyline
 90
       18
 70
     0
 43
0.0
 10
3.091791661191158
 20
0.8008770840769891
 10
3.091762022552232
 20
0.8004028658540034
 10
3.091702745274361
 20
0.7999286476310177
 10
3.091554552079673
 20
0.7995137066859024
 10
3.09137672024604
 20
0.7991284043797329
 10
3.091080333856688
 20
0.7987727407125096
 10
3.090724670189446
 20
0.7985059929620602
 10
3.090309729244328
 20
0.7983281611284485
 10
3.089776233743473
 20
0.7982392452116322
 10
3.089272376881561
 20
0.7982688838505779
 10
3.088798158658576
 20
0.798417077045265
 10
3.088442494991332
 20
0.7986838247956931
 10
3.088146108601956
 20
0.7990394884629377
 10
3.087908999490476
 20
0.7994544294080317
 10
3.087731167656863
 20
0.7998990089920928
 10
3.087612613101101
 20
0.800373227215079
 10
3.087582974462176
 20
0.8008770840769891
 10
3.091791661191158
 20
0.8008770840769891
  0
LWPOLYLINE
  5
CBF
330
17
100
AcDbEntity
  8
4
  6
Continuous
100
AcDbPolyline
 90
        5
 70
     0
 43
0.0
 10
3.390614906084904
 20
0.8272275311404413
 10
3.369426654287894
 20
0.8407504085672082
 10
3.369426654287894
 20
0.8275167905506407
 10
3.390687220937446
 20
0.8160910438478325
 10
3.390614906084904
 20
0.8272275311404413
  0
TEXT
  5
CC0
330
17
100
AcDbEntity
  8
3
100
AcDbText
 10
3.577254691453168
 20
0.4457883764645078
 30
0.0
 40
0.0290726549355533
  1
MATERIAL: 
  7
SIMPLEX
 72
     1
 11
3.705312814383582
 21
0.4457883764645078
 31
0.0
100
AcDbText
  0
TEXT
  5
CC1
330
17
100
AcDbEntity
  8
3
100
AcDbText
 10
3.451656788698576
 20
0.5863608505722211
 30
0.0
 40
0.0290726549355533
  1
DWG/PART NO/022023
  7
SIMPLEX
 72
     1
 11
3.707080828489508
 21
0.5863608505722211
 31
0.0
100
AcDbText
  0
TEXT
  5
CC2
330
17
100
AcDbEntity
  8
3
100
AcDbText
 10
4.40529491002648
 20
0.5077942279632879
 30
0.0
 40
0.0195380745534632
  1
PART/DWG. NO.
  7
SIMPLEX
100
AcDbText
  0
LINE
  5
CC3
330
17
100
AcDbEntity
  8
0
100
AcDbLine
 10
4.386742347626951
 20
0.3999999999999781
 30
0.0
 11
4.386742347626951
 21
0.6344568946415388
 31
0.0
  0
TEXT
  5
CC4
330
17
100
AcDbEntity
  8
3
100
AcDbText
 10
3.269436763402886
 20
0.6555745713440233
 30
0.0
 40
0.0390761491069264
  1
WURLITZER SECOND TOUCH PISTON CONTACT BLOCK
  7
SIMPLEX
 72
     1
 11
4.055611668054143
 21
0.6555745713440233
 31
0.0
100
AcDbText
  0
TEXT
  5
CC5
330
17
100
AcDbEntity
  8
3
100
AcDbText
 10
4.616012085940513
 20
0.5808757110786713
 30
0.0
 40
0.0193817699570355
  1
OF
  7
SIMPLEX
100
AcDbText
  0
TEXT
  5
CC6
330
17
100
AcDbEntity
  8
3
100
AcDbText
 10
4.415369994580626
 20
0.5810417607120339
 30
0.0
 40
0.0193817699570355
  1
SHEET
  7
SIMPLEX
100
AcDbText
  0
TEXT
  5
CC7
330
17
100
AcDbEntity
  8
3
100
AcDbText
 10
4.547953593100948
 20
0.5703496723007852
 30
0.0
 40
0.0390761491069264
  1
1
  7
SIMPLEX
100
AcDbText
  0
TEXT
  5
CC8
330
17
100
AcDbEntity
  8
3
100
AcDbText
 10
4.700213043047613
 20
0.5703496723007852
 30
0.0
 40
0.0390761491069264
  1
1
  7
SIMPLEX
100
AcDbText
  0
LINE
  5
CC9
330
17
100
AcDbEntity
  8
0
100
AcDbLine
 10
4.750001827106558
 20
0.544418568244936
 30
0.0
 11
4.750001827106558
 21
0.6344568946415388
 31
0.0
  0
LINE
  5
CCB
330
17
100
AcDbEntity
  8
0
100
AcDbLine
 10
3.077609008992713
 20
0.8909126570647657
 30
0.0
 11
3.077609008992713
 21
0.8909126570647657
 31
0.0
  0
LINE
  5
CD1
330
17
100
AcDbEntity
  8
0
100
AcDbLine
 10
4.919877395704181
 20
0.3999999999999994
 30
0.0
 11
4.919877395704181
 21
0.544418568244936
 31
0.0
  0
TEXT
  5
CD2
330
17
100
AcDbEntity
  8
3
100
AcDbText
 10
4.989343717812762
 20
0.4294761699672533
 30
0.0
 40
0.0437652869997576
  1
A
  7
SIMPLEX
 72
     1
 11
5.006016208098384
 21
0.4294761699672533
 31
0.0
100
AcDbText
  0
TEXT
  5
CD3
330
17
100
AcDbEntity
  8
3
100
AcDbText
 10
4.978968976002731
 20
0.5076734181816667
 30
0.0
 40
0.0195380745534632
  1
REV.
  7
SIMPLEX
100
AcDbText
  0
TEXT
  5
CD4
330
17
100
AcDbEntity
  8
3
100
AcDbText
 10
4.95090336104415
 20
0.5741210261090735
 30
0.0
 40
0.0267906078277087
  1
2=1
  7
SIMPLEX
 72
     1
 11
4.983434813406367
 21
0.5741210261090735
 31
0.0
100
AcDbText
  0
TEXT
  5
CD5
330
17
100
AcDbEntity
  8
2
100
AcDbText
 10
3.931940368805913
 20
3.786279509760205
 30
0.0
 40
0.039
  1
E
  7
SIMPLEX
 72
     1
 11
3.944011797377342
 21
3.786279509760205
 31
0.0
100
AcDbText
  0
TEXT
  5
CD6
330
17
100
AcDbEntity
  8
2
100
AcDbText
 10
3.165885682344001
 20
3.786279509760205
 30
0.0
 40
0.039
  1
D
  7
SIMPLEX
 72
     1
 11
3.178885682344001
 21
3.786279509760205
 31
0.0
100
AcDbText
  0
LINE
  5
CD7
330
17
100
AcDbEntity
  8
3
100
AcDbLine
 10
3.578903951402174
 20
3.787563112303041
 30
0.0
 11
3.578903951402174
 21
3.85
 31
0.0
  0
LINE
  5
CD8
330
17
100
AcDbEntity
  8
3
100
AcDbLine
 10
4.333201975701086
 20
3.787563112303041
 30
0.0
 11
4.333201975701086
 21
3.85
 31
0.0
  0
TEXT
  5
CD9
330
17
100
AcDbEntity
  8
2
100
AcDbText
 10
4.686136110767352
 20
3.786279509760205
 30
0.0
 40
0.039
  1
F
  7
SIMPLEX
 72
     1
 11
4.698207539338781
 21
3.786279509760205
 31
0.0
100
AcDbText
  0
LINE
  5
CDA
330
17
100
AcDbEntity
  8
4
100
AcDbLine
 10
5.524999999999997
 20
4.25
 30
0.0
 11
0.0000000000000001
 21
4.249999999999999
 31
0.0
  0
LINE
  5
CDD
330
17
100
AcDbEntity
  8
0
100
AcDbLine
 10
1.204755530207668
 20
2.118786533860856
 30
0.0
 11
1.204755530207668
 21
2.306286533860856
 31
0.0
  0
LINE
  5
CDE
330
17
100
AcDbEntity
  8
0
100
AcDbLine
 10
1.204755530207668
 20
2.306286533860856
 30
0.0
 11
2.142255530207668
 21
2.306286533860856
 31
0.0
  0
LINE
  5
CDF
330
17
100
AcDbEntity
  8
0
100
AcDbLine
 10
3.224752977110814
 20
2.306286533860856
 30
0.0
 11
3.224752977110814
 21
1.900036533860856
 31
0.0
  0
LINE
  5
CE0
330
17
100
AcDbEntity
  8
0
100
AcDbLine
 10
1.329755530207668
 20
1.900036533860856
 30
0.0
 11
2.142255530207668
 21
1.900036533860856
 31
0.0
  0
LINE
  5
CE1
330
17
100
AcDbEntity
  8
0
100
AcDbLine
 10
2.142255530207668
 20
1.900036533860856
 30
0.0
 11
2.142255530207668
 21
2.306286533860856
 31
0.0
  0
LINE
  5
CE2
330
17
100
AcDbEntity
  8
0
100
AcDbLine
 10
2.912252977110814
 20
2.306286533860856
 30
0.0
 11
2.912252977110814
 21
1.900036533860856
 31
0.0
  0
LINE
  5
CE3
330
17
100
AcDbEntity
  8
0
100
AcDbLine
 10
2.912252977110814
 20
2.306286533860856
 30
0.0
 11
3.224752977110814
 21
2.306286533860856
 31
0.0
  0
LINE
  5
CE4
330
17
100
AcDbEntity
  8
0
100
AcDbLine
 10
2.912252977110814
 20
1.900036533860856
 30
0.0
 11
2.992502977110815
 21
1.900036533860856
 31
0.0
  0
LINE
  5
CE5
330
17
100
AcDbEntity
  8
0
100
AcDbLine
 10
1.517255530207668
 20
1.900036533860856
 30
0.0
 11
1.517255530207668
 21
2.181286533860856
 31
0.0
  0
LINE
  5
CE6
330
17
100
AcDbEntity
  8
0
100
AcDbLine
 10
1.204755530207668
 20
2.181286533860856
 30
0.0
 11
1.517255530207668
 21
2.181286533860856
 31
0.0
  0
LINE
  5
CE7
330
17
100
AcDbEntity
  8
0
100
AcDbLine
 10
1.329755530207668
 20
1.900036533860856
 30
0.0
 11
1.204755530207668
 21
2.118786533860856
 31
0.0
  0
LINE
  5
CE8
330
17
100
AcDbEntity
  8
0
100
AcDbLine
 10
2.992502977110815
 20
2.201386533860857
 30
0.0
 11
3.019502977110816
 21
2.201386533860857
 31
0.0
  0
LINE
  5
CE9
330
17
100
AcDbEntity
  8
0
100
AcDbLine
 10
2.992502977110815
 20
2.201386533860857
 30
0.0
 11
2.992502977110815
 21
1.900036533860856
 31
0.0
  0
LINE
  5
CEA
330
17
100
AcDbEntity
  8
0
100
AcDbLine
 10
3.019502977110816
 20
2.201386533860857
 30
0.0
 11
3.019502977110816
 21
1.900036533860856
 31
0.0
  0
LINE
  5
CEB
330
17
100
AcDbEntity
  8
0
100
AcDbLine
 10
3.117502977110814
 20
2.201386533860857
 30
0.0
 11
3.117502977110814
 21
1.900036533860856
 31
0.0
  0
LINE
  5
CEC
330
17
100
AcDbEntity
  8
0
100
AcDbLine
 10
3.144502977110815
 20
2.201386533860857
 30
0.0
 11
3.144502977110815
 21
1.900036533860856
 31
0.0
  0
LINE
  5
CED
330
17
100
AcDbEntity
  8
0
100
AcDbLine
 10
3.117502977110814
 20
2.201386533860857
 30
0.0
 11
3.144502977110815
 21
2.201386533860857
 31
0.0
  0
LINE
  5
CEE
330
17
100
AcDbEntity
  8
0
100
AcDbLine
 10
3.019502977110816
 20
1.900036533860856
 30
0.0
 11
3.055002977110814
 21
1.900036533860856
 31
0.0
  0
LINE
  5
CEF
330
17
100
AcDbEntity
  8
0
100
AcDbLine
 10
3.144502977110815
 20
1.900036533860856
 30
0.0
 11
3.224752977110814
 21
1.900036533860856
 31
0.0
  0
CIRCLE
  5
CF0
330
17
100
AcDbEntity
  8
0
100
AcDbCircle
 10
3.131002977110814
 20
2.191336533860857
 30
0.0
 40
0.01005
  0
CIRCLE
  5
CF1
330
17
100
AcDbEntity
  8
0
100
AcDbCircle
 10
3.006002977110814
 20
2.191336533860857
 30
0.0
 40
0.01005
  0
LINE
  5
CF2
330
17
100
AcDbEntity
  8
0
100
AcDbLine
 10
2.995952977110816
 20
2.306286533860856
 30
0.0
 11
2.995952977110816
 21
2.493786533860856
 31
0.0
  0
LINE
  5
CF3
330
17
100
AcDbEntity
  8
0
100
AcDbLine
 10
3.016052977110816
 20
2.306286533860856
 30
0.0
 11
3.016052977110815
 21
2.493786533860856
 31
0.0
  0
LINE
  5
CF4
330
17
100
AcDbEntity
  8
0
100
AcDbLine
 10
3.120952977110816
 20
2.306286533860856
 30
0.0
 11
3.120952977110813
 21
2.493786533860857
 31
0.0
  0
LINE
  5
CF5
330
17
100
AcDbEntity
  8
0
100
AcDbLine
 10
3.141052977110813
 20
2.306286533860856
 30
0.0
 11
3.141052977110815
 21
2.493786533860856
 31
0.0
  0
LINE
  5
CF6
330
17
100
AcDbEntity
  8
0
100
AcDbLine
 10
2.517255530207668
 20
2.201386533860856
 30
0.0
 11
2.142255530207668
 21
2.201386533860856
 31
0.0
  0
LINE
  5
CF7
330
17
100
AcDbEntity
  8
0
100
AcDbLine
 10
2.517255530207668
 20
2.181286533860856
 30
0.0
 11
2.517255530207668
 21
2.201386533860856
 31
0.0
  0
LINE
  5
CF8
330
17
100
AcDbEntity
  8
0
100
AcDbLine
 10
2.517255530207668
 20
2.181286533860856
 30
0.0
 11
2.142255530207668
 21
2.181286533860856
 31
0.0
  0
LINE
  5
CF9
330
17
100
AcDbEntity
  8
0
100
AcDbLine
 10
2.995952977110816
 20
2.493786533860856
 30
0.0
 11
3.016052977110815
 21
2.493786533860856
 31
0.0
  0
LINE
  5
CFA
330
17
100
AcDbEntity
  8
0
100
AcDbLine
 10
3.120952977110813
 20
2.493786533860857
 30
0.0
 11
3.141052977110815
 21
2.493786533860856
 31
0.0
  0
LINE
  5
CFB
330
17
100
AcDbEntity
  8
0
100
AcDbLine
 10
2.142255530207668
 20
3.31564002911628
 30
0.0
 11
1.204755530207668
 21
3.315640029116281
 31
0.0
  0
LINE
  5
CFC
330
17
100
AcDbEntity
  8
0
100
AcDbLine
 10
2.142255530207668
 20
3.003140029116281
 30
0.0
 11
1.204755530207668
 21
3.003140029116281
 31
0.0
  0
LINE
  5
CFD
330
17
100
AcDbEntity
  8
0
100
AcDbLine
 10
2.142255530207668
 20
3.003140029116281
 30
0.0
 11
2.142255530207668
 21
3.31564002911628
 31
0.0
  0
LINE
  5
CFE
330
17
100
AcDbEntity
  8
0
100
AcDbLine
 10
1.204755530207668
 20
3.315640029116281
 30
0.0
 11
1.204755530207668
 21
3.003140029116281
 31
0.0
  0
CIRCLE
  5
CFF
330
17
100
AcDbEntity
  8
0
100
AcDbCircle
 10
1.329755530207668
 20
3.221890029116281
 30
0.0
 40
0.01005
  0
CIRCLE
  5
D00
330
17
100
AcDbEntity
  8
0
100
AcDbCircle
 10
1.329755530207668
 20
3.096890029116281
 30
0.0
 40
0.01005
  0
LINE
  5
D01
330
17
100
AcDbEntity
  8
0
100
AcDbLine
 10
2.517255530207668
 20
3.086840029116281
 30
0.0
 11
2.517255530207668
 21
3.106940029116279
 31
0.0
  0
CIRCLE
  5
D02
330
17
100
AcDbEntity
  8
0
100
AcDbCircle
 10
1.423505530207668
 20
3.159390029116281
 30
0.0
 40
0.01005
  0
LINE
  5
D03
330
17
100
AcDbEntity
  8
0
100
AcDbLine
 10
3.082002977110816
 20
2.201386533860857
 30
0.0
 11
3.082002977110816
 21
1.900036533860856
 31
0.0
  0
LINE
  5
D04
330
17
100
AcDbEntity
  8
0
100
AcDbLine
 10
3.055002977110814
 20
2.201386533860857
 30
0.0
 11
3.055002977110814
 21
1.900036533860856
 31
0.0
  0
LINE
  5
D05
330
17
100
AcDbEntity
  8
0
100
AcDbLine
 10
3.055002977110814
 20
2.201386533860857
 30
0.0
 11
3.082002977110816
 21
2.201386533860857
 31
0.0
  0
CIRCLE
  5
D06
330
17
100
AcDbEntity
  8
0
100
AcDbCircle
 10
3.068502977110814
 20
2.191336533860857
 30
0.0
 40
0.01005
  0
LINE
  5
D07
330
17
100
AcDbEntity
  8
0
100
AcDbLine
 10
3.058452977110816
 20
2.306286533860856
 30
0.0
 11
3.058452977110816
 21
2.493786533860856
 31
0.0
  0
LINE
  5
D08
330
17
100
AcDbEntity
  8
0
100
AcDbLine
 10
3.058452977110816
 20
2.493786533860856
 30
0.0
 11
3.078552977110815
 21
2.493786533860856
 31
0.0
  0
LINE
  5
D09
330
17
100
AcDbEntity
  8
0
100
AcDbLine
 10
3.078552977110816
 20
2.306286533860856
 30
0.0
 11
3.078552977110815
 21
2.493786533860856
 31
0.0
  0
LINE
  5
D0A
330
17
100
AcDbEntity
  8
0
100
AcDbLine
 10
3.082002977110816
 20
1.900036533860856
 30
0.0
 11
3.117502977110814
 21
1.900036533860856
 31
0.0
  0
LINE
  5
D0B
330
17
100
AcDbEntity
  8
0
100
AcDbLine
 10
2.142255530207668
 20
3.169440029116281
 30
0.0
 11
2.517255530207667
 21
3.169440029116281
 31
0.0
  0
LINE
  5
D0C
330
17
100
AcDbEntity
  8
0
100
AcDbLine
 10
2.142255530207668
 20
3.14934002911628
 30
0.0
 11
2.517255530207668
 21
3.14934002911628
 31
0.0
  0
LINE
  5
D0D
330
17
100
AcDbEntity
  8
0
100
AcDbLine
 10
2.142255530207668
 20
3.21184002911628
 30
0.0
 11
2.517255530207667
 21
3.21184002911628
 31
0.0
  0
LINE
  5
D0E
330
17
100
AcDbEntity
  8
0
100
AcDbLine
 10
2.142255530207668
 20
3.231940029116281
 30
0.0
 11
2.517255530207668
 21
3.231940029116281
 31
0.0
  0
LINE
  5
D0F
330
17
100
AcDbEntity
  8
0
100
AcDbLine
 10
2.142255530207668
 20
3.086840029116281
 30
0.0
 11
2.517255530207668
 21
3.086840029116281
 31
0.0
  0
LINE
  5
D10
330
17
100
AcDbEntity
  8
0
100
AcDbLine
 10
2.142255530207668
 20
3.106940029116279
 30
0.0
 11
2.517255530207667
 21
3.106940029116279
 31
0.0
  0
LINE
  5
D11
330
17
100
AcDbEntity
  8
0
100
AcDbLine
 10
2.517255530207668
 20
3.21184002911628
 30
0.0
 11
2.517255530207668
 21
3.231940029116281
 31
0.0
  0
LINE
  5
D12
330
17
100
AcDbEntity
  8
0
100
AcDbLine
 10
2.517255530207668
 20
3.14934002911628
 30
0.0
 11
2.517255530207667
 21
3.169440029116281
 31
0.0
  0
LINE
  5
D13
330
17
100
AcDbEntity
  8
0
100
AcDbLine
 10
1.319705530207667
 20
2.493786533860856
 30
0.0
 11
1.319705530207667
 21
2.306286533860856
 31
0.0
  0
LINE
  5
D14
330
17
100
AcDbEntity
  8
0
100
AcDbLine
 10
1.339805530207667
 20
2.493786533860856
 30
0.0
 11
1.339805530207667
 21
2.306286533860856
 31
0.0
  0
LINE
  5
D15
330
17
100
AcDbEntity
  8
0
100
AcDbLine
 10
1.413455530207668
 20
2.493786533860856
 30
0.0
 11
1.413455530207668
 21
2.306286533860856
 31
0.0
  0
LINE
  5
D16
330
17
100
AcDbEntity
  8
0
100
AcDbLine
 10
1.433555530207668
 20
2.493786533860856
 30
0.0
 11
1.433555530207668
 21
2.306286533860856
 31
0.0
  0
LINE
  5
D17
330
17
100
AcDbEntity
  8
0
100
AcDbLine
 10
1.433555530207668
 20
2.493786533860856
 30
0.0
 11
1.413455530207668
 21
2.493786533860856
 31
0.0
  0
LINE
  5
D18
330
17
100
AcDbEntity
  8
0
100
AcDbLine
 10
1.339805530207667
 20
2.493786533860856
 30
0.0
 11
1.319705530207667
 21
2.493786533860856
 31
0.0
  0
DIMENSION
  5
E8B
330
17
100
AcDbEntity
  8
3
100
AcDbDimension
  2
*D2
 10
2.517255530207668
 20
1.349783613105126
 30
0.0
 11
1.861005530207668
 21
1.349783613105126
 31
0.0
 70
    32
 71
     5
 42
1.312499999999998
  3
STANDARD
100
AcDbAlignedDimension
 13
1.204755530207668
 23
2.118786533860856
 33
0.0
 14
2.517255530207668
 24
2.181286533860856
 34
0.0
100
AcDbRotatedDimension
1001
ACAD
1000
DSTYLE
1002
{
1070
    40
1040
0.5
1070
    41
1040
0.125
1070
    44
1040
0.0625
1070
    78
1070
     4
1070
   140
1040
0.125
1070
   141
1040
-0.125
1070
   271
1070
     5
1070
   272
1070
     3
1070
   276
1070
     2
1070
   277
1070
     5
1070
   279
1070
     2
1070
   284
1070
     4
1070
   285
1070
     4
1070
   286
1070
     4
1070
   340
1005
1C
1002
}
  0
DIMENSION
  5
E99
330
17
100
AcDbEntity
  8
3
100
AcDbDimension
  2
*D3
 10
2.142255530207668
 20
1.632512412936025
 30
0.0
 11
1.673505530207668
 21
1.632512412936025
 31
0.0
 70
    32
 71
     5
 42
0.9374999999999996
  3
STANDARD
100
AcDbAlignedDimension
 13
1.204755530207668
 23
2.118786533860856
 33
0.0
 14
2.142255530207668
 24
1.900036533860856
 34
0.0
100
AcDbRotatedDimension
1001
ACAD
1000
DSTYLE
1002
{
1070
    40
1040
0.5
1070
    41
1040
0.125
1070
    44
1040
0.0625
1070
    78
1070
     4
1070
   140
1040
0.125
1070
   141
1040
-0.125
1070
   271
1070
     5
1070
   272
1070
     3
1070
   276
1070
     2
1070
   277
1070
     5
1070
   279
1070
     2
1070
   284
1070
     4
1070
   285
1070
     4
1070
   286
1070
     4
1070
   340
1005
1C
1002
}
  0
DIMENSION
  5
EA7
330
17
100
AcDbEntity
  8
3
100
AcDbDimension
  2
*D4
 10
3.224752977110814
 20
1.632512412936025
 30
0.0
 11
3.068502977110814
 21
1.632512412936025
 31
0.0
 70
    32
 71
     5
 42
0.3125
  3
STANDARD
100
AcDbAlignedDimension
 13
2.912252977110814
 23
1.900036533860856
 33
0.0
 14
3.224752977110814
 24
1.900036533860856
 34
0.0
100
AcDbRotatedDimension
1001
ACAD
1000
DSTYLE
1002
{
1070
    40
1040
0.5
1070
    41
1040
0.125
1070
    44
1040
0.0625
1070
    78
1070
     4
1070
   140
1040
0.125
1070
   141
1040
-0.125
1070
   271
1070
     5
1070
   272
1070
     3
1070
   276
1070
     2
1070
   277
1070
     5
1070
   279
1070
     2
1070
   284
1070
     4
1070
   285
1070
     4
1070
   286
1070
     4
1070
   340
1005
1C
1002
}
  0
DIMENSION
  5
EB5
330
17
100
AcDbEntity
  8
3
100
AcDbDimension
  2
*D5
 10
3.87939367499204
 20
2.493786533860856
 30
0.0
 11
3.879393674992039
 21
2.196911533860858
 31
0.0
 70
    32
 71
     5
 42
0.5937500000000002
  3
STANDARD
100
AcDbAlignedDimension
 13
3.224752977110814
 23
1.900036533860856
 33
0.0
 14
3.141052977110815
 24
2.493786533860856
 34
0.0
 50
90.0
100
AcDbRotatedDimension
1001
ACAD
1000
DSTYLE
1002
{
1070
    40
1040
0.5
1070
    41
1040
0.125
1070
    44
1040
0.0625
1070
    78
1070
     4
1070
   140
1040
0.125
1070
   141
1040
-0.125
1070
   271
1070
     5
1070
   272
1070
     3
1070
   276
1070
     2
1070
   277
1070
     5
1070
   279
1070
     2
1070
   284
1070
     4
1070
   285
1070
     4
1070
   286
1070
     4
1070
   340
1005
1C
1002
}
  0
DIMENSION
  5
EC3
330
17
100
AcDbEntity
  8
3
100
AcDbDimension
  2
*D6
 10
3.505655582897307
 20
1.900036533860856
 30
0.0
 11
3.505655582897306
 21
2.103161533860858
 31
0.0
 70
    32
 71
     5
 42
0.4062500000000002
  3
STANDARD
100
AcDbAlignedDimension
 13
3.224752977110814
 23
2.306286533860856
 33
0.0
 14
3.224752977110813
 24
1.900036533860856
 34
0.0
 50
90.0
100
AcDbRotatedDimension
1001
ACAD
1000
DSTYLE
1002
{
1070
    40
1040
0.5
1070
    41
1040
0.125
1070
    44
1040
0.0625
1070
    78
1070
     4
1070
   140
1040
0.125
1070
   141
1040
-0.125
1070
   271
1070
     5
1070
   272
1070
     3
1070
   276
1070
     2
1070
   277
1070
     5
1070
   279
1070
     2
1070
   284
1070
     4
1070
   285
1070
     4
1070
   286
1070
     4
1070
   340
1005
1C
1002
}
  0
DIMENSION
  5
ED1
330
17
100
AcDbEntity
  8
3
100
AcDbDimension
  2
*D7
 10
1.005836560413474
 20
3.315640029116281
 30
0.0
 11
0.8568484651753786
 21
3.159390029116281
 31
0.0
 70
    32
 71
     5
 42
0.3125000000000009
  3
STANDARD
100
AcDbAlignedDimension
 13
1.204755530207668
 23
3.003140029116281
 33
0.0
 14
1.204755530207668
 24
3.315640029116281
 34
0.0
 50
90.0
100
AcDbRotatedDimension
1001
ACAD
1000
DSTYLE
1002
{
1070
    40
1040
0.5
1070
    41
1040
0.125
1070
    44
1040
0.0625
1070
    78
1070
     4
1070
   140
1040
0.125
1070
   141
1040
-0.125
1070
   271
1070
     5
1070
   272
1070
     3
1070
   276
1070
     2
1070
   277
1070
     5
1070
   279
1070
     2
1070
   284
1070
     4
1070
   285
1070
     4
1070
   286
1070
     4
1070
   340
1005
1C
1002
}
  0
ENDSEC
  0
SECTION
  2
OBJECTS
  0
DICTIONARY
  5
C
330
0
100
AcDbDictionary
281
     1
  3
ACAD_CIP_PREVIOUS_PRODUCT_INFO
350
E83
  3
ACAD_COLOR
350
E65
  3
ACAD_DETAILVIEWSTYLE
350
E7E
  3
ACAD_GROUP
350
D
  3
ACAD_LAYOUT
350
DA0
  3
ACAD_MATERIAL
350
E33
  3
ACAD_MLEADERSTYLE
350
E7A
  3
ACAD_MLINESTYLE
350
1A
  3
ACAD_PLOTSETTINGS
350
DA1
  3
ACAD_PLOTSTYLENAME
350
D9E
  3
ACAD_SCALELIST
350
E68
  3
ACAD_SECTIONVIEWSTYLE
350
E7C
  3
ACAD_TABLESTYLE
350
E66
  3
ACAD_VISUALSTYLE
350
E4C
  3
ACDB_RECOMPOSE_DATA
350
FBE
  3
ACDBVARIABLEDICTIONARY
350
2B
  3
AcDsDecomposeData
350
FC5
  3
DWGPROPS
350
FBF
  0
DICTIONARY
  5
EE9
330
2
100
AcDbDictionary
280
     1
281
     1
  3
ACAD_LAYERSTATES
360
EEA
  0
DICTIONARY
  5
EDE
330
E
100
AcDbDictionary
280
     1
281
     1
  3
ADSK_XREC_LAYER_RECONCILED
360
EDF
  0
DICTIONARY
  5
EE0
330
24
100
AcDbDictionary
280
     1
281
     1
  3
ADSK_XREC_LAYER_RECONCILED
360
EE1
  0
DICTIONARY
  5
EE2
330
C56
100
AcDbDictionary
280
     1
281
     1
  3
ADSK_XREC_LAYER_RECONCILED
360
EE3
  0
DICTIONARY
  5
EE4
330
C57
100
AcDbDictionary
280
     1
281
     1
  3
ADSK_XREC_LAYER_RECONCILED
360
EE5
  0
DICTIONARY
  5
E18
330
17
100
AcDbDictionary
280
     1
281
     1
  3
ACAD_LAYOUTSELFREF
360
E19
  0
DICTIONARY
  5
E16
330
14
100
AcDbDictionary
280
     1
281
     1
  3
ACAD_LAYOUTSELFREF
360
E17
  0
XRECORD
  5
E83
102
{ACAD_REACTORS
330
C
102
}
330
C
100
AcDbXrecord
280
     1
300
AMECH_PP
300
2015
300
PDSU_F_S
  0
DICTIONARY
  5
E65
102
{ACAD_REACTORS
330
C
102
}
330
C
100
AcDbDictionary
281
     1
  0
DICTIONARY
  5
E7E
102
{ACAD_REACTORS
330
C
102
}
330
C
100
AcDbDictionary
281
     1
  3
Imperial24
350
E7F
  0
DICTIONARY
  5
D
102
{ACAD_REACTORS
330
C
102
}
330
C
100
AcDbDictionary
281
     1
  0
DICTIONARY
  5
DA0
102
{ACAD_REACTORS
330
C
102
}
330
C
100
AcDbDictionary
281
     1
  3
Layout1
350
DA3
  3
Model
350
DA2
  0
DICTIONARY
  5
E33
102
{ACAD_REACTORS
330
C
102
}
330
C
100
AcDbDictionary
281
     1
  3
ByBlock
350
E3C
  3
ByLayer
350
E34
  3
Global
350
E44
  0
DICTIONARY
  5
E7A
102
{ACAD_REACTORS
330
C
102
}
330
C
100
AcDbDictionary
281
     1
  3
Standard
350
E7B
  0
DICTIONARY
  5
1A
102
{ACAD_REACTORS
330
C
102
}
330
C
100
AcDbDictionary
281
     1
  3
STANDARD
350
1B
  0
DICTIONARY
  5
DA1
102
{ACAD_REACTORS
330
C
102
}
330
C
100
AcDbDictionary
281
     1
  0
ACDBDICTIONARYWDFLT
  5
D9E
102
{ACAD_REACTORS
330
C
102
}
330
C
100
AcDbDictionary
281
     1
  3
Normal
350
D9F
100
AcDbDictionaryWithDefault
340
D9F
  0
DICTIONARY
  5
E68
102
{ACAD_REACTORS
330
C
102
}
330
C
100
AcDbDictionary
281
     1
  3
A0
350
E69
  3
A1
350
E6A
  3
A2
350
E6B
  3
A3
350
E6C
  3
A4
350
E6D
  3
A5
350
E6E
  3
A6
350
E6F
  3
A7
350
E70
  3
A8
350
E71
  3
A9
350
E72
  3
B0
350
E73
  3
B1
350
E74
  3
B2
350
E75
  3
B3
350
E76
  3
B4
350
E77
  3
B5
350
E78
  3
B6
350
E79
  0
DICTIONARY
  5
E7C
102
{ACAD_REACTORS
330
C
102
}
330
C
100
AcDbDictionary
281
     1
  3
Imperial24
350
E7D
  0
DICTIONARY
  5
E66
102
{ACAD_REACTORS
330
C
102
}
330
C
100
AcDbDictionary
281
     1
  3
Standard
350
E67
  0
DICTIONARY
  5
E4C
102
{ACAD_REACTORS
330
C
102
}
330
C
100
AcDbDictionary
281
     1
  3
2dWireframe
350
E52
  3
Basic
350
E51
  3
Brighten
350
E58
  3
ColorChange
350
E5C
  3
Conceptual
350
E55
  3
Dim
350
E57
  3
EdgeColorOff
350
E64
  3
Facepattern
350
E5B
  3
Flat
350
E4D
  3
FlatWithEdges
350
E4E
  3
Gouraud
350
E4F
  3
GouraudWithEdges
350
E50
  3
Hidden
350
E54
  3
JitterOff
350
E62
  3
Linepattern
350
E5A
  3
OverhangOff
350
E63
  3
Realistic
350
E56
  3
Shaded
350
E61
  3
Shaded with edges
350
E60
  3
Shades of Gray
350
E5D
  3
Sketchy
350
E5E
  3
Thicken
350
E59
  3
Wireframe
350
E53
  3
X-Ray
350
E5F
  0
XRECORD
  5
FBE
102
{ACAD_REACTORS
330
C
102
}
330
C
100
AcDbXrecord
280
     1
 90
        1
330
E67
  0
DICTIONARY
  5
2B
102
{ACAD_REACTORS
330
C
102
}
330
C
100
AcDbDictionary
281
     1
  3
CANNOSCALE
350
FA6
  3
CMLEADERSTYLE
350
FA2
  3
CTABLESTYLE
350
FA1
  3
CVIEWDETAILSTYLE
350
FA3
  3
CVIEWSECTIONSTYLE
350
FA4
  3
DIMADEC
350
2C
  3
DIMASSOC
350
FB8
  3
INDEXCTL
350
FB7
  3
LAYEREVAL
350
FA8
  3
LAYERNOTIFY
350
FA9
  3
LIGHTINGUNITS
350
FA7
  3
LOFTANG1
350
FB9
  3
LOFTANG2
350
FBA
  3
LONGITUDE
350
FBB
  3
MSLTSCALE
350
FA5
  3
SORTENTS
350
FB6
  3
XCLIPFRAME
350
FBC
  0
DICTIONARY
  5
FC5
102
{ACAD_REACTORS
330
C
102
}
330
C
100
AcDbDictionary
281
     1
  3
AcDsRecords
350
FC7
  3
AcDsSchemas
350
FC6
1001
ACAD
1070
     2
  0
XRECORD
  5
FBF
102
{ACAD_REACTORS
330
C
102
}
330
C
100
AcDbXrecord
280
     1
  1
DWGPROPS COOKIE
  2

  3

  4

  6

  7

  8
jmilewski
  9

300
=
301
=
302
=
303
=
304
=
305
=
306
=
307
=
308
=
309
=
 40
0.2394059606481481
 41
2449051.539295139
 42
2457155.527299502
  1

 90
        0
  0
DICTIONARY
  5
EEA
102
{ACAD_REACTORS
330
EE9
102
}
330
EE9
100
AcDbDictionary
281
     1
  0
XRECORD
  5
EDF
102
{ACAD_REACTORS
330
EDE
102
}
330
EDE
100
AcDbXrecord
280
     1
290
     1
  0
XRECORD
  5
EE1
102
{ACAD_REACTORS
330
EE0
102
}
330
EE0
100
AcDbXrecord
280
     1
290
     1
  0
XRECORD
  5
EE3
102
{ACAD_REACTORS
330
EE2
102
}
330
EE2
100
AcDbXrecord
280
     1
290
     1
  0
XRECORD
  5
EE5
102
{ACAD_REACTORS
330
EE4
102
}
330
EE4
100
AcDbXrecord
280
     1
290
     1
  0
XRECORD
  5
E19
102
{ACAD_REACTORS
330
E18
102
}
330
E18
100
AcDbXrecord
280
     1
340
17
  0
XRECORD
  5
E17
102
{ACAD_REACTORS
330
E16
102
}
330
E16
100
AcDbXrecord
280
     1
340
14
  0
ACDBDETAILVIEWSTYLE
  5
E7F
102
{ACAD_XDICTIONARY
360
FAE
102
}
102
{ACAD_REACTORS
330
E7E
102
}
330
E7E
100
AcDbModelDocViewStyle
 70
     0
  3
Imperial24
290
     0
100
AcDbDetailViewStyle
 70
     0
 71
     0
 90
        3
 71
     1
340
F
 40
0.24
340
0
 40
0.24
300

 40
0.36
280
     3
 71
     2
340
13
 90
       25
 71
     3
340
F
 40
0.24
 90
        1
 40
0.75
 90
        1
300
%<\AcVar ViewType \f "%tc1">% %<\AcVar ViewDetailId>%\PSCALE %<\AcVar ViewScale \f "%sn">%
 71
     4
340
13
 90
       25
340
13
 90
       25
280
     0
  0
LAYOUT
  5
DA3
102
{ACAD_XDICTIONARY
360
FCA
102
}
102
{ACAD_REACTORS
330
DA0
102
}
330
DA0
100
AcDbPlotSettings
  1

  2
EPSON Stylus Photo 1200
  4

  6

 40
0.0
 41
0.0
 42
0.0
 43
0.0
 44
0.0
 45
0.0
 46
0.0
 47
0.0
 48
0.0
 49
0.0
140
0.0
141
0.0
142
1.0
143
1.0
 70
   688
 72
     0
 73
     0
 74
     5
  7
Default R14 pen assignments.ctb
 75
    16
147
1.0
148
0.0
149
0.0
100
AcDbLayout
  1
Layout1
 70
     0
 71
     1
 10
0.0
 20
0.0
 11
12.0
 21
9.0
 12
0.0
 22
0.0
 32
0.0
 14
1.000000000000000E+20
 24
1.000000000000000E+20
 34
1.000000000000000E+20
 15
-1.000000000000000E+20
 25
-1.000000000000000E+20
 35
-1.000000000000000E+20
146
0.0
 13
0.0
 23
0.0
 33
0.0
 16
1.0
 26
0.0
 36
0.0
 17
0.0
 27
1.0
 37
0.0
 76
     0
330
14
  0
LAYOUT
  5
DA2
102
{ACAD_XDICTIONARY
360
FC8
102
}
102
{ACAD_REACTORS
330
DA0
102
}
330
DA0
100
AcDbPlotSettings
  1

  2
none_device
  4
Letter_(8.50_x_11.00_Inches)
  6

 40
6.349999904632567
 41
6.349999904632567
 42
6.350006103515625
 43
6.350006103515625
 44
215.8999938964844
 45
279.3999938964844
 46
0.0
 47
0.0
 48
0.0
 49
0.0
140
0.0
141
0.0
142
1.0
143
0.8791746031657512
 70
 11952
 72
     0
 73
     1
 74
     0
  7
Default R14 pen assignments.ctb
 75
     0
147
1.137430490370374
148
47.065466456577
149
0.4222008879277378
100
AcDbLayout
  1
Model
 70
     1
 71
     0
 10
0.0
 20
0.0
 11
12.0
 21
9.0
 12
0.0
 22
0.0
 32
0.0
 14
0.0
 24
0.0
 34
0.0
 15
0.0
 25
0.0
 35
0.0
146
0.0
 13
0.0
 23
0.0
 33
0.0
 16
1.0
 26
0.0
 36
0.0
 17
0.0
 27
1.0
 37
0.0
 76
     0
330
17
331
DF2
1001
ACAD_PSEXT
1000
None
1000
None
1000
Not applicable
1000
The layout will not be plotted unless a new plotter configuration name is selected.
1070
     0
  0
MATERIAL
  5
E3C
102
{ACAD_XDICTIONARY
360
E3D
102
}
102
{ACAD_REACTORS
330
E33
102
}
330
E33
100
AcDbMaterial
  1
ByBlock
 72
     0
 43
0.0208333333333333
 43
0.0
 43
0.0
 43
0.0
 43
0.0
 43
0.0208333333333333
 43
0.0
 43
0.0
 43
0.0
 43
0.0
 43
1.0
 43
0.0
 43
0.0
 43
0.0
 43
0.0
 43
1.0
 77
     0
 47
0.0208333333333333
 47
0.0
 47
0.0
 47
0.0
 47
0.0
 47
0.0208333333333333
 47
0.0
 47
0.0
 47
0.0
 47
0.0
 47
1.0
 47
0.0
 47
0.0
 47
0.0
 47
0.0
 47
1.0
171
     0
 49
0.0208333333333333
 49
0.0
 49
0.0
 49
0.0
 49
0.0
 49
0.0208333333333333
 49
0.0
 49
0.0
 49
0.0
 49
0.0
 49
1.0
 49
0.0
 49
0.0
 49
0.0
 49
0.0
 49
1.0
175
     0
142
0.0208333333333333
142
0.0
142
0.0
142
0.0
142
0.0
142
0.0208333333333333
142
0.0
142
0.0
142
0.0
142
0.0
142
1.0
142
0.0
142
0.0
142
0.0
142
0.0
142
1.0
179
     0
144
0.0208333333333333
144
0.0
144
0.0
144
0.0
144
0.0
144
0.0208333333333333
144
0.0
144
0.0
144
0.0
144
0.0
144
1.0
144
0.0
144
0.0
144
0.0
144
0.0
144
1.0
147
0.0208333333333333
147
0.0
147
0.0
147
0.0
147
0.0
147
0.0208333333333333
147
0.0
147
0.0
147
0.0
147
0.0
147
1.0
147
0.0
147
0.0
147
0.0
147
0.0
147
1.0
  0
MATERIAL
  5
E34
102
{ACAD_XDICTIONARY
360
E35
102
}
102
{ACAD_REACTORS
330
E33
102
}
330
E33
100
AcDbMaterial
  1
ByLayer
 72
     0
 43
0.0208333333333333
 43
0.0
 43
0.0
 43
0.0
 43
0.0
 43
0.0208333333333333
 43
0.0
 43
0.0
 43
0.0
 43
0.0
 43
1.0
 43
0.0
 43
0.0
 43
0.0
 43
0.0
 43
1.0
 77
     0
 47
0.0208333333333333
 47
0.0
 47
0.0
 47
0.0
 47
0.0
 47
0.0208333333333333
 47
0.0
 47
0.0
 47
0.0
 47
0.0
 47
1.0
 47
0.0
 47
0.0
 47
0.0
 47
0.0
 47
1.0
171
     0
 49
0.0208333333333333
 49
0.0
 49
0.0
 49
0.0
 49
0.0
 49
0.0208333333333333
 49
0.0
 49
0.0
 49
0.0
 49
0.0
 49
1.0
 49
0.0
 49
0.0
 49
0.0
 49
0.0
 49
1.0
175
     0
142
0.0208333333333333
142
0.0
142
0.0
142
0.0
142
0.0
142
0.0208333333333333
142
0.0
142
0.0
142
0.0
142
0.0
142
1.0
142
0.0
142
0.0
142
0.0
142
0.0
142
1.0
179
     0
144
0.0208333333333333
144
0.0
144
0.0
144
0.0
144
0.0
144
0.0208333333333333
144
0.0
144
0.0
144
0.0
144
0.0
144
1.0
144
0.0
144
0.0
144
0.0
144
0.0
144
1.0
147
0.0208333333333333
147
0.0
147
0.0
147
0.0
147
0.0
147
0.0208333333333333
147
0.0
147
0.0
147
0.0
147
0.0
147
1.0
147
0.0
147
0.0
147
0.0
147
0.0
147
1.0
  0
MATERIAL
  5
E44
102
{ACAD_XDICTIONARY
360
E45
102
}
102
{ACAD_REACTORS
330
E33
102
}
330
E33
100
AcDbMaterial
  1
Global
 72
     0
 43
0.0208333333333333
 43
0.0
 43
0.0
 43
0.0
 43
0.0
 43
0.0208333333333333
 43
0.0
 43
0.0
 43
0.0
 43
0.0
 43
1.0
 43
0.0
 43
0.0
 43
0.0
 43
0.0
 43
1.0
 77
     0
 47
0.0208333333333333
 47
0.0
 47
0.0
 47
0.0
 47
0.0
 47
0.0208333333333333
 47
0.0
 47
0.0
 47
0.0
 47
0.0
 47
1.0
 47
0.0
 47
0.0
 47
0.0
 47
0.0
 47
1.0
171
     0
 49
0.0208333333333333
 49
0.0
 49
0.0
 49
0.0
 49
0.0
 49
0.0208333333333333
 49
0.0
 49
0.0
 49
0.0
 49
0.0
 49
1.0
 49
0.0
 49
0.0
 49
0.0
 49
0.0
 49
1.0
175
     0
142
0.0208333333333333
142
0.0
142
0.0
142
0.0
142
0.0
142
0.0208333333333333
142
0.0
142
0.0
142
0.0
142
0.0
142
1.0
142
0.0
142
0.0
142
0.0
142
0.0
142
1.0
179
     0
144
0.0208333333333333
144
0.0
144
0.0
144
0.0
144
0.0
144
0.0208333333333333
144
0.0
144
0.0
144
0.0
144
0.0
144
1.0
144
0.0
144
0.0
144
0.0
144
0.0
144
1.0
147
0.0208333333333333
147
0.0
147
0.0
147
0.0
147
0.0
147
0.0208333333333333
147
0.0
147
0.0
147
0.0
147
0.0
147
1.0
147
0.0
147
0.0
147
0.0
147
0.0
147
1.0
  0
MLEADERSTYLE
  5
E7B
102
{ACAD_XDICTIONARY
360
1001
102
}
102
{ACAD_REACTORS
330
E7A
102
}
330
E7A
100
AcDbMLeaderStyle
170
     2
171
     1
172
     0
 90
        2
 40
0.0
 41
0.0
173
     1
 91
-1056964608
340
11
 92
       -2
290
     1
 42
0.09
291
     1
 43
0.36
  3
Standard
 44
0.18
300

342
F
174
     1
178
     6
175
     1
176
     0
 93
-1056964608
 45
0.18
292
     0
297
     0
 46
0.18
 94
-1056964608
 47
1.0
 49
1.0
140
1.0
293
     1
141
0.0
294
     1
177
     0
142
1.0
295
     0
296
     0
143
0.125
1001
ACAD_MLEADERVER
1070
     2
  0
MLINESTYLE
  5
1B
102
{ACAD_REACTORS
330
1A
102
}
330
1A
100
AcDbMlineStyle
  2
STANDARD
 70
     0
  3

 62
   256
 51
90.0
 52
90.0
 71
     2
 49
0.5
 62
   256
  6
BYLAYER
 49
-0.5
 62
   256
  6
BYLAYER
  0
ACDBPLACEHOLDER
  5
D9F
102
{ACAD_REACTORS
330
D9E
102
}
330
D9E
  0
SCALE
  5
E69
102
{ACAD_REACTORS
330
E68
102
}
330
E68
100
AcDbScale
 70
     0
300
1:1
140
1.0
141
1.0
290
     1
  0
SCALE
  5
E6A
102
{ACAD_REACTORS
330
E68
102
}
330
E68
100
AcDbScale
 70
     0
300
1/128" = 1'-0"
140
0.0078125
141
12.0
290
     0
  0
SCALE
  5
E6B
102
{ACAD_REACTORS
330
E68
102
}
330
E68
100
AcDbScale
 70
     0
300
1/64" = 1'-0"
140
0.015625
141
12.0
290
     0
  0
SCALE
  5
E6C
102
{ACAD_REACTORS
330
E68
102
}
330
E68
100
AcDbScale
 70
     0
300
1/32" = 1'-0"
140
0.03125
141
12.0
290
     0
  0
SCALE
  5
E6D
102
{ACAD_REACTORS
330
E68
102
}
330
E68
100
AcDbScale
 70
     0
300
1/16" = 1'-0"
140
0.0625
141
12.0
290
     0
  0
SCALE
  5
E6E
102
{ACAD_REACTORS
330
E68
102
}
330
E68
100
AcDbScale
 70
     0
300
3/32" = 1'-0"
140
0.09375
141
12.0
290
     0
  0
SCALE
  5
E6F
102
{ACAD_REACTORS
330
E68
102
}
330
E68
100
AcDbScale
 70
     0
300
1/8" = 1'-0"
140
0.125
141
12.0
290
     0
  0
SCALE
  5
E70
102
{ACAD_REACTORS
330
E68
102
}
330
E68
100
AcDbScale
 70
     0
300
3/16" = 1'-0"
140
0.1875
141
12.0
290
     0
  0
SCALE
  5
E71
102
{ACAD_REACTORS
330
E68
102
}
330
E68
100
AcDbScale
 70
     0
300
1/4" = 1'-0"
140
0.25
141
12.0
290
     0
  0
SCALE
  5
E72
102
{ACAD_REACTORS
330
E68
102
}
330
E68
100
AcDbScale
 70
     0
300
3/8" = 1'-0"
140
0.375
141
12.0
290
     0
  0
SCALE
  5
E73
102
{ACAD_REACTORS
330
E68
102
}
330
E68
100
AcDbScale
 70
     0
300
1/2" = 1'-0"
140
0.5
141
12.0
290
     0
  0
SCALE
  5
E74
102
{ACAD_REACTORS
330
E68
102
}
330
E68
100
AcDbScale
 70
     0
300
3/4" = 1'-0"
140
0.75
141
12.0
290
     0
  0
SCALE
  5
E75
102
{ACAD_REACTORS
330
E68
102
}
330
E68
100
AcDbScale
 70
     0
300
1" = 1'-0"
140
1.0
141
12.0
290
     0
  0
SCALE
  5
E76
102
{ACAD_REACTORS
330
E68
102
}
330
E68
100
AcDbScale
 70
     0
300
1-1/2" = 1'-0"
140
1.5
141
12.0
290
     0
  0
SCALE
  5
E77
102
{ACAD_REACTORS
330
E68
102
}
330
E68
100
AcDbScale
 70
     0
300
3" = 1'-0"
140
3.0
141
12.0
290
     0
  0
SCALE
  5
E78
102
{ACAD_REACTORS
330
E68
102
}
330
E68
100
AcDbScale
 70
     0
300
6" = 1'-0"
140
6.0
141
12.0
290
     0
  0
SCALE
  5
E79
102
{ACAD_REACTORS
330
E68
102
}
330
E68
100
AcDbScale
 70
     0
300
1'-0" = 1'-0"
140
12.0
141
12.0
290
     0
  0
ACDBSECTIONVIEWSTYLE
  5
E7D
102
{ACAD_XDICTIONARY
360
FAC
102
}
102
{ACAD_REACTORS
330
E7C
102
}
330
E7C
100
AcDbModelDocViewStyle
 70
     0
  3
Imperial24
290
     0
100
AcDbSectionViewStyle
 70
     0
 71
     0
 90
       78
 71
     1
340
F
 40
0.24
340
0
340
0
 40
0.24
300
I, O, Q, S, X, Z
 40
0.48
 90
        3
 40
0.18
 90
        1
 71
     2
340
13
 90
       25
340
13
 90
       50
 40
0.24
 40
0.0
 40
0.24
 71
     3
340
F
 40
0.24
 90
        1
 40
0.75
 90
        1
300
%<\AcVar ViewType \f "%tc1">% %<\AcVar ViewSectionStartId>%-%<\AcVar ViewSectionEndId>%\PSCALE %<\AcVar ViewScale \f "%sn">%
 71
     4
300
ANSI31
 40
1.0
 90
        0
290
     0
290
     0
 90
        6
 40
0.0
 40
1.570796326794896
 40
0.2617993877991494
 40
1.308996938995747
 40
-0.2617993877991494
 40
1.832595714594045
  0
TABLESTYLE
  5
E67
102
{ACAD_XDICTIONARY
360
FAA
102
}
102
{ACAD_REACTORS
330
E66
102
}
330
E66
100
AcDbTableStyle
  3
Standard
 70
     0
 71
     0
 40
0.06
 41
0.06
280
     0
281
     0
  7
STANDARD
140
0.18
170
     2
 62
     0
 63
     7
283
     0
274
    -2
284
     1
 64
     0
275
    -2
285
     1
 65
     0
276
    -2
286
     1
 66
     0
277
    -2
287
     1
 67
     0
278
    -2
288
     1
 68
     0
279
    -2
289
     1
 69
     0
  7
STANDARD
140
0.25
170
     5
 62
     0
 63
     7
283
     0
274
    -2
284
     1
 64
     0
275
    -2
285
     1
 65
     0
276
    -2
286
     1
 66
     0
277
    -2
287
     1
 67
     0
278
    -2
288
     1
 68
     0
279
    -2
289
     1
 69
     0
  7
STANDARD
140
0.18
170
     5
 62
     0
 63
     7
283
     0
274
    -2
284
     1
 64
     0
275
    -2
285
     1
 65
     0
276
    -2
286
     1
 66
     0
277
    -2
287
     1
 67
     0
278
    -2
288
     1
 68
     0
279
    -2
289
     1
 69
     0
  0
VISUALSTYLE
  5
E52
102
{ACAD_XDICTIONARY
360
FD9
102
}
102
{ACAD_REACTORS
330
E4C
102
}
330
E4C
100
AcDbVisualStyle
  2
2dWireframe
 70
     4
 71
     0
 72
     2
 73
     0
 90
        0
 40
-0.6
 41
-30.0
 62
     5
 63
     7
 74
     1
 91
        4
 64
     7
 65
   257
 75
     1
175
     1
 42
1.0
 92
        0
 66
   257
 43
1.0
 76
     1
 77
     6
 78
     2
 67
     7
 79
     5
170
     0
171
     0
290
     0
174
     0
 93
        1
 44
0.0
173
     0
291
     0
 45
0.0
1001
ACAD
1000
AcDbSavedByObjectVersion
1070
     0
  0
VISUALSTYLE
  5
E51
102
{ACAD_XDICTIONARY
360
FD7
102
}
102
{ACAD_REACTORS
330
E4C
102
}
330
E4C
100
AcDbVisualStyle
  2
Basic
 70
     7
 71
     1
 72
     0
 73
     1
 90
        0
 40
-0.6
 41
-30.0
 62
     5
 63
     7
 74
     0
 91
        4
 64
     7
 65
   257
 75
     1
175
     1
 42
1.0
 92
        8
 66
     7
 43
1.0
 76
     1
 77
     6
 78
     2
 67
     7
 79
     5
170
     0
171
     0
290
     0
174
     0
 93
        1
 44
0.0
173
     0
291
     1
 45
0.0
1001
ACAD
1000
AcDbSavedByObjectVersion
1070
     0
  0
VISUALSTYLE
  5
E58
102
{ACAD_XDICTIONARY
360
FE5
102
}
102
{ACAD_REACTORS
330
E4C
102
}
330
E4C
100
AcDbVisualStyle
  2
Brighten
 70
    12
 71
     2
 72
     2
 73
     0
 90
        0
 40
-0.6
 41
-30.0
 62
     5
 63
     7
 74
     1
 91
        4
 64
     7
 65
   257
 75
     1
175
     1
 42
1.0
 92
        8
 66
     7
 43
1.0
 76
     1
 77
     6
 78
     2
 67
     7
 79
     5
170
     0
171
     0
290
     0
174
     0
 93
        1
 44
50.0
173
     0
291
     1
 45
0.0
1001
ACAD
1000
AcDbSavedByObjectVersion
1070
     0
  0
VISUALSTYLE
  5
E5C
102
{ACAD_XDICTIONARY
360
FED
102
}
102
{ACAD_REACTORS
330
E4C
102
}
330
E4C
100
AcDbVisualStyle
  2
ColorChange
 70
    16
 71
     2
 72
     2
 73
     3
 90
        0
 40
-0.6
 41
-30.0
 62
     5
 63
     8
 74
     1
 91
        4
 64
     7
 65
   257
 75
     1
175
     1
 42
1.0
 92
        8
 66
     8
 43
1.0
 76
     1
 77
     6
 78
     2
 67
     7
 79
     5
170
     0
171
     0
290
     0
174
     0
 93
        1
 44
0.0
173
     0
291
     1
 45
0.0
1001
ACAD
1000
AcDbSavedByObjectVersion
1070
     0
  0
VISUALSTYLE
  5
E55
102
{ACAD_XDICTIONARY
360
FDF
102
}
102
{ACAD_REACTORS
330
E4C
102
}
330
E4C
100
AcDbVisualStyle
  2
Conceptual
 70
     9
 71
     3
 72
     2
 73
     0
 90
        0
 40
-0.6
 41
-30.0
 62
     5
 63
     7
 74
     2
 91
        2
 64
     7
 65
   257
 75
     1
175
     1
 42
179.0
 92
        8
 66
     7
 43
1.0
 76
     1
 77
     6
 78
     2
 67
     7
 79
     3
170
     0
171
     0
290
     0
174
     0
 93
        1
 44
0.0
173
     0
291
     0
 45
0.0
1001
ACAD
1000
AcDbSavedByObjectVersion
1070
     0
  0
VISUALSTYLE
  5
E57
102
{ACAD_XDICTIONARY
360
FE3
102
}
102
{ACAD_REACTORS
330
E4C
102
}
330
E4C
100
AcDbVisualStyle
  2
Dim
 70
    11
 71
     2
 72
     2
 73
     0
 90
        0
 40
-0.6
 41
-30.0
 62
     5
 63
     7
 74
     1
 91
        4
 64
     7
 65
   257
 75
     1
175
     1
 42
1.0
 92
        8
 66
     7
 43
1.0
 76
     1
 77
     6
 78
     2
 67
     7
 79
     5
170
     0
171
     0
290
     0
174
     0
 93
        1
 44
-50.0
173
     0
291
     1
 45
0.0
1001
ACAD
1000
AcDbSavedByObjectVersion
1070
     0
  0
VISUALSTYLE
  5
E64
102
{ACAD_XDICTIONARY
360
FFD
102
}
102
{ACAD_REACTORS
330
E4C
102
}
330
E4C
100
AcDbVisualStyle
  2
EdgeColorOff
 70
    22
 71
     2
 72
     2
 73
     0
 90
        0
 40
-0.6
 41
-30.0
 62
     5
 63
     7
 74
     1
 91
        4
 64
     7
 65
   257
 75
     1
175
     1
 42
1.0
 92
        8
 66
     7
 43
1.0
 76
     1
 77
     6
 78
     2
 67
     7
 79
     5
170
     0
171
     0
290
     0
174
     0
 93
        1
 44
0.0
173
     0
291
     1
 45
0.0
1001
ACAD
1000
AcDbSavedByObjectVersion
1070
     0
  0
VISUALSTYLE
  5
E5B
102
{ACAD_XDICTIONARY
360
FEB
102
}
102
{ACAD_REACTORS
330
E4C
102
}
330
E4C
100
AcDbVisualStyle
  2
Facepattern
 70
    15
 71
     2
 72
     2
 73
     0
 90
        0
 40
-0.6
 41
-30.0
 62
     5
 63
     7
 74
     1
 91
        4
 64
     7
 65
   257
 75
     1
175
     1
 42
1.0
 92
        8
 66
     7
 43
1.0
 76
     1
 77
     6
 78
     2
 67
     7
 79
     5
170
     0
171
     0
290
     0
174
     0
 93
        1
 44
0.0
173
     0
291
     1
 45
0.0
1001
ACAD
1000
AcDbSavedByObjectVersion
1070
     0
  0
VISUALSTYLE
  5
E4D
102
{ACAD_XDICTIONARY
360
FCF
102
}
102
{ACAD_REACTORS
330
E4C
102
}
330
E4C
100
AcDbVisualStyle
  2
Flat
 70
     0
 71
     2
 72
     1
 73
     1
 90
        2
 40
-0.6
 41
30.0
 62
     5
 63
     7
 74
     0
 91
        0
 64
     7
 65
   257
 75
     1
175
     1
 42
1.0
 92
        8
 66
     7
 43
1.0
 76
     1
 77
     6
 78
     2
 67
     7
 79
     5
170
     0
171
     0
290
     0
174
     0
 93
       13
 44
0.0
173
     0
291
     1
 45
0.0
1001
ACAD
1000
AcDbSavedByObjectVersion
1070
     0
  0
VISUALSTYLE
  5
E4E
102
{ACAD_XDICTIONARY
360
FD1
102
}
102
{ACAD_REACTORS
330
E4C
102
}
330
E4C
100
AcDbVisualStyle
  2
FlatWithEdges
 70
     1
 71
     2
 72
     1
 73
     1
 90
        2
 40
-0.6
 41
30.0
 62
     5
 63
     7
 74
     1
 91
        0
 64
     7
 65
   257
 75
     1
175
     1
 42
1.0
 92
        0
 66
   257
 43
1.0
 76
     1
 77
     6
 78
     2
 67
     7
 79
     5
170
     0
171
     0
290
     0
174
     0
 93
       13
 44
0.0
173
     0
291
     1
 45
0.0
1001
ACAD
1000
AcDbSavedByObjectVersion
1070
     0
  0
VISUALSTYLE
  5
E4F
102
{ACAD_XDICTIONARY
360
FD3
102
}
102
{ACAD_REACTORS
330
E4C
102
}
330
E4C
100
AcDbVisualStyle
  2
Gouraud
 70
     2
 71
     2
 72
     2
 73
     1
 90
        2
 40
-0.6
 41
30.0
 62
     5
 63
     7
 74
     0
 91
        0
 64
     7
 65
   257
 75
     1
175
     1
 42
1.0
 92
        0
 66
     7
 43
1.0
 76
     1
 77
     6
 78
     2
 67
     7
 79
     5
170
     0
171
     0
290
     0
174
     0
 93
       13
 44
0.0
173
     0
291
     1
 45
0.0
1001
ACAD
1000
AcDbSavedByObjectVersion
1070
     0
  0
VISUALSTYLE
  5
E50
102
{ACAD_XDICTIONARY
360
FD5
102
}
102
{ACAD_REACTORS
330
E4C
102
}
330
E4C
100
AcDbVisualStyle
  2
GouraudWithEdges
 70
     3
 71
     2
 72
     2
 73
     1
 90
        2
 40
-0.6
 41
30.0
 62
     5
 63
     7
 74
     1
 91
        0
 64
     7
 65
   257
 75
     1
175
     1
 42
1.0
 92
        0
 66
   257
 43
1.0
 76
     1
 77
     6
 78
     2
 67
     7
 79
     5
170
     0
171
     0
290
     0
174
     0
 93
       13
 44
0.0
173
     0
291
     1
 45
0.0
1001
ACAD
1000
AcDbSavedByObjectVersion
1070
     0
  0
VISUALSTYLE
  5
E54
102
{ACAD_XDICTIONARY
360
FDD
102
}
102
{ACAD_REACTORS
330
E4C
102
}
330
E4C
100
AcDbVisualStyle
  2
Hidden
 70
     6
 71
     1
 72
     2
 73
     2
 90
        0
 40
-0.6
 41
-30.0
 62
     5
 63
     7
 74
     2
 91
        2
 64
     7
 65
   257
 75
     2
175
     1
 42
40.0
 92
        0
 66
   257
 43
1.0
 76
     1
 77
     6
 78
     2
 67
     7
 79
     3
170
     0
171
     0
290
     0
174
     0
 93
        1
 44
0.0
173
     0
291
     0
 45
0.0
1001
ACAD
1000
AcDbSavedByObjectVersion
1070
     0
  0
VISUALSTYLE
  5
E62
102
{ACAD_XDICTIONARY
360
FF9
102
}
102
{ACAD_REACTORS
330
E4C
102
}
330
E4C
100
AcDbVisualStyle
  2
JitterOff
 70
    20
 71
     2
 72
     2
 73
     0
 90
        0
 40
-0.6
 41
-30.0
 62
     5
 63
     7
 74
     1
 91
        4
 64
     7
 65
   257
 75
     1
175
     1
 42
1.0
 92
       10
 66
     7
 43
1.0
 76
     1
 77
     6
 78
     2
 67
     7
 79
     5
170
     0
171
     0
290
     0
174
     0
 93
        1
 44
0.0
173
     0
291
     1
 45
0.0
1001
ACAD
1000
AcDbSavedByObjectVersion
1070
     0
  0
VISUALSTYLE
  5
E5A
102
{ACAD_XDICTIONARY
360
FE9
102
}
102
{ACAD_REACTORS
330
E4C
102
}
330
E4C
100
AcDbVisualStyle
  2
Linepattern
 70
    14
 71
     2
 72
     2
 73
     0
 90
        0
 40
-0.6
 41
-30.0
 62
     5
 63
     7
 74
     1
 91
        4
 64
     7
 65
   257
 75
     7
175
     7
 42
1.0
 92
        8
 66
     7
 43
1.0
 76
     1
 77
     6
 78
     2
 67
     7
 79
     5
170
     0
171
     0
290
     0
174
     0
 93
        1
 44
0.0
173
     0
291
     1
 45
0.0
1001
ACAD
1000
AcDbSavedByObjectVersion
1070
     0
  0
VISUALSTYLE
  5
E63
102
{ACAD_XDICTIONARY
360
FFB
102
}
102
{ACAD_REACTORS
330
E4C
102
}
330
E4C
100
AcDbVisualStyle
  2
OverhangOff
 70
    21
 71
     2
 72
     2
 73
     0
 90
        0
 40
-0.6
 41
-30.0
 62
     5
 63
     7
 74
     1
 91
        4
 64
     7
 65
   257
 75
     1
175
     1
 42
1.0
 92
        9
 66
     7
 43
1.0
 76
     1
 77
     6
 78
     2
 67
     7
 79
     5
170
     0
171
     0
290
     0
174
     0
 93
        1
 44
0.0
173
     0
291
     1
 45
0.0
1001
ACAD
1000
AcDbSavedByObjectVersion
1070
     0
  0
VISUALSTYLE
  5
E56
102
{ACAD_XDICTIONARY
360
FE1
102
}
102
{ACAD_REACTORS
330
E4C
102
}
330
E4C
100
AcDbVisualStyle
  2
Realistic
 70
     8
 71
     2
 72
     3
 73
     0
 90
        2
 40
-0.6
 41
30.0
 62
     5
 63
     7
 74
     0
 91
        0
 64
     7
 65
   257
 75
     1
175
     1
 42
1.0
 92
        8
 66
   257
 43
1.0
 76
     1
 77
     6
 78
     2
 67
     7
 79
     3
170
     0
171
     0
290
     0
174
     0
 93
       13
 44
0.0
173
     0
291
     0
 45
0.0
1001
ACAD
1000
AcDbSavedByObjectVersion
1070
     0
  0
VISUALSTYLE
  5
E61
102
{ACAD_XDICTIONARY
360
FF7
102
}
102
{ACAD_REACTORS
330
E4C
102
}
330
E4C
100
AcDbVisualStyle
  2
Shaded
 70
    27
 71
     2
 72
     2
 73
     1
 90
        2
 40
-0.6
 41
30.0
 62
     5
 63
     7
 74
     0
 91
        4
 64
     7
 65
   257
 75
     1
175
     1
 42
1.0
 92
        8
 66
   257
 43
1.0
 76
     1
 77
     6
 78
     2
 67
     8
 79
     3
170
     0
171
     0
290
     0
174
     0
 93
        5
 44
0.0
173
     0
291
     0
 45
0.0
1001
ACAD
1000
AcDbSavedByObjectVersion
1070
     0
  0
VISUALSTYLE
  5
E60
102
{ACAD_XDICTIONARY
360
FF5
102
}
102
{ACAD_REACTORS
330
E4C
102
}
330
E4C
100
AcDbVisualStyle
  2
Shaded with edges
 70
    26
 71
     2
 72
     2
 73
     1
 90
        2
 40
-0.6
 41
30.0
 62
     5
 63
     7
 74
     1
 91
       10
 64
     7
 65
   257
 75
     2
175
     1
 42
1.0
 92
        8
 66
   257
 43
1.0
 76
     1
 77
     6
 78
     2
 67
     7
 79
     3
170
     0
171
     0
290
     0
174
     0
 93
        5
 44
0.0
173
     0
291
     0
 45
0.0
1001
ACAD
1000
AcDbSavedByObjectVersion
1070
     0
  0
VISUALSTYLE
  5
E5D
102
{ACAD_XDICTIONARY
360
FEF
102
}
102
{ACAD_REACTORS
330
E4C
102
}
330
E4C
100
AcDbVisualStyle
  2
Shades of Gray
 70
    23
 71
     2
 72
     2
 73
     3
 90
        0
 40
-0.6
 41
-30.0
 62
     5
 63
     7
 74
     2
 91
        2
 64
     7
 65
     7
 75
     1
175
     1
 42
40.0
 92
        8
 66
     7
 43
1.0
 76
     1
 77
     6
 78
     2
 67
     7
 79
     3
170
     0
171
     0
290
     0
174
     0
 93
        1
 44
0.0
173
     0
291
     0
 45
0.0
1001
ACAD
1000
AcDbSavedByObjectVersion
1070
     0
  0
VISUALSTYLE
  5
E5E
102
{ACAD_XDICTIONARY
360
FF1
102
}
102
{ACAD_REACTORS
330
E4C
102
}
330
E4C
100
AcDbVisualStyle
  2
Sketchy
 70
    24
 71
     1
 72
     2
 73
     2
 90
        0
 40
-0.6
 41
-30.0
 62
     5
 63
     7
 74
     2
 91
        2
 64
     7
 65
     7
 75
     1
175
     1
 42
40.0
 92
       11
 66
     7
 43
1.0
 76
     1
 77
     6
 78
     2
 67
     7
 79
     6
170
     0
171
     0
290
     0
174
     0
 93
        1
 44
0.0
173
     0
291
     0
 45
0.0
1001
ACAD
1000
AcDbSavedByObjectVersion
1070
     0
  0
VISUALSTYLE
  5
E59
102
{ACAD_XDICTIONARY
360
FE7
102
}
102
{ACAD_REACTORS
330
E4C
102
}
330
E4C
100
AcDbVisualStyle
  2
Thicken
 70
    13
 71
     2
 72
     2
 73
     0
 90
        0
 40
-0.6
 41
-30.0
 62
     5
 63
     7
 74
     1
 91
        4
 64
     7
 65
   257
 75
     1
175
     1
 42
1.0
 92
       12
 66
     7
 43
1.0
 76
     1
 77
     6
 78
     2
 67
     7
 79
     5
170
     0
171
     0
290
     0
174
     0
 93
        1
 44
0.0
173
     0
291
     1
 45
0.0
1001
ACAD
1000
AcDbSavedByObjectVersion
1070
     0
  0
VISUALSTYLE
  5
E53
102
{ACAD_XDICTIONARY
360
FDB
102
}
102
{ACAD_REACTORS
330
E4C
102
}
330
E4C
100
AcDbVisualStyle
  2
Wireframe
 70
     5
 71
     0
 72
     2
 73
     0
 90
        0
 40
-0.6
 41
-30.0
 62
     5
 63
     7
 74
     1
 91
        4
 64
     7
 65
   257
 75
     1
175
     1
 42
1.0
 92
        0
 66
   257
 43
1.0
 76
     1
 77
     6
 78
     2
 67
     7
 79
     3
170
     0
171
     0
290
     0
174
     0
 93
        1
 44
0.0
173
     0
291
     0
 45
0.0
1001
ACAD
1000
AcDbSavedByObjectVersion
1070
     0
  0
VISUALSTYLE
  5
E5F
102
{ACAD_XDICTIONARY
360
FF3
102
}
102
{ACAD_REACTORS
330
E4C
102
}
330
E4C
100
AcDbVisualStyle
  2
X-Ray
 70
    25
 71
     2
 72
     2
 73
     1
 90
        1
 40
0.5
 41
-30.0
 62
     5
 63
     7
 74
     1
 91
        0
 64
     7
 65
   257
 75
     1
175
     1
 42
1.0
 92
        8
 66
     7
 43
1.0
 76
     1
 77
     6
 78
     2
 67
     7
 79
     3
170
     0
171
     0
290
     0
174
     0
 93
       13
 44
0.0
173
     0
291
     0
 45
0.0
1001
ACAD
1000
AcDbSavedByObjectVersion
1070
     0
  0
DICTIONARYVAR
  5
FA6
102
{ACAD_REACTORS
330
2B
102
}
330
2B
100
DictionaryVariables
280
     0
  1
1:1
  0
DICTIONARYVAR
  5
FA2
102
{ACAD_REACTORS
330
2B
102
}
330
2B
100
DictionaryVariables
280
     0
  1
STANDARD
  0
DICTIONARYVAR
  5
FA1
102
{ACAD_REACTORS
330
2B
102
}
330
2B
100
DictionaryVariables
280
     0
  1
STANDARD
  0
DICTIONARYVAR
  5
FA3
102
{ACAD_REACTORS
330
2B
102
}
330
2B
100
DictionaryVariables
280
     0
  1
Imperial24
  0
DICTIONARYVAR
  5
FA4
102
{ACAD_REACTORS
330
2B
102
}
330
2B
100
DictionaryVariables
280
     0
  1
Imperial24
  0
DICTIONARYVAR
  5
2C
102
{ACAD_REACTORS
330
2B
102
}
330
2B
100
DictionaryVariables
280
     0
  1
2
  0
DICTIONARYVAR
  5
FB8
102
{ACAD_REACTORS
330
2B
102
}
330
2B
100
DictionaryVariables
280
     0
  1
1
  0
DICTIONARYVAR
  5
FB7
102
{ACAD_REACTORS
330
2B
102
}
330
2B
100
DictionaryVariables
280
     0
  1
0
  0
DICTIONARYVAR
  5
FA8
102
{ACAD_REACTORS
330
2B
102
}
330
2B
100
DictionaryVariables
280
     0
  1
1
  0
DICTIONARYVAR
  5
FA9
102
{ACAD_REACTORS
330
2B
102
}
330
2B
100
DictionaryVariables
280
     0
  1
15
  0
DICTIONARYVAR
  5
FA7
102
{ACAD_REACTORS
330
2B
102
}
330
2B
100
DictionaryVariables
280
     0
  1
0
  0
DICTIONARYVAR
  5
FB9
102
{ACAD_REACTORS
330
2B
102
}
330
2B
100
DictionaryVariables
280
     0
  1
1.570796
  0
DICTIONARYVAR
  5
FBA
102
{ACAD_REACTORS
330
2B
102
}
330
2B
100
DictionaryVariables
280
     0
  1
1.570796
  0
DICTIONARYVAR
  5
FBB
102
{ACAD_REACTORS
330
2B
102
}
330
2B
100
DictionaryVariables
280
     0
  1
-122.394000
  0
DICTIONARYVAR
  5
FA5
102
{ACAD_REACTORS
330
2B
102
}
330
2B
100
DictionaryVariables
280
     0
  1
0
  0
DICTIONARYVAR
  5
FB6
102
{ACAD_REACTORS
330
2B
102
}
330
2B
100
DictionaryVariables
280
     0
  1
127
  0
DICTIONARYVAR
  5
FBC
102
{ACAD_REACTORS
330
2B
102
}
330
2B
100
DictionaryVariables
280
     0
  1
2
  0
DICTIONARY
  5
FC7
102
{ACAD_REACTORS
330
FC5
102
}
330
FC5
100
AcDbDictionary
281
     1
  0
DICTIONARY
  5
FC6
102
{ACAD_REACTORS
330
FC5
102
}
330
FC5
100
AcDbDictionary
281
     1
  3
8796088067328
350
FC0
  3
8796088067344
350
FC1
  3
8796088067360
350
FC2
  3
8796088067376
350
FC3
  3
8796088067392
350
FC4
  0
DICTIONARY
  5
FAE
330
E7F
100
AcDbDictionary
280
     1
281
     1
  3
ACAD_XREC_ROUNDTRIP
360
1004
  0
DICTIONARY
  5
FCA
330
DA3
100
AcDbDictionary
280
     1
281
     1
  3
ACAD_XREC_ROUNDTRIP
360
FCB
  0
DICTIONARY
  5
FC8
330
DA2
100
AcDbDictionary
280
     1
281
     1
  3
ACAD_XREC_ROUNDTRIP
360
FC9
  0
DICTIONARY
  5
E3D
330
E3C
100
AcDbDictionary
280
     1
281
     1
  3
ACAD_XREC_ROUNDTRIP
360
FCD
  3
BUMPTILE
360
E3F
  3
DIFFUSETILE
360
E3E
  3
OPACITYTILE
360
E42
  3
REFLECTIONTILE
360
E41
  3
REFRACTIONTILE
360
E43
  3
SPECULARTILE
360
E40
  0
DICTIONARY
  5
E35
330
E34
100
AcDbDictionary
280
     1
281
     1
  3
ACAD_XREC_ROUNDTRIP
360
FCC
  3
BUMPTILE
360
E37
  3
DIFFUSETILE
360
E36
  3
OPACITYTILE
360
E3A
  3
REFLECTIONTILE
360
E39
  3
REFRACTIONTILE
360
E3B
  3
SPECULARTILE
360
E38
  0
DICTIONARY
  5
E45
330
E44
100
AcDbDictionary
280
     1
281
     1
  3
ACAD_XREC_ROUNDTRIP
360
FCE
  3
BUMPTILE
360
E47
  3
DIFFUSETILE
360
E46
  3
FBXASSET
360
F49
  3
OPACITYTILE
360
E4A
  3
REFLECTIONTILE
360
E49
  3
REFRACTIONTILE
360
E4B
  3
SPECULARTILE
360
E48
  0
DICTIONARY
  5
1001
330
E7B
100
AcDbDictionary
280
     1
281
     1
  3
ACAD_XREC_ROUNDTRIP
360
1002
  0
DICTIONARY
  5
FAC
330
E7D
100
AcDbDictionary
280
     1
281
     1
  3
ACAD_XREC_ROUNDTRIP
360
1003
  0
DICTIONARY
  5
FAA
330
E67
100
AcDbDictionary
280
     1
281
     1
  3
ACAD_ROUNDTRIP_2008_TABLESTYLE_CELLSTYLEMAP
360
FBD
  3
ACAD_XREC_ROUNDTRIP
360
FFF
  0
DICTIONARY
  5
FD9
330
E52
100
AcDbDictionary
280
     1
281
     1
  3
ACAD_XREC_ROUNDTRIP
360
FDA
  0
DICTIONARY
  5
FD7
330
E51
100
AcDbDictionary
280
     1
281
     1
  3
ACAD_XREC_ROUNDTRIP
360
FD8
  0
DICTIONARY
  5
FE5
330
E58
100
AcDbDictionary
280
     1
281
     1
  3
ACAD_XREC_ROUNDTRIP
360
FE6
  0
DICTIONARY
  5
FED
330
E5C
100
AcDbDictionary
280
     1
281
     1
  3
ACAD_XREC_ROUNDTRIP
360
FEE
  0
DICTIONARY
  5
FDF
330
E55
100
AcDbDictionary
280
     1
281
     1
  3
ACAD_XREC_ROUNDTRIP
360
FE0
  0
DICTIONARY
  5
FE3
330
E57
100
AcDbDictionary
280
     1
281
     1
  3
ACAD_XREC_ROUNDTRIP
360
FE4
  0
DICTIONARY
  5
FFD
330
E64
100
AcDbDictionary
280
     1
281
     1
  3
ACAD_XREC_ROUNDTRIP
360
FFE
  0
DICTIONARY
  5
FEB
330
E5B
100
AcDbDictionary
280
     1
281
     1
  3
ACAD_XREC_ROUNDTRIP
360
FEC
  0
DICTIONARY
  5
FCF
330
E4D
100
AcDbDictionary
280
     1
281
     1
  3
ACAD_XREC_ROUNDTRIP
360
FD0
  0
DICTIONARY
  5
FD1
330
E4E
100
AcDbDictionary
280
     1
281
     1
  3
ACAD_XREC_ROUNDTRIP
360
FD2
  0
DICTIONARY
  5
FD3
330
E4F
100
AcDbDictionary
280
     1
281
     1
  3
ACAD_XREC_ROUNDTRIP
360
FD4
  0
DICTIONARY
  5
FD5
330
E50
100
AcDbDictionary
280
     1
281
     1
  3
ACAD_XREC_ROUNDTRIP
360
FD6
  0
DICTIONARY
  5
FDD
330
E54
100
AcDbDictionary
280
     1
281
     1
  3
ACAD_XREC_ROUNDTRIP
360
FDE
  0
DICTIONARY
  5
FF9
330
E62
100
AcDbDictionary
280
     1
281
     1
  3
ACAD_XREC_ROUNDTRIP
360
FFA
  0
DICTIONARY
  5
FE9
330
E5A
100
AcDbDictionary
280
     1
281
     1
  3
ACAD_XREC_ROUNDTRIP
360
FEA
  0
DICTIONARY
  5
FFB
330
E63
100
AcDbDictionary
280
     1
281
     1
  3
ACAD_XREC_ROUNDTRIP
360
FFC
  0
DICTIONARY
  5
FE1
330
E56
100
AcDbDictionary
280
     1
281
     1
  3
ACAD_XREC_ROUNDTRIP
360
FE2
  0
DICTIONARY
  5
FF7
330
E61
100
AcDbDictionary
280
     1
281
     1
  3
ACAD_XREC_ROUNDTRIP
360
FF8
  0
DICTIONARY
  5
FF5
330
E60
100
AcDbDictionary
280
     1
281
     1
  3
ACAD_XREC_ROUNDTRIP
360
FF6
  0
DICTIONARY
  5
FEF
330
E5D
100
AcDbDictionary
280
     1
281
     1
  3
ACAD_XREC_ROUNDTRIP
360
FF0
  0
DICTIONARY
  5
FF1
330
E5E
100
AcDbDictionary
280
     1
281
     1
  3
ACAD_XREC_ROUNDTRIP
360
FF2
  0
DICTIONARY
  5
FE7
330
E59
100
AcDbDictionary
280
     1
281
     1
  3
ACAD_XREC_ROUNDTRIP
360
FE8
  0
DICTIONARY
  5
FDB
330
E53
100
AcDbDictionary
280
     1
281
     1
  3
ACAD_XREC_ROUNDTRIP
360
FDC
  0
DICTIONARY
  5
FF3
330
E5F
100
AcDbDictionary
280
     1
281
     1
  3
ACAD_XREC_ROUNDTRIP
360
FF4
  0
XRECORD
  5
FC0
102
{ACAD_REACTORS
330
FC6
102
}
330
FC6
100
AcDbXrecord
280
     1
  1
AcDb_Thumbnail_Schema
102
{ATTRRECORD
341
FC1
  2
AcDbDs::TreatedAsObjectData
280
     1
291
     1
102
ATTRRECORD}
102
{ATTRRECORD
341
FC2
  2
AcDbDs::Legacy
280
     1
291
     1
102
ATTRRECORD}
  2
AcDbDs::ID
280
    10
 91
        8
102
{ATTRRECORD
341
FC3
  2
AcDs:Indexable
280
     1
291
     1
102
ATTRRECORD}
102
{ATTRRECORD
341
FC4
  2
AcDbDs::HandleAttribute
280
     7
282
     1
102
ATTRRECORD}
  2
Thumbnail_Data
280
    15
 91
        0
  0
XRECORD
  5
FC1
102
{ACAD_REACTORS
330
FC6
102
}
330
FC6
100
AcDbXrecord
280
     1
  1
AcDbDs::TreatedAsObjectDataSchema
  2
AcDbDs::TreatedAsObjectData
280
     1
 91
        0
  0
XRECORD
  5
FC2
102
{ACAD_REACTORS
330
FC6
102
}
330
FC6
100
AcDbXrecord
280
     1
  1
AcDbDs::LegacySchema
  2
AcDbDs::Legacy
280
     1
 91
        0
  0
XRECORD
  5
FC3
102
{ACAD_REACTORS
330
FC6
102
}
330
FC6
100
AcDbXrecord
280
     1
  1
AcDbDs::IndexedPropertySchema
  2
AcDs:Indexable
280
     1
 91
        0
  0
XRECORD
  5
FC4
102
{ACAD_REACTORS
330
FC6
102
}
330
FC6
100
AcDbXrecord
280
     1
  1
AcDbDs::HandleAttributeSchema
  2
AcDbDs::HandleAttribute
280
     7
 91
        1
284
     1
  0
XRECORD
  5
1004
102
{ACAD_REACTORS
330
FAE
102
}
330
FAE
100
AcDbXrecord
280
     1
102
DISPLAYNAME
  1
Imperial24
102
FLAGS
 90
        0
  0
XRECORD
  5
FCB
102
{ACAD_REACTORS
330
FCA
102
}
330
FCA
100
AcDbXrecord
280
     1
102
SHADEPLOT
 70
     0
102
SHADEPLOTRESLEVEL
 70
     2
102
SHADEPLOTCUSTOMDPI
 70
   300
  0
XRECORD
  5
FC9
102
{ACAD_REACTORS
330
FC8
102
}
330
FC8
100
AcDbXrecord
280
     1
102
SHADEPLOT
 70
     0
102
SHADEPLOTRESLEVEL
 70
     2
102
SHADEPLOTCUSTOMDPI
 70
   300
  0
XRECORD
  5
FCD
102
{ACAD_REACTORS
330
E3D
102
}
330
E3D
100
AcDbXrecord
280
     1
102
MATERIAL
148
0.0
149
0.0
149
0.0
 93
        0
 94
      127
282
     0
 72
     0
 77
     0
171
     0
175
     0
179
     0
273
     0
  0
XRECORD
  5
E3F
102
{ACAD_REACTORS
330
E3D
102
}
330
E3D
100
AcDbXrecord
280
     1
270
     1
271
     1
  0
XRECORD
  5
E3E
102
{ACAD_REACTORS
330
E3D
102
}
330
E3D
100
AcDbXrecord
280
     1
270
     1
271
     1
  0
XRECORD
  5
E42
102
{ACAD_REACTORS
330
E3D
102
}
330
E3D
100
AcDbXrecord
280
     1
270
     1
271
     1
  0
XRECORD
  5
E41
102
{ACAD_REACTORS
330
E3D
102
}
330
E3D
100
AcDbXrecord
280
     1
270
     1
271
     1
  0
XRECORD
  5
E43
102
{ACAD_REACTORS
330
E3D
102
}
330
E3D
100
AcDbXrecord
280
     1
270
     1
271
     1
  0
XRECORD
  5
E40
102
{ACAD_REACTORS
330
E3D
102
}
330
E3D
100
AcDbXrecord
280
     1
270
     1
271
     1
  0
XRECORD
  5
FCC
102
{ACAD_REACTORS
330
E35
102
}
330
E35
100
AcDbXrecord
280
     1
102
MATERIAL
148
0.0
149
0.0
149
0.0
 93
        0
 94
      127
282
     0
 72
     0
 77
     0
171
     0
175
     0
179
     0
273
     0
  0
XRECORD
  5
E37
102
{ACAD_REACTORS
330
E35
102
}
330
E35
100
AcDbXrecord
280
     1
270
     1
271
     1
  0
XRECORD
  5
E36
102
{ACAD_REACTORS
330
E35
102
}
330
E35
100
AcDbXrecord
280
     1
270
     1
271
     1
  0
XRECORD
  5
E3A
102
{ACAD_REACTORS
330
E35
102
}
330
E35
100
AcDbXrecord
280
     1
270
     1
271
     1
  0
XRECORD
  5
E39
102
{ACAD_REACTORS
330
E35
102
}
330
E35
100
AcDbXrecord
280
     1
270
     1
271
     1
  0
XRECORD
  5
E3B
102
{ACAD_REACTORS
330
E35
102
}
330
E35
100
AcDbXrecord
280
     1
270
     1
271
     1
  0
XRECORD
  5
E38
102
{ACAD_REACTORS
330
E35
102
}
330
E35
100
AcDbXrecord
280
     1
270
     1
271
     1
  0
XRECORD
  5
FCE
102
{ACAD_REACTORS
330
E45
102
}
330
E45
100
AcDbXrecord
280
     1
102
MATERIAL
148
0.0
149
0.0
149
0.0
 93
        0
 94
      127
282
     0
 72
     0
 77
     0
171
     0
175
     0
179
     0
273
     0
  0
XRECORD
  5
E47
102
{ACAD_REACTORS
330
E45
102
}
330
E45
100
AcDbXrecord
280
     1
270
     1
271
     1
  0
XRECORD
  5
E46
102
{ACAD_REACTORS
330
E45
102
}
330
E45
100
AcDbXrecord
280
     1
270
     1
271
     1
  0
XRECORD
  5
F49
102
{ACAD_REACTORS
330
E45
102
}
330
E45
100
AcDbXrecord
280
     1
 70
     1
 90
1959938040
 71
     1
  1
6C24B608-B2BD-4D97-B91B-16757F3A2A63
311
504B03041400060808002280904656A4FD28DB000000200100004F00000043393036344434432D384335442D343630382D384635442D3135464246463430333431302F4173736574446174612F446566696E6974696F6E4974657261746F7250726F706572746965732E62696E454E4D4FC240105D3D683C78F01F10EEEBEE
311
C2B6B60D60408A27B8E8C90B19B60336D9B6A4DB261E3DFAAF65266298E4CD9BCF37F32384F83D1B85E28AF04DFE9EF8156B6C4BF7E63EB10271C315DFECC0DF5E7AD71472BAC43DF4BEE3AD75191C7A0F35367D78B88C0E2AE8480EFC232FDD11FE0B81150E7FC7F8FE86C02F314371CC9E2104ECA66ABFFB52F33C4F123B
311
5FC8711E25D29A2895A91DA7F2255946B15DE4ABD553AC5A0C4DDF3A0C6AA4F4F6ACBC3DD687B2984DBAB2C2410D154E87AE45FAA918CE46DA44525B69E2771367DA64DA7E4C144F9E00504B030414000608080022809046F98E94D91A010000300200004500000043393036344434432D384335442D343630382D38463544
311
2D3135464246463430333431302F4173736574446174612F496E7374616E636550726F706572746965732E62696E6D51B14E8440107DA726366A2EC6C20FB8E22C3661D905A402160E4B8D182B1B025CCEC23B8397D852DAF93DB67EC37D809F4063AD0387700666F37666DEBCB79BECBE01F869824A8C0805EDC794AFB265
311
963F2651B2C89EE20911A6AF4B656A974CE92A6032B02DA66CAE18372DC30A85A77BA638EC8C95457019CC74C3668694824953E74C8564E696D07CD3F76D6F6693ACBE17170FEF9FDFD38D43798FB882F0D7D7997A8AD2D9AA81B18B714DD5DBC4EDEAC18A8CDB688B411991ADA0DCA7AE2034D6AF261F11D58FEA1DBB497B
311
484F987EB83DEE1FD1B756474F7734A573405DF55B2784E8355E270BA6F27899666935C11A3A3470C20D72ACF00C41EB7C8439CE708B3BDC23A2D10A2F03D2EB461ED20D739CEEE87F01504B03041400060808002280904628BB58AF800100009E0500003D00000043393036344434432D384335442D343630382D38463544
311
2D3135464246463430333431302F536368656D61732F436F6D6D6F6E536368656D612E786D6CBD544D4FC23018BEFB2B96DE15493C78601010A34B880709DEDFB52FD0D8B54BD70DF6EFED3AC0B12E6442E2716BFB3CEFF3D18E26FB440405EA8C2B1992E1C323095052C5B8DC842437EBFB673219DF8DA659866649B798C0
311
78B48AE6410122242F2A4994AC7F93815DF85C049C8564CA0A901499DD886B2EB9B1E02448F358701A9235880C49A0119892A20C89D1B9FD768815CAD268CB5E0355B40B1E47F3E37A2020464BED06AA57CE8FCC20C3C3446D46761A2632A8C1283D07031EFF2AE7CCB1BFEEE916E406DFAC8E36FFD99A9D60A6944090EEDC
311
3B670C7DC13DE86B6B2C5C240D6E503BB85ACD579D513F1B9F9A69DC9CC22AFA80C426D40AF0B21EA168559156B6276F0F726A6BFF04DCD513A87A62CAD41FB24FCB2858B3952E3D852084DA25B9303C15687973CC8E8AAE11DF2836C38C6A9E765E8C1BA1BFB1DC29CDFE518C8B5A7655A4ED7E77291ABEB80DBD82EC866A
311
DE1B8D05AF9E35CF09D7A061F38A986D9EC412B8F0F65E5D81534D9B231D1E5A8FE577A241F3A5FD01504B0304140006080800228090462CCEBD668A040000E01200003E00000043393036344434432D384335442D343630382D384635442D3135464246463430333431302F536368656D61732F47656E6572696353636865
311
6D612E786D6CD5586D6FDB380CFE7EBF42F0F7A649B70E1B90744856B4970F450FCD7A5F05459613EDE4174872DADCAF3F522F8ED3B88D2F1D06AC4050DBA2493EE4438AF2F8EB73AEC8466823CB62928C06C384888297A92C5693A4B6D9D9E7E4EBD51FE3A931C22EF85AE4EC6AFC38BF261BA626C9AD288496DC3F4FCEAF
311
C63366845F7A10452AF41DB320C0D44EC26EAB20918735565582695670811A6A49643A49A6E9069FA4604A64B29016DC4B48552F95E4932463CA888468C1D2B250DB4962750DF7CE273069CE8363F1FF4EDB00E0A21999574AE4A2B00C353B93F3BD4777B8A61ED8F604ABFEDD79CE56A2B7BDFBDBC50996E0ADDE16FED262
311
23C5D30956C29BDF4A55EA686E5E58B112DA45CE67F76F4FA27EFA3FB672FD7372FC388FAECDCA5209E693CAD167BADCD272F943701B3812F8A3D852008B1D2E32DB927B2F833C6EA95879925356D254582695095A3CE982924720BE5774A3CB9CDCDB350427D2DF20DA1B5532EBE2D5D6288D75D4F7E4FD9890A0EF8E3D93
311
EBB8F8BA4758158EF6FB90A6F9520281C93DE7AAC6D24607DA296BB96018123F821A7D6A5C5884050C475DA4865442732C8B95684A50165CBB3A32F25F783A4A480ED59AD7F924B968AEA50131F46303223E6A397B0E52976030DC1DCA81D7E7C1EDEEA42C19FF27635C505E2BD5198A599020DF50A2330FCB3AAF28CB0124
311
108429553EF1B228802E2265D8F7CC2401042B155BCC7070F1E5C55F13B4A9577362CCCE46C32174E010C3C378C44841A4BDA00FE3A12006CE11EE6AEC59894D3526DDE1CD59D503ECC324017F8061B7F162162FA62EDD81AE3308617770796DCBDAD2B2625C5AE8A63DE20B2C8AA5E95E76E5730823955956E33E705425A2
311
187C185D36489A1B44D3DCEC2172F6BA2105C3546287A7194B2331768EBBE64F6E70A9930ABE0ADEA89E9E2C38523B810287AD67A54A039C1606EAFE68F8304610BB9093DBDDABC0B2AE4E290DCDA15376D7E39F72B556F0B32EAB5D3D498B4C41ABADEC3A1434C422D87E8025A84BDCB2B1417ED750FAE4DA8976863974C5
311
77C7F902D3F156AD354DEA3540DE6BEAE2BEA52F7A2EB4CA43802ECE5BF2CE2EDC9347179FFB023CE412E60BE16DA0BE29B374988A553F561DC04615DD35F7D2C8979F60E5955CE93DF29DED8AFA1EE6642D53418086C03C47C377910F75F7E8F5EF665F70B60FFB22AEDF897D119E8423C773E819A3C1E55E550599EE6EDC
311
A34D0C86FD72057DF2CD46F16A470682471C164E4346D5306BF12D7D12D82CFF673D41636C347443FEB51B50D72EA171A8E4A58623A4A16E0FA2B8B10A0D23268D87C33896EE8FB73305A74BF224EDBADFA0BD674AB354D63DB7BD5D83426761C077DE767728235446A552754EB93B755891C3C4CC6CADE37CF0E912A7BB38
311
DBA010F9DE1282EDF470CA69A9CDA482E334C4A6EA4107987980B17E72F31730EBF88BBD39E7C629F56797A3C0009C2C5AE7951D9A05A02773440F02EEB4DE396A3B6A570C72CCFBCD823B0B8ED3F1D5CEDDFED772FA70236C83FB7D86C385D570B87107535572A60A96035F8F7C6A7192F13007246BBE0521855E6AC46F3E
311
27689CEE7D186A6FD679D98CDCAD13333E04EBE7ED6F55FF01504B0304140006080800228090466180134D5F0100006B0300004500000043393036344434432D384335442D343630382D384635442D3135464246463430333431302F536368656D61732F52656E6465724D6174657269616C536368656D612E786D6CA5934D
311
6FC2300C86EFFB1551EEE343DBA41D1A103009551ADAD40EAE28A4A68D9426284961FCFBE5A340113B2071746D3F765EBF4DC6BFB5407BD0862B49F0B037C0082453059725C18DDD3EBFE3F1E829991803366715D474942CD30FB4A782E00C64017A412D684E454CE3FE28995203B162A6EA5AC94B66997D225E109CD63B01
311
35484BAD1B3C07E9080CA35DB3119C11BCA5C200461A68A1A438126C75E3E230D40FF81FB3F03C91D1E3A3A0AF79FE28E25BC39EC3E17E4C2A2D94A0833A51AF55BCCA7D88572FCBAC529C4140B020FC3AAFA886621DCED7EAD7664CC86024E806DC297DA1BB393E4156543457A4537DB8817349A70F8ACBF09B3EEE2CB2F3
311
3E91B65D60786E4E3B39B77E3FEEEF5650424525DA657FB8B46BE6BF064646F0A0F7327C0BC1BC1B4CBBC1C419FA3CCB23500007872A2580CAAE5461865565294E4EDB4617B62FF579DF9A5B2F54E834076A597573A020912FED777F9B3F504B030414000608080022809046A2AAD934510000005700000047000000433930
311
36344434432D384335442D343630382D384635442D3135464246463430333431302F4173736574446174612F41737365745461626C654F66436F6E74656E74732E62696E5361606030733632713233B0D075327272D13571B134D775B23474D23534333735773376347234331602AACB4D2C492DCA4CCC492C28484D2C4ACC
311
4B4E050A82012F90744FCD03CA26072767A4E6260200504B030414000608080022809046F865834058000000680000004500000043393036344434432D384335442D343630382D384635442D3135464246463430333431302F4173736574446174612F53747265616D56657273696F6E5461626C652E696E66558CBD0A8030
311
0C06F73E4B117FB66E451741D041DC5BF98480A492E4FDD18EAEC7DD4555D89EF28DF51A0B1BD8340C4DE7DD848B988C0ACF0649566493F2408C508DDEBB99D5129FF8F1AF8CF5B9503E20FAE5A16B5AF702504B030414000608080022809046FDA0F2FA340100009A0400003600000043393036344434432D384335442D34
311
3630382D384635442D3135464246463430333431302F4173736574446174612F636E782E786D6CCD94314FC3301085FF4AE43D76824A852AC71582A51348540C6C57E752AC3A76645F10FC7BEC2403A888A943D7F3BBF3F327BF93DBCFDE161F18A2F1AE6135AF58814EFBD6B863C346EACA3B566C950CDED30F192B1CF4D8
311
B05C664A1E831F87A5D46207A3CD556BDC6929DEC788B48783C5A7EEC13B42479115DA428C0D8BFA1D7BE030926F319E780B04BCE601A31F83C634894C8FCB241D10085BA66EAAFAB6AC5665BDDED7EB4D556FAAD59B1459A9E4C17BBBE84DBA2CF8A1D0F3AD4C5552E46325C760164D7E0B537F79E407E3A4484A252385C4
311
64E9A0AF2175C03058A381123AE13521954984D04B318B951499C12F128FD8196772CB2E1903F2E139D9C34006AF8EC87F5E2F4F66E72281D378BD3CCE1D5E9EC2CBF4835EE7404E89B9B69C9C3BE4C67517488998D6480A4DDE2AEA1B504B030414000608080022809046CD1D12B1080100004F0300003400000043393036
311
344434432D384335442D343630382D384635442D3135464246463430333431302F536368656D61732F636E782E786D6CCD933B4F04211485FFCA847E78987563360C5B5858D9A8951DC2DD952CC39DF030FAEF85916237B1D3623B387C21E71C2E72FF39FBE10362721826222827030483D685E3444A3E8C7764D82B1911F3
311
194686A0679848938992C78865E99285832EBEA9DE855317EF719E313C9B779835198CD7294D24AD5BAA4B460BE944ADCE9A0A1A21618906EA0DD9CDD06F301174064BD40D17B723DF8C62FB22B63B2E767CF32A5923957C43F49D772143C465305817A1DAE192B563254B749D6919883AF7466B1B925542C99463EDA093F9
311
6BA9A45E16EF8CCEB52AB6823F8C92AC45BD08FC0001A233D799F8C2DCBF457E8260213ED6578A4EFBEB4CFE9BC7BF15C0D6D9AF23D0BE82FA06504B030414000608080022809046410A3D5871000000A40000002C00000043393036344434432D384335442D343630382D384635442D3135464246463430333431302F636E
311
782E786D6C55CC4D0E82301086E1AB34B31774E7A22D31F1069E60020334B633A63FC6E34B0909B07DDE2F9FEE7EC1AB2FC5E4840DDC9A2B28E25E06C7938192C7CB1D54677514C9871928C640062A83D55394F2D968A0118BAFEA1DBF377CA444F98919176EAB9FEAAB9F2960DA5BBB1E2ED3FA6FFF504B03041400060808
311
002280904680169F447D000000A300000007000000636E782E786D6C4D8C410AC3201444AF227F6FABD4040B6AA006EF111A13A4E65B6C2C3D7EB564D1D51B1E33A386CF16C9DBE75748A8819F18108FF734075C35947DA112C860544E69FFAB01C169F31A9A06A3D69CCAF350B35FA6129B8D011F87B457D68B51582A6D37
311
52D13349A5AB8977EEE69C6017C1595D9CDBA4E2F757D9EECD17504B03041400060808002280904616E99B5DA600000035010000130000005B436F6E74656E745F54797065735D2E786D6C9590410E82301045AFD2740F4517C6180A0BF5065E60AC53688469D30E066F6F91AD9AB89CF9FFFD3F99BA9DC7413C3026E749CB
311
4D59498164FCCD51A7E5C4B6D84BD136F5E5193089ECA5A465CF1C0E4A25D3E308A9F401292BD6C711388FB15301CC1D3A54DBAADA29E38991B8E0254336F5092D4C038BF39CD76B6FC6A538AEBEA54A4B08617006389FA516557DE4AE8E7E70DE30729138228C5F021CD93F02D4FB0DCD0B504B0304140006080800228090
311
463DEE336E64000000790000001B0000006175746F6465736B2D64657369676E2D7061636B6167652E786D6C35CBC10E83200C00D05F21DCA56CA76D41FC96062B120735B69A7DBE268BB7777961F8D5AF396893C2ADB70FE7ADA196782C2DF776D7A97B5933C430F15651E5469C55D70F80A4992A3ADC954792C525AE70A1
311
E4D6AD9816CC044FEFDF01FE3FDE907802504B0304140006080800228090463E020F6CF8000000960100003700000043393036344434432D384335442D343630382D384635442D3135464246463430333431302F4173736574446174612F636F72652E786D6C8550CB6E833010FC15B477831D08299171D440FA053DF566D9
311
0EB1126CE447D5CFAF1DA8D49E7ADAD5ECCCECEED0D3D7FC283E95F3DA9A1E4889A1504658A9CDD4430C57F402C58951676DF84583C2F059F59061607472362E1B24AC09CA64D458A936907BAF0214E2919A1EBCB8A999973C86C4F0F772E1E2CE27559272E5311AA3969B54CBE4A6AF5A3960DD480EF59E34A8C578444D87
311
6BD45DC633C2C3E1320C3B4CDEEA33ADB298D1A0E79FEDC2291E940496187B841B44DA77D21E3139E2E6835699C9A80F2EFDBC2DCDDF017BCD578F3C705AADD33FAE7191FFBB466D42BDDB5C57850746D291CF01A3554E29956784A9E644D937504B030414000608080022809046C0CE1557F7000000940100003500000043
311
393036344434432D384335442D343630382D384635442D3135464246463430333431302F536368656D61732F636F72652E786D6C8550CB6E833010FC15B477831D086922E34881F407DA536F96ED102BC1467E54FDFCDA40A5F6D4D3AE66676677879EBFA667F1A99CD7D674404A0C8532C24A6DC60E62B8A11728CE8C3A6B
311
C32F1A14864FAA830C03A3A3B371DE20614D5026A3C64AB581DC7B15A010CFD474E0C55D4DBCE43124867F9433170F3EAA92942B8FD118B5DCA45A26377DD3CA013B0EE450EF49835A8C07D41C718D8ED7E182707FB8F6FD0E93D7FA42AB2C6634E8E967BB708A07258125C61EE10691F69DB4274C4EB8F9A0556632EA834B
311
3F6F4BF377C0DE963B3DADD6D91FCF38CBFF3DA336A1DE6D9EABC20323E9C465C06895334A650930D59C27FB06504B030414000608080022809046CE32E759FF000000D70100002D00000043393036344434432D384335442D343630382D384635442D3135464246463430333431302F636F72652E786D6C9591C14EC42010
311
865FA5993B2DECD2A66E289BD84D9FC093372CB395EC169A02C6C7176C8D7AD313939FEF1FF867C4F97DBE176FB87AE36C07ACA450A01D9D3676EA20862B69A1384BB13A177E605058356307590629A6D5C56597466703DAAC5AA7711795F718A018EFA9E8C08FAF38AB52C590087F2B1735DED484252B374E8A60E62FEBB8
311
A20AA8411E28AB09E584354FAC395176A2FC59549994221A1B8E87FD319C5F50176E092912C85A54DB6DA2A2D13B6374FAA3B91A5C41F60FB4E117DE93B6AF2F8437B425ED902A560F8FC3C0E991339A9A24B3143EAC69327B933C83BFDA37E3AF6471D1FF4CB6393C48F61DAACA6396A2FADC413AF34AE407504B03041400
311
0608080022809046D115164806010000B201000008000000636F72652E786D6C8D50DD6E8320147E1572EE51A8D6CE066952ED9E6057BB63422DA982116CB6B71F54966C77BB3AE43BDF1F879D3EA7113DD4E2B4350DD08C0052A6B7529BA181D55FF10BA013678BB5FE170D9011936A20C2C0D9B0D8754E506F8D5726A2C6
311
4A9540E19CF280FA313C1A70FD4D4D2213AB0F0C77CF66D1DFC5A0329A6D3CCEBC9E7EA4FDA2845712F88ED03D2625A6D51BAD8E841E49F9CEF2C8E46C5DB54C515A86747DD56A015E77F450EC69892B423A5CD6A4C0F5A53B63D21E2E6D1B0C5F8B33CBA39833E797F0E764127A7AE4C423E6B27C5B71F661ED9808A19444
311
D68C5FC009CBE3E24FE97596FF28AD8D2F76C9705338E034147A2E4270BC6018CFF38619AFCDBF01504B010214001400060808002280904656A4FD28DB000000200100004F000000000000000000000000000000000043393036344434432D384335442D343630382D384635442D3135464246463430333431302F41737365
311
74446174612F446566696E6974696F6E4974657261746F7250726F706572746965732E62696E504B0102140014000608080022809046F98E94D91A0100003002000045000000000000000000000000004801000043393036344434432D384335442D343630382D384635442D3135464246463430333431302F417373657444
311
6174612F496E7374616E636550726F706572746965732E62696E504B010214001400060808002280904628BB58AF800100009E0500003D00000000000000000000000000C502000043393036344434432D384335442D343630382D384635442D3135464246463430333431302F536368656D61732F436F6D6D6F6E53636865
311
6D612E786D6C504B01021400140006080800228090462CCEBD668A040000E01200003E00000000000000000000000000A004000043393036344434432D384335442D343630382D384635442D3135464246463430333431302F536368656D61732F47656E65726963536368656D612E786D6C504B0102140014000608080022
311
8090466180134D5F0100006B03000045000000000000000000000000008609000043393036344434432D384335442D343630382D384635442D3135464246463430333431302F536368656D61732F52656E6465724D6174657269616C536368656D612E786D6C504B0102140014000608080022809046A2AAD9345100000057
311
0000004700000000000000000000000000480B000043393036344434432D384335442D343630382D384635442D3135464246463430333431302F4173736574446174612F41737365745461626C654F66436F6E74656E74732E62696E504B0102140014000608080022809046F8658340580000006800000045000000000000
311
00000000000000FE0B000043393036344434432D384335442D343630382D384635442D3135464246463430333431302F4173736574446174612F53747265616D56657273696F6E5461626C652E696E66504B0102140014000608080022809046FDA0F2FA340100009A0400003600000000000000000000000000B90C000043
311
393036344434432D384335442D343630382D384635442D3135464246463430333431302F4173736574446174612F636E782E786D6C504B0102140014000608080022809046CD1D12B1080100004F0300003400000000000000000000000000410E000043393036344434432D384335442D343630382D384635442D31354642
311
46463430333431302F536368656D61732F636E782E786D6C504B0102140014000608080022809046410A3D5871000000A40000002C000000000000000000000000009B0F000043393036344434432D384335442D343630382D384635442D3135464246463430333431302F636E782E786D6C504B0102140014000608080022
311
80904680169F447D000000A3000000070000000000000000000000000056100000636E782E786D6C504B010214001400060808002280904616E99B5DA6000000350100001300000000000000000000000000F81000005B436F6E74656E745F54797065735D2E786D6C504B01021400140006080800228090463DEE336E6400
311
0000790000001B00000000000000000000000000CF1100006175746F6465736B2D64657369676E2D7061636B6167652E786D6C504B01021400140006080800228090463E020F6CF80000009601000037000000000000000000000000006C12000043393036344434432D384335442D343630382D384635442D313546424646
311
3430333431302F4173736574446174612F636F72652E786D6C504B0102140014000608080022809046C0CE1557F7000000940100003500000000000000000000000000B913000043393036344434432D384335442D343630382D384635442D3135464246463430333431302F536368656D61732F636F72652E786D6C504B01
311
02140014000608080022809046CE32E759FF000000D70100002D000000000000000000000000000315000043393036344434432D384335442D343630382D384635442D3135464246463430333431302F636F72652E786D6C504B0102140014000608080022809046D115164806010000B20100000800000000000000000000
311
0000004D160000636F72652E786D6C504B050600000000110011005A060000791700000000
310
504B030414000608080022809046000000000000000000000000370000006662782F37323236314330452D353737432D344541302D384643342D3835453535354238363635342F617474726962757465732E62696E504B030414000608080022809046000000000000000000000000350000006662782F3732323631433045
310
2D353737432D344541302D384643342D3835453535354238363635342F76657274696365732E62696E504B030414000608080022809046F270F1330600000004000000360000006662782F37323236314330452D353737432D344541302D384643342D3835453535354238363635342F747269616E676C65732E62696E6366
310
60600000504B03041400060808002280904651464CB48900000043010000360000006662782F37323236314330452D353737432D344541302D384643342D3835453535354238363635342F6469726563746F72792E786D6C9D8F310EC2300C45AF127987122606C71DD918B841D4B851A43646695A717C52A85029031293A5
310
A76FBF6FACEF7DA7264E43906840EF0FA03836E242F406C6DCEE4EA06AC22492573150D1F66C60C640E8938CB705396EEDD86DE9B5042FE27813D640EA63BB001C722AF6E55CB61E4863F58284D5D3F53DD715CE1C3985E63FD7F1B7EBDD617E9F1E504B030414000608080022809046E593B2D63E070000201C0000340000
310
006662782F37323236314330452D353737432D344541302D384643342D3835453535354238363635342F6F626A656374732E786D6CDD59596FDB3810FE2B84F665F7C13A7CC52E1C173E92C028D21635BAD837819669871BEA0025254E7FFD0E29521615D9567A00C52640EC50E470E69B7B34797F08197A223CA571746D79
310
B66B211205F19646FB6B2BCF769D9185DE4FD184C77156D967A10887E4DA12CBD674B2E7719EA8A52DD9E19CD5576FE7FFA0342011B150C0709A5E5B69F040426CE33C8BB7247DB4B738C3F67E77B03DBBD86892DD739C3CD4AE4A30275106ACC27A045414079EF92F88E44C278ED8606CEBB5DBD63DB3CD91829B8CD228CD
310
7014BCE2AA765DF70457B5EB7A5E7F79D31D8C3B837EBFD7E90FBB5E677E3B5F76BCAB9EBB182E16E3D9CDD842D3C9268E59A98084445BD0E28B35F5268E78528AAF5068E23B88A388040ACDA60D5BA2E85292D6313180F5A468158514B256167A2D853FB1AD1528064B06DA5A38FD59B5DE78F32F8090B6B1529E1261E569
310
C641D70AFBC21FDC8953AC1A7AA1290A714638C50C31BAE1988382606BA120838CF016410A09CCA41635BD2AAF60D8977DA989CB5DCE98F05F6B2A3DCD077F24592A39A3DF083F725FBD0D780269731A6523256CF6920089F1C4918BC5B35E573D2C80443B86F7602D20A6D8D4EBD6F05A8858B05A5AD30FB79BC35AC487E6
310
CB131E278467C2F2A4332BBFD31AAC9816185F0B500A5C4DDD1D51F902D07F04E44B5ED00434C7E9A17FE86BD9398ED25DCC43D00E7251C7853F2E125F5F7D9B38E5E1294246AC3C8529B8ED4FC2D410C3B8BB02E974F204461FF39E126E1D6006367D4F23E1E7602888C5B004F17EB73958D31504535884539881F4F03B71
310
C457041F051D8837350D3585DF168AD20E53F7B3A3AEEEC066380D4A5519329EC277F053F09D2DD71FD639DFE180DC2BC75E921D8D6806C9B499210374C3E5BFAE3E4A8FBC63F106B3E369635300D7EC6311371AD4B2566A41522FC08948C38566E4CA3D056F670C4724CE53B5DE14A78298C5DCDFBCF8850B37DEF5B7B681
310
E23265008DB10C927BC0692230B1A64A5B6520B42B82828561AE2C705F68D5DFE461E2E330CE23116A5F9B629D0F8833C21281AAA4A60D5B7BAD26BBA5BB5D9E42F06A24B9308054FEAC091716DE8738D6C42F273B8E2189C6914F210783B334DE605C5082779EE794B09D4F19CB437F4719E4113FC4C909FA2D25A866AE47
310
F2F21CF36D2341D3B2B44F6A1B12802B6035483A5B15315FE99493272ACA4C99CF74363076A83AD49AF64FA40B91291A00D5C628CD7CB8E8F6E74377D49977A14EEA2FC7579DF9D89B77BCE1D5E0EAB637EBCE86BD3A9F3A5A55F31DA852943986FF650F79B8893065F040888DB7C9BBF7327B5E3B101A9DD9CDCD68D49FCD
310
3BBD9BC1A8D3F7A06E1BF77BE3CE62B41C0CFBF39BDBDBABA1C3491AE73C20A9D3755C5F9B6412ED4F71A5B97B1D43A1ACB99CECB4BEEAC2FC8F63683D27184AFC5D836819BB1A0AC2B641541CAD87501C3C8A14E50750F535BA4F2D88D6F9688A736F8CCBAEDD73E58FE78DBBEEB83B1A0F4B633F1BA8E53D3F1CE79A2408
310
A0EFCC333F4E7040B3E6845AC3A5659C7E536EB17BDE00013AE5DFF292F379465DE2D310EF89BFC3A24B68088C972468CC617B16A7298D482ABBBC57D55F8DA66B433165E6DC0623A4A91F920C7F8FFDC9B6A166D3109B990FFD6826260217AB82D2A05507728AA2E87E21714BF95FFC1487092B3ADD4B18785D0D81EE719A
310
2C4E302DAE78027BF371E6BB5B22071797A897ECEBFAA0516B75EAE3EF267F021E5DD7FC4278F415ED4B277BE08DC5CF0882CA70E0F5AEB4222E61A5AFCA441FC772E83C8317FF99D0FD43AB42B39D4E2A255B5154672484361667396FE5AFC381FBEA2215176A0E51B9E98DC5A1ECDF740707E8C906EE54795BB906EA501A
310
C19CAB9520AFA4683461A90B39D313A3AB37F8F5596557A9FE70BCFCE51573D5F94239FCB98C0354CB450056D1C7A8A91BAB6EA31E4A9F711640205DCBCFCE1C3C624BB6C7C6CC20D754A2EBFAF452F5BC12013584892D1671F65E7C615F30A81ABAE7D4B92B8A36A7585F89C466C370FAC887C1B449EBD3DDBA4605565A9F
310
FE2C3022CF350A6A7521BAE133A4BEAE8E3D7F8D8292E8EBEACCF1DFA2A3D00AAC8CD1601A9CC68CC2509E6CD19EC490BD61ECD0A2DBE02149655606E355414ABF116871FAA998A96678C3F4E9E001C3609AA95E2C0F60280A19F3DA52EBE80F18838A49A41C4ED98FD086A91866A19CD36B0B2C36A3D06DD91B1867C9E1A1
310
A45E1B578263E3682FF27D71AAFCFF784CA00351E92857B9A70D2E4A32C399A0B04DE47B02A8FA8A07D3C9F78BAED9413883AF9B3C2B85392E1CA55120E81702857030F57B54F01EA0A0382F9767CB3D0624AD26F367EDA0A0DAC930DFCBF17A05EFD9F2B32326E3AB4F2861F95EA8F35CF76B50EA88AE9BE5C5146A0286A1
310
C44CB0A82117EF9CCF3C86574C21BAA56004E8CFC368F897B388C3308E8A2567A65E54A1F503BC76DA3A7AE4076DBCEB0D1C390550637D7F835362E36DFA080BA05A4EC56CB480D83080329A560C406B44E8028E19FB574BA46AA3CA84A41A76053C72A68FC091C4BB1CE136D50D950124F80270251F1EBFE88589C361083E
310
FD0F504B030414000608080022809046D31391823E01000046050000300000006662782F37323236314330452D353737432D344541302D384643342D3835453535354238363635342F636E782E786D6CCD94C14EC3300C865F25CABD4D8BC684A6349338F0041C10B734F54A581A57898BD8DB938C6E80D0108749DB2D727E
310
4BFF67FFB25CBF0F8EBD4188167DC3EBB2E20CBCC1CEFABEE1136D8A3BCED64A0644FA26E3CCEB011A9ECB5CC93EE034CEA50E367A72B9EAACDFCE454D146C3B1144CE8CD331363C9A171874A927C20EE2B6EC34E9B22E03449C8281D44F7680B9DF04D0041D5737557D5B548BA25E3ED6CB5555AFAAC5B31459A9648BE866
310
BDF504014766303D7C32534991BF959C829D359980AB2F67656BBD14E95FC998DCFA7ED6D16ECCBA7174D6684A63126808A84822D083149F622545E6FD41FD70FF7470C03A1BC01086DD8506509F1AC0D1589992F03FFEBDF06F6C6C5F13EEA5B67D1276B67536D4435A638AEBEFFDA71469DFBBEB0BFDD1D8F9339F4E0959
310
737DC8075F672216FB9397969E2FA0FA00504B0304140006080800228090460DCB0C737E000000A30000000B0000006662782F636E782E786D6C4D8C4D0EC2201805AF42BE3D4A1BFE1640A304EFD158DA1029186C8DC7174C17AE5E3279336AF8AC11BD7D79859C34742702C8A77B9E425A34ECDB8C25A0C1A892F3F67703
310
94C6D56B68188C5A4ADE9F079AFC3CEEB1D118D2E380A2EF796789C34C088BA9BB102C6F9662C91C63EC2A3967B41AE7A6D4F9F5EAB6BCF902504B030414000608080022809046A6D797065F0000008200000007000000636E782E786D6C4DCB3B0E80201045D1AD90E9FD7516806B51190811670C8A61F982B1B0BAC9C97B
310
72CA7B1037C6D3332918DA1E04D2CAC69353902EDB8C20262D23F3F59B81A079470595414B17391D1F19B4730A5583A7ED43BBE4025D9592775E5ADFFA01504B0304140006080800228090464FEB6A7CA0000000F4000000130000005B436F6E74656E745F54797065735D2E786D6C7D8F4B0EC2300C44AF1279DFA6B04008
310
35ED02B8011730C16D239A8F121795DB93D02D6269CFBC19BBED573B8B17C564BC53B0AB1B10E4B47F18372A5878A88E20FAAEBDBD032591BD2E299898C349CAA427B2986A1FC86565F0D122E7318E32A07EE24872DF3407A9BD63725C71C980AEBDD080CBCCE2BAE6F5D69B7110E7CD57AA146008B3D1C8F92C5954F993BB
310
1BF787F39A89ABC491D09600F9FDA2FB00504B0304140006080800228090463DEE336E64000000790000001B0000006175746F6465736B2D64657369676E2D7061636B6167652E786D6C35CBC10E83200C00D05F21DCA56CA76D41FC96062B120735B69A7DBE268BB7777961F8D5AF396893C2ADB70FE7ADA196782C2DF776
310
D7A97B5933C430F15651E5469C55D70F80A4992A3ADC954792C525AE70A1E4D6AD9816CC044FEFDF01FE3FDE907802504B0304140006080800228090467E726C0CF9000000960100003B0000006662782F37323236314330452D353737432D344541302D384643342D3835453535354238363635342F7265736F7572636573
310
2F636F72652E786D6C8550CB6E833010FC15B47703064248641C41A37E414FBD596643AD041BF951F5F36B072AB5A79E76353B33BB3BECF2B53CB24FB44E19DD03CD4BC8504B33293DF710FC8D74905D38B3C6F85F34C8B458B087040367B33561DD2169B4479D506D26DC41E11C7AC8E423363D38F9818BC845F091E1EEF9
310
2AE45DCC98D37CE37116829A76A99AA29BBA29B4C0EBE3B5A3753590713CB5A419C6920CC79703A1CDE9B56DC78A76D7861549CC9957CBCF766951789C8057253D90B221B47DA3EDB9A4E7B27967456272E6BC8D3FEF4BD377C02D3A13AC44C78A6DFAC735ACD3FFAE41695F57BBEBA670C0693CF239E0AC4829C5F28C30D6
310
9428FF06504B0304140006080800228090466FFFBC24F2000000B1010000310000006662782F37323236314330452D353737432D344541302D384643342D3835453535354238363635342F636F72652E786D6C8D504D6F842014FC2BE6DD51B0A266836C5A637F414FBD11645DB22B183E9AFEFCC26A93F6B6A747E6CD30F3
310
869DBFD77BF1A59CD7D60C404A0C8532D2CEDA2C03C470413D1467CE9CB5E10F0D0A235635408681B3C5D9B81D90B42628935163677580C27B15A090F7F418C0CBAB5A452962480C7F2B37216F62512529771E6741AFBF52E994086A065E6342116E10693F487BC2E4849B4F5665266731EAF9B0D27372D717AD1CF0AEAE5B
310
32E209D1AE1B5133BD62D4BF8F0DEAE944297DEBDB9636ACCA62CE7C70E9E6E3937CDDB3F25DF82F73DCE627326B135EEAC3705778E024E5792C38AB7281693CDA4D3397CD7F00504B030414000608080022809046D835137E54010000DD0200000C0000006662782F636F72652E786D6C8D52DB8E832014FC15C33B2AD6DA
310
4B90A66EB35FB04FFB46115D52058360FAF90B5EE2FAB0DD8D099239E7CC9C99802FCFB60906AE7BA1640E501883804BA64A21EB1C5853C123082E046BA5CC8F361048DAF21C7818105C6B65BB19624A1A2E3D2A55C96790F63D3720608DBBE4A0675FBCA521B5C675F48FB0A3EC416B1EA270EA23D85A51CEA3A2746CA212
310
5C03B23BDC8E68975C61519C32985E8B185E0F6F7B88D2D37B9615093ADE521CF961828D681775A63935BC042489D11EC62944D907CACE313AC7E9278E7C27C1BDD1CEF32CEADD0152DD9F389AF00D9FEDCABFF9AC906697CC7CD3440F0872EB8D0582239F8FFB8DE16D3374C22E3F43EFCD62E1E1A08133A374EA2AA5B26B
310
69A08DE58E3A0EC60F4753D5318F04BFF1242F785E73B8A0A8ACDD6AD4B8EBDD1AAFBEDDA9E31A0EE61948A55BDAACCB4D2BAEE72AB4B1B48C33D528FD9FE9C5EA1266E41F26F906504B0304140006080800228090466DDAF30208010000B201000008000000636F72652E786D6C8D50CB6EC32010FC15B4776CB01DE7214C
310
6437EA17F4D41B35C441B1C1021CB57F5F885DA9BDF5B4686676671876FE9C46F450CE6B6B1AA01901A44C6FA53643034BB8E203A03367CEDAF04B06C88849359060E06C70769937A8B72628935063A5DA40E1BD0A80FA313E1AF0FD4D4D22134B880A7FCF66D1DFC5A0329AAD3ACE829E7E567BA74450127841E80E930AD3
310
FA8DD627424FA47A67795272B62C5A6E565A46777DD5CA012FF797032D8B1677DDB1C655DB11DCEE5F769856C7D7BAEE0A7AB8542C4FCB9CF9E0E29FB7233167405E3C922FCB578AB30F6BC74D10434964CDF8059CB03C117F422FB3FC47686D42596C07D70D0F9CC6404F221AA706E378D61B676A9B7F03504B0102140014
310
0006080800228090460000000000000000000000003700000000000000000000000000000000006662782F37323236314330452D353737432D344541302D384643342D3835453535354238363635342F617474726962757465732E62696E504B01021400140006080800228090460000000000000000000000003500000000
310
000000000000000000550000006662782F37323236314330452D353737432D344541302D384643342D3835453535354238363635342F76657274696365732E62696E504B0102140014000608080022809046F270F13306000000040000003600000000000000000000000000A80000006662782F37323236314330452D3537
310
37432D344541302D384643342D3835453535354238363635342F747269616E676C65732E62696E504B010214001400060808002280904651464CB489000000430100003600000000000000000000000000020100006662782F37323236314330452D353737432D344541302D384643342D3835453535354238363635342F64
310
69726563746F72792E786D6C504B0102140014000608080022809046E593B2D63E070000201C00003400000000000000000000000000DF0100006662782F37323236314330452D353737432D344541302D384643342D3835453535354238363635342F6F626A656374732E786D6C504B0102140014000608080022809046D3
310
1391823E0100004605000030000000000000000000000000006F0900006662782F37323236314330452D353737432D344541302D384643342D3835453535354238363635342F636E782E786D6C504B01021400140006080800228090460DCB0C737E000000A30000000B00000000000000000000000000FB0A00006662782F
310
636E782E786D6C504B0102140014000608080022809046A6D797065F000000820000000700000000000000000000000000A20B0000636E782E786D6C504B01021400140006080800228090464FEB6A7CA0000000F40000001300000000000000000000000000260C00005B436F6E74656E745F54797065735D2E786D6C504B
310
01021400140006080800228090463DEE336E64000000790000001B00000000000000000000000000F70C00006175746F6465736B2D64657369676E2D7061636B6167652E786D6C504B01021400140006080800228090467E726C0CF9000000960100003B00000000000000000000000000940D00006662782F373232363143
310
30452D353737432D344541302D384643342D3835453535354238363635342F7265736F75726365732F636F72652E786D6C504B01021400140006080800228090466FFFBC24F2000000B10100003100000000000000000000000000E60E00006662782F37323236314330452D353737432D344541302D384643342D38354535
310
35354238363635342F636F72652E786D6C504B0102140014000608080022809046D835137E54010000DD0200000C00000000000000000000000000271000006662782F636F72652E786D6C504B01021400140006080800228090466DDAF30208010000B20100000800000000000000000000000000A5110000636F72652E78
310
6D6C504B0506000000000E000E0080040000D31200000000
  0
XRECORD
  5
E4A
102
{ACAD_REACTORS
330
E45
102
}
330
E45
100
AcDbXrecord
280
     1
270
     1
271
     1
  0
XRECORD
  5
E49
102
{ACAD_REACTORS
330
E45
102
}
330
E45
100
AcDbXrecord
280
     1
270
     1
271
     1
  0
XRECORD
  5
E4B
102
{ACAD_REACTORS
330
E45
102
}
330
E45
100
AcDbXrecord
280
     1
270
     1
271
     1
  0
XRECORD
  5
E48
102
{ACAD_REACTORS
330
E45
102
}
330
E45
100
AcDbXrecord
280
     1
270
     1
271
     1
  0
XRECORD
  5
1002
102
{ACAD_REACTORS
330
1001
102
}
330
1001
100
AcDbXrecord
280
     1
102
ACAD_ROUNDTRIP_2012_MLEADER_STYLE
298
     1
  0
XRECORD
  5
1003
102
{ACAD_REACTORS
330
FAC
102
}
330
FAC
100
AcDbXrecord
280
     1
102
DISPLAYNAME
  1
Imperial24
102
FLAGS
 90
        0
  0
CELLSTYLEMAP
  5
FBD
102
{ACAD_REACTORS
330
FAA
102
}
330
FAA
100
AcDbCellStyleMap
 90
        3
300
CELLSTYLE
  1
TABLEFORMAT_BEGIN
 90
        5
170
     1
 91
        0
 92
    32768
 62
   257
 93
        1
300
CONTENTFORMAT
  1
CONTENTFORMAT_BEGIN
 90
        0
 91
        0
 92
      512
 93
        0
300

 40
0.0
140
1.0
 94
        5
 62
     0
340
F
144
0.25
309
CONTENTFORMAT_END
171
     1
301
MARGIN
  1
CELLMARGIN_BEGIN
 40
0.06
 40
0.06
 40
0.06
 40
0.06
 40
0.18
 40
0.18
309
CELLMARGIN_END
 94
        6
 95
        1
302
GRIDFORMAT
  1
GRIDFORMAT_BEGIN
 90
        0
 91
        1
 62
     0
 92
       -2
340
0
 93
        0
 40
0.045
309
GRIDFORMAT_END
 95
        2
302
GRIDFORMAT
  1
GRIDFORMAT_BEGIN
 90
        0
 91
        1
 62
     0
 92
       -2
340
0
 93
        0
 40
0.045
309
GRIDFORMAT_END
 95
        4
302
GRIDFORMAT
  1
GRIDFORMAT_BEGIN
 90
        0
 91
        1
 62
     0
 92
       -2
340
0
 93
        0
 40
0.045
309
GRIDFORMAT_END
 95
        8
302
GRIDFORMAT
  1
GRIDFORMAT_BEGIN
 90
        0
 91
        1
 62
     0
 92
       -2
340
0
 93
        0
 40
0.045
309
GRIDFORMAT_END
 95
       16
302
GRIDFORMAT
  1
GRIDFORMAT_BEGIN
 90
        0
 91
        1
 62
     0
 92
       -2
340
0
 93
        0
 40
0.045
309
GRIDFORMAT_END
 95
       32
302
GRIDFORMAT
  1
GRIDFORMAT_BEGIN
 90
        0
 91
        1
 62
     0
 92
       -2
340
0
 93
        0
 40
0.045
309
GRIDFORMAT_END
309
TABLEFORMAT_END
  1
CELLSTYLE_BEGIN
 90
        1
 91
        1
300
_TITLE
309
CELLSTYLE_END
300
CELLSTYLE
  1
TABLEFORMAT_BEGIN
 90
        5
170
     1
 91
        0
 92
        0
 62
   257
 93
        1
300
CONTENTFORMAT
  1
CONTENTFORMAT_BEGIN
 90
        0
 91
        0
 92
      512
 93
        0
300

 40
0.0
140
1.0
 94
        5
 62
     0
340
F
144
0.18
309
CONTENTFORMAT_END
171
     1
301
MARGIN
  1
CELLMARGIN_BEGIN
 40
0.06
 40
0.06
 40
0.06
 40
0.06
 40
0.18
 40
0.18
309
CELLMARGIN_END
 94
        6
 95
        1
302
GRIDFORMAT
  1
GRIDFORMAT_BEGIN
 90
        0
 91
        1
 62
     0
 92
       -2
340
0
 93
        0
 40
0.045
309
GRIDFORMAT_END
 95
        2
302
GRIDFORMAT
  1
GRIDFORMAT_BEGIN
 90
        0
 91
        1
 62
     0
 92
       -2
340
0
 93
        0
 40
0.045
309
GRIDFORMAT_END
 95
        4
302
GRIDFORMAT
  1
GRIDFORMAT_BEGIN
 90
        0
 91
        1
 62
     0
 92
       -2
340
0
 93
        0
 40
0.045
309
GRIDFORMAT_END
 95
        8
302
GRIDFORMAT
  1
GRIDFORMAT_BEGIN
 90
        0
 91
        1
 62
     0
 92
       -2
340
0
 93
        0
 40
0.045
309
GRIDFORMAT_END
 95
       16
302
GRIDFORMAT
  1
GRIDFORMAT_BEGIN
 90
        0
 91
        1
 62
     0
 92
       -2
340
0
 93
        0
 40
0.045
309
GRIDFORMAT_END
 95
       32
302
GRIDFORMAT
  1
GRIDFORMAT_BEGIN
 90
        0
 91
        1
 62
     0
 92
       -2
340
0
 93
        0
 40
0.045
309
GRIDFORMAT_END
309
TABLEFORMAT_END
  1
CELLSTYLE_BEGIN
 90
        2
 91
        1
300
_HEADER
309
CELLSTYLE_END
300
CELLSTYLE
  1
TABLEFORMAT_BEGIN
 90
        5
170
     1
 91
        0
 92
        0
 62
   257
 93
        1
300
CONTENTFORMAT
  1
CONTENTFORMAT_BEGIN
 90
        0
 91
        0
 92
      512
 93
        0
300

 40
0.0
140
1.0
 94
        2
 62
     0
340
F
144
0.18
309
CONTENTFORMAT_END
171
     1
301
MARGIN
  1
CELLMARGIN_BEGIN
 40
0.06
 40
0.06
 40
0.06
 40
0.06
 40
0.18
 40
0.18
309
CELLMARGIN_END
 94
        6
 95
        1
302
GRIDFORMAT
  1
GRIDFORMAT_BEGIN
 90
        0
 91
        1
 62
     0
 92
       -2
340
0
 93
        0
 40
0.045
309
GRIDFORMAT_END
 95
        2
302
GRIDFORMAT
  1
GRIDFORMAT_BEGIN
 90
        0
 91
        1
 62
     0
 92
       -2
340
0
 93
        0
 40
0.045
309
GRIDFORMAT_END
 95
        4
302
GRIDFORMAT
  1
GRIDFORMAT_BEGIN
 90
        0
 91
        1
 62
     0
 92
       -2
340
0
 93
        0
 40
0.045
309
GRIDFORMAT_END
 95
        8
302
GRIDFORMAT
  1
GRIDFORMAT_BEGIN
 90
        0
 91
        1
 62
     0
 92
       -2
340
0
 93
        0
 40
0.045
309
GRIDFORMAT_END
 95
       16
302
GRIDFORMAT
  1
GRIDFORMAT_BEGIN
 90
        0
 91
        1
 62
     0
 92
       -2
340
0
 93
        0
 40
0.045
309
GRIDFORMAT_END
 95
       32
302
GRIDFORMAT
  1
GRIDFORMAT_BEGIN
 90
        0
 91
        1
 62
     0
 92
       -2
340
0
 93
        0
 40
0.045
309
GRIDFORMAT_END
309
TABLEFORMAT_END
  1
CELLSTYLE_BEGIN
 90
        3
 91
        2
300
_DATA
309
CELLSTYLE_END
  0
XRECORD
  5
FFF
102
{ACAD_REACTORS
330
FAA
102
}
330
FAA
100
AcDbXrecord
280
     1
102
ACAD_ROUNDTRIP_PRE2007_TABLESTYLE
 90
      512
 91
        0
  1

 92
      512
 93
        0
  2

 94
      512
 95
        0
  3

  0
XRECORD
  5
FDA
102
{ACAD_REACTORS
330
FD9
102
}
330
FD9
100
AcDbXrecord
280
     1
102
RTVSPost2010Prop28
280
     1
102
RTVSPost2010PropOp28
 70
     1
102
RTVSPost2010Prop29
280
     1
102
RTVSPost2010PropOp29
 70
     1
102
RTVSPost2010Prop30
280
     0
102
RTVSPost2010PropOp30
 70
     1
102
RTVSPost2010Prop31
280
     0
102
RTVSPost2010PropOp31
 70
     1
102
RTVSPost2010Prop32
280
     0
102
RTVSPost2010PropOp32
 70
     1
102
RTVSPost2010Prop33
280
     0
102
RTVSPost2010PropOp33
 70
     1
102
RTVSPost2010Prop34
280
     0
102
RTVSPost2010PropOp34
 70
     1
102
RTVSPost2010Prop35
280
     0
102
RTVSPost2010PropOp35
 70
     1
102
RTVSPost2010Prop36
280
     0
102
RTVSPost2010PropOp36
 70
     1
102
RTVSPost2010Prop37
 90
       50
102
RTVSPost2010PropOp37
 70
     1
102
RTVSPost2010Prop38
140
0.0
102
RTVSPost2010PropOp38
 70
     1
102
RTVSPost2010Prop39
140
1.0
102
RTVSPost2010PropOp39
 70
     1
102
RTVSPost2010Prop40
 90
        0
102
RTVSPost2010PropOp40
 70
     1
102
RTVSPost2010Prop41ColorIndex
 90
       18
102
RTVSPost2010Prop41ColorRGB
 90
-16777216
102
RTVSPost2010PropOp41
 70
     1
102
RTVSPost2010Prop42
 90
       50
102
RTVSPost2010PropOp42
 70
     1
102
RTVSPost2010Prop43
 90
        3
102
RTVSPost2010PropOp43
 70
     1
102
RTVSPost2010Prop44ColorIndex
 90
        5
102
RTVSPost2010Prop44ColorRGB
 90
      255
102
RTVSPost2010PropOp44
 70
     1
102
RTVSPost2010Prop45
280
     0
102
RTVSPost2010PropOp45
 70
     1
102
RTVSPost2010Prop46
 90
       50
102
RTVSPost2010PropOp46
 70
     1
102
RTVSPost2010Prop47
 90
       50
102
RTVSPost2010PropOp47
 70
     1
102
RTVSPost2010Prop48
 90
       50
102
RTVSPost2010PropOp48
 70
     1
102
RTVSPost2010Prop49
280
     0
102
RTVSPost2010PropOp49
 70
     1
102
RTVSPost2010Prop50
 90
       50
102
RTVSPost2010PropOp50
 70
     1
102
RTVSPost2010Prop51ColorIndex
 90
      256
102
RTVSPost2010Prop51ColorRGB
 90
-16777216
102
RTVSPost2010PropOp51
 70
     0
102
RTVSPost2010Prop52
140
1.0
102
RTVSPost2010PropOp52
 70
     0
102
RTVSPost2010Prop53
 90
        2
102
RTVSPost2010PropOp53
 70
     1
102
RTVSPost2010Prop54
  1
strokes_ogs.tif
102
RTVSPost2010PropOp54
 70
     1
102
RTVSPost2010Prop55
280
     0
102
RTVSPost2010PropOp55
 70
     1
102
RTVSPost2010Prop56
140
1.0
102
RTVSPost2010PropOp56
 70
     1
102
RTVSPost2010Prop57
140
1.0
102
RTVSPost2010PropOp57
 70
     1
102
RTVSPropertyOp0
 70
     1
102
RTVSPropertyOp1
 70
     1
102
RTVSPropertyOp2
 70
     1
102
RTVSPropertyOp3
 70
     1
102
RTVSPropertyOp4
 70
     1
102
RTVSPropertyOp5
 70
     1
102
RTVSPropertyOp6
 70
     1
102
RTVSPropertyOp7
 70
     1
102
RTVSPropertyOp8
 70
     1
102
RTVSPropertyOp9
 70
     1
102
RTVSPropertyOp10
 70
     1
102
RTVSPropertyOp11
 70
     1
102
RTVSPropertyOp12
 70
     1
102
RTVSPropertyOp13
 70
     1
102
RTVSPropertyOp14
 70
     1
102
RTVSPropertyOp15
 70
     1
102
RTVSPropertyOp16
 70
     1
102
RTVSPropertyOp17
 70
     1
102
RTVSPropertyOp18
 70
     1
102
RTVSPropertyOp19
 70
     1
102
RTVSPropertyOp20
 70
     1
102
RTVSPropertyOp21
 70
     1
102
RTVSPropertyOp22
 70
     1
102
RTVSPropertyOp23
 70
     1
102
RTVSPropertyOp24
 70
     1
102
RTVSPropertyOp25
 70
     1
102
RTVSPropertyOp26
 70
     1
102
RTVSPropertyOp27
 70
     1
102
RTVSPropertyOp28
 70
     1
102
RTVSPropertyOp29
 70
     1
102
RTVSPropertyOp30
 70
     1
102
RTVSPropertyOp31
 70
     1
102
RTVSPropertyOp32
 70
     1
102
RTVSPropertyOp33
 70
     1
102
RTVSPropertyOp34
 70
     1
102
RTVSPropertyOp35
 70
     1
102
RTVSPropertyOp36
 70
     1
102
RTVSPropertyOp37
 70
     1
102
RTVSPropertyOp38
 70
     1
102
RTVSPropertyOp39
 70
     1
102
RTVSPropertyOp40
 70
     1
102
RTVSPropertyOp41
 70
     1
102
RTVSPropertyOp42
 70
     1
102
RTVSPropertyOp43
 70
     1
102
RTVSPropertyOp44
 70
     1
102
RTVSPropertyOp45
 70
     1
102
RTVSPropertyOp46
 70
     1
102
RTVSPropertyOp47
 70
     1
102
RTVSPropertyOp48
 70
     1
102
RTVSPropertyOp49
 70
     1
102
RTVSPropertyOp50
 70
     1
102
RTVSPropertyOp51
 70
     0
102
RTVSPropertyOp52
 70
     0
102
RTVSPropertyOp53
 70
     1
102
RTVSPropertyOp54
 70
     1
102
RTVSPropertyOp55
 70
     1
102
RTVSPropertyOp56
 70
     1
102
RTVSPropertyOp57
 70
     1
102
RTVSPropertyOp58
 70
     1
102
RTVSPropertyOp59
 70
     1
102
RTVSPropertyOp60
 70
     1
102
RTVSPropertyOp61
 70
     1
102
RTVSPropertyOp62
 70
     1
  0
XRECORD
  5
FD8
102
{ACAD_REACTORS
330
FD7
102
}
330
FD7
100
AcDbXrecord
280
     1
102
RTVSPost2010Prop28
280
     0
102
RTVSPost2010PropOp28
 70
     1
102
RTVSPost2010Prop29
280
     1
102
RTVSPost2010PropOp29
 70
     1
102
RTVSPost2010Prop30
280
     1
102
RTVSPost2010PropOp30
 70
     1
102
RTVSPost2010Prop31
280
     0
102
RTVSPost2010PropOp31
 70
     1
102
RTVSPost2010Prop32
280
     0
102
RTVSPost2010PropOp32
 70
     1
102
RTVSPost2010Prop33
280
     0
102
RTVSPost2010PropOp33
 70
     1
102
RTVSPost2010Prop34
280
     0
102
RTVSPost2010PropOp34
 70
     1
102
RTVSPost2010Prop35
280
     0
102
RTVSPost2010PropOp35
 70
     1
102
RTVSPost2010Prop36
280
     0
102
RTVSPost2010PropOp36
 70
     1
102
RTVSPost2010Prop37
 90
       50
102
RTVSPost2010PropOp37
 70
     1
102
RTVSPost2010Prop38
140
0.0
102
RTVSPost2010PropOp38
 70
     1
102
RTVSPost2010Prop39
140
1.0
102
RTVSPost2010PropOp39
 70
     1
102
RTVSPost2010Prop40
 90
        0
102
RTVSPost2010PropOp40
 70
     1
102
RTVSPost2010Prop41ColorIndex
 90
       18
102
RTVSPost2010Prop41ColorRGB
 90
-16777216
102
RTVSPost2010PropOp41
 70
     1
102
RTVSPost2010Prop42
 90
       50
102
RTVSPost2010PropOp42
 70
     1
102
RTVSPost2010Prop43
 90
        3
102
RTVSPost2010PropOp43
 70
     1
102
RTVSPost2010Prop44ColorIndex
 90
        5
102
RTVSPost2010Prop44ColorRGB
 90
      255
102
RTVSPost2010PropOp44
 70
     1
102
RTVSPost2010Prop45
280
     0
102
RTVSPost2010PropOp45
 70
     1
102
RTVSPost2010Prop46
 90
       50
102
RTVSPost2010PropOp46
 70
     1
102
RTVSPost2010Prop47
 90
       50
102
RTVSPost2010PropOp47
 70
     1
102
RTVSPost2010Prop48
 90
       50
102
RTVSPost2010PropOp48
 70
     1
102
RTVSPost2010Prop49
280
     0
102
RTVSPost2010PropOp49
 70
     1
102
RTVSPost2010Prop50
 90
       50
102
RTVSPost2010PropOp50
 70
     1
102
RTVSPost2010Prop51ColorIndex
 90
      256
102
RTVSPost2010Prop51ColorRGB
 90
-16777216
102
RTVSPost2010PropOp51
 70
     0
102
RTVSPost2010Prop52
140
1.0
102
RTVSPost2010PropOp52
 70
     0
102
RTVSPost2010Prop53
 90
        2
102
RTVSPost2010PropOp53
 70
     1
102
RTVSPost2010Prop54
  1
strokes_ogs.tif
102
RTVSPost2010PropOp54
 70
     1
102
RTVSPost2010Prop55
280
     0
102
RTVSPost2010PropOp55
 70
     1
102
RTVSPost2010Prop56
140
1.0
102
RTVSPost2010PropOp56
 70
     1
102
RTVSPost2010Prop57
140
1.0
102
RTVSPost2010PropOp57
 70
     1
102
RTVSPropertyOp0
 70
     1
102
RTVSPropertyOp1
 70
     1
102
RTVSPropertyOp2
 70
     1
102
RTVSPropertyOp3
 70
     1
102
RTVSPropertyOp4
 70
     1
102
RTVSPropertyOp5
 70
     1
102
RTVSPropertyOp6
 70
     1
102
RTVSPropertyOp7
 70
     1
102
RTVSPropertyOp8
 70
     1
102
RTVSPropertyOp9
 70
     1
102
RTVSPropertyOp10
 70
     1
102
RTVSPropertyOp11
 70
     1
102
RTVSPropertyOp12
 70
     1
102
RTVSPropertyOp13
 70
     1
102
RTVSPropertyOp14
 70
     1
102
RTVSPropertyOp15
 70
     1
102
RTVSPropertyOp16
 70
     1
102
RTVSPropertyOp17
 70
     1
102
RTVSPropertyOp18
 70
     1
102
RTVSPropertyOp19
 70
     1
102
RTVSPropertyOp20
 70
     1
102
RTVSPropertyOp21
 70
     1
102
RTVSPropertyOp22
 70
     1
102
RTVSPropertyOp23
 70
     1
102
RTVSPropertyOp24
 70
     1
102
RTVSPropertyOp25
 70
     1
102
RTVSPropertyOp26
 70
     1
102
RTVSPropertyOp27
 70
     1
102
RTVSPropertyOp28
 70
     1
102
RTVSPropertyOp29
 70
     1
102
RTVSPropertyOp30
 70
     1
102
RTVSPropertyOp31
 70
     1
102
RTVSPropertyOp32
 70
     1
102
RTVSPropertyOp33
 70
     1
102
RTVSPropertyOp34
 70
     1
102
RTVSPropertyOp35
 70
     1
102
RTVSPropertyOp36
 70
     1
102
RTVSPropertyOp37
 70
     1
102
RTVSPropertyOp38
 70
     1
102
RTVSPropertyOp39
 70
     1
102
RTVSPropertyOp40
 70
     1
102
RTVSPropertyOp41
 70
     1
102
RTVSPropertyOp42
 70
     1
102
RTVSPropertyOp43
 70
     1
102
RTVSPropertyOp44
 70
     1
102
RTVSPropertyOp45
 70
     1
102
RTVSPropertyOp46
 70
     1
102
RTVSPropertyOp47
 70
     1
102
RTVSPropertyOp48
 70
     1
102
RTVSPropertyOp49
 70
     1
102
RTVSPropertyOp50
 70
     1
102
RTVSPropertyOp51
 70
     0
102
RTVSPropertyOp52
 70
     0
102
RTVSPropertyOp53
 70
     1
102
RTVSPropertyOp54
 70
     1
102
RTVSPropertyOp55
 70
     1
102
RTVSPropertyOp56
 70
     1
102
RTVSPropertyOp57
 70
     1
102
RTVSPropertyOp58
 70
     1
102
RTVSPropertyOp59
 70
     1
102
RTVSPropertyOp60
 70
     1
102
RTVSPropertyOp61
 70
     1
102
RTVSPropertyOp62
 70
     1
  0
XRECORD
  5
FE6
102
{ACAD_REACTORS
330
FE5
102
}
330
FE5
100
AcDbXrecord
280
     1
102
RTVSPost2010Prop28
280
     0
102
RTVSPost2010PropOp28
 70
     1
102
RTVSPost2010Prop29
280
     1
102
RTVSPost2010PropOp29
 70
     1
102
RTVSPost2010Prop30
280
     1
102
RTVSPost2010PropOp30
 70
     1
102
RTVSPost2010Prop31
280
     0
102
RTVSPost2010PropOp31
 70
     1
102
RTVSPost2010Prop32
280
     0
102
RTVSPost2010PropOp32
 70
     1
102
RTVSPost2010Prop33
280
     0
102
RTVSPost2010PropOp33
 70
     1
102
RTVSPost2010Prop34
280
     0
102
RTVSPost2010PropOp34
 70
     1
102
RTVSPost2010Prop35
280
     0
102
RTVSPost2010PropOp35
 70
     1
102
RTVSPost2010Prop36
280
     0
102
RTVSPost2010PropOp36
 70
     1
102
RTVSPost2010Prop37
 90
       50
102
RTVSPost2010PropOp37
 70
     1
102
RTVSPost2010Prop38
140
0.0
102
RTVSPost2010PropOp38
 70
     1
102
RTVSPost2010Prop39
140
1.0
102
RTVSPost2010PropOp39
 70
     1
102
RTVSPost2010Prop40
 90
        0
102
RTVSPost2010PropOp40
 70
     1
102
RTVSPost2010Prop41ColorIndex
 90
       18
102
RTVSPost2010Prop41ColorRGB
 90
-16777216
102
RTVSPost2010PropOp41
 70
     1
102
RTVSPost2010Prop42
 90
       50
102
RTVSPost2010PropOp42
 70
     1
102
RTVSPost2010Prop43
 90
        3
102
RTVSPost2010PropOp43
 70
     1
102
RTVSPost2010Prop44ColorIndex
 90
        5
102
RTVSPost2010Prop44ColorRGB
 90
      255
102
RTVSPost2010PropOp44
 70
     1
102
RTVSPost2010Prop45
280
     0
102
RTVSPost2010PropOp45
 70
     1
102
RTVSPost2010Prop46
 90
       50
102
RTVSPost2010PropOp46
 70
     1
102
RTVSPost2010Prop47
 90
       50
102
RTVSPost2010PropOp47
 70
     1
102
RTVSPost2010Prop48
 90
       50
102
RTVSPost2010PropOp48
 70
     1
102
RTVSPost2010Prop49
280
     0
102
RTVSPost2010PropOp49
 70
     1
102
RTVSPost2010Prop50
 90
       50
102
RTVSPost2010PropOp50
 70
     1
102
RTVSPost2010Prop51ColorIndex
 90
      256
102
RTVSPost2010Prop51ColorRGB
 90
-16777216
102
RTVSPost2010PropOp51
 70
     0
102
RTVSPost2010Prop52
140
1.0
102
RTVSPost2010PropOp52
 70
     0
102
RTVSPost2010Prop53
 90
        2
102
RTVSPost2010PropOp53
 70
     1
102
RTVSPost2010Prop54
  1
strokes_ogs.tif
102
RTVSPost2010PropOp54
 70
     1
102
RTVSPost2010Prop55
280
     0
102
RTVSPost2010PropOp55
 70
     1
102
RTVSPost2010Prop56
140
1.0
102
RTVSPost2010PropOp56
 70
     1
102
RTVSPost2010Prop57
140
1.0
102
RTVSPost2010PropOp57
 70
     1
102
RTVSPropertyOp0
 70
     1
102
RTVSPropertyOp1
 70
     1
102
RTVSPropertyOp2
 70
     1
102
RTVSPropertyOp3
 70
     1
102
RTVSPropertyOp4
 70
     1
102
RTVSPropertyOp5
 70
     1
102
RTVSPropertyOp6
 70
     1
102
RTVSPropertyOp7
 70
     1
102
RTVSPropertyOp8
 70
     1
102
RTVSPropertyOp9
 70
     1
102
RTVSPropertyOp10
 70
     1
102
RTVSPropertyOp11
 70
     1
102
RTVSPropertyOp12
 70
     1
102
RTVSPropertyOp13
 70
     1
102
RTVSPropertyOp14
 70
     1
102
RTVSPropertyOp15
 70
     1
102
RTVSPropertyOp16
 70
     1
102
RTVSPropertyOp17
 70
     1
102
RTVSPropertyOp18
 70
     1
102
RTVSPropertyOp19
 70
     1
102
RTVSPropertyOp20
 70
     1
102
RTVSPropertyOp21
 70
     1
102
RTVSPropertyOp22
 70
     1
102
RTVSPropertyOp23
 70
     1
102
RTVSPropertyOp24
 70
     1
102
RTVSPropertyOp25
 70
     1
102
RTVSPropertyOp26
 70
     1
102
RTVSPropertyOp27
 70
     1
102
RTVSPropertyOp28
 70
     1
102
RTVSPropertyOp29
 70
     1
102
RTVSPropertyOp30
 70
     1
102
RTVSPropertyOp31
 70
     1
102
RTVSPropertyOp32
 70
     1
102
RTVSPropertyOp33
 70
     1
102
RTVSPropertyOp34
 70
     1
102
RTVSPropertyOp35
 70
     1
102
RTVSPropertyOp36
 70
     1
102
RTVSPropertyOp37
 70
     1
102
RTVSPropertyOp38
 70
     1
102
RTVSPropertyOp39
 70
     1
102
RTVSPropertyOp40
 70
     1
102
RTVSPropertyOp41
 70
     1
102
RTVSPropertyOp42
 70
     1
102
RTVSPropertyOp43
 70
     1
102
RTVSPropertyOp44
 70
     1
102
RTVSPropertyOp45
 70
     1
102
RTVSPropertyOp46
 70
     1
102
RTVSPropertyOp47
 70
     1
102
RTVSPropertyOp48
 70
     1
102
RTVSPropertyOp49
 70
     1
102
RTVSPropertyOp50
 70
     1
102
RTVSPropertyOp51
 70
     0
102
RTVSPropertyOp52
 70
     0
102
RTVSPropertyOp53
 70
     1
102
RTVSPropertyOp54
 70
     1
102
RTVSPropertyOp55
 70
     1
102
RTVSPropertyOp56
 70
     1
102
RTVSPropertyOp57
 70
     1
102
RTVSPropertyOp58
 70
     1
102
RTVSPropertyOp59
 70
     1
102
RTVSPropertyOp60
 70
     1
102
RTVSPropertyOp61
 70
     1
102
RTVSPropertyOp62
 70
     1
  0
XRECORD
  5
FEE
102
{ACAD_REACTORS
330
FED
102
}
330
FED
100
AcDbXrecord
280
     1
102
RTVSPost2010Prop28
280
     0
102
RTVSPost2010PropOp28
 70
     1
102
RTVSPost2010Prop29
280
     1
102
RTVSPost2010PropOp29
 70
     1
102
RTVSPost2010Prop30
280
     1
102
RTVSPost2010PropOp30
 70
     1
102
RTVSPost2010Prop31
280
     0
102
RTVSPost2010PropOp31
 70
     1
102
RTVSPost2010Prop32
280
     0
102
RTVSPost2010PropOp32
 70
     1
102
RTVSPost2010Prop33
280
     0
102
RTVSPost2010PropOp33
 70
     1
102
RTVSPost2010Prop34
280
     0
102
RTVSPost2010PropOp34
 70
     1
102
RTVSPost2010Prop35
280
     0
102
RTVSPost2010PropOp35
 70
     1
102
RTVSPost2010Prop36
280
     0
102
RTVSPost2010PropOp36
 70
     1
102
RTVSPost2010Prop37
 90
       50
102
RTVSPost2010PropOp37
 70
     1
102
RTVSPost2010Prop38
140
0.0
102
RTVSPost2010PropOp38
 70
     1
102
RTVSPost2010Prop39
140
1.0
102
RTVSPost2010PropOp39
 70
     1
102
RTVSPost2010Prop40
 90
        0
102
RTVSPost2010PropOp40
 70
     1
102
RTVSPost2010Prop41ColorIndex
 90
       18
102
RTVSPost2010Prop41ColorRGB
 90
-16777216
102
RTVSPost2010PropOp41
 70
     1
102
RTVSPost2010Prop42
 90
       50
102
RTVSPost2010PropOp42
 70
     1
102
RTVSPost2010Prop43
 90
        3
102
RTVSPost2010PropOp43
 70
     1
102
RTVSPost2010Prop44ColorIndex
 90
        5
102
RTVSPost2010Prop44ColorRGB
 90
      255
102
RTVSPost2010PropOp44
 70
     1
102
RTVSPost2010Prop45
280
     0
102
RTVSPost2010PropOp45
 70
     1
102
RTVSPost2010Prop46
 90
       50
102
RTVSPost2010PropOp46
 70
     1
102
RTVSPost2010Prop47
 90
       50
102
RTVSPost2010PropOp47
 70
     1
102
RTVSPost2010Prop48
 90
       50
102
RTVSPost2010PropOp48
 70
     1
102
RTVSPost2010Prop49
280
     0
102
RTVSPost2010PropOp49
 70
     1
102
RTVSPost2010Prop50
 90
       50
102
RTVSPost2010PropOp50
 70
     1
102
RTVSPost2010Prop51ColorIndex
 90
      256
102
RTVSPost2010Prop51ColorRGB
 90
-16777216
102
RTVSPost2010PropOp51
 70
     0
102
RTVSPost2010Prop52
140
1.0
102
RTVSPost2010PropOp52
 70
     0
102
RTVSPost2010Prop53
 90
        2
102
RTVSPost2010PropOp53
 70
     1
102
RTVSPost2010Prop54
  1
strokes_ogs.tif
102
RTVSPost2010PropOp54
 70
     1
102
RTVSPost2010Prop55
280
     0
102
RTVSPost2010PropOp55
 70
     1
102
RTVSPost2010Prop56
140
1.0
102
RTVSPost2010PropOp56
 70
     1
102
RTVSPost2010Prop57
140
1.0
102
RTVSPost2010PropOp57
 70
     1
102
RTVSPropertyOp0
 70
     1
102
RTVSPropertyOp1
 70
     1
102
RTVSPropertyOp2
 70
     1
102
RTVSPropertyOp3
 70
     1
102
RTVSPropertyOp4
 70
     1
102
RTVSPropertyOp5
 70
     1
102
RTVSPropertyOp6
 70
     1
102
RTVSPropertyOp7
 70
     1
102
RTVSPropertyOp8
 70
     1
102
RTVSPropertyOp9
 70
     1
102
RTVSPropertyOp10
 70
     1
102
RTVSPropertyOp11
 70
     1
102
RTVSPropertyOp12
 70
     1
102
RTVSPropertyOp13
 70
     1
102
RTVSPropertyOp14
 70
     1
102
RTVSPropertyOp15
 70
     1
102
RTVSPropertyOp16
 70
     1
102
RTVSPropertyOp17
 70
     1
102
RTVSPropertyOp18
 70
     1
102
RTVSPropertyOp19
 70
     1
102
RTVSPropertyOp20
 70
     1
102
RTVSPropertyOp21
 70
     1
102
RTVSPropertyOp22
 70
     1
102
RTVSPropertyOp23
 70
     1
102
RTVSPropertyOp24
 70
     1
102
RTVSPropertyOp25
 70
     1
102
RTVSPropertyOp26
 70
     1
102
RTVSPropertyOp27
 70
     1
102
RTVSPropertyOp28
 70
     1
102
RTVSPropertyOp29
 70
     1
102
RTVSPropertyOp30
 70
     1
102
RTVSPropertyOp31
 70
     1
102
RTVSPropertyOp32
 70
     1
102
RTVSPropertyOp33
 70
     1
102
RTVSPropertyOp34
 70
     1
102
RTVSPropertyOp35
 70
     1
102
RTVSPropertyOp36
 70
     1
102
RTVSPropertyOp37
 70
     1
102
RTVSPropertyOp38
 70
     1
102
RTVSPropertyOp39
 70
     1
102
RTVSPropertyOp40
 70
     1
102
RTVSPropertyOp41
 70
     1
102
RTVSPropertyOp42
 70
     1
102
RTVSPropertyOp43
 70
     1
102
RTVSPropertyOp44
 70
     1
102
RTVSPropertyOp45
 70
     1
102
RTVSPropertyOp46
 70
     1
102
RTVSPropertyOp47
 70
     1
102
RTVSPropertyOp48
 70
     1
102
RTVSPropertyOp49
 70
     1
102
RTVSPropertyOp50
 70
     1
102
RTVSPropertyOp51
 70
     0
102
RTVSPropertyOp52
 70
     0
102
RTVSPropertyOp53
 70
     1
102
RTVSPropertyOp54
 70
     1
102
RTVSPropertyOp55
 70
     1
102
RTVSPropertyOp56
 70
     1
102
RTVSPropertyOp57
 70
     1
102
RTVSPropertyOp58
 70
     1
102
RTVSPropertyOp59
 70
     1
102
RTVSPropertyOp60
 70
     1
102
RTVSPropertyOp61
 70
     1
102
RTVSPropertyOp62
 70
     1
  0
XRECORD
  5
FE0
102
{ACAD_REACTORS
330
FDF
102
}
330
FDF
100
AcDbXrecord
280
     1
102
RTVSPost2010Prop28
280
     0
102
RTVSPost2010PropOp28
 70
     1
102
RTVSPost2010Prop29
280
     1
102
RTVSPost2010PropOp29
 70
     1
102
RTVSPost2010Prop30
280
     1
102
RTVSPost2010PropOp30
 70
     1
102
RTVSPost2010Prop31
280
     0
102
RTVSPost2010PropOp31
 70
     1
102
RTVSPost2010Prop32
280
     0
102
RTVSPost2010PropOp32
 70
     1
102
RTVSPost2010Prop33
280
     0
102
RTVSPost2010PropOp33
 70
     1
102
RTVSPost2010Prop34
280
     0
102
RTVSPost2010PropOp34
 70
     1
102
RTVSPost2010Prop35
280
     0
102
RTVSPost2010PropOp35
 70
     1
102
RTVSPost2010Prop36
280
     0
102
RTVSPost2010PropOp36
 70
     1
102
RTVSPost2010Prop37
 90
       50
102
RTVSPost2010PropOp37
 70
     1
102
RTVSPost2010Prop38
140
0.0
102
RTVSPost2010PropOp38
 70
     1
102
RTVSPost2010Prop39
140
1.0
102
RTVSPost2010PropOp39
 70
     1
102
RTVSPost2010Prop40
 90
        0
102
RTVSPost2010PropOp40
 70
     1
102
RTVSPost2010Prop41ColorIndex
 90
       18
102
RTVSPost2010Prop41ColorRGB
 90
-16777216
102
RTVSPost2010PropOp41
 70
     1
102
RTVSPost2010Prop42
 90
       50
102
RTVSPost2010PropOp42
 70
     1
102
RTVSPost2010Prop43
 90
        3
102
RTVSPost2010PropOp43
 70
     1
102
RTVSPost2010Prop44ColorIndex
 90
        5
102
RTVSPost2010Prop44ColorRGB
 90
      255
102
RTVSPost2010PropOp44
 70
     1
102
RTVSPost2010Prop45
280
     0
102
RTVSPost2010PropOp45
 70
     1
102
RTVSPost2010Prop46
 90
       50
102
RTVSPost2010PropOp46
 70
     1
102
RTVSPost2010Prop47
 90
       50
102
RTVSPost2010PropOp47
 70
     1
102
RTVSPost2010Prop48
 90
       50
102
RTVSPost2010PropOp48
 70
     1
102
RTVSPost2010Prop49
280
     0
102
RTVSPost2010PropOp49
 70
     1
102
RTVSPost2010Prop50
 90
       50
102
RTVSPost2010PropOp50
 70
     1
102
RTVSPost2010Prop51ColorIndex
 90
      256
102
RTVSPost2010Prop51ColorRGB
 90
-16777216
102
RTVSPost2010PropOp51
 70
     0
102
RTVSPost2010Prop52
140
1.0
102
RTVSPost2010PropOp52
 70
     0
102
RTVSPost2010Prop53
 90
        2
102
RTVSPost2010PropOp53
 70
     1
102
RTVSPost2010Prop54
  1
strokes_ogs.tif
102
RTVSPost2010PropOp54
 70
     1
102
RTVSPost2010Prop55
280
     0
102
RTVSPost2010PropOp55
 70
     1
102
RTVSPost2010Prop56
140
1.0
102
RTVSPost2010PropOp56
 70
     1
102
RTVSPost2010Prop57
140
1.0
102
RTVSPost2010PropOp57
 70
     1
102
RTVSPropertyOp0
 70
     1
102
RTVSPropertyOp1
 70
     1
102
RTVSPropertyOp2
 70
     1
102
RTVSPropertyOp3
 70
     1
102
RTVSPropertyOp4
 70
     1
102
RTVSPropertyOp5
 70
     1
102
RTVSPropertyOp6
 70
     1
102
RTVSPropertyOp7
 70
     1
102
RTVSPropertyOp8
 70
     1
102
RTVSPropertyOp9
 70
     1
102
RTVSPropertyOp10
 70
     1
102
RTVSPropertyOp11
 70
     1
102
RTVSPropertyOp12
 70
     1
102
RTVSPropertyOp13
 70
     1
102
RTVSPropertyOp14
 70
     1
102
RTVSPropertyOp15
 70
     1
102
RTVSPropertyOp16
 70
     1
102
RTVSPropertyOp17
 70
     1
102
RTVSPropertyOp18
 70
     1
102
RTVSPropertyOp19
 70
     1
102
RTVSPropertyOp20
 70
     1
102
RTVSPropertyOp21
 70
     1
102
RTVSPropertyOp22
 70
     1
102
RTVSPropertyOp23
 70
     1
102
RTVSPropertyOp24
 70
     1
102
RTVSPropertyOp25
 70
     1
102
RTVSPropertyOp26
 70
     1
102
RTVSPropertyOp27
 70
     1
102
RTVSPropertyOp28
 70
     1
102
RTVSPropertyOp29
 70
     1
102
RTVSPropertyOp30
 70
     1
102
RTVSPropertyOp31
 70
     1
102
RTVSPropertyOp32
 70
     1
102
RTVSPropertyOp33
 70
     1
102
RTVSPropertyOp34
 70
     1
102
RTVSPropertyOp35
 70
     1
102
RTVSPropertyOp36
 70
     1
102
RTVSPropertyOp37
 70
     1
102
RTVSPropertyOp38
 70
     1
102
RTVSPropertyOp39
 70
     1
102
RTVSPropertyOp40
 70
     1
102
RTVSPropertyOp41
 70
     1
102
RTVSPropertyOp42
 70
     1
102
RTVSPropertyOp43
 70
     1
102
RTVSPropertyOp44
 70
     1
102
RTVSPropertyOp45
 70
     1
102
RTVSPropertyOp46
 70
     1
102
RTVSPropertyOp47
 70
     1
102
RTVSPropertyOp48
 70
     1
102
RTVSPropertyOp49
 70
     1
102
RTVSPropertyOp50
 70
     1
102
RTVSPropertyOp51
 70
     0
102
RTVSPropertyOp52
 70
     0
102
RTVSPropertyOp53
 70
     1
102
RTVSPropertyOp54
 70
     1
102
RTVSPropertyOp55
 70
     1
102
RTVSPropertyOp56
 70
     1
102
RTVSPropertyOp57
 70
     1
102
RTVSPropertyOp58
 70
     1
102
RTVSPropertyOp59
 70
     1
102
RTVSPropertyOp60
 70
     1
102
RTVSPropertyOp61
 70
     1
102
RTVSPropertyOp62
 70
     1
  0
XRECORD
  5
FE4
102
{ACAD_REACTORS
330
FE3
102
}
330
FE3
100
AcDbXrecord
280
     1
102
RTVSPost2010Prop28
280
     0
102
RTVSPost2010PropOp28
 70
     1
102
RTVSPost2010Prop29
280
     1
102
RTVSPost2010PropOp29
 70
     1
102
RTVSPost2010Prop30
280
     1
102
RTVSPost2010PropOp30
 70
     1
102
RTVSPost2010Prop31
280
     0
102
RTVSPost2010PropOp31
 70
     1
102
RTVSPost2010Prop32
280
     0
102
RTVSPost2010PropOp32
 70
     1
102
RTVSPost2010Prop33
280
     0
102
RTVSPost2010PropOp33
 70
     1
102
RTVSPost2010Prop34
280
     0
102
RTVSPost2010PropOp34
 70
     1
102
RTVSPost2010Prop35
280
     0
102
RTVSPost2010PropOp35
 70
     1
102
RTVSPost2010Prop36
280
     0
102
RTVSPost2010PropOp36
 70
     1
102
RTVSPost2010Prop37
 90
       50
102
RTVSPost2010PropOp37
 70
     1
102
RTVSPost2010Prop38
140
0.0
102
RTVSPost2010PropOp38
 70
     1
102
RTVSPost2010Prop39
140
1.0
102
RTVSPost2010PropOp39
 70
     1
102
RTVSPost2010Prop40
 90
        0
102
RTVSPost2010PropOp40
 70
     1
102
RTVSPost2010Prop41ColorIndex
 90
       18
102
RTVSPost2010Prop41ColorRGB
 90
-16777216
102
RTVSPost2010PropOp41
 70
     1
102
RTVSPost2010Prop42
 90
       50
102
RTVSPost2010PropOp42
 70
     1
102
RTVSPost2010Prop43
 90
        3
102
RTVSPost2010PropOp43
 70
     1
102
RTVSPost2010Prop44ColorIndex
 90
        5
102
RTVSPost2010Prop44ColorRGB
 90
      255
102
RTVSPost2010PropOp44
 70
     1
102
RTVSPost2010Prop45
280
     0
102
RTVSPost2010PropOp45
 70
     1
102
RTVSPost2010Prop46
 90
       50
102
RTVSPost2010PropOp46
 70
     1
102
RTVSPost2010Prop47
 90
       50
102
RTVSPost2010PropOp47
 70
     1
102
RTVSPost2010Prop48
 90
       50
102
RTVSPost2010PropOp48
 70
     1
102
RTVSPost2010Prop49
280
     0
102
RTVSPost2010PropOp49
 70
     1
102
RTVSPost2010Prop50
 90
       50
102
RTVSPost2010PropOp50
 70
     1
102
RTVSPost2010Prop51ColorIndex
 90
      256
102
RTVSPost2010Prop51ColorRGB
 90
-16777216
102
RTVSPost2010PropOp51
 70
     0
102
RTVSPost2010Prop52
140
1.0
102
RTVSPost2010PropOp52
 70
     0
102
RTVSPost2010Prop53
 90
        2
102
RTVSPost2010PropOp53
 70
     1
102
RTVSPost2010Prop54
  1
strokes_ogs.tif
102
RTVSPost2010PropOp54
 70
     1
102
RTVSPost2010Prop55
280
     0
102
RTVSPost2010PropOp55
 70
     1
102
RTVSPost2010Prop56
140
1.0
102
RTVSPost2010PropOp56
 70
     1
102
RTVSPost2010Prop57
140
1.0
102
RTVSPost2010PropOp57
 70
     1
102
RTVSPropertyOp0
 70
     1
102
RTVSPropertyOp1
 70
     1
102
RTVSPropertyOp2
 70
     1
102
RTVSPropertyOp3
 70
     1
102
RTVSPropertyOp4
 70
     1
102
RTVSPropertyOp5
 70
     1
102
RTVSPropertyOp6
 70
     1
102
RTVSPropertyOp7
 70
     1
102
RTVSPropertyOp8
 70
     1
102
RTVSPropertyOp9
 70
     1
102
RTVSPropertyOp10
 70
     1
102
RTVSPropertyOp11
 70
     1
102
RTVSPropertyOp12
 70
     1
102
RTVSPropertyOp13
 70
     1
102
RTVSPropertyOp14
 70
     1
102
RTVSPropertyOp15
 70
     1
102
RTVSPropertyOp16
 70
     1
102
RTVSPropertyOp17
 70
     1
102
RTVSPropertyOp18
 70
     1
102
RTVSPropertyOp19
 70
     1
102
RTVSPropertyOp20
 70
     1
102
RTVSPropertyOp21
 70
     1
102
RTVSPropertyOp22
 70
     1
102
RTVSPropertyOp23
 70
     1
102
RTVSPropertyOp24
 70
     1
102
RTVSPropertyOp25
 70
     1
102
RTVSPropertyOp26
 70
     1
102
RTVSPropertyOp27
 70
     1
102
RTVSPropertyOp28
 70
     1
102
RTVSPropertyOp29
 70
     1
102
RTVSPropertyOp30
 70
     1
102
RTVSPropertyOp31
 70
     1
102
RTVSPropertyOp32
 70
     1
102
RTVSPropertyOp33
 70
     1
102
RTVSPropertyOp34
 70
     1
102
RTVSPropertyOp35
 70
     1
102
RTVSPropertyOp36
 70
     1
102
RTVSPropertyOp37
 70
     1
102
RTVSPropertyOp38
 70
     1
102
RTVSPropertyOp39
 70
     1
102
RTVSPropertyOp40
 70
     1
102
RTVSPropertyOp41
 70
     1
102
RTVSPropertyOp42
 70
     1
102
RTVSPropertyOp43
 70
     1
102
RTVSPropertyOp44
 70
     1
102
RTVSPropertyOp45
 70
     1
102
RTVSPropertyOp46
 70
     1
102
RTVSPropertyOp47
 70
     1
102
RTVSPropertyOp48
 70
     1
102
RTVSPropertyOp49
 70
     1
102
RTVSPropertyOp50
 70
     1
102
RTVSPropertyOp51
 70
     0
102
RTVSPropertyOp52
 70
     0
102
RTVSPropertyOp53
 70
     1
102
RTVSPropertyOp54
 70
     1
102
RTVSPropertyOp55
 70
     1
102
RTVSPropertyOp56
 70
     1
102
RTVSPropertyOp57
 70
     1
102
RTVSPropertyOp58
 70
     1
102
RTVSPropertyOp59
 70
     1
102
RTVSPropertyOp60
 70
     1
102
RTVSPropertyOp61
 70
     1
102
RTVSPropertyOp62
 70
     1
  0
XRECORD
  5
FFE
102
{ACAD_REACTORS
330
FFD
102
}
330
FFD
100
AcDbXrecord
280
     1
102
RTVSPost2010Prop28
280
     0
102
RTVSPost2010PropOp28
 70
     0
102
RTVSPost2010Prop29
280
     1
102
RTVSPost2010PropOp29
 70
     0
102
RTVSPost2010Prop30
280
     1
102
RTVSPost2010PropOp30
 70
     0
102
RTVSPost2010Prop31
280
     0
102
RTVSPost2010PropOp31
 70
     0
102
RTVSPost2010Prop32
280
     0
102
RTVSPost2010PropOp32
 70
     0
102
RTVSPost2010Prop33
280
     0
102
RTVSPost2010PropOp33
 70
     0
102
RTVSPost2010Prop34
280
     0
102
RTVSPost2010PropOp34
 70
     0
102
RTVSPost2010Prop35
280
     0
102
RTVSPost2010PropOp35
 70
     0
102
RTVSPost2010Prop36
280
     0
102
RTVSPost2010PropOp36
 70
     0
102
RTVSPost2010Prop37
 90
       50
102
RTVSPost2010PropOp37
 70
     0
102
RTVSPost2010Prop38
140
0.0
102
RTVSPost2010PropOp38
 70
     0
102
RTVSPost2010Prop39
140
1.0
102
RTVSPost2010PropOp39
 70
     0
102
RTVSPost2010Prop40
 90
        0
102
RTVSPost2010PropOp40
 70
     0
102
RTVSPost2010Prop41ColorIndex
 90
       18
102
RTVSPost2010Prop41ColorRGB
 90
-16777216
102
RTVSPost2010PropOp41
 70
     0
102
RTVSPost2010Prop42
 90
       50
102
RTVSPost2010PropOp42
 70
     0
102
RTVSPost2010Prop43
 90
        3
102
RTVSPost2010PropOp43
 70
     0
102
RTVSPost2010Prop44ColorIndex
 90
        5
102
RTVSPost2010Prop44ColorRGB
 90
      255
102
RTVSPost2010PropOp44
 70
     0
102
RTVSPost2010Prop45
280
     0
102
RTVSPost2010PropOp45
 70
     0
102
RTVSPost2010Prop46
 90
       50
102
RTVSPost2010PropOp46
 70
     0
102
RTVSPost2010Prop47
 90
       50
102
RTVSPost2010PropOp47
 70
     0
102
RTVSPost2010Prop48
 90
       50
102
RTVSPost2010PropOp48
 70
     0
102
RTVSPost2010Prop49
280
     0
102
RTVSPost2010PropOp49
 70
     0
102
RTVSPost2010Prop50
 90
       50
102
RTVSPost2010PropOp50
 70
     0
102
RTVSPost2010Prop51ColorIndex
 90
      256
102
RTVSPost2010Prop51ColorRGB
 90
-16777216
102
RTVSPost2010PropOp51
 70
     0
102
RTVSPost2010Prop52
140
1.0
102
RTVSPost2010PropOp52
 70
     0
102
RTVSPost2010Prop53
 90
        2
102
RTVSPost2010PropOp53
 70
     0
102
RTVSPost2010Prop54
  1
strokes_ogs.tif
102
RTVSPost2010PropOp54
 70
     0
102
RTVSPost2010Prop55
280
     0
102
RTVSPost2010PropOp55
 70
     0
102
RTVSPost2010Prop56
140
1.0
102
RTVSPost2010PropOp56
 70
     0
102
RTVSPost2010Prop57
140
1.0
102
RTVSPost2010PropOp57
 70
     0
102
RTVSPropertyOp0
 70
     0
102
RTVSPropertyOp1
 70
     0
102
RTVSPropertyOp2
 70
     0
102
RTVSPropertyOp3
 70
     0
102
RTVSPropertyOp4
 70
     0
102
RTVSPropertyOp5
 70
     0
102
RTVSPropertyOp6
 70
     0
102
RTVSPropertyOp7
 70
     0
102
RTVSPropertyOp8
 70
     0
102
RTVSPropertyOp9
 70
     0
102
RTVSPropertyOp10
 70
     0
102
RTVSPropertyOp11
 70
     0
102
RTVSPropertyOp12
 70
     0
102
RTVSPropertyOp13
 70
     0
102
RTVSPropertyOp14
 70
     2
102
RTVSPropertyOp15
 70
     0
102
RTVSPropertyOp16
 70
     0
102
RTVSPropertyOp17
 70
     0
102
RTVSPropertyOp18
 70
     0
102
RTVSPropertyOp19
 70
     0
102
RTVSPropertyOp20
 70
     0
102
RTVSPropertyOp21
 70
     0
102
RTVSPropertyOp22
 70
     0
102
RTVSPropertyOp23
 70
     0
102
RTVSPropertyOp24
 70
     0
102
RTVSPropertyOp25
 70
     0
102
RTVSPropertyOp26
 70
     0
102
RTVSPropertyOp27
 70
     0
102
RTVSPropertyOp28
 70
     0
102
RTVSPropertyOp29
 70
     0
102
RTVSPropertyOp30
 70
     0
102
RTVSPropertyOp31
 70
     0
102
RTVSPropertyOp32
 70
     0
102
RTVSPropertyOp33
 70
     0
102
RTVSPropertyOp34
 70
     0
102
RTVSPropertyOp35
 70
     0
102
RTVSPropertyOp36
 70
     0
102
RTVSPropertyOp37
 70
     0
102
RTVSPropertyOp38
 70
     0
102
RTVSPropertyOp39
 70
     0
102
RTVSPropertyOp40
 70
     0
102
RTVSPropertyOp41
 70
     0
102
RTVSPropertyOp42
 70
     0
102
RTVSPropertyOp43
 70
     0
102
RTVSPropertyOp44
 70
     0
102
RTVSPropertyOp45
 70
     0
102
RTVSPropertyOp46
 70
     0
102
RTVSPropertyOp47
 70
     0
102
RTVSPropertyOp48
 70
     0
102
RTVSPropertyOp49
 70
     0
102
RTVSPropertyOp50
 70
     0
102
RTVSPropertyOp51
 70
     0
102
RTVSPropertyOp52
 70
     0
102
RTVSPropertyOp53
 70
     0
102
RTVSPropertyOp54
 70
     0
102
RTVSPropertyOp55
 70
     0
102
RTVSPropertyOp56
 70
     0
102
RTVSPropertyOp57
 70
     0
102
RTVSPropertyOp58
 70
     1
102
RTVSPropertyOp59
 70
     1
102
RTVSPropertyOp60
 70
     1
102
RTVSPropertyOp61
 70
     1
102
RTVSPropertyOp62
 70
     1
  0
XRECORD
  5
FEC
102
{ACAD_REACTORS
330
FEB
102
}
330
FEB
100
AcDbXrecord
280
     1
102
RTVSPost2010Prop28
280
     0
102
RTVSPost2010PropOp28
 70
     1
102
RTVSPost2010Prop29
280
     1
102
RTVSPost2010PropOp29
 70
     1
102
RTVSPost2010Prop30
280
     1
102
RTVSPost2010PropOp30
 70
     1
102
RTVSPost2010Prop31
280
     0
102
RTVSPost2010PropOp31
 70
     1
102
RTVSPost2010Prop32
280
     0
102
RTVSPost2010PropOp32
 70
     1
102
RTVSPost2010Prop33
280
     0
102
RTVSPost2010PropOp33
 70
     1
102
RTVSPost2010Prop34
280
     0
102
RTVSPost2010PropOp34
 70
     1
102
RTVSPost2010Prop35
280
     0
102
RTVSPost2010PropOp35
 70
     1
102
RTVSPost2010Prop36
280
     0
102
RTVSPost2010PropOp36
 70
     1
102
RTVSPost2010Prop37
 90
       50
102
RTVSPost2010PropOp37
 70
     1
102
RTVSPost2010Prop38
140
0.0
102
RTVSPost2010PropOp38
 70
     1
102
RTVSPost2010Prop39
140
1.0
102
RTVSPost2010PropOp39
 70
     1
102
RTVSPost2010Prop40
 90
        0
102
RTVSPost2010PropOp40
 70
     1
102
RTVSPost2010Prop41ColorIndex
 90
       18
102
RTVSPost2010Prop41ColorRGB
 90
-16777216
102
RTVSPost2010PropOp41
 70
     1
102
RTVSPost2010Prop42
 90
       50
102
RTVSPost2010PropOp42
 70
     1
102
RTVSPost2010Prop43
 90
        3
102
RTVSPost2010PropOp43
 70
     1
102
RTVSPost2010Prop44ColorIndex
 90
        5
102
RTVSPost2010Prop44ColorRGB
 90
      255
102
RTVSPost2010PropOp44
 70
     1
102
RTVSPost2010Prop45
280
     0
102
RTVSPost2010PropOp45
 70
     1
102
RTVSPost2010Prop46
 90
       50
102
RTVSPost2010PropOp46
 70
     1
102
RTVSPost2010Prop47
 90
       50
102
RTVSPost2010PropOp47
 70
     1
102
RTVSPost2010Prop48
 90
       50
102
RTVSPost2010PropOp48
 70
     1
102
RTVSPost2010Prop49
280
     0
102
RTVSPost2010PropOp49
 70
     1
102
RTVSPost2010Prop50
 90
       50
102
RTVSPost2010PropOp50
 70
     1
102
RTVSPost2010Prop51ColorIndex
 90
      256
102
RTVSPost2010Prop51ColorRGB
 90
-16777216
102
RTVSPost2010PropOp51
 70
     0
102
RTVSPost2010Prop52
140
1.0
102
RTVSPost2010PropOp52
 70
     0
102
RTVSPost2010Prop53
 90
        2
102
RTVSPost2010PropOp53
 70
     1
102
RTVSPost2010Prop54
  1
strokes_ogs.tif
102
RTVSPost2010PropOp54
 70
     1
102
RTVSPost2010Prop55
280
     0
102
RTVSPost2010PropOp55
 70
     1
102
RTVSPost2010Prop56
140
1.0
102
RTVSPost2010PropOp56
 70
     1
102
RTVSPost2010Prop57
140
1.0
102
RTVSPost2010PropOp57
 70
     1
102
RTVSPropertyOp0
 70
     1
102
RTVSPropertyOp1
 70
     1
102
RTVSPropertyOp2
 70
     1
102
RTVSPropertyOp3
 70
     1
102
RTVSPropertyOp4
 70
     1
102
RTVSPropertyOp5
 70
     1
102
RTVSPropertyOp6
 70
     1
102
RTVSPropertyOp7
 70
     1
102
RTVSPropertyOp8
 70
     1
102
RTVSPropertyOp9
 70
     1
102
RTVSPropertyOp10
 70
     1
102
RTVSPropertyOp11
 70
     1
102
RTVSPropertyOp12
 70
     1
102
RTVSPropertyOp13
 70
     1
102
RTVSPropertyOp14
 70
     1
102
RTVSPropertyOp15
 70
     1
102
RTVSPropertyOp16
 70
     1
102
RTVSPropertyOp17
 70
     1
102
RTVSPropertyOp18
 70
     1
102
RTVSPropertyOp19
 70
     1
102
RTVSPropertyOp20
 70
     1
102
RTVSPropertyOp21
 70
     1
102
RTVSPropertyOp22
 70
     1
102
RTVSPropertyOp23
 70
     1
102
RTVSPropertyOp24
 70
     1
102
RTVSPropertyOp25
 70
     1
102
RTVSPropertyOp26
 70
     1
102
RTVSPropertyOp27
 70
     1
102
RTVSPropertyOp28
 70
     1
102
RTVSPropertyOp29
 70
     1
102
RTVSPropertyOp30
 70
     1
102
RTVSPropertyOp31
 70
     1
102
RTVSPropertyOp32
 70
     1
102
RTVSPropertyOp33
 70
     1
102
RTVSPropertyOp34
 70
     1
102
RTVSPropertyOp35
 70
     1
102
RTVSPropertyOp36
 70
     1
102
RTVSPropertyOp37
 70
     1
102
RTVSPropertyOp38
 70
     1
102
RTVSPropertyOp39
 70
     1
102
RTVSPropertyOp40
 70
     1
102
RTVSPropertyOp41
 70
     1
102
RTVSPropertyOp42
 70
     1
102
RTVSPropertyOp43
 70
     1
102
RTVSPropertyOp44
 70
     1
102
RTVSPropertyOp45
 70
     1
102
RTVSPropertyOp46
 70
     1
102
RTVSPropertyOp47
 70
     1
102
RTVSPropertyOp48
 70
     1
102
RTVSPropertyOp49
 70
     1
102
RTVSPropertyOp50
 70
     1
102
RTVSPropertyOp51
 70
     0
102
RTVSPropertyOp52
 70
     0
102
RTVSPropertyOp53
 70
     1
102
RTVSPropertyOp54
 70
     1
102
RTVSPropertyOp55
 70
     1
102
RTVSPropertyOp56
 70
     1
102
RTVSPropertyOp57
 70
     1
102
RTVSPropertyOp58
 70
     1
102
RTVSPropertyOp59
 70
     1
102
RTVSPropertyOp60
 70
     1
102
RTVSPropertyOp61
 70
     1
102
RTVSPropertyOp62
 70
     1
  0
XRECORD
  5
FD0
102
{ACAD_REACTORS
330
FCF
102
}
330
FCF
100
AcDbXrecord
280
     1
102
RTVSPost2010Prop28
280
     0
102
RTVSPost2010PropOp28
 70
     1
102
RTVSPost2010Prop29
280
     1
102
RTVSPost2010PropOp29
 70
     1
102
RTVSPost2010Prop30
280
     1
102
RTVSPost2010PropOp30
 70
     1
102
RTVSPost2010Prop31
280
     0
102
RTVSPost2010PropOp31
 70
     1
102
RTVSPost2010Prop32
280
     0
102
RTVSPost2010PropOp32
 70
     1
102
RTVSPost2010Prop33
280
     0
102
RTVSPost2010PropOp33
 70
     1
102
RTVSPost2010Prop34
280
     0
102
RTVSPost2010PropOp34
 70
     1
102
RTVSPost2010Prop35
280
     0
102
RTVSPost2010PropOp35
 70
     1
102
RTVSPost2010Prop36
280
     0
102
RTVSPost2010PropOp36
 70
     1
102
RTVSPost2010Prop37
 90
       50
102
RTVSPost2010PropOp37
 70
     1
102
RTVSPost2010Prop38
140
0.0
102
RTVSPost2010PropOp38
 70
     1
102
RTVSPost2010Prop39
140
1.0
102
RTVSPost2010PropOp39
 70
     1
102
RTVSPost2010Prop40
 90
        0
102
RTVSPost2010PropOp40
 70
     1
102
RTVSPost2010Prop41ColorIndex
 90
       18
102
RTVSPost2010Prop41ColorRGB
 90
-16777216
102
RTVSPost2010PropOp41
 70
     1
102
RTVSPost2010Prop42
 90
       50
102
RTVSPost2010PropOp42
 70
     1
102
RTVSPost2010Prop43
 90
        3
102
RTVSPost2010PropOp43
 70
     1
102
RTVSPost2010Prop44ColorIndex
 90
        5
102
RTVSPost2010Prop44ColorRGB
 90
      255
102
RTVSPost2010PropOp44
 70
     1
102
RTVSPost2010Prop45
280
     0
102
RTVSPost2010PropOp45
 70
     1
102
RTVSPost2010Prop46
 90
       50
102
RTVSPost2010PropOp46
 70
     1
102
RTVSPost2010Prop47
 90
       50
102
RTVSPost2010PropOp47
 70
     1
102
RTVSPost2010Prop48
 90
       50
102
RTVSPost2010PropOp48
 70
     1
102
RTVSPost2010Prop49
280
     0
102
RTVSPost2010PropOp49
 70
     1
102
RTVSPost2010Prop50
 90
       50
102
RTVSPost2010PropOp50
 70
     1
102
RTVSPost2010Prop51ColorIndex
 90
      256
102
RTVSPost2010Prop51ColorRGB
 90
-16777216
102
RTVSPost2010PropOp51
 70
     0
102
RTVSPost2010Prop52
140
1.0
102
RTVSPost2010PropOp52
 70
     0
102
RTVSPost2010Prop53
 90
        2
102
RTVSPost2010PropOp53
 70
     1
102
RTVSPost2010Prop54
  1
strokes_ogs.tif
102
RTVSPost2010PropOp54
 70
     1
102
RTVSPost2010Prop55
280
     0
102
RTVSPost2010PropOp55
 70
     1
102
RTVSPost2010Prop56
140
1.0
102
RTVSPost2010PropOp56
 70
     1
102
RTVSPost2010Prop57
140
1.0
102
RTVSPost2010PropOp57
 70
     1
102
RTVSPropertyOp0
 70
     1
102
RTVSPropertyOp1
 70
     1
102
RTVSPropertyOp2
 70
     1
102
RTVSPropertyOp3
 70
     1
102
RTVSPropertyOp4
 70
     1
102
RTVSPropertyOp5
 70
     1
102
RTVSPropertyOp6
 70
     1
102
RTVSPropertyOp7
 70
     1
102
RTVSPropertyOp8
 70
     1
102
RTVSPropertyOp9
 70
     1
102
RTVSPropertyOp10
 70
     1
102
RTVSPropertyOp11
 70
     1
102
RTVSPropertyOp12
 70
     1
102
RTVSPropertyOp13
 70
     1
102
RTVSPropertyOp14
 70
     1
102
RTVSPropertyOp15
 70
     1
102
RTVSPropertyOp16
 70
     1
102
RTVSPropertyOp17
 70
     1
102
RTVSPropertyOp18
 70
     1
102
RTVSPropertyOp19
 70
     1
102
RTVSPropertyOp20
 70
     1
102
RTVSPropertyOp21
 70
     1
102
RTVSPropertyOp22
 70
     1
102
RTVSPropertyOp23
 70
     1
102
RTVSPropertyOp24
 70
     1
102
RTVSPropertyOp25
 70
     1
102
RTVSPropertyOp26
 70
     1
102
RTVSPropertyOp27
 70
     1
102
RTVSPropertyOp28
 70
     1
102
RTVSPropertyOp29
 70
     1
102
RTVSPropertyOp30
 70
     1
102
RTVSPropertyOp31
 70
     1
102
RTVSPropertyOp32
 70
     1
102
RTVSPropertyOp33
 70
     1
102
RTVSPropertyOp34
 70
     1
102
RTVSPropertyOp35
 70
     1
102
RTVSPropertyOp36
 70
     1
102
RTVSPropertyOp37
 70
     1
102
RTVSPropertyOp38
 70
     1
102
RTVSPropertyOp39
 70
     1
102
RTVSPropertyOp40
 70
     1
102
RTVSPropertyOp41
 70
     1
102
RTVSPropertyOp42
 70
     1
102
RTVSPropertyOp43
 70
     1
102
RTVSPropertyOp44
 70
     1
102
RTVSPropertyOp45
 70
     1
102
RTVSPropertyOp46
 70
     1
102
RTVSPropertyOp47
 70
     1
102
RTVSPropertyOp48
 70
     1
102
RTVSPropertyOp49
 70
     1
102
RTVSPropertyOp50
 70
     1
102
RTVSPropertyOp51
 70
     0
102
RTVSPropertyOp52
 70
     0
102
RTVSPropertyOp53
 70
     1
102
RTVSPropertyOp54
 70
     1
102
RTVSPropertyOp55
 70
     1
102
RTVSPropertyOp56
 70
     1
102
RTVSPropertyOp57
 70
     1
102
RTVSPropertyOp58
 70
     1
102
RTVSPropertyOp59
 70
     1
102
RTVSPropertyOp60
 70
     1
102
RTVSPropertyOp61
 70
     1
102
RTVSPropertyOp62
 70
     1
  0
XRECORD
  5
FD2
102
{ACAD_REACTORS
330
FD1
102
}
330
FD1
100
AcDbXrecord
280
     1
102
RTVSPost2010Prop28
280
     0
102
RTVSPost2010PropOp28
 70
     1
102
RTVSPost2010Prop29
280
     1
102
RTVSPost2010PropOp29
 70
     1
102
RTVSPost2010Prop30
280
     1
102
RTVSPost2010PropOp30
 70
     1
102
RTVSPost2010Prop31
280
     0
102
RTVSPost2010PropOp31
 70
     1
102
RTVSPost2010Prop32
280
     0
102
RTVSPost2010PropOp32
 70
     1
102
RTVSPost2010Prop33
280
     0
102
RTVSPost2010PropOp33
 70
     1
102
RTVSPost2010Prop34
280
     0
102
RTVSPost2010PropOp34
 70
     1
102
RTVSPost2010Prop35
280
     0
102
RTVSPost2010PropOp35
 70
     1
102
RTVSPost2010Prop36
280
     0
102
RTVSPost2010PropOp36
 70
     1
102
RTVSPost2010Prop37
 90
       50
102
RTVSPost2010PropOp37
 70
     1
102
RTVSPost2010Prop38
140
0.0
102
RTVSPost2010PropOp38
 70
     1
102
RTVSPost2010Prop39
140
1.0
102
RTVSPost2010PropOp39
 70
     1
102
RTVSPost2010Prop40
 90
        0
102
RTVSPost2010PropOp40
 70
     1
102
RTVSPost2010Prop41ColorIndex
 90
       18
102
RTVSPost2010Prop41ColorRGB
 90
-16777216
102
RTVSPost2010PropOp41
 70
     1
102
RTVSPost2010Prop42
 90
       50
102
RTVSPost2010PropOp42
 70
     1
102
RTVSPost2010Prop43
 90
        3
102
RTVSPost2010PropOp43
 70
     1
102
RTVSPost2010Prop44ColorIndex
 90
        5
102
RTVSPost2010Prop44ColorRGB
 90
      255
102
RTVSPost2010PropOp44
 70
     1
102
RTVSPost2010Prop45
280
     0
102
RTVSPost2010PropOp45
 70
     1
102
RTVSPost2010Prop46
 90
       50
102
RTVSPost2010PropOp46
 70
     1
102
RTVSPost2010Prop47
 90
       50
102
RTVSPost2010PropOp47
 70
     1
102
RTVSPost2010Prop48
 90
       50
102
RTVSPost2010PropOp48
 70
     1
102
RTVSPost2010Prop49
280
     0
102
RTVSPost2010PropOp49
 70
     1
102
RTVSPost2010Prop50
 90
       50
102
RTVSPost2010PropOp50
 70
     1
102
RTVSPost2010Prop51ColorIndex
 90
      256
102
RTVSPost2010Prop51ColorRGB
 90
-16777216
102
RTVSPost2010PropOp51
 70
     0
102
RTVSPost2010Prop52
140
1.0
102
RTVSPost2010PropOp52
 70
     0
102
RTVSPost2010Prop53
 90
        2
102
RTVSPost2010PropOp53
 70
     1
102
RTVSPost2010Prop54
  1
strokes_ogs.tif
102
RTVSPost2010PropOp54
 70
     1
102
RTVSPost2010Prop55
280
     0
102
RTVSPost2010PropOp55
 70
     1
102
RTVSPost2010Prop56
140
1.0
102
RTVSPost2010PropOp56
 70
     1
102
RTVSPost2010Prop57
140
1.0
102
RTVSPost2010PropOp57
 70
     1
102
RTVSPropertyOp0
 70
     1
102
RTVSPropertyOp1
 70
     1
102
RTVSPropertyOp2
 70
     1
102
RTVSPropertyOp3
 70
     1
102
RTVSPropertyOp4
 70
     1
102
RTVSPropertyOp5
 70
     1
102
RTVSPropertyOp6
 70
     1
102
RTVSPropertyOp7
 70
     1
102
RTVSPropertyOp8
 70
     1
102
RTVSPropertyOp9
 70
     1
102
RTVSPropertyOp10
 70
     1
102
RTVSPropertyOp11
 70
     1
102
RTVSPropertyOp12
 70
     1
102
RTVSPropertyOp13
 70
     1
102
RTVSPropertyOp14
 70
     1
102
RTVSPropertyOp15
 70
     1
102
RTVSPropertyOp16
 70
     1
102
RTVSPropertyOp17
 70
     1
102
RTVSPropertyOp18
 70
     1
102
RTVSPropertyOp19
 70
     1
102
RTVSPropertyOp20
 70
     1
102
RTVSPropertyOp21
 70
     1
102
RTVSPropertyOp22
 70
     1
102
RTVSPropertyOp23
 70
     1
102
RTVSPropertyOp24
 70
     1
102
RTVSPropertyOp25
 70
     1
102
RTVSPropertyOp26
 70
     1
102
RTVSPropertyOp27
 70
     1
102
RTVSPropertyOp28
 70
     1
102
RTVSPropertyOp29
 70
     1
102
RTVSPropertyOp30
 70
     1
102
RTVSPropertyOp31
 70
     1
102
RTVSPropertyOp32
 70
     1
102
RTVSPropertyOp33
 70
     1
102
RTVSPropertyOp34
 70
     1
102
RTVSPropertyOp35
 70
     1
102
RTVSPropertyOp36
 70
     1
102
RTVSPropertyOp37
 70
     1
102
RTVSPropertyOp38
 70
     1
102
RTVSPropertyOp39
 70
     1
102
RTVSPropertyOp40
 70
     1
102
RTVSPropertyOp41
 70
     1
102
RTVSPropertyOp42
 70
     1
102
RTVSPropertyOp43
 70
     1
102
RTVSPropertyOp44
 70
     1
102
RTVSPropertyOp45
 70
     1
102
RTVSPropertyOp46
 70
     1
102
RTVSPropertyOp47
 70
     1
102
RTVSPropertyOp48
 70
     1
102
RTVSPropertyOp49
 70
     1
102
RTVSPropertyOp50
 70
     1
102
RTVSPropertyOp51
 70
     0
102
RTVSPropertyOp52
 70
     0
102
RTVSPropertyOp53
 70
     1
102
RTVSPropertyOp54
 70
     1
102
RTVSPropertyOp55
 70
     1
102
RTVSPropertyOp56
 70
     1
102
RTVSPropertyOp57
 70
     1
102
RTVSPropertyOp58
 70
     1
102
RTVSPropertyOp59
 70
     1
102
RTVSPropertyOp60
 70
     1
102
RTVSPropertyOp61
 70
     1
102
RTVSPropertyOp62
 70
     1
  0
XRECORD
  5
FD4
102
{ACAD_REACTORS
330
FD3
102
}
330
FD3
100
AcDbXrecord
280
     1
102
RTVSPost2010Prop28
280
     0
102
RTVSPost2010PropOp28
 70
     1
102
RTVSPost2010Prop29
280
     1
102
RTVSPost2010PropOp29
 70
     1
102
RTVSPost2010Prop30
280
     1
102
RTVSPost2010PropOp30
 70
     1
102
RTVSPost2010Prop31
280
     0
102
RTVSPost2010PropOp31
 70
     1
102
RTVSPost2010Prop32
280
     0
102
RTVSPost2010PropOp32
 70
     1
102
RTVSPost2010Prop33
280
     0
102
RTVSPost2010PropOp33
 70
     1
102
RTVSPost2010Prop34
280
     0
102
RTVSPost2010PropOp34
 70
     1
102
RTVSPost2010Prop35
280
     0
102
RTVSPost2010PropOp35
 70
     1
102
RTVSPost2010Prop36
280
     0
102
RTVSPost2010PropOp36
 70
     1
102
RTVSPost2010Prop37
 90
       50
102
RTVSPost2010PropOp37
 70
     1
102
RTVSPost2010Prop38
140
0.0
102
RTVSPost2010PropOp38
 70
     1
102
RTVSPost2010Prop39
140
1.0
102
RTVSPost2010PropOp39
 70
     1
102
RTVSPost2010Prop40
 90
        0
102
RTVSPost2010PropOp40
 70
     1
102
RTVSPost2010Prop41ColorIndex
 90
       18
102
RTVSPost2010Prop41ColorRGB
 90
-16777216
102
RTVSPost2010PropOp41
 70
     1
102
RTVSPost2010Prop42
 90
       50
102
RTVSPost2010PropOp42
 70
     1
102
RTVSPost2010Prop43
 90
        3
102
RTVSPost2010PropOp43
 70
     1
102
RTVSPost2010Prop44ColorIndex
 90
        5
102
RTVSPost2010Prop44ColorRGB
 90
      255
102
RTVSPost2010PropOp44
 70
     1
102
RTVSPost2010Prop45
280
     0
102
RTVSPost2010PropOp45
 70
     1
102
RTVSPost2010Prop46
 90
       50
102
RTVSPost2010PropOp46
 70
     1
102
RTVSPost2010Prop47
 90
       50
102
RTVSPost2010PropOp47
 70
     1
102
RTVSPost2010Prop48
 90
       50
102
RTVSPost2010PropOp48
 70
     1
102
RTVSPost2010Prop49
280
     0
102
RTVSPost2010PropOp49
 70
     1
102
RTVSPost2010Prop50
 90
       50
102
RTVSPost2010PropOp50
 70
     1
102
RTVSPost2010Prop51ColorIndex
 90
      256
102
RTVSPost2010Prop51ColorRGB
 90
-16777216
102
RTVSPost2010PropOp51
 70
     0
102
RTVSPost2010Prop52
140
1.0
102
RTVSPost2010PropOp52
 70
     0
102
RTVSPost2010Prop53
 90
        2
102
RTVSPost2010PropOp53
 70
     1
102
RTVSPost2010Prop54
  1
strokes_ogs.tif
102
RTVSPost2010PropOp54
 70
     1
102
RTVSPost2010Prop55
280
     0
102
RTVSPost2010PropOp55
 70
     1
102
RTVSPost2010Prop56
140
1.0
102
RTVSPost2010PropOp56
 70
     1
102
RTVSPost2010Prop57
140
1.0
102
RTVSPost2010PropOp57
 70
     1
102
RTVSPropertyOp0
 70
     1
102
RTVSPropertyOp1
 70
     1
102
RTVSPropertyOp2
 70
     1
102
RTVSPropertyOp3
 70
     1
102
RTVSPropertyOp4
 70
     1
102
RTVSPropertyOp5
 70
     1
102
RTVSPropertyOp6
 70
     1
102
RTVSPropertyOp7
 70
     1
102
RTVSPropertyOp8
 70
     1
102
RTVSPropertyOp9
 70
     1
102
RTVSPropertyOp10
 70
     1
102
RTVSPropertyOp11
 70
     1
102
RTVSPropertyOp12
 70
     1
102
RTVSPropertyOp13
 70
     1
102
RTVSPropertyOp14
 70
     1
102
RTVSPropertyOp15
 70
     1
102
RTVSPropertyOp16
 70
     1
102
RTVSPropertyOp17
 70
     1
102
RTVSPropertyOp18
 70
     1
102
RTVSPropertyOp19
 70
     1
102
RTVSPropertyOp20
 70
     1
102
RTVSPropertyOp21
 70
     1
102
RTVSPropertyOp22
 70
     1
102
RTVSPropertyOp23
 70
     1
102
RTVSPropertyOp24
 70
     1
102
RTVSPropertyOp25
 70
     1
102
RTVSPropertyOp26
 70
     1
102
RTVSPropertyOp27
 70
     1
102
RTVSPropertyOp28
 70
     1
102
RTVSPropertyOp29
 70
     1
102
RTVSPropertyOp30
 70
     1
102
RTVSPropertyOp31
 70
     1
102
RTVSPropertyOp32
 70
     1
102
RTVSPropertyOp33
 70
     1
102
RTVSPropertyOp34
 70
     1
102
RTVSPropertyOp35
 70
     1
102
RTVSPropertyOp36
 70
     1
102
RTVSPropertyOp37
 70
     1
102
RTVSPropertyOp38
 70
     1
102
RTVSPropertyOp39
 70
     1
102
RTVSPropertyOp40
 70
     1
102
RTVSPropertyOp41
 70
     1
102
RTVSPropertyOp42
 70
     1
102
RTVSPropertyOp43
 70
     1
102
RTVSPropertyOp44
 70
     1
102
RTVSPropertyOp45
 70
     1
102
RTVSPropertyOp46
 70
     1
102
RTVSPropertyOp47
 70
     1
102
RTVSPropertyOp48
 70
     1
102
RTVSPropertyOp49
 70
     1
102
RTVSPropertyOp50
 70
     1
102
RTVSPropertyOp51
 70
     0
102
RTVSPropertyOp52
 70
     0
102
RTVSPropertyOp53
 70
     1
102
RTVSPropertyOp54
 70
     1
102
RTVSPropertyOp55
 70
     1
102
RTVSPropertyOp56
 70
     1
102
RTVSPropertyOp57
 70
     1
102
RTVSPropertyOp58
 70
     1
102
RTVSPropertyOp59
 70
     1
102
RTVSPropertyOp60
 70
     1
102
RTVSPropertyOp61
 70
     1
102
RTVSPropertyOp62
 70
     1
  0
XRECORD
  5
FD6
102
{ACAD_REACTORS
330
FD5
102
}
330
FD5
100
AcDbXrecord
280
     1
102
RTVSPost2010Prop28
280
     0
102
RTVSPost2010PropOp28
 70
     1
102
RTVSPost2010Prop29
280
     1
102
RTVSPost2010PropOp29
 70
     1
102
RTVSPost2010Prop30
280
     1
102
RTVSPost2010PropOp30
 70
     1
102
RTVSPost2010Prop31
280
     0
102
RTVSPost2010PropOp31
 70
     1
102
RTVSPost2010Prop32
280
     0
102
RTVSPost2010PropOp32
 70
     1
102
RTVSPost2010Prop33
280
     0
102
RTVSPost2010PropOp33
 70
     1
102
RTVSPost2010Prop34
280
     0
102
RTVSPost2010PropOp34
 70
     1
102
RTVSPost2010Prop35
280
     0
102
RTVSPost2010PropOp35
 70
     1
102
RTVSPost2010Prop36
280
     0
102
RTVSPost2010PropOp36
 70
     1
102
RTVSPost2010Prop37
 90
       50
102
RTVSPost2010PropOp37
 70
     1
102
RTVSPost2010Prop38
140
0.0
102
RTVSPost2010PropOp38
 70
     1
102
RTVSPost2010Prop39
140
1.0
102
RTVSPost2010PropOp39
 70
     1
102
RTVSPost2010Prop40
 90
        0
102
RTVSPost2010PropOp40
 70
     1
102
RTVSPost2010Prop41ColorIndex
 90
       18
102
RTVSPost2010Prop41ColorRGB
 90
-16777216
102
RTVSPost2010PropOp41
 70
     1
102
RTVSPost2010Prop42
 90
       50
102
RTVSPost2010PropOp42
 70
     1
102
RTVSPost2010Prop43
 90
        3
102
RTVSPost2010PropOp43
 70
     1
102
RTVSPost2010Prop44ColorIndex
 90
        5
102
RTVSPost2010Prop44ColorRGB
 90
      255
102
RTVSPost2010PropOp44
 70
     1
102
RTVSPost2010Prop45
280
     0
102
RTVSPost2010PropOp45
 70
     1
102
RTVSPost2010Prop46
 90
       50
102
RTVSPost2010PropOp46
 70
     1
102
RTVSPost2010Prop47
 90
       50
102
RTVSPost2010PropOp47
 70
     1
102
RTVSPost2010Prop48
 90
       50
102
RTVSPost2010PropOp48
 70
     1
102
RTVSPost2010Prop49
280
     0
102
RTVSPost2010PropOp49
 70
     1
102
RTVSPost2010Prop50
 90
       50
102
RTVSPost2010PropOp50
 70
     1
102
RTVSPost2010Prop51ColorIndex
 90
      256
102
RTVSPost2010Prop51ColorRGB
 90
-16777216
102
RTVSPost2010PropOp51
 70
     0
102
RTVSPost2010Prop52
140
1.0
102
RTVSPost2010PropOp52
 70
     0
102
RTVSPost2010Prop53
 90
        2
102
RTVSPost2010PropOp53
 70
     1
102
RTVSPost2010Prop54
  1
strokes_ogs.tif
102
RTVSPost2010PropOp54
 70
     1
102
RTVSPost2010Prop55
280
     0
102
RTVSPost2010PropOp55
 70
     1
102
RTVSPost2010Prop56
140
1.0
102
RTVSPost2010PropOp56
 70
     1
102
RTVSPost2010Prop57
140
1.0
102
RTVSPost2010PropOp57
 70
     1
102
RTVSPropertyOp0
 70
     1
102
RTVSPropertyOp1
 70
     1
102
RTVSPropertyOp2
 70
     1
102
RTVSPropertyOp3
 70
     1
102
RTVSPropertyOp4
 70
     1
102
RTVSPropertyOp5
 70
     1
102
RTVSPropertyOp6
 70
     1
102
RTVSPropertyOp7
 70
     1
102
RTVSPropertyOp8
 70
     1
102
RTVSPropertyOp9
 70
     1
102
RTVSPropertyOp10
 70
     1
102
RTVSPropertyOp11
 70
     1
102
RTVSPropertyOp12
 70
     1
102
RTVSPropertyOp13
 70
     1
102
RTVSPropertyOp14
 70
     1
102
RTVSPropertyOp15
 70
     1
102
RTVSPropertyOp16
 70
     1
102
RTVSPropertyOp17
 70
     1
102
RTVSPropertyOp18
 70
     1
102
RTVSPropertyOp19
 70
     1
102
RTVSPropertyOp20
 70
     1
102
RTVSPropertyOp21
 70
     1
102
RTVSPropertyOp22
 70
     1
102
RTVSPropertyOp23
 70
     1
102
RTVSPropertyOp24
 70
     1
102
RTVSPropertyOp25
 70
     1
102
RTVSPropertyOp26
 70
     1
102
RTVSPropertyOp27
 70
     1
102
RTVSPropertyOp28
 70
     1
102
RTVSPropertyOp29
 70
     1
102
RTVSPropertyOp30
 70
     1
102
RTVSPropertyOp31
 70
     1
102
RTVSPropertyOp32
 70
     1
102
RTVSPropertyOp33
 70
     1
102
RTVSPropertyOp34
 70
     1
102
RTVSPropertyOp35
 70
     1
102
RTVSPropertyOp36
 70
     1
102
RTVSPropertyOp37
 70
     1
102
RTVSPropertyOp38
 70
     1
102
RTVSPropertyOp39
 70
     1
102
RTVSPropertyOp40
 70
     1
102
RTVSPropertyOp41
 70
     1
102
RTVSPropertyOp42
 70
     1
102
RTVSPropertyOp43
 70
     1
102
RTVSPropertyOp44
 70
     1
102
RTVSPropertyOp45
 70
     1
102
RTVSPropertyOp46
 70
     1
102
RTVSPropertyOp47
 70
     1
102
RTVSPropertyOp48
 70
     1
102
RTVSPropertyOp49
 70
     1
102
RTVSPropertyOp50
 70
     1
102
RTVSPropertyOp51
 70
     0
102
RTVSPropertyOp52
 70
     0
102
RTVSPropertyOp53
 70
     1
102
RTVSPropertyOp54
 70
     1
102
RTVSPropertyOp55
 70
     1
102
RTVSPropertyOp56
 70
     1
102
RTVSPropertyOp57
 70
     1
102
RTVSPropertyOp58
 70
     1
102
RTVSPropertyOp59
 70
     1
102
RTVSPropertyOp60
 70
     1
102
RTVSPropertyOp61
 70
     1
102
RTVSPropertyOp62
 70
     1
  0
XRECORD
  5
FDE
102
{ACAD_REACTORS
330
FDD
102
}
330
FDD
100
AcDbXrecord
280
     1
102
RTVSPost2010Prop28
280
     0
102
RTVSPost2010PropOp28
 70
     1
102
RTVSPost2010Prop29
280
     1
102
RTVSPost2010PropOp29
 70
     1
102
RTVSPost2010Prop30
280
     1
102
RTVSPost2010PropOp30
 70
     1
102
RTVSPost2010Prop31
280
     0
102
RTVSPost2010PropOp31
 70
     1
102
RTVSPost2010Prop32
280
     0
102
RTVSPost2010PropOp32
 70
     1
102
RTVSPost2010Prop33
280
     0
102
RTVSPost2010PropOp33
 70
     1
102
RTVSPost2010Prop34
280
     0
102
RTVSPost2010PropOp34
 70
     1
102
RTVSPost2010Prop35
280
     0
102
RTVSPost2010PropOp35
 70
     1
102
RTVSPost2010Prop36
280
     0
102
RTVSPost2010PropOp36
 70
     1
102
RTVSPost2010Prop37
 90
       50
102
RTVSPost2010PropOp37
 70
     1
102
RTVSPost2010Prop38
140
0.0
102
RTVSPost2010PropOp38
 70
     1
102
RTVSPost2010Prop39
140
1.0
102
RTVSPost2010PropOp39
 70
     1
102
RTVSPost2010Prop40
 90
        0
102
RTVSPost2010PropOp40
 70
     1
102
RTVSPost2010Prop41ColorIndex
 90
       18
102
RTVSPost2010Prop41ColorRGB
 90
-16777216
102
RTVSPost2010PropOp41
 70
     1
102
RTVSPost2010Prop42
 90
       50
102
RTVSPost2010PropOp42
 70
     1
102
RTVSPost2010Prop43
 90
        3
102
RTVSPost2010PropOp43
 70
     1
102
RTVSPost2010Prop44ColorIndex
 90
        5
102
RTVSPost2010Prop44ColorRGB
 90
      255
102
RTVSPost2010PropOp44
 70
     1
102
RTVSPost2010Prop45
280
     0
102
RTVSPost2010PropOp45
 70
     1
102
RTVSPost2010Prop46
 90
       50
102
RTVSPost2010PropOp46
 70
     1
102
RTVSPost2010Prop47
 90
       50
102
RTVSPost2010PropOp47
 70
     1
102
RTVSPost2010Prop48
 90
       50
102
RTVSPost2010PropOp48
 70
     1
102
RTVSPost2010Prop49
280
     0
102
RTVSPost2010PropOp49
 70
     1
102
RTVSPost2010Prop50
 90
       50
102
RTVSPost2010PropOp50
 70
     1
102
RTVSPost2010Prop51ColorIndex
 90
      256
102
RTVSPost2010Prop51ColorRGB
 90
-16777216
102
RTVSPost2010PropOp51
 70
     0
102
RTVSPost2010Prop52
140
1.0
102
RTVSPost2010PropOp52
 70
     0
102
RTVSPost2010Prop53
 90
        2
102
RTVSPost2010PropOp53
 70
     1
102
RTVSPost2010Prop54
  1
strokes_ogs.tif
102
RTVSPost2010PropOp54
 70
     1
102
RTVSPost2010Prop55
280
     0
102
RTVSPost2010PropOp55
 70
     1
102
RTVSPost2010Prop56
140
1.0
102
RTVSPost2010PropOp56
 70
     1
102
RTVSPost2010Prop57
140
1.0
102
RTVSPost2010PropOp57
 70
     1
102
RTVSPropertyOp0
 70
     1
102
RTVSPropertyOp1
 70
     1
102
RTVSPropertyOp2
 70
     1
102
RTVSPropertyOp3
 70
     1
102
RTVSPropertyOp4
 70
     1
102
RTVSPropertyOp5
 70
     1
102
RTVSPropertyOp6
 70
     1
102
RTVSPropertyOp7
 70
     1
102
RTVSPropertyOp8
 70
     1
102
RTVSPropertyOp9
 70
     1
102
RTVSPropertyOp10
 70
     1
102
RTVSPropertyOp11
 70
     1
102
RTVSPropertyOp12
 70
     1
102
RTVSPropertyOp13
 70
     1
102
RTVSPropertyOp14
 70
     1
102
RTVSPropertyOp15
 70
     1
102
RTVSPropertyOp16
 70
     1
102
RTVSPropertyOp17
 70
     1
102
RTVSPropertyOp18
 70
     1
102
RTVSPropertyOp19
 70
     1
102
RTVSPropertyOp20
 70
     1
102
RTVSPropertyOp21
 70
     1
102
RTVSPropertyOp22
 70
     1
102
RTVSPropertyOp23
 70
     1
102
RTVSPropertyOp24
 70
     1
102
RTVSPropertyOp25
 70
     1
102
RTVSPropertyOp26
 70
     1
102
RTVSPropertyOp27
 70
     1
102
RTVSPropertyOp28
 70
     1
102
RTVSPropertyOp29
 70
     1
102
RTVSPropertyOp30
 70
     1
102
RTVSPropertyOp31
 70
     1
102
RTVSPropertyOp32
 70
     1
102
RTVSPropertyOp33
 70
     1
102
RTVSPropertyOp34
 70
     1
102
RTVSPropertyOp35
 70
     1
102
RTVSPropertyOp36
 70
     1
102
RTVSPropertyOp37
 70
     1
102
RTVSPropertyOp38
 70
     1
102
RTVSPropertyOp39
 70
     1
102
RTVSPropertyOp40
 70
     1
102
RTVSPropertyOp41
 70
     1
102
RTVSPropertyOp42
 70
     1
102
RTVSPropertyOp43
 70
     1
102
RTVSPropertyOp44
 70
     1
102
RTVSPropertyOp45
 70
     1
102
RTVSPropertyOp46
 70
     1
102
RTVSPropertyOp47
 70
     1
102
RTVSPropertyOp48
 70
     1
102
RTVSPropertyOp49
 70
     1
102
RTVSPropertyOp50
 70
     1
102
RTVSPropertyOp51
 70
     0
102
RTVSPropertyOp52
 70
     0
102
RTVSPropertyOp53
 70
     1
102
RTVSPropertyOp54
 70
     1
102
RTVSPropertyOp55
 70
     1
102
RTVSPropertyOp56
 70
     1
102
RTVSPropertyOp57
 70
     1
102
RTVSPropertyOp58
 70
     1
102
RTVSPropertyOp59
 70
     1
102
RTVSPropertyOp60
 70
     1
102
RTVSPropertyOp61
 70
     1
102
RTVSPropertyOp62
 70
     1
  0
XRECORD
  5
FFA
102
{ACAD_REACTORS
330
FF9
102
}
330
FF9
100
AcDbXrecord
280
     1
102
RTVSPost2010Prop28
280
     0
102
RTVSPost2010PropOp28
 70
     0
102
RTVSPost2010Prop29
280
     1
102
RTVSPost2010PropOp29
 70
     0
102
RTVSPost2010Prop30
280
     1
102
RTVSPost2010PropOp30
 70
     0
102
RTVSPost2010Prop31
280
     0
102
RTVSPost2010PropOp31
 70
     0
102
RTVSPost2010Prop32
280
     0
102
RTVSPost2010PropOp32
 70
     0
102
RTVSPost2010Prop33
280
     0
102
RTVSPost2010PropOp33
 70
     0
102
RTVSPost2010Prop34
280
     0
102
RTVSPost2010PropOp34
 70
     0
102
RTVSPost2010Prop35
280
     0
102
RTVSPost2010PropOp35
 70
     0
102
RTVSPost2010Prop36
280
     0
102
RTVSPost2010PropOp36
 70
     0
102
RTVSPost2010Prop37
 90
       50
102
RTVSPost2010PropOp37
 70
     0
102
RTVSPost2010Prop38
140
0.0
102
RTVSPost2010PropOp38
 70
     0
102
RTVSPost2010Prop39
140
1.0
102
RTVSPost2010PropOp39
 70
     0
102
RTVSPost2010Prop40
 90
        0
102
RTVSPost2010PropOp40
 70
     0
102
RTVSPost2010Prop41ColorIndex
 90
       18
102
RTVSPost2010Prop41ColorRGB
 90
-16777216
102
RTVSPost2010PropOp41
 70
     0
102
RTVSPost2010Prop42
 90
       50
102
RTVSPost2010PropOp42
 70
     0
102
RTVSPost2010Prop43
 90
        3
102
RTVSPost2010PropOp43
 70
     0
102
RTVSPost2010Prop44ColorIndex
 90
        5
102
RTVSPost2010Prop44ColorRGB
 90
      255
102
RTVSPost2010PropOp44
 70
     0
102
RTVSPost2010Prop45
280
     0
102
RTVSPost2010PropOp45
 70
     0
102
RTVSPost2010Prop46
 90
       50
102
RTVSPost2010PropOp46
 70
     0
102
RTVSPost2010Prop47
 90
       50
102
RTVSPost2010PropOp47
 70
     0
102
RTVSPost2010Prop48
 90
       50
102
RTVSPost2010PropOp48
 70
     0
102
RTVSPost2010Prop49
280
     0
102
RTVSPost2010PropOp49
 70
     0
102
RTVSPost2010Prop50
 90
       50
102
RTVSPost2010PropOp50
 70
     0
102
RTVSPost2010Prop51ColorIndex
 90
      256
102
RTVSPost2010Prop51ColorRGB
 90
-16777216
102
RTVSPost2010PropOp51
 70
     0
102
RTVSPost2010Prop52
140
1.0
102
RTVSPost2010PropOp52
 70
     0
102
RTVSPost2010Prop53
 90
        2
102
RTVSPost2010PropOp53
 70
     0
102
RTVSPost2010Prop54
  1
strokes_ogs.tif
102
RTVSPost2010PropOp54
 70
     0
102
RTVSPost2010Prop55
280
     0
102
RTVSPost2010PropOp55
 70
     0
102
RTVSPost2010Prop56
140
1.0
102
RTVSPost2010PropOp56
 70
     0
102
RTVSPost2010Prop57
140
1.0
102
RTVSPost2010PropOp57
 70
     0
102
RTVSPropertyOp0
 70
     0
102
RTVSPropertyOp1
 70
     0
102
RTVSPropertyOp2
 70
     0
102
RTVSPropertyOp3
 70
     0
102
RTVSPropertyOp4
 70
     0
102
RTVSPropertyOp5
 70
     0
102
RTVSPropertyOp6
 70
     0
102
RTVSPropertyOp7
 70
     0
102
RTVSPropertyOp8
 70
     0
102
RTVSPropertyOp9
 70
     0
102
RTVSPropertyOp10
 70
     0
102
RTVSPropertyOp11
 70
     0
102
RTVSPropertyOp12
 70
     0
102
RTVSPropertyOp13
 70
     0
102
RTVSPropertyOp14
 70
     2
102
RTVSPropertyOp15
 70
     0
102
RTVSPropertyOp16
 70
     0
102
RTVSPropertyOp17
 70
     0
102
RTVSPropertyOp18
 70
     0
102
RTVSPropertyOp19
 70
     0
102
RTVSPropertyOp20
 70
     0
102
RTVSPropertyOp21
 70
     0
102
RTVSPropertyOp22
 70
     0
102
RTVSPropertyOp23
 70
     0
102
RTVSPropertyOp24
 70
     0
102
RTVSPropertyOp25
 70
     0
102
RTVSPropertyOp26
 70
     0
102
RTVSPropertyOp27
 70
     0
102
RTVSPropertyOp28
 70
     0
102
RTVSPropertyOp29
 70
     0
102
RTVSPropertyOp30
 70
     0
102
RTVSPropertyOp31
 70
     0
102
RTVSPropertyOp32
 70
     0
102
RTVSPropertyOp33
 70
     0
102
RTVSPropertyOp34
 70
     0
102
RTVSPropertyOp35
 70
     0
102
RTVSPropertyOp36
 70
     0
102
RTVSPropertyOp37
 70
     0
102
RTVSPropertyOp38
 70
     0
102
RTVSPropertyOp39
 70
     0
102
RTVSPropertyOp40
 70
     0
102
RTVSPropertyOp41
 70
     0
102
RTVSPropertyOp42
 70
     0
102
RTVSPropertyOp43
 70
     0
102
RTVSPropertyOp44
 70
     0
102
RTVSPropertyOp45
 70
     0
102
RTVSPropertyOp46
 70
     0
102
RTVSPropertyOp47
 70
     0
102
RTVSPropertyOp48
 70
     0
102
RTVSPropertyOp49
 70
     0
102
RTVSPropertyOp50
 70
     0
102
RTVSPropertyOp51
 70
     0
102
RTVSPropertyOp52
 70
     0
102
RTVSPropertyOp53
 70
     0
102
RTVSPropertyOp54
 70
     0
102
RTVSPropertyOp55
 70
     0
102
RTVSPropertyOp56
 70
     0
102
RTVSPropertyOp57
 70
     0
102
RTVSPropertyOp58
 70
     1
102
RTVSPropertyOp59
 70
     1
102
RTVSPropertyOp60
 70
     1
102
RTVSPropertyOp61
 70
     1
102
RTVSPropertyOp62
 70
     1
  0
XRECORD
  5
FEA
102
{ACAD_REACTORS
330
FE9
102
}
330
FE9
100
AcDbXrecord
280
     1
102
RTVSPost2010Prop28
280
     0
102
RTVSPost2010PropOp28
 70
     1
102
RTVSPost2010Prop29
280
     1
102
RTVSPost2010PropOp29
 70
     1
102
RTVSPost2010Prop30
280
     1
102
RTVSPost2010PropOp30
 70
     1
102
RTVSPost2010Prop31
280
     0
102
RTVSPost2010PropOp31
 70
     1
102
RTVSPost2010Prop32
280
     0
102
RTVSPost2010PropOp32
 70
     1
102
RTVSPost2010Prop33
280
     0
102
RTVSPost2010PropOp33
 70
     1
102
RTVSPost2010Prop34
280
     0
102
RTVSPost2010PropOp34
 70
     1
102
RTVSPost2010Prop35
280
     0
102
RTVSPost2010PropOp35
 70
     1
102
RTVSPost2010Prop36
280
     0
102
RTVSPost2010PropOp36
 70
     1
102
RTVSPost2010Prop37
 90
       50
102
RTVSPost2010PropOp37
 70
     1
102
RTVSPost2010Prop38
140
0.0
102
RTVSPost2010PropOp38
 70
     1
102
RTVSPost2010Prop39
140
1.0
102
RTVSPost2010PropOp39
 70
     1
102
RTVSPost2010Prop40
 90
        0
102
RTVSPost2010PropOp40
 70
     1
102
RTVSPost2010Prop41ColorIndex
 90
       18
102
RTVSPost2010Prop41ColorRGB
 90
-16777216
102
RTVSPost2010PropOp41
 70
     1
102
RTVSPost2010Prop42
 90
       50
102
RTVSPost2010PropOp42
 70
     1
102
RTVSPost2010Prop43
 90
        3
102
RTVSPost2010PropOp43
 70
     1
102
RTVSPost2010Prop44ColorIndex
 90
        5
102
RTVSPost2010Prop44ColorRGB
 90
      255
102
RTVSPost2010PropOp44
 70
     1
102
RTVSPost2010Prop45
280
     0
102
RTVSPost2010PropOp45
 70
     1
102
RTVSPost2010Prop46
 90
       50
102
RTVSPost2010PropOp46
 70
     1
102
RTVSPost2010Prop47
 90
       50
102
RTVSPost2010PropOp47
 70
     1
102
RTVSPost2010Prop48
 90
       50
102
RTVSPost2010PropOp48
 70
     1
102
RTVSPost2010Prop49
280
     0
102
RTVSPost2010PropOp49
 70
     1
102
RTVSPost2010Prop50
 90
       50
102
RTVSPost2010PropOp50
 70
     1
102
RTVSPost2010Prop51ColorIndex
 90
      256
102
RTVSPost2010Prop51ColorRGB
 90
-16777216
102
RTVSPost2010PropOp51
 70
     0
102
RTVSPost2010Prop52
140
1.0
102
RTVSPost2010PropOp52
 70
     0
102
RTVSPost2010Prop53
 90
        2
102
RTVSPost2010PropOp53
 70
     1
102
RTVSPost2010Prop54
  1
strokes_ogs.tif
102
RTVSPost2010PropOp54
 70
     1
102
RTVSPost2010Prop55
280
     0
102
RTVSPost2010PropOp55
 70
     1
102
RTVSPost2010Prop56
140
1.0
102
RTVSPost2010PropOp56
 70
     1
102
RTVSPost2010Prop57
140
1.0
102
RTVSPost2010PropOp57
 70
     1
102
RTVSPropertyOp0
 70
     1
102
RTVSPropertyOp1
 70
     1
102
RTVSPropertyOp2
 70
     1
102
RTVSPropertyOp3
 70
     1
102
RTVSPropertyOp4
 70
     1
102
RTVSPropertyOp5
 70
     1
102
RTVSPropertyOp6
 70
     1
102
RTVSPropertyOp7
 70
     1
102
RTVSPropertyOp8
 70
     1
102
RTVSPropertyOp9
 70
     1
102
RTVSPropertyOp10
 70
     1
102
RTVSPropertyOp11
 70
     1
102
RTVSPropertyOp12
 70
     1
102
RTVSPropertyOp13
 70
     1
102
RTVSPropertyOp14
 70
     1
102
RTVSPropertyOp15
 70
     1
102
RTVSPropertyOp16
 70
     1
102
RTVSPropertyOp17
 70
     1
102
RTVSPropertyOp18
 70
     1
102
RTVSPropertyOp19
 70
     1
102
RTVSPropertyOp20
 70
     1
102
RTVSPropertyOp21
 70
     1
102
RTVSPropertyOp22
 70
     1
102
RTVSPropertyOp23
 70
     1
102
RTVSPropertyOp24
 70
     1
102
RTVSPropertyOp25
 70
     1
102
RTVSPropertyOp26
 70
     1
102
RTVSPropertyOp27
 70
     1
102
RTVSPropertyOp28
 70
     1
102
RTVSPropertyOp29
 70
     1
102
RTVSPropertyOp30
 70
     1
102
RTVSPropertyOp31
 70
     1
102
RTVSPropertyOp32
 70
     1
102
RTVSPropertyOp33
 70
     1
102
RTVSPropertyOp34
 70
     1
102
RTVSPropertyOp35
 70
     1
102
RTVSPropertyOp36
 70
     1
102
RTVSPropertyOp37
 70
     1
102
RTVSPropertyOp38
 70
     1
102
RTVSPropertyOp39
 70
     1
102
RTVSPropertyOp40
 70
     1
102
RTVSPropertyOp41
 70
     1
102
RTVSPropertyOp42
 70
     1
102
RTVSPropertyOp43
 70
     1
102
RTVSPropertyOp44
 70
     1
102
RTVSPropertyOp45
 70
     1
102
RTVSPropertyOp46
 70
     1
102
RTVSPropertyOp47
 70
     1
102
RTVSPropertyOp48
 70
     1
102
RTVSPropertyOp49
 70
     1
102
RTVSPropertyOp50
 70
     1
102
RTVSPropertyOp51
 70
     0
102
RTVSPropertyOp52
 70
     0
102
RTVSPropertyOp53
 70
     1
102
RTVSPropertyOp54
 70
     1
102
RTVSPropertyOp55
 70
     1
102
RTVSPropertyOp56
 70
     1
102
RTVSPropertyOp57
 70
     1
102
RTVSPropertyOp58
 70
     1
102
RTVSPropertyOp59
 70
     1
102
RTVSPropertyOp60
 70
     1
102
RTVSPropertyOp61
 70
     1
102
RTVSPropertyOp62
 70
     1
  0
XRECORD
  5
FFC
102
{ACAD_REACTORS
330
FFB
102
}
330
FFB
100
AcDbXrecord
280
     1
102
RTVSPost2010Prop28
280
     0
102
RTVSPost2010PropOp28
 70
     0
102
RTVSPost2010Prop29
280
     1
102
RTVSPost2010PropOp29
 70
     0
102
RTVSPost2010Prop30
280
     1
102
RTVSPost2010PropOp30
 70
     0
102
RTVSPost2010Prop31
280
     0
102
RTVSPost2010PropOp31
 70
     0
102
RTVSPost2010Prop32
280
     0
102
RTVSPost2010PropOp32
 70
     0
102
RTVSPost2010Prop33
280
     0
102
RTVSPost2010PropOp33
 70
     0
102
RTVSPost2010Prop34
280
     0
102
RTVSPost2010PropOp34
 70
     0
102
RTVSPost2010Prop35
280
     0
102
RTVSPost2010PropOp35
 70
     0
102
RTVSPost2010Prop36
280
     0
102
RTVSPost2010PropOp36
 70
     0
102
RTVSPost2010Prop37
 90
       50
102
RTVSPost2010PropOp37
 70
     0
102
RTVSPost2010Prop38
140
0.0
102
RTVSPost2010PropOp38
 70
     0
102
RTVSPost2010Prop39
140
1.0
102
RTVSPost2010PropOp39
 70
     0
102
RTVSPost2010Prop40
 90
        0
102
RTVSPost2010PropOp40
 70
     0
102
RTVSPost2010Prop41ColorIndex
 90
       18
102
RTVSPost2010Prop41ColorRGB
 90
-16777216
102
RTVSPost2010PropOp41
 70
     0
102
RTVSPost2010Prop42
 90
       50
102
RTVSPost2010PropOp42
 70
     0
102
RTVSPost2010Prop43
 90
        3
102
RTVSPost2010PropOp43
 70
     0
102
RTVSPost2010Prop44ColorIndex
 90
        5
102
RTVSPost2010Prop44ColorRGB
 90
      255
102
RTVSPost2010PropOp44
 70
     0
102
RTVSPost2010Prop45
280
     0
102
RTVSPost2010PropOp45
 70
     0
102
RTVSPost2010Prop46
 90
       50
102
RTVSPost2010PropOp46
 70
     0
102
RTVSPost2010Prop47
 90
       50
102
RTVSPost2010PropOp47
 70
     0
102
RTVSPost2010Prop48
 90
       50
102
RTVSPost2010PropOp48
 70
     0
102
RTVSPost2010Prop49
280
     0
102
RTVSPost2010PropOp49
 70
     0
102
RTVSPost2010Prop50
 90
       50
102
RTVSPost2010PropOp50
 70
     0
102
RTVSPost2010Prop51ColorIndex
 90
      256
102
RTVSPost2010Prop51ColorRGB
 90
-16777216
102
RTVSPost2010PropOp51
 70
     0
102
RTVSPost2010Prop52
140
1.0
102
RTVSPost2010PropOp52
 70
     0
102
RTVSPost2010Prop53
 90
        2
102
RTVSPost2010PropOp53
 70
     0
102
RTVSPost2010Prop54
  1
strokes_ogs.tif
102
RTVSPost2010PropOp54
 70
     0
102
RTVSPost2010Prop55
280
     0
102
RTVSPost2010PropOp55
 70
     0
102
RTVSPost2010Prop56
140
1.0
102
RTVSPost2010PropOp56
 70
     0
102
RTVSPost2010Prop57
140
1.0
102
RTVSPost2010PropOp57
 70
     0
102
RTVSPropertyOp0
 70
     0
102
RTVSPropertyOp1
 70
     0
102
RTVSPropertyOp2
 70
     0
102
RTVSPropertyOp3
 70
     0
102
RTVSPropertyOp4
 70
     0
102
RTVSPropertyOp5
 70
     0
102
RTVSPropertyOp6
 70
     0
102
RTVSPropertyOp7
 70
     0
102
RTVSPropertyOp8
 70
     0
102
RTVSPropertyOp9
 70
     0
102
RTVSPropertyOp10
 70
     0
102
RTVSPropertyOp11
 70
     0
102
RTVSPropertyOp12
 70
     0
102
RTVSPropertyOp13
 70
     0
102
RTVSPropertyOp14
 70
     2
102
RTVSPropertyOp15
 70
     0
102
RTVSPropertyOp16
 70
     0
102
RTVSPropertyOp17
 70
     0
102
RTVSPropertyOp18
 70
     0
102
RTVSPropertyOp19
 70
     0
102
RTVSPropertyOp20
 70
     0
102
RTVSPropertyOp21
 70
     0
102
RTVSPropertyOp22
 70
     0
102
RTVSPropertyOp23
 70
     0
102
RTVSPropertyOp24
 70
     0
102
RTVSPropertyOp25
 70
     0
102
RTVSPropertyOp26
 70
     0
102
RTVSPropertyOp27
 70
     0
102
RTVSPropertyOp28
 70
     0
102
RTVSPropertyOp29
 70
     0
102
RTVSPropertyOp30
 70
     0
102
RTVSPropertyOp31
 70
     0
102
RTVSPropertyOp32
 70
     0
102
RTVSPropertyOp33
 70
     0
102
RTVSPropertyOp34
 70
     0
102
RTVSPropertyOp35
 70
     0
102
RTVSPropertyOp36
 70
     0
102
RTVSPropertyOp37
 70
     0
102
RTVSPropertyOp38
 70
     0
102
RTVSPropertyOp39
 70
     0
102
RTVSPropertyOp40
 70
     0
102
RTVSPropertyOp41
 70
     0
102
RTVSPropertyOp42
 70
     0
102
RTVSPropertyOp43
 70
     0
102
RTVSPropertyOp44
 70
     0
102
RTVSPropertyOp45
 70
     0
102
RTVSPropertyOp46
 70
     0
102
RTVSPropertyOp47
 70
     0
102
RTVSPropertyOp48
 70
     0
102
RTVSPropertyOp49
 70
     0
102
RTVSPropertyOp50
 70
     0
102
RTVSPropertyOp51
 70
     0
102
RTVSPropertyOp52
 70
     0
102
RTVSPropertyOp53
 70
     0
102
RTVSPropertyOp54
 70
     0
102
RTVSPropertyOp55
 70
     0
102
RTVSPropertyOp56
 70
     0
102
RTVSPropertyOp57
 70
     0
102
RTVSPropertyOp58
 70
     1
102
RTVSPropertyOp59
 70
     1
102
RTVSPropertyOp60
 70
     1
102
RTVSPropertyOp61
 70
     1
102
RTVSPropertyOp62
 70
     1
  0
XRECORD
  5
FE2
102
{ACAD_REACTORS
330
FE1
102
}
330
FE1
100
AcDbXrecord
280
     1
102
RTVSPost2010Prop28
280
     0
102
RTVSPost2010PropOp28
 70
     1
102
RTVSPost2010Prop29
280
     1
102
RTVSPost2010PropOp29
 70
     1
102
RTVSPost2010Prop30
280
     1
102
RTVSPost2010PropOp30
 70
     1
102
RTVSPost2010Prop31
280
     0
102
RTVSPost2010PropOp31
 70
     1
102
RTVSPost2010Prop32
280
     0
102
RTVSPost2010PropOp32
 70
     1
102
RTVSPost2010Prop33
280
     0
102
RTVSPost2010PropOp33
 70
     1
102
RTVSPost2010Prop34
280
     0
102
RTVSPost2010PropOp34
 70
     1
102
RTVSPost2010Prop35
280
     0
102
RTVSPost2010PropOp35
 70
     1
102
RTVSPost2010Prop36
280
     0
102
RTVSPost2010PropOp36
 70
     1
102
RTVSPost2010Prop37
 90
       50
102
RTVSPost2010PropOp37
 70
     1
102
RTVSPost2010Prop38
140
0.0
102
RTVSPost2010PropOp38
 70
     1
102
RTVSPost2010Prop39
140
1.0
102
RTVSPost2010PropOp39
 70
     1
102
RTVSPost2010Prop40
 90
        0
102
RTVSPost2010PropOp40
 70
     1
102
RTVSPost2010Prop41ColorIndex
 90
       18
102
RTVSPost2010Prop41ColorRGB
 90
-16777216
102
RTVSPost2010PropOp41
 70
     1
102
RTVSPost2010Prop42
 90
       50
102
RTVSPost2010PropOp42
 70
     1
102
RTVSPost2010Prop43
 90
        3
102
RTVSPost2010PropOp43
 70
     1
102
RTVSPost2010Prop44ColorIndex
 90
        5
102
RTVSPost2010Prop44ColorRGB
 90
      255
102
RTVSPost2010PropOp44
 70
     1
102
RTVSPost2010Prop45
280
     0
102
RTVSPost2010PropOp45
 70
     1
102
RTVSPost2010Prop46
 90
       50
102
RTVSPost2010PropOp46
 70
     1
102
RTVSPost2010Prop47
 90
       50
102
RTVSPost2010PropOp47
 70
     1
102
RTVSPost2010Prop48
 90
       50
102
RTVSPost2010PropOp48
 70
     1
102
RTVSPost2010Prop49
280
     0
102
RTVSPost2010PropOp49
 70
     1
102
RTVSPost2010Prop50
 90
       50
102
RTVSPost2010PropOp50
 70
     1
102
RTVSPost2010Prop51ColorIndex
 90
      256
102
RTVSPost2010Prop51ColorRGB
 90
-16777216
102
RTVSPost2010PropOp51
 70
     0
102
RTVSPost2010Prop52
140
1.0
102
RTVSPost2010PropOp52
 70
     0
102
RTVSPost2010Prop53
 90
        2
102
RTVSPost2010PropOp53
 70
     1
102
RTVSPost2010Prop54
  1
strokes_ogs.tif
102
RTVSPost2010PropOp54
 70
     1
102
RTVSPost2010Prop55
280
     0
102
RTVSPost2010PropOp55
 70
     1
102
RTVSPost2010Prop56
140
1.0
102
RTVSPost2010PropOp56
 70
     1
102
RTVSPost2010Prop57
140
1.0
102
RTVSPost2010PropOp57
 70
     1
102
RTVSPropertyOp0
 70
     1
102
RTVSPropertyOp1
 70
     1
102
RTVSPropertyOp2
 70
     1
102
RTVSPropertyOp3
 70
     1
102
RTVSPropertyOp4
 70
     1
102
RTVSPropertyOp5
 70
     1
102
RTVSPropertyOp6
 70
     1
102
RTVSPropertyOp7
 70
     1
102
RTVSPropertyOp8
 70
     1
102
RTVSPropertyOp9
 70
     1
102
RTVSPropertyOp10
 70
     1
102
RTVSPropertyOp11
 70
     1
102
RTVSPropertyOp12
 70
     1
102
RTVSPropertyOp13
 70
     1
102
RTVSPropertyOp14
 70
     1
102
RTVSPropertyOp15
 70
     1
102
RTVSPropertyOp16
 70
     1
102
RTVSPropertyOp17
 70
     1
102
RTVSPropertyOp18
 70
     1
102
RTVSPropertyOp19
 70
     1
102
RTVSPropertyOp20
 70
     1
102
RTVSPropertyOp21
 70
     1
102
RTVSPropertyOp22
 70
     1
102
RTVSPropertyOp23
 70
     1
102
RTVSPropertyOp24
 70
     1
102
RTVSPropertyOp25
 70
     1
102
RTVSPropertyOp26
 70
     1
102
RTVSPropertyOp27
 70
     1
102
RTVSPropertyOp28
 70
     1
102
RTVSPropertyOp29
 70
     1
102
RTVSPropertyOp30
 70
     1
102
RTVSPropertyOp31
 70
     1
102
RTVSPropertyOp32
 70
     1
102
RTVSPropertyOp33
 70
     1
102
RTVSPropertyOp34
 70
     1
102
RTVSPropertyOp35
 70
     1
102
RTVSPropertyOp36
 70
     1
102
RTVSPropertyOp37
 70
     1
102
RTVSPropertyOp38
 70
     1
102
RTVSPropertyOp39
 70
     1
102
RTVSPropertyOp40
 70
     1
102
RTVSPropertyOp41
 70
     1
102
RTVSPropertyOp42
 70
     1
102
RTVSPropertyOp43
 70
     1
102
RTVSPropertyOp44
 70
     1
102
RTVSPropertyOp45
 70
     1
102
RTVSPropertyOp46
 70
     1
102
RTVSPropertyOp47
 70
     1
102
RTVSPropertyOp48
 70
     1
102
RTVSPropertyOp49
 70
     1
102
RTVSPropertyOp50
 70
     1
102
RTVSPropertyOp51
 70
     0
102
RTVSPropertyOp52
 70
     0
102
RTVSPropertyOp53
 70
     1
102
RTVSPropertyOp54
 70
     1
102
RTVSPropertyOp55
 70
     1
102
RTVSPropertyOp56
 70
     1
102
RTVSPropertyOp57
 70
     1
102
RTVSPropertyOp58
 70
     1
102
RTVSPropertyOp59
 70
     1
102
RTVSPropertyOp60
 70
     1
102
RTVSPropertyOp61
 70
     1
102
RTVSPropertyOp62
 70
     1
  0
XRECORD
  5
FF8
102
{ACAD_REACTORS
330
FF7
102
}
330
FF7
100
AcDbXrecord
280
     1
102
RTVSPost2010Prop28
280
     0
102
RTVSPost2010PropOp28
 70
     1
102
RTVSPost2010Prop29
280
     1
102
RTVSPost2010PropOp29
 70
     1
102
RTVSPost2010Prop30
280
     1
102
RTVSPost2010PropOp30
 70
     1
102
RTVSPost2010Prop31
280
     0
102
RTVSPost2010PropOp31
 70
     1
102
RTVSPost2010Prop32
280
     0
102
RTVSPost2010PropOp32
 70
     1
102
RTVSPost2010Prop33
280
     0
102
RTVSPost2010PropOp33
 70
     1
102
RTVSPost2010Prop34
280
     0
102
RTVSPost2010PropOp34
 70
     1
102
RTVSPost2010Prop35
280
     0
102
RTVSPost2010PropOp35
 70
     1
102
RTVSPost2010Prop36
280
     0
102
RTVSPost2010PropOp36
 70
     1
102
RTVSPost2010Prop37
 90
       50
102
RTVSPost2010PropOp37
 70
     1
102
RTVSPost2010Prop38
140
0.0
102
RTVSPost2010PropOp38
 70
     1
102
RTVSPost2010Prop39
140
1.0
102
RTVSPost2010PropOp39
 70
     1
102
RTVSPost2010Prop40
 90
        0
102
RTVSPost2010PropOp40
 70
     1
102
RTVSPost2010Prop41ColorIndex
 90
       18
102
RTVSPost2010Prop41ColorRGB
 90
-16777216
102
RTVSPost2010PropOp41
 70
     1
102
RTVSPost2010Prop42
 90
       50
102
RTVSPost2010PropOp42
 70
     1
102
RTVSPost2010Prop43
 90
        3
102
RTVSPost2010PropOp43
 70
     1
102
RTVSPost2010Prop44ColorIndex
 90
        5
102
RTVSPost2010Prop44ColorRGB
 90
      255
102
RTVSPost2010PropOp44
 70
     1
102
RTVSPost2010Prop45
280
     0
102
RTVSPost2010PropOp45
 70
     1
102
RTVSPost2010Prop46
 90
       50
102
RTVSPost2010PropOp46
 70
     1
102
RTVSPost2010Prop47
 90
       50
102
RTVSPost2010PropOp47
 70
     1
102
RTVSPost2010Prop48
 90
       50
102
RTVSPost2010PropOp48
 70
     1
102
RTVSPost2010Prop49
280
     0
102
RTVSPost2010PropOp49
 70
     1
102
RTVSPost2010Prop50
 90
       50
102
RTVSPost2010PropOp50
 70
     1
102
RTVSPost2010Prop51ColorIndex
 90
      256
102
RTVSPost2010Prop51ColorRGB
 90
-16777216
102
RTVSPost2010PropOp51
 70
     0
102
RTVSPost2010Prop52
140
1.0
102
RTVSPost2010PropOp52
 70
     0
102
RTVSPost2010Prop53
 90
        2
102
RTVSPost2010PropOp53
 70
     1
102
RTVSPost2010Prop54
  1
strokes_ogs.tif
102
RTVSPost2010PropOp54
 70
     1
102
RTVSPost2010Prop55
280
     0
102
RTVSPost2010PropOp55
 70
     1
102
RTVSPost2010Prop56
140
1.0
102
RTVSPost2010PropOp56
 70
     1
102
RTVSPost2010Prop57
140
1.0
102
RTVSPost2010PropOp57
 70
     1
102
RTVSPropertyOp0
 70
     1
102
RTVSPropertyOp1
 70
     1
102
RTVSPropertyOp2
 70
     1
102
RTVSPropertyOp3
 70
     1
102
RTVSPropertyOp4
 70
     1
102
RTVSPropertyOp5
 70
     1
102
RTVSPropertyOp6
 70
     1
102
RTVSPropertyOp7
 70
     1
102
RTVSPropertyOp8
 70
     1
102
RTVSPropertyOp9
 70
     1
102
RTVSPropertyOp10
 70
     1
102
RTVSPropertyOp11
 70
     1
102
RTVSPropertyOp12
 70
     1
102
RTVSPropertyOp13
 70
     1
102
RTVSPropertyOp14
 70
     1
102
RTVSPropertyOp15
 70
     1
102
RTVSPropertyOp16
 70
     1
102
RTVSPropertyOp17
 70
     1
102
RTVSPropertyOp18
 70
     1
102
RTVSPropertyOp19
 70
     1
102
RTVSPropertyOp20
 70
     1
102
RTVSPropertyOp21
 70
     1
102
RTVSPropertyOp22
 70
     1
102
RTVSPropertyOp23
 70
     1
102
RTVSPropertyOp24
 70
     1
102
RTVSPropertyOp25
 70
     1
102
RTVSPropertyOp26
 70
     1
102
RTVSPropertyOp27
 70
     1
102
RTVSPropertyOp28
 70
     1
102
RTVSPropertyOp29
 70
     1
102
RTVSPropertyOp30
 70
     1
102
RTVSPropertyOp31
 70
     1
102
RTVSPropertyOp32
 70
     1
102
RTVSPropertyOp33
 70
     1
102
RTVSPropertyOp34
 70
     1
102
RTVSPropertyOp35
 70
     1
102
RTVSPropertyOp36
 70
     1
102
RTVSPropertyOp37
 70
     1
102
RTVSPropertyOp38
 70
     1
102
RTVSPropertyOp39
 70
     1
102
RTVSPropertyOp40
 70
     1
102
RTVSPropertyOp41
 70
     1
102
RTVSPropertyOp42
 70
     1
102
RTVSPropertyOp43
 70
     1
102
RTVSPropertyOp44
 70
     1
102
RTVSPropertyOp45
 70
     1
102
RTVSPropertyOp46
 70
     1
102
RTVSPropertyOp47
 70
     1
102
RTVSPropertyOp48
 70
     1
102
RTVSPropertyOp49
 70
     1
102
RTVSPropertyOp50
 70
     1
102
RTVSPropertyOp51
 70
     0
102
RTVSPropertyOp52
 70
     0
102
RTVSPropertyOp53
 70
     1
102
RTVSPropertyOp54
 70
     1
102
RTVSPropertyOp55
 70
     1
102
RTVSPropertyOp56
 70
     1
102
RTVSPropertyOp57
 70
     1
102
RTVSPropertyOp58
 70
     1
102
RTVSPropertyOp59
 70
     1
102
RTVSPropertyOp60
 70
     1
102
RTVSPropertyOp61
 70
     1
102
RTVSPropertyOp62
 70
     1
  0
XRECORD
  5
FF6
102
{ACAD_REACTORS
330
FF5
102
}
330
FF5
100
AcDbXrecord
280
     1
102
RTVSPost2010Prop28
280
     0
102
RTVSPost2010PropOp28
 70
     1
102
RTVSPost2010Prop29
280
     1
102
RTVSPost2010PropOp29
 70
     1
102
RTVSPost2010Prop30
280
     1
102
RTVSPost2010PropOp30
 70
     1
102
RTVSPost2010Prop31
280
     0
102
RTVSPost2010PropOp31
 70
     1
102
RTVSPost2010Prop32
280
     0
102
RTVSPost2010PropOp32
 70
     1
102
RTVSPost2010Prop33
280
     0
102
RTVSPost2010PropOp33
 70
     1
102
RTVSPost2010Prop34
280
     0
102
RTVSPost2010PropOp34
 70
     1
102
RTVSPost2010Prop35
280
     0
102
RTVSPost2010PropOp35
 70
     1
102
RTVSPost2010Prop36
280
     0
102
RTVSPost2010PropOp36
 70
     1
102
RTVSPost2010Prop37
 90
       50
102
RTVSPost2010PropOp37
 70
     1
102
RTVSPost2010Prop38
140
0.0
102
RTVSPost2010PropOp38
 70
     1
102
RTVSPost2010Prop39
140
1.0
102
RTVSPost2010PropOp39
 70
     1
102
RTVSPost2010Prop40
 90
        0
102
RTVSPost2010PropOp40
 70
     1
102
RTVSPost2010Prop41ColorIndex
 90
       18
102
RTVSPost2010Prop41ColorRGB
 90
-16777216
102
RTVSPost2010PropOp41
 70
     1
102
RTVSPost2010Prop42
 90
       50
102
RTVSPost2010PropOp42
 70
     1
102
RTVSPost2010Prop43
 90
        3
102
RTVSPost2010PropOp43
 70
     1
102
RTVSPost2010Prop44ColorIndex
 90
        5
102
RTVSPost2010Prop44ColorRGB
 90
      255
102
RTVSPost2010PropOp44
 70
     1
102
RTVSPost2010Prop45
280
     0
102
RTVSPost2010PropOp45
 70
     1
102
RTVSPost2010Prop46
 90
       50
102
RTVSPost2010PropOp46
 70
     1
102
RTVSPost2010Prop47
 90
       50
102
RTVSPost2010PropOp47
 70
     1
102
RTVSPost2010Prop48
 90
       50
102
RTVSPost2010PropOp48
 70
     1
102
RTVSPost2010Prop49
280
     0
102
RTVSPost2010PropOp49
 70
     1
102
RTVSPost2010Prop50
 90
       50
102
RTVSPost2010PropOp50
 70
     1
102
RTVSPost2010Prop51ColorIndex
 90
      256
102
RTVSPost2010Prop51ColorRGB
 90
-16777216
102
RTVSPost2010PropOp51
 70
     0
102
RTVSPost2010Prop52
140
1.0
102
RTVSPost2010PropOp52
 70
     0
102
RTVSPost2010Prop53
 90
        2
102
RTVSPost2010PropOp53
 70
     1
102
RTVSPost2010Prop54
  1
strokes_ogs.tif
102
RTVSPost2010PropOp54
 70
     1
102
RTVSPost2010Prop55
280
     0
102
RTVSPost2010PropOp55
 70
     1
102
RTVSPost2010Prop56
140
1.0
102
RTVSPost2010PropOp56
 70
     1
102
RTVSPost2010Prop57
140
1.0
102
RTVSPost2010PropOp57
 70
     1
102
RTVSPropertyOp0
 70
     1
102
RTVSPropertyOp1
 70
     1
102
RTVSPropertyOp2
 70
     1
102
RTVSPropertyOp3
 70
     1
102
RTVSPropertyOp4
 70
     1
102
RTVSPropertyOp5
 70
     1
102
RTVSPropertyOp6
 70
     1
102
RTVSPropertyOp7
 70
     1
102
RTVSPropertyOp8
 70
     1
102
RTVSPropertyOp9
 70
     1
102
RTVSPropertyOp10
 70
     1
102
RTVSPropertyOp11
 70
     1
102
RTVSPropertyOp12
 70
     1
102
RTVSPropertyOp13
 70
     1
102
RTVSPropertyOp14
 70
     1
102
RTVSPropertyOp15
 70
     1
102
RTVSPropertyOp16
 70
     1
102
RTVSPropertyOp17
 70
     1
102
RTVSPropertyOp18
 70
     1
102
RTVSPropertyOp19
 70
     1
102
RTVSPropertyOp20
 70
     1
102
RTVSPropertyOp21
 70
     1
102
RTVSPropertyOp22
 70
     1
102
RTVSPropertyOp23
 70
     1
102
RTVSPropertyOp24
 70
     1
102
RTVSPropertyOp25
 70
     1
102
RTVSPropertyOp26
 70
     1
102
RTVSPropertyOp27
 70
     1
102
RTVSPropertyOp28
 70
     1
102
RTVSPropertyOp29
 70
     1
102
RTVSPropertyOp30
 70
     1
102
RTVSPropertyOp31
 70
     1
102
RTVSPropertyOp32
 70
     1
102
RTVSPropertyOp33
 70
     1
102
RTVSPropertyOp34
 70
     1
102
RTVSPropertyOp35
 70
     1
102
RTVSPropertyOp36
 70
     1
102
RTVSPropertyOp37
 70
     1
102
RTVSPropertyOp38
 70
     1
102
RTVSPropertyOp39
 70
     1
102
RTVSPropertyOp40
 70
     1
102
RTVSPropertyOp41
 70
     1
102
RTVSPropertyOp42
 70
     1
102
RTVSPropertyOp43
 70
     1
102
RTVSPropertyOp44
 70
     1
102
RTVSPropertyOp45
 70
     1
102
RTVSPropertyOp46
 70
     1
102
RTVSPropertyOp47
 70
     1
102
RTVSPropertyOp48
 70
     1
102
RTVSPropertyOp49
 70
     1
102
RTVSPropertyOp50
 70
     1
102
RTVSPropertyOp51
 70
     0
102
RTVSPropertyOp52
 70
     0
102
RTVSPropertyOp53
 70
     1
102
RTVSPropertyOp54
 70
     1
102
RTVSPropertyOp55
 70
     1
102
RTVSPropertyOp56
 70
     1
102
RTVSPropertyOp57
 70
     1
102
RTVSPropertyOp58
 70
     1
102
RTVSPropertyOp59
 70
     1
102
RTVSPropertyOp60
 70
     1
102
RTVSPropertyOp61
 70
     1
102
RTVSPropertyOp62
 70
     1
  0
XRECORD
  5
FF0
102
{ACAD_REACTORS
330
FEF
102
}
330
FEF
100
AcDbXrecord
280
     1
102
RTVSPost2010Prop28
280
     0
102
RTVSPost2010PropOp28
 70
     1
102
RTVSPost2010Prop29
280
     1
102
RTVSPost2010PropOp29
 70
     1
102
RTVSPost2010Prop30
280
     1
102
RTVSPost2010PropOp30
 70
     1
102
RTVSPost2010Prop31
280
     0
102
RTVSPost2010PropOp31
 70
     1
102
RTVSPost2010Prop32
280
     0
102
RTVSPost2010PropOp32
 70
     1
102
RTVSPost2010Prop33
280
     0
102
RTVSPost2010PropOp33
 70
     1
102
RTVSPost2010Prop34
280
     0
102
RTVSPost2010PropOp34
 70
     1
102
RTVSPost2010Prop35
280
     0
102
RTVSPost2010PropOp35
 70
     1
102
RTVSPost2010Prop36
280
     0
102
RTVSPost2010PropOp36
 70
     1
102
RTVSPost2010Prop37
 90
       50
102
RTVSPost2010PropOp37
 70
     1
102
RTVSPost2010Prop38
140
0.0
102
RTVSPost2010PropOp38
 70
     1
102
RTVSPost2010Prop39
140
1.0
102
RTVSPost2010PropOp39
 70
     1
102
RTVSPost2010Prop40
 90
        0
102
RTVSPost2010PropOp40
 70
     1
102
RTVSPost2010Prop41ColorIndex
 90
       18
102
RTVSPost2010Prop41ColorRGB
 90
-16777216
102
RTVSPost2010PropOp41
 70
     1
102
RTVSPost2010Prop42
 90
       50
102
RTVSPost2010PropOp42
 70
     1
102
RTVSPost2010Prop43
 90
        3
102
RTVSPost2010PropOp43
 70
     1
102
RTVSPost2010Prop44ColorIndex
 90
        5
102
RTVSPost2010Prop44ColorRGB
 90
      255
102
RTVSPost2010PropOp44
 70
     1
102
RTVSPost2010Prop45
280
     0
102
RTVSPost2010PropOp45
 70
     1
102
RTVSPost2010Prop46
 90
       50
102
RTVSPost2010PropOp46
 70
     1
102
RTVSPost2010Prop47
 90
       50
102
RTVSPost2010PropOp47
 70
     1
102
RTVSPost2010Prop48
 90
       50
102
RTVSPost2010PropOp48
 70
     1
102
RTVSPost2010Prop49
280
     0
102
RTVSPost2010PropOp49
 70
     1
102
RTVSPost2010Prop50
 90
       50
102
RTVSPost2010PropOp50
 70
     1
102
RTVSPost2010Prop51ColorIndex
 90
      256
102
RTVSPost2010Prop51ColorRGB
 90
-16777216
102
RTVSPost2010PropOp51
 70
     0
102
RTVSPost2010Prop52
140
1.0
102
RTVSPost2010PropOp52
 70
     0
102
RTVSPost2010Prop53
 90
        2
102
RTVSPost2010PropOp53
 70
     1
102
RTVSPost2010Prop54
  1
strokes_ogs.tif
102
RTVSPost2010PropOp54
 70
     1
102
RTVSPost2010Prop55
280
     0
102
RTVSPost2010PropOp55
 70
     1
102
RTVSPost2010Prop56
140
1.0
102
RTVSPost2010PropOp56
 70
     1
102
RTVSPost2010Prop57
140
1.0
102
RTVSPost2010PropOp57
 70
     1
102
RTVSPropertyOp0
 70
     1
102
RTVSPropertyOp1
 70
     1
102
RTVSPropertyOp2
 70
     1
102
RTVSPropertyOp3
 70
     1
102
RTVSPropertyOp4
 70
     1
102
RTVSPropertyOp5
 70
     1
102
RTVSPropertyOp6
 70
     1
102
RTVSPropertyOp7
 70
     1
102
RTVSPropertyOp8
 70
     1
102
RTVSPropertyOp9
 70
     1
102
RTVSPropertyOp10
 70
     1
102
RTVSPropertyOp11
 70
     1
102
RTVSPropertyOp12
 70
     1
102
RTVSPropertyOp13
 70
     1
102
RTVSPropertyOp14
 70
     1
102
RTVSPropertyOp15
 70
     1
102
RTVSPropertyOp16
 70
     1
102
RTVSPropertyOp17
 70
     1
102
RTVSPropertyOp18
 70
     1
102
RTVSPropertyOp19
 70
     1
102
RTVSPropertyOp20
 70
     1
102
RTVSPropertyOp21
 70
     1
102
RTVSPropertyOp22
 70
     1
102
RTVSPropertyOp23
 70
     1
102
RTVSPropertyOp24
 70
     1
102
RTVSPropertyOp25
 70
     1
102
RTVSPropertyOp26
 70
     1
102
RTVSPropertyOp27
 70
     1
102
RTVSPropertyOp28
 70
     1
102
RTVSPropertyOp29
 70
     1
102
RTVSPropertyOp30
 70
     1
102
RTVSPropertyOp31
 70
     1
102
RTVSPropertyOp32
 70
     1
102
RTVSPropertyOp33
 70
     1
102
RTVSPropertyOp34
 70
     1
102
RTVSPropertyOp35
 70
     1
102
RTVSPropertyOp36
 70
     1
102
RTVSPropertyOp37
 70
     1
102
RTVSPropertyOp38
 70
     1
102
RTVSPropertyOp39
 70
     1
102
RTVSPropertyOp40
 70
     1
102
RTVSPropertyOp41
 70
     1
102
RTVSPropertyOp42
 70
     1
102
RTVSPropertyOp43
 70
     1
102
RTVSPropertyOp44
 70
     1
102
RTVSPropertyOp45
 70
     1
102
RTVSPropertyOp46
 70
     1
102
RTVSPropertyOp47
 70
     1
102
RTVSPropertyOp48
 70
     1
102
RTVSPropertyOp49
 70
     1
102
RTVSPropertyOp50
 70
     1
102
RTVSPropertyOp51
 70
     0
102
RTVSPropertyOp52
 70
     0
102
RTVSPropertyOp53
 70
     1
102
RTVSPropertyOp54
 70
     1
102
RTVSPropertyOp55
 70
     1
102
RTVSPropertyOp56
 70
     1
102
RTVSPropertyOp57
 70
     1
102
RTVSPropertyOp58
 70
     1
102
RTVSPropertyOp59
 70
     1
102
RTVSPropertyOp60
 70
     1
102
RTVSPropertyOp61
 70
     1
102
RTVSPropertyOp62
 70
     1
  0
XRECORD
  5
FF2
102
{ACAD_REACTORS
330
FF1
102
}
330
FF1
100
AcDbXrecord
280
     1
102
RTVSPost2010Prop28
280
     0
102
RTVSPost2010PropOp28
 70
     1
102
RTVSPost2010Prop29
280
     1
102
RTVSPost2010PropOp29
 70
     1
102
RTVSPost2010Prop30
280
     1
102
RTVSPost2010PropOp30
 70
     1
102
RTVSPost2010Prop31
280
     0
102
RTVSPost2010PropOp31
 70
     1
102
RTVSPost2010Prop32
280
     0
102
RTVSPost2010PropOp32
 70
     1
102
RTVSPost2010Prop33
280
     0
102
RTVSPost2010PropOp33
 70
     1
102
RTVSPost2010Prop34
280
     0
102
RTVSPost2010PropOp34
 70
     1
102
RTVSPost2010Prop35
280
     0
102
RTVSPost2010PropOp35
 70
     1
102
RTVSPost2010Prop36
280
     0
102
RTVSPost2010PropOp36
 70
     1
102
RTVSPost2010Prop37
 90
       50
102
RTVSPost2010PropOp37
 70
     1
102
RTVSPost2010Prop38
140
0.0
102
RTVSPost2010PropOp38
 70
     1
102
RTVSPost2010Prop39
140
1.0
102
RTVSPost2010PropOp39
 70
     1
102
RTVSPost2010Prop40
 90
        0
102
RTVSPost2010PropOp40
 70
     1
102
RTVSPost2010Prop41ColorIndex
 90
       18
102
RTVSPost2010Prop41ColorRGB
 90
-16777216
102
RTVSPost2010PropOp41
 70
     1
102
RTVSPost2010Prop42
 90
       50
102
RTVSPost2010PropOp42
 70
     1
102
RTVSPost2010Prop43
 90
        3
102
RTVSPost2010PropOp43
 70
     1
102
RTVSPost2010Prop44ColorIndex
 90
        5
102
RTVSPost2010Prop44ColorRGB
 90
      255
102
RTVSPost2010PropOp44
 70
     1
102
RTVSPost2010Prop45
280
     0
102
RTVSPost2010PropOp45
 70
     1
102
RTVSPost2010Prop46
 90
       50
102
RTVSPost2010PropOp46
 70
     1
102
RTVSPost2010Prop47
 90
       50
102
RTVSPost2010PropOp47
 70
     1
102
RTVSPost2010Prop48
 90
       50
102
RTVSPost2010PropOp48
 70
     1
102
RTVSPost2010Prop49
280
     0
102
RTVSPost2010PropOp49
 70
     1
102
RTVSPost2010Prop50
 90
       50
102
RTVSPost2010PropOp50
 70
     1
102
RTVSPost2010Prop51ColorIndex
 90
      256
102
RTVSPost2010Prop51ColorRGB
 90
-16777216
102
RTVSPost2010PropOp51
 70
     0
102
RTVSPost2010Prop52
140
1.0
102
RTVSPost2010PropOp52
 70
     0
102
RTVSPost2010Prop53
 90
        2
102
RTVSPost2010PropOp53
 70
     1
102
RTVSPost2010Prop54
  1
strokes_ogs.tif
102
RTVSPost2010PropOp54
 70
     1
102
RTVSPost2010Prop55
280
     0
102
RTVSPost2010PropOp55
 70
     1
102
RTVSPost2010Prop56
140
1.0
102
RTVSPost2010PropOp56
 70
     1
102
RTVSPost2010Prop57
140
1.0
102
RTVSPost2010PropOp57
 70
     1
102
RTVSPropertyOp0
 70
     1
102
RTVSPropertyOp1
 70
     1
102
RTVSPropertyOp2
 70
     1
102
RTVSPropertyOp3
 70
     1
102
RTVSPropertyOp4
 70
     1
102
RTVSPropertyOp5
 70
     1
102
RTVSPropertyOp6
 70
     1
102
RTVSPropertyOp7
 70
     1
102
RTVSPropertyOp8
 70
     1
102
RTVSPropertyOp9
 70
     1
102
RTVSPropertyOp10
 70
     1
102
RTVSPropertyOp11
 70
     1
102
RTVSPropertyOp12
 70
     1
102
RTVSPropertyOp13
 70
     1
102
RTVSPropertyOp14
 70
     1
102
RTVSPropertyOp15
 70
     1
102
RTVSPropertyOp16
 70
     1
102
RTVSPropertyOp17
 70
     1
102
RTVSPropertyOp18
 70
     1
102
RTVSPropertyOp19
 70
     1
102
RTVSPropertyOp20
 70
     1
102
RTVSPropertyOp21
 70
     1
102
RTVSPropertyOp22
 70
     1
102
RTVSPropertyOp23
 70
     1
102
RTVSPropertyOp24
 70
     1
102
RTVSPropertyOp25
 70
     1
102
RTVSPropertyOp26
 70
     1
102
RTVSPropertyOp27
 70
     1
102
RTVSPropertyOp28
 70
     1
102
RTVSPropertyOp29
 70
     1
102
RTVSPropertyOp30
 70
     1
102
RTVSPropertyOp31
 70
     1
102
RTVSPropertyOp32
 70
     1
102
RTVSPropertyOp33
 70
     1
102
RTVSPropertyOp34
 70
     1
102
RTVSPropertyOp35
 70
     1
102
RTVSPropertyOp36
 70
     1
102
RTVSPropertyOp37
 70
     1
102
RTVSPropertyOp38
 70
     1
102
RTVSPropertyOp39
 70
     1
102
RTVSPropertyOp40
 70
     1
102
RTVSPropertyOp41
 70
     1
102
RTVSPropertyOp42
 70
     1
102
RTVSPropertyOp43
 70
     1
102
RTVSPropertyOp44
 70
     1
102
RTVSPropertyOp45
 70
     1
102
RTVSPropertyOp46
 70
     1
102
RTVSPropertyOp47
 70
     1
102
RTVSPropertyOp48
 70
     1
102
RTVSPropertyOp49
 70
     1
102
RTVSPropertyOp50
 70
     1
102
RTVSPropertyOp51
 70
     0
102
RTVSPropertyOp52
 70
     0
102
RTVSPropertyOp53
 70
     1
102
RTVSPropertyOp54
 70
     1
102
RTVSPropertyOp55
 70
     1
102
RTVSPropertyOp56
 70
     1
102
RTVSPropertyOp57
 70
     1
102
RTVSPropertyOp58
 70
     1
102
RTVSPropertyOp59
 70
     1
102
RTVSPropertyOp60
 70
     1
102
RTVSPropertyOp61
 70
     1
102
RTVSPropertyOp62
 70
     1
  0
XRECORD
  5
FE8
102
{ACAD_REACTORS
330
FE7
102
}
330
FE7
100
AcDbXrecord
280
     1
102
RTVSPost2010Prop28
280
     0
102
RTVSPost2010PropOp28
 70
     1
102
RTVSPost2010Prop29
280
     1
102
RTVSPost2010PropOp29
 70
     1
102
RTVSPost2010Prop30
280
     1
102
RTVSPost2010PropOp30
 70
     1
102
RTVSPost2010Prop31
280
     0
102
RTVSPost2010PropOp31
 70
     1
102
RTVSPost2010Prop32
280
     0
102
RTVSPost2010PropOp32
 70
     1
102
RTVSPost2010Prop33
280
     0
102
RTVSPost2010PropOp33
 70
     1
102
RTVSPost2010Prop34
280
     0
102
RTVSPost2010PropOp34
 70
     1
102
RTVSPost2010Prop35
280
     0
102
RTVSPost2010PropOp35
 70
     1
102
RTVSPost2010Prop36
280
     0
102
RTVSPost2010PropOp36
 70
     1
102
RTVSPost2010Prop37
 90
       50
102
RTVSPost2010PropOp37
 70
     1
102
RTVSPost2010Prop38
140
0.0
102
RTVSPost2010PropOp38
 70
     1
102
RTVSPost2010Prop39
140
1.0
102
RTVSPost2010PropOp39
 70
     1
102
RTVSPost2010Prop40
 90
        0
102
RTVSPost2010PropOp40
 70
     1
102
RTVSPost2010Prop41ColorIndex
 90
       18
102
RTVSPost2010Prop41ColorRGB
 90
-16777216
102
RTVSPost2010PropOp41
 70
     1
102
RTVSPost2010Prop42
 90
       50
102
RTVSPost2010PropOp42
 70
     1
102
RTVSPost2010Prop43
 90
        3
102
RTVSPost2010PropOp43
 70
     1
102
RTVSPost2010Prop44ColorIndex
 90
        5
102
RTVSPost2010Prop44ColorRGB
 90
      255
102
RTVSPost2010PropOp44
 70
     1
102
RTVSPost2010Prop45
280
     0
102
RTVSPost2010PropOp45
 70
     1
102
RTVSPost2010Prop46
 90
       50
102
RTVSPost2010PropOp46
 70
     1
102
RTVSPost2010Prop47
 90
       50
102
RTVSPost2010PropOp47
 70
     1
102
RTVSPost2010Prop48
 90
       50
102
RTVSPost2010PropOp48
 70
     1
102
RTVSPost2010Prop49
280
     0
102
RTVSPost2010PropOp49
 70
     1
102
RTVSPost2010Prop50
 90
       50
102
RTVSPost2010PropOp50
 70
     1
102
RTVSPost2010Prop51ColorIndex
 90
      256
102
RTVSPost2010Prop51ColorRGB
 90
-16777216
102
RTVSPost2010PropOp51
 70
     0
102
RTVSPost2010Prop52
140
1.0
102
RTVSPost2010PropOp52
 70
     0
102
RTVSPost2010Prop53
 90
        2
102
RTVSPost2010PropOp53
 70
     1
102
RTVSPost2010Prop54
  1
strokes_ogs.tif
102
RTVSPost2010PropOp54
 70
     1
102
RTVSPost2010Prop55
280
     0
102
RTVSPost2010PropOp55
 70
     1
102
RTVSPost2010Prop56
140
1.0
102
RTVSPost2010PropOp56
 70
     1
102
RTVSPost2010Prop57
140
1.0
102
RTVSPost2010PropOp57
 70
     1
102
RTVSPropertyOp0
 70
     1
102
RTVSPropertyOp1
 70
     1
102
RTVSPropertyOp2
 70
     1
102
RTVSPropertyOp3
 70
     1
102
RTVSPropertyOp4
 70
     1
102
RTVSPropertyOp5
 70
     1
102
RTVSPropertyOp6
 70
     1
102
RTVSPropertyOp7
 70
     1
102
RTVSPropertyOp8
 70
     1
102
RTVSPropertyOp9
 70
     1
102
RTVSPropertyOp10
 70
     1
102
RTVSPropertyOp11
 70
     1
102
RTVSPropertyOp12
 70
     1
102
RTVSPropertyOp13
 70
     1
102
RTVSPropertyOp14
 70
     1
102
RTVSPropertyOp15
 70
     1
102
RTVSPropertyOp16
 70
     1
102
RTVSPropertyOp17
 70
     1
102
RTVSPropertyOp18
 70
     1
102
RTVSPropertyOp19
 70
     1
102
RTVSPropertyOp20
 70
     1
102
RTVSPropertyOp21
 70
     1
102
RTVSPropertyOp22
 70
     1
102
RTVSPropertyOp23
 70
     1
102
RTVSPropertyOp24
 70
     1
102
RTVSPropertyOp25
 70
     1
102
RTVSPropertyOp26
 70
     1
102
RTVSPropertyOp27
 70
     1
102
RTVSPropertyOp28
 70
     1
102
RTVSPropertyOp29
 70
     1
102
RTVSPropertyOp30
 70
     1
102
RTVSPropertyOp31
 70
     1
102
RTVSPropertyOp32
 70
     1
102
RTVSPropertyOp33
 70
     1
102
RTVSPropertyOp34
 70
     1
102
RTVSPropertyOp35
 70
     1
102
RTVSPropertyOp36
 70
     1
102
RTVSPropertyOp37
 70
     1
102
RTVSPropertyOp38
 70
     1
102
RTVSPropertyOp39
 70
     1
102
RTVSPropertyOp40
 70
     1
102
RTVSPropertyOp41
 70
     1
102
RTVSPropertyOp42
 70
     1
102
RTVSPropertyOp43
 70
     1
102
RTVSPropertyOp44
 70
     1
102
RTVSPropertyOp45
 70
     1
102
RTVSPropertyOp46
 70
     1
102
RTVSPropertyOp47
 70
     1
102
RTVSPropertyOp48
 70
     1
102
RTVSPropertyOp49
 70
     1
102
RTVSPropertyOp50
 70
     1
102
RTVSPropertyOp51
 70
     0
102
RTVSPropertyOp52
 70
     0
102
RTVSPropertyOp53
 70
     1
102
RTVSPropertyOp54
 70
     1
102
RTVSPropertyOp55
 70
     1
102
RTVSPropertyOp56
 70
     1
102
RTVSPropertyOp57
 70
     1
102
RTVSPropertyOp58
 70
     1
102
RTVSPropertyOp59
 70
     1
102
RTVSPropertyOp60
 70
     1
102
RTVSPropertyOp61
 70
     1
102
RTVSPropertyOp62
 70
     1
  0
XRECORD
  5
FDC
102
{ACAD_REACTORS
330
FDB
102
}
330
FDB
100
AcDbXrecord
280
     1
102
RTVSPost2010Prop28
280
     0
102
RTVSPost2010PropOp28
 70
     1
102
RTVSPost2010Prop29
280
     1
102
RTVSPost2010PropOp29
 70
     1
102
RTVSPost2010Prop30
280
     1
102
RTVSPost2010PropOp30
 70
     1
102
RTVSPost2010Prop31
280
     0
102
RTVSPost2010PropOp31
 70
     1
102
RTVSPost2010Prop32
280
     0
102
RTVSPost2010PropOp32
 70
     1
102
RTVSPost2010Prop33
280
     0
102
RTVSPost2010PropOp33
 70
     1
102
RTVSPost2010Prop34
280
     0
102
RTVSPost2010PropOp34
 70
     1
102
RTVSPost2010Prop35
280
     0
102
RTVSPost2010PropOp35
 70
     1
102
RTVSPost2010Prop36
280
     0
102
RTVSPost2010PropOp36
 70
     1
102
RTVSPost2010Prop37
 90
       50
102
RTVSPost2010PropOp37
 70
     1
102
RTVSPost2010Prop38
140
0.0
102
RTVSPost2010PropOp38
 70
     1
102
RTVSPost2010Prop39
140
1.0
102
RTVSPost2010PropOp39
 70
     1
102
RTVSPost2010Prop40
 90
        0
102
RTVSPost2010PropOp40
 70
     1
102
RTVSPost2010Prop41ColorIndex
 90
       18
102
RTVSPost2010Prop41ColorRGB
 90
-16777216
102
RTVSPost2010PropOp41
 70
     1
102
RTVSPost2010Prop42
 90
       50
102
RTVSPost2010PropOp42
 70
     1
102
RTVSPost2010Prop43
 90
        3
102
RTVSPost2010PropOp43
 70
     1
102
RTVSPost2010Prop44ColorIndex
 90
        5
102
RTVSPost2010Prop44ColorRGB
 90
      255
102
RTVSPost2010PropOp44
 70
     1
102
RTVSPost2010Prop45
280
     0
102
RTVSPost2010PropOp45
 70
     1
102
RTVSPost2010Prop46
 90
       50
102
RTVSPost2010PropOp46
 70
     1
102
RTVSPost2010Prop47
 90
       50
102
RTVSPost2010PropOp47
 70
     1
102
RTVSPost2010Prop48
 90
       50
102
RTVSPost2010PropOp48
 70
     1
102
RTVSPost2010Prop49
280
     0
102
RTVSPost2010PropOp49
 70
     1
102
RTVSPost2010Prop50
 90
       50
102
RTVSPost2010PropOp50
 70
     1
102
RTVSPost2010Prop51ColorIndex
 90
      256
102
RTVSPost2010Prop51ColorRGB
 90
-16777216
102
RTVSPost2010PropOp51
 70
     0
102
RTVSPost2010Prop52
140
1.0
102
RTVSPost2010PropOp52
 70
     0
102
RTVSPost2010Prop53
 90
        2
102
RTVSPost2010PropOp53
 70
     1
102
RTVSPost2010Prop54
  1
strokes_ogs.tif
102
RTVSPost2010PropOp54
 70
     1
102
RTVSPost2010Prop55
280
     0
102
RTVSPost2010PropOp55
 70
     1
102
RTVSPost2010Prop56
140
1.0
102
RTVSPost2010PropOp56
 70
     1
102
RTVSPost2010Prop57
140
1.0
102
RTVSPost2010PropOp57
 70
     1
102
RTVSPropertyOp0
 70
     1
102
RTVSPropertyOp1
 70
     1
102
RTVSPropertyOp2
 70
     1
102
RTVSPropertyOp3
 70
     1
102
RTVSPropertyOp4
 70
     1
102
RTVSPropertyOp5
 70
     1
102
RTVSPropertyOp6
 70
     1
102
RTVSPropertyOp7
 70
     1
102
RTVSPropertyOp8
 70
     1
102
RTVSPropertyOp9
 70
     1
102
RTVSPropertyOp10
 70
     1
102
RTVSPropertyOp11
 70
     1
102
RTVSPropertyOp12
 70
     1
102
RTVSPropertyOp13
 70
     1
102
RTVSPropertyOp14
 70
     1
102
RTVSPropertyOp15
 70
     1
102
RTVSPropertyOp16
 70
     1
102
RTVSPropertyOp17
 70
     1
102
RTVSPropertyOp18
 70
     1
102
RTVSPropertyOp19
 70
     1
102
RTVSPropertyOp20
 70
     1
102
RTVSPropertyOp21
 70
     1
102
RTVSPropertyOp22
 70
     1
102
RTVSPropertyOp23
 70
     1
102
RTVSPropertyOp24
 70
     1
102
RTVSPropertyOp25
 70
     1
102
RTVSPropertyOp26
 70
     1
102
RTVSPropertyOp27
 70
     1
102
RTVSPropertyOp28
 70
     1
102
RTVSPropertyOp29
 70
     1
102
RTVSPropertyOp30
 70
     1
102
RTVSPropertyOp31
 70
     1
102
RTVSPropertyOp32
 70
     1
102
RTVSPropertyOp33
 70
     1
102
RTVSPropertyOp34
 70
     1
102
RTVSPropertyOp35
 70
     1
102
RTVSPropertyOp36
 70
     1
102
RTVSPropertyOp37
 70
     1
102
RTVSPropertyOp38
 70
     1
102
RTVSPropertyOp39
 70
     1
102
RTVSPropertyOp40
 70
     1
102
RTVSPropertyOp41
 70
     1
102
RTVSPropertyOp42
 70
     1
102
RTVSPropertyOp43
 70
     1
102
RTVSPropertyOp44
 70
     1
102
RTVSPropertyOp45
 70
     1
102
RTVSPropertyOp46
 70
     1
102
RTVSPropertyOp47
 70
     1
102
RTVSPropertyOp48
 70
     1
102
RTVSPropertyOp49
 70
     1
102
RTVSPropertyOp50
 70
     1
102
RTVSPropertyOp51
 70
     0
102
RTVSPropertyOp52
 70
     0
102
RTVSPropertyOp53
 70
     1
102
RTVSPropertyOp54
 70
     1
102
RTVSPropertyOp55
 70
     1
102
RTVSPropertyOp56
 70
     1
102
RTVSPropertyOp57
 70
     1
102
RTVSPropertyOp58
 70
     1
102
RTVSPropertyOp59
 70
     1
102
RTVSPropertyOp60
 70
     1
102
RTVSPropertyOp61
 70
     1
102
RTVSPropertyOp62
 70
     1
  0
XRECORD
  5
FF4
102
{ACAD_REACTORS
330
FF3
102
}
330
FF3
100
AcDbXrecord
280
     1
102
RTVSPost2010Prop28
280
     0
102
RTVSPost2010PropOp28
 70
     1
102
RTVSPost2010Prop29
280
     1
102
RTVSPost2010PropOp29
 70
     1
102
RTVSPost2010Prop30
280
     1
102
RTVSPost2010PropOp30
 70
     1
102
RTVSPost2010Prop31
280
     0
102
RTVSPost2010PropOp31
 70
     1
102
RTVSPost2010Prop32
280
     0
102
RTVSPost2010PropOp32
 70
     1
102
RTVSPost2010Prop33
280
     0
102
RTVSPost2010PropOp33
 70
     1
102
RTVSPost2010Prop34
280
     0
102
RTVSPost2010PropOp34
 70
     1
102
RTVSPost2010Prop35
280
     0
102
RTVSPost2010PropOp35
 70
     1
102
RTVSPost2010Prop36
280
     0
102
RTVSPost2010PropOp36
 70
     1
102
RTVSPost2010Prop37
 90
       50
102
RTVSPost2010PropOp37
 70
     1
102
RTVSPost2010Prop38
140
0.0
102
RTVSPost2010PropOp38
 70
     1
102
RTVSPost2010Prop39
140
1.0
102
RTVSPost2010PropOp39
 70
     1
102
RTVSPost2010Prop40
 90
        0
102
RTVSPost2010PropOp40
 70
     1
102
RTVSPost2010Prop41ColorIndex
 90
       18
102
RTVSPost2010Prop41ColorRGB
 90
-16777216
102
RTVSPost2010PropOp41
 70
     1
102
RTVSPost2010Prop42
 90
       50
102
RTVSPost2010PropOp42
 70
     1
102
RTVSPost2010Prop43
 90
        3
102
RTVSPost2010PropOp43
 70
     1
102
RTVSPost2010Prop44ColorIndex
 90
        5
102
RTVSPost2010Prop44ColorRGB
 90
      255
102
RTVSPost2010PropOp44
 70
     1
102
RTVSPost2010Prop45
280
     0
102
RTVSPost2010PropOp45
 70
     1
102
RTVSPost2010Prop46
 90
       50
102
RTVSPost2010PropOp46
 70
     1
102
RTVSPost2010Prop47
 90
       50
102
RTVSPost2010PropOp47
 70
     1
102
RTVSPost2010Prop48
 90
       50
102
RTVSPost2010PropOp48
 70
     1
102
RTVSPost2010Prop49
280
     0
102
RTVSPost2010PropOp49
 70
     1
102
RTVSPost2010Prop50
 90
       50
102
RTVSPost2010PropOp50
 70
     1
102
RTVSPost2010Prop51ColorIndex
 90
      256
102
RTVSPost2010Prop51ColorRGB
 90
-16777216
102
RTVSPost2010PropOp51
 70
     0
102
RTVSPost2010Prop52
140
1.0
102
RTVSPost2010PropOp52
 70
     0
102
RTVSPost2010Prop53
 90
        2
102
RTVSPost2010PropOp53
 70
     1
102
RTVSPost2010Prop54
  1
strokes_ogs.tif
102
RTVSPost2010PropOp54
 70
     1
102
RTVSPost2010Prop55
280
     0
102
RTVSPost2010PropOp55
 70
     1
102
RTVSPost2010Prop56
140
1.0
102
RTVSPost2010PropOp56
 70
     1
102
RTVSPost2010Prop57
140
1.0
102
RTVSPost2010PropOp57
 70
     1
102
RTVSPropertyOp0
 70
     1
102
RTVSPropertyOp1
 70
     1
102
RTVSPropertyOp2
 70
     1
102
RTVSPropertyOp3
 70
     1
102
RTVSPropertyOp4
 70
     1
102
RTVSPropertyOp5
 70
     1
102
RTVSPropertyOp6
 70
     1
102
RTVSPropertyOp7
 70
     1
102
RTVSPropertyOp8
 70
     1
102
RTVSPropertyOp9
 70
     1
102
RTVSPropertyOp10
 70
     1
102
RTVSPropertyOp11
 70
     1
102
RTVSPropertyOp12
 70
     1
102
RTVSPropertyOp13
 70
     1
102
RTVSPropertyOp14
 70
     1
102
RTVSPropertyOp15
 70
     1
102
RTVSPropertyOp16
 70
     1
102
RTVSPropertyOp17
 70
     1
102
RTVSPropertyOp18
 70
     1
102
RTVSPropertyOp19
 70
     1
102
RTVSPropertyOp20
 70
     1
102
RTVSPropertyOp21
 70
     1
102
RTVSPropertyOp22
 70
     1
102
RTVSPropertyOp23
 70
     1
102
RTVSPropertyOp24
 70
     1
102
RTVSPropertyOp25
 70
     1
102
RTVSPropertyOp26
 70
     1
102
RTVSPropertyOp27
 70
     1
102
RTVSPropertyOp28
 70
     1
102
RTVSPropertyOp29
 70
     1
102
RTVSPropertyOp30
 70
     1
102
RTVSPropertyOp31
 70
     1
102
RTVSPropertyOp32
 70
     1
102
RTVSPropertyOp33
 70
     1
102
RTVSPropertyOp34
 70
     1
102
RTVSPropertyOp35
 70
     1
102
RTVSPropertyOp36
 70
     1
102
RTVSPropertyOp37
 70
     1
102
RTVSPropertyOp38
 70
     1
102
RTVSPropertyOp39
 70
     1
102
RTVSPropertyOp40
 70
     1
102
RTVSPropertyOp41
 70
     1
102
RTVSPropertyOp42
 70
     1
102
RTVSPropertyOp43
 70
     1
102
RTVSPropertyOp44
 70
     1
102
RTVSPropertyOp45
 70
     1
102
RTVSPropertyOp46
 70
     1
102
RTVSPropertyOp47
 70
     1
102
RTVSPropertyOp48
 70
     1
102
RTVSPropertyOp49
 70
     1
102
RTVSPropertyOp50
 70
     1
102
RTVSPropertyOp51
 70
     0
102
RTVSPropertyOp52
 70
     0
102
RTVSPropertyOp53
 70
     1
102
RTVSPropertyOp54
 70
     1
102
RTVSPropertyOp55
 70
     1
102
RTVSPropertyOp56
 70
     1
102
RTVSPropertyOp57
 70
     1
102
RTVSPropertyOp58
 70
     1
102
RTVSPropertyOp59
 70
     1
102
RTVSPropertyOp60
 70
     1
102
RTVSPropertyOp61
 70
     1
102
RTVSPropertyOp62
 70
     1
  0
ENDSEC
  0
EOF
